  0
SECTION
  2
HEADER
  9
$ACADVER
  1
AC1015
  9
$ACADMAINTVER
 70
     6
  9
$DWGCODEPAGE
  3
ANSI_932
  9
$INSBASE
 10
-2463.443661489918
 20
291.5290865425935
 30
0.0
  9
$EXTMIN
 10
-3618.443661489917
 20
-1219.881765532329
 30
0.0
  9
$EXTMAX
 10
-1308.443661489919
 20
442.1182344676718
 30
0.0
  9
$LIMMIN
 10
-3618.443661489917
 20
-1219.881765532329
  9
$LIMMAX
 10
-1308.443661489919
 20
442.1182344676718
  9
$ORTHOMODE
 70
     0
  9
$REGENMODE
 70
     0
  9
$FILLMODE
 70
     1
  9
$QTEXTMODE
 70
     0
  9
$MIRRTEXT
 70
     1
  9
$LTSCALE
 40
1.0
  9
$ATTMODE
 70
     1
  9
$TEXTSIZE
 40
5.0
  9
$TRACEWID
 40
0.05
  9
$TEXTSTYLE
  7
Standard
  9
$CLAYER
  8
1
  9
$CELTYPE
  6
Continuous
  9
$CECOLOR
 62
     7
  9
$CELTSCALE
 40
1.0
  9
$DISPSILH
 70
     0
  9
$DIMSCALE
 40
1.0
  9
$DIMASZ
 40
3.0
  9
$DIMEXO
 40
1.0
  9
$DIMDLI
 40
10.0
  9
$DIMRND
 40
0.0
  9
$DIMDLE
 40
1.0
  9
$DIMEXE
 40
1.0
  9
$DIMTP
 40
0.0
  9
$DIMTM
 40
0.0
  9
$DIMTXT
 40
5.0
  9
$DIMCEN
 40
0.09
  9
$DIMTSZ
 40
0.0
  9
$DIMTOL
 70
     0
  9
$DIMLIM
 70
     0
  9
$DIMTIH
 70
     0
  9
$DIMTOH
 70
     0
  9
$DIMSE1
 70
     0
  9
$DIMSE2
 70
     0
  9
$DIMTAD
 70
     1
  9
$DIMZIN
 70
     8
  9
$DIMBLK
  1
OPEN30
  9
$DIMASO
 70
     1
  9
$DIMSHO
 70
     0
  9
$DIMPOST
  1

  9
$DIMAPOST
  1

  9
$DIMALT
 70
     0
  9
$DIMALTD
 70
     3
  9
$DIMALTF
 40
25.4
  9
$DIMLFAC
 40
1.0
  9
$DIMTOFL
 70
     0
  9
$DIMTVP
 40
0.0
  9
$DIMTIX
 70
     0
  9
$DIMSOXD
 70
     0
  9
$DIMSAH
 70
     0
  9
$DIMBLK1
  1
OPEN30
  9
$DIMBLK2
  1
OPEN30
  9
$DIMSTYLE
  2
Standard
  9
$DIMCLRD
 70
     1
  9
$DIMCLRE
 70
     1
  9
$DIMCLRT
 70
     7
  9
$DIMTFAC
 40
0.65
  9
$DIMGAP
 40
1.0
  9
$DIMJUST
 70
     0
  9
$DIMSD1
 70
     0
  9
$DIMSD2
 70
     0
  9
$DIMTOLJ
 70
     1
  9
$DIMTZIN
 70
     0
  9
$DIMALTZ
 70
     0
  9
$DIMALTTZ
 70
     0
  9
$DIMUPT
 70
     0
  9
$DIMDEC
 70
     2
  9
$DIMTDEC
 70
     2
  9
$DIMALTU
 70
     2
  9
$DIMALTTD
 70
     2
  9
$DIMTXSTY
  7
WinFont9
  9
$DIMAUNIT
 70
     0
  9
$DIMADEC
 70
     3
  9
$DIMALTRND
 40
0.0
  9
$DIMAZIN
 70
     2
  9
$DIMDSEP
 70
    46
  9
$DIMATFIT
 70
     3
  9
$DIMFRAC
 70
     0
  9
$DIMLDRBLK
  1

  9
$DIMLUNIT
 70
     2
  9
$DIMLWD
 70
    -1
  9
$DIMLWE
 70
    -1
  9
$DIMTMOVE
 70
     0
  9
$LUNITS
 70
     2
  9
$LUPREC
 70
     4
  9
$SKETCHINC
 40
0.1
  9
$FILLETRAD
 40
0.0
  9
$AUNITS
 70
     0
  9
$AUPREC
 70
     0
  9
$MENU
  1
ACAD
  9
$ELEVATION
 40
0.0
  9
$PELEVATION
 40
0.0
  9
$THICKNESS
 40
0.0
  9
$LIMCHECK
 70
     0
  9
$CHAMFERA
 40
0.0
  9
$CHAMFERB
 40
0.0
  9
$CHAMFERC
 40
0.0
  9
$CHAMFERD
 40
0.0
  9
$SKPOLY
 70
     0
  9
$TDCREATE
 40
2305814.375
  9
$TDUCREATE
 40
25432550.0
  9
$TDUPDATE
 40
2457962.401839699
  9
$TDUUPDATE
 40
2457962.026839699
  9
$TDINDWG
 40
0.0
  9
$TDUSRTIMER
 40
0.0
  9
$USRTIMER
 70
     1
  9
$ANGBASE
 50
0.0
  9
$ANGDIR
 70
     0
  9
$PDMODE
 70
    65
  9
$PDSIZE
 40
0.2
  9
$PLINEWID
 40
0.0
  9
$SPLFRAME
 70
     0
  9
$SPLINETYPE
 70
     6
  9
$SPLINESEGS
 70
     8
  9
$HANDSEED
  5
4AA
  9
$SURFTAB1
 70
     6
  9
$SURFTAB2
 70
     6
  9
$SURFTYPE
 70
     6
  9
$SURFU
 70
     6
  9
$SURFV
 70
     6
  9
$UCSBASE
  2

  9
$UCSNAME
  2

  9
$UCSORG
 10
0.0
 20
0.0
 30
0.0
  9
$UCSXDIR
 10
1.0
 20
0.0
 30
0.0
  9
$UCSYDIR
 10
0.0
 20
1.0
 30
0.0
  9
$UCSORTHOREF
  2

  9
$UCSORTHOVIEW
 70
     0
  9
$UCSORGTOP
 10
0.0
 20
0.0
 30
0.0
  9
$UCSORGBOTTOM
 10
0.0
 20
0.0
 30
0.0
  9
$UCSORGLEFT
 10
0.0
 20
0.0
 30
0.0
  9
$UCSORGRIGHT
 10
0.0
 20
0.0
 30
0.0
  9
$UCSORGFRONT
 10
0.0
 20
0.0
 30
0.0
  9
$UCSORGBACK
 10
0.0
 20
0.0
 30
0.0
  9
$PUCSBASE
  2

  9
$PUCSNAME
  2

  9
$PUCSORG
 10
0.0
 20
0.0
 30
0.0
  9
$PUCSXDIR
 10
1.0
 20
0.0
 30
0.0
  9
$PUCSYDIR
 10
0.0
 20
1.0
 30
0.0
  9
$PUCSORTHOREF
  2

  9
$PUCSORTHOVIEW
 70
     0
  9
$PUCSORGTOP
 10
0.0
 20
0.0
 30
0.0
  9
$PUCSORGBOTTOM
 10
0.0
 20
0.0
 30
0.0
  9
$PUCSORGLEFT
 10
0.0
 20
0.0
 30
0.0
  9
$PUCSORGRIGHT
 10
0.0
 20
0.0
 30
0.0
  9
$PUCSORGFRONT
 10
0.0
 20
0.0
 30
0.0
  9
$PUCSORGBACK
 10
0.0
 20
0.0
 30
0.0
  9
$USERI1
 70
     0
  9
$USERI2
 70
     0
  9
$USERI3
 70
     0
  9
$USERI4
 70
     0
  9
$USERI5
 70
     0
  9
$USERR1
 40
0.0
  9
$USERR2
 40
0.0
  9
$USERR3
 40
0.0
  9
$USERR4
 40
0.0
  9
$USERR5
 40
0.0
  9
$WORLDVIEW
 70
     1
  9
$SHADEDGE
 70
     3
  9
$SHADEDIF
 70
    70
  9
$TILEMODE
 70
     1
  9
$MAXACTVP
 70
    64
  9
$PINSBASE
 10
0.0
 20
0.0
 30
0.0
  9
$PLIMCHECK
 70
     0
  9
$PEXTMIN
 10
1.000000000000000E+20
 20
1.000000000000000E+20
 30
1.000000000000000E+20
  9
$PEXTMAX
 10
-1.000000000000000E+20
 20
-1.000000000000000E+20
 30
-1.000000000000000E+20
  9
$PLIMMIN
 10
0.0
 20
0.0
  9
$PLIMMAX
 10
12.0
 20
9.0
  9
$UNITMODE
 70
     0
  9
$VISRETAIN
 70
     1
  9
$PLINEGEN
 70
     0
  9
$PSLTSCALE
 70
     1
  9
$TREEDEPTH
 70
  3020
  9
$CMLSTYLE
  2
Standard
  9
$CMLJUST
 70
     0
  9
$CMLSCALE
 40
1.0
  9
$PROXYGRAPHICS
 70
     1
  9
$MEASUREMENT
 70
     0
  9
$CELWEIGHT
370
    -1
  9
$ENDCAPS
280
     0
  9
$JOINSTYLE
280
     0
  9
$LWDISPLAY
290
     0
  9
$INSUNITS
 70
     1
  9
$HYPERLINKBASE
  1

  9
$STYLESHEET
  1

  9
$XEDIT
290
     1
  9
$CEPSNTYPE
380
     0
  9
$PSTYLEMODE
290
     1
  9
$FINGERPRINTGUID
  2
{411D5BD3-98AE-4780-895F-08752C0D1FFB}
  9
$VERSIONGUID
  2
{FAEB1C32-E019-11D5-929B-00C0DF256EC4}
  9
$EXTNAMES
290
     1
  9
$PSVPSCALE
 40
0.0
  9
$OLESTARTUP
290
     0
  0
ENDSEC
  0
SECTION
  2
CLASSES
  0
CLASS
  1
ACDBDICTIONARYWDFLT
  2
AcDbDictionaryWithDefault
  3
ObjectDBX Classes
 90
        0
280
     0
281
     0
  0
CLASS
  1
VISUALSTYLE
  2
AcDbVisualStyle
  3
ObjectDBX Classes
 90
     4095
280
     0
281
     0
  0
CLASS
  1
MATERIAL
  2
AcDbMaterial
  3
ObjectDBX Classes
 90
     1153
280
     0
281
     0
  0
CLASS
  1
SCALE
  2
AcDbScale
  3
ObjectDBX Classes
 90
     1153
280
     0
281
     0
  0
CLASS
  1
TABLESTYLE
  2
AcDbTableStyle
  3
ObjectDBX Classes
 90
     4095
280
     0
281
     0
  0
CLASS
  1
MLEADERSTYLE
  2
AcDbMLeaderStyle
  3
ACDB_MLEADERSTYLE_CLASS
 90
     4095
280
     0
281
     0
  0
CLASS
  1
SUN
  2
AcDbSun
  3
SCENEOE
 90
     1153
280
     0
281
     0
  0
CLASS
  1
DICTIONARYVAR
  2
AcDbDictionaryVar
  3
ObjectDBX Classes
 90
        0
280
     0
281
     0
  0
CLASS
  1
ACDBPLACEHOLDER
  2
AcDbPlaceHolder
  3
ObjectDBX Classes
 90
        0
280
     0
281
     0
  0
CLASS
  1
LAYOUT
  2
AcDbLayout
  3
ObjectDBX Classes
 90
        0
280
     0
281
     0
  0
ENDSEC
  0
SECTION
  2
TABLES
  0
TABLE
  2
VPORT
  5
8
102
{ACAD_XDICTIONARY
360
46D
102
}
330
0
100
AcDbSymbolTable
 70
     1
  0
VPORT
  5
29
330
8
100
AcDbSymbolTableRecord
100
AcDbViewportTableRecord
  2
*Active
 70
     0
 10
0.0
 20
0.0
 11
1.0
 21
1.0
 12
1154.999999999999
 22
831.0000000000002
 13
0.0
 23
0.0
 14
0.5
 24
0.5
 15
0.5
 25
0.5
 16
0.0
 26
0.0
 36
1.0
 17
0.0
 27
0.0
 37
0.0
 40
1662.0
 41
1.389891696750901
 42
50.0
 43
0.0
 44
0.0
 50
0.0
 51
0.0
 71
     0
 72
   100
 73
     1
 74
     3
 75
     0
 76
     0
 77
     0
 78
     0
281
     0
 65
     1
110
0.0
120
0.0
130
0.0
111
1.0
121
0.0
131
0.0
112
0.0
122
1.0
132
0.0
 79
     0
146
0.0
  0
ENDTAB
  0
TABLE
  2
LTYPE
  5
5
330
0
100
AcDbSymbolTable
 70
    17
  0
LTYPE
  5
14
330
5
100
AcDbSymbolTableRecord
100
AcDbLinetypeTableRecord
  2
ByBlock
 70
     0
  3

 72
    65
 73
     0
 40
0.0
  0
LTYPE
  5
15
330
5
100
AcDbSymbolTableRecord
100
AcDbLinetypeTableRecord
  2
ByLayer
 70
     0
  3

 72
    65
 73
     0
 40
0.0
  0
LTYPE
  5
16
330
5
100
AcDbSymbolTableRecord
100
AcDbLinetypeTableRecord
  2
Continuous
 70
     0
  3
Solid line
 72
    65
 73
     0
 40
0.0
  0
LTYPE
  5
6E
330
5
100
AcDbSymbolTableRecord
100
AcDbLinetypeTableRecord
  2
DIVIDE
 70
     0
  3
Divide ____ . . ____ . . ____ . . ____ . . ____
 72
    65
 73
     6
 40
1.25
 49
0.5
 74
     0
 49
-0.25
 74
     0
 49
0.0
 74
     0
 49
-0.25
 74
     0
 49
0.0
 74
     0
 49
-0.25
 74
     0
  0
LTYPE
  5
6F
330
5
100
AcDbSymbolTableRecord
100
AcDbLinetypeTableRecord
  2
HIDDEN
 70
     0
  3
Hidden __ __ __ __ __ __ __ __ __ __ __ __ __ _
 72
    65
 73
     2
 40
9.525
 49
6.35
 74
     0
 49
-3.175
 74
     0
  0
LTYPE
  5
70
330
5
100
AcDbSymbolTableRecord
100
AcDbLinetypeTableRecord
  2
HIDDEN2
 70
     0
  3
Hidden (.5x) _ _ _ _ _ _ _ _ _ _ _ _ _ _ _ _ _
 72
    65
 73
     2
 40
4.7625
 49
3.175
 74
     0
 49
-1.5875
 74
     0
  0
LTYPE
  5
71
330
5
100
AcDbSymbolTableRecord
100
AcDbLinetypeTableRecord
  2
CENTER2
 70
     0
  3
Center (.5x) ___ _ ___ _ ___ _ ___ _ ___ _ ___
 72
    65
 73
     4
 40
28.575
 49
19.05
 74
     0
 49
-3.175
 74
     0
 49
3.175
 74
     0
 49
-3.175
 74
     0
  0
LTYPE
  5
72
330
5
100
AcDbSymbolTableRecord
100
AcDbLinetypeTableRecord
  2
PHANTOM2
 70
     0
  3
Phantom (.5x) ___ _ _ ___ _ _ ___ _ _ ___ _ _
 72
    65
 73
     6
 40
31.75
 49
15.875
 74
     0
 49
-3.175
 74
     0
 49
3.175
 74
     0
 49
-3.175
 74
     0
 49
3.175
 74
     0
 49
-3.175
 74
     0
  0
LTYPE
  5
73
330
5
100
AcDbSymbolTableRecord
100
AcDbLinetypeTableRecord
  2
DASHED
 70
     0
  3
Dashed __ __ __ __ __ __ __ __ __ __ __ __ __ _
 72
    65
 73
     2
 40
19.05
 49
12.7
 74
     0
 49
-6.35
 74
     0
  0
LTYPE
  5
74
330
5
100
AcDbSymbolTableRecord
100
AcDbLinetypeTableRecord
  2
CENTER
 70
     0
  3
Center ____ _ ____ _ ____ _ ____ _ ____ _ ____
 72
    65
 73
     4
 40
50.8
 49
31.75
 74
     0
 49
-6.35
 74
     0
 49
6.35
 74
     0
 49
-6.35
 74
     0
  0
LTYPE
  5
75
330
5
100
AcDbSymbolTableRecord
100
AcDbLinetypeTableRecord
  2
PHANTOM
 70
     0
  3
Phantom ______  __  __  ______  __  __  ______
 72
    65
 73
     6
 40
63.5
 49
31.75
 74
     0
 49
-6.35
 74
     0
 49
6.35
 74
     0
 49
-6.35
 74
     0
 49
6.35
 74
     0
 49
-6.35
 74
     0
  0
LTYPE
  5
76
330
5
100
AcDbSymbolTableRecord
100
AcDbLinetypeTableRecord
  2
BORDER2
 70
     0
  3
Border (.5x) __.__.__.__.__.__.__.__.__.__.__.
 72
    65
 73
     6
 40
22.225
 49
6.35
 74
     0
 49
-3.175
 74
     0
 49
6.35
 74
     0
 49
-3.175
 74
     0
 49
0.0
 74
     0
 49
-3.175
 74
     0
  0
LTYPE
  5
77
330
5
100
AcDbSymbolTableRecord
100
AcDbLinetypeTableRecord
  2
HIDDENX2
 70
     0
  3
Hidden (2x) ____ ____ ____ ____ ____ ____ ____
 72
    65
 73
     2
 40
19.05
 49
12.7
 74
     0
 49
-6.35
 74
     0
  0
LTYPE
  5
78
330
5
100
AcDbSymbolTableRecord
100
AcDbLinetypeTableRecord
  2
DOTX2
 70
     0
  3
Dot (2x) .  .  .  .  .  .  .  .  .  .  .  .  . 
 72
    65
 73
     2
 40
12.7
 49
0.0
 74
     0
 49
-12.7
 74
     0
  0
LTYPE
  5
79
330
5
100
AcDbSymbolTableRecord
100
AcDbLinetypeTableRecord
  2
DASHDOTX2
 70
     0
  3
Dash dot (2x) ____  .  ____  .  ____  .  ___
 72
    65
 73
     4
 40
50.8
 49
25.4
 74
     0
 49
-12.7
 74
     0
 49
0.0
 74
     0
 49
-12.7
 74
     0
  0
LTYPE
  5
7A
330
5
100
AcDbSymbolTableRecord
100
AcDbLinetypeTableRecord
  2
DIVIDEX2
 70
     0
  3
Divide (2x) ________  .  .  ________  .  .  _
 72
    65
 73
     6
 40
63.5
 49
25.4
 74
     0
 49
-12.7
 74
     0
 49
0.0
 74
     0
 49
-12.7
 74
     0
 49
0.0
 74
     0
 49
-12.7
 74
     0
  0
LTYPE
  5
7B
330
5
100
AcDbSymbolTableRecord
100
AcDbLinetypeTableRecord
  2
DASHEDX2
 70
     0
  3
Dashed (2x) ____  ____  ____  ____  ____  ___
 72
    65
 73
     2
 40
38.1
 49
25.4
 74
     0
 49
-12.7
 74
     0
  0
LTYPE
  5
7C
330
5
100
AcDbSymbolTableRecord
100
AcDbLinetypeTableRecord
  2
CENTERX2
 70
     0
  3
Center (2x) ________  __  ________  __  _____
 72
    65
 73
     4
 40
101.6
 49
63.5
 74
     0
 49
-12.7
 74
     0
 49
12.7
 74
     0
 49
-12.7
 74
     0
  0
LTYPE
  5
7D
330
5
100
AcDbSymbolTableRecord
100
AcDbLinetypeTableRecord
  2
PHANTOMX2
 70
     0
  3
Phantom (2x) ____________    ____    ____   _
 72
    65
 73
     6
 40
127.0
 49
63.5
 74
     0
 49
-12.7
 74
     0
 49
12.7
 74
     0
 49
-12.7
 74
     0
 49
12.7
 74
     0
 49
-12.7
 74
     0
  0
ENDTAB
  0
TABLE
  2
LAYER
  5
2
330
0
100
AcDbSymbolTable
 70
     7
  0
LAYER
  5
10
330
2
100
AcDbSymbolTableRecord
100
AcDbLayerTableRecord
  2
0
 70
     0
 62
     7
  6
Continuous
370
    -3
390
F
  0
LAYER
  5
7E
330
2
100
AcDbSymbolTableRecord
100
AcDbLayerTableRecord
  2
1
 70
     0
 62
     7
  6
Continuous
370
     0
390
F
  0
LAYER
  5
7F
330
2
100
AcDbSymbolTableRecord
100
AcDbLayerTableRecord
  2
2
 70
     0
 62
     7
  6
Continuous
370
     0
390
F
  0
LAYER
  5
80
330
2
100
AcDbSymbolTableRecord
100
AcDbLayerTableRecord
  2
6
 70
     0
 62
     7
  6
Continuous
370
     0
390
F
  0
LAYER
  5
81
330
2
100
AcDbSymbolTableRecord
100
AcDbLayerTableRecord
  2
25
 70
     0
 62
     7
  6
Continuous
370
     0
390
F
  0
LAYER
  5
82
330
2
100
AcDbSymbolTableRecord
100
AcDbLayerTableRecord
  2
26
 70
     0
 62
     7
  6
Continuous
370
     0
390
F
  0
LAYER
  5
83
330
2
100
AcDbSymbolTableRecord
100
AcDbLayerTableRecord
  2
DEFPOINTS
 70
     0
 62
     3
  6
DIVIDE
290
     0
370
     0
390
F
  0
ENDTAB
  0
TABLE
  2
STYLE
  5
3
330
0
100
AcDbSymbolTable
 70
    53
  0
STYLE
  5
11
330
3
100
AcDbSymbolTableRecord
100
AcDbTextStyleTableRecord
  2
Standard
 70
     0
 40
0.0
 41
0.8
 50
0.0
 71
     0
 42
5.0
  3
MONOTXT.shx
  4
EXTFONT.shx
  0
STYLE
  5
84
330
3
100
AcDbSymbolTableRecord
100
AcDbTextStyleTableRecord
  2
DIMSTANDARD
 70
     0
 40
0.0
 41
1.0
 50
0.0
 71
     0
 42
5.0
  3
MONOTXT.shx
  4
EXTFONT.shx
  0
STYLE
  5
B3
330
3
100
AcDbSymbolTableRecord
100
AcDbTextStyleTableRecord
  2
MTSTANDARD
 70
     0
 40
0.0
 41
1.0
 50
0.0
 71
     0
 42
5.0
  3
MONOTXT.shx
  4
EXTFONT.shx
  0
STYLE
  5
B4
330
3
100
AcDbSymbolTableRecord
100
AcDbTextStyleTableRecord
  2
MTSTANDARD1
 70
     0
 40
0.0
 41
1.333338
 50
0.0
 71
     0
 42
5.0
  3
MONOTXT.shx
  4
EXTFONT.shx
  0
STYLE
  5
B9
330
3
100
AcDbSymbolTableRecord
100
AcDbTextStyleTableRecord
  2
MTSTANDARD2
 70
     0
 40
0.0
 41
0.8666680000000001
 50
0.0
 71
     0
 42
5.0
  3
MONOTXT.shx
  4
EXTFONT.shx
  0
STYLE
  5
BD
330
3
100
AcDbSymbolTableRecord
100
AcDbTextStyleTableRecord
  2
MTSTANDARD3
 70
     0
 40
0.0
 41
1.008342546245919
 50
0.0
 71
     0
 42
5.0
  3
MONOTXT.shx
  4
EXTFONT.shx
  0
STYLE
  5
BF
330
3
100
AcDbSymbolTableRecord
100
AcDbTextStyleTableRecord
  2
MTSTANDARD4
 70
     0
 40
0.0
 41
0.866668
 50
0.0
 71
     0
 42
5.0
  3
MONOTXT.shx
  4
EXTFONT.shx
  0
STYLE
  5
D5
330
3
100
AcDbSymbolTableRecord
100
AcDbTextStyleTableRecord
  2
MTSTANDARD5
 70
     0
 40
0.0
 41
1.017579513184584
 50
0.0
 71
     0
 42
5.0
  3
MONOTXT.shx
  4
EXTFONT.shx
  0
STYLE
  5
E3
330
3
100
AcDbSymbolTableRecord
100
AcDbTextStyleTableRecord
  2
MTSTANDARD6
 70
     0
 40
0.0
 41
1.0
 50
0.0
 71
     0
 42
5.0
  3
MONOTXT.shx
  4
EXTFONT.shx
  0
STYLE
  5
EA
330
3
100
AcDbSymbolTableRecord
100
AcDbTextStyleTableRecord
  2
MTSTANDARD7
 70
     0
 40
0.0
 41
1.0
 50
0.0
 71
     0
 42
5.0
  3
MONOTXT.shx
  4
EXTFONT.shx
  0
STYLE
  5
EC
330
3
100
AcDbSymbolTableRecord
100
AcDbTextStyleTableRecord
  2
MTSTANDARD8
 70
     0
 40
0.0
 41
1.0
 50
0.0
 71
     0
 42
5.0
  3
MONOTXT.shx
  4
EXTFONT.shx
  0
STYLE
  5
F7
330
3
100
AcDbSymbolTableRecord
100
AcDbTextStyleTableRecord
  2
MTSTANDARD9
 70
     0
 40
0.0
 41
1.054708333333333
 50
0.0
 71
     0
 42
5.0
  3
MONOTXT.shx
  4
EXTFONT.shx
  0
STYLE
  5
F9
330
3
100
AcDbSymbolTableRecord
100
AcDbTextStyleTableRecord
  2
MTSTANDARD10
 70
     0
 40
0.0
 41
1.333333333333333
 50
0.0
 71
     0
 42
5.0
  3
MONOTXT.shx
  4
EXTFONT.shx
  0
STYLE
  5
100
330
3
100
AcDbSymbolTableRecord
100
AcDbTextStyleTableRecord
  2
MTSTANDARD11
 70
     0
 40
0.0
 41
0.6247912652533317
 50
0.0
 71
     0
 42
5.0
  3
MONOTXT.shx
  4
EXTFONT.shx
  0
STYLE
  5
10B
330
3
100
AcDbSymbolTableRecord
100
AcDbTextStyleTableRecord
  2
MTSTANDARD12
 70
     0
 40
0.0
 41
0.9780443113772456
 50
0.0
 71
     0
 42
5.0
  3
MONOTXT.shx
  4
EXTFONT.shx
  0
STYLE
  5
10D
330
3
100
AcDbSymbolTableRecord
100
AcDbTextStyleTableRecord
  2
MTSTANDARD13
 70
     0
 40
0.0
 41
0.9523815668202765
 50
0.0
 71
     0
 42
5.0
  3
MONOTXT.shx
  4
EXTFONT.shx
  0
STYLE
  5
110
330
3
100
AcDbSymbolTableRecord
100
AcDbTextStyleTableRecord
  2
MTSTANDARD14
 70
     0
 40
0.0
 41
1.002433284671533
 50
0.0
 71
     0
 42
5.0
  3
MONOTXT.shx
  4
EXTFONT.shx
  0
STYLE
  5
112
330
3
100
AcDbSymbolTableRecord
100
AcDbTextStyleTableRecord
  2
MTSTANDARD15
 70
     0
 40
0.0
 41
1.117206982543641
 50
0.0
 71
     0
 42
5.0
  3
MONOTXT.shx
  4
EXTFONT.shx
  0
STYLE
  5
114
330
3
100
AcDbSymbolTableRecord
100
AcDbTextStyleTableRecord
  2
MTSTANDARD16
 70
     0
 40
0.0
 41
1.005818952618454
 50
0.0
 71
     0
 42
5.0
  3
MONOTXT.shx
  4
EXTFONT.shx
  0
STYLE
  5
116
330
3
100
AcDbSymbolTableRecord
100
AcDbTextStyleTableRecord
  2
MTSTANDARD17
 70
     0
 40
0.0
 41
0.9903920177383592
 50
0.0
 71
     0
 42
5.0
  3
MONOTXT.shx
  4
EXTFONT.shx
  0
STYLE
  5
2D6
330
3
100
AcDbSymbolTableRecord
100
AcDbTextStyleTableRecord
  2
WinFont1
 70
     0
 40
0.0
 41
0.8
 50
0.0
 71
     0
 42
5.0
  3

  4

1001
ACAD
1000
MS PGothic
1071
    32768
  0
STYLE
  5
2E9
330
3
100
AcDbSymbolTableRecord
100
AcDbTextStyleTableRecord
  2
WinFont2
 70
     0
 40
0.0
 41
0.8
 50
0.0
 71
     0
 42
5.0
  3

  4

1001
ACAD
1000
MS PGothic
1071
    32768
  0
STYLE
  5
2F8
330
3
100
AcDbSymbolTableRecord
100
AcDbTextStyleTableRecord
  2
WinFont3
 70
     0
 40
0.0
 41
0.8
 50
0.0
 71
     0
 42
5.0
  3

  4

1001
ACAD
1000
MS PGothic
1071
    32768
  0
STYLE
  5
307
330
3
100
AcDbSymbolTableRecord
100
AcDbTextStyleTableRecord
  2
WinFont4
 70
     0
 40
0.0
 41
0.8
 50
0.0
 71
     0
 42
5.0
  3

  4

1001
ACAD
1000
MS PGothic
1071
    32768
  0
STYLE
  5
316
330
3
100
AcDbSymbolTableRecord
100
AcDbTextStyleTableRecord
  2
WinFont5
 70
     0
 40
0.0
 41
0.8
 50
0.0
 71
     0
 42
5.0
  3

  4

1001
ACAD
1000
MS PGothic
1071
    32768
  0
STYLE
  5
329
330
3
100
AcDbSymbolTableRecord
100
AcDbTextStyleTableRecord
  2
WinFont6
 70
     0
 40
0.0
 41
0.8
 50
0.0
 71
     0
 42
5.0
  3

  4

1001
ACAD
1000
MS PGothic
1071
    32768
  0
STYLE
  5
39E
330
3
100
AcDbSymbolTableRecord
100
AcDbTextStyleTableRecord
  2
WinFont7
 70
     0
 40
0.0
 41
0.8
 50
0.0
 71
     0
 42
5.0
  3

  4

1001
ACAD
1000
MS Gothic
1071
    32768
  0
STYLE
  5
3B3
330
3
100
AcDbSymbolTableRecord
100
AcDbTextStyleTableRecord
  2
WinFont8
 70
     0
 40
0.0
 41
0.8
 50
0.0
 71
     0
 42
5.0
  3

  4

1001
ACAD
1000
MS Gothic
1071
    32768
  0
STYLE
  5
3C5
330
3
100
AcDbSymbolTableRecord
100
AcDbTextStyleTableRecord
  2
WinFont9
 70
     0
 40
0.0
 41
0.8
 50
0.0
 71
     0
 42
5.0
  3

  4

1001
ACAD
1000
MS Gothic
1071
    32768
  0
STYLE
  5
3C9
330
3
100
AcDbSymbolTableRecord
100
AcDbTextStyleTableRecord
  2
MTSTANDARD18
 70
     0
 40
0.0
 41
0.9903920177383592
 50
0.0
 71
     0
 42
5.0
  3
MONOTXT.shx
  4
EXTFONT.shx
  0
STYLE
  5
3CD
330
3
100
AcDbSymbolTableRecord
100
AcDbTextStyleTableRecord
  2
MTSTANDARD19
 70
     0
 40
0.0
 41
1.005818952618454
 50
0.0
 71
     0
 42
5.0
  3
MONOTXT.shx
  4
EXTFONT.shx
  0
STYLE
  5
3CF
330
3
100
AcDbSymbolTableRecord
100
AcDbTextStyleTableRecord
  2
MTSTANDARD20
 70
     0
 40
0.0
 41
1.002433284671533
 50
0.0
 71
     0
 42
5.0
  3
MONOTXT.shx
  4
EXTFONT.shx
  0
STYLE
  5
3D2
330
3
100
AcDbSymbolTableRecord
100
AcDbTextStyleTableRecord
  2
MTSTANDARD21
 70
     0
 40
0.0
 41
1.278404509973981
 50
0.0
 71
     0
 42
5.0
  3
MONOTXT.shx
  4
EXTFONT.shx
  0
STYLE
  5
3D5
330
3
100
AcDbSymbolTableRecord
100
AcDbTextStyleTableRecord
  2
MTSTANDARD22
 70
     0
 40
0.0
 41
1.00834254624592
 50
0.0
 71
     0
 42
5.0
  3
MONOTXT.shx
  4
EXTFONT.shx
  0
STYLE
  5
3E1
330
3
100
AcDbSymbolTableRecord
100
AcDbTextStyleTableRecord
  2
MTSTANDARD23
 70
     0
 40
0.0
 41
1.2
 50
0.0
 71
     0
 42
5.0
  3
MONOTXT.shx
  4
EXTFONT.shx
  0
STYLE
  5
3E5
330
3
100
AcDbSymbolTableRecord
100
AcDbTextStyleTableRecord
  2
MTSTANDARD24
 70
     0
 40
0.0
 41
1.307314657415438
 50
0.0
 71
     0
 42
5.0
  3
MONOTXT.shx
  4
EXTFONT.shx
  0
STYLE
  5
3E9
330
3
100
AcDbSymbolTableRecord
100
AcDbTextStyleTableRecord
  2
MTSTANDARD25
 70
     0
 40
0.0
 41
1.249494535993062
 50
0.0
 71
     0
 42
5.0
  3
MONOTXT.shx
  4
EXTFONT.shx
  0
STYLE
  5
3FB
330
3
100
AcDbSymbolTableRecord
100
AcDbTextStyleTableRecord
  2
MTSTANDARD26
 70
     0
 40
0.0
 41
0.9780443113772455
 50
0.0
 71
     0
 42
5.0
  3
MONOTXT.shx
  4
EXTFONT.shx
  0
STYLE
  5
3FD
330
3
100
AcDbSymbolTableRecord
100
AcDbTextStyleTableRecord
  2
MTSTANDARD27
 70
     0
 40
0.0
 41
1.379418433179723
 50
0.0
 71
     0
 42
5.0
  3
MONOTXT.shx
  4
EXTFONT.shx
  0
STYLE
  5
3FF
330
3
100
AcDbSymbolTableRecord
100
AcDbTextStyleTableRecord
  2
MTSTANDARD28
 70
     0
 40
0.0
 41
0.9523815668202765
 50
0.0
 71
     0
 42
5.0
  3
MONOTXT.shx
  4
EXTFONT.shx
  0
STYLE
  5
409
330
3
100
AcDbSymbolTableRecord
100
AcDbTextStyleTableRecord
  2
MTSTANDARD29
 70
     0
 40
0.0
 41
1.261314160583942
 50
0.0
 71
     0
 42
5.0
  3
MONOTXT.shx
  4
EXTFONT.shx
  0
STYLE
  5
40B
330
3
100
AcDbSymbolTableRecord
100
AcDbTextStyleTableRecord
  2
MTSTANDARD30
 70
     0
 40
0.0
 41
1.16
 50
0.0
 71
     0
 42
5.0
  3
MONOTXT.shx
  4
EXTFONT.shx
  0
STYLE
  5
413
330
3
100
AcDbSymbolTableRecord
100
AcDbTextStyleTableRecord
  2
MTSTANDARD31
 70
     0
 40
0.0
 41
1.163990948905109
 50
0.0
 71
     0
 42
5.0
  3
MONOTXT.shx
  4
EXTFONT.shx
  0
STYLE
  5
41C
330
3
100
AcDbSymbolTableRecord
100
AcDbTextStyleTableRecord
  2
MTSTANDARD32
 70
     0
 40
0.0
 41
1.255490419161677
 50
0.0
 71
     0
 42
5.0
  3
MONOTXT.shx
  4
EXTFONT.shx
  0
STYLE
  5
421
330
3
100
AcDbSymbolTableRecord
100
AcDbTextStyleTableRecord
  2
MTSTANDARD33
 70
     0
 40
0.0
 41
1.072199078341014
 50
0.0
 71
     0
 42
5.0
  3
MONOTXT.shx
  4
EXTFONT.shx
  0
STYLE
  5
428
330
3
100
AcDbSymbolTableRecord
100
AcDbTextStyleTableRecord
  2
MTSTANDARD34
 70
     0
 40
0.0
 41
0.8
 50
0.0
 71
     0
 42
5.0
  3
MONOTXT.shx
  4
EXTFONT.shx
  0
STYLE
  5
42E
330
3
100
AcDbSymbolTableRecord
100
AcDbTextStyleTableRecord
  2
MTSTANDARD35
 70
     0
 40
0.0
 41
0.9940131736526946
 50
0.0
 71
     0
 42
5.0
  3
MONOTXT.shx
  4
EXTFONT.shx
  0
STYLE
  5
430
330
3
100
AcDbSymbolTableRecord
100
AcDbTextStyleTableRecord
  2
MTSTANDARD36
 70
     0
 40
0.0
 41
0.9563942350332595
 50
0.0
 71
     0
 42
5.0
  3
MONOTXT.shx
  4
EXTFONT.shx
  0
STYLE
  5
432
330
3
100
AcDbSymbolTableRecord
100
AcDbTextStyleTableRecord
  2
MTSTANDARD37
 70
     0
 40
0.0
 41
1.03030243902439
 50
0.0
 71
     0
 42
5.0
  3
MONOTXT.shx
  4
EXTFONT.shx
  0
STYLE
  5
434
330
3
100
AcDbSymbolTableRecord
100
AcDbTextStyleTableRecord
  2
MTSTANDARD38
 70
     0
 40
0.0
 41
0.8824829268292683
 50
0.0
 71
     0
 42
5.0
  3
MONOTXT.shx
  4
EXTFONT.shx
  0
STYLE
  5
436
330
3
100
AcDbSymbolTableRecord
100
AcDbTextStyleTableRecord
  2
MTSTANDARD39
 70
     0
 40
0.0
 41
0.7346634146341464
 50
0.0
 71
     0
 42
5.0
  3
MONOTXT.shx
  4
EXTFONT.shx
  0
STYLE
  5
438
330
3
100
AcDbSymbolTableRecord
100
AcDbTextStyleTableRecord
  2
MTSTANDARD40
 70
     0
 40
0.0
 41
0.8942107784431138
 50
0.0
 71
     0
 42
5.0
  3
MONOTXT.shx
  4
EXTFONT.shx
  0
STYLE
  5
43F
330
3
100
AcDbSymbolTableRecord
100
AcDbTextStyleTableRecord
  2
MTSTANDARD41
 70
     0
 40
0.0
 41
1.220584388551605
 50
0.0
 71
     0
 42
5.0
  3
MONOTXT.shx
  4
EXTFONT.shx
  0
ENDTAB
  0
TABLE
  2
VIEW
  5
6
330
0
100
AcDbSymbolTable
 70
     0
  0
ENDTAB
  0
TABLE
  2
UCS
  5
7
330
0
100
AcDbSymbolTable
 70
     0
  0
ENDTAB
  0
TABLE
  2
APPID
  5
9
330
0
100
AcDbSymbolTable
 70
     2
  0
APPID
  5
12
330
9
100
AcDbSymbolTableRecord
100
AcDbRegAppTableRecord
  2
ACAD
 70
     0
  0
APPID
  5
4A7
330
9
100
AcDbSymbolTableRecord
100
AcDbRegAppTableRecord
  2
ACAD_MLEADERVER
 70
     0
  0
ENDTAB
  0
TABLE
  2
DIMSTYLE
  5
A
330
0
100
AcDbSymbolTable
 70
    11
100
AcDbDimStyleTable
  0
DIMSTYLE
105
27
330
A
100
AcDbSymbolTableRecord
100
AcDbDimStyleTableRecord
  2
Standard
 70
     0
 41
3.0
 42
1.0
 43
10.0
 44
1.0
 73
     0
 74
     0
 77
     3
 78
     8
 79
     2
140
5.0
141
0.0
146
0.65
147
1.0
176
     1
177
     1
271
     3
178
     7
179
     3
271
     3
340
11
342
89
371
    -1
372
    -1
  0
DIMSTYLE
105
2D7
102
{ACAD_REACTORS
330
2D8
102
}
330
A
100
AcDbSymbolTableRecord
100
AcDbDimStyleTableRecord
  2
DIMSTYEX_1
 70
     0
 41
15.0
 42
1.0
 43
0.0
 44
1.0
 73
     0
 74
     0
 77
     3
 78
     8
 79
     2
140
35.84
141
0.0
146
0.65
147
1.0
173
     1
176
     3
177
     3
271
     2
178
     2
179
     3
271
     2
272
     2
340
2D6
342
89
343
89
344
89
371
    -1
372
    -1
  0
DIMSTYLE
105
2EA
102
{ACAD_REACTORS
330
2EB
102
}
330
A
100
AcDbSymbolTableRecord
100
AcDbDimStyleTableRecord
  2
DIMSTYEX_2
 70
     0
 41
15.0
 42
1.0
 43
0.0
 44
1.0
 73
     0
 74
     0
 77
     3
 78
     8
 79
     2
140
35.84
141
0.0
146
0.65
147
2.0
173
     1
176
     3
177
     3
271
     2
178
     2
179
     3
271
     2
272
     2
340
2E9
342
89
343
89
344
89
371
    -1
372
    -1
  0
DIMSTYLE
105
2F9
102
{ACAD_REACTORS
330
2FA
102
}
330
A
100
AcDbSymbolTableRecord
100
AcDbDimStyleTableRecord
  2
DIMSTYEX_3
 70
     0
 41
15.0
 42
1.0
 43
0.0
 44
1.0
 73
     0
 74
     0
 77
     3
 78
     8
 79
     2
140
35.84
141
0.0
146
0.65
147
1.0
173
     1
176
     3
177
     3
271
     2
178
     2
179
     3
271
     2
272
     2
340
2F8
342
89
343
89
344
89
371
    -1
372
    -1
  0
DIMSTYLE
105
308
102
{ACAD_REACTORS
330
309
102
}
330
A
100
AcDbSymbolTableRecord
100
AcDbDimStyleTableRecord
  2
DIMSTYEX_4
 70
     0
 41
15.0
 42
1.0
 43
0.0
 44
1.0
 73
     0
 74
     0
 77
     3
 78
     8
 79
     2
140
35.84
141
0.0
146
0.65
147
1.0
173
     1
176
     3
177
     3
271
     2
178
     2
179
     3
271
     2
272
     2
340
307
342
89
343
89
344
89
371
    -1
372
    -1
  0
DIMSTYLE
105
317
102
{ACAD_REACTORS
330
318
102
}
330
A
100
AcDbSymbolTableRecord
100
AcDbDimStyleTableRecord
  2
DIMSTYEX_5
 70
     0
 41
15.0
 42
1.0
 43
0.0
 44
1.0
 73
     0
 74
     0
 77
     3
 78
     8
 79
     2
140
35.84
141
0.0
146
0.65
147
1.0
173
     1
176
     3
177
     3
271
     2
178
     2
179
     3
271
     2
272
     2
340
316
342
89
343
89
344
89
371
    -1
372
    -1
  0
DIMSTYLE
105
32A
102
{ACAD_REACTORS
330
32B
102
}
330
A
100
AcDbSymbolTableRecord
100
AcDbDimStyleTableRecord
  2
DIMSTYEX_6
 70
     0
 41
15.0
 42
1.0
 43
0.0
 44
1.0
 73
     0
 74
     0
 77
     3
 78
     8
 79
     2
140
35.84
141
0.0
146
0.65
147
1.0
173
     1
176
     3
177
     3
271
     2
178
     2
179
     3
271
     2
272
     2
340
329
342
89
343
89
344
89
371
    -1
372
    -1
  0
DIMSTYLE
105
39F
102
{ACAD_REACTORS
330
3A0
102
}
330
A
100
AcDbSymbolTableRecord
100
AcDbDimStyleTableRecord
  2
DIMSTYEX_7
 70
     0
 41
12.5
 42
1.0
 43
0.0
 44
1.0
 73
     0
 74
     0
 77
     3
 78
     8
 79
     2
140
35.84
141
0.0
146
0.65
147
1.0
173
     1
176
     3
177
     3
271
     2
178
     2
179
     3
271
     2
272
     2
340
39E
342
89
343
89
344
89
371
    -1
372
    -1
  0
DIMSTYLE
105
3B4
102
{ACAD_REACTORS
330
3B5
102
}
330
A
100
AcDbSymbolTableRecord
100
AcDbDimStyleTableRecord
  2
DIMSTYEX_8
 70
     0
 41
12.5
 42
2.0
 43
0.0
 44
1.0
 73
     0
 74
     0
 77
     3
 78
     8
 79
     2
140
35.84
141
0.0
146
0.65
147
1.0
173
     1
176
     3
177
     3
271
     2
178
     2
179
     3
271
     2
272
     2
340
3B3
342
89
343
89
344
89
371
    -1
372
    -1
  0
DIMSTYLE
105
3B7
330
A
100
AcDbSymbolTableRecord
100
AcDbDimStyleTableRecord
  2
DIMSTYEX_9
 70
     0
 41
12.5
 42
1.0
 43
10.0
 44
1.0
 73
     0
 74
     0
 77
     3
 78
     8
 79
     2
140
5.0
141
0.0
146
0.65
147
1.0
176
     3
177
     3
271
     3
178
     2
179
     3
271
     3
340
11
341
89
342
89
371
    -1
372
    -1
  0
DIMSTYLE
105
3C6
102
{ACAD_REACTORS
330
3C7
102
}
330
A
100
AcDbSymbolTableRecord
100
AcDbDimStyleTableRecord
  2
DIMSTYEX_10
 70
     0
 41
12.5
 42
1.0
 43
0.0
 44
1.0
 73
     0
 74
     0
 77
     3
 78
     8
 79
     2
140
35.84
141
0.0
146
0.65
147
1.0
173
     1
176
     3
177
     3
271
     2
178
     2
179
     3
271
     2
272
     2
340
3C5
342
89
343
89
344
89
371
    -1
372
    -1
  0
ENDTAB
  0
TABLE
  2
BLOCK_RECORD
  5
1
330
0
100
AcDbSymbolTable
 70
    20
  0
BLOCK_RECORD
  5
1F
330
1
100
AcDbSymbolTableRecord
100
AcDbBlockTableRecord
  2
*Model_Space
340
22
  0
BLOCK_RECORD
  5
1B
330
1
100
AcDbSymbolTableRecord
100
AcDbBlockTableRecord
  2
*Paper_Space
340
1E
  0
BLOCK_RECORD
  5
85
330
1
100
AcDbSymbolTableRecord
100
AcDbBlockTableRecord
  2
_SMALL
340
0
  0
BLOCK_RECORD
  5
89
330
1
100
AcDbSymbolTableRecord
100
AcDbBlockTableRecord
  2
_OPEN30
340
0
102
{BLKREFS
331
2D0
331
2D1
331
2E3
331
2E4
331
2F2
331
2F3
331
301
331
302
331
310
331
311
331
323
331
324
331
398
331
399
331
3AD
331
3AE
331
3BF
331
3C0
102
}
  0
BLOCK_RECORD
  5
8F
330
1
100
AcDbSymbolTableRecord
100
AcDbBlockTableRecord
  2
_OBLIQUE
340
0
  0
BLOCK_RECORD
  5
93
330
1
100
AcDbSymbolTableRecord
100
AcDbBlockTableRecord
  2
_DOT
340
0
  0
BLOCK_RECORD
  5
97
330
1
100
AcDbSymbolTableRecord
100
AcDbBlockTableRecord
  2
_DOTSMALL
340
0
  0
BLOCK_RECORD
  5
9B
330
1
100
AcDbSymbolTableRecord
100
AcDbBlockTableRecord
  2
_DATUMFILLED
340
0
  0
BLOCK_RECORD
  5
9F
330
1
100
AcDbSymbolTableRecord
100
AcDbBlockTableRecord
  2
DATUMFILLED2
340
0
  0
BLOCK_RECORD
  5
A3
330
1
100
AcDbSymbolTableRecord
100
AcDbBlockTableRecord
  2
_DATUMBLANK
340
0
  0
BLOCK_RECORD
  5
A9
330
1
100
AcDbSymbolTableRecord
100
AcDbBlockTableRecord
  2
DATUMBLANK2
340
0
  0
BLOCK_RECORD
  5
AF
330
1
100
AcDbSymbolTableRecord
100
AcDbBlockTableRecord
  2
_NONE
340
0
  0
BLOCK_RECORD
  5
2CA
330
1
100
AcDbSymbolTableRecord
100
AcDbBlockTableRecord
  2
_D1
340
0
  0
BLOCK_RECORD
  5
2D9
330
1
100
AcDbSymbolTableRecord
100
AcDbBlockTableRecord
  2
_D2
340
0
  0
BLOCK_RECORD
  5
2EC
330
1
100
AcDbSymbolTableRecord
100
AcDbBlockTableRecord
  2
_D3
340
0
  0
BLOCK_RECORD
  5
2FB
330
1
100
AcDbSymbolTableRecord
100
AcDbBlockTableRecord
  2
_D4
340
0
  0
BLOCK_RECORD
  5
30A
330
1
100
AcDbSymbolTableRecord
100
AcDbBlockTableRecord
  2
_D5
340
0
  0
BLOCK_RECORD
  5
319
330
1
100
AcDbSymbolTableRecord
100
AcDbBlockTableRecord
  2
_D6
340
0
  0
BLOCK_RECORD
  5
392
330
1
100
AcDbSymbolTableRecord
100
AcDbBlockTableRecord
  2
_D7
340
0
  0
BLOCK_RECORD
  5
3A7
330
1
100
AcDbSymbolTableRecord
100
AcDbBlockTableRecord
  2
_D8
340
0
  0
BLOCK_RECORD
  5
3B9
330
1
100
AcDbSymbolTableRecord
100
AcDbBlockTableRecord
  2
_D9
340
0
  0
ENDTAB
  0
ENDSEC
  0
SECTION
  2
BLOCKS
  0
BLOCK
  5
20
330
1F
100
AcDbEntity
  8
0
100
AcDbBlockBegin
  2
*Model_Space
 70
     0
 10
0.0
 20
0.0
 30
0.0
  3
*Model_Space
  1

  0
ENDBLK
  5
21
330
1F
100
AcDbEntity
  8
0
100
AcDbBlockEnd
  0
BLOCK
  5
1C
330
1B
100
AcDbEntity
 67
     1
  8
0
100
AcDbBlockBegin
  2
*Paper_Space
 70
     0
 10
0.0
 20
0.0
 30
0.0
  3
*Paper_Space
  1

  0
ENDBLK
  5
1D
330
1B
100
AcDbEntity
 67
     1
  8
0
100
AcDbBlockEnd
  0
BLOCK
  5
86
330
85
100
AcDbEntity
  8
0
100
AcDbBlockBegin
  2
_SMALL
 70
     0
 10
0.0
 20
0.0
 30
0.0
  3
_SMALL
  1

  0
CIRCLE
  5
88
330
85
100
AcDbEntity
  8
0
  6
ByBlock
 62
     0
370
    -2
100
AcDbCircle
 10
0.0
 20
0.0
 30
0.0
 40
0.1666666666
  0
CIRCLE
  5
457
330
85
100
AcDbEntity
  8
0
  6
ByBlock
 62
     0
370
    -2
100
AcDbCircle
 10
0.0
 20
0.0
 30
0.0
 40
0.1666666666
  0
ENDBLK
  5
87
330
85
100
AcDbEntity
  8
0
100
AcDbBlockEnd
  0
BLOCK
  5
8A
330
89
100
AcDbEntity
  8
0
100
AcDbBlockBegin
  2
_OPEN30
 70
     0
 10
0.0
 20
0.0
 30
0.0
  3
_OPEN30
  1

  0
LINE
  5
8C
330
89
100
AcDbEntity
  8
0
  6
ByBlock
 62
     0
370
    -2
100
AcDbLine
 10
-1.0
 20
0.26794919
 30
0.0
 11
0.0
 21
0.0
 31
0.0
  0
LINE
  5
8D
330
89
100
AcDbEntity
  8
0
  6
ByBlock
 62
     0
370
    -2
100
AcDbLine
 10
0.0
 20
0.0
 30
0.0
 11
-1.0
 21
-0.26794919
 31
0.0
  0
LINE
  5
8E
330
89
100
AcDbEntity
  8
0
  6
ByBlock
 62
     0
370
    -2
100
AcDbLine
 10
0.0
 20
0.0
 30
0.0
 11
-1.0
 21
0.0
 31
0.0
  0
LINE
  5
458
330
89
100
AcDbEntity
  8
0
  6
ByBlock
 62
     0
370
    -2
100
AcDbLine
 10
-1.0
 20
0.26794919
 30
0.0
 11
0.0
 21
0.0
 31
0.0
  0
LINE
  5
459
330
89
100
AcDbEntity
  8
0
  6
ByBlock
 62
     0
370
    -2
100
AcDbLine
 10
0.0
 20
0.0
 30
0.0
 11
-1.0
 21
-0.26794919
 31
0.0
  0
LINE
  5
45A
330
89
100
AcDbEntity
  8
0
  6
ByBlock
 62
     0
370
    -2
100
AcDbLine
 10
0.0
 20
0.0
 30
0.0
 11
-1.0
 21
0.0
 31
0.0
  0
ENDBLK
  5
8B
330
89
100
AcDbEntity
  8
0
100
AcDbBlockEnd
  0
BLOCK
  5
90
330
8F
100
AcDbEntity
  8
0
100
AcDbBlockBegin
  2
_OBLIQUE
 70
     0
 10
0.0
 20
0.0
 30
0.0
  3
_OBLIQUE
  1

  0
LINE
  5
92
330
8F
100
AcDbEntity
  8
0
  6
ByBlock
 62
     0
370
    -2
100
AcDbLine
 10
-0.5
 20
-0.5
 30
0.0
 11
0.5
 21
0.5
 31
0.0
  0
LINE
  5
45B
330
8F
100
AcDbEntity
  8
0
  6
ByBlock
 62
     0
370
    -2
100
AcDbLine
 10
-0.5
 20
-0.5
 30
0.0
 11
0.5
 21
0.5
 31
0.0
  0
ENDBLK
  5
91
330
8F
100
AcDbEntity
  8
0
100
AcDbBlockEnd
  0
BLOCK
  5
94
330
93
100
AcDbEntity
  8
0
100
AcDbBlockBegin
  2
_DOT
 70
     0
 10
0.0
 20
0.0
 30
0.0
  3
_DOT
  1

  0
LWPOLYLINE
  5
96
330
93
100
AcDbEntity
  8
0
  6
ByBlock
 62
     0
370
    -2
100
AcDbPolyline
 90
        2
 70
     1
 43
0.5
 10
-0.25
 20
0.0
 42
1.0
 10
0.25
 20
0.0
 42
1.0
  0
LWPOLYLINE
  5
45C
330
93
100
AcDbEntity
  8
0
  6
ByBlock
 62
     0
370
    -2
100
AcDbPolyline
 90
        2
 70
     1
 43
0.5
 10
-0.25
 20
0.0
 42
1.0
 10
0.25
 20
0.0
 42
1.0
  0
ENDBLK
  5
95
330
93
100
AcDbEntity
  8
0
100
AcDbBlockEnd
  0
BLOCK
  5
98
330
97
100
AcDbEntity
  8
0
100
AcDbBlockBegin
  2
_DOTSMALL
 70
     0
 10
0.0
 20
0.0
 30
0.0
  3
_DOTSMALL
  1

  0
LWPOLYLINE
  5
9A
330
97
100
AcDbEntity
  8
0
  6
ByBlock
 62
     0
370
    -2
100
AcDbPolyline
 90
        2
 70
     1
 43
0.5
 10
-0.0625
 20
0.0
 42
1.0
 10
0.0625
 20
0.0
 42
1.0
  0
LWPOLYLINE
  5
45D
330
97
100
AcDbEntity
  8
0
  6
ByBlock
 62
     0
370
    -2
100
AcDbPolyline
 90
        2
 70
     1
 43
0.5
 10
-0.0625
 20
0.0
 42
1.0
 10
0.0625
 20
0.0
 42
1.0
  0
ENDBLK
  5
99
330
97
100
AcDbEntity
  8
0
100
AcDbBlockEnd
  0
BLOCK
  5
9C
330
9B
100
AcDbEntity
  8
0
100
AcDbBlockBegin
  2
_DATUMFILLED
 70
     0
 10
0.0
 20
0.0
 30
0.0
  3
_DATUMFILLED
  1

  0
SOLID
  5
9E
330
9B
100
AcDbEntity
  8
0
  6
ByBlock
 62
     0
370
    -2
100
AcDbTrace
 10
0.0
 20
0.57735027
 30
0.0
 11
-1.0
 21
0.0
 31
0.0
 12
0.0
 22
-0.57735027
 32
0.0
 13
0.0
 23
-0.57735027
 33
0.0
  0
SOLID
  5
45E
330
9B
100
AcDbEntity
  8
0
  6
ByBlock
 62
     0
370
    -2
100
AcDbTrace
 10
0.0
 20
0.57735027
 30
0.0
 11
-1.0
 21
0.0
 31
0.0
 12
0.0
 22
-0.57735027
 32
0.0
 13
0.0
 23
-0.57735027
 33
0.0
  0
ENDBLK
  5
9D
330
9B
100
AcDbEntity
  8
0
100
AcDbBlockEnd
  0
BLOCK
  5
A0
330
9F
100
AcDbEntity
  8
0
100
AcDbBlockBegin
  2
DATUMFILLED2
 70
     0
 10
0.0
 20
0.0
 30
0.0
  3
DATUMFILLED2
  1

  0
SOLID
  5
A2
330
9F
100
AcDbEntity
  8
0
  6
ByBlock
 62
     0
370
    -2
100
AcDbTrace
 10
0.0
 20
1.0
 30
0.0
 11
-1.0
 21
0.0
 31
0.0
 12
0.0
 22
-1.0
 32
0.0
 13
0.0
 23
-1.0
 33
0.0
  0
SOLID
  5
45F
330
9F
100
AcDbEntity
  8
0
  6
ByBlock
 62
     0
370
    -2
100
AcDbTrace
 10
0.0
 20
1.0
 30
0.0
 11
-1.0
 21
0.0
 31
0.0
 12
0.0
 22
-1.0
 32
0.0
 13
0.0
 23
-1.0
 33
0.0
  0
ENDBLK
  5
A1
330
9F
100
AcDbEntity
  8
0
100
AcDbBlockEnd
  0
BLOCK
  5
A4
330
A3
100
AcDbEntity
  8
0
100
AcDbBlockBegin
  2
_DATUMBLANK
 70
     0
 10
0.0
 20
0.0
 30
0.0
  3
_DATUMBLANK
  1

  0
LINE
  5
A6
330
A3
100
AcDbEntity
  8
0
  6
ByBlock
 62
     0
370
    -2
100
AcDbLine
 10
0.0
 20
0.57735027
 30
0.0
 11
-1.0
 21
0.0
 31
0.0
  0
LINE
  5
A7
330
A3
100
AcDbEntity
  8
0
  6
ByBlock
 62
     0
370
    -2
100
AcDbLine
 10
-1.0
 20
0.0
 30
0.0
 11
0.0
 21
-0.57735027
 31
0.0
  0
LINE
  5
A8
330
A3
100
AcDbEntity
  8
0
  6
ByBlock
 62
     0
370
    -2
100
AcDbLine
 10
0.0
 20
-0.57735027
 30
0.0
 11
0.0
 21
0.57735027
 31
0.0
  0
LINE
  5
460
330
A3
100
AcDbEntity
  8
0
  6
ByBlock
 62
     0
370
    -2
100
AcDbLine
 10
0.0
 20
0.57735027
 30
0.0
 11
-1.0
 21
0.0
 31
0.0
  0
LINE
  5
461
330
A3
100
AcDbEntity
  8
0
  6
ByBlock
 62
     0
370
    -2
100
AcDbLine
 10
-1.0
 20
0.0
 30
0.0
 11
0.0
 21
-0.57735027
 31
0.0
  0
LINE
  5
462
330
A3
100
AcDbEntity
  8
0
  6
ByBlock
 62
     0
370
    -2
100
AcDbLine
 10
0.0
 20
-0.57735027
 30
0.0
 11
0.0
 21
0.57735027
 31
0.0
  0
ENDBLK
  5
A5
330
A3
100
AcDbEntity
  8
0
100
AcDbBlockEnd
  0
BLOCK
  5
AA
330
A9
100
AcDbEntity
  8
0
100
AcDbBlockBegin
  2
DATUMBLANK2
 70
     0
 10
0.0
 20
0.0
 30
0.0
  3
DATUMBLANK2
  1

  0
LINE
  5
AC
330
A9
100
AcDbEntity
  8
0
  6
ByBlock
 62
     0
370
    -2
100
AcDbLine
 10
0.0
 20
1.0
 30
0.0
 11
-1.0
 21
0.0
 31
0.0
  0
LINE
  5
AD
330
A9
100
AcDbEntity
  8
0
  6
ByBlock
 62
     0
370
    -2
100
AcDbLine
 10
-1.0
 20
0.0
 30
0.0
 11
0.0
 21
-1.0
 31
0.0
  0
LINE
  5
AE
330
A9
100
AcDbEntity
  8
0
  6
ByBlock
 62
     0
370
    -2
100
AcDbLine
 10
0.0
 20
-1.0
 30
0.0
 11
0.0
 21
1.0
 31
0.0
  0
LINE
  5
463
330
A9
100
AcDbEntity
  8
0
  6
ByBlock
 62
     0
370
    -2
100
AcDbLine
 10
0.0
 20
1.0
 30
0.0
 11
-1.0
 21
0.0
 31
0.0
  0
LINE
  5
464
330
A9
100
AcDbEntity
  8
0
  6
ByBlock
 62
     0
370
    -2
100
AcDbLine
 10
-1.0
 20
0.0
 30
0.0
 11
0.0
 21
-1.0
 31
0.0
  0
LINE
  5
465
330
A9
100
AcDbEntity
  8
0
  6
ByBlock
 62
     0
370
    -2
100
AcDbLine
 10
0.0
 20
-1.0
 30
0.0
 11
0.0
 21
1.0
 31
0.0
  0
ENDBLK
  5
AB
330
A9
100
AcDbEntity
  8
0
100
AcDbBlockEnd
  0
BLOCK
  5
B0
330
AF
100
AcDbEntity
  8
0
100
AcDbBlockBegin
  2
_NONE
 70
     0
 10
0.0
 20
0.0
 30
0.0
  3
_NONE
  1

  0
ENDBLK
  5
B1
330
AF
100
AcDbEntity
  8
0
100
AcDbBlockEnd
  0
BLOCK
  5
2CB
330
2CA
100
AcDbEntity
  8
0
100
AcDbBlockBegin
  2
_D1
 70
     0
 10
0.0
 20
0.0
 30
0.0
  3
_D1
  1

  0
LINE
  5
2CD
330
2CA
100
AcDbEntity
  8
1
  6
ByBlock
 62
     3
100
AcDbLine
 10
-3314.906939618629
 20
-491.3804421471366
 30
0.0
 11
-3314.906939618628
 21
-539.6208970958676
 31
0.0
  0
LINE
  5
2CE
330
2CA
100
AcDbEntity
  8
1
  6
ByBlock
 62
     3
100
AcDbLine
 10
-3314.906939618629
 20
-538.6208970958676
 30
0.0
 11
-2964.911607567724
 21
-538.6208970958676
 31
0.0
  0
LINE
  5
2CF
330
2CA
100
AcDbEntity
  8
1
  6
ByBlock
 62
     3
100
AcDbLine
 10
-2964.911607567724
 20
-491.3804421471366
 30
0.0
 11
-2964.911607567724
 21
-539.6208970958676
 31
0.0
  0
INSERT
  5
2D0
330
2CA
100
AcDbEntity
  8
1
  6
ByBlock
 62
     3
100
AcDbBlockReference
  2
_OPEN30
 10
-3314.906939618629
 20
-538.6208970958676
 30
0.0
 41
14.77211629518297
 42
14.77211629518297
 43
14.77211629518297
 50
180.0
  0
INSERT
  5
2D1
330
2CA
100
AcDbEntity
  8
1
  6
ByBlock
 62
     3
100
AcDbBlockReference
  2
_OPEN30
 10
-2964.911607567724
 20
-538.6208970958676
 30
0.0
 41
14.77211629518297
 42
14.77211629518297
 43
14.77211629518297
  0
MTEXT
  5
2D2
330
2CA
100
AcDbEntity
  8
1
  6
Continuous
 62
     2
100
AcDbMText
 10
-3150.909273593176
 20
-537.6208970958676
 30
0.0
 40
40.0
 41
0.0
 71
     7
 72
     5
  1
{\fＭＳ Ｐゴシック|b0|i0|c128|p50;\W1.0;L}
  7
MTSTANDARD7
 73
     1
 44
0.6300203125
  0
POINT
  5
2D3
330
2CA
100
AcDbEntity
  8
DEFPOINTS
  6
ByBlock
 62
     3
100
AcDbPoint
 10
-3314.906939618629
 20
-490.3804421471366
 30
0.0
  0
POINT
  5
2D4
330
2CA
100
AcDbEntity
  8
DEFPOINTS
  6
ByBlock
 62
     3
100
AcDbPoint
 10
-2964.911607567724
 20
-490.3804421471366
 30
0.0
  0
POINT
  5
2D5
330
2CA
100
AcDbEntity
  8
DEFPOINTS
  6
ByBlock
 62
     3
100
AcDbPoint
 10
-2964.911607567724
 20
-538.6208970958676
 30
0.0
  0
ENDBLK
  5
2CC
330
2CA
100
AcDbEntity
  8
0
100
AcDbBlockEnd
  0
BLOCK
  5
2DA
330
2D9
100
AcDbEntity
  8
0
100
AcDbBlockBegin
  2
_D2
 70
     0
 10
0.0
 20
0.0
 30
0.0
  3
_D2
  1

  0
LINE
  5
2DC
330
2D9
100
AcDbEntity
  8
1
  6
ByBlock
 62
     3
100
AcDbLine
 10
-3024.410814016374
 20
-453.0777390363708
 30
0.0
 11
-3024.410814016374
 21
-402.9953237779198
 31
0.0
  0
LINE
  5
2DD
330
2D9
100
AcDbEntity
  8
1
  6
ByBlock
 62
     3
100
AcDbLine
 10
-3024.410814016374
 20
-403.9953237779198
 30
0.0
 11
-3048.410814016374
 21
-403.9953237779198
 31
0.0
  0
LINE
  5
2DE
330
2D9
100
AcDbEntity
  8
1
  6
ByBlock
 62
     3
100
AcDbLine
 10
-2991.411254137286
 20
-403.9953237779198
 30
0.0
 11
-2967.411254137286
 21
-403.9953237779198
 31
0.0
  0
LINE
  5
2DF
330
2D9
100
AcDbEntity
  8
1
  6
ByBlock
 62
     3
100
AcDbLine
 10
-3024.410814016374
 20
-403.9953237779198
 30
0.0
 11
-3007.91103407683
 21
-403.9953237779198
 31
0.0
  0
LINE
  5
2E0
330
2D9
100
AcDbEntity
  8
1
  6
ByBlock
 62
     3
100
AcDbLine
 10
-2991.411254137286
 20
-403.9953237779198
 30
0.0
 11
-3007.91103407683
 21
-403.9953237779198
 31
0.0
  0
LINE
  5
2E1
330
2D9
100
AcDbEntity
  8
1
  6
ByBlock
 62
     3
100
AcDbLine
 10
-2991.411254137287
 20
-453.0777390363708
 30
0.0
 11
-2991.411254137286
 21
-402.9953237779198
 31
0.0
  0
LINE
  5
2E2
330
2D9
100
AcDbEntity
  8
1
  6
ByBlock
 62
     3
100
AcDbLine
 10
-3024.410814016374
 20
-403.9953237779198
 30
0.0
 11
-2991.411254137286
 21
-403.9953237779198
 31
0.0
  0
INSERT
  5
2E3
330
2D9
100
AcDbEntity
  8
1
  6
ByBlock
 62
     3
100
AcDbBlockReference
  2
_OPEN30
 10
-3024.410814016374
 20
-403.9953237779198
 30
0.0
 41
14.77211629518297
 42
14.77211629518297
 43
14.77211629518297
  0
INSERT
  5
2E4
330
2D9
100
AcDbEntity
  8
1
  6
ByBlock
 62
     3
100
AcDbBlockReference
  2
_OPEN30
 10
-2991.411254137286
 20
-403.9953237779198
 30
0.0
 41
14.77211629518297
 42
14.77211629518297
 43
14.77211629518297
 50
180.0
  0
MTEXT
  5
2E5
330
2D9
100
AcDbEntity
  8
1
  6
Continuous
 62
     2
100
AcDbMText
 10
-3081.911034076829
 20
-401.9953237779198
 30
0.0
 40
40.0
 41
0.0
 71
     7
 72
     5
  1
{\fＭＳ Ｐゴシック|b0|i0|c128|p50;\W1.0;P(33mm)}
  7
MTSTANDARD7
 73
     1
 44
0.6300203125
  0
POINT
  5
2E6
330
2D9
100
AcDbEntity
  8
DEFPOINTS
  6
ByBlock
 62
     3
100
AcDbPoint
 10
-3024.410814016374
 20
-454.0777390363708
 30
0.0
  0
POINT
  5
2E7
330
2D9
100
AcDbEntity
  8
DEFPOINTS
  6
ByBlock
 62
     3
100
AcDbPoint
 10
-2991.411254137286
 20
-454.0777390363708
 30
0.0
  0
POINT
  5
2E8
330
2D9
100
AcDbEntity
  8
DEFPOINTS
  6
ByBlock
 62
     3
100
AcDbPoint
 10
-2991.411254137286
 20
-403.9953237779198
 30
0.0
  0
ENDBLK
  5
2DB
330
2D9
100
AcDbEntity
  8
0
100
AcDbBlockEnd
  0
BLOCK
  5
2ED
330
2EC
100
AcDbEntity
  8
0
100
AcDbBlockBegin
  2
_D3
 70
     0
 10
0.0
 20
0.0
 30
0.0
  3
_D3
  1

  0
LINE
  5
2EF
330
2EC
100
AcDbEntity
  8
1
  6
ByBlock
 62
     3
100
AcDbLine
 10
-2659.14557226736
 20
135.9143921351545
 30
0.0
 11
-2606.1349811917
 21
135.9143921351545
 31
0.0
  0
LINE
  5
2F0
330
2EC
100
AcDbEntity
  8
1
  6
ByBlock
 62
     3
100
AcDbLine
 10
-2607.1349811917
 20
135.9143921351545
 30
0.0
 11
-2607.1349811917
 21
-214.0809399157522
 31
0.0
  0
LINE
  5
2F1
330
2EC
100
AcDbEntity
  8
1
  6
ByBlock
 62
     3
100
AcDbLine
 10
-2659.14557226736
 20
-214.0809399157522
 30
0.0
 11
-2606.1349811917
 21
-214.0809399157522
 31
0.0
  0
INSERT
  5
2F2
330
2EC
100
AcDbEntity
  8
1
  6
ByBlock
 62
     3
100
AcDbBlockReference
  2
_OPEN30
 10
-2607.1349811917
 20
135.9143921351545
 30
0.0
 41
14.77211629518312
 42
14.77211629518312
 43
14.77211629518312
 50
90.0
  0
INSERT
  5
2F3
330
2EC
100
AcDbEntity
  8
1
  6
ByBlock
 62
     3
100
AcDbBlockReference
  2
_OPEN30
 10
-2607.1349811917
 20
-214.0809399157522
 30
0.0
 41
14.77211629518311
 42
14.77211629518311
 43
14.77211629518311
 50
270.0
  0
MTEXT
  5
2F4
330
2EC
100
AcDbEntity
  8
1
  6
Continuous
 62
     2
100
AcDbMText
 10
-2608.1349811917
 20
-54.08327389029887
 30
0.0
 40
40.0
 41
0.0
 71
     7
 72
     5
  1
{\fＭＳ Ｐゴシック|b0|i0|c128|p50;\W1.0;W}
  7
MTSTANDARD7
 11
0.0
 21
1.0
 31
0.0
 73
     1
 44
0.6300203125
  0
POINT
  5
2F5
330
2EC
100
AcDbEntity
  8
DEFPOINTS
  6
ByBlock
 62
     3
100
AcDbPoint
 10
-2660.145572267361
 20
135.9143921351545
 30
0.0
  0
POINT
  5
2F6
330
2EC
100
AcDbEntity
  8
DEFPOINTS
  6
ByBlock
 62
     3
100
AcDbPoint
 10
-2660.145572267361
 20
-214.0809399157522
 30
0.0
  0
POINT
  5
2F7
330
2EC
100
AcDbEntity
  8
DEFPOINTS
  6
ByBlock
 62
     3
100
AcDbPoint
 10
-2607.1349811917
 20
-214.0809399157522
 30
0.0
  0
ENDBLK
  5
2EE
330
2EC
100
AcDbEntity
  8
0
100
AcDbBlockEnd
  0
BLOCK
  5
2FC
330
2FB
100
AcDbEntity
  8
0
100
AcDbBlockBegin
  2
_D4
 70
     0
 10
0.0
 20
0.0
 30
0.0
  3
_D4
  1

  0
LINE
  5
2FE
330
2FB
100
AcDbEntity
  8
1
  6
ByBlock
 62
     3
100
AcDbLine
 10
-3349.906472823754
 20
-250.0804731209116
 30
0.0
 11
-3349.906472823754
 21
-311.0804731209116
 31
0.0
  0
LINE
  5
2FF
330
2FB
100
AcDbEntity
  8
1
  6
ByBlock
 62
     3
100
AcDbLine
 10
-3349.906472823754
 20
-310.0804731209116
 30
0.0
 11
-2929.9120743626
 21
-310.0804731209116
 31
0.0
  0
LINE
  5
300
330
2FB
100
AcDbEntity
  8
1
  6
ByBlock
 62
     3
100
AcDbLine
 10
-2929.9120743626
 20
-250.0804731209116
 30
0.0
 11
-2929.9120743626
 21
-311.0804731209116
 31
0.0
  0
INSERT
  5
301
330
2FB
100
AcDbEntity
  8
1
  6
ByBlock
 62
     3
100
AcDbBlockReference
  2
_OPEN30
 10
-3349.906472823754
 20
-310.0804731209116
 30
0.0
 41
14.77211629518297
 42
14.77211629518297
 43
14.77211629518297
 50
180.0
  0
INSERT
  5
302
330
2FB
100
AcDbEntity
  8
1
  6
ByBlock
 62
     3
100
AcDbBlockReference
  2
_OPEN30
 10
-2929.9120743626
 20
-310.0804731209116
 30
0.0
 41
14.77211629518297
 42
14.77211629518297
 43
14.77211629518297
  0
MTEXT
  5
303
330
2FB
100
AcDbEntity
  8
1
  6
Continuous
 62
     2
100
AcDbMText
 10
-3155.909273593177
 20
-309.0804731209116
 30
0.0
 40
40.0
 41
0.0
 71
     7
 72
     5
  1
{\fＭＳ Ｐゴシック|b0|i0|c128|p50;\W1.0;Ｂ}
  7
MTSTANDARD7
 73
     1
 44
0.6300203125
  0
POINT
  5
304
330
2FB
100
AcDbEntity
  8
DEFPOINTS
  6
ByBlock
 62
     3
100
AcDbPoint
 10
-3349.906472823754
 20
-249.0804731209116
 30
0.0
  0
POINT
  5
305
330
2FB
100
AcDbEntity
  8
DEFPOINTS
  6
ByBlock
 62
     3
100
AcDbPoint
 10
-2929.9120743626
 20
-249.0804731209116
 30
0.0
  0
POINT
  5
306
330
2FB
100
AcDbEntity
  8
DEFPOINTS
  6
ByBlock
 62
     3
100
AcDbPoint
 10
-2929.9120743626
 20
-310.0804731209116
 30
0.0
  0
ENDBLK
  5
2FD
330
2FB
100
AcDbEntity
  8
0
100
AcDbBlockEnd
  0
BLOCK
  5
30B
330
30A
100
AcDbEntity
  8
0
100
AcDbBlockBegin
  2
_D5
 70
     0
 10
0.0
 20
0.0
 30
0.0
  3
_D5
  1

  0
LINE
  5
30D
330
30A
100
AcDbEntity
  8
1
  6
ByBlock
 62
     3
100
AcDbLine
 10
-2928.912074362598
 20
170.9139253402429
 30
0.0
 11
-2867.912074362598
 21
170.9139253402429
 31
0.0
  0
LINE
  5
30E
330
30A
100
AcDbEntity
  8
1
  6
ByBlock
 62
     3
100
AcDbLine
 10
-2868.912074362598
 20
170.9139253402429
 30
0.0
 11
-2868.912074362598
 21
-249.0804731209116
 31
0.0
  0
LINE
  5
30F
330
30A
100
AcDbEntity
  8
1
  6
ByBlock
 62
     3
100
AcDbLine
 10
-2928.9120743626
 20
-249.0804731209116
 30
0.0
 11
-2867.912074362598
 21
-249.0804731209116
 31
0.0
  0
INSERT
  5
310
330
30A
100
AcDbEntity
  8
1
  6
ByBlock
 62
     3
100
AcDbBlockReference
  2
_OPEN30
 10
-2868.912074362598
 20
170.9139253402429
 30
0.0
 41
14.77211629518311
 42
14.77211629518311
 43
14.77211629518311
 50
90.0
  0
INSERT
  5
311
330
30A
100
AcDbEntity
  8
1
  6
ByBlock
 62
     3
100
AcDbBlockReference
  2
_OPEN30
 10
-2868.912074362598
 20
-249.0804731209116
 30
0.0
 41
14.77211629518311
 42
14.77211629518311
 43
14.77211629518311
 50
270.0
  0
MTEXT
  5
312
330
30A
100
AcDbEntity
  8
1
  6
Continuous
 62
     2
100
AcDbMText
 10
-2869.912074362598
 20
-53.08327389033434
 30
0.0
 40
40.0
 41
0.0
 71
     7
 72
     5
  1
{\fＭＳ Ｐゴシック|b0|i0|c128|p50;\W1.0;Ａ}
  7
MTSTANDARD7
 11
0.0
 21
1.0
 31
0.0
 73
     1
 44
0.6300203125
  0
POINT
  5
313
330
30A
100
AcDbEntity
  8
DEFPOINTS
  6
ByBlock
 62
     3
100
AcDbPoint
 10
-2929.912074362598
 20
170.9139253402429
 30
0.0
  0
POINT
  5
314
330
30A
100
AcDbEntity
  8
DEFPOINTS
  6
ByBlock
 62
     3
100
AcDbPoint
 10
-2929.9120743626
 20
-249.0804731209116
 30
0.0
  0
POINT
  5
315
330
30A
100
AcDbEntity
  8
DEFPOINTS
  6
ByBlock
 62
     3
100
AcDbPoint
 10
-2868.912074362598
 20
-249.0804731209116
 30
0.0
  0
ENDBLK
  5
30C
330
30A
100
AcDbEntity
  8
0
100
AcDbBlockEnd
  0
BLOCK
  5
31A
330
319
100
AcDbEntity
  8
0
100
AcDbBlockBegin
  2
_D6
 70
     0
 10
0.0
 20
0.0
 30
0.0
  3
_D6
  1

  0
LINE
  5
31C
330
319
100
AcDbEntity
  8
1
  6
ByBlock
 62
     3
100
AcDbLine
 10
-2696.311987405127
 20
-250.0804731208398
 30
0.0
 11
-2696.311987405127
 21
-311.0804731209116
 31
0.0
  0
LINE
  5
31D
330
319
100
AcDbEntity
  8
1
  6
ByBlock
 62
     3
100
AcDbLine
 10
-2696.311987405127
 20
-310.0804731209116
 30
0.0
 11
-2671.312320830065
 21
-310.0804731209116
 31
0.0
  0
LINE
  5
31E
330
319
100
AcDbEntity
  8
1
  6
ByBlock
 62
     3
100
AcDbLine
 10
-2696.311987405127
 20
-310.0804731209116
 30
0.0
 11
-2720.311987405127
 21
-310.0804731209116
 31
0.0
  0
LINE
  5
31F
330
319
100
AcDbEntity
  8
1
  6
ByBlock
 62
     3
100
AcDbLine
 10
-2696.311987405127
 20
-310.0804731209116
 30
0.0
 11
-2683.812154117596
 21
-310.0804731209116
 31
0.0
  0
LINE
  5
320
330
319
100
AcDbEntity
  8
1
  6
ByBlock
 62
     3
100
AcDbLine
 10
-2671.312320830065
 20
-310.0804731209116
 30
0.0
 11
-2683.812154117596
 21
-310.0804731209116
 31
0.0
  0
LINE
  5
321
330
319
100
AcDbEntity
  8
1
  6
ByBlock
 62
     3
100
AcDbLine
 10
-2671.312320830065
 20
-215.0809399157513
 30
0.0
 11
-2671.312320830065
 21
-311.0804731209116
 31
0.0
  0
LINE
  5
322
330
319
100
AcDbEntity
  8
1
  6
ByBlock
 62
     3
100
AcDbLine
 10
-2671.312320830065
 20
-310.0804731209116
 30
0.0
 11
-2638.614272175862
 21
-310.0804731209116
 31
0.0
  0
INSERT
  5
323
330
319
100
AcDbEntity
  8
1
  6
ByBlock
 62
     3
100
AcDbBlockReference
  2
_OPEN30
 10
-2696.311987405127
 20
-310.0804731209116
 30
0.0
 41
14.77211629518297
 42
14.77211629518297
 43
14.77211629518297
  0
INSERT
  5
324
330
319
100
AcDbEntity
  8
1
  6
ByBlock
 62
     3
100
AcDbBlockReference
  2
_OPEN30
 10
-2671.312320830065
 20
-310.0804731209116
 30
0.0
 41
14.77211629518297
 42
14.77211629518297
 43
14.77211629518297
 50
180.0
  0
MTEXT
  5
325
330
319
100
AcDbEntity
  8
1
  6
Continuous
 62
     2
100
AcDbMText
 10
-2665.494272175863
 20
-309.0804731209116
 30
0.0
 40
40.0
 41
0.0
 71
     7
 72
     5
  1
{\fＭＳ Ｐゴシック|b0|i0|c128|p50;\W1.0;ｈ}
  7
MTSTANDARD7
 73
     1
 44
0.6300203125
  0
POINT
  5
326
330
319
100
AcDbEntity
  8
DEFPOINTS
  6
ByBlock
 62
     3
100
AcDbPoint
 10
-2696.311987405127
 20
-249.0804731208398
 30
0.0
  0
POINT
  5
327
330
319
100
AcDbEntity
  8
DEFPOINTS
  6
ByBlock
 62
     3
100
AcDbPoint
 10
-2671.312320830065
 20
-214.0809399157513
 30
0.0
  0
POINT
  5
328
330
319
100
AcDbEntity
  8
DEFPOINTS
  6
ByBlock
 62
     3
100
AcDbPoint
 10
-2671.312320830065
 20
-310.0804731209116
 30
0.0
  0
ENDBLK
  5
31B
330
319
100
AcDbEntity
  8
0
100
AcDbBlockEnd
  0
BLOCK
  5
393
330
392
100
AcDbEntity
  8
0
100
AcDbBlockBegin
  2
_D7
 70
     0
 10
0.0
 20
0.0
 30
0.0
  3
_D7
  1

  0
LINE
  5
395
330
392
100
AcDbEntity
  8
1
  6
ByBlock
 62
     3
100
AcDbLine
 10
-1801.339864857599
 20
96.34901123737632
 30
0.0
 11
-1801.339864857599
 21
43.33842016171797
 31
0.0
  0
LINE
  5
396
330
392
100
AcDbEntity
  8
1
  6
ByBlock
 62
     3
100
AcDbLine
 10
-1801.339864857599
 20
44.33842016171798
 30
0.0
 11
-2151.335196908503
 21
44.33842016171798
 31
0.0
  0
LINE
  5
397
330
392
100
AcDbEntity
  8
1
  6
ByBlock
 62
     3
100
AcDbLine
 10
-2151.335196908503
 20
96.34901123737632
 30
0.0
 11
-2151.335196908503
 21
43.33842016171797
 31
0.0
  0
INSERT
  5
398
330
392
100
AcDbEntity
  8
1
  6
ByBlock
 62
     3
100
AcDbBlockReference
  2
_OPEN30
 10
-1801.339864857599
 20
44.33842016171798
 30
0.0
 41
12.31009691265263
 42
12.31009691265263
 43
12.31009691265263
  0
INSERT
  5
399
330
392
100
AcDbEntity
  8
1
  6
ByBlock
 62
     3
100
AcDbBlockReference
  2
_OPEN30
 10
-2151.335196908503
 20
44.33842016171798
 30
0.0
 41
12.31009691265263
 42
12.31009691265263
 43
12.31009691265263
 50
180.0
  0
MTEXT
  5
39A
330
392
100
AcDbEntity
  8
1
  6
Continuous
 62
     2
100
AcDbMText
 10
-2036.337530883051
 20
45.33842016171798
 30
0.0
 40
40.0
 41
0.0
 71
     7
 72
     5
  1
{\fＭＳ ゴシック|b0|i0|c128|p49;\W1.0;Ｗ×Ｌ}
  7
MTSTANDARD7
 73
     1
 44
0.6300203125
  0
POINT
  5
39B
330
392
100
AcDbEntity
  8
DEFPOINTS
  6
ByBlock
 62
     3
100
AcDbPoint
 10
-1801.339864857599
 20
97.34901123737632
 30
0.0
  0
POINT
  5
39C
330
392
100
AcDbEntity
  8
DEFPOINTS
  6
ByBlock
 62
     3
100
AcDbPoint
 10
-2151.335196908503
 20
97.34901123737632
 30
0.0
  0
POINT
  5
39D
330
392
100
AcDbEntity
  8
DEFPOINTS
  6
ByBlock
 62
     3
100
AcDbPoint
 10
-2151.335196908503
 20
44.33842016171798
 30
0.0
  0
ENDBLK
  5
394
330
392
100
AcDbEntity
  8
0
100
AcDbBlockEnd
  0
BLOCK
  5
3A8
330
3A7
100
AcDbEntity
  8
0
100
AcDbBlockBegin
  2
_D8
 70
     0
 10
0.0
 20
0.0
 30
0.0
  3
_D8
  1

  0
LINE
  5
3AA
330
3A7
100
AcDbEntity
  8
1
  6
ByBlock
 62
     3
100
AcDbLine
 10
-2156.337530883056
 20
-21.33464530174774
 30
0.0
 11
-2156.337530883056
 21
-20.33464530174774
 31
0.0
  0
LINE
  5
3AB
330
3A7
100
AcDbEntity
  8
1
  6
ByBlock
 62
     3
100
AcDbLine
 10
-2156.337530883056
 20
-21.33464530174774
 30
0.0
 11
-1796.337530883055
 21
-21.33464530174774
 31
0.0
  0
LINE
  5
3AC
330
3A7
100
AcDbEntity
  8
1
  6
ByBlock
 62
     3
100
AcDbLine
 10
-1796.337530883055
 20
-21.33464530174774
 30
0.0
 11
-1796.337530883055
 21
-20.33464530174774
 31
0.0
  0
INSERT
  5
3AD
330
3A7
100
AcDbEntity
  8
1
  6
ByBlock
 62
     3
100
AcDbBlockReference
  2
_OPEN30
 10
-2156.337530883056
 20
-21.33464530174774
 30
0.0
 41
12.31009691265263
 42
12.31009691265263
 43
12.31009691265263
 50
180.0
  0
INSERT
  5
3AE
330
3A7
100
AcDbEntity
  8
1
  6
ByBlock
 62
     3
100
AcDbBlockReference
  2
_OPEN30
 10
-1796.337530883055
 20
-21.33464530174774
 30
0.0
 41
12.31009691265263
 42
12.31009691265263
 43
12.31009691265263
  0
MTEXT
  5
3AF
330
3A7
100
AcDbEntity
  8
1
  6
Continuous
 62
     2
100
AcDbMText
 10
-2056.337530883056
 20
-20.33464530174774
 30
0.0
 40
40.0
 41
0.0
 71
     7
 72
     5
  1
{\fＭＳ ゴシック|b0|i0|c128|p49;\W1.0;桝穴寸法}
  7
MTSTANDARD7
 73
     1
 44
0.634296875
  0
POINT
  5
3B0
330
3A7
100
AcDbEntity
  8
DEFPOINTS
  6
ByBlock
 62
     3
100
AcDbPoint
 10
-2156.337530883056
 20
-21.33464530174774
 30
0.0
  0
POINT
  5
3B1
330
3A7
100
AcDbEntity
  8
DEFPOINTS
  6
ByBlock
 62
     3
100
AcDbPoint
 10
-1796.337530883055
 20
-21.33464530174774
 30
0.0
  0
POINT
  5
3B2
330
3A7
100
AcDbEntity
  8
DEFPOINTS
  6
ByBlock
 62
     3
100
AcDbPoint
 10
-1796.337530883055
 20
-21.33464530174774
 30
0.0
  0
ENDBLK
  5
3A9
330
3A7
100
AcDbEntity
  8
0
100
AcDbBlockEnd
  0
BLOCK
  5
3BA
330
3B9
100
AcDbEntity
  8
0
100
AcDbBlockBegin
  2
_D9
 70
     0
 10
0.0
 20
0.0
 30
0.0
  3
_D9
  1

  0
LINE
  5
3BC
330
3B9
100
AcDbEntity
  8
1
  6
ByBlock
 62
     3
100
AcDbLine
 10
-2186.334730113595
 20
134.5154263751444
 30
0.0
 11
-2186.334730113595
 21
184.515493060145
 31
0.0
  0
LINE
  5
3BD
330
3B9
100
AcDbEntity
  8
1
  6
ByBlock
 62
     3
100
AcDbLine
 10
-2186.334730113595
 20
183.515493060145
 30
0.0
 11
-1766.340331652508
 21
183.515493060145
 31
0.0
  0
LINE
  5
3BE
330
3B9
100
AcDbEntity
  8
1
  6
ByBlock
 62
     3
100
AcDbLine
 10
-1766.340331652508
 20
134.5154263751444
 30
0.0
 11
-1766.340331652508
 21
184.515493060145
 31
0.0
  0
INSERT
  5
3BF
330
3B9
100
AcDbEntity
  8
1
  6
ByBlock
 62
     3
100
AcDbBlockReference
  2
_OPEN30
 10
-2186.334730113595
 20
183.515493060145
 30
0.0
 41
12.31009691265263
 42
12.31009691265263
 43
12.31009691265263
 50
180.0
  0
INSERT
  5
3C0
330
3B9
100
AcDbEntity
  8
1
  6
ByBlock
 62
     3
100
AcDbBlockReference
  2
_OPEN30
 10
-1766.340331652508
 20
183.515493060145
 30
0.0
 41
12.31009691265263
 42
12.31009691265263
 43
12.31009691265263
  0
MTEXT
  5
3C1
330
3B9
100
AcDbEntity
  8
1
  6
Continuous
 62
     2
100
AcDbMText
 10
-2036.337530883051
 20
184.515493060145
 30
0.0
 40
40.0
 41
0.0
 71
     7
 72
     5
  1
{\fＭＳ ゴシック|b0|i0|c128|p49;\W1.0;Ａ×Ｂ}
  7
MTSTANDARD7
 73
     1
 44
0.6300203125
  0
POINT
  5
3C2
330
3B9
100
AcDbEntity
  8
DEFPOINTS
  6
ByBlock
 62
     3
100
AcDbPoint
 10
-2186.334730113595
 20
133.5154263751444
 30
0.0
  0
POINT
  5
3C3
330
3B9
100
AcDbEntity
  8
DEFPOINTS
  6
ByBlock
 62
     3
100
AcDbPoint
 10
-1766.340331652508
 20
133.5154263751444
 30
0.0
  0
POINT
  5
3C4
330
3B9
100
AcDbEntity
  8
DEFPOINTS
  6
ByBlock
 62
     3
100
AcDbPoint
 10
-1766.340331652508
 20
183.515493060145
 30
0.0
  0
ENDBLK
  5
3BB
330
3B9
100
AcDbEntity
  8
0
100
AcDbBlockEnd
  0
ENDSEC
  0
SECTION
  2
ENTITIES
  0
LINE
  5
B2
330
1F
100
AcDbEntity
  8
6
  6
Continuous
 62
     3
100
AcDbLine
 10
-1308.443661489919
 20
-1219.881765532329
 30
0.0
 11
-1308.443661489919
 21
-991.8818915323286
 31
0.0
  0
MTEXT
  5
B5
330
1F
100
AcDbEntity
  8
6
  6
Continuous
 62
     3
100
AcDbMText
 10
-1344.443652489916
 20
-1033.881858532329
 30
0.0
 40
18.0
 41
0.0
 71
     7
 72
     5
  1
{\W0.5x;-}
  7
MTSTANDARD1
 73
     1
 44
0.6666666666666667
  0
LINE
  5
B6
330
1F
100
AcDbEntity
  8
6
  6
Continuous
 62
     3
100
AcDbLine
 10
-1368.443601489917
 20
-1219.881765532329
 30
0.0
 11
-1308.443661489919
 21
-1159.881825532329
 31
0.0
  0
LINE
  5
B7
330
1F
100
AcDbEntity
  8
6
  6
Continuous
 62
     3
100
AcDbLine
 10
-2094.443181489916
 20
-991.8818915323286
 30
0.0
 11
-2094.443181489916
 21
-1219.881765532329
 31
0.0
  0
LINE
  5
B8
330
1F
100
AcDbEntity
  8
6
  6
Continuous
 62
     2
100
AcDbLine
 10
-2094.443181489916
 20
-991.8818915323286
 30
0.0
 11
-2094.443181489916
 21
-1219.881765532329
 31
0.0
  0
MTEXT
  5
BA
330
1F
100
AcDbEntity
  8
6
  6
Continuous
 62
     3
100
AcDbMText
 10
-1391.243598489919
 20
-1213.881780532329
 30
0.0
 40
18.0
 41
0.0
 71
     7
 72
     5
  1
内
  7
MTSTANDARD2
 73
     1
 44
0.6666666666666667
  0
MTEXT
  5
BB
330
1F
100
AcDbEntity
  8
6
  6
Continuous
 62
     3
100
AcDbMText
 10
-1391.243598489919
 20
-1198.881795532329
 30
0.0
 40
18.0
 41
0.0
 71
     7
 72
     5
  1
ノ
  7
MTSTANDARD2
 73
     1
 44
0.6666666666666667
  0
MTEXT
  5
BC
330
1F
100
AcDbEntity
  8
6
  6
Continuous
 62
     3
100
AcDbMText
 10
-1391.243598489919
 20
-1183.881810532329
 30
0.0
 40
18.0
 41
0.0
 71
     7
 72
     5
  1
葉
  7
MTSTANDARD2
 73
     1
 44
0.6666666666666667
  0
MTEXT
  5
BE
330
1F
100
AcDbEntity
  8
6
  6
Continuous
 62
     3
100
AcDbMText
 10
-2021.543244489917
 20
-1203.381795532329
 30
0.0
 40
27.0
 41
0.0
 71
     7
 72
     5
  1
伊藤鉄工株式会社
  7
MTSTANDARD3
 73
     1
 44
0.6527777777777777
  0
MTEXT
  5
C0
330
1F
100
AcDbEntity
  8
6
  6
Continuous
 62
     3
100
AcDbMText
 10
-1392.543600489919
 20
-1051.881842032329
 30
0.0
 40
21.0
 41
0.0
 71
     7
 72
     5
  1
尺
  7
MTSTANDARD4
 73
     1
 44
0.6607142857142857
  0
MTEXT
  5
C1
330
1F
100
AcDbEntity
  8
6
  6
Continuous
 62
     3
100
AcDbMText
 10
-1392.543600489919
 20
-1018.881875032329
 30
0.0
 40
21.0
 41
0.0
 71
     7
 72
     5
  1
縮
  7
MTSTANDARD4
 73
     1
 44
0.6607142857142857
  0
MTEXT
  5
C2
330
1F
100
AcDbEntity
  8
6
  6
Continuous
 62
     3
100
AcDbMText
 10
-2088.543210489918
 20
-1051.881842032329
 30
0.0
 40
21.0
 41
0.0
 71
     7
 72
     5
  1
名
  7
MTSTANDARD4
 73
     1
 44
0.6607142857142857
  0
MTEXT
  5
C3
330
1F
100
AcDbEntity
  8
6
  6
Continuous
 62
     3
100
AcDbMText
 10
-2088.543210489918
 20
-1018.881875032329
 30
0.0
 40
21.0
 41
0.0
 71
     7
 72
     5
  1
図
  7
MTSTANDARD4
 73
     1
 44
0.6607142857142857
  0
LINE
  5
C4
330
1F
100
AcDbEntity
  8
6
  6
Continuous
 62
     3
100
AcDbLine
 10
-2064.443211489917
 20
-991.8818915323286
 30
0.0
 11
-2064.443211489917
 21
-1159.881825532329
 31
0.0
  0
LINE
  5
C5
330
1F
100
AcDbEntity
  8
6
  6
Continuous
 62
     2
100
AcDbLine
 10
-2094.443181489916
 20
-991.8818915323286
 30
0.0
 11
-2094.443181489916
 21
-1219.881765532329
 31
0.0
  0
LINE
  5
C6
330
1F
100
AcDbEntity
  8
6
  6
Continuous
 62
     3
100
AcDbLine
 10
-2094.443181489916
 20
-991.8818915323286
 30
0.0
 11
-1308.443661489919
 21
-991.8818915323286
 31
0.0
  0
LINE
  5
C7
330
1F
100
AcDbEntity
  8
6
  6
Continuous
 62
     3
100
AcDbLine
 10
-1308.443661489919
 20
-1057.881825532329
 30
0.0
 11
-2094.443181489916
 21
-1057.881825532329
 31
0.0
  0
LINE
  5
C8
330
1F
100
AcDbEntity
  8
6
  6
Continuous
 62
     3
100
AcDbLine
 10
-2094.443181489916
 20
-1159.881825532329
 30
0.0
 11
-1308.443661489919
 21
-1159.881825532329
 31
0.0
  0
LINE
  5
C9
330
1F
100
AcDbEntity
  8
6
  6
Continuous
 62
     3
100
AcDbLine
 10
-1452.443517489917
 20
-1159.881825532329
 30
0.0
 11
-1452.443517489917
 21
-1219.881765532329
 31
0.0
  0
LINE
  5
CA
330
1F
100
AcDbEntity
  8
6
  6
Continuous
 62
     3
100
AcDbLine
 10
-1398.443571489917
 20
-1159.881825532329
 30
0.0
 11
-1398.443571489917
 21
-1219.881765532329
 31
0.0
  0
LINE
  5
CB
330
1F
100
AcDbEntity
  8
6
  6
Continuous
 62
     3
100
AcDbLine
 10
-1368.443601489917
 20
-1159.881825532329
 30
0.0
 11
-1368.443601489917
 21
-1219.881765532329
 31
0.0
  0
LINE
  5
CC
330
1F
100
AcDbEntity
  8
6
  6
Continuous
 62
     3
100
AcDbLine
 10
-1398.443571489917
 20
-991.8818915323286
 30
0.0
 11
-1398.443571489917
 21
-1057.881825532329
 31
0.0
  0
LINE
  5
CD
330
1F
100
AcDbEntity
  8
6
  6
Continuous
 62
     3
100
AcDbLine
 10
-1368.443601489917
 20
-991.8818915323286
 30
0.0
 11
-1368.443601489917
 21
-1057.881825532329
 31
0.0
  0
LINE
  5
CE
330
1F
100
AcDbEntity
  8
6
  6
Continuous
 62
     3
100
AcDbLine
 10
-2064.443211489917
 20
-991.8818915323286
 30
0.0
 11
-2064.443211489917
 21
-1159.881825532329
 31
0.0
  0
LINE
  5
CF
330
1F
100
AcDbEntity
  8
6
  6
Continuous
 62
     3
100
AcDbLine
 10
-1962.443211489917
 20
-1159.881825532329
 30
0.0
 11
-1962.443211489917
 21
-1057.881825532329
 31
0.0
  0
LINE
  5
D0
330
1F
100
AcDbEntity
  8
6
  6
Continuous
 62
     3
100
AcDbLine
 10
-1932.443241489917
 20
-1057.881825532329
 30
0.0
 11
-1932.443241489917
 21
-1159.881825532329
 31
0.0
  0
LINE
  5
D1
330
1F
100
AcDbEntity
  8
6
  6
Continuous
 62
     3
100
AcDbLine
 10
-1830.443241489917
 20
-1159.881825532329
 30
0.0
 11
-1830.443241489917
 21
-1057.881825532329
 31
0.0
  0
LINE
  5
D2
330
1F
100
AcDbEntity
  8
6
  6
Continuous
 62
     3
100
AcDbLine
 10
-1800.443271489918
 20
-1057.881825532329
 30
0.0
 11
-1800.443271489918
 21
-1159.881825532329
 31
0.0
  0
LINE
  5
D3
330
1F
100
AcDbEntity
  8
6
  6
Continuous
 62
     3
100
AcDbLine
 10
-1698.443271489918
 20
-1219.881765532329
 30
0.0
 11
-1698.443271489918
 21
-991.8818915323286
 31
0.0
  0
LINE
  5
D4
330
1F
100
AcDbEntity
  8
6
  6
Continuous
 62
     3
100
AcDbLine
 10
-1668.443301489917
 20
-991.8818915323286
 30
0.0
 11
-1668.443301489917
 21
-1219.881765532329
 31
0.0
  0
MTEXT
  5
D6
330
1F
100
AcDbEntity
  8
25
  6
Continuous
 62
     3
100
AcDbMText
 10
-2682.641059814916
 20
-1207.070159146229
 30
0.0
 40
25.0
 41
0.0
 71
     7
 72
     5
  1
※上記以外の寸法も製作いたします。
  7
MTSTANDARD5
 73
     1
 44
0.73
  0
MTEXT
  5
D7
330
1F
100
AcDbEntity
  8
6
  6
Continuous
 62
     3
100
AcDbMText
 10
-2088.543210489918
 20
-1102.881842032329
 30
0.0
 40
21.0
 41
0.0
 71
     7
 72
     5
  1
設
  7
MTSTANDARD4
 73
     1
 44
0.6607142857142857
  0
MTEXT
  5
D8
330
1F
100
AcDbEntity
  8
6
  6
Continuous
 62
     3
100
AcDbMText
 10
-2088.543210489918
 20
-1135.881809032329
 30
0.0
 40
21.0
 41
0.0
 71
     7
 72
     5
  1
計
  7
MTSTANDARD4
 73
     1
 44
0.6607142857142857
  0
MTEXT
  5
D9
330
1F
100
AcDbEntity
  8
6
  6
Continuous
 62
     3
100
AcDbMText
 10
-1956.543240489917
 20
-1135.881809032329
 30
0.0
 40
21.0
 41
0.0
 71
     7
 72
     5
  1
査
  7
MTSTANDARD4
 73
     1
 44
0.6607142857142857
  0
MTEXT
  5
DA
330
1F
100
AcDbEntity
  8
6
  6
Continuous
 62
     3
100
AcDbMText
 10
-1956.543240489917
 20
-1102.881842032329
 30
0.0
 40
21.0
 41
0.0
 71
     7
 72
     5
  1
照
  7
MTSTANDARD4
 73
     1
 44
0.6607142857142857
  0
MTEXT
  5
DB
330
1F
100
AcDbEntity
  8
6
  6
Continuous
 62
     3
100
AcDbMText
 10
-1824.382872584817
 20
-1135.881809032329
 30
0.0
 40
21.0
 41
0.0
 71
     7
 72
     5
  1
認
  7
MTSTANDARD4
 73
     1
 44
0.6607142857142857
  0
MTEXT
  5
DC
330
1F
100
AcDbEntity
  8
6
  6
Continuous
 62
     3
100
AcDbMText
 10
-1824.382872584817
 20
-1102.881842032329
 30
0.0
 40
21.0
 41
0.0
 71
     7
 72
     5
  1
承
  7
MTSTANDARD4
 73
     1
 44
0.6607142857142857
  0
MTEXT
  5
DD
330
1F
100
AcDbEntity
  8
6
  6
Continuous
 62
     3
100
AcDbMText
 10
-1692.382902584816
 20
-1102.881842032329
 30
0.0
 40
21.0
 41
0.0
 71
     7
 72
     5
  1
記
  7
MTSTANDARD4
 73
     1
 44
0.6607142857142857
  0
MTEXT
  5
DE
330
1F
100
AcDbEntity
  8
6
  6
Continuous
 62
     3
100
AcDbMText
 10
-1692.382902584816
 20
-1135.881809032329
 30
0.0
 40
21.0
 41
0.0
 71
     7
 72
     5
  1
事
  7
MTSTANDARD4
 73
     1
 44
0.6607142857142857
  0
MTEXT
  5
DF
330
1F
100
AcDbEntity
  8
6
  6
Continuous
 62
     3
100
AcDbMText
 10
-1692.543300489917
 20
-1018.881875032329
 30
0.0
 40
21.0
 41
0.0
 71
     7
 72
     5
  1
符
  7
MTSTANDARD4
 73
     1
 44
0.6607142857142857
  0
MTEXT
  5
E0
330
1F
100
AcDbEntity
  8
6
  6
Continuous
 62
     3
100
AcDbMText
 10
-1692.543300489917
 20
-1051.881842032329
 30
0.0
 40
21.0
 41
0.0
 71
     7
 72
     5
  1
号
  7
MTSTANDARD4
 73
     1
 44
0.6607142857142857
  0
MTEXT
  5
E1
330
1F
100
AcDbEntity
  8
6
  6
Continuous
 62
     3
100
AcDbMText
 10
-1692.382902584816
 20
-1183.881812032329
 30
0.0
 40
21.0
 41
0.0
 71
     7
 72
     5
  1
図
  7
MTSTANDARD4
 73
     1
 44
0.6607142857142857
  0
MTEXT
  5
E2
330
1F
100
AcDbEntity
  8
6
  6
Continuous
 62
     3
100
AcDbMText
 10
-1692.382902584816
 20
-1216.881779032329
 30
0.0
 40
21.0
 41
0.0
 71
     7
 72
     5
  1
番
  7
MTSTANDARD4
 73
     1
 44
0.6607142857142857
  0
MTEXT
  5
E4
330
1F
100
AcDbEntity
  8
1
  6
Continuous
 62
     3
100
AcDbMText
 10
-2024.283161514291
 20
-1151.357732770919
 30
0.0
 40
25.0
 41
0.0
 71
     7
 72
     5
  1
取
  7
MTSTANDARD6
 73
     1
 44
0.655
  0
MTEXT
  5
E5
330
1F
100
AcDbEntity
  8
1
  6
Continuous
 62
     3
100
AcDbMText
 10
-2024.283161514291
 20
-1092.929490135614
 30
0.0
 40
25.0
 41
0.0
 71
     7
 72
     5
  1
佐
  7
MTSTANDARD6
 73
     1
 44
0.655
  0
LINE
  5
E6
330
1F
100
AcDbEntity
  8
1
  6
Continuous
 62
     7
100
AcDbLine
 10
-3618.443661489917
 20
-1219.881765532329
 30
0.0
 11
-3618.443661489917
 21
442.1182344676718
 31
0.0
  0
LINE
  5
E7
330
1F
100
AcDbEntity
  8
1
  6
Continuous
 62
     7
100
AcDbLine
 10
-1308.443661489919
 20
-1219.881765532329
 30
0.0
 11
-3618.443661489917
 21
-1219.881765532329
 31
0.0
  0
LINE
  5
E8
330
1F
100
AcDbEntity
  8
1
  6
Continuous
 62
     7
100
AcDbLine
 10
-1308.443661489919
 20
442.1182344676718
 30
0.0
 11
-1308.443661489919
 21
-1219.881765532329
 31
0.0
  0
LINE
  5
E9
330
1F
100
AcDbEntity
  8
1
  6
Continuous
 62
     7
100
AcDbLine
 10
-3618.443661489917
 20
442.1182344676718
 30
0.0
 11
-1308.443661489919
 21
442.1182344676718
 31
0.0
  0
MTEXT
  5
EB
330
1F
100
AcDbEntity
  8
1
  6
Continuous
 62
     3
100
AcDbMText
 10
-2051.291930441013
 20
-776.7419014522334
 30
0.0
 40
40.0
 41
0.0
 71
     7
 72
     5
  1
※桝の内側、四隅Ｒ４０まで対応
  7
MTSTANDARD7
 73
     1
 44
0.631640625
  0
MTEXT
  5
ED
330
1F
100
AcDbEntity
  8
1
  6
Continuous
 62
     3
100
AcDbMText
 10
-1664.970780133983
 20
-1204.482249793832
 30
0.0
 40
30.0
 41
0.0
 71
     7
 72
     5
  1
Ｇ{\W0.5x;09}Ａ{\W0.5x;03006}
  7
MTSTANDARD8
 73
     1
 44
0.7312500000000001
  0
CIRCLE
  5
EE
330
1F
100
AcDbEntity
  8
1
  6
Continuous
 62
     3
100
AcDbCircle
 10
-2011.783161514291
 20
-1108.544402989704
 30
0.0
 40
48.0
  0
LINE
  5
EF
330
1F
100
AcDbEntity
  8
1
  6
Continuous
 62
     3
100
AcDbLine
 10
-2058.258961668782
 20
-1096.544402989704
 30
0.0
 11
-1965.307361359803
 21
-1096.544402989704
 31
0.0
  0
LINE
  5
F0
330
1F
100
AcDbEntity
  8
1
  6
Continuous
 62
     3
100
AcDbLine
 10
-2058.258961668782
 20
-1120.544402989704
 30
0.0
 11
-1965.307361359803
 21
-1120.544402989704
 31
0.0
  0
CIRCLE
  5
F1
330
1F
100
AcDbEntity
  8
1
  6
Continuous
 62
     3
100
AcDbCircle
 10
-1881.039279271936
 20
-1108.544402989704
 30
0.0
 40
48.0
  0
LINE
  5
F2
330
1F
100
AcDbEntity
  8
1
  6
Continuous
 62
     3
100
AcDbLine
 10
-1927.515079426425
 20
-1096.544402989704
 30
0.0
 11
-1834.563479117447
 21
-1096.544402989704
 31
0.0
  0
LINE
  5
F3
330
1F
100
AcDbEntity
  8
1
  6
Continuous
 62
     3
100
AcDbLine
 10
-1927.515079426425
 20
-1120.544402989704
 30
0.0
 11
-1834.563479117447
 21
-1120.544402989704
 31
0.0
  0
CIRCLE
  5
F4
330
1F
100
AcDbEntity
  8
1
  6
Continuous
 62
     3
100
AcDbCircle
 10
-1748.485654188853
 20
-1108.544402989704
 30
0.0
 40
48.0
  0
LINE
  5
F5
330
1F
100
AcDbEntity
  8
1
  6
Continuous
 62
     3
100
AcDbLine
 10
-1794.961454343344
 20
-1096.544402989704
 30
0.0
 11
-1702.009854034364
 21
-1096.544402989704
 31
0.0
  0
LINE
  5
F6
330
1F
100
AcDbEntity
  8
1
  6
Continuous
 62
     3
100
AcDbLine
 10
-1794.961454343344
 20
-1120.544402989704
 30
0.0
 11
-1702.009854034364
 21
-1120.544402989704
 31
0.0
  0
MTEXT
  5
F8
330
1F
100
AcDbEntity
  8
6
  6
Continuous
 62
     3
100
AcDbMText
 10
-2057.660289305511
 20
-1036.602531151225
 30
0.0
 40
24.0
 41
0.0
 71
     7
 72
     5
  1
四面ツバ{\W0.5x; }改良桝用{\W0.5x; }（組構式）
  7
MTSTANDARD9
 73
     1
 44
0.65625
  0
MTEXT
  5
FA
330
1F
100
AcDbEntity
  8
6
  6
Continuous
 62
     3
100
AcDbMText
 10
-1579.941610576424
 20
-1039.602531151225
 30
0.0
 40
30.0
 41
0.0
 71
     7
 72
     5
  1
{\W0.5x;AGBK}
  7
MTSTANDARD10
 73
     1
 44
0.65
  0
MTEXT
  5
FB
330
1F
100
AcDbEntity
  8
1
  6
Continuous
 62
     3
100
AcDbMText
 10
-2005.389094378955
 20
-632.9750549761329
 30
0.0
 40
30.0
 41
0.0
 71
     7
 72
     5
  1
ベアリングバーピッチ３３ｍｍ
  7
MTSTANDARD8
 73
     1
 44
0.6958333333333333
  0
MTEXT
  5
FC
330
1F
100
AcDbEntity
  8
1
  6
Continuous
 62
     3
100
AcDbMText
 10
-1761.986137116946
 20
-1092.485354885612
 30
0.0
 40
25.0
 41
0.0
 71
     7
 72
     5
  1
野
  7
MTSTANDARD6
 73
     1
 44
0.655
  0
MTEXT
  5
FD
330
1F
100
AcDbEntity
  8
1
  6
Continuous
 62
     3
100
AcDbMText
 10
-1760.985654188853
 20
-1151.857471031077
 30
0.0
 40
25.0
 41
0.0
 71
     7
 72
     5
  1
島
  7
MTSTANDARD6
 73
     1
 44
0.655
  0
MTEXT
  5
FE
330
1F
100
AcDbEntity
  8
1
  6
Continuous
 62
     3
100
AcDbMText
 10
-1895.496800373801
 20
-1151.230046718628
 30
0.0
 40
25.0
 41
0.0
 71
     7
 72
     5
  1
取
  7
MTSTANDARD6
 73
     1
 44
0.655
  0
MTEXT
  5
FF
330
1F
100
AcDbEntity
  8
1
  6
Continuous
 62
     3
100
AcDbMText
 10
-1893.539279271936
 20
-1091.116562439528
 30
0.0
 40
25.0
 41
0.0
 71
     7
 72
     5
  1
佐
  7
MTSTANDARD6
 73
     1
 44
0.655
  0
MTEXT
  5
101
330
1F
100
AcDbEntity
  8
26
  6
Continuous
 62
     3
100
AcDbMText
 10
-1777.737631888309
 20
-1118.489334748198
 30
0.0
 40
15.6521739096
 41
0.0
 71
     7
 72
     5
  1
{\W0.5x;2016.03.11}
  7
MTSTANDARD11
 73
     1
 44
0.6729166666772084
  0
MTEXT
  5
102
330
1F
100
AcDbEntity
  8
26
  6
Continuous
 62
     3
100
AcDbMText
 10
-2041.303642154993
 20
-1117.388518087631
 30
0.0
 40
15.6521739096
 41
0.0
 71
     7
 72
     5
  1
{\W0.5x;2016.03.11}
  7
MTSTANDARD11
 73
     1
 44
0.6729166666772084
  0
MTEXT
  5
103
330
1F
100
AcDbEntity
  8
26
  6
Continuous
 62
     3
100
AcDbMText
 10
-1907.256738516169
 20
-1114.996253189356
 30
0.0
 40
15.6521739096
 41
0.0
 71
     7
 72
     5
  1
{\W0.5x;2016.03.11}
  7
MTSTANDARD11
 73
     1
 44
0.6729166666772084
  0
LINE
  5
104
330
1F
100
AcDbEntity
  8
6
  6
Continuous
 62
     3
100
AcDbLine
 10
-2085.931175066587
 20
-917.6643408910531
 30
0.0
 11
-1455.931175066587
 21
-917.6643408910531
 31
0.0
  0
LINE
  5
105
330
1F
100
AcDbEntity
  8
6
  6
Continuous
 62
     3
100
AcDbLine
 10
-1455.931175066587
 20
-869.6643408910531
 30
0.0
 11
-1455.931175066587
 21
-965.6643408910531
 31
0.0
  0
LINE
  5
106
330
1F
100
AcDbEntity
  8
6
  6
Continuous
 62
     3
100
AcDbLine
 10
-2085.931175066587
 20
-869.6643408910531
 30
0.0
 11
-1455.931175066587
 21
-869.6643408910531
 31
0.0
  0
LINE
  5
107
330
1F
100
AcDbEntity
  8
6
  6
Continuous
 62
     3
100
AcDbLine
 10
-2085.931175066587
 20
-965.6643408910531
 30
0.0
 11
-1455.931175066587
 21
-965.6643408910531
 31
0.0
  0
LINE
  5
108
330
1F
100
AcDbEntity
  8
6
  6
Continuous
 62
     3
100
AcDbLine
 10
-2085.931175066587
 20
-869.6643408910531
 30
0.0
 11
-2085.931175066587
 21
-965.6643408910531
 31
0.0
  0
LINE
  5
109
330
1F
100
AcDbEntity
  8
6
  6
Continuous
 62
     3
100
AcDbLine
 10
-1905.931175066587
 20
-965.6643408910531
 30
0.0
 11
-1905.931175066587
 21
-869.6643408910531
 31
0.0
  0
LINE
  5
10A
330
1F
100
AcDbEntity
  8
6
  6
Continuous
 62
     3
100
AcDbLine
 10
-1705.931175066587
 20
-869.6643408910531
 30
0.0
 11
-1705.931175066587
 21
-965.6643408910531
 31
0.0
  0
MTEXT
  5
10C
330
1F
100
AcDbEntity
  8
6
  6
Continuous
 62
     3
100
AcDbMText
 10
-2033.497857066586
 20
-905.1643408910531
 30
0.0
 40
23.0
 41
0.0
 71
     7
 72
     5
  1
部品名
  7
MTSTANDARD12
 73
     1
 44
0.657608695652174
  0
MTEXT
  5
10E
330
1F
100
AcDbEntity
  8
6
  6
Continuous
 62
     3
100
AcDbMText
 10
-1829.697857066586
 20
-905.1643408910531
 30
0.0
 40
23.0
 41
0.0
 71
     7
 72
     5
  1
材質
  7
MTSTANDARD13
 73
     1
 44
0.657608695652174
  0
MTEXT
  5
10F
330
1F
100
AcDbEntity
  8
6
  6
Continuous
 62
     3
100
AcDbMText
 10
-1604.697857066586
 20
-905.1643408910531
 30
0.0
 40
23.0
 41
0.0
 71
     7
 72
     5
  1
備考
  7
MTSTANDARD13
 73
     1
 44
0.657608695652174
  0
MTEXT
  5
111
330
1F
100
AcDbEntity
  8
6
  6
Continuous
 62
     3
100
AcDbMText
 10
-2074.897857066587
 20
-953.1643408910531
 30
0.0
 40
23.0
 41
0.0
 71
     7
 72
     5
  1
グレーチング
  7
MTSTANDARD14
 73
     1
 44
0.657608695652174
  0
MTEXT
  5
113
330
1F
100
AcDbEntity
  8
6
  6
Continuous
 62
     3
100
AcDbMText
 10
-1870.427534168831
 20
-953.1643408910531
 30
0.0
 40
23.0
 41
0.0
 71
     7
 72
     5
  1
{\W0.5x;SS400 }鉄
  7
MTSTANDARD15
 73
     1
 44
0.657608695652174
  0
MTEXT
  5
115
330
1F
100
AcDbEntity
  8
6
  6
Continuous
 62
     3
100
AcDbMText
 10
-1673.697857066586
 20
-953.1643408910531
 30
0.0
 40
23.0
 41
0.0
 71
     7
 72
     5
  1
溶融亜鉛メッキ
  7
MTSTANDARD16
 73
     1
 44
0.657608695652174
  0
MTEXT
  5
117
330
1F
100
AcDbEntity
  8
6
  6
Continuous
 62
     3
100
AcDbMText
 10
-2082.097857066586
 20
-858.951749274453
 30
0.0
 40
23.0
 41
0.0
 71
     7
 72
     5
  1
●部品表
  7
MTSTANDARD17
 73
     1
 44
0.657608695652174
  0
LINE
  5
118
330
1F
100
AcDbEntity
  8
2
  6
Continuous
 62
     2
100
AcDbLine
 10
-3309.90700630365
 20
130.9144588201382
 30
0.0
 11
-3309.90700630365
 21
-209.0810066008069
 31
0.0
  0
LINE
  5
119
330
1F
100
AcDbEntity
  8
2
  6
Continuous
 62
     2
100
AcDbLine
 10
-2969.911540882703
 20
-209.0810066008069
 30
0.0
 11
-2969.911540882703
 21
130.9144588201382
 31
0.0
  0
LINE
  5
11A
330
1F
100
AcDbEntity
  8
2
  6
Continuous
 62
     2
100
AcDbLine
 10
-3158.909020190226
 20
130.9144588201382
 30
0.0
 11
-3158.909020190226
 21
-209.0810066008069
 31
0.0
  0
LINE
  5
11B
330
1F
100
AcDbEntity
  8
2
  6
Continuous
 62
     2
100
AcDbLine
 10
-3153.909086875213
 20
130.9144588201382
 30
0.0
 11
-3153.909086875211
 21
-209.0810066008069
 31
0.0
  0
LINE
  5
11C
330
1F
100
AcDbEntity
  8
2
  6
Continuous
 62
     2
100
AcDbLine
 10
-3191.908580069311
 20
130.9144588201382
 30
0.0
 11
-3191.908580069311
 21
-209.0810066008069
 31
0.0
  0
LINE
  5
11D
330
1F
100
AcDbEntity
  8
2
  6
Continuous
 62
     2
100
AcDbLine
 10
-3186.908646754299
 20
130.9144588201382
 30
0.0
 11
-3186.908646754297
 21
-209.0810066008069
 31
0.0
  0
LINE
  5
11E
330
1F
100
AcDbEntity
  8
2
  6
Continuous
 62
     2
100
AcDbLine
 10
-3224.908139948396
 20
130.9144588201382
 30
0.0
 11
-3224.908139948396
 21
-209.0810066008069
 31
0.0
  0
LINE
  5
11F
330
1F
100
AcDbEntity
  8
2
  6
Continuous
 62
     2
100
AcDbLine
 10
-3219.908206633384
 20
130.9144588201382
 30
0.0
 11
-3219.908206633382
 21
-209.0810066008069
 31
0.0
  0
LINE
  5
120
330
1F
100
AcDbEntity
  8
2
  6
Continuous
 62
     2
100
AcDbLine
 10
-3257.90769982748
 20
130.9144588201382
 30
0.0
 11
-3257.90769982748
 21
-209.0810066008069
 31
0.0
  0
LINE
  5
121
330
1F
100
AcDbEntity
  8
2
  6
Continuous
 62
     2
100
AcDbLine
 10
-3252.907766512469
 20
130.9144588201382
 30
0.0
 11
-3252.907766512469
 21
-209.0810066008069
 31
0.0
  0
LINE
  5
122
330
1F
100
AcDbEntity
  8
2
  6
Continuous
 62
     2
100
AcDbLine
 10
-3285.907326391553
 20
130.9144588201382
 30
0.0
 11
-3285.907326391553
 21
-209.0810066008069
 31
0.0
  0
LINE
  5
123
330
1F
100
AcDbEntity
  8
2
  6
Continuous
 62
     2
100
AcDbLine
 10
-3120.909526996126
 20
130.9144588201382
 30
0.0
 11
-3120.909526996126
 21
-209.0810066008069
 31
0.0
  0
LINE
  5
124
330
1F
100
AcDbEntity
  8
2
  6
Continuous
 62
     2
100
AcDbLine
 10
-3125.90946031114
 20
130.9144588201382
 30
0.0
 11
-3125.90946031114
 21
-209.0810066008069
 31
0.0
  0
LINE
  5
125
330
1F
100
AcDbEntity
  8
2
  6
Continuous
 62
     2
100
AcDbLine
 10
-3087.909967117042
 20
130.9144588201382
 30
0.0
 11
-3087.909967117042
 21
-209.0810066008069
 31
0.0
  0
LINE
  5
126
330
1F
100
AcDbEntity
  8
2
  6
Continuous
 62
     2
100
AcDbLine
 10
-3092.909900432055
 20
130.9144588201382
 30
0.0
 11
-3092.909900432055
 21
-209.0810066008069
 31
0.0
  0
LINE
  5
127
330
1F
100
AcDbEntity
  8
2
  6
Continuous
 62
     2
100
AcDbLine
 10
-3054.910407237957
 20
130.9144588201382
 30
0.0
 11
-3054.910407237957
 21
-209.0810066008069
 31
0.0
  0
LINE
  5
128
330
1F
100
AcDbEntity
  8
2
  6
Continuous
 62
     2
100
AcDbLine
 10
-3059.91034055297
 20
130.9144588201382
 30
0.0
 11
-3059.91034055297
 21
-209.0810066008069
 31
0.0
  0
LINE
  5
129
330
1F
100
AcDbEntity
  8
2
  6
Continuous
 62
     2
100
AcDbLine
 10
-3021.910847358872
 20
130.9144588201382
 30
0.0
 11
-3021.910847358872
 21
-209.0810066008069
 31
0.0
  0
LINE
  5
12A
330
1F
100
AcDbEntity
  8
2
  6
Continuous
 62
     2
100
AcDbLine
 10
-3026.910780673884
 20
130.9144588201382
 30
0.0
 11
-3026.910780673884
 21
-209.0810066008069
 31
0.0
  0
LINE
  5
12B
330
1F
100
AcDbEntity
  8
2
  6
Continuous
 62
     2
100
AcDbLine
 10
-2993.911220794799
 20
130.9144588201382
 30
0.0
 11
-2993.911220794799
 21
-209.0810066008069
 31
0.0
  0
LINE
  5
12C
330
1F
100
AcDbEntity
  8
2
  6
Continuous
 62
     2
100
AcDbLine
 10
-3309.90700630365
 20
63.16536240171649
 30
0.0
 11
-3290.907259706565
 21
63.16536240171649
 31
0.0
  0
LINE
  5
12D
330
1F
100
AcDbEntity
  8
2
  6
Continuous
 62
     2
100
AcDbLine
 10
-3285.907326391553
 20
63.16536240171649
 30
0.0
 11
-3257.90769982748
 21
63.16536240171649
 31
0.0
  0
LINE
  5
12E
330
1F
100
AcDbEntity
  8
2
  6
Continuous
 62
     2
100
AcDbLine
 10
-3309.90700630365
 20
58.66542241820321
 30
0.0
 11
-3290.907259706567
 21
58.66542241820321
 31
0.0
  0
LINE
  5
12F
330
1F
100
AcDbEntity
  8
2
  6
Continuous
 62
     2
100
AcDbLine
 10
-3285.907326391553
 20
58.66542241820321
 30
0.0
 11
-3257.90769982748
 21
58.66542241820321
 31
0.0
  0
LINE
  5
130
330
1F
100
AcDbEntity
  8
2
  6
Continuous
 62
     2
100
AcDbLine
 10
-3252.907766512469
 20
63.16536240171649
 30
0.0
 11
-3224.908139948396
 21
63.16536240171649
 31
0.0
  0
LINE
  5
131
330
1F
100
AcDbEntity
  8
2
  6
Continuous
 62
     2
100
AcDbLine
 10
-3252.907766512469
 20
58.66542241820321
 30
0.0
 11
-3224.908139948396
 21
58.66542241820321
 31
0.0
  0
LINE
  5
132
330
1F
100
AcDbEntity
  8
2
  6
Continuous
 62
     2
100
AcDbLine
 10
-3219.908206633382
 20
63.16536240171649
 30
0.0
 11
-3191.908580069311
 21
63.16536240171649
 31
0.0
  0
LINE
  5
133
330
1F
100
AcDbEntity
  8
2
  6
Continuous
 62
     2
100
AcDbLine
 10
-3219.908206633382
 20
58.66542241820321
 30
0.0
 11
-3191.908580069311
 21
58.66542241820321
 31
0.0
  0
LINE
  5
134
330
1F
100
AcDbEntity
  8
2
  6
Continuous
 62
     2
100
AcDbLine
 10
-3186.908646754297
 20
63.16536240171649
 30
0.0
 11
-3158.909020190226
 21
63.16536240171649
 31
0.0
  0
LINE
  5
135
330
1F
100
AcDbEntity
  8
2
  6
Continuous
 62
     2
100
AcDbLine
 10
-3186.908646754297
 20
58.66542241820321
 30
0.0
 11
-3158.909020190226
 21
58.66542241820321
 31
0.0
  0
LINE
  5
136
330
1F
100
AcDbEntity
  8
2
  6
Continuous
 62
     2
100
AcDbLine
 10
-3153.909086875211
 20
63.16536240171649
 30
0.0
 11
-3125.90946031114
 21
63.16536240171649
 31
0.0
  0
LINE
  5
137
330
1F
100
AcDbEntity
  8
2
  6
Continuous
 62
     2
100
AcDbLine
 10
-3153.909086875213
 20
58.66542241820321
 30
0.0
 11
-3125.90946031114
 21
58.66542241820321
 31
0.0
  0
LINE
  5
138
330
1F
100
AcDbEntity
  8
2
  6
Continuous
 62
     2
100
AcDbLine
 10
-3120.909526996126
 20
63.16536240171649
 30
0.0
 11
-3092.909900432055
 21
63.16536240171649
 31
0.0
  0
LINE
  5
139
330
1F
100
AcDbEntity
  8
2
  6
Continuous
 62
     2
100
AcDbLine
 10
-3120.909526996126
 20
58.66542241820321
 30
0.0
 11
-3092.909900432055
 21
58.66542241820321
 31
0.0
  0
LINE
  5
13A
330
1F
100
AcDbEntity
  8
2
  6
Continuous
 62
     2
100
AcDbLine
 10
-3087.909967117042
 20
63.16536240171649
 30
0.0
 11
-3059.91034055297
 21
63.16536240171649
 31
0.0
  0
LINE
  5
13B
330
1F
100
AcDbEntity
  8
2
  6
Continuous
 62
     2
100
AcDbLine
 10
-3087.909967117042
 20
58.66542241820321
 30
0.0
 11
-3059.91034055297
 21
58.66542241820321
 31
0.0
  0
LINE
  5
13C
330
1F
100
AcDbEntity
  8
2
  6
Continuous
 62
     2
100
AcDbLine
 10
-3054.910407237957
 20
63.16536240171649
 30
0.0
 11
-3026.910780673884
 21
63.16536240171649
 31
0.0
  0
LINE
  5
13D
330
1F
100
AcDbEntity
  8
2
  6
Continuous
 62
     2
100
AcDbLine
 10
-3054.910407237957
 20
58.66542241820321
 30
0.0
 11
-3026.910780673884
 21
58.66542241820321
 31
0.0
  0
LINE
  5
13E
330
1F
100
AcDbEntity
  8
2
  6
Continuous
 62
     2
100
AcDbLine
 10
-3021.910847358872
 20
63.16536240171649
 30
0.0
 11
-2993.911220794799
 21
63.16536240171649
 31
0.0
  0
LINE
  5
13F
330
1F
100
AcDbEntity
  8
2
  6
Continuous
 62
     2
100
AcDbLine
 10
-3021.910847358872
 20
58.66542241820321
 30
0.0
 11
-2993.911220794799
 21
58.66542241820321
 31
0.0
  0
LINE
  5
140
330
1F
100
AcDbEntity
  8
2
  6
Continuous
 62
     2
100
AcDbLine
 10
-2988.911287479787
 20
58.66542241820321
 30
0.0
 11
-2969.911540882703
 21
58.66542241820594
 31
0.0
  0
LINE
  5
141
330
1F
100
AcDbEntity
  8
2
  6
Continuous
 62
     2
100
AcDbLine
 10
-2988.911287479787
 20
63.16536240171649
 30
0.0
 11
-2969.911540882703
 21
63.16536240171285
 31
0.0
  0
LINE
  5
142
330
1F
100
AcDbEntity
  8
2
  6
Continuous
 62
     2
100
AcDbLine
 10
-3309.90700630365
 20
-36.83330389854177
 30
0.0
 11
-3290.907259706565
 21
-36.83330389854268
 31
0.0
  0
LINE
  5
143
330
1F
100
AcDbEntity
  8
2
  6
Continuous
 62
     2
100
AcDbLine
 10
-3285.907326391553
 20
-36.83330389854268
 30
0.0
 11
-3257.90769982748
 21
-36.83330389854268
 31
0.0
  0
LINE
  5
144
330
1F
100
AcDbEntity
  8
2
  6
Continuous
 62
     2
100
AcDbLine
 10
-3309.90700630365
 20
-41.33324388205415
 30
0.0
 11
-3290.907259706567
 21
-41.33324388205415
 31
0.0
  0
LINE
  5
145
330
1F
100
AcDbEntity
  8
2
  6
Continuous
 62
     2
100
AcDbLine
 10
-3285.907326391553
 20
-41.33324388205415
 30
0.0
 11
-3257.90769982748
 21
-41.33324388205415
 31
0.0
  0
LINE
  5
146
330
1F
100
AcDbEntity
  8
2
  6
Continuous
 62
     2
100
AcDbLine
 10
-3252.907766512469
 20
-36.83330389854268
 30
0.0
 11
-3224.908139948396
 21
-36.83330389854268
 31
0.0
  0
LINE
  5
147
330
1F
100
AcDbEntity
  8
2
  6
Continuous
 62
     2
100
AcDbLine
 10
-3252.907766512469
 20
-41.33324388205415
 30
0.0
 11
-3224.908139948396
 21
-41.33324388205415
 31
0.0
  0
LINE
  5
148
330
1F
100
AcDbEntity
  8
2
  6
Continuous
 62
     2
100
AcDbLine
 10
-3219.908206633382
 20
-36.83330389854268
 30
0.0
 11
-3191.908580069311
 21
-36.83330389854268
 31
0.0
  0
LINE
  5
149
330
1F
100
AcDbEntity
  8
2
  6
Continuous
 62
     2
100
AcDbLine
 10
-3219.908206633382
 20
-41.33324388205415
 30
0.0
 11
-3191.908580069311
 21
-41.33324388205415
 31
0.0
  0
LINE
  5
14A
330
1F
100
AcDbEntity
  8
2
  6
Continuous
 62
     2
100
AcDbLine
 10
-3186.908646754297
 20
-36.83330389854268
 30
0.0
 11
-3158.909020190226
 21
-36.83330389854268
 31
0.0
  0
LINE
  5
14B
330
1F
100
AcDbEntity
  8
2
  6
Continuous
 62
     2
100
AcDbLine
 10
-3186.908646754297
 20
-41.33324388205415
 30
0.0
 11
-3158.909020190226
 21
-41.33324388205415
 31
0.0
  0
LINE
  5
14C
330
1F
100
AcDbEntity
  8
2
  6
Continuous
 62
     2
100
AcDbLine
 10
-3153.909086875211
 20
-36.83330389854268
 30
0.0
 11
-3125.90946031114
 21
-36.83330389854268
 31
0.0
  0
LINE
  5
14D
330
1F
100
AcDbEntity
  8
2
  6
Continuous
 62
     2
100
AcDbLine
 10
-3120.909526996126
 20
-36.83330389854268
 30
0.0
 11
-3092.909900432055
 21
-36.83330389854268
 31
0.0
  0
LINE
  5
14E
330
1F
100
AcDbEntity
  8
2
  6
Continuous
 62
     2
100
AcDbLine
 10
-3120.909526996126
 20
-41.33324388205415
 30
0.0
 11
-3092.909900432055
 21
-41.33324388205415
 31
0.0
  0
LINE
  5
14F
330
1F
100
AcDbEntity
  8
2
  6
Continuous
 62
     2
100
AcDbLine
 10
-3087.909967117042
 20
-36.83330389854268
 30
0.0
 11
-3059.91034055297
 21
-36.83330389854268
 31
0.0
  0
LINE
  5
150
330
1F
100
AcDbEntity
  8
2
  6
Continuous
 62
     2
100
AcDbLine
 10
-3087.909967117042
 20
-41.33324388205415
 30
0.0
 11
-3059.91034055297
 21
-41.33324388205415
 31
0.0
  0
LINE
  5
151
330
1F
100
AcDbEntity
  8
2
  6
Continuous
 62
     2
100
AcDbLine
 10
-3054.910407237957
 20
-36.83330389854268
 30
0.0
 11
-3026.910780673884
 21
-36.83330389854268
 31
0.0
  0
LINE
  5
152
330
1F
100
AcDbEntity
  8
2
  6
Continuous
 62
     2
100
AcDbLine
 10
-3054.910407237957
 20
-41.33324388205415
 30
0.0
 11
-3026.910780673884
 21
-41.33324388205415
 31
0.0
  0
LINE
  5
153
330
1F
100
AcDbEntity
  8
2
  6
Continuous
 62
     2
100
AcDbLine
 10
-3021.910847358872
 20
-36.83330389854268
 30
0.0
 11
-2993.911220794799
 21
-36.83330389854268
 31
0.0
  0
LINE
  5
154
330
1F
100
AcDbEntity
  8
2
  6
Continuous
 62
     2
100
AcDbLine
 10
-3021.910847358872
 20
-41.33324388205415
 30
0.0
 11
-2993.911220794799
 21
-41.33324388205415
 31
0.0
  0
LINE
  5
155
330
1F
100
AcDbEntity
  8
2
  6
Continuous
 62
     2
100
AcDbLine
 10
-2988.911287479787
 20
-41.33324388205415
 30
0.0
 11
-2969.911540882703
 21
-41.33324388205324
 31
0.0
  0
LINE
  5
156
330
1F
100
AcDbEntity
  8
2
  6
Continuous
 62
     2
100
AcDbLine
 10
-2988.911287479787
 20
-36.83330389854268
 30
0.0
 11
-2969.911540882703
 21
-36.83330389854541
 31
0.0
  0
LINE
  5
157
330
1F
100
AcDbEntity
  8
2
  6
Continuous
 62
     2
100
AcDbLine
 10
-3309.90700630365
 20
-136.8319701987991
 30
0.0
 11
-3290.907259706565
 21
-136.8319701988
 31
0.0
  0
LINE
  5
158
330
1F
100
AcDbEntity
  8
2
  6
Continuous
 62
     2
100
AcDbLine
 10
-3285.907326391553
 20
-136.8319701988
 30
0.0
 11
-3257.90769982748
 21
-136.8319701988
 31
0.0
  0
LINE
  5
159
330
1F
100
AcDbEntity
  8
2
  6
Continuous
 62
     2
100
AcDbLine
 10
-3309.90700630365
 20
-141.3319101823124
 30
0.0
 11
-3290.907259706567
 21
-141.3319101823124
 31
0.0
  0
LINE
  5
15A
330
1F
100
AcDbEntity
  8
2
  6
Continuous
 62
     2
100
AcDbLine
 10
-3285.907326391553
 20
-141.3319101823124
 30
0.0
 11
-3257.90769982748
 21
-141.3319101823124
 31
0.0
  0
LINE
  5
15B
330
1F
100
AcDbEntity
  8
2
  6
Continuous
 62
     2
100
AcDbLine
 10
-3252.907766512469
 20
-136.8319701988
 30
0.0
 11
-3224.908139948396
 21
-136.8319701988
 31
0.0
  0
LINE
  5
15C
330
1F
100
AcDbEntity
  8
2
  6
Continuous
 62
     2
100
AcDbLine
 10
-3252.907766512469
 20
-141.3319101823124
 30
0.0
 11
-3224.908139948396
 21
-141.3319101823124
 31
0.0
  0
LINE
  5
15D
330
1F
100
AcDbEntity
  8
2
  6
Continuous
 62
     2
100
AcDbLine
 10
-3219.908206633382
 20
-136.8319701988
 30
0.0
 11
-3191.908580069311
 21
-136.8319701988
 31
0.0
  0
LINE
  5
15E
330
1F
100
AcDbEntity
  8
2
  6
Continuous
 62
     2
100
AcDbLine
 10
-3219.908206633382
 20
-141.3319101823124
 30
0.0
 11
-3191.908580069311
 21
-141.3319101823124
 31
0.0
  0
LINE
  5
15F
330
1F
100
AcDbEntity
  8
2
  6
Continuous
 62
     2
100
AcDbLine
 10
-3186.908646754297
 20
-136.8319701988
 30
0.0
 11
-3158.909020190226
 21
-136.8319701988
 31
0.0
  0
LINE
  5
160
330
1F
100
AcDbEntity
  8
2
  6
Continuous
 62
     2
100
AcDbLine
 10
-3186.908646754297
 20
-141.3319101823124
 30
0.0
 11
-3158.909020190226
 21
-141.3319101823124
 31
0.0
  0
LINE
  5
161
330
1F
100
AcDbEntity
  8
2
  6
Continuous
 62
     2
100
AcDbLine
 10
-3153.909086875211
 20
-136.8319701988
 30
0.0
 11
-3125.90946031114
 21
-136.8319701988
 31
0.0
  0
LINE
  5
162
330
1F
100
AcDbEntity
  8
2
  6
Continuous
 62
     2
100
AcDbLine
 10
-3153.909086875213
 20
-141.3319101823124
 30
0.0
 11
-3125.90946031114
 21
-141.3319101823124
 31
0.0
  0
LINE
  5
163
330
1F
100
AcDbEntity
  8
2
  6
Continuous
 62
     2
100
AcDbLine
 10
-3120.909526996126
 20
-136.8319701988
 30
0.0
 11
-3092.909900432055
 21
-136.8319701988
 31
0.0
  0
LINE
  5
164
330
1F
100
AcDbEntity
  8
2
  6
Continuous
 62
     2
100
AcDbLine
 10
-3120.909526996126
 20
-141.3319101823124
 30
0.0
 11
-3092.909900432055
 21
-141.3319101823124
 31
0.0
  0
LINE
  5
165
330
1F
100
AcDbEntity
  8
2
  6
Continuous
 62
     2
100
AcDbLine
 10
-3087.909967117042
 20
-136.8319701988
 30
0.0
 11
-3059.91034055297
 21
-136.8319701988
 31
0.0
  0
LINE
  5
166
330
1F
100
AcDbEntity
  8
2
  6
Continuous
 62
     2
100
AcDbLine
 10
-3087.909967117042
 20
-141.3319101823124
 30
0.0
 11
-3059.91034055297
 21
-141.3319101823124
 31
0.0
  0
LINE
  5
167
330
1F
100
AcDbEntity
  8
2
  6
Continuous
 62
     2
100
AcDbLine
 10
-3054.910407237957
 20
-136.8319701988
 30
0.0
 11
-3026.910780673884
 21
-136.8319701988
 31
0.0
  0
LINE
  5
168
330
1F
100
AcDbEntity
  8
2
  6
Continuous
 62
     2
100
AcDbLine
 10
-3054.910407237957
 20
-141.3319101823124
 30
0.0
 11
-3026.910780673884
 21
-141.3319101823124
 31
0.0
  0
LINE
  5
169
330
1F
100
AcDbEntity
  8
2
  6
Continuous
 62
     2
100
AcDbLine
 10
-3021.910847358872
 20
-136.8319701988
 30
0.0
 11
-2993.911220794799
 21
-136.8319701988
 31
0.0
  0
LINE
  5
16A
330
1F
100
AcDbEntity
  8
2
  6
Continuous
 62
     2
100
AcDbLine
 10
-3021.910847358872
 20
-141.3319101823124
 30
0.0
 11
-2993.911220794799
 21
-141.3319101823124
 31
0.0
  0
LINE
  5
16B
330
1F
100
AcDbEntity
  8
2
  6
Continuous
 62
     2
100
AcDbLine
 10
-2988.911287479787
 20
-141.3319101823124
 30
0.0
 11
-2969.911540882703
 21
-141.3319101823106
 31
0.0
  0
LINE
  5
16C
330
1F
100
AcDbEntity
  8
2
  6
Continuous
 62
     2
100
AcDbLine
 10
-2988.911287479787
 20
-136.8319701988
 30
0.0
 11
-2969.911540882703
 21
-136.8319701988037
 31
0.0
  0
LINE
  5
16D
330
1F
100
AcDbEntity
  8
2
  6
HIDDEN
 62
     3
100
AcDbLine
 10
-3283.543396889017
 20
135.9143921351172
 30
0.0
 11
-3288.543330203994
 21
130.9144588201382
 31
0.0
  0
LINE
  5
16E
330
1F
100
AcDbEntity
  8
2
  6
Continuous
 62
     2
100
AcDbLine
 10
-3288.543330203994
 20
130.9144588201382
 30
0.0
 11
-3309.90700630365
 21
109.5507827204858
 31
0.0
  0
LINE
  5
16F
330
1F
100
AcDbEntity
  8
2
  6
HIDDEN
 62
     3
100
AcDbLine
 10
-3309.90700630365
 20
109.5507827204858
 30
0.0
 11
-3314.906939618629
 21
104.5508494055059
 31
0.0
  0
LINE
  5
170
330
1F
100
AcDbEntity
  8
2
  6
HIDDEN
 62
     3
100
AcDbLine
 10
-3314.906939618629
 20
-182.7173971861737
 30
0.0
 11
-3309.90700630365
 21
-187.7173305011518
 31
0.0
  0
LINE
  5
171
330
1F
100
AcDbEntity
  8
2
  6
Continuous
 62
     2
100
AcDbLine
 10
-3309.90700630365
 20
-187.7173305011518
 30
0.0
 11
-3288.543330203997
 21
-209.0810066008087
 31
0.0
  0
LINE
  5
172
330
1F
100
AcDbEntity
  8
2
  6
HIDDEN
 62
     3
100
AcDbLine
 10
-3288.543330203997
 20
-209.0810066008087
 30
0.0
 11
-3283.543396889017
 21
-214.0809399157858
 31
0.0
  0
LINE
  5
173
330
1F
100
AcDbEntity
  8
2
  6
HIDDEN
 62
     3
100
AcDbLine
 10
-2996.275150297338
 20
-214.0809399157858
 30
0.0
 11
-2991.275216982359
 21
-209.0810066008069
 31
0.0
  0
LINE
  5
174
330
1F
100
AcDbEntity
  8
2
  6
Continuous
 62
     2
100
AcDbLine
 10
-2991.275216982359
 20
-209.0810066008069
 30
0.0
 11
-2969.911540882701
 21
-187.7173305011545
 31
0.0
  0
LINE
  5
175
330
1F
100
AcDbEntity
  8
2
  6
HIDDEN
 62
     3
100
AcDbLine
 10
-2969.911540882701
 20
-187.7173305011545
 30
0.0
 11
-2964.911607567724
 21
-182.7173971861746
 31
0.0
  0
LINE
  5
176
330
1F
100
AcDbEntity
  8
2
  6
HIDDEN
 62
     3
100
AcDbLine
 10
-2964.911607567724
 20
104.550849405505
 30
0.0
 11
-2969.911540882705
 21
109.5507827204831
 31
0.0
  0
LINE
  5
177
330
1F
100
AcDbEntity
  8
2
  6
Continuous
 62
     2
100
AcDbLine
 10
-2969.911540882705
 20
109.5507827204831
 30
0.0
 11
-2991.275216982355
 21
130.91445882014
 31
0.0
  0
LINE
  5
178
330
1F
100
AcDbEntity
  8
2
  6
Continuous
 62
     4
100
AcDbLine
 10
-2991.275216982355
 20
130.91445882014
 30
0.0
 11
-2996.275150297338
 21
135.9143921351163
 31
0.0
  0
LINE
  5
179
330
1F
100
AcDbEntity
  8
2
  6
HIDDEN
 62
     3
100
AcDbLine
 10
-3314.906939618629
 20
-189.0812733407217
 30
0.0
 11
-3314.906939618629
 21
110.9147255600531
 31
0.0
  0
LINE
  5
17A
330
1F
100
AcDbEntity
  8
2
  6
HIDDEN
 62
     3
100
AcDbLine
 10
-2989.91127414279
 20
-214.0809399157858
 30
0.0
 11
-3289.907273043563
 21
-214.0809399157858
 31
0.0
  0
LINE
  5
17B
330
1F
100
AcDbEntity
  8
2
  6
HIDDEN
 62
     3
100
AcDbLine
 10
-3289.907273043563
 20
135.9143921351172
 30
0.0
 11
-2989.91127414279
 21
135.9143921351172
 31
0.0
  0
LINE
  5
17C
330
1F
100
AcDbEntity
  8
2
  6
HIDDEN
 62
     3
100
AcDbLine
 10
-2964.911607567724
 20
110.9147255600521
 30
0.0
 11
-2964.911607567724
 21
-189.0812733407217
 31
0.0
  0
LINE
  5
17D
330
1F
100
AcDbEntity
  8
2
  6
HIDDEN
 62
     3
100
AcDbLine
 10
-3289.907273043563
 20
135.9143921351163
 30
0.0
 11
-3294.907206358542
 21
130.9144588201373
 31
0.0
  0
LINE
  5
17E
330
1F
100
AcDbEntity
  8
2
  6
HIDDEN
 62
     3
100
AcDbLine
 10
-3309.90700630365
 20
115.9146588750302
 30
0.0
 11
-3314.906939618629
 21
110.9147255600531
 31
0.0
  0
LINE
  5
17F
330
1F
100
AcDbEntity
  8
2
  6
Continuous
 62
     2
100
AcDbLine
 10
-3294.907206358542
 20
130.9144588201373
 30
0.0
 11
-3309.90700630365
 21
115.9146588750302
 31
0.0
  0
LINE
  5
180
330
1F
100
AcDbEntity
  8
2
  6
HIDDEN
 62
     3
100
AcDbLine
 10
-3314.906939618629
 20
-189.0812733407217
 30
0.0
 11
-3309.90700630365
 21
-194.0812066556989
 31
0.0
  0
LINE
  5
181
330
1F
100
AcDbEntity
  8
2
  6
HIDDEN
 62
     3
100
AcDbLine
 10
-3294.907206358542
 20
-209.0810066008069
 30
0.0
 11
-3289.907273043563
 21
-214.0809399157858
 31
0.0
  0
LINE
  5
182
330
1F
100
AcDbEntity
  8
2
  6
Continuous
 62
     2
100
AcDbLine
 10
-3309.90700630365
 20
-194.0812066556989
 30
0.0
 11
-3294.907206358542
 21
-209.0810066008069
 31
0.0
  0
LINE
  5
183
330
1F
100
AcDbEntity
  8
2
  6
HIDDEN
 62
     3
100
AcDbLine
 10
-2964.911607567724
 20
110.9147255600521
 30
0.0
 11
-2969.911540882705
 21
115.9146588750302
 31
0.0
  0
LINE
  5
184
330
1F
100
AcDbEntity
  8
2
  6
Continuous
 62
     4
100
AcDbLine
 10
-2984.911340827811
 20
130.9144588201373
 30
0.0
 11
-2989.91127414279
 21
135.9143921351163
 31
0.0
  0
LINE
  5
185
330
1F
100
AcDbEntity
  8
2
  6
Continuous
 62
     2
100
AcDbLine
 10
-2969.911540882705
 20
115.9146588750302
 30
0.0
 11
-2984.911340827811
 21
130.9144588201373
 31
0.0
  0
LINE
  5
186
330
1F
100
AcDbEntity
  8
2
  6
Continuous
 62
     2
100
AcDbLine
 10
-3349.906472823754
 20
170.9139253402429
 30
0.0
 11
-2929.912074362598
 21
170.9139253402429
 31
0.0
  0
LINE
  5
187
330
1F
100
AcDbEntity
  8
2
  6
Continuous
 62
     2
100
AcDbLine
 10
-2929.912074362598
 20
170.9139253402429
 30
0.0
 11
-2929.9120743626
 21
-249.0804731209116
 31
0.0
  0
LINE
  5
188
330
1F
100
AcDbEntity
  8
2
  6
Continuous
 62
     2
100
AcDbLine
 10
-2929.9120743626
 20
-249.0804731209116
 30
0.0
 11
-3349.906472823754
 21
-249.0804731209116
 31
0.0
  0
LINE
  5
189
330
1F
100
AcDbEntity
  8
2
  6
Continuous
 62
     2
100
AcDbLine
 10
-3349.906472823754
 20
-249.0804731209116
 30
0.0
 11
-3349.906472823754
 21
170.9139253402429
 31
0.0
  0
LINE
  5
18A
330
1F
100
AcDbEntity
  8
2
  6
Continuous
 62
     2
100
AcDbLine
 10
-3349.906472823754
 20
-209.0810066008069
 30
0.0
 11
-2929.9120743626
 21
-209.0810066008069
 31
0.0
  0
LINE
  5
18B
330
1F
100
AcDbEntity
  8
2
  6
Continuous
 62
     2
100
AcDbLine
 10
-2929.912074362598
 20
130.9144588201382
 30
0.0
 11
-3349.906472823754
 21
130.9144588201382
 31
0.0
  0
LINE
  5
18C
330
1F
100
AcDbEntity
  8
2
  6
Continuous
 62
     2
100
AcDbLine
 10
-3290.907259706567
 20
128.5505293175668
 30
0.0
 11
-3290.907259706565
 21
-206.7170770982391
 31
0.0
  0
LINE
  5
18D
330
1F
100
AcDbEntity
  8
2
  6
Continuous
 62
     2
100
AcDbLine
 10
-2988.911287479787
 20
128.5505293175704
 30
0.0
 11
-2988.911287479787
 21
-206.7170770982354
 31
0.0
  0
LINE
  5
18E
330
1F
100
AcDbEntity
  8
2
  6
HIDDEN
 62
     3
100
AcDbLine
 10
-2989.91127414279
 20
-214.0809399157858
 30
0.0
 11
-2984.911340827811
 21
-209.0810066008069
 31
0.0
  0
LINE
  5
18F
330
1F
100
AcDbEntity
  8
2
  6
HIDDEN
 62
     3
100
AcDbLine
 10
-2969.911540882705
 20
-194.0812066556989
 30
0.0
 11
-2964.911607567724
 21
-189.0812733407217
 31
0.0
  0
LINE
  5
190
330
1F
100
AcDbEntity
  8
2
  6
Continuous
 62
     2
100
AcDbLine
 10
-2984.911340827811
 20
-209.0810066008069
 30
0.0
 11
-2969.911540882705
 21
-194.0812066556989
 31
0.0
  0
LINE
  5
191
330
1F
100
AcDbEntity
  8
2
  6
Continuous
 62
     2
100
AcDbLine
 10
-3153.909086875213
 20
-41.33324388205415
 30
0.0
 11
-3125.90946031114
 21
-41.33324388205415
 31
0.0
  0
LINE
  5
192
330
1F
100
AcDbEntity
  8
2
  6
Continuous
 62
     3
100
AcDbLine
 10
-2670.809802215285
 20
135.9143921351545
 30
0.0
 11
-2675.809735530301
 21
130.9144588201391
 31
0.0
  0
LINE
  5
193
330
1F
100
AcDbEntity
  8
2
  6
Continuous
 62
     3
100
AcDbLine
 10
-2677.880775720337
 20
135.9143921351545
 30
0.0
 11
-2682.880709035352
 21
130.9144588201391
 31
0.0
  0
LINE
  5
194
330
1F
100
AcDbEntity
  8
2
  6
Continuous
 62
     3
100
AcDbLine
 10
-2684.95174922539
 20
135.9143921351545
 30
0.0
 11
-2689.951682540403
 21
130.91445882014
 31
0.0
  0
LINE
  5
195
330
1F
100
AcDbEntity
  8
2
  6
Continuous
 62
     3
100
AcDbLine
 10
-2690.472925813617
 20
137.4641890519808
 30
0.0
 11
-2696.311987405127
 21
131.6251274604695
 31
0.0
  0
LINE
  5
196
330
1F
100
AcDbEntity
  8
2
  6
Continuous
 62
     3
100
AcDbLine
 10
-2691.312054090115
 20
143.6960342805326
 30
0.0
 11
-2696.311987405127
 21
138.6961009655208
 31
0.0
  0
LINE
  5
197
330
1F
100
AcDbEntity
  8
2
  6
Continuous
 62
     3
100
AcDbLine
 10
-2691.312054090117
 20
150.7670077855839
 30
0.0
 11
-2696.311987405127
 21
145.7670744705731
 31
0.0
  0
LINE
  5
198
330
1F
100
AcDbEntity
  8
2
  6
Continuous
 62
     3
100
AcDbLine
 10
-2691.312054090119
 20
157.8379812906344
 30
0.0
 11
-2696.311987405127
 21
152.8380479756245
 31
0.0
  0
LINE
  5
199
330
1F
100
AcDbEntity
  8
2
  6
Continuous
 62
     4
100
AcDbLine
 10
-2671.667655150221
 20
-209.0810066007077
 30
0.0
 11
-2676.667588465237
 21
-214.0809399157213
 31
0.0
  0
LINE
  5
19A
330
1F
100
AcDbEntity
  8
2
  6
Continuous
 62
     4
100
AcDbLine
 10
-2691.312054090119
 20
-228.7254055406045
 30
0.0
 11
-2696.311987405127
 21
-233.7253388556135
 31
0.0
  0
LINE
  5
19B
330
1F
100
AcDbEntity
  8
2
  6
Continuous
 62
     4
100
AcDbLine
 10
-2678.738628655275
 20
-209.0810066007077
 30
0.0
 11
-2683.738561970288
 21
-214.0809399157213
 31
0.0
  0
LINE
  5
19C
330
1F
100
AcDbEntity
  8
2
  6
Continuous
 62
     4
100
AcDbLine
 10
-2691.312054090117
 20
-221.6544320355504
 30
0.0
 11
-2696.311987405127
 21
-226.6543653505603
 31
0.0
  0
LINE
  5
19D
330
1F
100
AcDbEntity
  8
2
  6
Continuous
 62
     4
100
AcDbLine
 10
-2685.809602160328
 20
-209.0810066007077
 30
0.0
 11
-2696.311987405127
 21
-219.5833918455089
 31
0.0
  0
LINE
  5
19E
330
1F
100
AcDbEntity
  8
2
  6
Continuous
 62
     4
100
AcDbLine
 10
-2692.880575665379
 20
-209.0810066007077
 30
0.0
 11
-2696.311987405127
 21
-212.5124183404566
 31
0.0
  0
LINE
  5
19F
330
1F
100
AcDbEntity
  8
2
  6
Continuous
 62
     3
100
AcDbLine
 10
-2677.312240808079
 20
-137.2241005926196
 30
0.0
 11
-2681.420050397767
 21
-141.3319101823133
 31
0.0
  0
LINE
  5
1A0
330
1F
100
AcDbEntity
  8
2
  6
Continuous
 62
     3
100
AcDbLine
 10
-2683.991083919312
 20
-136.8319701987991
 30
0.0
 11
-2688.491023902826
 21
-141.3319101823133
 31
0.0
  0
LINE
  5
1A1
330
1F
100
AcDbEntity
  8
2
  6
Continuous
 62
     3
100
AcDbLine
 10
-2691.062057424367
 20
-136.8319701987991
 30
0.0
 11
-2695.561997407874
 21
-141.3319101823133
 31
0.0
  0
LINE
  5
1A2
330
1F
100
AcDbEntity
  8
2
  6
Continuous
 62
     3
100
AcDbLine
 10
-2677.312240808081
 20
-37.22543429236134
 30
0.0
 11
-2681.420050397767
 21
-41.33324388205415
 31
0.0
  0
LINE
  5
1A3
330
1F
100
AcDbEntity
  8
2
  6
Continuous
 62
     3
100
AcDbLine
 10
-2683.991083919312
 20
-36.83330389854086
 30
0.0
 11
-2688.491023902826
 21
-41.33324388205415
 31
0.0
  0
LINE
  5
1A4
330
1F
100
AcDbEntity
  8
2
  6
Continuous
 62
     3
100
AcDbLine
 10
-2691.062057424367
 20
-36.83330389854268
 30
0.0
 11
-2695.561997407874
 21
-41.33324388205506
 31
0.0
  0
LINE
  5
1A5
330
1F
100
AcDbEntity
  8
2
  6
Continuous
 62
     4
100
AcDbLine
 10
-2677.312240808081
 20
62.77323200789692
 30
0.0
 11
-2681.420050397767
 21
58.66542241820412
 31
0.0
  0
LINE
  5
1A6
330
1F
100
AcDbEntity
  8
2
  6
Continuous
 62
     4
100
AcDbLine
 10
-2683.991083919312
 20
63.1653624017174
 30
0.0
 11
-2688.491023902826
 21
58.66542241820412
 31
0.0
  0
LINE
  5
1A7
330
1F
100
AcDbEntity
  8
2
  6
Continuous
 62
     4
100
AcDbLine
 10
-2691.062057424367
 20
63.16536240171649
 30
0.0
 11
-2695.561997407875
 21
58.6654224182023
 31
0.0
  0
LINE
  5
1A8
330
1F
100
AcDbEntity
  8
2
  6
Continuous
 62
     2
100
AcDbLine
 10
-2696.311987405131
 20
130.9144588201373
 30
0.0
 11
-2696.311987405127
 21
-209.0810066007077
 31
0.0
  0
LINE
  5
1A9
330
1F
100
AcDbEntity
  8
2
  6
Continuous
 62
     2
100
AcDbLine
 10
-2675.812260813575
 20
130.9144588201373
 30
0.0
 11
-2675.812260813575
 21
-209.0810066007077
 31
0.0
  0
LINE
  5
1AA
330
1F
100
AcDbEntity
  8
2
  6
Continuous
 62
     2
100
AcDbLine
 10
-2671.312320830065
 20
130.9144588201373
 30
0.0
 11
-2671.312320830065
 21
-209.0810066007077
 31
0.0
  0
LINE
  5
1AB
330
1F
100
AcDbEntity
  8
2
  6
Continuous
 62
     2
100
AcDbLine
 10
-2696.311987405127
 20
-141.3319101823133
 30
0.0
 11
-2677.312240808079
 21
-141.3319101823133
 31
0.0
  0
LINE
  5
1AC
330
1F
100
AcDbEntity
  8
2
  6
Continuous
 62
     2
100
AcDbLine
 10
-2677.312240808079
 20
-136.8319701988
 30
0.0
 11
-2677.312240808079
 21
-141.3319101823133
 31
0.0
  0
LINE
  5
1AD
330
1F
100
AcDbEntity
  8
2
  6
Continuous
 62
     2
100
AcDbLine
 10
-2696.311987405127
 20
-136.8319701988009
 30
0.0
 11
-2677.312240808079
 21
-136.8319701988
 31
0.0
  0
LINE
  5
1AE
330
1F
100
AcDbEntity
  8
2
  6
Continuous
 62
     2
100
AcDbLine
 10
-2696.311987405127
 20
-41.33324388205506
 30
0.0
 11
-2677.312240808079
 21
-41.33324388205415
 31
0.0
  0
LINE
  5
1AF
330
1F
100
AcDbEntity
  8
2
  6
Continuous
 62
     2
100
AcDbLine
 10
-2677.312240808079
 20
-36.83330389854268
 30
0.0
 11
-2677.312240808079
 21
-41.33324388205415
 31
0.0
  0
LINE
  5
1B0
330
1F
100
AcDbEntity
  8
2
  6
Continuous
 62
     2
100
AcDbLine
 10
-2696.311987405127
 20
-36.83330389854359
 30
0.0
 11
-2677.312240808079
 21
-36.83330389854268
 31
0.0
  0
LINE
  5
1B1
330
1F
100
AcDbEntity
  8
2
  6
Continuous
 62
     2
100
AcDbLine
 10
-2676.812247476578
 20
64.41534573046943
 30
0.0
 11
-2676.812247476578
 21
57.41543908945118
 31
0.0
  0
LINE
  5
1B2
330
1F
100
AcDbEntity
  8
2
  6
Continuous
 62
     2
100
AcDbLine
 10
-2696.311987405127
 20
58.6654224182023
 30
0.0
 11
-2677.312240808079
 21
58.66542241820412
 31
0.0
  0
LINE
  5
1B3
330
1F
100
AcDbEntity
  8
2
  6
Continuous
 62
     2
100
AcDbLine
 10
-2696.311987405127
 20
63.16536240171558
 30
0.0
 11
-2677.312240808081
 21
63.16536240171649
 31
0.0
  0
LINE
  5
1B4
330
1F
100
AcDbEntity
  8
2
  6
Continuous
 62
     2
100
AcDbLine
 10
-2676.812247476585
 20
130.9144588201373
 30
0.0
 11
-2676.812247476578
 21
-209.0810066007077
 31
0.0
  0
LINE
  5
1B5
330
1F
100
AcDbEntity
  8
2
  6
Continuous
 62
     2
100
AcDbLine
 10
-2680.8121941286
 20
66.16532239072808
 30
0.0
 11
-2680.812194128591
 21
63.16536240171285
 31
0.0
  0
LINE
  5
1B6
330
1F
100
AcDbEntity
  8
2
  6
Continuous
 62
     2
100
AcDbLine
 10
-2688.81208743261
 20
68.16529571670549
 30
0.0
 11
-2682.812167454565
 21
68.16529571671731
 31
0.0
  0
LINE
  5
1B7
330
1F
100
AcDbEntity
  8
2
  6
Continuous
 62
     2
100
AcDbLine
 10
-2685.812127443603
 20
58.66542241819775
 30
0.0
 11
-2685.812127443604
 21
50.66552911419353
 31
0.0
  0
LINE
  5
1B8
330
1F
100
AcDbEntity
  8
2
  6
Continuous
 62
     2
100
AcDbLine
 10
-2683.812154117601
 20
48.66555578816883
 30
0.0
 11
-2679.312214134082
 21
48.66555578815428
 31
0.0
  0
LINE
  5
1B9
330
1F
100
AcDbEntity
  8
2
  6
Continuous
 62
     2
100
AcDbLine
 10
-2677.312240808081
 20
63.16536240171649
 30
0.0
 11
-2677.312240808072
 21
50.66552911419626
 31
0.0
  0
LINE
  5
1BA
330
1F
100
AcDbEntity
  8
2
  6
Continuous
 62
     2
100
AcDbLine
 10
-2690.812060758614
 20
63.16536240171285
 30
0.0
 11
-2690.812060758614
 21
130.9144588201373
 31
0.0
  0
LINE
  5
1BB
330
1F
100
AcDbEntity
  8
2
  6
Continuous
 62
     2
100
AcDbLine
 10
-2691.812047421617
 20
63.16536240171285
 30
0.0
 11
-2691.812047421617
 21
130.9144588201373
 31
0.0
  0
LINE
  5
1BC
330
1F
100
AcDbEntity
  8
2
  6
Continuous
 62
     2
100
AcDbLine
 10
-2690.812060758614
 20
-209.0810066007077
 30
0.0
 11
-2690.812060758614
 21
-141.3319101823133
 31
0.0
  0
LINE
  5
1BD
330
1F
100
AcDbEntity
  8
2
  6
Continuous
 62
     2
100
AcDbLine
 10
-2691.812047421617
 20
-209.0810066007077
 30
0.0
 11
-2691.812047421617
 21
-141.3319101823133
 31
0.0
  0
LINE
  5
1BE
330
1F
100
AcDbEntity
  8
2
  6
Continuous
 62
     2
100
AcDbLine
 10
-2690.812060758614
 20
-136.8319701988
 30
0.0
 11
-2690.812060758614
 21
-41.33324388205142
 31
0.0
  0
LINE
  5
1BF
330
1F
100
AcDbEntity
  8
2
  6
Continuous
 62
     2
100
AcDbLine
 10
-2690.812060758614
 20
-36.83330389854814
 30
0.0
 11
-2690.812060758614
 21
58.66542241819775
 31
0.0
  0
LINE
  5
1C0
330
1F
100
AcDbEntity
  8
2
  6
Continuous
 62
     2
100
AcDbLine
 10
-2691.812047421617
 20
-136.8319701988
 30
0.0
 11
-2691.812047421617
 21
-41.33324388205142
 31
0.0
  0
LINE
  5
1C1
330
1F
100
AcDbEntity
  8
2
  6
Continuous
 62
     2
100
AcDbLine
 10
-2691.812047421617
 20
-36.83330389854814
 30
0.0
 11
-2691.812047421617
 21
58.66542241819775
 31
0.0
  0
LINE
  5
1C2
330
1F
100
AcDbEntity
  8
2
  6
Continuous
 62
     2
100
AcDbLine
 10
-2680.812194128598
 20
-33.83334390952928
 30
0.0
 11
-2680.812194128591
 21
-36.83330389854541
 31
0.0
  0
LINE
  5
1C3
330
1F
100
AcDbEntity
  8
2
  6
Continuous
 62
     2
100
AcDbLine
 10
-2688.812087432608
 20
-31.83337058355278
 30
0.0
 11
-2682.812167454565
 21
-31.83337058354095
 31
0.0
  0
LINE
  5
1C4
330
1F
100
AcDbEntity
  8
2
  6
Continuous
 62
     2
100
AcDbLine
 10
-2685.812127443603
 20
-41.33324388205961
 30
0.0
 11
-2685.812127443604
 21
-49.33313718606382
 31
0.0
  0
LINE
  5
1C5
330
1F
100
AcDbEntity
  8
2
  6
Continuous
 62
     2
100
AcDbLine
 10
-2683.812154117601
 20
-51.33311051208852
 30
0.0
 11
-2679.31221413408
 21
-51.33311051210489
 31
0.0
  0
LINE
  5
1C6
330
1F
100
AcDbEntity
  8
2
  6
Continuous
 62
     2
100
AcDbLine
 10
-2677.312240808081
 20
-36.83330389854268
 30
0.0
 11
-2677.312240808072
 21
-49.333137186062
 31
0.0
  0
LINE
  5
1C7
330
1F
100
AcDbEntity
  8
2
  6
Continuous
 62
     2
100
AcDbLine
 10
-2680.812194128598
 20
-133.8320102097894
 30
0.0
 11
-2680.812194128591
 21
-136.8319701988046
 31
0.0
  0
LINE
  5
1C8
330
1F
100
AcDbEntity
  8
2
  6
Continuous
 62
     2
100
AcDbLine
 10
-2688.812087432608
 20
-131.8320368838129
 30
0.0
 11
-2682.812167454563
 21
-131.832036883801
 31
0.0
  0
LINE
  5
1C9
330
1F
100
AcDbEntity
  8
2
  6
Continuous
 62
     2
100
AcDbLine
 10
-2685.812127443603
 20
-141.3319101823197
 30
0.0
 11
-2685.812127443603
 21
-149.3318034863239
 31
0.0
  0
LINE
  5
1CA
330
1F
100
AcDbEntity
  8
2
  6
Continuous
 62
     2
100
AcDbLine
 10
-2683.812154117601
 20
-151.3317768123486
 30
0.0
 11
-2679.31221413408
 21
-151.3317768123641
 31
0.0
  0
LINE
  5
1CB
330
1F
100
AcDbEntity
  8
2
  6
Continuous
 62
     2
100
AcDbLine
 10
-2677.312240808079
 20
-136.8319701988019
 30
0.0
 11
-2677.312240808072
 21
-149.331803486323
 31
0.0
  0
LINE
  5
1CC
330
1F
100
AcDbEntity
  8
2
  6
CENTER2
 62
     3
100
AcDbLine
 10
-2703.906120200024
 20
60.91539240995849
 30
0.0
 11
-2671.231857187216
 21
60.9153924099603
 31
0.0
  0
LINE
  5
1CD
330
1F
100
AcDbEntity
  8
2
  6
CENTER2
 62
     3
100
AcDbLine
 10
-2703.906120200024
 20
-139.0819401905571
 30
0.0
 11
-2671.231857187214
 21
-139.0819401905544
 31
0.0
  0
LINE
  5
1CE
330
1F
100
AcDbEntity
  8
2
  6
PHANTOM2
 62
     3
100
AcDbLine
 10
-2703.906120200024
 20
-39.08327389029887
 30
0.0
 11
-2671.231857187216
 21
-39.08327389029705
 31
0.0
  0
LINE
  5
1CF
330
1F
100
AcDbEntity
  8
2
  6
Continuous
 62
     2
100
AcDbLine
 10
-2696.311987405127
 20
170.913925340242
 30
0.0
 11
-2696.311987405127
 21
130.91445882014
 31
0.0
  0
LINE
  5
1D0
330
1F
100
AcDbEntity
  8
2
  6
Continuous
 62
     2
100
AcDbLine
 10
-2691.312054090119
 20
167.913965351235
 30
0.0
 11
-2691.312054090103
 21
140.414332118665
 31
0.0
  0
LINE
  5
1D1
330
1F
100
AcDbEntity
  8
2
  6
Continuous
 62
     2
100
AcDbLine
 10
-2696.311987405127
 20
130.9144588201391
 30
0.0
 11
-2656.312520885015
 21
130.9144588201391
 31
0.0
  0
LINE
  5
1D2
330
1F
100
AcDbEntity
  8
2
  6
Continuous
 62
     2
100
AcDbLine
 10
-2686.81211410659
 20
135.9143921351545
 30
0.0
 11
-2659.312480874022
 21
135.9143921351545
 31
0.0
  0
LINE
  5
1D3
330
1F
100
AcDbEntity
  8
2
  6
Continuous
 62
     2
100
AcDbLine
 10
-2696.311987405127
 20
170.9139253402429
 30
0.0
 11
-2694.312014079128
 21
170.9139253402429
 31
0.0
  0
LINE
  5
1D4
330
1F
100
AcDbEntity
  8
2
  6
Continuous
 62
     3
100
AcDbLine
 10
-2663.73882871023
 20
135.9143921351563
 30
0.0
 11
-2668.738762025246
 21
130.91445882014
 31
0.0
  0
LINE
  5
1D5
330
1F
100
AcDbEntity
  8
2
  6
Continuous
 62
     3
100
AcDbLine
 10
-2691.312054090119
 20
164.9089547956858
 30
0.0
 11
-2696.311987405127
 21
159.9090214806768
 31
0.0
  0
LINE
  5
1D6
330
1F
100
AcDbEntity
  8
2
  6
Continuous
 62
     3
100
AcDbLine
 10
-2692.791776803196
 20
170.5002055876623
 30
0.0
 11
-2696.311987405131
 21
166.9799949857281
 31
0.0
  0
LINE
  5
1D7
330
1F
100
AcDbEntity
  8
2
  6
Continuous
 62
     3
100
AcDbLine
 10
-2657.376309263517
 20
135.2059380768198
 30
0.0
 11
-2661.667788520194
 21
130.9144588201418
 31
0.0
  0
LINE
  5
1D8
330
1F
100
AcDbEntity
  8
2
  6
Continuous
 62
     2
100
AcDbLine
 10
-2691.312054090119
 20
-246.0805131318318
 30
0.0
 11
-2691.312054090103
 21
-218.5808798992609
 31
0.0
  0
LINE
  5
1D9
330
1F
100
AcDbEntity
  8
2
  6
Continuous
 62
     2
100
AcDbLine
 10
-2686.81211410659
 20
-214.0809399157504
 30
0.0
 11
-2659.312480874022
 21
-214.0809399157522
 31
0.0
  0
LINE
  5
1DA
330
1F
100
AcDbEntity
  8
2
  6
Continuous
 62
     2
100
AcDbLine
 10
-2696.311987405127
 20
-249.0804731208398
 30
0.0
 11
-2694.312014079128
 21
-249.0804731208398
 31
0.0
  0
LINE
  5
1DB
330
1F
100
AcDbEntity
  8
2
  6
Continuous
 62
     2
100
AcDbLine
 10
-2696.311987405127
 20
-209.0810066007077
 30
0.0
 11
-2656.312520885024
 21
-209.0810066007077
 31
0.0
  0
LINE
  5
1DC
330
1F
100
AcDbEntity
  8
2
  6
Continuous
 62
     2
100
AcDbLine
 10
-2696.311987405127
 20
-249.0804731208398
 30
0.0
 11
-2696.311987405127
 21
-209.0810066007077
 31
0.0
  0
LINE
  5
1DD
330
1F
100
AcDbEntity
  8
2
  6
Continuous
 62
     4
100
AcDbLine
 10
-2664.59668164517
 20
-209.0810066007077
 30
0.0
 11
-2669.596614960185
 21
-214.0809399157231
 31
0.0
  0
LINE
  5
1DE
330
1F
100
AcDbEntity
  8
2
  6
Continuous
 62
     4
100
AcDbLine
 10
-2657.525708140119
 20
-209.0810066007077
 30
0.0
 11
-2662.525641455132
 21
-214.0809399157231
 31
0.0
  0
LINE
  5
1DF
330
1F
100
AcDbEntity
  8
2
  6
Continuous
 62
     4
100
AcDbLine
 10
-2691.31205409011
 20
-235.7963790456477
 30
0.0
 11
-2696.31198740512
 21
-240.7963123606576
 31
0.0
  0
LINE
  5
1E0
330
1F
100
AcDbEntity
  8
2
  6
Continuous
 62
     4
100
AcDbLine
 10
-2691.312054090103
 20
-242.8673525506927
 30
0.0
 11
-2696.311987405113
 21
-247.8672858657026
 31
0.0
  0
LINE
  5
1E1
330
1F
100
AcDbEntity
  8
2
  6
Continuous
 62
     2
100
AcDbLine
 10
-2671.312320830065
 20
109.5507827204958
 30
0.0
 11
-2656.312520885015
 21
109.5507827204876
 31
0.0
  0
LINE
  5
1E2
330
1F
100
AcDbEntity
  8
2
  6
Continuous
 62
     2
100
AcDbLine
 10
-2696.311987405131
 20
109.5507827204876
 30
0.0
 11
-2671.312320830065
 21
109.5507827204958
 31
0.0
  0
LINE
  5
1E3
330
1F
100
AcDbEntity
  8
2
  6
Continuous
 62
     2
100
AcDbLine
 10
-2671.312320830065
 20
-187.7173305010926
 30
0.0
 11
-2656.312520885015
 21
-187.7173305010836
 31
0.0
  0
LINE
  5
1E4
330
1F
100
AcDbEntity
  8
2
  6
Continuous
 62
     2
100
AcDbLine
 10
-2696.311987405131
 20
-187.7173305010836
 30
0.0
 11
-2671.312320830065
 21
-187.7173305010926
 31
0.0
  0
LINE
  5
1E5
330
1F
100
AcDbEntity
  8
2
  6
Continuous
 62
     2
100
AcDbLine
 10
-2656.312520885024
 20
-211.0809869552456
 30
0.0
 11
-2656.312520885026
 21
-209.0810066007077
 31
0.0
  0
LINE
  5
1E6
330
1F
100
AcDbEntity
  8
2
  6
Continuous
 62
     2
100
AcDbLine
 10
-2656.312520885024
 20
-187.7173305010836
 30
0.0
 11
-2656.312520885015
 21
109.5507827204876
 31
0.0
  0
LINE
  5
1E7
330
1F
100
AcDbEntity
  8
2
  6
Continuous
 62
     2
100
AcDbLine
 10
-2656.312520885015
 20
130.9144588201391
 30
0.0
 11
-2656.312520885015
 21
132.9144321461474
 31
0.0
  0
LINE
  5
1E8
330
1F
100
AcDbEntity
  8
2
  6
Continuous
 62
     4
100
AcDbLine
 10
-3286.907313054554
 20
-473.006418769384
 30
0.0
 11
-3290.907259706565
 21
-477.0063654213952
 31
0.0
  0
LINE
  5
1E9
330
1F
100
AcDbEntity
  8
2
  6
Continuous
 62
     4
100
AcDbLine
 10
-3286.907313054552
 20
-465.9354452643308
 30
0.0
 11
-3289.907273043563
 21
-468.9354052533415
 31
0.0
  0
LINE
  5
1EA
330
1F
100
AcDbEntity
  8
2
  6
Continuous
 62
     4
100
AcDbLine
 10
-3285.907326391553
 20
-457.8644850962789
 30
0.0
 11
-3289.907273043563
 21
-461.8644317482883
 31
0.0
  0
LINE
  5
1EB
330
1F
100
AcDbEntity
  8
2
  6
Continuous
 62
     4
100
AcDbLine
 10
-3289.191553836697
 20
-454.0777390363689
 30
0.0
 11
-3290.907259706567
 21
-455.7934449062393
 31
0.0
  0
LINE
  5
1EC
330
1F
100
AcDbEntity
  8
2
  6
Continuous
 62
     4
100
AcDbLine
 10
-3253.907753175469
 20
-473.006418769384
 30
0.0
 11
-3257.90769982748
 21
-477.0063654213952
 31
0.0
  0
LINE
  5
1ED
330
1F
100
AcDbEntity
  8
2
  6
Continuous
 62
     4
100
AcDbLine
 10
-3253.907753175467
 20
-465.9354452643308
 30
0.0
 11
-3256.907713164478
 21
-468.9354052533415
 31
0.0
  0
LINE
  5
1EE
330
1F
100
AcDbEntity
  8
2
  6
Continuous
 62
     4
100
AcDbLine
 10
-3252.907766512467
 20
-457.8644850962789
 30
0.0
 11
-3256.907713164478
 21
-461.8644317482883
 31
0.0
  0
LINE
  5
1EF
330
1F
100
AcDbEntity
  8
2
  6
Continuous
 62
     4
100
AcDbLine
 10
-3256.19199395761
 20
-454.0777390363689
 30
0.0
 11
-3257.90769982748
 21
-455.7934449062393
 31
0.0
  0
LINE
  5
1F0
330
1F
100
AcDbEntity
  8
2
  6
Continuous
 62
     4
100
AcDbLine
 10
-3220.908193296383
 20
-473.006418769384
 30
0.0
 11
-3224.908139948394
 21
-477.0063654213952
 31
0.0
  0
LINE
  5
1F1
330
1F
100
AcDbEntity
  8
2
  6
Continuous
 62
     4
100
AcDbLine
 10
-3220.908193296383
 20
-465.9354452643308
 30
0.0
 11
-3223.908153285392
 21
-468.9354052533415
 31
0.0
  0
LINE
  5
1F2
330
1F
100
AcDbEntity
  8
2
  6
Continuous
 62
     4
100
AcDbLine
 10
-3219.908206633382
 20
-457.8644850962789
 30
0.0
 11
-3223.908153285392
 21
-461.8644317482883
 31
0.0
  0
LINE
  5
1F3
330
1F
100
AcDbEntity
  8
2
  6
Continuous
 62
     4
100
AcDbLine
 10
-3223.192434078527
 20
-454.0777390363689
 30
0.0
 11
-3224.908139948396
 21
-455.7934449062393
 31
0.0
  0
LINE
  5
1F4
330
1F
100
AcDbEntity
  8
2
  6
Continuous
 62
     4
100
AcDbLine
 10
-3187.908633417298
 20
-473.006418769384
 30
0.0
 11
-3191.908580069311
 21
-477.0063654213952
 31
0.0
  0
LINE
  5
1F5
330
1F
100
AcDbEntity
  8
2
  6
Continuous
 62
     4
100
AcDbLine
 10
-3187.908633417298
 20
-465.9354452643308
 30
0.0
 11
-3190.908593406309
 21
-468.9354052533415
 31
0.0
  0
LINE
  5
1F6
330
1F
100
AcDbEntity
  8
2
  6
Continuous
 62
     4
100
AcDbLine
 10
-3186.908646754297
 20
-457.8644850962789
 30
0.0
 11
-3190.908593406309
 21
-461.8644317482883
 31
0.0
  0
LINE
  5
1F7
330
1F
100
AcDbEntity
  8
2
  6
Continuous
 62
     4
100
AcDbLine
 10
-3190.192874199439
 20
-454.0777390363689
 30
0.0
 11
-3191.908580069311
 21
-455.7934449062393
 31
0.0
  0
LINE
  5
1F8
330
1F
100
AcDbEntity
  8
2
  6
Continuous
 62
     4
100
AcDbLine
 10
-3154.909073538213
 20
-473.006418769384
 30
0.0
 11
-3158.909020190226
 21
-477.0063654213952
 31
0.0
  0
LINE
  5
1F9
330
1F
100
AcDbEntity
  8
2
  6
Continuous
 62
     4
100
AcDbLine
 10
-3154.909073538213
 20
-465.9354452643308
 30
0.0
 11
-3157.909033527222
 21
-468.9354052533415
 31
0.0
  0
LINE
  5
1FA
330
1F
100
AcDbEntity
  8
2
  6
Continuous
 62
     4
100
AcDbLine
 10
-3153.909086875211
 20
-457.8644850962789
 30
0.0
 11
-3157.909033527222
 21
-461.8644317482883
 31
0.0
  0
LINE
  5
1FB
330
1F
100
AcDbEntity
  8
2
  6
Continuous
 62
     4
100
AcDbLine
 10
-3157.193314320354
 20
-454.0777390363689
 30
0.0
 11
-3158.909020190226
 21
-455.7934449062393
 31
0.0
  0
LINE
  5
1FC
330
1F
100
AcDbEntity
  8
2
  6
Continuous
 62
     4
100
AcDbLine
 10
-3121.909513659129
 20
-473.006418769384
 30
0.0
 11
-3125.909460311138
 21
-477.0063654213952
 31
0.0
  0
LINE
  5
1FD
330
1F
100
AcDbEntity
  8
2
  6
Continuous
 62
     4
100
AcDbLine
 10
-3121.909513659127
 20
-465.9354452643308
 30
0.0
 11
-3124.909473648137
 21
-468.9354052533415
 31
0.0
  0
LINE
  5
1FE
330
1F
100
AcDbEntity
  8
2
  6
Continuous
 62
     4
100
AcDbLine
 10
-3120.909526996126
 20
-457.8644850962789
 30
0.0
 11
-3124.909473648137
 21
-461.8644317482883
 31
0.0
  0
LINE
  5
1FF
330
1F
100
AcDbEntity
  8
2
  6
Continuous
 62
     4
100
AcDbLine
 10
-3124.193754441269
 20
-454.0777390363689
 30
0.0
 11
-3125.90946031114
 21
-455.7934449062393
 31
0.0
  0
LINE
  5
200
330
1F
100
AcDbEntity
  8
2
  6
Continuous
 62
     4
100
AcDbLine
 10
-3088.909953780042
 20
-473.006418769384
 30
0.0
 11
-3092.909900432053
 21
-477.0063654213952
 31
0.0
  0
LINE
  5
201
330
1F
100
AcDbEntity
  8
2
  6
Continuous
 62
     4
100
AcDbLine
 10
-3088.909953780042
 20
-465.9354452643308
 30
0.0
 11
-3091.909913769051
 21
-468.9354052533415
 31
0.0
  0
LINE
  5
202
330
1F
100
AcDbEntity
  8
2
  6
Continuous
 62
     4
100
AcDbLine
 10
-3087.909967117042
 20
-457.8644850962789
 30
0.0
 11
-3091.909913769051
 21
-461.8644317482883
 31
0.0
  0
LINE
  5
203
330
1F
100
AcDbEntity
  8
2
  6
Continuous
 62
     4
100
AcDbLine
 10
-3091.194194562185
 20
-454.0777390363689
 30
0.0
 11
-3092.909900432055
 21
-455.7934449062393
 31
0.0
  0
LINE
  5
204
330
1F
100
AcDbEntity
  8
2
  6
Continuous
 62
     4
100
AcDbLine
 10
-3055.910393900957
 20
-473.006418769384
 30
0.0
 11
-3059.910340552969
 21
-477.0063654213952
 31
0.0
  0
LINE
  5
205
330
1F
100
AcDbEntity
  8
2
  6
Continuous
 62
     4
100
AcDbLine
 10
-3055.910393900957
 20
-465.9354452643308
 30
0.0
 11
-3058.910353889966
 21
-468.9354052533415
 31
0.0
  0
LINE
  5
206
330
1F
100
AcDbEntity
  8
2
  6
Continuous
 62
     4
100
AcDbLine
 10
-3054.910407237957
 20
-457.8644850962789
 30
0.0
 11
-3058.910353889966
 21
-461.8644317482883
 31
0.0
  0
LINE
  5
207
330
1F
100
AcDbEntity
  8
2
  6
Continuous
 62
     4
100
AcDbLine
 10
-3058.1946346831
 20
-454.0777390363689
 30
0.0
 11
-3059.91034055297
 21
-455.7934449062393
 31
0.0
  0
LINE
  5
208
330
1F
100
AcDbEntity
  8
2
  6
Continuous
 62
     4
100
AcDbLine
 10
-3022.910834021873
 20
-473.006418769384
 30
0.0
 11
-3026.910780673884
 21
-477.0063654213952
 31
0.0
  0
LINE
  5
209
330
1F
100
AcDbEntity
  8
2
  6
Continuous
 62
     4
100
AcDbLine
 10
-3022.910834021871
 20
-465.9354452643308
 30
0.0
 11
-3025.910794010882
 21
-468.9354052533415
 31
0.0
  0
LINE
  5
20A
330
1F
100
AcDbEntity
  8
2
  6
Continuous
 62
     4
100
AcDbLine
 10
-3021.910847358872
 20
-457.8644850962789
 30
0.0
 11
-3025.910794010882
 21
-461.8644317482883
 31
0.0
  0
LINE
  5
20B
330
1F
100
AcDbEntity
  8
2
  6
Continuous
 62
     4
100
AcDbLine
 10
-3025.195074804015
 20
-454.0777390363689
 30
0.0
 11
-3026.910780673884
 21
-455.7934449062393
 31
0.0
  0
LINE
  5
20C
330
1F
100
AcDbEntity
  8
2
  6
Continuous
 62
     4
100
AcDbLine
 10
-2989.911274142786
 20
-473.006418769384
 30
0.0
 11
-2993.911220794799
 21
-477.0063654213952
 31
0.0
  0
LINE
  5
20D
330
1F
100
AcDbEntity
  8
2
  6
Continuous
 62
     4
100
AcDbLine
 10
-2989.911274142786
 20
-465.9354452643308
 30
0.0
 11
-2992.911234131797
 21
-468.9354052533415
 31
0.0
  0
LINE
  5
20E
330
1F
100
AcDbEntity
  8
2
  6
Continuous
 62
     4
100
AcDbLine
 10
-2988.911287479787
 20
-457.8644850962789
 30
0.0
 11
-2992.911234131797
 21
-461.8644317482883
 31
0.0
  0
LINE
  5
20F
330
1F
100
AcDbEntity
  8
2
  6
Continuous
 62
     4
100
AcDbLine
 10
-2992.195514924931
 20
-454.0777390363689
 30
0.0
 11
-2993.911220794799
 21
-455.7934449062393
 31
0.0
  0
LINE
  5
210
330
1F
100
AcDbEntity
  8
2
  6
Continuous
 62
     2
100
AcDbLine
 10
-2969.911540882701
 20
-484.0773389264466
 30
0.0
 11
-2969.911540882701
 21
-454.0777390363708
 31
0.0
  0
LINE
  5
211
330
1F
100
AcDbEntity
  8
2
  6
Continuous
 62
     2
100
AcDbLine
 10
-3290.907259706565
 20
-458.5776790198813
 30
0.0
 11
-3289.907273043563
 21
-459.5776656828837
 31
0.0
  0
LINE
  5
212
330
1F
100
AcDbEntity
  8
2
  6
Continuous
 62
     2
100
AcDbLine
 10
-3289.907273043563
 20
-459.5776656828855
 30
0.0
 11
-3289.907273043563
 21
-473.5774789649165
 31
0.0
  0
LINE
  5
213
330
1F
100
AcDbEntity
  8
2
  6
Continuous
 62
     2
100
AcDbLine
 10
-3290.907259706565
 20
-474.5774656279207
 30
0.0
 11
-3289.907273043563
 21
-473.5774789649165
 31
0.0
  0
LINE
  5
214
330
1F
100
AcDbEntity
  8
2
  6
Continuous
 62
     2
100
AcDbLine
 10
-3286.907313054554
 20
-473.5774789649165
 30
0.0
 11
-3285.907326391553
 21
-474.5774656279207
 31
0.0
  0
LINE
  5
215
330
1F
100
AcDbEntity
  8
2
  6
Continuous
 62
     2
100
AcDbLine
 10
-3286.907313054554
 20
-473.5774789649165
 30
0.0
 11
-3286.907313054554
 21
-459.5776656828837
 31
0.0
  0
LINE
  5
216
330
1F
100
AcDbEntity
  8
2
  6
Continuous
 62
     2
100
AcDbLine
 10
-3285.907326391553
 20
-458.5776790198813
 30
0.0
 11
-3286.907313054554
 21
-459.5776656828837
 31
0.0
  0
LINE
  5
217
330
1F
100
AcDbEntity
  8
2
  6
Continuous
 62
     2
100
AcDbLine
 10
-3285.907326391553
 20
-479.0774056114331
 30
0.0
 11
-3285.907326391553
 21
-474.5774656279243
 31
0.0
  0
LINE
  5
218
330
1F
100
AcDbEntity
  8
2
  6
Continuous
 62
     2
100
AcDbLine
 10
-3285.907326391553
 20
-458.5776790198813
 30
0.0
 11
-3285.907326391553
 21
-454.0777390363689
 31
0.0
  0
LINE
  5
219
330
1F
100
AcDbEntity
  8
2
  6
Continuous
 62
     2
100
AcDbLine
 10
-3290.907259706565
 20
-479.0774056114331
 30
0.0
 11
-3290.907259706565
 21
-474.5774656279134
 31
0.0
  0
LINE
  5
21A
330
1F
100
AcDbEntity
  8
2
  6
Continuous
 62
     2
100
AcDbLine
 10
-3290.907259706565
 20
-458.5776790198831
 30
0.0
 11
-3290.907259706565
 21
-454.0777390363689
 31
0.0
  0
LINE
  5
21B
330
1F
100
AcDbEntity
  8
2
  6
Continuous
 62
     2
100
AcDbLine
 10
-3257.90769982748
 20
-479.0774056114331
 30
0.0
 11
-3252.907766512467
 21
-479.0774056114331
 31
0.0
  0
LINE
  5
21C
330
1F
100
AcDbEntity
  8
2
  6
Continuous
 62
     2
100
AcDbLine
 10
-3257.90769982748
 20
-458.5776790198813
 30
0.0
 11
-3256.907713164478
 21
-459.5776656828837
 31
0.0
  0
LINE
  5
21D
330
1F
100
AcDbEntity
  8
2
  6
Continuous
 62
     2
100
AcDbLine
 10
-3256.907713164478
 20
-459.5776656828855
 30
0.0
 11
-3256.907713164478
 21
-473.5774789649165
 31
0.0
  0
LINE
  5
21E
330
1F
100
AcDbEntity
  8
2
  6
Continuous
 62
     2
100
AcDbLine
 10
-3257.90769982748
 20
-474.5774656279207
 30
0.0
 11
-3256.907713164478
 21
-473.5774789649165
 31
0.0
  0
LINE
  5
21F
330
1F
100
AcDbEntity
  8
2
  6
Continuous
 62
     2
100
AcDbLine
 10
-3253.907753175469
 20
-473.5774789649165
 30
0.0
 11
-3252.907766512467
 21
-474.5774656279207
 31
0.0
  0
LINE
  5
220
330
1F
100
AcDbEntity
  8
2
  6
Continuous
 62
     2
100
AcDbLine
 10
-3253.907753175469
 20
-473.5774789649165
 30
0.0
 11
-3253.907753175469
 21
-459.5776656828837
 31
0.0
  0
LINE
  5
221
330
1F
100
AcDbEntity
  8
2
  6
Continuous
 62
     2
100
AcDbLine
 10
-3252.907766512467
 20
-458.5776790198813
 30
0.0
 11
-3253.907753175469
 21
-459.5776656828837
 31
0.0
  0
LINE
  5
222
330
1F
100
AcDbEntity
  8
2
  6
Continuous
 62
     2
100
AcDbLine
 10
-3252.907766512467
 20
-479.0774056114331
 30
0.0
 11
-3252.907766512467
 21
-474.5774656279243
 31
0.0
  0
LINE
  5
223
330
1F
100
AcDbEntity
  8
2
  6
Continuous
 62
     2
100
AcDbLine
 10
-3252.907766512467
 20
-458.5776790198813
 30
0.0
 11
-3252.907766512467
 21
-454.0777390363689
 31
0.0
  0
LINE
  5
224
330
1F
100
AcDbEntity
  8
2
  6
Continuous
 62
     2
100
AcDbLine
 10
-3257.90769982748
 20
-479.0774056114331
 30
0.0
 11
-3257.90769982748
 21
-474.5774656279134
 31
0.0
  0
LINE
  5
225
330
1F
100
AcDbEntity
  8
2
  6
Continuous
 62
     2
100
AcDbLine
 10
-3257.90769982748
 20
-458.5776790198831
 30
0.0
 11
-3257.90769982748
 21
-454.0777390363689
 31
0.0
  0
LINE
  5
226
330
1F
100
AcDbEntity
  8
2
  6
Continuous
 62
     2
100
AcDbLine
 10
-3224.908139948394
 20
-479.0774056114331
 30
0.0
 11
-3219.908206633382
 21
-479.0774056114331
 31
0.0
  0
LINE
  5
227
330
1F
100
AcDbEntity
  8
2
  6
Continuous
 62
     2
100
AcDbLine
 10
-3224.908139948394
 20
-458.5776790198813
 30
0.0
 11
-3223.908153285392
 21
-459.5776656828837
 31
0.0
  0
LINE
  5
228
330
1F
100
AcDbEntity
  8
2
  6
Continuous
 62
     2
100
AcDbLine
 10
-3223.908153285392
 20
-459.5776656828855
 30
0.0
 11
-3223.908153285392
 21
-473.5774789649165
 31
0.0
  0
LINE
  5
229
330
1F
100
AcDbEntity
  8
2
  6
Continuous
 62
     2
100
AcDbLine
 10
-3224.908139948394
 20
-474.5774656279207
 30
0.0
 11
-3223.908153285392
 21
-473.5774789649165
 31
0.0
  0
LINE
  5
22A
330
1F
100
AcDbEntity
  8
2
  6
Continuous
 62
     2
100
AcDbLine
 10
-3220.908193296383
 20
-473.5774789649165
 30
0.0
 11
-3219.90820663338
 21
-474.5774656279207
 31
0.0
  0
LINE
  5
22B
330
1F
100
AcDbEntity
  8
2
  6
Continuous
 62
     2
100
AcDbLine
 10
-3220.908193296383
 20
-473.5774789649165
 30
0.0
 11
-3220.908193296383
 21
-459.5776656828837
 31
0.0
  0
LINE
  5
22C
330
1F
100
AcDbEntity
  8
2
  6
Continuous
 62
     2
100
AcDbLine
 10
-3219.90820663338
 20
-458.5776790198813
 30
0.0
 11
-3220.908193296383
 21
-459.5776656828837
 31
0.0
  0
LINE
  5
22D
330
1F
100
AcDbEntity
  8
2
  6
Continuous
 62
     2
100
AcDbLine
 10
-3219.908206633382
 20
-479.0774056114331
 30
0.0
 11
-3219.90820663338
 21
-474.5774656279243
 31
0.0
  0
LINE
  5
22E
330
1F
100
AcDbEntity
  8
2
  6
Continuous
 62
     2
100
AcDbLine
 10
-3219.90820663338
 20
-458.5776790198813
 30
0.0
 11
-3219.90820663338
 21
-454.0777390363689
 31
0.0
  0
LINE
  5
22F
330
1F
100
AcDbEntity
  8
2
  6
Continuous
 62
     2
100
AcDbLine
 10
-3224.908139948394
 20
-479.0774056114331
 30
0.0
 11
-3224.908139948394
 21
-474.5774656279134
 31
0.0
  0
LINE
  5
230
330
1F
100
AcDbEntity
  8
2
  6
Continuous
 62
     2
100
AcDbLine
 10
-3224.908139948394
 20
-458.5776790198831
 30
0.0
 11
-3224.908139948394
 21
-454.0777390363689
 31
0.0
  0
LINE
  5
231
330
1F
100
AcDbEntity
  8
2
  6
Continuous
 62
     2
100
AcDbLine
 10
-3191.908580069309
 20
-479.0774056114331
 30
0.0
 11
-3186.908646754297
 21
-479.0774056114331
 31
0.0
  0
LINE
  5
232
330
1F
100
AcDbEntity
  8
2
  6
Continuous
 62
     2
100
AcDbLine
 10
-3191.908580069309
 20
-458.5776790198813
 30
0.0
 11
-3190.908593406307
 21
-459.5776656828837
 31
0.0
  0
LINE
  5
233
330
1F
100
AcDbEntity
  8
2
  6
Continuous
 62
     2
100
AcDbLine
 10
-3190.908593406307
 20
-459.5776656828855
 30
0.0
 11
-3190.908593406307
 21
-473.5774789649165
 31
0.0
  0
LINE
  5
234
330
1F
100
AcDbEntity
  8
2
  6
Continuous
 62
     2
100
AcDbLine
 10
-3191.908580069309
 20
-474.5774656279207
 30
0.0
 11
-3190.908593406307
 21
-473.5774789649165
 31
0.0
  0
LINE
  5
235
330
1F
100
AcDbEntity
  8
2
  6
Continuous
 62
     2
100
AcDbLine
 10
-3187.908633417298
 20
-473.5774789649165
 30
0.0
 11
-3186.908646754296
 21
-474.5774656279207
 31
0.0
  0
LINE
  5
236
330
1F
100
AcDbEntity
  8
2
  6
Continuous
 62
     2
100
AcDbLine
 10
-3187.908633417298
 20
-473.5774789649165
 30
0.0
 11
-3187.908633417298
 21
-459.5776656828837
 31
0.0
  0
LINE
  5
237
330
1F
100
AcDbEntity
  8
2
  6
Continuous
 62
     2
100
AcDbLine
 10
-3186.908646754296
 20
-458.5776790198813
 30
0.0
 11
-3187.908633417298
 21
-459.5776656828837
 31
0.0
  0
LINE
  5
238
330
1F
100
AcDbEntity
  8
2
  6
Continuous
 62
     2
100
AcDbLine
 10
-3186.908646754297
 20
-479.0774056114331
 30
0.0
 11
-3186.908646754296
 21
-474.5774656279243
 31
0.0
  0
LINE
  5
239
330
1F
100
AcDbEntity
  8
2
  6
Continuous
 62
     2
100
AcDbLine
 10
-3186.908646754296
 20
-458.5776790198813
 30
0.0
 11
-3186.908646754296
 21
-454.0777390363689
 31
0.0
  0
LINE
  5
23A
330
1F
100
AcDbEntity
  8
2
  6
Continuous
 62
     2
100
AcDbLine
 10
-3191.908580069309
 20
-479.0774056114331
 30
0.0
 11
-3191.908580069309
 21
-474.5774656279134
 31
0.0
  0
LINE
  5
23B
330
1F
100
AcDbEntity
  8
2
  6
Continuous
 62
     2
100
AcDbLine
 10
-3191.908580069309
 20
-458.5776790198831
 30
0.0
 11
-3191.908580069309
 21
-454.0777390363689
 31
0.0
  0
LINE
  5
23C
330
1F
100
AcDbEntity
  8
2
  6
Continuous
 62
     2
100
AcDbLine
 10
-3158.909020190223
 20
-479.0774056114331
 30
0.0
 11
-3153.909086875211
 21
-479.0774056114331
 31
0.0
  0
LINE
  5
23D
330
1F
100
AcDbEntity
  8
2
  6
Continuous
 62
     2
100
AcDbLine
 10
-3158.909020190223
 20
-458.5776790198813
 30
0.0
 11
-3157.90903352722
 21
-459.5776656828837
 31
0.0
  0
LINE
  5
23E
330
1F
100
AcDbEntity
  8
2
  6
Continuous
 62
     2
100
AcDbLine
 10
-3157.90903352722
 20
-459.5776656828855
 30
0.0
 11
-3157.90903352722
 21
-473.5774789649165
 31
0.0
  0
LINE
  5
23F
330
1F
100
AcDbEntity
  8
2
  6
Continuous
 62
     2
100
AcDbLine
 10
-3158.909020190223
 20
-474.5774656279207
 30
0.0
 11
-3157.909033527222
 21
-473.5774789649165
 31
0.0
  0
LINE
  5
240
330
1F
100
AcDbEntity
  8
2
  6
Continuous
 62
     2
100
AcDbLine
 10
-3154.909073538213
 20
-473.5774789649165
 30
0.0
 11
-3153.909086875211
 21
-474.5774656279207
 31
0.0
  0
LINE
  5
241
330
1F
100
AcDbEntity
  8
2
  6
Continuous
 62
     2
100
AcDbLine
 10
-3154.909073538213
 20
-473.5774789649165
 30
0.0
 11
-3154.909073538213
 21
-459.5776656828837
 31
0.0
  0
LINE
  5
242
330
1F
100
AcDbEntity
  8
2
  6
Continuous
 62
     2
100
AcDbLine
 10
-3153.909086875211
 20
-458.5776790198813
 30
0.0
 11
-3154.909073538213
 21
-459.5776656828837
 31
0.0
  0
LINE
  5
243
330
1F
100
AcDbEntity
  8
2
  6
Continuous
 62
     2
100
AcDbLine
 10
-3153.909086875211
 20
-479.0774056114331
 30
0.0
 11
-3153.909086875211
 21
-474.5774656279243
 31
0.0
  0
LINE
  5
244
330
1F
100
AcDbEntity
  8
2
  6
Continuous
 62
     2
100
AcDbLine
 10
-3153.909086875211
 20
-458.5776790198813
 30
0.0
 11
-3153.909086875211
 21
-454.0777390363689
 31
0.0
  0
LINE
  5
245
330
1F
100
AcDbEntity
  8
2
  6
Continuous
 62
     2
100
AcDbLine
 10
-3158.909020190223
 20
-479.0774056114331
 30
0.0
 11
-3158.909020190223
 21
-474.5774656279134
 31
0.0
  0
LINE
  5
246
330
1F
100
AcDbEntity
  8
2
  6
Continuous
 62
     2
100
AcDbLine
 10
-3158.909020190223
 20
-458.5776790198831
 30
0.0
 11
-3158.909020190223
 21
-454.0777390363689
 31
0.0
  0
LINE
  5
247
330
1F
100
AcDbEntity
  8
2
  6
Continuous
 62
     2
100
AcDbLine
 10
-3125.909460311138
 20
-479.0774056114331
 30
0.0
 11
-3120.909526996126
 21
-479.0774056114331
 31
0.0
  0
LINE
  5
248
330
1F
100
AcDbEntity
  8
2
  6
Continuous
 62
     2
100
AcDbLine
 10
-3125.909460311138
 20
-458.5776790198813
 30
0.0
 11
-3124.909473648136
 21
-459.5776656828837
 31
0.0
  0
LINE
  5
249
330
1F
100
AcDbEntity
  8
2
  6
Continuous
 62
     2
100
AcDbLine
 10
-3124.909473648136
 20
-459.5776656828855
 30
0.0
 11
-3124.909473648136
 21
-473.5774789649165
 31
0.0
  0
LINE
  5
24A
330
1F
100
AcDbEntity
  8
2
  6
Continuous
 62
     2
100
AcDbLine
 10
-3125.909460311138
 20
-474.5774656279207
 30
0.0
 11
-3124.909473648137
 21
-473.5774789649165
 31
0.0
  0
LINE
  5
24B
330
1F
100
AcDbEntity
  8
2
  6
Continuous
 62
     2
100
AcDbLine
 10
-3121.909513659129
 20
-473.5774789649165
 30
0.0
 11
-3120.909526996126
 21
-474.5774656279207
 31
0.0
  0
LINE
  5
24C
330
1F
100
AcDbEntity
  8
2
  6
Continuous
 62
     2
100
AcDbLine
 10
-3121.909513659129
 20
-473.5774789649165
 30
0.0
 11
-3121.909513659129
 21
-459.5776656828837
 31
0.0
  0
LINE
  5
24D
330
1F
100
AcDbEntity
  8
2
  6
Continuous
 62
     2
100
AcDbLine
 10
-3120.909526996126
 20
-458.5776790198813
 30
0.0
 11
-3121.909513659129
 21
-459.5776656828837
 31
0.0
  0
LINE
  5
24E
330
1F
100
AcDbEntity
  8
2
  6
Continuous
 62
     2
100
AcDbLine
 10
-3120.909526996126
 20
-479.0774056114331
 30
0.0
 11
-3120.909526996126
 21
-474.5774656279243
 31
0.0
  0
LINE
  5
24F
330
1F
100
AcDbEntity
  8
2
  6
Continuous
 62
     2
100
AcDbLine
 10
-3120.909526996126
 20
-458.5776790198813
 30
0.0
 11
-3120.909526996126
 21
-454.0777390363689
 31
0.0
  0
LINE
  5
250
330
1F
100
AcDbEntity
  8
2
  6
Continuous
 62
     2
100
AcDbLine
 10
-3125.909460311138
 20
-479.0774056114331
 30
0.0
 11
-3125.909460311138
 21
-474.5774656279134
 31
0.0
  0
LINE
  5
251
330
1F
100
AcDbEntity
  8
2
  6
Continuous
 62
     2
100
AcDbLine
 10
-3125.909460311138
 20
-458.5776790198831
 30
0.0
 11
-3125.909460311138
 21
-454.0777390363689
 31
0.0
  0
LINE
  5
252
330
1F
100
AcDbEntity
  8
2
  6
Continuous
 62
     2
100
AcDbLine
 10
-3092.909900432053
 20
-479.0774056114331
 30
0.0
 11
-3087.909967117042
 21
-479.0774056114331
 31
0.0
  0
LINE
  5
253
330
1F
100
AcDbEntity
  8
2
  6
Continuous
 62
     2
100
AcDbLine
 10
-3092.909900432053
 20
-458.5776790198813
 30
0.0
 11
-3091.909913769051
 21
-459.5776656828837
 31
0.0
  0
LINE
  5
254
330
1F
100
AcDbEntity
  8
2
  6
Continuous
 62
     2
100
AcDbLine
 10
-3091.909913769051
 20
-459.5776656828855
 30
0.0
 11
-3091.909913769051
 21
-473.5774789649165
 31
0.0
  0
LINE
  5
255
330
1F
100
AcDbEntity
  8
2
  6
Continuous
 62
     2
100
AcDbLine
 10
-3092.909900432053
 20
-474.5774656279207
 30
0.0
 11
-3091.909913769051
 21
-473.5774789649165
 31
0.0
  0
LINE
  5
256
330
1F
100
AcDbEntity
  8
2
  6
Continuous
 62
     2
100
AcDbLine
 10
-3088.909953780044
 20
-473.5774789649165
 30
0.0
 11
-3087.909967117042
 21
-474.5774656279207
 31
0.0
  0
LINE
  5
257
330
1F
100
AcDbEntity
  8
2
  6
Continuous
 62
     2
100
AcDbLine
 10
-3088.909953780044
 20
-473.5774789649165
 30
0.0
 11
-3088.909953780044
 21
-459.5776656828837
 31
0.0
  0
LINE
  5
258
330
1F
100
AcDbEntity
  8
2
  6
Continuous
 62
     2
100
AcDbLine
 10
-3087.909967117042
 20
-458.5776790198813
 30
0.0
 11
-3088.909953780044
 21
-459.5776656828837
 31
0.0
  0
LINE
  5
259
330
1F
100
AcDbEntity
  8
2
  6
Continuous
 62
     2
100
AcDbLine
 10
-3087.909967117042
 20
-479.0774056114331
 30
0.0
 11
-3087.909967117042
 21
-474.5774656279243
 31
0.0
  0
LINE
  5
25A
330
1F
100
AcDbEntity
  8
2
  6
Continuous
 62
     2
100
AcDbLine
 10
-3087.909967117042
 20
-458.5776790198813
 30
0.0
 11
-3087.909967117042
 21
-454.0777390363689
 31
0.0
  0
LINE
  5
25B
330
1F
100
AcDbEntity
  8
2
  6
Continuous
 62
     2
100
AcDbLine
 10
-3092.909900432053
 20
-479.0774056114331
 30
0.0
 11
-3092.909900432053
 21
-474.5774656279134
 31
0.0
  0
LINE
  5
25C
330
1F
100
AcDbEntity
  8
2
  6
Continuous
 62
     2
100
AcDbLine
 10
-3092.909900432053
 20
-458.5776790198831
 30
0.0
 11
-3092.909900432053
 21
-454.0777390363689
 31
0.0
  0
LINE
  5
25D
330
1F
100
AcDbEntity
  8
2
  6
Continuous
 62
     2
100
AcDbLine
 10
-3059.910340552969
 20
-479.0774056114331
 30
0.0
 11
-3054.910407237957
 21
-479.0774056114331
 31
0.0
  0
LINE
  5
25E
330
1F
100
AcDbEntity
  8
2
  6
Continuous
 62
     2
100
AcDbLine
 10
-3059.910340552969
 20
-458.5776790198813
 30
0.0
 11
-3058.910353889966
 21
-459.5776656828837
 31
0.0
  0
LINE
  5
25F
330
1F
100
AcDbEntity
  8
2
  6
Continuous
 62
     2
100
AcDbLine
 10
-3058.910353889966
 20
-459.5776656828855
 30
0.0
 11
-3058.910353889966
 21
-473.5774789649165
 31
0.0
  0
LINE
  5
260
330
1F
100
AcDbEntity
  8
2
  6
Continuous
 62
     2
100
AcDbLine
 10
-3059.910340552969
 20
-474.5774656279207
 30
0.0
 11
-3058.910353889966
 21
-473.5774789649165
 31
0.0
  0
LINE
  5
261
330
1F
100
AcDbEntity
  8
2
  6
Continuous
 62
     2
100
AcDbLine
 10
-3055.910393900959
 20
-473.5774789649165
 30
0.0
 11
-3054.910407237957
 21
-474.5774656279207
 31
0.0
  0
LINE
  5
262
330
1F
100
AcDbEntity
  8
2
  6
Continuous
 62
     2
100
AcDbLine
 10
-3055.910393900959
 20
-473.5774789649165
 30
0.0
 11
-3055.910393900959
 21
-459.5776656828837
 31
0.0
  0
LINE
  5
263
330
1F
100
AcDbEntity
  8
2
  6
Continuous
 62
     2
100
AcDbLine
 10
-3054.910407237955
 20
-458.5776790198813
 30
0.0
 11
-3055.910393900959
 21
-459.5776656828837
 31
0.0
  0
LINE
  5
264
330
1F
100
AcDbEntity
  8
2
  6
Continuous
 62
     2
100
AcDbLine
 10
-3054.910407237957
 20
-479.0774056114331
 30
0.0
 11
-3054.910407237957
 21
-474.5774656279243
 31
0.0
  0
LINE
  5
265
330
1F
100
AcDbEntity
  8
2
  6
Continuous
 62
     2
100
AcDbLine
 10
-3054.910407237955
 20
-458.5776790198813
 30
0.0
 11
-3054.910407237957
 21
-454.0777390363689
 31
0.0
  0
LINE
  5
266
330
1F
100
AcDbEntity
  8
2
  6
Continuous
 62
     2
100
AcDbLine
 10
-3059.910340552969
 20
-479.0774056114331
 30
0.0
 11
-3059.910340552969
 21
-474.5774656279134
 31
0.0
  0
LINE
  5
267
330
1F
100
AcDbEntity
  8
2
  6
Continuous
 62
     2
100
AcDbLine
 10
-3059.910340552969
 20
-458.5776790198831
 30
0.0
 11
-3059.910340552969
 21
-454.0777390363689
 31
0.0
  0
LINE
  5
268
330
1F
100
AcDbEntity
  8
2
  6
Continuous
 62
     2
100
AcDbLine
 10
-3026.910780673884
 20
-479.0774056114331
 30
0.0
 11
-3021.91084735887
 21
-479.0774056114331
 31
0.0
  0
LINE
  5
269
330
1F
100
AcDbEntity
  8
2
  6
Continuous
 62
     2
100
AcDbLine
 10
-3026.910780673884
 20
-458.5776790198813
 30
0.0
 11
-3025.910794010882
 21
-459.5776656828837
 31
0.0
  0
LINE
  5
26A
330
1F
100
AcDbEntity
  8
2
  6
Continuous
 62
     2
100
AcDbLine
 10
-3025.910794010882
 20
-459.5776656828855
 30
0.0
 11
-3025.910794010882
 21
-473.5774789649165
 31
0.0
  0
LINE
  5
26B
330
1F
100
AcDbEntity
  8
2
  6
Continuous
 62
     2
100
AcDbLine
 10
-3026.910780673884
 20
-474.5774656279207
 30
0.0
 11
-3025.910794010882
 21
-473.5774789649165
 31
0.0
  0
LINE
  5
26C
330
1F
100
AcDbEntity
  8
2
  6
Continuous
 62
     2
100
AcDbLine
 10
-3022.910834021875
 20
-473.5774789649165
 30
0.0
 11
-3021.91084735887
 21
-474.5774656279207
 31
0.0
  0
LINE
  5
26D
330
1F
100
AcDbEntity
  8
2
  6
Continuous
 62
     2
100
AcDbLine
 10
-3022.910834021875
 20
-473.5774789649165
 30
0.0
 11
-3022.910834021875
 21
-459.5776656828837
 31
0.0
  0
LINE
  5
26E
330
1F
100
AcDbEntity
  8
2
  6
Continuous
 62
     2
100
AcDbLine
 10
-3021.91084735887
 20
-458.5776790198813
 30
0.0
 11
-3022.910834021875
 21
-459.5776656828837
 31
0.0
  0
LINE
  5
26F
330
1F
100
AcDbEntity
  8
2
  6
Continuous
 62
     2
100
AcDbLine
 10
-3021.91084735887
 20
-479.0774056114331
 30
0.0
 11
-3021.91084735887
 21
-474.5774656279243
 31
0.0
  0
LINE
  5
270
330
1F
100
AcDbEntity
  8
2
  6
Continuous
 62
     2
100
AcDbLine
 10
-3021.91084735887
 20
-458.5776790198813
 30
0.0
 11
-3021.91084735887
 21
-454.0777390363689
 31
0.0
  0
LINE
  5
271
330
1F
100
AcDbEntity
  8
2
  6
Continuous
 62
     2
100
AcDbLine
 10
-3026.910780673884
 20
-479.0774056114331
 30
0.0
 11
-3026.910780673884
 21
-474.5774656279134
 31
0.0
  0
LINE
  5
272
330
1F
100
AcDbEntity
  8
2
  6
Continuous
 62
     2
100
AcDbLine
 10
-3026.910780673884
 20
-458.5776790198831
 30
0.0
 11
-3026.910780673884
 21
-454.0777390363689
 31
0.0
  0
LINE
  5
273
330
1F
100
AcDbEntity
  8
2
  6
Continuous
 62
     2
100
AcDbLine
 10
-2993.911220794799
 20
-458.5776790198813
 30
0.0
 11
-2992.911234131795
 21
-459.5776656828837
 31
0.0
  0
LINE
  5
274
330
1F
100
AcDbEntity
  8
2
  6
Continuous
 62
     2
100
AcDbLine
 10
-2992.911234131795
 20
-459.5776656828855
 30
0.0
 11
-2992.911234131795
 21
-473.5774789649165
 31
0.0
  0
LINE
  5
275
330
1F
100
AcDbEntity
  8
2
  6
Continuous
 62
     2
100
AcDbLine
 10
-2993.911220794799
 20
-474.5774656279207
 30
0.0
 11
-2992.911234131797
 21
-473.5774789649165
 31
0.0
  0
LINE
  5
276
330
1F
100
AcDbEntity
  8
2
  6
Continuous
 62
     2
100
AcDbLine
 10
-2989.911274142786
 20
-473.5774789649165
 30
0.0
 11
-2988.911287479786
 21
-474.5774656279207
 31
0.0
  0
LINE
  5
277
330
1F
100
AcDbEntity
  8
2
  6
Continuous
 62
     2
100
AcDbLine
 10
-2989.911274142786
 20
-473.5774789649165
 30
0.0
 11
-2989.911274142786
 21
-459.5776656828837
 31
0.0
  0
LINE
  5
278
330
1F
100
AcDbEntity
  8
2
  6
Continuous
 62
     2
100
AcDbLine
 10
-2988.911287479786
 20
-458.5776790198813
 30
0.0
 11
-2989.911274142786
 21
-459.5776656828837
 31
0.0
  0
LINE
  5
279
330
1F
100
AcDbEntity
  8
2
  6
Continuous
 62
     2
100
AcDbLine
 10
-2988.911287479786
 20
-479.0774056114331
 30
0.0
 11
-2988.911287479786
 21
-474.5774656279243
 31
0.0
  0
LINE
  5
27A
330
1F
100
AcDbEntity
  8
2
  6
Continuous
 62
     2
100
AcDbLine
 10
-2988.911287479786
 20
-458.5776790198813
 30
0.0
 11
-2988.911287479786
 21
-454.0777390363689
 31
0.0
  0
LINE
  5
27B
330
1F
100
AcDbEntity
  8
2
  6
Continuous
 62
     2
100
AcDbLine
 10
-2993.911220794799
 20
-479.0774056114331
 30
0.0
 11
-2993.911220794799
 21
-474.5774656279134
 31
0.0
  0
LINE
  5
27C
330
1F
100
AcDbEntity
  8
2
  6
Continuous
 62
     2
100
AcDbLine
 10
-2993.911220794799
 20
-458.5776790198831
 30
0.0
 11
-2993.911220794799
 21
-454.0777390363689
 31
0.0
  0
LINE
  5
27D
330
1F
100
AcDbEntity
  8
2
  6
Continuous
 62
     2
100
AcDbLine
 10
-3309.90700630365
 20
-473.077485633419
 30
0.0
 11
-3289.907273043563
 21
-473.077485633419
 31
0.0
  0
LINE
  5
27E
330
1F
100
AcDbEntity
  8
2
  6
Continuous
 62
     2
100
AcDbLine
 10
-3286.907313054552
 20
-473.077485633419
 30
0.0
 11
-3256.907713164478
 21
-473.077485633419
 31
0.0
  0
LINE
  5
27F
330
1F
100
AcDbEntity
  8
2
  6
Continuous
 62
     2
100
AcDbLine
 10
-3253.907753175467
 20
-473.077485633419
 30
0.0
 11
-3223.908153285393
 21
-473.077485633419
 31
0.0
  0
LINE
  5
280
330
1F
100
AcDbEntity
  8
2
  6
Continuous
 62
     2
100
AcDbLine
 10
-3220.908193296383
 20
-473.077485633419
 30
0.0
 11
-3190.908593406309
 21
-473.077485633419
 31
0.0
  0
LINE
  5
281
330
1F
100
AcDbEntity
  8
2
  6
Continuous
 62
     2
100
AcDbLine
 10
-3187.908633417298
 20
-473.077485633419
 30
0.0
 11
-3157.909033527224
 21
-473.077485633419
 31
0.0
  0
LINE
  5
282
330
1F
100
AcDbEntity
  8
2
  6
Continuous
 62
     2
100
AcDbLine
 10
-3154.909073538213
 20
-473.077485633419
 30
0.0
 11
-3124.909473648139
 21
-473.077485633419
 31
0.0
  0
LINE
  5
283
330
1F
100
AcDbEntity
  8
2
  6
Continuous
 62
     2
100
AcDbLine
 10
-3121.909513659127
 20
-473.077485633419
 30
0.0
 11
-3091.909913769053
 21
-473.077485633419
 31
0.0
  0
LINE
  5
284
330
1F
100
AcDbEntity
  8
2
  6
Continuous
 62
     2
100
AcDbLine
 10
-3088.909953780042
 20
-473.077485633419
 30
0.0
 11
-3058.910353889968
 21
-473.077485633419
 31
0.0
  0
LINE
  5
285
330
1F
100
AcDbEntity
  8
2
  6
Continuous
 62
     2
100
AcDbLine
 10
-3055.910393900957
 20
-473.077485633419
 30
0.0
 11
-3025.910794010883
 21
-473.077485633419
 31
0.0
  0
LINE
  5
286
330
1F
100
AcDbEntity
  8
2
  6
Continuous
 62
     2
100
AcDbLine
 10
-3022.910834021871
 20
-473.077485633419
 30
0.0
 11
-2992.911234131799
 21
-473.077485633419
 31
0.0
  0
LINE
  5
287
330
1F
100
AcDbEntity
  8
2
  6
Continuous
 62
     2
100
AcDbLine
 10
-2989.911274142786
 20
-473.077485633419
 30
0.0
 11
-2969.911540882701
 21
-473.077485633419
 31
0.0
  0
LINE
  5
288
330
1F
100
AcDbEntity
  8
2
  6
CENTER2
 62
     3
100
AcDbLine
 10
-2991.411254137286
 20
-482.0297713766483
 30
0.0
 11
-2991.41125413729
 21
-447.3034754380531
 31
0.0
  0
LINE
  5
289
330
1F
100
AcDbEntity
  8
2
  6
CENTER2
 62
     3
100
AcDbLine
 10
-3024.410814016371
 20
-482.0297713766483
 30
0.0
 11
-3024.410814016374
 21
-447.3034754380531
 31
0.0
  0
LINE
  5
28A
330
1F
100
AcDbEntity
  8
2
  6
Continuous
 62
     2
100
AcDbLine
 10
-3309.90700630365
 20
-484.0773389264466
 30
0.0
 11
-3309.907006303652
 21
-454.0777390363708
 31
0.0
  0
LINE
  5
28B
330
1F
100
AcDbEntity
  8
2
  6
Continuous
 62
     4
100
AcDbLine
 10
-2964.911607567724
 20
-479.5799242262144
 30
0.0
 11
-2969.911540882739
 21
-474.579990911199
 31
0.0
  0
LINE
  5
28C
330
1F
100
AcDbEntity
  8
2
  6
Continuous
 62
     4
100
AcDbLine
 10
-2964.911607567724
 20
-472.5089507211612
 30
0.0
 11
-2969.911540882739
 21
-467.5090174061459
 31
0.0
  0
LINE
  5
28D
330
1F
100
AcDbEntity
  8
2
  6
Continuous
 62
     4
100
AcDbLine
 10
-2964.911607567724
 20
-465.4379772161099
 30
0.0
 11
-2969.911540882739
 21
-460.4380439010945
 31
0.0
  0
LINE
  5
28E
330
1F
100
AcDbEntity
  8
2
  6
Continuous
 62
     4
100
AcDbLine
 10
-2963.361810650897
 20
-459.916800627883
 30
0.0
 11
-2969.200872242408
 21
-454.0777390363708
 31
0.0
  0
LINE
  5
28F
330
1F
100
AcDbEntity
  8
2
  6
Continuous
 62
     4
100
AcDbLine
 10
-2957.129965422345
 20
-459.0776723513825
 30
0.0
 11
-2962.129898737357
 21
-454.0777390363708
 31
0.0
  0
LINE
  5
290
330
1F
100
AcDbEntity
  8
2
  6
Continuous
 62
     4
100
AcDbLine
 10
-2950.058991917293
 20
-459.0776723513807
 30
0.0
 11
-2955.058925232305
 21
-454.0777390363708
 31
0.0
  0
LINE
  5
291
330
1F
100
AcDbEntity
  8
2
  6
Continuous
 62
     4
100
AcDbLine
 10
-2942.988018412242
 20
-459.0776723513798
 30
0.0
 11
-2947.987951727254
 21
-454.0777390363708
 31
0.0
  0
LINE
  5
292
330
1F
100
AcDbEntity
  8
2
  6
Continuous
 62
     4
100
AcDbLine
 10
-3309.907006303584
 20
-478.7220712912774
 30
0.0
 11
-3314.9069396186
 21
-473.7221379762611
 31
0.0
  0
LINE
  5
293
330
1F
100
AcDbEntity
  8
2
  6
Continuous
 62
     4
100
AcDbLine
 10
-3329.551405243482
 20
-459.0776723513798
 30
0.0
 11
-3334.551338558492
 21
-454.0777390363708
 31
0.0
  0
LINE
  5
294
330
1F
100
AcDbEntity
  8
2
  6
Continuous
 62
     4
100
AcDbLine
 10
-3309.907006303584
 20
-471.6510977862251
 30
0.0
 11
-3314.9069396186
 21
-466.6511644712098
 31
0.0
  0
LINE
  5
295
330
1F
100
AcDbEntity
  8
2
  6
Continuous
 62
     4
100
AcDbLine
 10
-3322.480431738429
 20
-459.0776723513807
 30
0.0
 11
-3327.480365053439
 21
-454.0777390363708
 31
0.0
  0
LINE
  5
296
330
1F
100
AcDbEntity
  8
2
  6
Continuous
 62
     4
100
AcDbLine
 10
-3309.907006303584
 20
-464.5801242811719
 30
0.0
 11
-3320.409391548387
 21
-454.0777390363708
 31
0.0
  0
LINE
  5
297
330
1F
100
AcDbEntity
  8
2
  6
Continuous
 62
     4
100
AcDbLine
 10
-3309.907006303584
 20
-457.5091507761197
 30
0.0
 11
-3313.338418043336
 21
-454.0777390363708
 31
0.0
  0
LINE
  5
298
330
1F
100
AcDbEntity
  8
2
  6
Continuous
 62
     2
100
AcDbLine
 10
-2929.912074362634
 20
-454.0777390363708
 30
0.0
 11
-2969.911540882739
 21
-454.0777390363708
 31
0.0
  0
LINE
  5
299
330
1F
100
AcDbEntity
  8
2
  6
Continuous
 62
     2
100
AcDbLine
 10
-2932.912034351642
 20
-459.0776723513779
 30
0.0
 11
-2960.411667584213
 21
-459.0776723513952
 31
0.0
  0
LINE
  5
29A
330
1F
100
AcDbEntity
  8
2
  6
Continuous
 62
     2
100
AcDbLine
 10
-2969.911540882739
 20
-454.0777390363708
 30
0.0
 11
-2969.911540882739
 21
-494.0772055564837
 31
0.0
  0
LINE
  5
29B
330
1F
100
AcDbEntity
  8
2
  6
Continuous
 62
     2
100
AcDbLine
 10
-2964.911607567724
 20
-463.5776123349076
 30
0.0
 11
-2964.911607567724
 21
-491.0772455674748
 31
0.0
  0
LINE
  5
29C
330
1F
100
AcDbEntity
  8
2
  6
Continuous
 62
     2
100
AcDbLine
 10
-2929.912074362634
 20
-454.0777390363708
 30
0.0
 11
-2929.912074362634
 21
-456.07771236237
 31
0.0
  0
LINE
  5
29D
330
1F
100
AcDbEntity
  8
2
  6
Continuous
 62
     4
100
AcDbLine
 10
-2964.911607567722
 20
-486.6508977312676
 30
0.0
 11
-2969.911540882737
 21
-481.6509644162522
 31
0.0
  0
LINE
  5
29E
330
1F
100
AcDbEntity
  8
2
  6
Continuous
 62
     4
100
AcDbLine
 10
-2935.917044907193
 20
-459.0776723513789
 30
0.0
 11
-2940.916978222202
 21
-454.0777390363708
 31
0.0
  0
LINE
  5
29F
330
1F
100
AcDbEntity
  8
2
  6
Continuous
 62
     4
100
AcDbLine
 10
-2930.325794115216
 20
-457.5979496383022
 30
0.0
 11
-2933.846004717151
 21
-454.0777390363689
 31
0.0
  0
LINE
  5
2A0
330
1F
100
AcDbEntity
  8
2
  6
Continuous
 62
     4
100
AcDbLine
 10
-2965.620061626058
 20
-493.0134171779835
 30
0.0
 11
-2969.911540882736
 21
-488.7219379213054
 31
0.0
  0
LINE
  5
2A1
330
1F
100
AcDbEntity
  8
2
  6
Continuous
 62
     2
100
AcDbLine
 10
-3346.906512834711
 20
-459.0776723513779
 30
0.0
 11
-3319.406879602139
 21
-459.0776723513952
 31
0.0
  0
LINE
  5
2A2
330
1F
100
AcDbEntity
  8
2
  6
Continuous
 62
     2
100
AcDbLine
 10
-3314.906939618629
 20
-463.5776123349076
 30
0.0
 11
-3314.906939618629
 21
-491.0772455674748
 31
0.0
  0
LINE
  5
2A3
330
1F
100
AcDbEntity
  8
2
  6
Continuous
 62
     2
100
AcDbLine
 10
-3349.906472823718
 20
-454.0777390363708
 30
0.0
 11
-3349.906472823718
 21
-456.07771236237
 31
0.0
  0
LINE
  5
2A4
330
1F
100
AcDbEntity
  8
2
  6
Continuous
 62
     2
100
AcDbLine
 10
-3309.907006303584
 20
-454.0777390363708
 30
0.0
 11
-3309.907006303584
 21
-494.0772055564746
 31
0.0
  0
LINE
  5
2A5
330
1F
100
AcDbEntity
  8
2
  6
Continuous
 62
     2
100
AcDbLine
 10
-3349.906472823718
 20
-454.0777390363708
 30
0.0
 11
-3309.907006303584
 21
-454.0777390363708
 31
0.0
  0
LINE
  5
2A6
330
1F
100
AcDbEntity
  8
2
  6
Continuous
 62
     4
100
AcDbLine
 10
-3309.907006303584
 20
-485.7930447963288
 30
0.0
 11
-3314.9069396186
 21
-480.7931114813143
 31
0.0
  0
LINE
  5
2A7
330
1F
100
AcDbEntity
  8
2
  6
Continuous
 62
     4
100
AcDbLine
 10
-3309.907006303584
 20
-492.8640183013811
 30
0.0
 11
-3314.9069396186
 21
-487.8640849863666
 31
0.0
  0
LINE
  5
2A8
330
1F
100
AcDbEntity
  8
2
  6
Continuous
 62
     4
100
AcDbLine
 10
-3336.622378748526
 20
-459.0776723513889
 30
0.0
 11
-3341.622312063538
 21
-454.077739036378
 31
0.0
  0
LINE
  5
2A9
330
1F
100
AcDbEntity
  8
2
  6
Continuous
 62
     4
100
AcDbLine
 10
-3343.69335225357
 20
-459.077672351397
 30
0.0
 11
-3348.69328556858
 21
-454.0777390363871
 31
0.0
  0
LINE
  5
2AA
330
1F
100
AcDbEntity
  8
2
  6
Continuous
 62
     2
100
AcDbLine
 10
-3311.906986658124
 20
-494.0772055564746
 30
0.0
 11
-3309.907006303584
 21
-494.0772055564737
 31
0.0
  0
LINE
  5
2AB
330
1F
100
AcDbEntity
  8
2
  6
Continuous
 62
     2
100
AcDbLine
 10
-2969.911540882739
 20
-494.0772055564819
 30
0.0
 11
-2967.911567556731
 21
-494.0772055564828
 31
0.0
  0
LINE
  5
2AC
330
1F
100
AcDbEntity
  8
2
  6
Continuous
 62
     2
100
AcDbLine
 10
-3309.907006303652
 20
-454.0777390363708
 30
0.0
 11
-2969.911540882739
 21
-454.0777390363708
 31
0.0
  0
LINE
  5
2AD
330
1F
100
AcDbEntity
  8
2
  6
Continuous
 62
     2
100
AcDbLine
 10
-3288.543330203994
 20
-479.0774056114331
 30
0.0
 11
-3288.543330203994
 21
-494.0772055564746
 31
0.0
  0
LINE
  5
2AE
330
1F
100
AcDbEntity
  8
2
  6
Continuous
 62
     2
100
AcDbLine
 10
-2991.275216982359
 20
-479.0774056114331
 30
0.0
 11
-2991.275216982359
 21
-494.0772055564746
 31
0.0
  0
LINE
  5
2AF
330
1F
100
AcDbEntity
  8
2
  6
Continuous
 62
     2
100
AcDbLine
 10
-3288.543330203994
 20
-494.0772055564746
 30
0.0
 11
-2991.275216982359
 21
-494.0772055564746
 31
0.0
  0
LINE
  5
2B0
330
1F
100
AcDbEntity
  8
2
  6
Continuous
 62
     2
100
AcDbLine
 10
-2993.911220794799
 20
-479.0774056114331
 30
0.0
 11
-2969.911540882739
 21
-479.0774056114331
 31
0.0
  0
LINE
  5
2B1
330
1F
100
AcDbEntity
  8
2
  6
Continuous
 62
     2
100
AcDbLine
 10
-3309.907006303584
 20
-479.0774056114331
 30
0.0
 11
-3285.907326391553
 21
-479.0774056114331
 31
0.0
  0
ARC
  5
2B2
330
1F
100
AcDbEntity
  8
2
  6
Continuous
 62
     2
100
AcDbCircle
 10
-2682.812167454566
 20
66.16532239072808
 30
0.0
 40
1.999973326005163
100
AcDbArc
 50
0.0
 51
89.99999999994789
  0
ARC
  5
2B3
330
1F
100
AcDbEntity
  8
2
  6
Continuous
 62
     2
100
AcDbCircle
 10
-2688.81208743261
 20
66.16532239073172
 30
0.0
 40
1.999973326005163
100
AcDbArc
 50
90.0
 51
180.0
  0
ARC
  5
2B4
330
1F
100
AcDbEntity
  8
2
  6
Continuous
 62
     2
100
AcDbCircle
 10
-2683.812154117603
 20
50.66552911419353
 30
0.0
 40
1.999973326005163
100
AcDbArc
 50
180.0
 51
270.0000000000521
  0
ARC
  5
2B5
330
1F
100
AcDbEntity
  8
2
  6
Continuous
 62
     2
100
AcDbCircle
 10
-2679.312214134084
 20
50.66552911419444
 30
0.0
 40
1.999973326005163
100
AcDbArc
 50
270.0
 51
0.0
  0
ARC
  5
2B6
330
1F
100
AcDbEntity
  8
2
  6
Continuous
 62
     2
100
AcDbCircle
 10
-2682.812167454566
 20
-33.83334390952928
 30
0.0
 40
1.999973326005163
100
AcDbArc
 50
0.0
 51
89.99999999994789
  0
ARC
  5
2B7
330
1F
100
AcDbEntity
  8
2
  6
Continuous
 62
     2
100
AcDbCircle
 10
-2688.81208743261
 20
-33.83334390952655
 30
0.0
 40
1.999973326005163
100
AcDbArc
 50
90.0
 51
180.0
  0
ARC
  5
2B8
330
1F
100
AcDbEntity
  8
2
  6
Continuous
 62
     2
100
AcDbCircle
 10
-2683.812154117601
 20
-49.33313718606473
 30
0.0
 40
1.999973326005163
100
AcDbArc
 50
180.0
 51
270.0
  0
ARC
  5
2B9
330
1F
100
AcDbEntity
  8
2
  6
Continuous
 62
     2
100
AcDbCircle
 10
-2679.312214134084
 20
-49.33313718606291
 30
0.0
 40
1.999973326005163
100
AcDbArc
 50
270.0
 51
0.0
  0
ARC
  5
2BA
330
1F
100
AcDbEntity
  8
2
  6
Continuous
 62
     2
100
AcDbCircle
 10
-2682.812167454565
 20
-133.8320102097894
 30
0.0
 40
1.999973326005163
100
AcDbArc
 50
0.0
 51
89.99999999994789
  0
ARC
  5
2BB
330
1F
100
AcDbEntity
  8
2
  6
Continuous
 62
     2
100
AcDbCircle
 10
-2688.81208743261
 20
-133.8320102097866
 30
0.0
 40
1.999973326005163
100
AcDbArc
 50
90.0
 51
180.0
  0
ARC
  5
2BC
330
1F
100
AcDbEntity
  8
2
  6
Continuous
 62
     2
100
AcDbCircle
 10
-2683.812154117601
 20
-149.3318034863248
 30
0.0
 40
1.999973326005163
100
AcDbArc
 50
180.0
 51
270.0
  0
ARC
  5
2BD
330
1F
100
AcDbEntity
  8
2
  6
Continuous
 62
     2
100
AcDbCircle
 10
-2679.312214134084
 20
-149.331803486323
 30
0.0
 40
1.999973326005163
100
AcDbArc
 50
270.0000000000521
 51
0.0
  0
ARC
  5
2BE
330
1F
100
AcDbEntity
  8
2
  6
Continuous
 62
     2
100
AcDbCircle
 10
-2694.312014079128
 20
167.913965351235
 30
0.0
 40
2.999959989007745
100
AcDbArc
 50
0.0
 51
90.0
  0
ARC
  5
2BF
330
1F
100
AcDbEntity
  8
2
  6
Continuous
 62
     2
100
AcDbCircle
 10
-2686.81211410659
 20
140.4143321186659
 30
0.0
 40
4.499939983511617
100
AcDbArc
 50
180.0000000000116
 51
270.0
  0
ARC
  5
2C0
330
1F
100
AcDbEntity
  8
2
  6
Continuous
 62
     2
100
AcDbCircle
 10
-2659.312480874022
 20
132.9144321461474
 30
0.0
 40
2.999959989007745
100
AcDbArc
 50
0.0
 51
90.00000000003475
  0
ARC
  5
2C1
330
1F
100
AcDbEntity
  8
2
  6
Continuous
 62
     2
100
AcDbCircle
 10
-2694.312014079128
 20
-246.0805131318318
 30
0.0
 40
2.999959989007745
100
AcDbArc
 50
270.0
 51
0.0
  0
ARC
  5
2C2
330
1F
100
AcDbEntity
  8
2
  6
Continuous
 62
     2
100
AcDbCircle
 10
-2686.81211410659
 20
-218.5808798992628
 30
0.0
 40
4.499939983511617
100
AcDbArc
 50
90.0
 51
179.9999999999768
  0
ARC
  5
2C3
330
1F
100
AcDbEntity
  8
2
  6
Continuous
 62
     2
100
AcDbCircle
 10
-2659.312480874022
 20
-211.0809799267433
 30
0.0
 40
2.999959989007745
100
AcDbArc
 50
269.9999999999652
 51
0.0
  0
ARC
  5
2C4
330
1F
100
AcDbEntity
  8
2
  6
Continuous
 62
     2
100
AcDbCircle
 10
-2932.912034351643
 20
-456.07771236237
 30
0.0
 40
2.999959989007745
100
AcDbArc
 50
270.0
 51
0.0
  0
ARC
  5
2C5
330
1F
100
AcDbEntity
  8
2
  6
Continuous
 62
     2
100
AcDbCircle
 10
-2960.411667584213
 20
-463.5776123349085
 30
0.0
 40
4.499939983511617
100
AcDbArc
 50
90.0
 51
180.0
  0
ARC
  5
2C6
330
1F
100
AcDbEntity
  8
2
  6
Continuous
 62
     2
100
AcDbCircle
 10
-2967.911567556731
 20
-491.0772455674748
 30
0.0
 40
2.999959989007745
100
AcDbArc
 50
270.0
 51
0.0
  0
ARC
  5
2C7
330
1F
100
AcDbEntity
  8
2
  6
Continuous
 62
     2
100
AcDbCircle
 10
-3346.906512834711
 20
-456.07771236237
 30
0.0
 40
2.999959989007745
100
AcDbArc
 50
180.0
 51
270.0
  0
ARC
  5
2C8
330
1F
100
AcDbEntity
  8
2
  6
Continuous
 62
     2
100
AcDbCircle
 10
-3319.406879602139
 20
-463.5776123349085
 30
0.0
 40
4.499939983511617
100
AcDbArc
 50
0.0
 51
90.0
  0
ARC
  5
2C9
330
1F
100
AcDbEntity
  8
2
  6
Continuous
 62
     2
100
AcDbCircle
 10
-3311.906979629622
 20
-491.0772455674748
 30
0.0
 40
2.999959989007745
100
AcDbArc
 50
180.0
 51
270.0
  0
DIMENSION
  5
2D8
330
1F
100
AcDbEntity
  8
1
  6
ByBlock
 62
     3
100
AcDbDimension
  2
_D1
 10
-2964.911607567724
 20
-538.6208970958676
 30
0.0
 11
-3139.909273593176
 21
-517.6208970958676
 31
0.0
 70
   160
  1
L
 71
     5
 42
-1.0
 52
90.0
  3
DIMSTYEX_1
100
AcDbAlignedDimension
 13
-3314.906939618629
 23
-490.3804421471366
 33
0.0
 14
-2964.911607567724
 24
-490.3804421471366
 34
0.0
100
AcDbRotatedDimension
1001
ACAD
1000
DSTYLE
1002
{
1070
    41
1040
15.0
1070
   343
1005
89
1070
   344
1005
89
1070
   176
1070
     3
1070
   177
1070
     3
1070
   178
1070
     2
1070
   271
1070
     2
1070
    43
1040
0.0
1070
   173
1070
     1
1070
   272
1070
     2
1070
   340
1005
2D6
1070
   140
1040
35.84
1002
}
  0
DIMENSION
  5
2EB
330
1F
100
AcDbEntity
  8
1
  6
ByBlock
 62
     3
100
AcDbDimension
  2
_D2
 10
-2991.411254137286
 20
-403.9953237779198
 30
0.0
 11
-3007.911034076829
 21
-381.9953237779198
 31
0.0
 70
   160
  1
P(<>mm)
 71
     5
 42
-1.0
 52
90.0
  3
DIMSTYEX_2
100
AcDbAlignedDimension
 13
-3024.410814016374
 23
-454.0777390363708
 33
0.0
 14
-2991.411254137286
 24
-454.0777390363708
 34
0.0
100
AcDbRotatedDimension
1001
ACAD
1000
DSTYLE
1002
{
1070
    41
1040
15.0
1070
   343
1005
89
1070
   344
1005
89
1070
   176
1070
     3
1070
   177
1070
     3
1070
   178
1070
     2
1070
   271
1070
     2
1070
    43
1040
0.0
1070
   147
1040
2.0
1070
   173
1070
     1
1070
   272
1070
     2
1070
   340
1005
2E9
1070
   140
1040
35.84
1002
}
  0
DIMENSION
  5
2FA
330
1F
100
AcDbEntity
  8
1
  6
ByBlock
 62
     3
100
AcDbDimension
  2
_D3
 10
-2607.1349811917
 20
-214.0809399157522
 30
0.0
 11
-2628.1349811917
 21
-39.08327389029887
 31
0.0
 70
   160
  1
W
 71
     5
 42
-1.0
 52
90.0
  3
DIMSTYEX_3
100
AcDbAlignedDimension
 13
-2660.145572267361
 23
135.9143921351545
 33
0.0
 14
-2660.145572267361
 24
-214.0809399157522
 34
0.0
 50
-90.0
100
AcDbRotatedDimension
1001
ACAD
1000
DSTYLE
1002
{
1070
    41
1040
15.0
1070
   343
1005
89
1070
   344
1005
89
1070
   176
1070
     3
1070
   177
1070
     3
1070
   178
1070
     2
1070
   271
1070
     2
1070
    43
1040
0.0
1070
   173
1070
     1
1070
   272
1070
     2
1070
   340
1005
2F8
1070
   140
1040
35.84
1002
}
  0
DIMENSION
  5
309
330
1F
100
AcDbEntity
  8
1
  6
ByBlock
 62
     3
100
AcDbDimension
  2
_D4
 10
-2929.9120743626
 20
-310.0804731209116
 30
0.0
 11
-3139.909273593177
 21
-289.0804731209116
 31
0.0
 70
   160
  1
Ｂ
 71
     5
 42
-1.0
 52
90.0
  3
DIMSTYEX_4
100
AcDbAlignedDimension
 13
-3349.906472823754
 23
-249.0804731209116
 33
0.0
 14
-2929.9120743626
 24
-249.0804731209116
 34
0.0
100
AcDbRotatedDimension
1001
ACAD
1000
DSTYLE
1002
{
1070
    41
1040
15.0
1070
   343
1005
89
1070
   344
1005
89
1070
   176
1070
     3
1070
   177
1070
     3
1070
   178
1070
     2
1070
   271
1070
     2
1070
    43
1040
0.0
1070
   173
1070
     1
1070
   272
1070
     2
1070
   340
1005
307
1070
   140
1040
35.84
1002
}
  0
DIMENSION
  5
318
330
1F
100
AcDbEntity
  8
1
  6
ByBlock
 62
     3
100
AcDbDimension
  2
_D5
 10
-2868.912074362598
 20
-249.0804731209116
 30
0.0
 11
-2889.912074362598
 21
-39.08327389033434
 31
0.0
 70
   160
  1
Ａ
 71
     5
 42
-1.0
 52
90.0
  3
DIMSTYEX_5
100
AcDbAlignedDimension
 13
-2929.912074362598
 23
170.9139253402429
 33
0.0
 14
-2929.9120743626
 24
-249.0804731209116
 34
0.0
 50
-90.0
100
AcDbRotatedDimension
1001
ACAD
1000
DSTYLE
1002
{
1070
    41
1040
15.0
1070
   343
1005
89
1070
   344
1005
89
1070
   176
1070
     3
1070
   177
1070
     3
1070
   178
1070
     2
1070
   271
1070
     2
1070
    43
1040
0.0
1070
   173
1070
     1
1070
   272
1070
     2
1070
   340
1005
316
1070
   140
1040
35.84
1002
}
  0
DIMENSION
  5
32B
330
1F
100
AcDbEntity
  8
1
  6
ByBlock
 62
     3
100
AcDbDimension
  2
_D6
 10
-2671.312320830065
 20
-310.0804731209116
 30
0.0
 11
-2665.494272175863
 21
-309.0804731209116
 31
0.0
 70
   160
  1
ｈ
 71
     5
 42
-1.0
 52
90.0
  3
DIMSTYEX_6
100
AcDbAlignedDimension
 13
-2696.311987405127
 23
-249.0804731208398
 33
0.0
 14
-2671.312320830065
 24
-214.0809399157513
 34
0.0
100
AcDbRotatedDimension
1001
ACAD
1000
DSTYLE
1002
{
1070
    41
1040
15.0
1070
   343
1005
89
1070
   344
1005
89
1070
   176
1070
     3
1070
   177
1070
     3
1070
   178
1070
     2
1070
   271
1070
     2
1070
    43
1040
0.0
1070
   173
1070
     1
1070
   272
1070
     2
1070
   340
1005
329
1070
   140
1040
35.84
1002
}
  0
LINE
  5
32C
330
1F
100
AcDbEntity
  8
1
  6
Continuous
 62
     2
100
AcDbLine
 10
-2156.337530883057
 20
-243.6345544345712
 30
0.0
 11
-2156.337530883056
 21
128.515426375149
 31
0.0
  0
LINE
  5
32D
330
1F
100
AcDbEntity
  8
1
  6
Continuous
 62
     2
100
AcDbLine
 10
-2156.337530883056
 20
128.515426375149
 30
0.0
 11
-2155.810638886205
 21
128.515426375149
 31
0.0
  0
LINE
  5
32E
330
1F
100
AcDbEntity
  8
1
  6
Continuous
 62
     2
100
AcDbLine
 10
-2074.33615717232
 20
128.515426375149
 30
0.0
 11
-2074.086227191556
 21
128.515426375149
 31
0.0
  0
LINE
  5
32F
330
1F
100
AcDbEntity
  8
1
  6
Continuous
 62
     2
100
AcDbLine
 10
-1974.337490872057
 20
128.515426375149
 30
0.0
 11
-1974.087560891293
 21
128.515426375149
 31
0.0
  0
LINE
  5
330
330
1F
100
AcDbEntity
  8
1
  6
Continuous
 62
     2
100
AcDbLine
 10
-1874.338824571804
 20
128.515426375149
 30
0.0
 11
-1874.08889459104
 21
128.515426375149
 31
0.0
  0
LINE
  5
331
330
1F
100
AcDbEntity
  8
1
  6
Continuous
 62
     2
100
AcDbLine
 10
-1806.339798172611
 20
128.515426375149
 30
0.0
 11
-1796.337530883055
 21
128.515426375149
 31
0.0
  0
LINE
  5
332
330
1F
100
AcDbEntity
  8
1
  6
Continuous
 62
     2
100
AcDbLine
 10
-1796.337530883055
 20
128.515426375149
 30
0.0
 11
-1796.337530883057
 21
-262.4347307839581
 31
0.0
  0
LINE
  5
333
330
1F
100
AcDbEntity
  8
2
  6
Continuous
 62
     2
100
AcDbLine
 10
-1801.339864857599
 20
108.0132411853008
 30
0.0
 11
-1806.339798172611
 21
113.0131745003171
 31
0.0
  0
LINE
  5
334
330
1F
100
AcDbEntity
  8
2
  6
Continuous
 62
     2
100
AcDbLine
 10
-1801.339864857599
 20
115.0842146903522
 30
0.0
 11
-1806.339798172611
 21
120.0841480053684
 31
0.0
  0
LINE
  5
335
330
1F
100
AcDbEntity
  8
2
  6
Continuous
 62
     2
100
AcDbLine
 10
-1801.339864857599
 20
122.1551881954081
 30
0.0
 11
-1806.339798172611
 21
127.1551215104198
 31
0.0
  0
LINE
  5
336
330
1F
100
AcDbEntity
  8
2
  6
Continuous
 62
     2
100
AcDbLine
 10
-1799.790067940775
 20
127.6763647836349
 30
0.0
 11
-1805.62912953228
 21
133.5154263751444
 31
0.0
  0
LINE
  5
337
330
1F
100
AcDbEntity
  8
2
  6
Continuous
 62
     2
100
AcDbLine
 10
-1793.558222712217
 20
128.5154930601327
 30
0.0
 11
-1798.558156027229
 21
133.5154263751444
 31
0.0
  0
LINE
  5
338
330
1F
100
AcDbEntity
  8
2
  6
Continuous
 62
     2
100
AcDbLine
 10
-1786.487249207165
 20
128.5154930601327
 30
0.0
 11
-1791.487182522177
 21
133.5154263751444
 31
0.0
  0
LINE
  5
339
330
1F
100
AcDbEntity
  8
2
  6
Continuous
 62
     2
100
AcDbLine
 10
-1779.416275702123
 20
128.5154930601373
 30
0.0
 11
-1784.416209017126
 21
133.5154263751444
 31
0.0
  0
LINE
  5
33A
330
1F
100
AcDbEntity
  8
2
  6
Continuous
 62
     2
100
AcDbLine
 10
-2146.335263593464
 20
108.8710941202378
 30
0.0
 11
-2151.335196908476
 21
113.8710274352541
 31
0.0
  0
LINE
  5
33B
330
1F
100
AcDbEntity
  8
2
  6
Continuous
 62
     2
100
AcDbLine
 10
-2165.979662533355
 20
128.5154930601373
 30
0.0
 11
-2170.979595848366
 21
133.5154263751444
 31
0.0
  0
LINE
  5
33C
330
1F
100
AcDbEntity
  8
2
  6
Continuous
 62
     2
100
AcDbLine
 10
-2146.335263593464
 20
115.9420676252937
 30
0.0
 11
-2151.335196908476
 21
120.9420009403054
 31
0.0
  0
LINE
  5
33D
330
1F
100
AcDbEntity
  8
2
  6
Continuous
 62
     2
100
AcDbLine
 10
-2158.908689028303
 20
128.5154930601327
 30
0.0
 11
-2163.908622343315
 21
133.5154263751444
 31
0.0
  0
LINE
  5
33E
330
1F
100
AcDbEntity
  8
2
  6
Continuous
 62
     2
100
AcDbLine
 10
-2146.335263593464
 20
123.0130411303451
 30
0.0
 11
-2156.837648838264
 21
133.5154263751444
 31
0.0
  0
LINE
  5
33F
330
1F
100
AcDbEntity
  8
2
  6
Continuous
 62
     2
100
AcDbLine
 10
-2146.335263593464
 20
130.0840146353964
 30
0.0
 11
-2149.766675333212
 21
133.5154263751444
 31
0.0
  0
LINE
  5
340
330
1F
100
AcDbEntity
  8
2
  6
Continuous
 62
     2
100
AcDbLine
 10
-2074.478357585376
 20
114.515679778098
 30
0.0
 11
-2078.586167175063
 21
118.6234893677845
 31
0.0
  0
LINE
  5
341
330
1F
100
AcDbEntity
  8
2
  6
Continuous
 62
     2
100
AcDbLine
 10
-2074.086227191556
 20
121.1945228893289
 30
0.0
 11
-2078.586167175063
 21
125.694462872845
 31
0.0
  0
LINE
  5
342
330
1F
100
AcDbEntity
  8
2
  6
Continuous
 62
     2
100
AcDbLine
 10
-2074.086227191556
 20
128.2654963943849
 30
0.0
 11
-2078.586167175063
 21
132.7654363778918
 31
0.0
  0
LINE
  5
343
330
1F
100
AcDbEntity
  8
2
  6
Continuous
 62
     2
100
AcDbLine
 10
-1974.479691285113
 20
114.515679778098
 30
0.0
 11
-1978.587500874809
 21
118.6234893677845
 31
0.0
  0
LINE
  5
344
330
1F
100
AcDbEntity
  8
2
  6
Continuous
 62
     2
100
AcDbLine
 10
-1974.087560891293
 20
121.1945228893289
 30
0.0
 11
-1978.587500874809
 21
125.694462872845
 31
0.0
  0
LINE
  5
345
330
1F
100
AcDbEntity
  8
2
  6
Continuous
 62
     2
100
AcDbLine
 10
-1974.087560891293
 20
128.2654963943849
 30
0.0
 11
-1978.587500874809
 21
132.7654363778918
 31
0.0
  0
LINE
  5
346
330
1F
100
AcDbEntity
  8
2
  6
Continuous
 62
     2
100
AcDbLine
 10
-1874.481024984861
 20
114.515679778098
 30
0.0
 11
-1878.588834574547
 21
118.6234893677845
 31
0.0
  0
LINE
  5
347
330
1F
100
AcDbEntity
  8
2
  6
Continuous
 62
     2
100
AcDbLine
 10
-1874.088894591031
 20
121.1945228893289
 30
0.0
 11
-1878.588834574547
 21
125.694462872845
 31
0.0
  0
LINE
  5
348
330
1F
100
AcDbEntity
  8
2
  6
Continuous
 62
     2
100
AcDbLine
 10
-1874.08889459104
 20
128.2654963943849
 30
0.0
 11
-1878.588834574547
 21
132.7654363778918
 31
0.0
  0
LINE
  5
349
330
1F
100
AcDbEntity
  8
2
  6
Continuous
 62
     2
100
AcDbLine
 10
-1806.33979817262
 20
133.515426375149
 30
0.0
 11
-2146.335263593464
 21
133.5154263751444
 31
0.0
  0
LINE
  5
34A
330
1F
100
AcDbEntity
  8
2
  6
Continuous
 62
     2
100
AcDbLine
 10
-1806.33979817262
 20
113.0156997835927
 30
0.0
 11
-2146.335263593464
 21
113.0156997835927
 31
0.0
  0
LINE
  5
34B
330
1F
100
AcDbEntity
  8
2
  6
Continuous
 62
     2
100
AcDbLine
 10
-1806.33979817262
 20
108.5157598000812
 30
0.0
 11
-2146.335263593464
 21
108.5157598000812
 31
0.0
  0
LINE
  5
34C
330
1F
100
AcDbEntity
  8
2
  6
Continuous
 62
     2
100
AcDbLine
 10
-2078.586167175063
 20
133.5154263751444
 30
0.0
 11
-2078.586167175063
 21
114.515679778098
 31
0.0
  0
LINE
  5
34D
330
1F
100
AcDbEntity
  8
2
  6
Continuous
 62
     2
100
AcDbLine
 10
-2074.086227191556
 20
114.515679778098
 30
0.0
 11
-2078.586167175063
 21
114.515679778098
 31
0.0
  0
LINE
  5
34E
330
1F
100
AcDbEntity
  8
2
  6
Continuous
 62
     2
100
AcDbLine
 10
-2074.086227191556
 20
133.5154263751444
 30
0.0
 11
-2074.086227191556
 21
114.515679778098
 31
0.0
  0
LINE
  5
34F
330
1F
100
AcDbEntity
  8
2
  6
Continuous
 62
     2
100
AcDbLine
 10
-1978.587500874809
 20
133.5154263751444
 30
0.0
 11
-1978.587500874809
 21
114.515679778098
 31
0.0
  0
LINE
  5
350
330
1F
100
AcDbEntity
  8
2
  6
Continuous
 62
     2
100
AcDbLine
 10
-1974.087560891293
 20
114.515679778098
 30
0.0
 11
-1978.587500874809
 21
114.515679778098
 31
0.0
  0
LINE
  5
351
330
1F
100
AcDbEntity
  8
2
  6
Continuous
 62
     2
100
AcDbLine
 10
-1974.087560891293
 20
133.5154263751444
 30
0.0
 11
-1974.087560891293
 21
114.515679778098
 31
0.0
  0
LINE
  5
352
330
1F
100
AcDbEntity
  8
2
  6
Continuous
 62
     2
100
AcDbLine
 10
-1872.838911262287
 20
114.0156864465932
 30
0.0
 11
-1879.8388179033
 21
114.0156864465932
 31
0.0
  0
LINE
  5
353
330
1F
100
AcDbEntity
  8
2
  6
Continuous
 62
     2
100
AcDbLine
 10
-1878.588834574547
 20
133.5154263751444
 30
0.0
 11
-1878.588834574547
 21
114.515679778098
 31
0.0
  0
LINE
  5
354
330
1F
100
AcDbEntity
  8
2
  6
Continuous
 62
     2
100
AcDbLine
 10
-1874.08889459104
 20
133.5154263751444
 30
0.0
 11
-1874.08889459104
 21
114.515679778098
 31
0.0
  0
LINE
  5
355
330
1F
100
AcDbEntity
  8
2
  6
Continuous
 62
     2
100
AcDbLine
 10
-1806.33979817262
 20
114.0156864466023
 30
0.0
 11
-2146.335263593464
 21
114.0156864465932
 31
0.0
  0
LINE
  5
356
330
1F
100
AcDbEntity
  8
2
  6
Continuous
 62
     2
100
AcDbLine
 10
-1871.08893460202
 20
118.0156330986181
 30
0.0
 11
-1874.08889459104
 21
118.015633098609
 31
0.0
  0
LINE
  5
357
330
1F
100
AcDbEntity
  8
2
  6
Continuous
 62
     2
100
AcDbLine
 10
-1869.088961276047
 20
126.0155264026268
 30
0.0
 11
-1869.088961276037
 21
120.0156064245828
 31
0.0
  0
LINE
  5
358
330
1F
100
AcDbEntity
  8
2
  6
Continuous
 62
     2
100
AcDbLine
 10
-1878.588834574556
 20
123.0155664136207
 30
0.0
 11
-1886.58872787856
 21
123.0155664136207
 31
0.0
  0
LINE
  5
359
330
1F
100
AcDbEntity
  8
2
  6
Continuous
 62
     2
100
AcDbLine
 10
-1888.58870120458
 20
121.0155930876197
 30
0.0
 11
-1888.588701204598
 21
116.5156531040991
 31
0.0
  0
LINE
  5
35A
330
1F
100
AcDbEntity
  8
2
  6
Continuous
 62
     2
100
AcDbLine
 10
-1874.08889459104
 20
114.515679778098
 30
0.0
 11
-1886.58872787856
 21
114.515679778089
 31
0.0
  0
LINE
  5
35B
330
1F
100
AcDbEntity
  8
2
  6
Continuous
 62
     2
100
AcDbLine
 10
-1874.08889459104
 20
128.0154997286324
 30
0.0
 11
-1806.33979817262
 21
128.0154997286324
 31
0.0
  0
LINE
  5
35C
330
1F
100
AcDbEntity
  8
2
  6
Continuous
 62
     2
100
AcDbLine
 10
-2146.335263593464
 20
128.0154997286324
 30
0.0
 11
-2078.586167175063
 21
128.0154997286324
 31
0.0
  0
LINE
  5
35D
330
1F
100
AcDbEntity
  8
2
  6
Continuous
 62
     2
100
AcDbLine
 10
-2074.086227191556
 20
128.0154997286324
 30
0.0
 11
-1978.587500874809
 21
128.0154997286324
 31
0.0
  0
LINE
  5
35E
330
1F
100
AcDbEntity
  8
2
  6
Continuous
 62
     2
100
AcDbLine
 10
-1974.087560891302
 20
128.0154997286324
 30
0.0
 11
-1878.588834574556
 21
128.0154997286324
 31
0.0
  0
LINE
  5
35F
330
1F
100
AcDbEntity
  8
2
  6
Continuous
 62
     2
100
AcDbLine
 10
-1971.087600902282
 20
118.0156330986135
 30
0.0
 11
-1974.087560891302
 21
118.015633098609
 31
0.0
  0
LINE
  5
360
330
1F
100
AcDbEntity
  8
2
  6
Continuous
 62
     2
100
AcDbLine
 10
-1969.087627576308
 20
126.0155264026268
 30
0.0
 11
-1969.08762757629
 21
120.0156064245828
 31
0.0
  0
LINE
  5
361
330
1F
100
AcDbEntity
  8
2
  6
Continuous
 62
     2
100
AcDbLine
 10
-1978.587500874809
 20
123.0155664136207
 30
0.0
 11
-1986.587394178813
 21
123.0155664136207
 31
0.0
  0
LINE
  5
362
330
1F
100
AcDbEntity
  8
2
  6
Continuous
 62
     2
100
AcDbLine
 10
-1988.587367504841
 20
121.0155930876197
 30
0.0
 11
-1988.58736750486
 21
116.5156531040991
 31
0.0
  0
LINE
  5
363
330
1F
100
AcDbEntity
  8
2
  6
Continuous
 62
     2
100
AcDbLine
 10
-1974.087560891293
 20
114.515679778098
 30
0.0
 11
-1986.587394178813
 21
114.515679778089
 31
0.0
  0
LINE
  5
364
330
1F
100
AcDbEntity
  8
2
  6
Continuous
 62
     2
100
AcDbLine
 10
-2071.086267202545
 20
118.0156330986135
 30
0.0
 11
-2074.086227191556
 21
118.015633098609
 31
0.0
  0
LINE
  5
365
330
1F
100
AcDbEntity
  8
2
  6
Continuous
 62
     2
100
AcDbLine
 10
-2069.086293876562
 20
126.0155264026268
 30
0.0
 11
-2069.086293876553
 21
120.0156064245782
 31
0.0
  0
LINE
  5
366
330
1F
100
AcDbEntity
  8
2
  6
Continuous
 62
     2
100
AcDbLine
 10
-2078.586167175072
 20
123.0155664136207
 30
0.0
 11
-2086.586060479076
 21
123.0155664136207
 31
0.0
  0
LINE
  5
367
330
1F
100
AcDbEntity
  8
2
  6
Continuous
 62
     2
100
AcDbLine
 10
-2088.586033805104
 20
121.0155930876197
 30
0.0
 11
-2088.586033805122
 21
116.5156531040991
 31
0.0
  0
LINE
  5
368
330
1F
100
AcDbEntity
  8
2
  6
Continuous
 62
     2
100
AcDbLine
 10
-2074.086227191556
 20
114.515679778098
 30
0.0
 11
-2086.586060479076
 21
114.515679778089
 31
0.0
  0
LINE
  5
369
330
1F
100
AcDbEntity
  8
2
  6
CENTER2
 62
     3
100
AcDbLine
 10
-1876.338864582794
 20
141.1095591700421
 30
0.0
 11
-1876.338864582794
 21
108.4352961572329
 31
0.0
  0
LINE
  5
36A
330
1F
100
AcDbEntity
  8
2
  6
CENTER2
 62
     3
100
AcDbLine
 10
-2076.336197183309
 20
141.1095591700421
 30
0.0
 11
-2076.336197183309
 21
108.4352961572329
 31
0.0
  0
LINE
  5
36B
330
1F
100
AcDbEntity
  8
2
  6
PHANTOM2
 62
     3
100
AcDbLine
 10
-1976.337530883055
 20
141.1095591700421
 30
0.0
 11
-1976.337530883046
 21
108.4352961572329
 31
0.0
  0
LINE
  5
36C
330
1F
100
AcDbEntity
  8
2
  6
Continuous
 62
     2
100
AcDbLine
 10
-1766.340331652508
 20
133.5154263751444
 30
0.0
 11
-1806.339798172611
 21
133.5154263751444
 31
0.0
  0
LINE
  5
36D
330
1F
100
AcDbEntity
  8
2
  6
Continuous
 62
     2
100
AcDbLine
 10
-1751.337530883055
 20
128.5154930601477
 30
0.0
 11
-1796.839924874083
 21
128.5154930601191
 31
0.0
  0
LINE
  5
36E
330
1F
100
AcDbEntity
  8
2
  6
Continuous
 62
     2
100
AcDbLine
 10
-1806.339798172611
 20
133.5154263751444
 30
0.0
 11
-1806.339798172611
 21
93.5159598550324
 31
0.0
  0
LINE
  5
36F
330
1F
100
AcDbEntity
  8
2
  6
Continuous
 62
     2
100
AcDbLine
 10
-1801.339864857599
 20
124.0155530766076
 30
0.0
 11
-1801.339864857599
 21
96.51591984403854
 31
0.0
  0
LINE
  5
370
330
1F
100
AcDbEntity
  8
2
  6
Continuous
 62
     2
100
AcDbLine
 10
-1766.340331652508
 20
133.5154263751444
 30
0.0
 11
-1766.340331652508
 21
131.5154530491434
 31
0.0
  0
LINE
  5
371
330
1F
100
AcDbEntity
  8
2
  6
Continuous
 62
     2
100
AcDbLine
 10
-1801.339864857599
 20
100.9422676802494
 30
0.0
 11
-1806.339798172611
 21
105.9422009952611
 31
0.0
  0
LINE
  5
372
330
1F
100
AcDbEntity
  8
2
  6
Continuous
 62
     2
100
AcDbLine
 10
-1772.345302197072
 20
128.5154930601373
 30
0.0
 11
-1777.345235512074
 21
133.5154263751444
 31
0.0
  0
LINE
  5
373
330
1F
100
AcDbEntity
  8
2
  6
Continuous
 62
     2
100
AcDbLine
 10
-1766.754051405095
 20
129.9952157732121
 30
0.0
 11
-1770.274262007023
 21
133.515426375149
 31
0.0
  0
LINE
  5
374
330
1F
100
AcDbEntity
  8
2
  6
Continuous
 62
     2
100
AcDbLine
 10
-1802.04831891593
 20
94.57974823353356
 30
0.0
 11
-1806.339798172611
 21
98.87122749020978
 31
0.0
  0
LINE
  5
375
330
1F
100
AcDbEntity
  8
2
  6
Continuous
 62
     2
100
AcDbLine
 10
-2183.334770124584
 20
128.5154930601373
 30
0.0
 11
-2155.83513689201
 21
128.5154930601191
 31
0.0
  0
LINE
  5
376
330
1F
100
AcDbEntity
  8
2
  6
Continuous
 62
     2
100
AcDbLine
 10
-2151.335196908503
 20
124.0155530766076
 30
0.0
 11
-2151.335196908503
 21
96.51591984403854
 31
0.0
  0
LINE
  5
377
330
1F
100
AcDbEntity
  8
2
  6
Continuous
 62
     2
100
AcDbLine
 10
-2186.334730113595
 20
133.5154263751444
 30
0.0
 11
-2186.334730113595
 21
131.5154530491434
 31
0.0
  0
LINE
  5
378
330
1F
100
AcDbEntity
  8
2
  6
Continuous
 62
     2
100
AcDbLine
 10
-2146.335263593464
 20
133.5154263751444
 30
0.0
 11
-2146.335263593464
 21
93.5159598550415
 31
0.0
  0
LINE
  5
379
330
1F
100
AcDbEntity
  8
2
  6
Continuous
 62
     2
100
AcDbLine
 10
-2186.334730113595
 20
133.5154263751444
 30
0.0
 11
-2146.335263593464
 21
133.5154263751444
 31
0.0
  0
LINE
  5
37A
330
1F
100
AcDbEntity
  8
2
  6
Continuous
 62
     2
100
AcDbLine
 10
-2146.335263593464
 20
101.8001206151864
 30
0.0
 11
-2151.335196908476
 21
106.8000539302027
 31
0.0
  0
LINE
  5
37B
330
1F
100
AcDbEntity
  8
2
  6
Continuous
 62
     2
100
AcDbLine
 10
-2146.335263593464
 20
94.72914711013505
 30
0.0
 11
-2151.335196908476
 21
99.72908042515132
 31
0.0
  0
LINE
  5
37C
330
1F
100
AcDbEntity
  8
2
  6
Continuous
 62
     2
100
AcDbLine
 10
-2173.050636038397
 20
128.5154930601282
 30
0.0
 11
-2178.050569353409
 21
133.5154263751353
 31
0.0
  0
LINE
  5
37D
330
1F
100
AcDbEntity
  8
2
  6
Continuous
 62
     2
100
AcDbLine
 10
-2180.121609543448
 20
128.5154930601191
 30
0.0
 11
-2185.12154285846
 21
133.5154263751308
 31
0.0
  0
LINE
  5
37E
330
1F
100
AcDbEntity
  8
2
  6
Continuous
 62
     2
100
AcDbLine
 10
-2148.335243947995
 20
93.5159598550415
 30
0.0
 11
-2146.335263593464
 21
93.5159598550415
 31
0.0
  0
LINE
  5
37F
330
1F
100
AcDbEntity
  8
2
  6
Continuous
 62
     2
100
AcDbLine
 10
-1806.339798172611
 20
93.5159598550324
 30
0.0
 11
-1804.33982484661
 21
93.5159598550324
 31
0.0
  0
ARC
  5
380
330
1F
100
AcDbEntity
  8
2
  6
Continuous
 62
     2
100
AcDbCircle
 10
-1871.08893460202
 20
120.0156064245828
 30
0.0
 40
1.999973326005163
100
AcDbArc
 50
270.0
 51
0.0
  0
ARC
  5
381
330
1F
100
AcDbEntity
  8
2
  6
Continuous
 62
     2
100
AcDbCircle
 10
-1871.08893460202
 20
126.0155264026268
 30
0.0
 40
1.999973326005163
100
AcDbArc
 50
0.0
 51
90.0
  0
ARC
  5
382
330
1F
100
AcDbEntity
  8
2
  6
Continuous
 62
     2
100
AcDbCircle
 10
-1886.58872787856
 20
121.0155930876197
 30
0.0
 40
1.999973326005163
100
AcDbArc
 50
90.0
 51
180.0
  0
ARC
  5
383
330
1F
100
AcDbEntity
  8
2
  6
Continuous
 62
     2
100
AcDbCircle
 10
-1886.58872787856
 20
116.5156531040991
 30
0.0
 40
1.999973326005163
100
AcDbArc
 50
180.0
 51
270.0
  0
ARC
  5
384
330
1F
100
AcDbEntity
  8
2
  6
Continuous
 62
     2
100
AcDbCircle
 10
-1971.087600902282
 20
120.0156064245828
 30
0.0
 40
1.999973326005163
100
AcDbArc
 50
270.0
 51
0.0
  0
ARC
  5
385
330
1F
100
AcDbEntity
  8
2
  6
Continuous
 62
     2
100
AcDbCircle
 10
-1971.087600902282
 20
126.0155264026268
 30
0.0
 40
1.999973326005163
100
AcDbArc
 50
0.0
 51
90.0
  0
ARC
  5
386
330
1F
100
AcDbEntity
  8
2
  6
Continuous
 62
     2
100
AcDbCircle
 10
-1986.587394178813
 20
121.0155930876197
 30
0.0
 40
1.999973326005163
100
AcDbArc
 50
90.0
 51
180.0
  0
ARC
  5
387
330
1F
100
AcDbEntity
  8
2
  6
Continuous
 62
     2
100
AcDbCircle
 10
-1986.587394178813
 20
116.5156531040991
 30
0.0
 40
1.999973326005163
100
AcDbArc
 50
180.0
 51
270.0
  0
ARC
  5
388
330
1F
100
AcDbEntity
  8
2
  6
Continuous
 62
     2
100
AcDbCircle
 10
-2071.086267202545
 20
120.0156064245828
 30
0.0
 40
1.999973326005163
100
AcDbArc
 50
270.0
 51
359.9999999998698
  0
ARC
  5
389
330
1F
100
AcDbEntity
  8
2
  6
Continuous
 62
     2
100
AcDbCircle
 10
-2071.086267202545
 20
126.0155264026268
 30
0.0
 40
1.999973326005163
100
AcDbArc
 50
0.0
 51
90.0
  0
ARC
  5
38A
330
1F
100
AcDbEntity
  8
2
  6
Continuous
 62
     2
100
AcDbCircle
 10
-2086.586060479076
 20
121.0155930876197
 30
0.0
 40
1.999973326005163
100
AcDbArc
 50
90.0
 51
180.0
  0
ARC
  5
38B
330
1F
100
AcDbEntity
  8
2
  6
Continuous
 62
     2
100
AcDbCircle
 10
-2086.586060479076
 20
116.5156531040991
 30
0.0
 40
1.999973326005163
100
AcDbArc
 50
180.0
 51
270.0
  0
ARC
  5
38C
330
1F
100
AcDbEntity
  8
2
  6
Continuous
 62
     2
100
AcDbCircle
 10
-1769.340291641519
 20
131.5154530491434
 30
0.0
 40
2.999959989007745
100
AcDbArc
 50
270.0
 51
0.0
  0
ARC
  5
38D
330
1F
100
AcDbEntity
  8
2
  6
Continuous
 62
     2
100
AcDbCircle
 10
-1796.839924874083
 20
124.0155530766076
 30
0.0
 40
4.499939983511617
100
AcDbArc
 50
90.0
 51
180.0
  0
ARC
  5
38E
330
1F
100
AcDbEntity
  8
2
  6
Continuous
 62
     2
100
AcDbCircle
 10
-1804.33982484661
 20
96.51591984403854
 30
0.0
 40
2.999959989007745
100
AcDbArc
 50
270.0
 51
0.0000000000868515
  0
ARC
  5
38F
330
1F
100
AcDbEntity
  8
2
  6
Continuous
 62
     2
100
AcDbCircle
 10
-2183.334770124584
 20
131.5154530491434
 30
0.0
 40
2.999959989007745
100
AcDbArc
 50
180.0
 51
270.0
  0
ARC
  5
390
330
1F
100
AcDbEntity
  8
2
  6
Continuous
 62
     2
100
AcDbCircle
 10
-2155.835136892019
 20
124.0155530766076
 30
0.0
 40
4.499939983511617
100
AcDbArc
 50
0.0
 51
89.9999999998842
  0
ARC
  5
391
330
1F
100
AcDbEntity
  8
2
  6
Continuous
 62
     2
100
AcDbCircle
 10
-2148.335236919493
 20
96.51591984403854
 30
0.0
 40
2.999959989007745
100
AcDbArc
 50
179.9999999999131
 51
270.0
  0
DIMENSION
  5
3A0
330
1F
100
AcDbEntity
  8
1
  6
ByBlock
 62
     3
100
AcDbDimension
  2
_D7
 10
-2151.335196908503
 20
44.33842016171798
 30
0.0
 11
-1976.337530883051
 21
65.33842016171798
 31
0.0
 70
   160
  1
Ｗ×Ｌ
 71
     5
 42
-1.0
 52
90.0
  3
DIMSTYEX_7
100
AcDbAlignedDimension
 13
-1801.339864857599
 23
97.34901123737632
 33
0.0
 14
-2151.335196908503
 24
97.34901123737632
 34
0.0
 50
180.0
100
AcDbRotatedDimension
1001
ACAD
1000
DSTYLE
1002
{
1070
    41
1040
12.5
1070
   343
1005
89
1070
   344
1005
89
1070
   176
1070
     3
1070
   177
1070
     3
1070
   178
1070
     2
1070
   271
1070
     2
1070
    43
1040
0.0
1070
   173
1070
     1
1070
   272
1070
     2
1070
   340
1005
39E
1070
   140
1040
35.84
1002
}
  0
LINE
  5
3A1
330
1F
100
AcDbEntity
  8
1
  6
Continuous
 62
     2
100
AcDbLine
 10
-1751.337530883055
 20
128.515426375149
 30
0.0
 11
-1751.337530883055
 21
-256.8740253835757
 31
0.0
  0
LINE
  5
3A2
330
1F
100
AcDbEntity
  8
1
  6
Continuous
 62
     2
100
AcDbLine
 10
-2201.337530882069
 20
128.5153597106103
 30
0.0
 11
-2183.334770124584
 21
128.5154930601373
 31
0.0
  0
LINE
  5
3A3
330
1F
100
AcDbEntity
  8
1
  6
Continuous
 62
     2
100
AcDbLine
 10
-2201.337530883056
 20
128.5154930601418
 30
0.0
 11
-2201.337530883055
 21
-254.7704408485255
 31
0.0
  0
SPLINE
  5
3A4
330
1F
100
AcDbEntity
  8
6
  6
Continuous
 62
     2
100
AcDbSpline
210
0.0
220
0.0
230
1.0
 70
     8
 71
     3
 72
    14
 73
    10
 74
     0
 42
0.000000001
 43
0.0
 40
0.1510566302897192
 40
0.1510566302897192
 40
0.1510566302897192
 40
0.1510566302897192
 40
1.0
 40
1.0
 40
1.0
 40
2.0
 40
2.0
 40
2.0
 40
2.916612053202684
 40
2.916612053202684
 40
2.916612053202684
 40
2.916612053202684
 10
-2201.337530883056
 20
-254.7704408485259
 30
0.0
 10
-2184.068270256824
 20
-249.869596688858
 30
0.0
 10
-2123.893189866507
 20
-233.7133356370222
 30
0.0
 10
-2091.347530883045
 20
-236.5029635498889
 30
0.0
 10
-2053.010864216385
 20
-239.7889635498894
 30
0.0
 10
-2033.842530883053
 20
-272.64896354989
 30
0.0
 10
-1976.337530883055
 20
-275.9349635498905
 30
0.0
 10
-1923.627754763639
 20
-278.9469507567129
 30
0.0
 10
-1774.289146418879
 20
-259.8723477406
 30
0.0
 10
-1751.337530883055
 20
-256.8740253835757
 30
0.0
  0
LINE
  5
3A5
330
1F
100
AcDbEntity
  8
1
  6
Continuous
 62
     2
100
AcDbLine
 10
-2201.337530883056
 20
-171.4845069398515
 30
0.0
 11
-2156.337530883057
 21
-171.4845069398515
 31
0.0
  0
LINE
  5
3A6
330
1F
100
AcDbEntity
  8
1
  6
Continuous
 62
     2
100
AcDbLine
 10
-1796.337530883055
 20
-171.4845069398524
 30
0.0
 11
-1751.337530883055
 21
-171.4845069398524
 31
0.0
  0
DIMENSION
  5
3B5
330
1F
100
AcDbEntity
  8
1
  6
ByBlock
 62
     3
100
AcDbDimension
  2
_D8
 10
-1796.337530883055
 20
-21.33464530174774
 30
0.0
 11
-1976.337530883056
 21
-0.3346453017477415
 31
0.0
 70
   160
  1
桝穴寸法
 71
     5
 42
-1.0
 52
90.0
  3
DIMSTYEX_8
100
AcDbAlignedDimension
 13
-2156.337530883056
 23
-21.33464530174774
 33
0.0
 14
-1796.337530883055
 24
-21.33464530174774
 34
0.0
100
AcDbRotatedDimension
1001
ACAD
1000
DSTYLE
1002
{
1070
    41
1040
12.5
1070
   343
1005
89
1070
   344
1005
89
1070
   176
1070
     3
1070
   177
1070
     3
1070
   178
1070
     2
1070
   271
1070
     2
1070
    43
1040
0.0
1070
    42
1040
2.0
1070
   173
1070
     1
1070
   272
1070
     2
1070
   340
1005
3B3
1070
   140
1040
35.84
1002
}
  0
MTEXT
  5
3B6
102
{ACAD_REACTORS
330
3B8
102
}
330
1F
100
AcDbEntity
  8
1
  6
Continuous
 62
     2
100
AcDbMText
 10
-1705.035155883077
 20
-160.999431236491
 30
0.0
 40
40.0
 41
0.0
 71
     7
 72
     5
  1
{\fＭＳ ゴシック|b0|i0|c128|p49;\W1.0;改良桝}
  7
MTSTANDARD7
 73
     1
 44
0.640625
  0
LEADER
  5
3B8
330
1F
100
AcDbEntity
  8
1
  6
ByBlock
 62
     3
100
AcDbLeader
  3
DIMSTYEX_9
 73
     0
 74
     0
 76
     3
 10
-1751.337530883055
 20
-113.8520519196903
 30
0.0
 10
-1705.035155883077
 20
-161.999431236491
 30
0.0
 10
-1704.035155883077
 20
-161.999431236491
 30
0.0
340
3B6
1001
ACAD
1000
DSTYLE
1002
{
1070
   176
1070
     0
1002
}
  0
DIMENSION
  5
3C7
330
1F
100
AcDbEntity
  8
1
  6
ByBlock
 62
     3
100
AcDbDimension
  2
_D9
 10
-1766.340331652508
 20
183.515493060145
 30
0.0
 11
-1976.337530883051
 21
204.515493060145
 31
0.0
 70
   160
  1
Ａ×Ｂ
 71
     5
 42
-1.0
 52
90.0
  3
DIMSTYEX_10
100
AcDbAlignedDimension
 13
-2186.334730113595
 23
133.5154263751444
 33
0.0
 14
-1766.340331652508
 24
133.5154263751444
 34
0.0
100
AcDbRotatedDimension
1001
ACAD
1000
DSTYLE
1002
{
1070
    41
1040
12.5
1070
   343
1005
89
1070
   344
1005
89
1070
   176
1070
     3
1070
   177
1070
     3
1070
   178
1070
     2
1070
   271
1070
     2
1070
    43
1040
0.0
1070
   173
1070
     1
1070
   272
1070
     2
1070
   340
1005
3C5
1070
   140
1040
35.84
1002
}
  0
HATCH
  5
3C8
330
1F
100
AcDbEntity
  8
1
  6
Continuous
 62
     3
100
AcDbHatch
 10
0.0
 20
0.0
 30
0.0
210
0.0
220
0.0
230
1.0
  2
SPR_CNC_LIN
 70
     0
 71
     0
 91
        4
 92
        0
 93
        5
 72
     1
 10
-2156.337530883057
 20
128.5154930601195
 11
-2183.334770124584
 21
128.5154930601373
 72
     1
 10
-2183.334770124584
 20
128.5154930601373
 11
-2201.337530882069
 21
128.5153597106103
 72
     1
 10
-2201.337530883056
 20
128.5154930601418
 11
-2201.337530883056
 21
-171.4845069398515
 72
     1
 10
-2201.337530883056
 20
-171.4845069398515
 11
-2156.337530883057
 21
-171.4845069398515
 72
     1
 10
-2156.337530883057
 20
-171.4845069398515
 11
-2156.337530883056
 21
128.515426375149
 97
        0
 92
        2
 72
     0
 73
     1
 93
       10
 10
-2156.337530883057
 20
-171.4845069398515
 10
-2201.337530883055
 20
-171.4845069398515
 10
-2201.337530883056
 20
-254.7704408485259
 10
-2197.335684963523
 20
-253.6500300073673
 10
-2192.316406199729
 20
-252.2834791021683
 10
-2186.404809196424
 20
-250.7243707621833
 10
-2179.726008558354
 20
-249.0262876166662
 10
-2172.405118890271
 20
-247.2428122948711
 10
-2164.567254796923
 20
-245.4275274260521
 10
-2156.337530883057
 20
-243.6345544345712
 97
        0
 92
        0
 93
        4
 72
     1
 10
-1751.337530883055
 20
128.5154930601477
 11
-1796.337530883055
 21
128.5154930601477
 72
     1
 10
-1796.337530883055
 20
128.515426375149
 11
-1796.337530883055
 21
-171.4845069398524
 72
     1
 10
-1796.337530883055
 20
-171.4845069398524
 11
-1751.337530883055
 21
-171.4845069398524
 72
     1
 10
-1751.337530883055
 20
-171.4845069398524
 11
-1751.337530883055
 21
128.515426375149
 97
        0
 92
        2
 72
     0
 73
     1
 93
       10
 10
-1751.337530883055
 20
-171.4845069398524
 10
-1796.337530883057
 20
-171.4845069398524
 10
-1796.337530883057
 20
-262.4347307839581
 10
-1787.326505561646
 20
-261.3642607025571
 10
-1779.027807151449
 20
-260.3602124432492
 10
-1771.530530284305
 20
-259.4379496319052
 10
-1764.923769592054
 20
-258.6128358943953
 10
-1759.296619706536
 20
-257.9002348565901
 10
-1754.73817525959
 20
-257.3155101443601
 10
-1751.337530883055
 20
-256.8740253835757
 97
        0
 75
     0
 76
     2
 52
45.0
 41
1.0
 77
     0
 78
     3
 53
45.0
 43
-2178.912707946401
 44
17.51627604611326
 45
-42.42640687119285
 46
42.42640687119285
 79
     0
 53
45.0
 43
-2178.912707946401
 44
31.65841166984421
 45
-42.42640687119285
 46
42.42640687119285
 79
     0
 53
45.0
 43
-2178.912707946401
 44
45.80054729357516
 45
-42.42640687119285
 46
42.42640687119285
 79
     0
 98
        1
 10
0.0
 20
0.0
  0
MTEXT
  5
3CA
330
1F
100
AcDbEntity
  8
6
  6
Continuous
 62
     3
100
AcDbMText
 10
-3533.777011489916
 20
-632.7258858320288
 30
0.0
 40
25.0
 41
0.0
 71
     7
 72
     5
  1
●寸法表
  7
MTSTANDARD18
 73
     1
 44
0.655
  0
LINE
  5
3CB
330
1F
100
AcDbEntity
  8
6
  6
Continuous
 62
     3
100
AcDbLine
 10
-3535.443661489916
 20
-714.7130334049289
 30
0.0
 11
-2229.044403096136
 21
-714.7130334049289
 31
0.0
  0
LINE
  5
3CC
330
1F
100
AcDbEntity
  8
6
  6
Continuous
 62
     3
100
AcDbLine
 10
-2229.044403096136
 20
-642.7130334049289
 30
0.0
 11
-3535.443661489916
 21
-642.7130334049289
 31
0.0
  0
MTEXT
  5
3CE
330
1F
100
AcDbEntity
  8
6
  6
Continuous
 62
     3
100
AcDbMText
 10
-3424.880552325547
 20
-678.4429964972287
 30
0.0
 40
25.0
 41
0.0
 71
     7
 72
     5
  1
ます穴の大きさ
  7
MTSTANDARD19
 73
     1
 44
0.655
  0
MTEXT
  5
3D0
330
1F
100
AcDbEntity
  8
6
  6
Continuous
 62
     3
100
AcDbMText
 10
-3409.880552325547
 20
-702.9429969243288
 30
0.0
 40
25.0
 41
0.0
 71
     7
 72
     5
  1
（有効内寸）
  7
MTSTANDARD20
 73
     1
 44
0.655
  0
MTEXT
  5
3D1
330
1F
100
AcDbEntity
  8
6
  6
Continuous
 62
     3
100
AcDbMText
 10
-3158.874905386523
 20
-692.6455630532578
 30
0.0
 40
25.0
 41
0.0
 71
     7
 72
     5
  1
型式記号
  7
MTSTANDARD18
 73
     1
 44
0.655
  0
MTEXT
  5
3D3
330
1F
100
AcDbEntity
  8
6
  6
Continuous
 62
     3
100
AcDbMText
 10
-3207.391323513149
 20
-751.1455630532578
 30
0.0
 40
25.0
 41
0.0
 71
     7
 72
     5
  1
{\W0.5x;AGBK 24-25}
  7
MTSTANDARD21
 73
     1
 44
0.655
  0
LINE
  5
3D4
330
1F
100
AcDbEntity
  8
6
  6
Continuous
 62
     3
100
AcDbLine
 10
-2994.044403096136
 20
-678.713033404932
 30
0.0
 11
-2229.044403096136
 21
-678.7130334049284
 31
0.0
  0
MTEXT
  5
3D6
330
1F
100
AcDbEntity
  8
6
  6
Continuous
 62
     3
100
AcDbMText
 10
-2679.133864490317
 20
-673.2130334049289
 30
0.0
 40
25.0
 41
0.0
 71
     7
 72
     5
  1
グレーチング本体
  7
MTSTANDARD22
 73
     1
 44
0.655
  0
LINE
  5
3D7
330
1F
100
AcDbEntity
  8
6
  6
Continuous
 62
     3
100
AcDbLine
 10
-3434.044403096134
 20
-759.7130334049298
 30
0.0
 11
-2945.443661490116
 21
-759.7130334049289
 31
0.0
  0
LINE
  5
3D8
330
1F
100
AcDbEntity
  8
6
  6
Continuous
 62
     3
100
AcDbLine
 10
-2945.443661490116
 20
-759.7130334049289
 30
0.0
 11
-2526.044403096136
 21
-759.7130334049289
 31
0.0
  0
LINE
  5
3D9
330
1F
100
AcDbEntity
  8
6
  6
Continuous
 62
     3
100
AcDbLine
 10
-3434.044403096134
 20
-804.7130334049293
 30
0.0
 11
-2945.443661490116
 21
-804.7130334049289
 31
0.0
  0
LINE
  5
3DA
330
1F
100
AcDbEntity
  8
6
  6
Continuous
 62
     3
100
AcDbLine
 10
-2945.443661490116
 20
-804.7130334049289
 30
0.0
 11
-2526.044403096136
 21
-804.7130334049289
 31
0.0
  0
LINE
  5
3DB
330
1F
100
AcDbEntity
  8
6
  6
Continuous
 62
     3
100
AcDbLine
 10
-3434.044403096134
 20
-849.7130334049293
 30
0.0
 11
-2945.443661490116
 21
-849.7130334049289
 31
0.0
  0
LINE
  5
3DC
330
1F
100
AcDbEntity
  8
6
  6
Continuous
 62
     3
100
AcDbLine
 10
-2945.443661490116
 20
-849.7130334049289
 30
0.0
 11
-2585.443661490116
 21
-849.7130334049289
 31
0.0
  0
LINE
  5
3DD
330
1F
100
AcDbEntity
  8
6
  6
Continuous
 62
     3
100
AcDbLine
 10
-3385.443661490016
 20
-849.7130334049289
 30
0.0
 11
-2945.443661490116
 21
-849.7130334049289
 31
0.0
  0
LINE
  5
3DE
330
1F
100
AcDbEntity
  8
6
  6
Continuous
 62
     3
100
AcDbLine
 10
-2945.443661490116
 20
-849.7130334049289
 30
0.0
 11
-2526.044403096137
 21
-849.7130334049291
 31
0.0
  0
LINE
  5
3DF
330
1F
100
AcDbEntity
  8
6
  6
Continuous
 62
     3
100
AcDbLine
 10
-3385.443661490016
 20
-894.7130334049289
 30
0.0
 11
-2945.443661490116
 21
-894.7130334049289
 31
0.0
  0
LINE
  5
3E0
330
1F
100
AcDbEntity
  8
6
  6
Continuous
 62
     3
100
AcDbLine
 10
-3434.044403096137
 20
-894.7130334049289
 30
0.0
 11
-2229.044403096136
 21
-894.7130334049293
 31
0.0
  0
MTEXT
  5
3E2
330
1F
100
AcDbEntity
  8
6
  6
Continuous
 62
     3
100
AcDbMText
 10
-3399.047202325547
 20
-884.7130334049289
 30
0.0
 40
25.0
 41
0.0
 71
     7
 72
     5
  1
{\W0.5x;450}×{\W0.5x;450}
  7
MTSTANDARD23
 73
     1
 44
0.655
  0
MTEXT
  5
3E3
330
1F
100
AcDbEntity
  8
6
  6
Continuous
 62
     3
100
AcDbMText
 10
-3399.047202325547
 20
-749.7130334049289
 30
0.0
 40
25.0
 41
0.0
 71
     7
 72
     5
  1
{\W0.5x;240}×{\W0.5x;240}
  7
MTSTANDARD23
 73
     1
 44
0.655
  0
MTEXT
  5
3E4
330
1F
100
AcDbEntity
  8
6
  6
Continuous
 62
     3
100
AcDbMText
 10
-3399.047202325549
 20
-929.7130334049284
 30
0.0
 40
25.0
 41
0.0
 71
     7
 72
     5
  1
{\W0.5x;600}×{\W0.5x;600}
  7
MTSTANDARD23
 73
     1
 44
0.655
  0
MTEXT
  5
3E6
330
1F
100
AcDbEntity
  8
6
  6
Continuous
 62
     3
100
AcDbMText
 10
-3209.751114298058
 20
-886.1455630532578
 30
0.0
 40
25.0
 41
0.0
 71
     7
 72
     5
  1
{\W0.5x;AGBK 45-38}
  7
MTSTANDARD24
 73
     1
 44
0.655
  0
MTEXT
  5
3E7
330
1F
100
AcDbEntity
  8
6
  6
Continuous
 62
     3
100
AcDbMText
 10
-3207.391323513152
 20
-931.1455630532573
 30
0.0
 40
25.0
 41
0.0
 71
     7
 72
     5
  1
{\W0.5x;AGBK 60-44}
  7
MTSTANDARD21
 73
     1
 44
0.655
  0
MTEXT
  5
3E8
330
1F
100
AcDbEntity
  8
6
  6
Continuous
 62
     3
100
AcDbMText
 10
-3207.391323513251
 20
-1156.145563053257
 30
0.0
 40
25.0
 41
0.0
 71
     7
 72
     5
  1
{\W0.5x;AGBK 60-25}
  7
MTSTANDARD21
 73
     1
 44
0.655
  0
MTEXT
  5
3EA
330
1F
100
AcDbEntity
  8
6
  6
Continuous
 62
     3
100
AcDbMText
 10
-3205.031546887059
 20
-1111.145563053258
 30
0.0
 40
25.0
 41
0.0
 71
     7
 72
     5
  1
{\W0.5x;AGBK 45-25}
  7
MTSTANDARD25
 73
     1
 44
0.655
  0
MTEXT
  5
3EB
330
1F
100
AcDbEntity
  8
6
  6
Continuous
 62
     3
100
AcDbMText
 10
-3205.031546887057
 20
-1066.145563053259
 30
0.0
 40
25.0
 41
0.0
 71
     7
 72
     5
  1
{\W0.5x;AGBK 36-19}
  7
MTSTANDARD25
 73
     1
 44
0.655
  0
MTEXT
  5
3EC
330
1F
100
AcDbEntity
  8
6
  6
Continuous
 62
     3
100
AcDbMText
 10
-3399.047202325649
 20
-1154.713033404928
 30
0.0
 40
25.0
 41
0.0
 71
     7
 72
     5
  1
{\W0.5x;600}×{\W0.5x;600}
  7
MTSTANDARD23
 73
     1
 44
0.655
  0
MTEXT
  5
3ED
330
1F
100
AcDbEntity
  8
6
  6
Continuous
 62
     3
100
AcDbMText
 10
-3399.047202325647
 20
-1064.71303340493
 30
0.0
 40
25.0
 41
0.0
 71
     7
 72
     5
  1
{\W0.5x;360}×{\W0.5x;360}
  7
MTSTANDARD23
 73
     1
 44
0.655
  0
MTEXT
  5
3EE
330
1F
100
AcDbEntity
  8
6
  6
Continuous
 62
     3
100
AcDbMText
 10
-3399.047202325649
 20
-1109.713033404929
 30
0.0
 40
25.0
 41
0.0
 71
     7
 72
     5
  1
{\W0.5x;450}×{\W0.5x;450}
  7
MTSTANDARD23
 73
     1
 44
0.655
  0
LINE
  5
3EF
330
1F
100
AcDbEntity
  8
6
  6
Continuous
 62
     3
100
AcDbLine
 10
-3385.443661490016
 20
-1074.713033404929
 30
0.0
 11
-2229.044403096136
 21
-1074.713033404928
 31
0.0
  0
LINE
  5
3F0
330
1F
100
AcDbEntity
  8
6
  6
Continuous
 62
     3
100
AcDbLine
 10
-3434.044403096137
 20
-1074.713033404929
 30
0.0
 11
-2945.443661490216
 21
-1074.713033404929
 31
0.0
  0
LINE
  5
3F1
330
1F
100
AcDbEntity
  8
6
  6
Continuous
 62
     3
100
AcDbLine
 10
-2945.443661490216
 20
-1029.713033404929
 30
0.0
 11
-2585.443661490216
 21
-1029.713033404929
 31
0.0
  0
LINE
  5
3F2
330
1F
100
AcDbEntity
  8
6
  6
Continuous
 62
     3
100
AcDbLine
 10
-3434.044403096134
 20
-1029.71303340493
 30
0.0
 11
-2945.443661490216
 21
-1029.713033404929
 31
0.0
  0
LINE
  5
3F3
330
1F
100
AcDbEntity
  8
6
  6
Continuous
 62
     3
100
AcDbLine
 10
-2945.443661490216
 20
-1029.713033404929
 30
0.0
 11
-2526.044403096136
 21
-1029.713033404928
 31
0.0
  0
LINE
  5
3F4
330
1F
100
AcDbEntity
  8
6
  6
Continuous
 62
     3
100
AcDbLine
 10
-3385.443661490116
 20
-1029.713033404929
 30
0.0
 11
-2945.443661490216
 21
-1029.713033404929
 31
0.0
  0
LINE
  5
3F5
330
1F
100
AcDbEntity
  8
6
  6
Continuous
 62
     3
100
AcDbLine
 10
-2945.443661490216
 20
-984.7130334049289
 30
0.0
 11
-2526.044403096138
 21
-984.7130334049289
 31
0.0
  0
LINE
  5
3F6
330
1F
100
AcDbEntity
  8
6
  6
Continuous
 62
     3
100
AcDbLine
 10
-2346.044403096137
 20
-984.7130334049289
 30
0.0
 11
-2229.044403096136
 21
-984.7130334049289
 31
0.0
  0
LINE
  5
3F7
330
1F
100
AcDbEntity
  8
6
  6
Continuous
 62
     3
100
AcDbLine
 10
-3434.044403096134
 20
-984.7130334049289
 30
0.0
 11
-2945.443661490216
 21
-984.7130334049289
 31
0.0
  0
LINE
  5
3F8
330
1F
100
AcDbEntity
  8
6
  6
Continuous
 62
     3
100
AcDbLine
 10
-2945.443661490216
 20
-939.7130334049289
 30
0.0
 11
-2346.044403096136
 21
-939.7130334049289
 31
0.0
  0
LINE
  5
3F9
330
1F
100
AcDbEntity
  8
6
  6
Continuous
 62
     3
100
AcDbLine
 10
-3535.443661489916
 20
-939.7130334049284
 30
0.0
 11
-2945.443661490216
 21
-939.7130334049289
 31
0.0
  0
LINE
  5
3FA
330
1F
100
AcDbEntity
  8
6
  6
Continuous
 62
     3
100
AcDbLine
 10
-3535.443661489916
 20
-642.7130334049289
 30
0.0
 11
-3535.443661489917
 21
-1164.713033404929
 31
0.0
  0
MTEXT
  5
3FC
330
1F
100
AcDbEntity
  8
6
  6
Continuous
 62
     3
100
AcDbMText
 10
-3524.863303008562
 20
-1064.837255946522
 30
0.0
 40
25.0
 41
0.0
 71
     7
 72
     5
  1
歩行用
  7
MTSTANDARD26
 73
     1
 44
0.655
  0
MTEXT
  5
3FE
330
1F
100
AcDbEntity
  8
6
  6
Continuous
 62
     3
100
AcDbMText
 10
-3504.203947593815
 20
-840.8456109292435
 30
0.0
 40
25.0
 41
0.0
 71
     7
 72
     5
  1
{\W0.5x;T2}
  7
MTSTANDARD27
 73
     1
 44
0.655
  0
MTEXT
  5
400
330
1F
100
AcDbEntity
  8
6
  6
Continuous
 62
     3
100
AcDbMText
 10
-3509.863303008562
 20
-691.2130334049289
 30
0.0
 40
25.0
 41
0.0
 71
     7
 72
     5
  1
荷重
  7
MTSTANDARD28
 73
     1
 44
0.655
  0
LINE
  5
401
330
1F
100
AcDbEntity
  8
1
  6
Continuous
 62
     3
100
AcDbLine
 10
-3434.044403096136
 20
-642.7130334049293
 30
0.0
 11
-3434.044403096137
 21
-1164.713033404929
 31
0.0
  0
LINE
  5
402
330
1F
100
AcDbEntity
  8
1
  6
Continuous
 62
     3
100
AcDbLine
 10
-2994.044403096136
 20
-642.7130334049289
 30
0.0
 11
-2994.044403096137
 21
-1164.713033404929
 31
0.0
  0
LINE
  5
403
330
1F
100
AcDbEntity
  8
1
  6
Continuous
 62
     3
100
AcDbLine
 10
-2346.044403096136
 20
-759.7130334049289
 30
0.0
 11
-2229.044403096136
 21
-759.7130334049289
 31
0.0
  0
LINE
  5
404
330
1F
100
AcDbEntity
  8
1
  6
Continuous
 62
     3
100
AcDbLine
 10
-2346.044403096136
 20
-804.713033404927
 30
0.0
 11
-2229.044403096136
 21
-804.713033404928
 31
0.0
  0
LINE
  5
405
330
1F
100
AcDbEntity
  8
1
  6
Continuous
 62
     3
100
AcDbLine
 10
-2346.044403096136
 20
-849.713033404927
 30
0.0
 11
-2229.044403096136
 21
-849.713033404927
 31
0.0
  0
LINE
  5
406
330
1F
100
AcDbEntity
  8
1
  6
Continuous
 62
     3
100
AcDbLine
 10
-2346.044403096136
 20
-939.7130334049289
 30
0.0
 11
-2229.044403096136
 21
-939.7130334049293
 31
0.0
  0
LINE
  5
407
330
1F
100
AcDbEntity
  8
1
  6
Continuous
 62
     3
100
AcDbLine
 10
-2346.044403096136
 20
-1029.713033404931
 30
0.0
 11
-2229.044403096136
 21
-1029.713033404932
 31
0.0
  0
LINE
  5
408
330
1F
100
AcDbEntity
  8
1
  6
Continuous
 62
     3
100
AcDbLine
 10
-3217.402043630248
 20
-642.7130334049289
 30
0.0
 11
-3217.402043630249
 21
-1164.713033404929
 31
0.0
  0
MTEXT
  5
40A
330
1F
100
AcDbEntity
  8
6
  6
Continuous
 62
     3
100
AcDbMText
 10
-2979.367945089334
 20
-710.5964996034704
 30
0.0
 40
25.0
 41
0.0
 71
     7
 72
     5
  1
{\W0.5x;W}×{\W0.5x;L mm}
  7
MTSTANDARD29
 73
     1
 44
0.655
  0
MTEXT
  5
40C
330
1F
100
AcDbEntity
  8
6
  6
Continuous
 62
     3
100
AcDbMText
 10
-2977.287423037761
 20
-750.6398502685079
 30
0.0
 40
25.0
 41
0.0
 71
     7
 72
     5
  1
{\W0.5x;230}×{\W0.5x;230}
  7
MTSTANDARD30
 73
     1
 44
0.655
  0
MTEXT
  5
40D
330
1F
100
AcDbEntity
  8
6
  6
Continuous
 62
     3
100
AcDbMText
 10
-2977.287423037763
 20
-930.6398502685074
 30
0.0
 40
25.0
 41
0.0
 71
     7
 72
     5
  1
{\W0.5x;585}×{\W0.5x;585}
  7
MTSTANDARD30
 73
     1
 44
0.655
  0
MTEXT
  5
40E
330
1F
100
AcDbEntity
  8
6
  6
Continuous
 62
     3
100
AcDbMText
 10
-2977.287423037761
 20
-885.6398502685079
 30
0.0
 40
25.0
 41
0.0
 71
     7
 72
     5
  1
{\W0.5x;440}×{\W0.5x;440}
  7
MTSTANDARD30
 73
     1
 44
0.655
  0
MTEXT
  5
40F
330
1F
100
AcDbEntity
  8
6
  6
Continuous
 62
     3
100
AcDbMText
 10
-2977.287423037863
 20
-1110.639850268508
 30
0.0
 40
25.0
 41
0.0
 71
     7
 72
     5
  1
{\W0.5x;440}×{\W0.5x;440}
  7
MTSTANDARD30
 73
     1
 44
0.655
  0
MTEXT
  5
410
330
1F
100
AcDbEntity
  8
6
  6
Continuous
 62
     3
100
AcDbMText
 10
-2977.287423037861
 20
-1065.639850268509
 30
0.0
 40
25.0
 41
0.0
 71
     7
 72
     5
  1
{\W0.5x;350}×{\W0.5x;350}
  7
MTSTANDARD30
 73
     1
 44
0.655
  0
MTEXT
  5
411
330
1F
100
AcDbEntity
  8
6
  6
Continuous
 62
     3
100
AcDbMText
 10
-2977.287423037763
 20
-1155.639850268507
 30
0.0
 40
25.0
 41
0.0
 71
     7
 72
     5
  1
{\W0.5x;590}×{\W0.5x;590}
  7
MTSTANDARD30
 73
     1
 44
0.655
  0
LINE
  5
412
330
1F
100
AcDbEntity
  8
1
  6
Continuous
 62
     3
100
AcDbLine
 10
-2814.044403096136
 20
-678.713033404932
 30
0.0
 11
-2814.044403096137
 21
-1164.713033404929
 31
0.0
  0
MTEXT
  5
414
330
1F
100
AcDbEntity
  8
6
  6
Continuous
 62
     3
100
AcDbMText
 10
-2787.31674751684
 20
-710.9493349369391
 30
0.0
 40
25.0
 41
0.0
 71
     7
 72
     5
  1
{\W0.5x;A}×{\W0.5x;B mm}
  7
MTSTANDARD31
 73
     1
 44
0.655
  0
MTEXT
  5
415
330
1F
100
AcDbEntity
  8
6
  6
Continuous
 62
     3
100
AcDbMText
 10
-2796.8341799375
 20
-749.5856692360808
 30
0.0
 40
25.0
 41
0.0
 71
     7
 72
     5
  1
{\W0.5x;300}×{\W0.5x;300}
  7
MTSTANDARD30
 73
     1
 44
0.655
  0
MTEXT
  5
416
330
1F
100
AcDbEntity
  8
6
  6
Continuous
 62
     3
100
AcDbMText
 10
-2796.834179937503
 20
-929.5856692360803
 30
0.0
 40
25.0
 41
0.0
 71
     7
 72
     5
  1
{\W0.5x;673}×{\W0.5x;673}
  7
MTSTANDARD30
 73
     1
 44
0.655
  0
MTEXT
  5
417
330
1F
100
AcDbEntity
  8
6
  6
Continuous
 62
     3
100
AcDbMText
 10
-2796.8341799375
 20
-884.5856692360808
 30
0.0
 40
25.0
 41
0.0
 71
     7
 72
     5
  1
{\W0.5x;510}×{\W0.5x;510}
  7
MTSTANDARD30
 73
     1
 44
0.655
  0
MTEXT
  5
418
330
1F
100
AcDbEntity
  8
6
  6
Continuous
 62
     3
100
AcDbMText
 10
-2796.834179937604
 20
-1109.585669236081
 30
0.0
 40
25.0
 41
0.0
 71
     7
 72
     5
  1
{\W0.5x;510}×{\W0.5x;510}
  7
MTSTANDARD30
 73
     1
 44
0.655
  0
MTEXT
  5
419
330
1F
100
AcDbEntity
  8
6
  6
Continuous
 62
     3
100
AcDbMText
 10
-2796.834179937602
 20
-1064.585669236082
 30
0.0
 40
25.0
 41
0.0
 71
     7
 72
     5
  1
{\W0.5x;404}×{\W0.5x;404}
  7
MTSTANDARD30
 73
     1
 44
0.655
  0
MTEXT
  5
41A
330
1F
100
AcDbEntity
  8
6
  6
Continuous
 62
     3
100
AcDbMText
 10
-2796.834179937502
 20
-1154.58566923608
 30
0.0
 40
25.0
 41
0.0
 71
     7
 72
     5
  1
{\W0.5x;660}×{\W0.5x;660}
  7
MTSTANDARD30
 73
     1
 44
0.655
  0
LINE
  5
41B
330
1F
100
AcDbEntity
  8
1
  6
Continuous
 62
     3
100
AcDbLine
 10
-2634.044403096136
 20
-678.713033404932
 30
0.0
 11
-2634.044403096137
 21
-1164.713033404929
 31
0.0
  0
MTEXT
  5
41D
330
1F
100
AcDbEntity
  8
6
  6
Continuous
 62
     3
100
AcDbMText
 10
-2612.151418947651
 20
-711.0495405545071
 30
0.0
 40
25.0
 41
0.0
 71
     7
 72
     5
  1
ｈ{\W0.5x;mm}
  7
MTSTANDARD32
 73
     1
 44
0.655
  0
MTEXT
  5
41E
330
1F
100
AcDbEntity
  8
6
  6
Continuous
 62
     3
100
AcDbMText
 10
-2595.602318772625
 20
-751.5495405545071
 30
0.0
 40
25.0
 41
0.0
 71
     7
 72
     5
  1
{\W0.5x;25}
  7
MTSTANDARD27
 73
     1
 44
0.655
  0
MTEXT
  5
41F
330
1F
100
AcDbEntity
  8
6
  6
Continuous
 62
     3
100
AcDbMText
 10
-2595.602318772625
 20
-886.5495405545071
 30
0.0
 40
25.0
 41
0.0
 71
     7
 72
     5
  1
{\W0.5x;38}
  7
MTSTANDARD27
 73
     1
 44
0.655
  0
MTEXT
  5
420
330
1F
100
AcDbEntity
  8
6
  6
Continuous
 62
     3
100
AcDbMText
 10
-2595.602318772729
 20
-931.5495405545066
 30
0.0
 40
25.0
 41
0.0
 71
     7
 72
     5
  1
{\W0.5x;44}
  7
MTSTANDARD27
 73
     1
 44
0.655
  0
MTEXT
  5
422
330
1F
100
AcDbEntity
  8
6
  6
Continuous
 62
     3
100
AcDbMText
 10
-2591.109235708109
 20
-1066.549540554508
 30
0.0
 40
25.0
 41
0.0
 71
     7
 72
     5
  1
{\W0.5x;19}
  7
MTSTANDARD33
 73
     1
 44
0.655
  0
MTEXT
  5
423
330
1F
100
AcDbEntity
  8
6
  6
Continuous
 62
     3
100
AcDbMText
 10
-2595.602318772729
 20
-1111.549540554507
 30
0.0
 40
25.0
 41
0.0
 71
     7
 72
     5
  1
{\W0.5x;25}
  7
MTSTANDARD27
 73
     1
 44
0.655
  0
MTEXT
  5
424
330
1F
100
AcDbEntity
  8
6
  6
Continuous
 62
     3
100
AcDbMText
 10
-2595.602318772627
 20
-1156.549540554506
 30
0.0
 40
25.0
 41
0.0
 71
     7
 72
     5
  1
{\W0.5x;25}
  7
MTSTANDARD27
 73
     1
 44
0.655
  0
LINE
  5
425
330
1F
100
AcDbEntity
  8
1
  6
Continuous
 62
     3
100
AcDbLine
 10
-2526.044403096136
 20
-678.713033404932
 30
0.0
 11
-2526.044403096139
 21
-1164.713033404929
 31
0.0
  0
LINE
  5
426
330
1F
100
AcDbEntity
  8
1
  6
Continuous
 62
     3
100
AcDbLine
 10
-2346.044403096136
 20
-678.7130334049289
 30
0.0
 11
-2346.044403096137
 21
-1164.713033404929
 31
0.0
  0
MTEXT
  5
427
330
1F
100
AcDbEntity
  8
6
  6
Continuous
 62
     3
100
AcDbMText
 10
-2520.521642214951
 20
-709.7856785922872
 30
0.0
 40
25.0
 41
0.0
 71
     7
 72
     5
  1
アングル寸法
  7
MTSTANDARD20
 73
     1
 44
0.655
  0
MTEXT
  5
429
330
1F
100
AcDbEntity
  8
6
  6
Continuous
 62
     3
100
AcDbMText
 10
-2495.188292214952
 20
-817.213033404927
 30
0.0
 40
25.0
 41
0.0
 71
     7
 72
     5
  1
{\W0.5x;L40}×{\W0.5x;40}×{\W0.5x;5}
  7
MTSTANDARD34
 73
     1
 44
0.655
  0
MTEXT
  5
42A
330
1F
100
AcDbEntity
  8
6
  6
Continuous
 62
     3
100
AcDbMText
 10
-2495.18829221505
 20
-1132.785678592287
 30
0.0
 40
25.0
 41
0.0
 71
     7
 72
     5
  1
{\W0.5x;L40}×{\W0.5x;40}×{\W0.5x;5}
  7
MTSTANDARD34
 73
     1
 44
0.655
  0
MTEXT
  5
42B
330
1F
100
AcDbEntity
  8
6
  6
Continuous
 62
     3
100
AcDbMText
 10
-2495.18829221505
 20
-1018.976185061334
 30
0.0
 40
25.0
 41
0.0
 71
     7
 72
     5
  1
{\W0.5x;L30}×{\W0.5x;30}×{\W0.5x;3}
  7
MTSTANDARD34
 73
     1
 44
0.655
  0
MTEXT
  5
42C
330
1F
100
AcDbEntity
  8
6
  6
Continuous
 62
     3
100
AcDbMText
 10
-2493.313375030295
 20
-930.9081942355538
 30
0.0
 40
25.0
 41
0.0
 71
     7
 72
     5
  1
{\W0.5x;L50}×{\W0.5x;50}×{\W0.5x;6}
  7
MTSTANDARD34
 73
     1
 44
0.655
  0
MTEXT
  5
42D
330
1F
100
AcDbEntity
  8
6
  6
Continuous
 62
     3
100
AcDbMText
 10
-2343.388692150169
 20
-710.3002026814452
 30
0.0
 40
25.0
 41
0.0
 71
     7
 72
     5
  1
重量ｋｇ
  7
MTSTANDARD18
 73
     1
 44
0.655
  0
MTEXT
  5
42F
330
1F
100
AcDbEntity
  8
6
  6
Continuous
 62
     3
100
AcDbMText
 10
-2309.958583019855
 20
-754.4726996760501
 30
0.0
 40
25.0
 41
0.0
 71
     7
 72
     5
  1
{\W0.5x;4.4}
  7
MTSTANDARD35
 73
     1
 44
0.655
  0
MTEXT
  5
431
330
1F
100
AcDbEntity
  8
6
  6
Continuous
 62
     3
100
AcDbMText
 10
-2317.103149150012
 20
-889.4726996760501
 30
0.0
 40
25.0
 41
0.0
 71
     7
 72
     5
  1
{\W0.5x;12.3}
  7
MTSTANDARD36
 73
     1
 44
0.655
  0
MTEXT
  5
433
330
1F
100
AcDbEntity
  8
6
  6
Continuous
 62
     3
100
AcDbMText
 10
-2319.422019050236
 20
-934.4726996760496
 30
0.0
 40
25.0
 41
0.0
 71
     7
 72
     5
  1
{\W0.5x;26.4}
  7
MTSTANDARD37
 73
     1
 44
0.655
  0
MTEXT
  5
435
330
1F
100
AcDbEntity
  8
6
  6
Continuous
 62
     3
100
AcDbMText
 10
-2314.784181855213
 20
-1159.472699676049
 30
0.0
 40
25.0
 41
0.0
 71
     7
 72
     5
  1
{\W0.5x;17.5}
  7
MTSTANDARD38
 73
     1
 44
0.655
  0
MTEXT
  5
437
330
1F
100
AcDbEntity
  8
6
  6
Continuous
 62
     3
100
AcDbMText
 10
-2310.146344660091
 20
-1114.47269967605
 30
0.0
 40
25.0
 41
0.0
 71
     7
 72
     5
  1
{\W0.5x;10.3}
  7
MTSTANDARD39
 73
     1
 44
0.655
  0
MTEXT
  5
439
330
1F
100
AcDbEntity
  8
6
  6
Continuous
 62
     3
100
AcDbMText
 10
-2307.663127930135
 20
-1069.472699676052
 30
0.0
 40
25.0
 41
0.0
 71
     7
 72
     5
  1
{\W0.5x;4.4}
  7
MTSTANDARD40
 73
     1
 44
0.655
  0
LINE
  5
43A
330
1F
100
AcDbEntity
  8
1
  6
Continuous
 62
     3
100
AcDbLine
 10
-2229.044403096136
 20
-642.7130334049289
 30
0.0
 11
-2229.044403096137
 21
-1164.713033404929
 31
0.0
  0
LINE
  5
43B
330
1F
100
AcDbEntity
  8
1
  6
Continuous
 62
     7
100
AcDbLine
 10
-3434.044403096137
 20
-1119.713033404929
 30
0.0
 11
-2526.044403096139
 21
-1119.713033404929
 31
0.0
  0
LINE
  5
43C
330
1F
100
AcDbEntity
  8
1
  6
Continuous
 62
     7
100
AcDbLine
 10
-2346.044403096137
 20
-1119.713033404929
 30
0.0
 11
-2229.044403096137
 21
-1119.713033404929
 31
0.0
  0
LINE
  5
43D
330
1F
100
AcDbEntity
  8
1
  6
Continuous
 62
     7
100
AcDbLine
 10
-3535.443661489915
 20
-1164.713033404929
 30
0.0
 11
-2229.044403096137
 21
-1164.713033404929
 31
0.0
  0
MTEXT
  5
43E
330
1F
100
AcDbEntity
  8
6
  6
Continuous
 62
     3
100
AcDbMText
 10
-3399.047202325645
 20
-1019.713033404929
 30
0.0
 40
25.0
 41
0.0
 71
     7
 72
     5
  1
{\W0.5x;300}×{\W0.5x;300}
  7
MTSTANDARD23
 73
     1
 44
0.655
  0
MTEXT
  5
440
330
1F
100
AcDbEntity
  8
6
  6
Continuous
 62
     3
100
AcDbMText
 10
-3202.671756102046
 20
-1021.145563053258
 30
0.0
 40
25.0
 41
0.0
 71
     7
 72
     5
  1
{\W0.5x;AGBK 30-19}
  7
MTSTANDARD41
 73
     1
 44
0.655
  0
MTEXT
  5
441
330
1F
100
AcDbEntity
  8
6
  6
Continuous
 62
     3
100
AcDbMText
 10
-2977.287423037759
 20
-1020.639850268508
 30
0.0
 40
25.0
 41
0.0
 71
     7
 72
     5
  1
{\W0.5x;290}×{\W0.5x;290}
  7
MTSTANDARD30
 73
     1
 44
0.655
  0
MTEXT
  5
442
330
1F
100
AcDbEntity
  8
6
  6
Continuous
 62
     3
100
AcDbMText
 10
-2796.834179937498
 20
-1019.585669236081
 30
0.0
 40
25.0
 41
0.0
 71
     7
 72
     5
  1
{\W0.5x;344}×{\W0.5x;344}
  7
MTSTANDARD30
 73
     1
 44
0.655
  0
MTEXT
  5
443
330
1F
100
AcDbEntity
  8
6
  6
Continuous
 62
     3
100
AcDbMText
 10
-2591.109235708209
 20
-1021.549540554507
 30
0.0
 40
25.0
 41
0.0
 71
     7
 72
     5
  1
{\W0.5x;19}
  7
MTSTANDARD33
 73
     1
 44
0.655
  0
MTEXT
  5
444
330
1F
100
AcDbEntity
  8
6
  6
Continuous
 62
     3
100
AcDbMText
 10
-2309.958583019953
 20
-1024.47269967605
 30
0.0
 40
25.0
 41
0.0
 71
     7
 72
     5
  1
{\W0.5x;3.4}
  7
MTSTANDARD35
 73
     1
 44
0.655
  0
MTEXT
  5
445
330
1F
100
AcDbEntity
  8
6
  6
Continuous
 62
     3
100
AcDbMText
 10
-3399.047202325647
 20
-974.7130334049284
 30
0.0
 40
25.0
 41
0.0
 71
     7
 72
     5
  1
{\W0.5x;240}×{\W0.5x;240}
  7
MTSTANDARD23
 73
     1
 44
0.655
  0
MTEXT
  5
446
330
1F
100
AcDbEntity
  8
6
  6
Continuous
 62
     3
100
AcDbMText
 10
-3202.671756102047
 20
-976.1455630532573
 30
0.0
 40
25.0
 41
0.0
 71
     7
 72
     5
  1
{\W0.5x;AGBK 24-19}
  7
MTSTANDARD41
 73
     1
 44
0.655
  0
MTEXT
  5
447
330
1F
100
AcDbEntity
  8
6
  6
Continuous
 62
     3
100
AcDbMText
 10
-2977.287423037761
 20
-975.6398502685074
 30
0.0
 40
25.0
 41
0.0
 71
     7
 72
     5
  1
{\W0.5x;230}×{\W0.5x;230}
  7
MTSTANDARD30
 73
     1
 44
0.655
  0
MTEXT
  5
448
330
1F
100
AcDbEntity
  8
6
  6
Continuous
 62
     3
100
AcDbMText
 10
-2796.8341799375
 20
-974.5856692360803
 30
0.0
 40
25.0
 41
0.0
 71
     7
 72
     5
  1
{\W0.5x;284}×{\W0.5x;284}
  7
MTSTANDARD30
 73
     1
 44
0.655
  0
MTEXT
  5
449
330
1F
100
AcDbEntity
  8
6
  6
Continuous
 62
     3
100
AcDbMText
 10
-2591.109235708211
 20
-976.5495405545066
 30
0.0
 40
25.0
 41
0.0
 71
     7
 72
     5
  1
{\W0.5x;19}
  7
MTSTANDARD33
 73
     1
 44
0.655
  0
MTEXT
  5
44A
330
1F
100
AcDbEntity
  8
6
  6
Continuous
 62
     3
100
AcDbMText
 10
-2309.958583019954
 20
-979.4726996760496
 30
0.0
 40
25.0
 41
0.0
 71
     7
 72
     5
  1
{\W0.5x;2.4}
  7
MTSTANDARD35
 73
     1
 44
0.655
  0
MTEXT
  5
44B
330
1F
100
AcDbEntity
  8
6
  6
Continuous
 62
     3
100
AcDbMText
 10
-3399.047202325547
 20
-839.713033404928
 30
0.0
 40
25.0
 41
0.0
 71
     7
 72
     5
  1
{\W0.5x;360}×{\W0.5x;360}
  7
MTSTANDARD23
 73
     1
 44
0.655
  0
MTEXT
  5
44C
330
1F
100
AcDbEntity
  8
6
  6
Continuous
 62
     3
100
AcDbMText
 10
-3209.751114298058
 20
-841.1455630532569
 30
0.0
 40
25.0
 41
0.0
 71
     7
 72
     5
  1
{\W0.5x;AGBK 36-32}
  7
MTSTANDARD24
 73
     1
 44
0.655
  0
MTEXT
  5
44D
330
1F
100
AcDbEntity
  8
6
  6
Continuous
 62
     3
100
AcDbMText
 10
-2977.287423037761
 20
-840.639850268507
 30
0.0
 40
25.0
 41
0.0
 71
     7
 72
     5
  1
{\W0.5x;350}×{\W0.5x;350}
  7
MTSTANDARD30
 73
     1
 44
0.655
  0
MTEXT
  5
44E
330
1F
100
AcDbEntity
  8
6
  6
Continuous
 62
     3
100
AcDbMText
 10
-2796.8341799375
 20
-839.5856692360799
 30
0.0
 40
25.0
 41
0.0
 71
     7
 72
     5
  1
{\W0.5x;420}×{\W0.5x;420}
  7
MTSTANDARD30
 73
     1
 44
0.655
  0
MTEXT
  5
44F
330
1F
100
AcDbEntity
  8
6
  6
Continuous
 62
     3
100
AcDbMText
 10
-2595.602318772625
 20
-841.5495405545062
 30
0.0
 40
25.0
 41
0.0
 71
     7
 72
     5
  1
{\W0.5x;32}
  7
MTSTANDARD27
 73
     1
 44
0.655
  0
MTEXT
  5
450
330
1F
100
AcDbEntity
  8
6
  6
Continuous
 62
     3
100
AcDbMText
 10
-2309.958583019855
 20
-844.4726996760492
 30
0.0
 40
25.0
 41
0.0
 71
     7
 72
     5
  1
{\W0.5x;8.5}
  7
MTSTANDARD35
 73
     1
 44
0.655
  0
MTEXT
  5
451
330
1F
100
AcDbEntity
  8
6
  6
Continuous
 62
     3
100
AcDbMText
 10
-3207.391323513148
 20
-796.1455630532587
 30
0.0
 40
25.0
 41
0.0
 71
     7
 72
     5
  1
{\W0.5x;AGBK 30-25}
  7
MTSTANDARD21
 73
     1
 44
0.655
  0
MTEXT
  5
452
330
1F
100
AcDbEntity
  8
6
  6
Continuous
 62
     3
100
AcDbMText
 10
-3399.047202325545
 20
-794.7130334049298
 30
0.0
 40
25.0
 41
0.0
 71
     7
 72
     5
  1
{\W0.5x;300}×{\W0.5x;300}
  7
MTSTANDARD23
 73
     1
 44
0.655
  0
MTEXT
  5
453
330
1F
100
AcDbEntity
  8
6
  6
Continuous
 62
     3
100
AcDbMText
 10
-2977.287423037759
 20
-795.6398502685088
 30
0.0
 40
25.0
 41
0.0
 71
     7
 72
     5
  1
{\W0.5x;290}×{\W0.5x;290}
  7
MTSTANDARD30
 73
     1
 44
0.655
  0
MTEXT
  5
454
330
1F
100
AcDbEntity
  8
6
  6
Continuous
 62
     3
100
AcDbMText
 10
-2796.834179937498
 20
-794.5856692360817
 30
0.0
 40
25.0
 41
0.0
 71
     7
 72
     5
  1
{\W0.5x;360}×{\W0.5x;360}
  7
MTSTANDARD30
 73
     1
 44
0.655
  0
MTEXT
  5
455
330
1F
100
AcDbEntity
  8
6
  6
Continuous
 62
     3
100
AcDbMText
 10
-2595.602318772623
 20
-796.549540554508
 30
0.0
 40
25.0
 41
0.0
 71
     7
 72
     5
  1
{\W0.5x;25}
  7
MTSTANDARD27
 73
     1
 44
0.655
  0
MTEXT
  5
456
330
1F
100
AcDbEntity
  8
6
  6
Continuous
 62
     3
100
AcDbMText
 10
-2309.958583019853
 20
-799.472699676051
 30
0.0
 40
25.0
 41
0.0
 71
     7
 72
     5
  1
{\W0.5x;6.5}
  7
MTSTANDARD35
 73
     1
 44
0.655
  0
ENDSEC
  0
SECTION
  2
OBJECTS
  0
DICTIONARY
  5
C
330
0
100
AcDbDictionary
281
     1
  3
ACAD_GROUP
350
D
  3
ACAD_LAYOUT
350
1A
  3
ACAD_MATERIAL
350
43
  3
ACAD_MLEADERSTYLE
350
6B
  3
ACAD_MLINESTYLE
350
17
  3
ACAD_PLOTSETTINGS
350
19
  3
ACAD_PLOTSTYLENAME
350
E
  3
ACAD_SCALELIST
350
47
  3
ACAD_TABLESTYLE
350
69
  3
ACAD_VISUALSTYLE
350
2A
  3
AcDbVariableDictionary
350
466
  0
DICTIONARY
  5
46D
330
8
100
AcDbDictionary
280
     1
281
     1
  3
ACAD_XREC_ROUNDTRIP
360
46E
  0
DICTIONARY
  5
D
102
{ACAD_REACTORS
330
C
102
}
330
C
100
AcDbDictionary
281
     1
  0
DICTIONARY
  5
1A
102
{ACAD_REACTORS
330
C
102
}
330
C
100
AcDbDictionary
281
     1
  3
Layout1
350
1E
  3
Model
350
22
  0
DICTIONARY
  5
43
102
{ACAD_REACTORS
330
C
102
}
330
C
100
AcDbDictionary
281
     1
  3
ByBlock
350
45
  3
ByLayer
350
44
  3
Global
350
46
  0
DICTIONARY
  5
6B
102
{ACAD_REACTORS
330
C
102
}
330
C
100
AcDbDictionary
281
     1
  3
Standard
350
6C
  0
DICTIONARY
  5
17
102
{ACAD_REACTORS
330
C
102
}
330
C
100
AcDbDictionary
281
     1
  3
Standard
350
18
  0
DICTIONARY
  5
19
102
{ACAD_REACTORS
330
C
102
}
330
C
100
AcDbDictionary
281
     1
  0
ACDBDICTIONARYWDFLT
  5
E
102
{ACAD_REACTORS
330
C
102
}
330
C
100
AcDbDictionary
281
     1
  3
Normal
350
F
100
AcDbDictionaryWithDefault
340
F
  0
DICTIONARY
  5
47
102
{ACAD_REACTORS
330
C
102
}
330
C
100
AcDbDictionary
281
     1
  3
A0
350
48
  3
A1
350
49
  3
A2
350
4A
  3
A3
350
4B
  3
A4
350
4C
  3
A5
350
4D
  3
A6
350
4E
  3
A7
350
4F
  3
A8
350
50
  3
A9
350
51
  3
B0
350
52
  3
B1
350
53
  3
B2
350
54
  3
B3
350
55
  3
B4
350
56
  3
B5
350
57
  3
B6
350
58
  3
B7
350
59
  3
B8
350
5A
  3
B9
350
5B
  3
C0
350
5C
  3
C1
350
5D
  3
C2
350
5E
  3
C3
350
5F
  3
C4
350
60
  3
C5
350
61
  3
C6
350
62
  3
C7
350
63
  3
C8
350
64
  3
C9
350
65
  3
D0
350
66
  3
D1
350
67
  3
D2
350
68
  0
DICTIONARY
  5
69
102
{ACAD_REACTORS
330
C
102
}
330
C
100
AcDbDictionary
281
     1
  3
Standard
350
6A
  0
DICTIONARY
  5
2A
102
{ACAD_REACTORS
330
C
102
}
330
C
100
AcDbDictionary
281
     1
  3
2dWireframe
350
2F
  3
Basic
350
32
  3
Brighten
350
36
  3
ColorChange
350
3A
  3
Conceptual
350
34
  3
Dim
350
35
  3
EdgeColorOff
350
3D
  3
Facepattern
350
39
  3
Flat
350
2B
  3
FlatWithEdges
350
2C
  3
Gouraud
350
2D
  3
GouraudWithEdges
350
2E
  3
Hidden
350
31
  3
JitterOff
350
3B
  3
Linepattern
350
38
  3
OverhangOff
350
3C
  3
Realistic
350
33
  3
Shaded
350
42
  3
Shaded with edges
350
41
  3
Shades of Gray
350
3E
  3
Sketchy
350
3F
  3
Thicken
350
37
  3
Wireframe
350
30
  3
X-Ray
350
40
  0
DICTIONARY
  5
466
102
{ACAD_REACTORS
330
C
102
}
330
C
100
AcDbDictionary
281
     1
  3
CANNOSCALE
350
46F
  3
CMLEADERSTYLE
350
468
  3
CTABLESTYLE
350
467
  3
DIMASSOC
350
46B
  3
HIDETEXT
350
46C
  3
MSLTSCALE
350
470
  0
XRECORD
  5
46E
102
{ACAD_REACTORS
330
46D
102
}
330
46D
100
AcDbXrecord
280
     1
102
VTR_0.000_0.000_1.000_1.000_VISUALSTYLE
340
2F
102
VTR_0.000_0.000_1.000_1.000_GRIDDISPLAY
 70
     3
102
VTR_0.000_0.000_1.000_1.000_GRIDMAJOR
 70
     5
102
VTR_0.000_0.000_1.000_1.000_DEFAULTLIGHTING
280
     1
102
VTR_0.000_0.000_1.000_1.000_DEFAULTLIGHTINGTYPE
 70
     1
102
VTR_0.000_0.000_1.000_1.000_BRIGHTNESS
141
0.0
102
VTR_0.000_0.000_1.000_1.000_CONTRAST
142
0.0
  0
LAYOUT
  5
1E
102
{ACAD_REACTORS
330
1A
102
}
330
1A
100
AcDbPlotSettings
  1

  2
none_device
  4

  6

 40
0.0
 41
0.0
 42
0.0
 43
0.0
 44
0.0
 45
0.0
 46
0.0
 47
0.0
 48
0.0
 49
0.0
140
0.0
141
0.0
142
1.0
143
1.0
 70
   688
 72
     0
 73
     0
 74
     5
  7

 75
    16
147
1.0
148
0.0
149
0.0
100
AcDbLayout
  1
Layout1
 70
     1
 71
     1
 10
0.0
 20
0.0
 11
12.0
 21
9.0
 12
0.0
 22
0.0
 32
0.0
 14
1.000000000000000E+20
 24
1.000000000000000E+20
 34
1.000000000000000E+20
 15
-1.000000000000000E+20
 25
-1.000000000000000E+20
 35
-1.000000000000000E+20
146
0.0
 13
0.0
 23
0.0
 33
0.0
 16
1.0
 26
0.0
 36
0.0
 17
0.0
 27
1.0
 37
0.0
 76
     0
330
1B
  0
LAYOUT
  5
22
102
{ACAD_REACTORS
330
1A
102
}
330
1A
100
AcDbPlotSettings
  1

  2
none_device
  4
Letter_(8.50_x_11.00_Inches)
  6

 40
6.35
 41
6.35
 42
6.35000508
 43
6.35000508
 44
215.9
 45
279.4
 46
0.0
 47
0.0
 48
0.0
 49
0.0
140
0.0
141
0.0
142
1.0
143
1.0
 70
  1712
 72
     0
 73
     0
 74
     0
  7

 75
     0
147
1.0
148
0.0
149
0.0
100
AcDbLayout
  1
Model
 70
     1
 71
     0
 10
-3618.443661489917
 20
-1219.881765532329
 11
-1308.443661489919
 21
442.1182344676718
 12
-2463.443661489918
 22
291.5290865425935
 32
0.0
 14
-3618.443661489917
 24
-1219.881765532329
 34
0.0
 15
-1308.443661489919
 25
442.1182344676718
 35
0.0
146
0.0
 13
0.0
 23
0.0
 33
0.0
 16
1.0
 26
0.0
 36
0.0
 17
0.0
 27
1.0
 37
0.0
 76
     0
330
1F
331
29
  0
MATERIAL
  5
45
102
{ACAD_REACTORS
330
43
102
}
102
{ACAD_XDICTIONARY
360
4A3
102
}
330
43
100
AcDbMaterial
  1
ByBlock
  0
MATERIAL
  5
44
102
{ACAD_REACTORS
330
43
102
}
102
{ACAD_XDICTIONARY
360
4A1
102
}
330
43
100
AcDbMaterial
  1
ByLayer
  0
MATERIAL
  5
46
102
{ACAD_REACTORS
330
43
102
}
102
{ACAD_XDICTIONARY
360
4A5
102
}
330
43
100
AcDbMaterial
  1
Global
  0
MLEADERSTYLE
  5
6C
102
{ACAD_REACTORS
330
6B
102
}
102
{ACAD_XDICTIONARY
360
4A8
102
}
330
6B
100
AcDbMLeaderStyle
170
     2
171
     1
172
     0
 90
        2
 40
0.0
 41
0.0
173
     1
 91
-1056964608
340
14
 92
       -2
290
     1
 42
0.09
291
     1
 43
0.36
  3
Standard
341
0
 44
0.18
300

342
11
174
     1
178
     6
175
     1
176
     0
 93
-1056964608
 45
0.18
292
     0
297
     0
 46
0.18
343
0
 94
-1056964608
 47
1.0
 49
1.0
140
1.0
293
     1
141
0.0
294
     1
177
     0
142
1.0
295
     0
296
     0
143
0.125
1001
ACAD_MLEADERVER
1070
     2
  0
MLINESTYLE
  5
18
102
{ACAD_REACTORS
330
17
102
}
330
17
100
AcDbMlineStyle
  2
Standard
 70
     0
  3

 62
   256
 51
90.0
 52
90.0
 71
     2
 49
0.5
 62
   256
  6
BYLAYER
 49
-0.5
 62
   256
  6
BYLAYER
  0
ACDBPLACEHOLDER
  5
F
102
{ACAD_REACTORS
330
E
102
}
330
E
  0
SCALE
  5
48
102
{ACAD_REACTORS
330
47
102
}
330
47
100
AcDbScale
 70
     0
300
1:1
140
1.0
141
1.0
290
     1
  0
SCALE
  5
49
102
{ACAD_REACTORS
330
47
102
}
330
47
100
AcDbScale
 70
     0
300
1:2
140
1.0
141
2.0
290
     0
  0
SCALE
  5
4A
102
{ACAD_REACTORS
330
47
102
}
330
47
100
AcDbScale
 70
     0
300
1:4
140
1.0
141
4.0
290
     0
  0
SCALE
  5
4B
102
{ACAD_REACTORS
330
47
102
}
330
47
100
AcDbScale
 70
     0
300
1:5
140
1.0
141
5.0
290
     0
  0
SCALE
  5
4C
102
{ACAD_REACTORS
330
47
102
}
330
47
100
AcDbScale
 70
     0
300
1:8
140
1.0
141
8.0
290
     0
  0
SCALE
  5
4D
102
{ACAD_REACTORS
330
47
102
}
330
47
100
AcDbScale
 70
     0
300
1:10
140
1.0
141
10.0
290
     0
  0
SCALE
  5
4E
102
{ACAD_REACTORS
330
47
102
}
330
47
100
AcDbScale
 70
     0
300
1:16
140
1.0
141
16.0
290
     0
  0
SCALE
  5
4F
102
{ACAD_REACTORS
330
47
102
}
330
47
100
AcDbScale
 70
     0
300
1:20
140
1.0
141
20.0
290
     0
  0
SCALE
  5
50
102
{ACAD_REACTORS
330
47
102
}
330
47
100
AcDbScale
 70
     0
300
1:30
140
1.0
141
30.0
290
     0
  0
SCALE
  5
51
102
{ACAD_REACTORS
330
47
102
}
330
47
100
AcDbScale
 70
     0
300
1:40
140
1.0
141
40.0
290
     0
  0
SCALE
  5
52
102
{ACAD_REACTORS
330
47
102
}
330
47
100
AcDbScale
 70
     0
300
1:50
140
1.0
141
50.0
290
     0
  0
SCALE
  5
53
102
{ACAD_REACTORS
330
47
102
}
330
47
100
AcDbScale
 70
     0
300
1:100
140
1.0
141
100.0
290
     0
  0
SCALE
  5
54
102
{ACAD_REACTORS
330
47
102
}
330
47
100
AcDbScale
 70
     0
300
2:1
140
2.0
141
1.0
290
     0
  0
SCALE
  5
55
102
{ACAD_REACTORS
330
47
102
}
330
47
100
AcDbScale
 70
     0
300
4:1
140
4.0
141
1.0
290
     0
  0
SCALE
  5
56
102
{ACAD_REACTORS
330
47
102
}
330
47
100
AcDbScale
 70
     0
300
8:1
140
8.0
141
1.0
290
     0
  0
SCALE
  5
57
102
{ACAD_REACTORS
330
47
102
}
330
47
100
AcDbScale
 70
     0
300
10:1
140
10.0
141
1.0
290
     0
  0
SCALE
  5
58
102
{ACAD_REACTORS
330
47
102
}
330
47
100
AcDbScale
 70
     0
300
100:1
140
100.0
141
1.0
290
     0
  0
SCALE
  5
59
102
{ACAD_REACTORS
330
47
102
}
330
47
100
AcDbScale
 70
     0
300
1/128" = 1'-0"
140
0.0078125
141
12.0
290
     0
  0
SCALE
  5
5A
102
{ACAD_REACTORS
330
47
102
}
330
47
100
AcDbScale
 70
     0
300
1/64" = 1'-0"
140
0.015625
141
12.0
290
     0
  0
SCALE
  5
5B
102
{ACAD_REACTORS
330
47
102
}
330
47
100
AcDbScale
 70
     0
300
1/32" = 1'-0"
140
0.03125
141
12.0
290
     0
  0
SCALE
  5
5C
102
{ACAD_REACTORS
330
47
102
}
330
47
100
AcDbScale
 70
     0
300
1/16" = 1'-0"
140
0.0625
141
12.0
290
     0
  0
SCALE
  5
5D
102
{ACAD_REACTORS
330
47
102
}
330
47
100
AcDbScale
 70
     0
300
3/32" = 1'-0"
140
0.09375
141
12.0
290
     0
  0
SCALE
  5
5E
102
{ACAD_REACTORS
330
47
102
}
330
47
100
AcDbScale
 70
     0
300
1/8" = 1'-0"
140
0.125
141
12.0
290
     0
  0
SCALE
  5
5F
102
{ACAD_REACTORS
330
47
102
}
330
47
100
AcDbScale
 70
     0
300
3/16" = 1'-0"
140
0.1875
141
12.0
290
     0
  0
SCALE
  5
60
102
{ACAD_REACTORS
330
47
102
}
330
47
100
AcDbScale
 70
     0
300
1/4" = 1'-0"
140
0.25
141
12.0
290
     0
  0
SCALE
  5
61
102
{ACAD_REACTORS
330
47
102
}
330
47
100
AcDbScale
 70
     0
300
3/8" = 1'-0"
140
0.375
141
12.0
290
     0
  0
SCALE
  5
62
102
{ACAD_REACTORS
330
47
102
}
330
47
100
AcDbScale
 70
     0
300
1/2" = 1'-0"
140
0.5
141
12.0
290
     0
  0
SCALE
  5
63
102
{ACAD_REACTORS
330
47
102
}
330
47
100
AcDbScale
 70
     0
300
3/4" = 1'-0"
140
0.75
141
12.0
290
     0
  0
SCALE
  5
64
102
{ACAD_REACTORS
330
47
102
}
330
47
100
AcDbScale
 70
     0
300
1" = 1'-0"
140
1.0
141
12.0
290
     0
  0
SCALE
  5
65
102
{ACAD_REACTORS
330
47
102
}
330
47
100
AcDbScale
 70
     0
300
1-1/2" = 1'-0"
140
1.5
141
12.0
290
     0
  0
SCALE
  5
66
102
{ACAD_REACTORS
330
47
102
}
330
47
100
AcDbScale
 70
     0
300
3" = 1'-0"
140
3.0
141
12.0
290
     0
  0
SCALE
  5
67
102
{ACAD_REACTORS
330
47
102
}
330
47
100
AcDbScale
 70
     0
300
6" = 1'-0"
140
6.0
141
12.0
290
     0
  0
SCALE
  5
68
102
{ACAD_REACTORS
330
47
102
}
330
47
100
AcDbScale
 70
     0
300
1'-0" = 1'-0"
140
12.0
141
12.0
290
     0
  0
TABLESTYLE
  5
6A
102
{ACAD_REACTORS
330
69
102
}
330
69
100
AcDbTableStyle
  3
Standard
 70
     0
 71
     0
 40
0.06
 41
0.06
280
     0
281
     0
  7
Standard
140
0.18
170
     2
 62
     0
 63
   257
283
     0
274
    -2
284
     1
 64
     0
275
    -2
285
     1
 65
     0
276
    -2
286
     1
 66
     0
277
    -2
287
     1
 67
     0
278
    -2
288
     1
 68
     0
279
    -2
289
     1
 69
     0
  7
Standard
140
0.25
170
     5
 62
     0
 63
   257
283
     0
274
    -2
284
     1
 64
     0
275
    -2
285
     1
 65
     0
276
    -2
286
     1
 66
     0
277
    -2
287
     1
 67
     0
278
    -2
288
     1
 68
     0
279
    -2
289
     1
 69
     0
  7
Standard
140
0.18
170
     5
 62
     0
 63
   257
283
     0
274
    -2
284
     1
 64
     0
275
    -2
285
     1
 65
     0
276
    -2
286
     1
 66
     0
277
    -2
287
     1
 67
     0
278
    -2
288
     1
 68
     0
279
    -2
289
     1
 69
     0
  0
VISUALSTYLE
  5
2F
102
{ACAD_REACTORS
330
2A
102
}
102
{ACAD_XDICTIONARY
360
479
102
}
330
2A
100
AcDbVisualStyle
  2
2dWireframe
 70
     4
 71
     0
 72
     2
 73
     0
 90
        0
 40
0.6
 41
30.0
 62
     5
 63
     7
 74
     1
 91
        4
 64
     7
 65
   257
 75
     1
175
     1
 42
1.0
 92
        0
 66
   257
 43
1.0
 76
     1
 77
     6
 78
     2
 67
     7
 79
     5
170
     0
171
     0
290
     0
174
     0
 93
        1
 44
0.0
173
     0
291
     0
 45
0.0
1001
ACAD
1000
AcDbSavedByObjectVersion
1070
     0
  0
VISUALSTYLE
  5
32
102
{ACAD_REACTORS
330
2A
102
}
102
{ACAD_XDICTIONARY
360
47F
102
}
330
2A
100
AcDbVisualStyle
  2
Basic
 70
     7
 71
     1
 72
     0
 73
     1
 90
        0
 40
0.6
 41
30.0
 62
     5
 63
     7
 74
     0
 91
        4
 64
     7
 65
   257
 75
     1
175
     1
 42
1.0
 92
        8
 66
     7
 43
1.0
 76
     1
 77
     6
 78
     2
 67
     7
 79
     5
170
     0
171
     0
290
     0
174
     0
 93
        1
 44
0.0
173
     0
291
     1
 45
0.0
1001
ACAD
1000
AcDbSavedByObjectVersion
1070
     0
  0
VISUALSTYLE
  5
36
102
{ACAD_REACTORS
330
2A
102
}
102
{ACAD_XDICTIONARY
360
487
102
}
330
2A
100
AcDbVisualStyle
  2
Brighten
 70
    12
 71
     2
 72
     2
 73
     0
 90
        0
 40
0.6
 41
30.0
 62
     5
 63
     7
 74
     1
 91
        4
 64
     7
 65
   257
 75
     1
175
     1
 42
1.0
 92
        8
 66
     7
 43
1.0
 76
     1
 77
     6
 78
     2
 67
     7
 79
     5
170
     0
171
     0
290
     0
174
     0
 93
        1
 44
50.0
173
     0
291
     1
 45
0.0
1001
ACAD
1000
AcDbSavedByObjectVersion
1070
     0
  0
VISUALSTYLE
  5
3A
102
{ACAD_REACTORS
330
2A
102
}
102
{ACAD_XDICTIONARY
360
48F
102
}
330
2A
100
AcDbVisualStyle
  2
ColorChange
 70
    16
 71
     2
 72
     2
 73
     3
 90
        0
 40
0.6
 41
30.0
 62
     5
 63
     8
 74
     1
 91
        4
 64
     7
 65
   257
 75
     1
175
     1
 42
1.0
 92
        8
 66
     8
 43
1.0
 76
     1
 77
     6
 78
     2
 67
     7
 79
     5
170
     0
171
     0
290
     0
174
     0
 93
        1
 44
0.0
173
     0
291
     1
 45
0.0
1001
ACAD
1000
AcDbSavedByObjectVersion
1070
     0
  0
VISUALSTYLE
  5
34
102
{ACAD_REACTORS
330
2A
102
}
102
{ACAD_XDICTIONARY
360
483
102
}
330
2A
100
AcDbVisualStyle
  2
Conceptual
 70
     9
 71
     3
 72
     2
 73
     0
 90
        0
 40
0.6
 41
30.0
 62
     5
 63
     7
 74
     2
 91
        2
 64
     7
 65
   257
 75
     1
175
     1
 42
179.0
 92
        8
 66
     7
 43
1.0
 76
     1
 77
     6
 78
     2
 67
     7
 79
     3
170
     0
171
     0
290
     0
174
     0
 93
        1
 44
0.0
173
     0
291
     0
 45
0.0
1001
ACAD
1000
AcDbSavedByObjectVersion
1070
     0
  0
VISUALSTYLE
  5
35
102
{ACAD_REACTORS
330
2A
102
}
102
{ACAD_XDICTIONARY
360
485
102
}
330
2A
100
AcDbVisualStyle
  2
Dim
 70
    11
 71
     2
 72
     2
 73
     0
 90
        0
 40
0.6
 41
30.0
 62
     5
 63
     7
 74
     1
 91
        4
 64
     7
 65
   257
 75
     1
175
     1
 42
1.0
 92
        8
 66
     7
 43
1.0
 76
     1
 77
     6
 78
     2
 67
     7
 79
     5
170
     0
171
     0
290
     0
174
     0
 93
        1
 44
-50.0
173
     0
291
     1
 45
0.0
1001
ACAD
1000
AcDbSavedByObjectVersion
1070
     0
  0
VISUALSTYLE
  5
3D
102
{ACAD_REACTORS
330
2A
102
}
102
{ACAD_XDICTIONARY
360
495
102
}
330
2A
100
AcDbVisualStyle
  2
EdgeColorOff
 70
    22
 71
     2
 72
     2
 73
     0
 90
        0
 40
0.6
 41
30.0
 62
     5
 63
     7
 74
     1
 91
        4
 64
     7
 65
   257
 75
     1
175
     1
 42
1.0
 92
        8
 66
     7
 43
1.0
 76
     1
 77
     6
 78
     2
 67
     7
 79
     5
170
     0
171
     0
290
     0
174
     0
 93
        1
 44
0.0
173
     0
291
     1
 45
0.0
1001
ACAD
1000
AcDbSavedByObjectVersion
1070
     0
  0
VISUALSTYLE
  5
39
102
{ACAD_REACTORS
330
2A
102
}
102
{ACAD_XDICTIONARY
360
48D
102
}
330
2A
100
AcDbVisualStyle
  2
Facepattern
 70
    15
 71
     2
 72
     2
 73
     0
 90
        0
 40
0.6
 41
30.0
 62
     5
 63
     7
 74
     1
 91
        4
 64
     7
 65
   257
 75
     1
175
     1
 42
1.0
 92
        8
 66
     7
 43
1.0
 76
     1
 77
     6
 78
     2
 67
     7
 79
     5
170
     0
171
     0
290
     0
174
     0
 93
        1
 44
0.0
173
     0
291
     1
 45
0.0
1001
ACAD
1000
AcDbSavedByObjectVersion
1070
     0
  0
VISUALSTYLE
  5
2B
102
{ACAD_REACTORS
330
2A
102
}
102
{ACAD_XDICTIONARY
360
471
102
}
330
2A
100
AcDbVisualStyle
  2
Flat
 70
     0
 71
     2
 72
     1
 73
     1
 90
        2
 40
0.6
 41
30.0
 62
     5
 63
     7
 74
     0
 91
        0
 64
     7
 65
   257
 75
     1
175
     1
 42
1.0
 92
        8
 66
     7
 43
1.0
 76
     1
 77
     6
 78
     2
 67
     7
 79
     5
170
     0
171
     0
290
     0
174
     0
 93
       13
 44
0.0
173
     0
291
     1
 45
0.0
1001
ACAD
1000
AcDbSavedByObjectVersion
1070
     0
  0
VISUALSTYLE
  5
2C
102
{ACAD_REACTORS
330
2A
102
}
102
{ACAD_XDICTIONARY
360
473
102
}
330
2A
100
AcDbVisualStyle
  2
FlatWithEdges
 70
     1
 71
     2
 72
     1
 73
     1
 90
        2
 40
0.6
 41
30.0
 62
     5
 63
     7
 74
     1
 91
        0
 64
     7
 65
   257
 75
     1
175
     1
 42
1.0
 92
        0
 66
   257
 43
1.0
 76
     1
 77
     6
 78
     2
 67
     7
 79
     5
170
     0
171
     0
290
     0
174
     0
 93
       13
 44
0.0
173
     0
291
     1
 45
0.0
1001
ACAD
1000
AcDbSavedByObjectVersion
1070
     0
  0
VISUALSTYLE
  5
2D
102
{ACAD_REACTORS
330
2A
102
}
102
{ACAD_XDICTIONARY
360
475
102
}
330
2A
100
AcDbVisualStyle
  2
Gouraud
 70
     2
 71
     2
 72
     2
 73
     1
 90
        2
 40
0.6
 41
30.0
 62
     5
 63
     7
 74
     0
 91
        0
 64
     7
 65
   257
 75
     1
175
     1
 42
1.0
 92
        0
 66
     7
 43
1.0
 76
     1
 77
     6
 78
     2
 67
     7
 79
     5
170
     0
171
     0
290
     0
174
     0
 93
       13
 44
0.0
173
     0
291
     1
 45
0.0
1001
ACAD
1000
AcDbSavedByObjectVersion
1070
     0
  0
VISUALSTYLE
  5
2E
102
{ACAD_REACTORS
330
2A
102
}
102
{ACAD_XDICTIONARY
360
477
102
}
330
2A
100
AcDbVisualStyle
  2
GouraudWithEdges
 70
     3
 71
     2
 72
     2
 73
     1
 90
        2
 40
0.6
 41
30.0
 62
     5
 63
     7
 74
     1
 91
        0
 64
     7
 65
   257
 75
     1
175
     1
 42
1.0
 92
        0
 66
   257
 43
1.0
 76
     1
 77
     6
 78
     2
 67
     7
 79
     5
170
     0
171
     0
290
     0
174
     0
 93
       13
 44
0.0
173
     0
291
     1
 45
0.0
1001
ACAD
1000
AcDbSavedByObjectVersion
1070
     0
  0
VISUALSTYLE
  5
31
102
{ACAD_REACTORS
330
2A
102
}
102
{ACAD_XDICTIONARY
360
47D
102
}
330
2A
100
AcDbVisualStyle
  2
Hidden
 70
     6
 71
     1
 72
     2
 73
     2
 90
        0
 40
0.6
 41
30.0
 62
     5
 63
     7
 74
     2
 91
        2
 64
     7
 65
   257
 75
     2
175
     1
 42
40.0
 92
        0
 66
   257
 43
1.0
 76
     1
 77
     6
 78
     2
 67
     7
 79
     3
170
     0
171
     0
290
     0
174
     0
 93
        1
 44
0.0
173
     0
291
     0
 45
0.0
1001
ACAD
1000
AcDbSavedByObjectVersion
1070
     0
  0
VISUALSTYLE
  5
3B
102
{ACAD_REACTORS
330
2A
102
}
102
{ACAD_XDICTIONARY
360
491
102
}
330
2A
100
AcDbVisualStyle
  2
JitterOff
 70
    20
 71
     2
 72
     2
 73
     0
 90
        0
 40
0.6
 41
30.0
 62
     5
 63
     7
 74
     1
 91
        4
 64
     7
 65
   257
 75
     1
175
     1
 42
1.0
 92
       10
 66
     7
 43
1.0
 76
     1
 77
     6
 78
     2
 67
     7
 79
     5
170
     0
171
     0
290
     0
174
     0
 93
        1
 44
0.0
173
     0
291
     1
 45
0.0
1001
ACAD
1000
AcDbSavedByObjectVersion
1070
     0
  0
VISUALSTYLE
  5
38
102
{ACAD_REACTORS
330
2A
102
}
102
{ACAD_XDICTIONARY
360
48B
102
}
330
2A
100
AcDbVisualStyle
  2
Linepattern
 70
    14
 71
     2
 72
     2
 73
     0
 90
        0
 40
0.6
 41
30.0
 62
     5
 63
     7
 74
     1
 91
        4
 64
     7
 65
   257
 75
     7
175
     7
 42
1.0
 92
        8
 66
     7
 43
1.0
 76
     1
 77
     6
 78
     2
 67
     7
 79
     5
170
     0
171
     0
290
     0
174
     0
 93
        1
 44
0.0
173
     0
291
     1
 45
0.0
1001
ACAD
1000
AcDbSavedByObjectVersion
1070
     0
  0
VISUALSTYLE
  5
3C
102
{ACAD_REACTORS
330
2A
102
}
102
{ACAD_XDICTIONARY
360
493
102
}
330
2A
100
AcDbVisualStyle
  2
OverhangOff
 70
    21
 71
     2
 72
     2
 73
     0
 90
        0
 40
0.6
 41
30.0
 62
     5
 63
     7
 74
     1
 91
        4
 64
     7
 65
   257
 75
     1
175
     1
 42
1.0
 92
        9
 66
     7
 43
1.0
 76
     1
 77
     6
 78
     2
 67
     7
 79
     5
170
     0
171
     0
290
     0
174
     0
 93
        1
 44
0.0
173
     0
291
     1
 45
0.0
1001
ACAD
1000
AcDbSavedByObjectVersion
1070
     0
  0
VISUALSTYLE
  5
33
102
{ACAD_REACTORS
330
2A
102
}
102
{ACAD_XDICTIONARY
360
481
102
}
330
2A
100
AcDbVisualStyle
  2
Realistic
 70
     8
 71
     2
 72
     3
 73
     0
 90
        2
 40
0.6
 41
30.0
 62
     5
 63
     7
 74
     0
 91
        0
 64
     7
 65
   257
 75
     1
175
     1
 42
1.0
 92
        8
 66
   257
 43
1.0
 76
     1
 77
     6
 78
     2
 67
     7
 79
     3
170
     0
171
     0
290
     0
174
     0
 93
       13
 44
0.0
173
     0
291
     0
 45
0.0
1001
ACAD
1000
AcDbSavedByObjectVersion
1070
     0
  0
VISUALSTYLE
  5
42
102
{ACAD_REACTORS
330
2A
102
}
102
{ACAD_XDICTIONARY
360
49F
102
}
330
2A
100
AcDbVisualStyle
  2
Shaded
 70
    27
 71
     2
 72
     2
 73
     1
 90
        2
 40
0.6
 41
30.0
 62
     5
 63
     7
 74
     0
 91
        4
 64
     7
 65
   257
 75
     1
175
     1
 42
1.0
 92
        8
 66
   257
 43
1.0
 76
     1
 77
     6
 78
     2
 67
     8
 79
     3
170
     0
171
     0
290
     0
174
     0
 93
        5
 44
0.0
173
     0
291
     0
 45
0.0
1001
ACAD
1000
AcDbSavedByObjectVersion
1070
     0
  0
VISUALSTYLE
  5
41
102
{ACAD_REACTORS
330
2A
102
}
102
{ACAD_XDICTIONARY
360
49D
102
}
330
2A
100
AcDbVisualStyle
  2
Shaded with edges
 70
    26
 71
     2
 72
     2
 73
     1
 90
        2
 40
0.6
 41
30.0
 62
     5
 63
     7
 74
     1
 91
       10
 64
     7
 65
   257
 75
     2
175
     1
 42
1.0
 92
        8
 66
   257
 43
1.0
 76
     1
 77
     6
 78
     2
 67
     7
 79
     3
170
     0
171
     0
290
     0
174
     0
 93
        5
 44
0.0
173
     0
291
     0
 45
0.0
1001
ACAD
1000
AcDbSavedByObjectVersion
1070
     0
  0
VISUALSTYLE
  5
3E
102
{ACAD_REACTORS
330
2A
102
}
102
{ACAD_XDICTIONARY
360
497
102
}
330
2A
100
AcDbVisualStyle
  2
Shades of Gray
 70
    23
 71
     2
 72
     2
 73
     3
 90
        0
 40
0.6
 41
30.0
 62
     5
 63
     7
 74
     2
 91
        2
 64
     7
 65
     7
 75
     1
175
     1
 42
40.0
 92
        8
 66
     7
 43
1.0
 76
     1
 77
     6
 78
     2
 67
     7
 79
     3
170
     0
171
     0
290
     0
174
     0
 93
        1
 44
0.0
173
     0
291
     0
 45
0.0
1001
ACAD
1000
AcDbSavedByObjectVersion
1070
     0
  0
VISUALSTYLE
  5
3F
102
{ACAD_REACTORS
330
2A
102
}
102
{ACAD_XDICTIONARY
360
499
102
}
330
2A
100
AcDbVisualStyle
  2
Sketchy
 70
    24
 71
     1
 72
     2
 73
     2
 90
        0
 40
0.6
 41
30.0
 62
     5
 63
     7
 74
     2
 91
        2
 64
     7
 65
     7
 75
     1
175
     1
 42
40.0
 92
       11
 66
     7
 43
1.0
 76
     1
 77
     6
 78
     2
 67
     7
 79
     6
170
     0
171
     0
290
     0
174
     0
 93
        1
 44
0.0
173
     0
291
     0
 45
0.0
1001
ACAD
1000
AcDbSavedByObjectVersion
1070
     0
  0
VISUALSTYLE
  5
37
102
{ACAD_REACTORS
330
2A
102
}
102
{ACAD_XDICTIONARY
360
489
102
}
330
2A
100
AcDbVisualStyle
  2
Thicken
 70
    13
 71
     2
 72
     2
 73
     0
 90
        0
 40
0.6
 41
30.0
 62
     5
 63
     7
 74
     1
 91
        4
 64
     7
 65
   257
 75
     1
175
     1
 42
1.0
 92
       12
 66
     7
 43
1.0
 76
     1
 77
     6
 78
     2
 67
     7
 79
     5
170
     0
171
     0
290
     0
174
     0
 93
        1
 44
0.0
173
     0
291
     1
 45
0.0
1001
ACAD
1000
AcDbSavedByObjectVersion
1070
     0
  0
VISUALSTYLE
  5
30
102
{ACAD_REACTORS
330
2A
102
}
102
{ACAD_XDICTIONARY
360
47B
102
}
330
2A
100
AcDbVisualStyle
  2
Wireframe
 70
     5
 71
     0
 72
     2
 73
     0
 90
        0
 40
0.6
 41
30.0
 62
     5
 63
     7
 74
     1
 91
        4
 64
     7
 65
   257
 75
     1
175
     1
 42
1.0
 92
        0
 66
   257
 43
1.0
 76
     1
 77
     6
 78
     2
 67
     7
 79
     3
170
     0
171
     0
290
     0
174
     0
 93
        1
 44
0.0
173
     0
291
     0
 45
0.0
1001
ACAD
1000
AcDbSavedByObjectVersion
1070
     0
  0
VISUALSTYLE
  5
40
102
{ACAD_REACTORS
330
2A
102
}
102
{ACAD_XDICTIONARY
360
49B
102
}
330
2A
100
AcDbVisualStyle
  2
X-Ray
 70
    25
 71
     2
 72
     2
 73
     1
 90
        1
 40
0.5
 41
30.0
 62
     5
 63
     7
 74
     1
 91
        0
 64
     7
 65
   257
 75
     1
175
     1
 42
1.0
 92
        8
 66
     7
 43
1.0
 76
     1
 77
     6
 78
     2
 67
     7
 79
     3
170
     0
171
     0
290
     0
174
     0
 93
       13
 44
0.0
173
     0
291
     0
 45
0.0
1001
ACAD
1000
AcDbSavedByObjectVersion
1070
     0
  0
DICTIONARYVAR
  5
46F
102
{ACAD_REACTORS
330
466
102
}
330
466
100
DictionaryVariables
280
     0
  1
1:1
  0
DICTIONARYVAR
  5
468
102
{ACAD_REACTORS
330
466
102
}
330
466
100
DictionaryVariables
280
     0
  1
Standard
  0
DICTIONARYVAR
  5
467
102
{ACAD_REACTORS
330
466
102
}
330
466
100
DictionaryVariables
280
     0
  1
Standard
  0
DICTIONARYVAR
  5
46B
102
{ACAD_REACTORS
330
466
102
}
330
466
100
DictionaryVariables
280
     0
  1
2
  0
DICTIONARYVAR
  5
46C
102
{ACAD_REACTORS
330
466
102
}
330
466
100
DictionaryVariables
280
     0
  1
1
  0
DICTIONARYVAR
  5
470
102
{ACAD_REACTORS
330
466
102
}
330
466
100
DictionaryVariables
280
     0
  1
1
  0
DICTIONARY
  5
4A3
330
45
100
AcDbDictionary
280
     1
281
     1
  3
ACAD_XREC_ROUNDTRIP
360
4A4
  0
DICTIONARY
  5
4A1
330
44
100
AcDbDictionary
280
     1
281
     1
  3
ACAD_XREC_ROUNDTRIP
360
4A2
  0
DICTIONARY
  5
4A5
330
46
100
AcDbDictionary
280
     1
281
     1
  3
ACAD_XREC_ROUNDTRIP
360
4A6
  0
DICTIONARY
  5
4A8
330
6C
100
AcDbDictionary
280
     1
281
     1
  3
ACAD_XREC_ROUNDTRIP
360
4A9
  0
DICTIONARY
  5
479
330
2F
100
AcDbDictionary
280
     1
281
     1
  3
ACAD_XREC_ROUNDTRIP
360
47A
  0
DICTIONARY
  5
47F
330
32
100
AcDbDictionary
280
     1
281
     1
  3
ACAD_XREC_ROUNDTRIP
360
480
  0
DICTIONARY
  5
487
330
36
100
AcDbDictionary
280
     1
281
     1
  3
ACAD_XREC_ROUNDTRIP
360
488
  0
DICTIONARY
  5
48F
330
3A
100
AcDbDictionary
280
     1
281
     1
  3
ACAD_XREC_ROUNDTRIP
360
490
  0
DICTIONARY
  5
483
330
34
100
AcDbDictionary
280
     1
281
     1
  3
ACAD_XREC_ROUNDTRIP
360
484
  0
DICTIONARY
  5
485
330
35
100
AcDbDictionary
280
     1
281
     1
  3
ACAD_XREC_ROUNDTRIP
360
486
  0
DICTIONARY
  5
495
330
3D
100
AcDbDictionary
280
     1
281
     1
  3
ACAD_XREC_ROUNDTRIP
360
496
  0
DICTIONARY
  5
48D
330
39
100
AcDbDictionary
280
     1
281
     1
  3
ACAD_XREC_ROUNDTRIP
360
48E
  0
DICTIONARY
  5
471
330
2B
100
AcDbDictionary
280
     1
281
     1
  3
ACAD_XREC_ROUNDTRIP
360
472
  0
DICTIONARY
  5
473
330
2C
100
AcDbDictionary
280
     1
281
     1
  3
ACAD_XREC_ROUNDTRIP
360
474
  0
DICTIONARY
  5
475
330
2D
100
AcDbDictionary
280
     1
281
     1
  3
ACAD_XREC_ROUNDTRIP
360
476
  0
DICTIONARY
  5
477
330
2E
100
AcDbDictionary
280
     1
281
     1
  3
ACAD_XREC_ROUNDTRIP
360
478
  0
DICTIONARY
  5
47D
330
31
100
AcDbDictionary
280
     1
281
     1
  3
ACAD_XREC_ROUNDTRIP
360
47E
  0
DICTIONARY
  5
491
330
3B
100
AcDbDictionary
280
     1
281
     1
  3
ACAD_XREC_ROUNDTRIP
360
492
  0
DICTIONARY
  5
48B
330
38
100
AcDbDictionary
280
     1
281
     1
  3
ACAD_XREC_ROUNDTRIP
360
48C
  0
DICTIONARY
  5
493
330
3C
100
AcDbDictionary
280
     1
281
     1
  3
ACAD_XREC_ROUNDTRIP
360
494
  0
DICTIONARY
  5
481
330
33
100
AcDbDictionary
280
     1
281
     1
  3
ACAD_XREC_ROUNDTRIP
360
482
  0
DICTIONARY
  5
49F
330
42
100
AcDbDictionary
280
     1
281
     1
  3
ACAD_XREC_ROUNDTRIP
360
4A0
  0
DICTIONARY
  5
49D
330
41
100
AcDbDictionary
280
     1
281
     1
  3
ACAD_XREC_ROUNDTRIP
360
49E
  0
DICTIONARY
  5
497
330
3E
100
AcDbDictionary
280
     1
281
     1
  3
ACAD_XREC_ROUNDTRIP
360
498
  0
DICTIONARY
  5
499
330
3F
100
AcDbDictionary
280
     1
281
     1
  3
ACAD_XREC_ROUNDTRIP
360
49A
  0
DICTIONARY
  5
489
330
37
100
AcDbDictionary
280
     1
281
     1
  3
ACAD_XREC_ROUNDTRIP
360
48A
  0
DICTIONARY
  5
47B
330
30
100
AcDbDictionary
280
     1
281
     1
  3
ACAD_XREC_ROUNDTRIP
360
47C
  0
DICTIONARY
  5
49B
330
40
100
AcDbDictionary
280
     1
281
     1
  3
ACAD_XREC_ROUNDTRIP
360
49C
  0
XRECORD
  5
4A4
102
{ACAD_REACTORS
330
4A3
102
}
330
4A3
100
AcDbXrecord
280
     1
102
MATERIAL
148
0.0
149
0.0
149
0.0
 93
        0
 94
      127
282
     0
 72
     1
 77
     1
171
     1
175
     1
179
     1
273
     0
  0
XRECORD
  5
4A2
102
{ACAD_REACTORS
330
4A1
102
}
330
4A1
100
AcDbXrecord
280
     1
102
MATERIAL
148
0.0
149
0.0
149
0.0
 93
        0
 94
      127
282
     0
 72
     1
 77
     1
171
     1
175
     1
179
     1
273
     0
  0
XRECORD
  5
4A6
102
{ACAD_REACTORS
330
4A5
102
}
330
4A5
100
AcDbXrecord
280
     1
102
MATERIAL
148
0.0
149
0.0
149
0.0
 93
        0
 94
      127
282
     0
 72
     1
 77
     1
171
     1
175
     1
179
     1
273
     0
  0
XRECORD
  5
4A9
102
{ACAD_REACTORS
330
4A8
102
}
330
4A8
100
AcDbXrecord
280
     1
102
ACAD_ROUNDTRIP_2010_MLEADER_STYLE
  0
XRECORD
  5
47A
102
{ACAD_REACTORS
330
479
102
}
330
479
100
AcDbXrecord
280
     1
102
RTVSPropertyOp0
 70
     1
102
RTVSPropertyOp1
 70
     1
102
RTVSPropertyOp2
 70
     1
102
RTVSPropertyOp3
 70
     1
102
RTVSPropertyOp4
 70
     1
102
RTVSPropertyOp5
 70
     1
102
RTVSPropertyOp6
 70
     1
102
RTVSPropertyOp7
 70
     1
102
RTVSPropertyOp8
 70
     1
102
RTVSPropertyOp9
 70
     1
102
RTVSPropertyOp10
 70
     1
102
RTVSPropertyOp11
 70
     1
102
RTVSPropertyOp12
 70
     1
102
RTVSPropertyOp13
 70
     1
102
RTVSPropertyOp14
 70
     1
102
RTVSPropertyOp15
 70
     1
102
RTVSPropertyOp16
 70
     1
102
RTVSPropertyOp17
 70
     1
102
RTVSPropertyOp18
 70
     1
102
RTVSPropertyOp19
 70
     1
102
RTVSPropertyOp20
 70
     1
102
RTVSPropertyOp21
 70
     1
102
RTVSPropertyOp22
 70
     1
102
RTVSPropertyOp23
 70
     1
102
RTVSPropertyOp24
 70
     1
102
RTVSPropertyOp25
 70
     1
102
RTVSPropertyOp26
 70
     1
102
RTVSPropertyOp27
 70
     1
102
RTVSPropertyOp28
 70
     1
102
RTVSPropertyOp29
 70
     1
102
RTVSPropertyOp30
 70
     1
102
RTVSPropertyOp31
 70
     1
102
RTVSPropertyOp32
 70
     1
102
RTVSPropertyOp33
 70
     1
102
RTVSPropertyOp34
 70
     1
102
RTVSPropertyOp35
 70
     1
102
RTVSPropertyOp36
 70
     1
102
RTVSPropertyOp37
 70
     1
102
RTVSPropertyOp38
 70
     1
102
RTVSPropertyOp39
 70
     1
102
RTVSPropertyOp40
 70
     1
102
RTVSPropertyOp41
 70
     1
102
RTVSPropertyOp42
 70
     1
102
RTVSPropertyOp43
 70
     1
102
RTVSPropertyOp44
 70
     1
102
RTVSPropertyOp45
 70
     1
102
RTVSPropertyOp46
 70
     1
102
RTVSPropertyOp47
 70
     1
102
RTVSPropertyOp48
 70
     1
102
RTVSPropertyOp49
 70
     1
102
RTVSPropertyOp50
 70
     1
102
RTVSPropertyOp51
 70
     0
102
RTVSPropertyOp52
 70
     0
102
RTVSPropertyOp53
 70
     1
102
RTVSPropertyOp54
 70
     1
102
RTVSPropertyOp55
 70
     1
102
RTVSPropertyOp56
 70
     1
102
RTVSPropertyOp57
 70
     1
102
RTVSPost2010Prop28
280
     1
102
RTVSPost2010PropOp28
 70
     1
102
RTVSPost2010Prop29
280
     1
102
RTVSPost2010PropOp29
 70
     1
102
RTVSPost2010Prop30
280
     0
102
RTVSPost2010PropOp30
 70
     1
102
RTVSPost2010Prop31
280
     0
102
RTVSPost2010PropOp31
 70
     1
102
RTVSPost2010Prop32
280
     0
102
RTVSPost2010PropOp32
 70
     1
102
RTVSPost2010Prop33
280
     0
102
RTVSPost2010PropOp33
 70
     1
102
RTVSPost2010Prop34
280
     0
102
RTVSPost2010PropOp34
 70
     1
102
RTVSPost2010Prop35
280
     0
102
RTVSPost2010PropOp35
 70
     1
102
RTVSPost2010Prop36
280
     0
102
RTVSPost2010PropOp36
 70
     1
102
RTVSPost2010Prop37
 90
       50
102
RTVSPost2010PropOp37
 70
     1
102
RTVSPost2010Prop38
140
0.0
102
RTVSPost2010PropOp38
 70
     1
102
RTVSPost2010Prop39
140
1.0
102
RTVSPost2010PropOp39
 70
     1
102
RTVSPost2010Prop40
 90
        0
102
RTVSPost2010PropOp40
 70
     1
102
RTVSPost2010Prop41ColorIndex
 90
       18
102
RTVSPost2010Prop41ColorRGB
 90
        0
102
RTVSPost2010PropOp41
 70
     1
102
RTVSPost2010Prop42
 90
       50
102
RTVSPost2010PropOp42
 70
     1
102
RTVSPost2010Prop43
 90
        3
102
RTVSPost2010PropOp43
 70
     1
102
RTVSPost2010Prop44ColorIndex
 90
        5
102
RTVSPost2010Prop44ColorRGB
 90
      255
102
RTVSPost2010PropOp44
 70
     1
102
RTVSPost2010Prop45
280
     0
102
RTVSPost2010PropOp45
 70
     1
102
RTVSPost2010Prop46
 90
       50
102
RTVSPost2010PropOp46
 70
     1
102
RTVSPost2010Prop47
 90
       50
102
RTVSPost2010PropOp47
 70
     1
102
RTVSPost2010Prop48
 90
       50
102
RTVSPost2010PropOp48
 70
     1
102
RTVSPost2010Prop49
280
     0
102
RTVSPost2010PropOp49
 70
     1
102
RTVSPost2010Prop50
 90
       50
102
RTVSPost2010PropOp50
 70
     1
102
RTVSPost2010Prop51ColorIndex
 90
      256
102
RTVSPost2010Prop51ColorRGB
 90
-16777216
102
RTVSPost2010PropOp51
 70
     0
102
RTVSPost2010Prop52
140
1.0
102
RTVSPost2010PropOp52
 70
     0
102
RTVSPost2010Prop53
 90
        2
102
RTVSPost2010PropOp53
 70
     1
102
RTVSPost2010Prop54
  1
strokes_ogs.tif
102
RTVSPost2010PropOp54
 70
     1
102
RTVSPost2010Prop55
280
     0
102
RTVSPost2010PropOp55
 70
     1
102
RTVSPost2010Prop56
140
1.0
102
RTVSPost2010PropOp56
 70
     1
102
RTVSPost2010Prop57
140
1.0
102
RTVSPost2010PropOp57
 70
     1
  0
XRECORD
  5
480
102
{ACAD_REACTORS
330
47F
102
}
330
47F
100
AcDbXrecord
280
     1
102
RTVSPropertyOp0
 70
     1
102
RTVSPropertyOp1
 70
     1
102
RTVSPropertyOp2
 70
     1
102
RTVSPropertyOp3
 70
     1
102
RTVSPropertyOp4
 70
     1
102
RTVSPropertyOp5
 70
     1
102
RTVSPropertyOp6
 70
     1
102
RTVSPropertyOp7
 70
     1
102
RTVSPropertyOp8
 70
     1
102
RTVSPropertyOp9
 70
     1
102
RTVSPropertyOp10
 70
     1
102
RTVSPropertyOp11
 70
     1
102
RTVSPropertyOp12
 70
     1
102
RTVSPropertyOp13
 70
     1
102
RTVSPropertyOp14
 70
     1
102
RTVSPropertyOp15
 70
     1
102
RTVSPropertyOp16
 70
     1
102
RTVSPropertyOp17
 70
     1
102
RTVSPropertyOp18
 70
     1
102
RTVSPropertyOp19
 70
     1
102
RTVSPropertyOp20
 70
     1
102
RTVSPropertyOp21
 70
     1
102
RTVSPropertyOp22
 70
     1
102
RTVSPropertyOp23
 70
     1
102
RTVSPropertyOp24
 70
     1
102
RTVSPropertyOp25
 70
     1
102
RTVSPropertyOp26
 70
     1
102
RTVSPropertyOp27
 70
     1
102
RTVSPropertyOp28
 70
     1
102
RTVSPropertyOp29
 70
     1
102
RTVSPropertyOp30
 70
     1
102
RTVSPropertyOp31
 70
     1
102
RTVSPropertyOp32
 70
     1
102
RTVSPropertyOp33
 70
     1
102
RTVSPropertyOp34
 70
     1
102
RTVSPropertyOp35
 70
     1
102
RTVSPropertyOp36
 70
     1
102
RTVSPropertyOp37
 70
     1
102
RTVSPropertyOp38
 70
     1
102
RTVSPropertyOp39
 70
     1
102
RTVSPropertyOp40
 70
     1
102
RTVSPropertyOp41
 70
     1
102
RTVSPropertyOp42
 70
     1
102
RTVSPropertyOp43
 70
     1
102
RTVSPropertyOp44
 70
     1
102
RTVSPropertyOp45
 70
     1
102
RTVSPropertyOp46
 70
     1
102
RTVSPropertyOp47
 70
     1
102
RTVSPropertyOp48
 70
     1
102
RTVSPropertyOp49
 70
     1
102
RTVSPropertyOp50
 70
     1
102
RTVSPropertyOp51
 70
     0
102
RTVSPropertyOp52
 70
     0
102
RTVSPropertyOp53
 70
     1
102
RTVSPropertyOp54
 70
     1
102
RTVSPropertyOp55
 70
     1
102
RTVSPropertyOp56
 70
     1
102
RTVSPropertyOp57
 70
     1
102
RTVSPost2010Prop28
280
     0
102
RTVSPost2010PropOp28
 70
     1
102
RTVSPost2010Prop29
280
     1
102
RTVSPost2010PropOp29
 70
     1
102
RTVSPost2010Prop30
280
     1
102
RTVSPost2010PropOp30
 70
     1
102
RTVSPost2010Prop31
280
     0
102
RTVSPost2010PropOp31
 70
     1
102
RTVSPost2010Prop32
280
     0
102
RTVSPost2010PropOp32
 70
     1
102
RTVSPost2010Prop33
280
     0
102
RTVSPost2010PropOp33
 70
     1
102
RTVSPost2010Prop34
280
     0
102
RTVSPost2010PropOp34
 70
     1
102
RTVSPost2010Prop35
280
     0
102
RTVSPost2010PropOp35
 70
     1
102
RTVSPost2010Prop36
280
     0
102
RTVSPost2010PropOp36
 70
     1
102
RTVSPost2010Prop37
 90
       50
102
RTVSPost2010PropOp37
 70
     1
102
RTVSPost2010Prop38
140
0.0
102
RTVSPost2010PropOp38
 70
     1
102
RTVSPost2010Prop39
140
1.0
102
RTVSPost2010PropOp39
 70
     1
102
RTVSPost2010Prop40
 90
        0
102
RTVSPost2010PropOp40
 70
     1
102
RTVSPost2010Prop41ColorIndex
 90
       18
102
RTVSPost2010Prop41ColorRGB
 90
        0
102
RTVSPost2010PropOp41
 70
     1
102
RTVSPost2010Prop42
 90
       50
102
RTVSPost2010PropOp42
 70
     1
102
RTVSPost2010Prop43
 90
        3
102
RTVSPost2010PropOp43
 70
     1
102
RTVSPost2010Prop44ColorIndex
 90
        5
102
RTVSPost2010Prop44ColorRGB
 90
      255
102
RTVSPost2010PropOp44
 70
     1
102
RTVSPost2010Prop45
280
     0
102
RTVSPost2010PropOp45
 70
     1
102
RTVSPost2010Prop46
 90
       50
102
RTVSPost2010PropOp46
 70
     1
102
RTVSPost2010Prop47
 90
       50
102
RTVSPost2010PropOp47
 70
     1
102
RTVSPost2010Prop48
 90
       50
102
RTVSPost2010PropOp48
 70
     1
102
RTVSPost2010Prop49
280
     0
102
RTVSPost2010PropOp49
 70
     1
102
RTVSPost2010Prop50
 90
       50
102
RTVSPost2010PropOp50
 70
     1
102
RTVSPost2010Prop51ColorIndex
 90
      256
102
RTVSPost2010Prop51ColorRGB
 90
-16777216
102
RTVSPost2010PropOp51
 70
     0
102
RTVSPost2010Prop52
140
1.0
102
RTVSPost2010PropOp52
 70
     0
102
RTVSPost2010Prop53
 90
        2
102
RTVSPost2010PropOp53
 70
     1
102
RTVSPost2010Prop54
  1
strokes_ogs.tif
102
RTVSPost2010PropOp54
 70
     1
102
RTVSPost2010Prop55
280
     0
102
RTVSPost2010PropOp55
 70
     1
102
RTVSPost2010Prop56
140
1.0
102
RTVSPost2010PropOp56
 70
     1
102
RTVSPost2010Prop57
140
1.0
102
RTVSPost2010PropOp57
 70
     1
  0
XRECORD
  5
488
102
{ACAD_REACTORS
330
487
102
}
330
487
100
AcDbXrecord
280
     1
102
RTVSPropertyOp0
 70
     1
102
RTVSPropertyOp1
 70
     1
102
RTVSPropertyOp2
 70
     1
102
RTVSPropertyOp3
 70
     1
102
RTVSPropertyOp4
 70
     1
102
RTVSPropertyOp5
 70
     1
102
RTVSPropertyOp6
 70
     1
102
RTVSPropertyOp7
 70
     1
102
RTVSPropertyOp8
 70
     1
102
RTVSPropertyOp9
 70
     1
102
RTVSPropertyOp10
 70
     1
102
RTVSPropertyOp11
 70
     1
102
RTVSPropertyOp12
 70
     1
102
RTVSPropertyOp13
 70
     1
102
RTVSPropertyOp14
 70
     1
102
RTVSPropertyOp15
 70
     1
102
RTVSPropertyOp16
 70
     1
102
RTVSPropertyOp17
 70
     1
102
RTVSPropertyOp18
 70
     1
102
RTVSPropertyOp19
 70
     1
102
RTVSPropertyOp20
 70
     1
102
RTVSPropertyOp21
 70
     1
102
RTVSPropertyOp22
 70
     1
102
RTVSPropertyOp23
 70
     1
102
RTVSPropertyOp24
 70
     1
102
RTVSPropertyOp25
 70
     1
102
RTVSPropertyOp26
 70
     1
102
RTVSPropertyOp27
 70
     1
102
RTVSPropertyOp28
 70
     1
102
RTVSPropertyOp29
 70
     1
102
RTVSPropertyOp30
 70
     1
102
RTVSPropertyOp31
 70
     1
102
RTVSPropertyOp32
 70
     1
102
RTVSPropertyOp33
 70
     1
102
RTVSPropertyOp34
 70
     1
102
RTVSPropertyOp35
 70
     1
102
RTVSPropertyOp36
 70
     1
102
RTVSPropertyOp37
 70
     1
102
RTVSPropertyOp38
 70
     1
102
RTVSPropertyOp39
 70
     1
102
RTVSPropertyOp40
 70
     1
102
RTVSPropertyOp41
 70
     1
102
RTVSPropertyOp42
 70
     1
102
RTVSPropertyOp43
 70
     1
102
RTVSPropertyOp44
 70
     1
102
RTVSPropertyOp45
 70
     1
102
RTVSPropertyOp46
 70
     1
102
RTVSPropertyOp47
 70
     1
102
RTVSPropertyOp48
 70
     1
102
RTVSPropertyOp49
 70
     1
102
RTVSPropertyOp50
 70
     1
102
RTVSPropertyOp51
 70
     0
102
RTVSPropertyOp52
 70
     0
102
RTVSPropertyOp53
 70
     1
102
RTVSPropertyOp54
 70
     1
102
RTVSPropertyOp55
 70
     1
102
RTVSPropertyOp56
 70
     1
102
RTVSPropertyOp57
 70
     1
102
RTVSPost2010Prop28
280
     0
102
RTVSPost2010PropOp28
 70
     1
102
RTVSPost2010Prop29
280
     1
102
RTVSPost2010PropOp29
 70
     1
102
RTVSPost2010Prop30
280
     1
102
RTVSPost2010PropOp30
 70
     1
102
RTVSPost2010Prop31
280
     0
102
RTVSPost2010PropOp31
 70
     1
102
RTVSPost2010Prop32
280
     0
102
RTVSPost2010PropOp32
 70
     1
102
RTVSPost2010Prop33
280
     0
102
RTVSPost2010PropOp33
 70
     1
102
RTVSPost2010Prop34
280
     0
102
RTVSPost2010PropOp34
 70
     1
102
RTVSPost2010Prop35
280
     0
102
RTVSPost2010PropOp35
 70
     1
102
RTVSPost2010Prop36
280
     0
102
RTVSPost2010PropOp36
 70
     1
102
RTVSPost2010Prop37
 90
       50
102
RTVSPost2010PropOp37
 70
     1
102
RTVSPost2010Prop38
140
0.0
102
RTVSPost2010PropOp38
 70
     1
102
RTVSPost2010Prop39
140
1.0
102
RTVSPost2010PropOp39
 70
     1
102
RTVSPost2010Prop40
 90
        0
102
RTVSPost2010PropOp40
 70
     1
102
RTVSPost2010Prop41ColorIndex
 90
       18
102
RTVSPost2010Prop41ColorRGB
 90
        0
102
RTVSPost2010PropOp41
 70
     1
102
RTVSPost2010Prop42
 90
       50
102
RTVSPost2010PropOp42
 70
     1
102
RTVSPost2010Prop43
 90
        3
102
RTVSPost2010PropOp43
 70
     1
102
RTVSPost2010Prop44ColorIndex
 90
        5
102
RTVSPost2010Prop44ColorRGB
 90
      255
102
RTVSPost2010PropOp44
 70
     1
102
RTVSPost2010Prop45
280
     0
102
RTVSPost2010PropOp45
 70
     1
102
RTVSPost2010Prop46
 90
       50
102
RTVSPost2010PropOp46
 70
     1
102
RTVSPost2010Prop47
 90
       50
102
RTVSPost2010PropOp47
 70
     1
102
RTVSPost2010Prop48
 90
       50
102
RTVSPost2010PropOp48
 70
     1
102
RTVSPost2010Prop49
280
     0
102
RTVSPost2010PropOp49
 70
     1
102
RTVSPost2010Prop50
 90
       50
102
RTVSPost2010PropOp50
 70
     1
102
RTVSPost2010Prop51ColorIndex
 90
      256
102
RTVSPost2010Prop51ColorRGB
 90
-16777216
102
RTVSPost2010PropOp51
 70
     0
102
RTVSPost2010Prop52
140
1.0
102
RTVSPost2010PropOp52
 70
     0
102
RTVSPost2010Prop53
 90
        2
102
RTVSPost2010PropOp53
 70
     1
102
RTVSPost2010Prop54
  1
strokes_ogs.tif
102
RTVSPost2010PropOp54
 70
     1
102
RTVSPost2010Prop55
280
     0
102
RTVSPost2010PropOp55
 70
     1
102
RTVSPost2010Prop56
140
1.0
102
RTVSPost2010PropOp56
 70
     1
102
RTVSPost2010Prop57
140
1.0
102
RTVSPost2010PropOp57
 70
     1
  0
XRECORD
  5
490
102
{ACAD_REACTORS
330
48F
102
}
330
48F
100
AcDbXrecord
280
     1
102
RTVSPropertyOp0
 70
     1
102
RTVSPropertyOp1
 70
     1
102
RTVSPropertyOp2
 70
     1
102
RTVSPropertyOp3
 70
     1
102
RTVSPropertyOp4
 70
     1
102
RTVSPropertyOp5
 70
     1
102
RTVSPropertyOp6
 70
     1
102
RTVSPropertyOp7
 70
     1
102
RTVSPropertyOp8
 70
     1
102
RTVSPropertyOp9
 70
     1
102
RTVSPropertyOp10
 70
     1
102
RTVSPropertyOp11
 70
     1
102
RTVSPropertyOp12
 70
     1
102
RTVSPropertyOp13
 70
     1
102
RTVSPropertyOp14
 70
     1
102
RTVSPropertyOp15
 70
     1
102
RTVSPropertyOp16
 70
     1
102
RTVSPropertyOp17
 70
     1
102
RTVSPropertyOp18
 70
     1
102
RTVSPropertyOp19
 70
     1
102
RTVSPropertyOp20
 70
     1
102
RTVSPropertyOp21
 70
     1
102
RTVSPropertyOp22
 70
     1
102
RTVSPropertyOp23
 70
     1
102
RTVSPropertyOp24
 70
     1
102
RTVSPropertyOp25
 70
     1
102
RTVSPropertyOp26
 70
     1
102
RTVSPropertyOp27
 70
     1
102
RTVSPropertyOp28
 70
     1
102
RTVSPropertyOp29
 70
     1
102
RTVSPropertyOp30
 70
     1
102
RTVSPropertyOp31
 70
     1
102
RTVSPropertyOp32
 70
     1
102
RTVSPropertyOp33
 70
     1
102
RTVSPropertyOp34
 70
     1
102
RTVSPropertyOp35
 70
     1
102
RTVSPropertyOp36
 70
     1
102
RTVSPropertyOp37
 70
     1
102
RTVSPropertyOp38
 70
     1
102
RTVSPropertyOp39
 70
     1
102
RTVSPropertyOp40
 70
     1
102
RTVSPropertyOp41
 70
     1
102
RTVSPropertyOp42
 70
     1
102
RTVSPropertyOp43
 70
     1
102
RTVSPropertyOp44
 70
     1
102
RTVSPropertyOp45
 70
     1
102
RTVSPropertyOp46
 70
     1
102
RTVSPropertyOp47
 70
     1
102
RTVSPropertyOp48
 70
     1
102
RTVSPropertyOp49
 70
     1
102
RTVSPropertyOp50
 70
     1
102
RTVSPropertyOp51
 70
     0
102
RTVSPropertyOp52
 70
     0
102
RTVSPropertyOp53
 70
     1
102
RTVSPropertyOp54
 70
     1
102
RTVSPropertyOp55
 70
     1
102
RTVSPropertyOp56
 70
     1
102
RTVSPropertyOp57
 70
     1
102
RTVSPost2010Prop28
280
     0
102
RTVSPost2010PropOp28
 70
     1
102
RTVSPost2010Prop29
280
     1
102
RTVSPost2010PropOp29
 70
     1
102
RTVSPost2010Prop30
280
     1
102
RTVSPost2010PropOp30
 70
     1
102
RTVSPost2010Prop31
280
     0
102
RTVSPost2010PropOp31
 70
     1
102
RTVSPost2010Prop32
280
     0
102
RTVSPost2010PropOp32
 70
     1
102
RTVSPost2010Prop33
280
     0
102
RTVSPost2010PropOp33
 70
     1
102
RTVSPost2010Prop34
280
     0
102
RTVSPost2010PropOp34
 70
     1
102
RTVSPost2010Prop35
280
     0
102
RTVSPost2010PropOp35
 70
     1
102
RTVSPost2010Prop36
280
     0
102
RTVSPost2010PropOp36
 70
     1
102
RTVSPost2010Prop37
 90
       50
102
RTVSPost2010PropOp37
 70
     1
102
RTVSPost2010Prop38
140
0.0
102
RTVSPost2010PropOp38
 70
     1
102
RTVSPost2010Prop39
140
1.0
102
RTVSPost2010PropOp39
 70
     1
102
RTVSPost2010Prop40
 90
        0
102
RTVSPost2010PropOp40
 70
     1
102
RTVSPost2010Prop41ColorIndex
 90
       18
102
RTVSPost2010Prop41ColorRGB
 90
        0
102
RTVSPost2010PropOp41
 70
     1
102
RTVSPost2010Prop42
 90
       50
102
RTVSPost2010PropOp42
 70
     1
102
RTVSPost2010Prop43
 90
        3
102
RTVSPost2010PropOp43
 70
     1
102
RTVSPost2010Prop44ColorIndex
 90
        5
102
RTVSPost2010Prop44ColorRGB
 90
      255
102
RTVSPost2010PropOp44
 70
     1
102
RTVSPost2010Prop45
280
     0
102
RTVSPost2010PropOp45
 70
     1
102
RTVSPost2010Prop46
 90
       50
102
RTVSPost2010PropOp46
 70
     1
102
RTVSPost2010Prop47
 90
       50
102
RTVSPost2010PropOp47
 70
     1
102
RTVSPost2010Prop48
 90
       50
102
RTVSPost2010PropOp48
 70
     1
102
RTVSPost2010Prop49
280
     0
102
RTVSPost2010PropOp49
 70
     1
102
RTVSPost2010Prop50
 90
       50
102
RTVSPost2010PropOp50
 70
     1
102
RTVSPost2010Prop51ColorIndex
 90
      256
102
RTVSPost2010Prop51ColorRGB
 90
-16777216
102
RTVSPost2010PropOp51
 70
     0
102
RTVSPost2010Prop52
140
1.0
102
RTVSPost2010PropOp52
 70
     0
102
RTVSPost2010Prop53
 90
        2
102
RTVSPost2010PropOp53
 70
     1
102
RTVSPost2010Prop54
  1
strokes_ogs.tif
102
RTVSPost2010PropOp54
 70
     1
102
RTVSPost2010Prop55
280
     0
102
RTVSPost2010PropOp55
 70
     1
102
RTVSPost2010Prop56
140
1.0
102
RTVSPost2010PropOp56
 70
     1
102
RTVSPost2010Prop57
140
1.0
102
RTVSPost2010PropOp57
 70
     1
  0
XRECORD
  5
484
102
{ACAD_REACTORS
330
483
102
}
330
483
100
AcDbXrecord
280
     1
102
RTVSPropertyOp0
 70
     1
102
RTVSPropertyOp1
 70
     1
102
RTVSPropertyOp2
 70
     1
102
RTVSPropertyOp3
 70
     1
102
RTVSPropertyOp4
 70
     1
102
RTVSPropertyOp5
 70
     1
102
RTVSPropertyOp6
 70
     1
102
RTVSPropertyOp7
 70
     1
102
RTVSPropertyOp8
 70
     1
102
RTVSPropertyOp9
 70
     1
102
RTVSPropertyOp10
 70
     1
102
RTVSPropertyOp11
 70
     1
102
RTVSPropertyOp12
 70
     1
102
RTVSPropertyOp13
 70
     1
102
RTVSPropertyOp14
 70
     1
102
RTVSPropertyOp15
 70
     1
102
RTVSPropertyOp16
 70
     1
102
RTVSPropertyOp17
 70
     1
102
RTVSPropertyOp18
 70
     1
102
RTVSPropertyOp19
 70
     1
102
RTVSPropertyOp20
 70
     1
102
RTVSPropertyOp21
 70
     1
102
RTVSPropertyOp22
 70
     1
102
RTVSPropertyOp23
 70
     1
102
RTVSPropertyOp24
 70
     1
102
RTVSPropertyOp25
 70
     1
102
RTVSPropertyOp26
 70
     1
102
RTVSPropertyOp27
 70
     1
102
RTVSPropertyOp28
 70
     1
102
RTVSPropertyOp29
 70
     1
102
RTVSPropertyOp30
 70
     1
102
RTVSPropertyOp31
 70
     1
102
RTVSPropertyOp32
 70
     1
102
RTVSPropertyOp33
 70
     1
102
RTVSPropertyOp34
 70
     1
102
RTVSPropertyOp35
 70
     1
102
RTVSPropertyOp36
 70
     1
102
RTVSPropertyOp37
 70
     1
102
RTVSPropertyOp38
 70
     1
102
RTVSPropertyOp39
 70
     1
102
RTVSPropertyOp40
 70
     1
102
RTVSPropertyOp41
 70
     1
102
RTVSPropertyOp42
 70
     1
102
RTVSPropertyOp43
 70
     1
102
RTVSPropertyOp44
 70
     1
102
RTVSPropertyOp45
 70
     1
102
RTVSPropertyOp46
 70
     1
102
RTVSPropertyOp47
 70
     1
102
RTVSPropertyOp48
 70
     1
102
RTVSPropertyOp49
 70
     1
102
RTVSPropertyOp50
 70
     1
102
RTVSPropertyOp51
 70
     0
102
RTVSPropertyOp52
 70
     0
102
RTVSPropertyOp53
 70
     1
102
RTVSPropertyOp54
 70
     1
102
RTVSPropertyOp55
 70
     1
102
RTVSPropertyOp56
 70
     1
102
RTVSPropertyOp57
 70
     1
102
RTVSPost2010Prop28
280
     0
102
RTVSPost2010PropOp28
 70
     1
102
RTVSPost2010Prop29
280
     1
102
RTVSPost2010PropOp29
 70
     1
102
RTVSPost2010Prop30
280
     1
102
RTVSPost2010PropOp30
 70
     1
102
RTVSPost2010Prop31
280
     0
102
RTVSPost2010PropOp31
 70
     1
102
RTVSPost2010Prop32
280
     0
102
RTVSPost2010PropOp32
 70
     1
102
RTVSPost2010Prop33
280
     0
102
RTVSPost2010PropOp33
 70
     1
102
RTVSPost2010Prop34
280
     0
102
RTVSPost2010PropOp34
 70
     1
102
RTVSPost2010Prop35
280
     0
102
RTVSPost2010PropOp35
 70
     1
102
RTVSPost2010Prop36
280
     0
102
RTVSPost2010PropOp36
 70
     1
102
RTVSPost2010Prop37
 90
       50
102
RTVSPost2010PropOp37
 70
     1
102
RTVSPost2010Prop38
140
0.0
102
RTVSPost2010PropOp38
 70
     1
102
RTVSPost2010Prop39
140
1.0
102
RTVSPost2010PropOp39
 70
     1
102
RTVSPost2010Prop40
 90
        0
102
RTVSPost2010PropOp40
 70
     1
102
RTVSPost2010Prop41ColorIndex
 90
       18
102
RTVSPost2010Prop41ColorRGB
 90
        0
102
RTVSPost2010PropOp41
 70
     1
102
RTVSPost2010Prop42
 90
       50
102
RTVSPost2010PropOp42
 70
     1
102
RTVSPost2010Prop43
 90
        3
102
RTVSPost2010PropOp43
 70
     1
102
RTVSPost2010Prop44ColorIndex
 90
        5
102
RTVSPost2010Prop44ColorRGB
 90
      255
102
RTVSPost2010PropOp44
 70
     1
102
RTVSPost2010Prop45
280
     0
102
RTVSPost2010PropOp45
 70
     1
102
RTVSPost2010Prop46
 90
       50
102
RTVSPost2010PropOp46
 70
     1
102
RTVSPost2010Prop47
 90
       50
102
RTVSPost2010PropOp47
 70
     1
102
RTVSPost2010Prop48
 90
       50
102
RTVSPost2010PropOp48
 70
     1
102
RTVSPost2010Prop49
280
     0
102
RTVSPost2010PropOp49
 70
     1
102
RTVSPost2010Prop50
 90
       50
102
RTVSPost2010PropOp50
 70
     1
102
RTVSPost2010Prop51ColorIndex
 90
      256
102
RTVSPost2010Prop51ColorRGB
 90
-16777216
102
RTVSPost2010PropOp51
 70
     0
102
RTVSPost2010Prop52
140
1.0
102
RTVSPost2010PropOp52
 70
     0
102
RTVSPost2010Prop53
 90
        2
102
RTVSPost2010PropOp53
 70
     1
102
RTVSPost2010Prop54
  1
strokes_ogs.tif
102
RTVSPost2010PropOp54
 70
     1
102
RTVSPost2010Prop55
280
     0
102
RTVSPost2010PropOp55
 70
     1
102
RTVSPost2010Prop56
140
1.0
102
RTVSPost2010PropOp56
 70
     1
102
RTVSPost2010Prop57
140
1.0
102
RTVSPost2010PropOp57
 70
     1
  0
XRECORD
  5
486
102
{ACAD_REACTORS
330
485
102
}
330
485
100
AcDbXrecord
280
     1
102
RTVSPropertyOp0
 70
     1
102
RTVSPropertyOp1
 70
     1
102
RTVSPropertyOp2
 70
     1
102
RTVSPropertyOp3
 70
     1
102
RTVSPropertyOp4
 70
     1
102
RTVSPropertyOp5
 70
     1
102
RTVSPropertyOp6
 70
     1
102
RTVSPropertyOp7
 70
     1
102
RTVSPropertyOp8
 70
     1
102
RTVSPropertyOp9
 70
     1
102
RTVSPropertyOp10
 70
     1
102
RTVSPropertyOp11
 70
     1
102
RTVSPropertyOp12
 70
     1
102
RTVSPropertyOp13
 70
     1
102
RTVSPropertyOp14
 70
     1
102
RTVSPropertyOp15
 70
     1
102
RTVSPropertyOp16
 70
     1
102
RTVSPropertyOp17
 70
     1
102
RTVSPropertyOp18
 70
     1
102
RTVSPropertyOp19
 70
     1
102
RTVSPropertyOp20
 70
     1
102
RTVSPropertyOp21
 70
     1
102
RTVSPropertyOp22
 70
     1
102
RTVSPropertyOp23
 70
     1
102
RTVSPropertyOp24
 70
     1
102
RTVSPropertyOp25
 70
     1
102
RTVSPropertyOp26
 70
     1
102
RTVSPropertyOp27
 70
     1
102
RTVSPropertyOp28
 70
     1
102
RTVSPropertyOp29
 70
     1
102
RTVSPropertyOp30
 70
     1
102
RTVSPropertyOp31
 70
     1
102
RTVSPropertyOp32
 70
     1
102
RTVSPropertyOp33
 70
     1
102
RTVSPropertyOp34
 70
     1
102
RTVSPropertyOp35
 70
     1
102
RTVSPropertyOp36
 70
     1
102
RTVSPropertyOp37
 70
     1
102
RTVSPropertyOp38
 70
     1
102
RTVSPropertyOp39
 70
     1
102
RTVSPropertyOp40
 70
     1
102
RTVSPropertyOp41
 70
     1
102
RTVSPropertyOp42
 70
     1
102
RTVSPropertyOp43
 70
     1
102
RTVSPropertyOp44
 70
     1
102
RTVSPropertyOp45
 70
     1
102
RTVSPropertyOp46
 70
     1
102
RTVSPropertyOp47
 70
     1
102
RTVSPropertyOp48
 70
     1
102
RTVSPropertyOp49
 70
     1
102
RTVSPropertyOp50
 70
     1
102
RTVSPropertyOp51
 70
     0
102
RTVSPropertyOp52
 70
     0
102
RTVSPropertyOp53
 70
     1
102
RTVSPropertyOp54
 70
     1
102
RTVSPropertyOp55
 70
     1
102
RTVSPropertyOp56
 70
     1
102
RTVSPropertyOp57
 70
     1
102
RTVSPost2010Prop28
280
     0
102
RTVSPost2010PropOp28
 70
     1
102
RTVSPost2010Prop29
280
     1
102
RTVSPost2010PropOp29
 70
     1
102
RTVSPost2010Prop30
280
     1
102
RTVSPost2010PropOp30
 70
     1
102
RTVSPost2010Prop31
280
     0
102
RTVSPost2010PropOp31
 70
     1
102
RTVSPost2010Prop32
280
     0
102
RTVSPost2010PropOp32
 70
     1
102
RTVSPost2010Prop33
280
     0
102
RTVSPost2010PropOp33
 70
     1
102
RTVSPost2010Prop34
280
     0
102
RTVSPost2010PropOp34
 70
     1
102
RTVSPost2010Prop35
280
     0
102
RTVSPost2010PropOp35
 70
     1
102
RTVSPost2010Prop36
280
     0
102
RTVSPost2010PropOp36
 70
     1
102
RTVSPost2010Prop37
 90
       50
102
RTVSPost2010PropOp37
 70
     1
102
RTVSPost2010Prop38
140
0.0
102
RTVSPost2010PropOp38
 70
     1
102
RTVSPost2010Prop39
140
1.0
102
RTVSPost2010PropOp39
 70
     1
102
RTVSPost2010Prop40
 90
        0
102
RTVSPost2010PropOp40
 70
     1
102
RTVSPost2010Prop41ColorIndex
 90
       18
102
RTVSPost2010Prop41ColorRGB
 90
        0
102
RTVSPost2010PropOp41
 70
     1
102
RTVSPost2010Prop42
 90
       50
102
RTVSPost2010PropOp42
 70
     1
102
RTVSPost2010Prop43
 90
        3
102
RTVSPost2010PropOp43
 70
     1
102
RTVSPost2010Prop44ColorIndex
 90
        5
102
RTVSPost2010Prop44ColorRGB
 90
      255
102
RTVSPost2010PropOp44
 70
     1
102
RTVSPost2010Prop45
280
     0
102
RTVSPost2010PropOp45
 70
     1
102
RTVSPost2010Prop46
 90
       50
102
RTVSPost2010PropOp46
 70
     1
102
RTVSPost2010Prop47
 90
       50
102
RTVSPost2010PropOp47
 70
     1
102
RTVSPost2010Prop48
 90
       50
102
RTVSPost2010PropOp48
 70
     1
102
RTVSPost2010Prop49
280
     0
102
RTVSPost2010PropOp49
 70
     1
102
RTVSPost2010Prop50
 90
       50
102
RTVSPost2010PropOp50
 70
     1
102
RTVSPost2010Prop51ColorIndex
 90
      256
102
RTVSPost2010Prop51ColorRGB
 90
-16777216
102
RTVSPost2010PropOp51
 70
     0
102
RTVSPost2010Prop52
140
1.0
102
RTVSPost2010PropOp52
 70
     0
102
RTVSPost2010Prop53
 90
        2
102
RTVSPost2010PropOp53
 70
     1
102
RTVSPost2010Prop54
  1
strokes_ogs.tif
102
RTVSPost2010PropOp54
 70
     1
102
RTVSPost2010Prop55
280
     0
102
RTVSPost2010PropOp55
 70
     1
102
RTVSPost2010Prop56
140
1.0
102
RTVSPost2010PropOp56
 70
     1
102
RTVSPost2010Prop57
140
1.0
102
RTVSPost2010PropOp57
 70
     1
  0
XRECORD
  5
496
102
{ACAD_REACTORS
330
495
102
}
330
495
100
AcDbXrecord
280
     1
102
RTVSPropertyOp0
 70
     0
102
RTVSPropertyOp1
 70
     0
102
RTVSPropertyOp2
 70
     0
102
RTVSPropertyOp3
 70
     0
102
RTVSPropertyOp4
 70
     0
102
RTVSPropertyOp5
 70
     0
102
RTVSPropertyOp6
 70
     0
102
RTVSPropertyOp7
 70
     0
102
RTVSPropertyOp8
 70
     0
102
RTVSPropertyOp9
 70
     0
102
RTVSPropertyOp10
 70
     0
102
RTVSPropertyOp11
 70
     0
102
RTVSPropertyOp12
 70
     0
102
RTVSPropertyOp13
 70
     0
102
RTVSPropertyOp14
 70
     2
102
RTVSPropertyOp15
 70
     0
102
RTVSPropertyOp16
 70
     0
102
RTVSPropertyOp17
 70
     0
102
RTVSPropertyOp18
 70
     0
102
RTVSPropertyOp19
 70
     0
102
RTVSPropertyOp20
 70
     0
102
RTVSPropertyOp21
 70
     0
102
RTVSPropertyOp22
 70
     0
102
RTVSPropertyOp23
 70
     0
102
RTVSPropertyOp24
 70
     0
102
RTVSPropertyOp25
 70
     0
102
RTVSPropertyOp26
 70
     0
102
RTVSPropertyOp27
 70
     0
102
RTVSPropertyOp28
 70
     0
102
RTVSPropertyOp29
 70
     0
102
RTVSPropertyOp30
 70
     0
102
RTVSPropertyOp31
 70
     0
102
RTVSPropertyOp32
 70
     0
102
RTVSPropertyOp33
 70
     0
102
RTVSPropertyOp34
 70
     0
102
RTVSPropertyOp35
 70
     0
102
RTVSPropertyOp36
 70
     0
102
RTVSPropertyOp37
 70
     0
102
RTVSPropertyOp38
 70
     0
102
RTVSPropertyOp39
 70
     0
102
RTVSPropertyOp40
 70
     0
102
RTVSPropertyOp41
 70
     0
102
RTVSPropertyOp42
 70
     0
102
RTVSPropertyOp43
 70
     0
102
RTVSPropertyOp44
 70
     0
102
RTVSPropertyOp45
 70
     0
102
RTVSPropertyOp46
 70
     0
102
RTVSPropertyOp47
 70
     0
102
RTVSPropertyOp48
 70
     0
102
RTVSPropertyOp49
 70
     0
102
RTVSPropertyOp50
 70
     0
102
RTVSPropertyOp51
 70
     0
102
RTVSPropertyOp52
 70
     0
102
RTVSPropertyOp53
 70
     0
102
RTVSPropertyOp54
 70
     0
102
RTVSPropertyOp55
 70
     0
102
RTVSPropertyOp56
 70
     0
102
RTVSPropertyOp57
 70
     0
102
RTVSPost2010Prop28
280
     0
102
RTVSPost2010PropOp28
 70
     0
102
RTVSPost2010Prop29
280
     1
102
RTVSPost2010PropOp29
 70
     0
102
RTVSPost2010Prop30
280
     1
102
RTVSPost2010PropOp30
 70
     0
102
RTVSPost2010Prop31
280
     0
102
RTVSPost2010PropOp31
 70
     0
102
RTVSPost2010Prop32
280
     0
102
RTVSPost2010PropOp32
 70
     0
102
RTVSPost2010Prop33
280
     0
102
RTVSPost2010PropOp33
 70
     0
102
RTVSPost2010Prop34
280
     0
102
RTVSPost2010PropOp34
 70
     0
102
RTVSPost2010Prop35
280
     0
102
RTVSPost2010PropOp35
 70
     0
102
RTVSPost2010Prop36
280
     0
102
RTVSPost2010PropOp36
 70
     0
102
RTVSPost2010Prop37
 90
       50
102
RTVSPost2010PropOp37
 70
     0
102
RTVSPost2010Prop38
140
0.0
102
RTVSPost2010PropOp38
 70
     0
102
RTVSPost2010Prop39
140
1.0
102
RTVSPost2010PropOp39
 70
     0
102
RTVSPost2010Prop40
 90
        0
102
RTVSPost2010PropOp40
 70
     0
102
RTVSPost2010Prop41ColorIndex
 90
       18
102
RTVSPost2010Prop41ColorRGB
 90
        0
102
RTVSPost2010PropOp41
 70
     0
102
RTVSPost2010Prop42
 90
       50
102
RTVSPost2010PropOp42
 70
     0
102
RTVSPost2010Prop43
 90
        3
102
RTVSPost2010PropOp43
 70
     0
102
RTVSPost2010Prop44ColorIndex
 90
        5
102
RTVSPost2010Prop44ColorRGB
 90
      255
102
RTVSPost2010PropOp44
 70
     0
102
RTVSPost2010Prop45
280
     0
102
RTVSPost2010PropOp45
 70
     0
102
RTVSPost2010Prop46
 90
       50
102
RTVSPost2010PropOp46
 70
     0
102
RTVSPost2010Prop47
 90
       50
102
RTVSPost2010PropOp47
 70
     0
102
RTVSPost2010Prop48
 90
       50
102
RTVSPost2010PropOp48
 70
     0
102
RTVSPost2010Prop49
280
     0
102
RTVSPost2010PropOp49
 70
     0
102
RTVSPost2010Prop50
 90
       50
102
RTVSPost2010PropOp50
 70
     0
102
RTVSPost2010Prop51ColorIndex
 90
      256
102
RTVSPost2010Prop51ColorRGB
 90
-16777216
102
RTVSPost2010PropOp51
 70
     0
102
RTVSPost2010Prop52
140
1.0
102
RTVSPost2010PropOp52
 70
     0
102
RTVSPost2010Prop53
 90
        2
102
RTVSPost2010PropOp53
 70
     0
102
RTVSPost2010Prop54
  1
strokes_ogs.tif
102
RTVSPost2010PropOp54
 70
     0
102
RTVSPost2010Prop55
280
     0
102
RTVSPost2010PropOp55
 70
     0
102
RTVSPost2010Prop56
140
1.0
102
RTVSPost2010PropOp56
 70
     0
102
RTVSPost2010Prop57
140
1.0
102
RTVSPost2010PropOp57
 70
     0
  0
XRECORD
  5
48E
102
{ACAD_REACTORS
330
48D
102
}
330
48D
100
AcDbXrecord
280
     1
102
RTVSPropertyOp0
 70
     1
102
RTVSPropertyOp1
 70
     1
102
RTVSPropertyOp2
 70
     1
102
RTVSPropertyOp3
 70
     1
102
RTVSPropertyOp4
 70
     1
102
RTVSPropertyOp5
 70
     1
102
RTVSPropertyOp6
 70
     1
102
RTVSPropertyOp7
 70
     1
102
RTVSPropertyOp8
 70
     1
102
RTVSPropertyOp9
 70
     1
102
RTVSPropertyOp10
 70
     1
102
RTVSPropertyOp11
 70
     1
102
RTVSPropertyOp12
 70
     1
102
RTVSPropertyOp13
 70
     1
102
RTVSPropertyOp14
 70
     1
102
RTVSPropertyOp15
 70
     1
102
RTVSPropertyOp16
 70
     1
102
RTVSPropertyOp17
 70
     1
102
RTVSPropertyOp18
 70
     1
102
RTVSPropertyOp19
 70
     1
102
RTVSPropertyOp20
 70
     1
102
RTVSPropertyOp21
 70
     1
102
RTVSPropertyOp22
 70
     1
102
RTVSPropertyOp23
 70
     1
102
RTVSPropertyOp24
 70
     1
102
RTVSPropertyOp25
 70
     1
102
RTVSPropertyOp26
 70
     1
102
RTVSPropertyOp27
 70
     1
102
RTVSPropertyOp28
 70
     1
102
RTVSPropertyOp29
 70
     1
102
RTVSPropertyOp30
 70
     1
102
RTVSPropertyOp31
 70
     1
102
RTVSPropertyOp32
 70
     1
102
RTVSPropertyOp33
 70
     1
102
RTVSPropertyOp34
 70
     1
102
RTVSPropertyOp35
 70
     1
102
RTVSPropertyOp36
 70
     1
102
RTVSPropertyOp37
 70
     1
102
RTVSPropertyOp38
 70
     1
102
RTVSPropertyOp39
 70
     1
102
RTVSPropertyOp40
 70
     1
102
RTVSPropertyOp41
 70
     1
102
RTVSPropertyOp42
 70
     1
102
RTVSPropertyOp43
 70
     1
102
RTVSPropertyOp44
 70
     1
102
RTVSPropertyOp45
 70
     1
102
RTVSPropertyOp46
 70
     1
102
RTVSPropertyOp47
 70
     1
102
RTVSPropertyOp48
 70
     1
102
RTVSPropertyOp49
 70
     1
102
RTVSPropertyOp50
 70
     1
102
RTVSPropertyOp51
 70
     0
102
RTVSPropertyOp52
 70
     0
102
RTVSPropertyOp53
 70
     1
102
RTVSPropertyOp54
 70
     1
102
RTVSPropertyOp55
 70
     1
102
RTVSPropertyOp56
 70
     1
102
RTVSPropertyOp57
 70
     1
102
RTVSPost2010Prop28
280
     0
102
RTVSPost2010PropOp28
 70
     1
102
RTVSPost2010Prop29
280
     1
102
RTVSPost2010PropOp29
 70
     1
102
RTVSPost2010Prop30
280
     1
102
RTVSPost2010PropOp30
 70
     1
102
RTVSPost2010Prop31
280
     0
102
RTVSPost2010PropOp31
 70
     1
102
RTVSPost2010Prop32
280
     0
102
RTVSPost2010PropOp32
 70
     1
102
RTVSPost2010Prop33
280
     0
102
RTVSPost2010PropOp33
 70
     1
102
RTVSPost2010Prop34
280
     0
102
RTVSPost2010PropOp34
 70
     1
102
RTVSPost2010Prop35
280
     0
102
RTVSPost2010PropOp35
 70
     1
102
RTVSPost2010Prop36
280
     0
102
RTVSPost2010PropOp36
 70
     1
102
RTVSPost2010Prop37
 90
       50
102
RTVSPost2010PropOp37
 70
     1
102
RTVSPost2010Prop38
140
0.0
102
RTVSPost2010PropOp38
 70
     1
102
RTVSPost2010Prop39
140
1.0
102
RTVSPost2010PropOp39
 70
     1
102
RTVSPost2010Prop40
 90
        0
102
RTVSPost2010PropOp40
 70
     1
102
RTVSPost2010Prop41ColorIndex
 90
       18
102
RTVSPost2010Prop41ColorRGB
 90
        0
102
RTVSPost2010PropOp41
 70
     1
102
RTVSPost2010Prop42
 90
       50
102
RTVSPost2010PropOp42
 70
     1
102
RTVSPost2010Prop43
 90
        3
102
RTVSPost2010PropOp43
 70
     1
102
RTVSPost2010Prop44ColorIndex
 90
        5
102
RTVSPost2010Prop44ColorRGB
 90
      255
102
RTVSPost2010PropOp44
 70
     1
102
RTVSPost2010Prop45
280
     0
102
RTVSPost2010PropOp45
 70
     1
102
RTVSPost2010Prop46
 90
       50
102
RTVSPost2010PropOp46
 70
     1
102
RTVSPost2010Prop47
 90
       50
102
RTVSPost2010PropOp47
 70
     1
102
RTVSPost2010Prop48
 90
       50
102
RTVSPost2010PropOp48
 70
     1
102
RTVSPost2010Prop49
280
     0
102
RTVSPost2010PropOp49
 70
     1
102
RTVSPost2010Prop50
 90
       50
102
RTVSPost2010PropOp50
 70
     1
102
RTVSPost2010Prop51ColorIndex
 90
      256
102
RTVSPost2010Prop51ColorRGB
 90
-16777216
102
RTVSPost2010PropOp51
 70
     0
102
RTVSPost2010Prop52
140
1.0
102
RTVSPost2010PropOp52
 70
     0
102
RTVSPost2010Prop53
 90
        2
102
RTVSPost2010PropOp53
 70
     1
102
RTVSPost2010Prop54
  1
strokes_ogs.tif
102
RTVSPost2010PropOp54
 70
     1
102
RTVSPost2010Prop55
280
     0
102
RTVSPost2010PropOp55
 70
     1
102
RTVSPost2010Prop56
140
1.0
102
RTVSPost2010PropOp56
 70
     1
102
RTVSPost2010Prop57
140
1.0
102
RTVSPost2010PropOp57
 70
     1
  0
XRECORD
  5
472
102
{ACAD_REACTORS
330
471
102
}
330
471
100
AcDbXrecord
280
     1
102
RTVSPropertyOp0
 70
     1
102
RTVSPropertyOp1
 70
     1
102
RTVSPropertyOp2
 70
     1
102
RTVSPropertyOp3
 70
     1
102
RTVSPropertyOp4
 70
     1
102
RTVSPropertyOp5
 70
     1
102
RTVSPropertyOp6
 70
     1
102
RTVSPropertyOp7
 70
     1
102
RTVSPropertyOp8
 70
     1
102
RTVSPropertyOp9
 70
     1
102
RTVSPropertyOp10
 70
     1
102
RTVSPropertyOp11
 70
     1
102
RTVSPropertyOp12
 70
     1
102
RTVSPropertyOp13
 70
     1
102
RTVSPropertyOp14
 70
     1
102
RTVSPropertyOp15
 70
     1
102
RTVSPropertyOp16
 70
     1
102
RTVSPropertyOp17
 70
     1
102
RTVSPropertyOp18
 70
     1
102
RTVSPropertyOp19
 70
     1
102
RTVSPropertyOp20
 70
     1
102
RTVSPropertyOp21
 70
     1
102
RTVSPropertyOp22
 70
     1
102
RTVSPropertyOp23
 70
     1
102
RTVSPropertyOp24
 70
     1
102
RTVSPropertyOp25
 70
     1
102
RTVSPropertyOp26
 70
     1
102
RTVSPropertyOp27
 70
     1
102
RTVSPropertyOp28
 70
     1
102
RTVSPropertyOp29
 70
     1
102
RTVSPropertyOp30
 70
     1
102
RTVSPropertyOp31
 70
     1
102
RTVSPropertyOp32
 70
     1
102
RTVSPropertyOp33
 70
     1
102
RTVSPropertyOp34
 70
     1
102
RTVSPropertyOp35
 70
     1
102
RTVSPropertyOp36
 70
     1
102
RTVSPropertyOp37
 70
     1
102
RTVSPropertyOp38
 70
     1
102
RTVSPropertyOp39
 70
     1
102
RTVSPropertyOp40
 70
     1
102
RTVSPropertyOp41
 70
     1
102
RTVSPropertyOp42
 70
     1
102
RTVSPropertyOp43
 70
     1
102
RTVSPropertyOp44
 70
     1
102
RTVSPropertyOp45
 70
     1
102
RTVSPropertyOp46
 70
     1
102
RTVSPropertyOp47
 70
     1
102
RTVSPropertyOp48
 70
     1
102
RTVSPropertyOp49
 70
     1
102
RTVSPropertyOp50
 70
     1
102
RTVSPropertyOp51
 70
     0
102
RTVSPropertyOp52
 70
     0
102
RTVSPropertyOp53
 70
     1
102
RTVSPropertyOp54
 70
     1
102
RTVSPropertyOp55
 70
     1
102
RTVSPropertyOp56
 70
     1
102
RTVSPropertyOp57
 70
     1
102
RTVSPost2010Prop28
280
     0
102
RTVSPost2010PropOp28
 70
     1
102
RTVSPost2010Prop29
280
     1
102
RTVSPost2010PropOp29
 70
     1
102
RTVSPost2010Prop30
280
     1
102
RTVSPost2010PropOp30
 70
     1
102
RTVSPost2010Prop31
280
     0
102
RTVSPost2010PropOp31
 70
     1
102
RTVSPost2010Prop32
280
     0
102
RTVSPost2010PropOp32
 70
     1
102
RTVSPost2010Prop33
280
     0
102
RTVSPost2010PropOp33
 70
     1
102
RTVSPost2010Prop34
280
     0
102
RTVSPost2010PropOp34
 70
     1
102
RTVSPost2010Prop35
280
     0
102
RTVSPost2010PropOp35
 70
     1
102
RTVSPost2010Prop36
280
     0
102
RTVSPost2010PropOp36
 70
     1
102
RTVSPost2010Prop37
 90
       50
102
RTVSPost2010PropOp37
 70
     1
102
RTVSPost2010Prop38
140
0.0
102
RTVSPost2010PropOp38
 70
     1
102
RTVSPost2010Prop39
140
1.0
102
RTVSPost2010PropOp39
 70
     1
102
RTVSPost2010Prop40
 90
        0
102
RTVSPost2010PropOp40
 70
     1
102
RTVSPost2010Prop41ColorIndex
 90
       18
102
RTVSPost2010Prop41ColorRGB
 90
        0
102
RTVSPost2010PropOp41
 70
     1
102
RTVSPost2010Prop42
 90
       50
102
RTVSPost2010PropOp42
 70
     1
102
RTVSPost2010Prop43
 90
        3
102
RTVSPost2010PropOp43
 70
     1
102
RTVSPost2010Prop44ColorIndex
 90
        5
102
RTVSPost2010Prop44ColorRGB
 90
      255
102
RTVSPost2010PropOp44
 70
     1
102
RTVSPost2010Prop45
280
     0
102
RTVSPost2010PropOp45
 70
     1
102
RTVSPost2010Prop46
 90
       50
102
RTVSPost2010PropOp46
 70
     1
102
RTVSPost2010Prop47
 90
       50
102
RTVSPost2010PropOp47
 70
     1
102
RTVSPost2010Prop48
 90
       50
102
RTVSPost2010PropOp48
 70
     1
102
RTVSPost2010Prop49
280
     0
102
RTVSPost2010PropOp49
 70
     1
102
RTVSPost2010Prop50
 90
       50
102
RTVSPost2010PropOp50
 70
     1
102
RTVSPost2010Prop51ColorIndex
 90
      256
102
RTVSPost2010Prop51ColorRGB
 90
-16777216
102
RTVSPost2010PropOp51
 70
     0
102
RTVSPost2010Prop52
140
1.0
102
RTVSPost2010PropOp52
 70
     0
102
RTVSPost2010Prop53
 90
        2
102
RTVSPost2010PropOp53
 70
     1
102
RTVSPost2010Prop54
  1
strokes_ogs.tif
102
RTVSPost2010PropOp54
 70
     1
102
RTVSPost2010Prop55
280
     0
102
RTVSPost2010PropOp55
 70
     1
102
RTVSPost2010Prop56
140
1.0
102
RTVSPost2010PropOp56
 70
     1
102
RTVSPost2010Prop57
140
1.0
102
RTVSPost2010PropOp57
 70
     1
  0
XRECORD
  5
474
102
{ACAD_REACTORS
330
473
102
}
330
473
100
AcDbXrecord
280
     1
102
RTVSPropertyOp0
 70
     1
102
RTVSPropertyOp1
 70
     1
102
RTVSPropertyOp2
 70
     1
102
RTVSPropertyOp3
 70
     1
102
RTVSPropertyOp4
 70
     1
102
RTVSPropertyOp5
 70
     1
102
RTVSPropertyOp6
 70
     1
102
RTVSPropertyOp7
 70
     1
102
RTVSPropertyOp8
 70
     1
102
RTVSPropertyOp9
 70
     1
102
RTVSPropertyOp10
 70
     1
102
RTVSPropertyOp11
 70
     1
102
RTVSPropertyOp12
 70
     1
102
RTVSPropertyOp13
 70
     1
102
RTVSPropertyOp14
 70
     1
102
RTVSPropertyOp15
 70
     1
102
RTVSPropertyOp16
 70
     1
102
RTVSPropertyOp17
 70
     1
102
RTVSPropertyOp18
 70
     1
102
RTVSPropertyOp19
 70
     1
102
RTVSPropertyOp20
 70
     1
102
RTVSPropertyOp21
 70
     1
102
RTVSPropertyOp22
 70
     1
102
RTVSPropertyOp23
 70
     1
102
RTVSPropertyOp24
 70
     1
102
RTVSPropertyOp25
 70
     1
102
RTVSPropertyOp26
 70
     1
102
RTVSPropertyOp27
 70
     1
102
RTVSPropertyOp28
 70
     1
102
RTVSPropertyOp29
 70
     1
102
RTVSPropertyOp30
 70
     1
102
RTVSPropertyOp31
 70
     1
102
RTVSPropertyOp32
 70
     1
102
RTVSPropertyOp33
 70
     1
102
RTVSPropertyOp34
 70
     1
102
RTVSPropertyOp35
 70
     1
102
RTVSPropertyOp36
 70
     1
102
RTVSPropertyOp37
 70
     1
102
RTVSPropertyOp38
 70
     1
102
RTVSPropertyOp39
 70
     1
102
RTVSPropertyOp40
 70
     1
102
RTVSPropertyOp41
 70
     1
102
RTVSPropertyOp42
 70
     1
102
RTVSPropertyOp43
 70
     1
102
RTVSPropertyOp44
 70
     1
102
RTVSPropertyOp45
 70
     1
102
RTVSPropertyOp46
 70
     1
102
RTVSPropertyOp47
 70
     1
102
RTVSPropertyOp48
 70
     1
102
RTVSPropertyOp49
 70
     1
102
RTVSPropertyOp50
 70
     1
102
RTVSPropertyOp51
 70
     0
102
RTVSPropertyOp52
 70
     0
102
RTVSPropertyOp53
 70
     1
102
RTVSPropertyOp54
 70
     1
102
RTVSPropertyOp55
 70
     1
102
RTVSPropertyOp56
 70
     1
102
RTVSPropertyOp57
 70
     1
102
RTVSPost2010Prop28
280
     0
102
RTVSPost2010PropOp28
 70
     1
102
RTVSPost2010Prop29
280
     1
102
RTVSPost2010PropOp29
 70
     1
102
RTVSPost2010Prop30
280
     1
102
RTVSPost2010PropOp30
 70
     1
102
RTVSPost2010Prop31
280
     0
102
RTVSPost2010PropOp31
 70
     1
102
RTVSPost2010Prop32
280
     0
102
RTVSPost2010PropOp32
 70
     1
102
RTVSPost2010Prop33
280
     0
102
RTVSPost2010PropOp33
 70
     1
102
RTVSPost2010Prop34
280
     0
102
RTVSPost2010PropOp34
 70
     1
102
RTVSPost2010Prop35
280
     0
102
RTVSPost2010PropOp35
 70
     1
102
RTVSPost2010Prop36
280
     0
102
RTVSPost2010PropOp36
 70
     1
102
RTVSPost2010Prop37
 90
       50
102
RTVSPost2010PropOp37
 70
     1
102
RTVSPost2010Prop38
140
0.0
102
RTVSPost2010PropOp38
 70
     1
102
RTVSPost2010Prop39
140
1.0
102
RTVSPost2010PropOp39
 70
     1
102
RTVSPost2010Prop40
 90
        0
102
RTVSPost2010PropOp40
 70
     1
102
RTVSPost2010Prop41ColorIndex
 90
       18
102
RTVSPost2010Prop41ColorRGB
 90
        0
102
RTVSPost2010PropOp41
 70
     1
102
RTVSPost2010Prop42
 90
       50
102
RTVSPost2010PropOp42
 70
     1
102
RTVSPost2010Prop43
 90
        3
102
RTVSPost2010PropOp43
 70
     1
102
RTVSPost2010Prop44ColorIndex
 90
        5
102
RTVSPost2010Prop44ColorRGB
 90
      255
102
RTVSPost2010PropOp44
 70
     1
102
RTVSPost2010Prop45
280
     0
102
RTVSPost2010PropOp45
 70
     1
102
RTVSPost2010Prop46
 90
       50
102
RTVSPost2010PropOp46
 70
     1
102
RTVSPost2010Prop47
 90
       50
102
RTVSPost2010PropOp47
 70
     1
102
RTVSPost2010Prop48
 90
       50
102
RTVSPost2010PropOp48
 70
     1
102
RTVSPost2010Prop49
280
     0
102
RTVSPost2010PropOp49
 70
     1
102
RTVSPost2010Prop50
 90
       50
102
RTVSPost2010PropOp50
 70
     1
102
RTVSPost2010Prop51ColorIndex
 90
      256
102
RTVSPost2010Prop51ColorRGB
 90
-16777216
102
RTVSPost2010PropOp51
 70
     0
102
RTVSPost2010Prop52
140
1.0
102
RTVSPost2010PropOp52
 70
     0
102
RTVSPost2010Prop53
 90
        2
102
RTVSPost2010PropOp53
 70
     1
102
RTVSPost2010Prop54
  1
strokes_ogs.tif
102
RTVSPost2010PropOp54
 70
     1
102
RTVSPost2010Prop55
280
     0
102
RTVSPost2010PropOp55
 70
     1
102
RTVSPost2010Prop56
140
1.0
102
RTVSPost2010PropOp56
 70
     1
102
RTVSPost2010Prop57
140
1.0
102
RTVSPost2010PropOp57
 70
     1
  0
XRECORD
  5
476
102
{ACAD_REACTORS
330
475
102
}
330
475
100
AcDbXrecord
280
     1
102
RTVSPropertyOp0
 70
     1
102
RTVSPropertyOp1
 70
     1
102
RTVSPropertyOp2
 70
     1
102
RTVSPropertyOp3
 70
     1
102
RTVSPropertyOp4
 70
     1
102
RTVSPropertyOp5
 70
     1
102
RTVSPropertyOp6
 70
     1
102
RTVSPropertyOp7
 70
     1
102
RTVSPropertyOp8
 70
     1
102
RTVSPropertyOp9
 70
     1
102
RTVSPropertyOp10
 70
     1
102
RTVSPropertyOp11
 70
     1
102
RTVSPropertyOp12
 70
     1
102
RTVSPropertyOp13
 70
     1
102
RTVSPropertyOp14
 70
     1
102
RTVSPropertyOp15
 70
     1
102
RTVSPropertyOp16
 70
     1
102
RTVSPropertyOp17
 70
     1
102
RTVSPropertyOp18
 70
     1
102
RTVSPropertyOp19
 70
     1
102
RTVSPropertyOp20
 70
     1
102
RTVSPropertyOp21
 70
     1
102
RTVSPropertyOp22
 70
     1
102
RTVSPropertyOp23
 70
     1
102
RTVSPropertyOp24
 70
     1
102
RTVSPropertyOp25
 70
     1
102
RTVSPropertyOp26
 70
     1
102
RTVSPropertyOp27
 70
     1
102
RTVSPropertyOp28
 70
     1
102
RTVSPropertyOp29
 70
     1
102
RTVSPropertyOp30
 70
     1
102
RTVSPropertyOp31
 70
     1
102
RTVSPropertyOp32
 70
     1
102
RTVSPropertyOp33
 70
     1
102
RTVSPropertyOp34
 70
     1
102
RTVSPropertyOp35
 70
     1
102
RTVSPropertyOp36
 70
     1
102
RTVSPropertyOp37
 70
     1
102
RTVSPropertyOp38
 70
     1
102
RTVSPropertyOp39
 70
     1
102
RTVSPropertyOp40
 70
     1
102
RTVSPropertyOp41
 70
     1
102
RTVSPropertyOp42
 70
     1
102
RTVSPropertyOp43
 70
     1
102
RTVSPropertyOp44
 70
     1
102
RTVSPropertyOp45
 70
     1
102
RTVSPropertyOp46
 70
     1
102
RTVSPropertyOp47
 70
     1
102
RTVSPropertyOp48
 70
     1
102
RTVSPropertyOp49
 70
     1
102
RTVSPropertyOp50
 70
     1
102
RTVSPropertyOp51
 70
     0
102
RTVSPropertyOp52
 70
     0
102
RTVSPropertyOp53
 70
     1
102
RTVSPropertyOp54
 70
     1
102
RTVSPropertyOp55
 70
     1
102
RTVSPropertyOp56
 70
     1
102
RTVSPropertyOp57
 70
     1
102
RTVSPost2010Prop28
280
     0
102
RTVSPost2010PropOp28
 70
     1
102
RTVSPost2010Prop29
280
     1
102
RTVSPost2010PropOp29
 70
     1
102
RTVSPost2010Prop30
280
     1
102
RTVSPost2010PropOp30
 70
     1
102
RTVSPost2010Prop31
280
     0
102
RTVSPost2010PropOp31
 70
     1
102
RTVSPost2010Prop32
280
     0
102
RTVSPost2010PropOp32
 70
     1
102
RTVSPost2010Prop33
280
     0
102
RTVSPost2010PropOp33
 70
     1
102
RTVSPost2010Prop34
280
     0
102
RTVSPost2010PropOp34
 70
     1
102
RTVSPost2010Prop35
280
     0
102
RTVSPost2010PropOp35
 70
     1
102
RTVSPost2010Prop36
280
     0
102
RTVSPost2010PropOp36
 70
     1
102
RTVSPost2010Prop37
 90
       50
102
RTVSPost2010PropOp37
 70
     1
102
RTVSPost2010Prop38
140
0.0
102
RTVSPost2010PropOp38
 70
     1
102
RTVSPost2010Prop39
140
1.0
102
RTVSPost2010PropOp39
 70
     1
102
RTVSPost2010Prop40
 90
        0
102
RTVSPost2010PropOp40
 70
     1
102
RTVSPost2010Prop41ColorIndex
 90
       18
102
RTVSPost2010Prop41ColorRGB
 90
        0
102
RTVSPost2010PropOp41
 70
     1
102
RTVSPost2010Prop42
 90
       50
102
RTVSPost2010PropOp42
 70
     1
102
RTVSPost2010Prop43
 90
        3
102
RTVSPost2010PropOp43
 70
     1
102
RTVSPost2010Prop44ColorIndex
 90
        5
102
RTVSPost2010Prop44ColorRGB
 90
      255
102
RTVSPost2010PropOp44
 70
     1
102
RTVSPost2010Prop45
280
     0
102
RTVSPost2010PropOp45
 70
     1
102
RTVSPost2010Prop46
 90
       50
102
RTVSPost2010PropOp46
 70
     1
102
RTVSPost2010Prop47
 90
       50
102
RTVSPost2010PropOp47
 70
     1
102
RTVSPost2010Prop48
 90
       50
102
RTVSPost2010PropOp48
 70
     1
102
RTVSPost2010Prop49
280
     0
102
RTVSPost2010PropOp49
 70
     1
102
RTVSPost2010Prop50
 90
       50
102
RTVSPost2010PropOp50
 70
     1
102
RTVSPost2010Prop51ColorIndex
 90
      256
102
RTVSPost2010Prop51ColorRGB
 90
-16777216
102
RTVSPost2010PropOp51
 70
     0
102
RTVSPost2010Prop52
140
1.0
102
RTVSPost2010PropOp52
 70
     0
102
RTVSPost2010Prop53
 90
        2
102
RTVSPost2010PropOp53
 70
     1
102
RTVSPost2010Prop54
  1
strokes_ogs.tif
102
RTVSPost2010PropOp54
 70
     1
102
RTVSPost2010Prop55
280
     0
102
RTVSPost2010PropOp55
 70
     1
102
RTVSPost2010Prop56
140
1.0
102
RTVSPost2010PropOp56
 70
     1
102
RTVSPost2010Prop57
140
1.0
102
RTVSPost2010PropOp57
 70
     1
  0
XRECORD
  5
478
102
{ACAD_REACTORS
330
477
102
}
330
477
100
AcDbXrecord
280
     1
102
RTVSPropertyOp0
 70
     1
102
RTVSPropertyOp1
 70
     1
102
RTVSPropertyOp2
 70
     1
102
RTVSPropertyOp3
 70
     1
102
RTVSPropertyOp4
 70
     1
102
RTVSPropertyOp5
 70
     1
102
RTVSPropertyOp6
 70
     1
102
RTVSPropertyOp7
 70
     1
102
RTVSPropertyOp8
 70
     1
102
RTVSPropertyOp9
 70
     1
102
RTVSPropertyOp10
 70
     1
102
RTVSPropertyOp11
 70
     1
102
RTVSPropertyOp12
 70
     1
102
RTVSPropertyOp13
 70
     1
102
RTVSPropertyOp14
 70
     1
102
RTVSPropertyOp15
 70
     1
102
RTVSPropertyOp16
 70
     1
102
RTVSPropertyOp17
 70
     1
102
RTVSPropertyOp18
 70
     1
102
RTVSPropertyOp19
 70
     1
102
RTVSPropertyOp20
 70
     1
102
RTVSPropertyOp21
 70
     1
102
RTVSPropertyOp22
 70
     1
102
RTVSPropertyOp23
 70
     1
102
RTVSPropertyOp24
 70
     1
102
RTVSPropertyOp25
 70
     1
102
RTVSPropertyOp26
 70
     1
102
RTVSPropertyOp27
 70
     1
102
RTVSPropertyOp28
 70
     1
102
RTVSPropertyOp29
 70
     1
102
RTVSPropertyOp30
 70
     1
102
RTVSPropertyOp31
 70
     1
102
RTVSPropertyOp32
 70
     1
102
RTVSPropertyOp33
 70
     1
102
RTVSPropertyOp34
 70
     1
102
RTVSPropertyOp35
 70
     1
102
RTVSPropertyOp36
 70
     1
102
RTVSPropertyOp37
 70
     1
102
RTVSPropertyOp38
 70
     1
102
RTVSPropertyOp39
 70
     1
102
RTVSPropertyOp40
 70
     1
102
RTVSPropertyOp41
 70
     1
102
RTVSPropertyOp42
 70
     1
102
RTVSPropertyOp43
 70
     1
102
RTVSPropertyOp44
 70
     1
102
RTVSPropertyOp45
 70
     1
102
RTVSPropertyOp46
 70
     1
102
RTVSPropertyOp47
 70
     1
102
RTVSPropertyOp48
 70
     1
102
RTVSPropertyOp49
 70
     1
102
RTVSPropertyOp50
 70
     1
102
RTVSPropertyOp51
 70
     0
102
RTVSPropertyOp52
 70
     0
102
RTVSPropertyOp53
 70
     1
102
RTVSPropertyOp54
 70
     1
102
RTVSPropertyOp55
 70
     1
102
RTVSPropertyOp56
 70
     1
102
RTVSPropertyOp57
 70
     1
102
RTVSPost2010Prop28
280
     0
102
RTVSPost2010PropOp28
 70
     1
102
RTVSPost2010Prop29
280
     1
102
RTVSPost2010PropOp29
 70
     1
102
RTVSPost2010Prop30
280
     1
102
RTVSPost2010PropOp30
 70
     1
102
RTVSPost2010Prop31
280
     0
102
RTVSPost2010PropOp31
 70
     1
102
RTVSPost2010Prop32
280
     0
102
RTVSPost2010PropOp32
 70
     1
102
RTVSPost2010Prop33
280
     0
102
RTVSPost2010PropOp33
 70
     1
102
RTVSPost2010Prop34
280
     0
102
RTVSPost2010PropOp34
 70
     1
102
RTVSPost2010Prop35
280
     0
102
RTVSPost2010PropOp35
 70
     1
102
RTVSPost2010Prop36
280
     0
102
RTVSPost2010PropOp36
 70
     1
102
RTVSPost2010Prop37
 90
       50
102
RTVSPost2010PropOp37
 70
     1
102
RTVSPost2010Prop38
140
0.0
102
RTVSPost2010PropOp38
 70
     1
102
RTVSPost2010Prop39
140
1.0
102
RTVSPost2010PropOp39
 70
     1
102
RTVSPost2010Prop40
 90
        0
102
RTVSPost2010PropOp40
 70
     1
102
RTVSPost2010Prop41ColorIndex
 90
       18
102
RTVSPost2010Prop41ColorRGB
 90
        0
102
RTVSPost2010PropOp41
 70
     1
102
RTVSPost2010Prop42
 90
       50
102
RTVSPost2010PropOp42
 70
     1
102
RTVSPost2010Prop43
 90
        3
102
RTVSPost2010PropOp43
 70
     1
102
RTVSPost2010Prop44ColorIndex
 90
        5
102
RTVSPost2010Prop44ColorRGB
 90
      255
102
RTVSPost2010PropOp44
 70
     1
102
RTVSPost2010Prop45
280
     0
102
RTVSPost2010PropOp45
 70
     1
102
RTVSPost2010Prop46
 90
       50
102
RTVSPost2010PropOp46
 70
     1
102
RTVSPost2010Prop47
 90
       50
102
RTVSPost2010PropOp47
 70
     1
102
RTVSPost2010Prop48
 90
       50
102
RTVSPost2010PropOp48
 70
     1
102
RTVSPost2010Prop49
280
     0
102
RTVSPost2010PropOp49
 70
     1
102
RTVSPost2010Prop50
 90
       50
102
RTVSPost2010PropOp50
 70
     1
102
RTVSPost2010Prop51ColorIndex
 90
      256
102
RTVSPost2010Prop51ColorRGB
 90
-16777216
102
RTVSPost2010PropOp51
 70
     0
102
RTVSPost2010Prop52
140
1.0
102
RTVSPost2010PropOp52
 70
     0
102
RTVSPost2010Prop53
 90
        2
102
RTVSPost2010PropOp53
 70
     1
102
RTVSPost2010Prop54
  1
strokes_ogs.tif
102
RTVSPost2010PropOp54
 70
     1
102
RTVSPost2010Prop55
280
     0
102
RTVSPost2010PropOp55
 70
     1
102
RTVSPost2010Prop56
140
1.0
102
RTVSPost2010PropOp56
 70
     1
102
RTVSPost2010Prop57
140
1.0
102
RTVSPost2010PropOp57
 70
     1
  0
XRECORD
  5
47E
102
{ACAD_REACTORS
330
47D
102
}
330
47D
100
AcDbXrecord
280
     1
102
RTVSPropertyOp0
 70
     1
102
RTVSPropertyOp1
 70
     1
102
RTVSPropertyOp2
 70
     1
102
RTVSPropertyOp3
 70
     1
102
RTVSPropertyOp4
 70
     1
102
RTVSPropertyOp5
 70
     1
102
RTVSPropertyOp6
 70
     1
102
RTVSPropertyOp7
 70
     1
102
RTVSPropertyOp8
 70
     1
102
RTVSPropertyOp9
 70
     1
102
RTVSPropertyOp10
 70
     1
102
RTVSPropertyOp11
 70
     1
102
RTVSPropertyOp12
 70
     1
102
RTVSPropertyOp13
 70
     1
102
RTVSPropertyOp14
 70
     1
102
RTVSPropertyOp15
 70
     1
102
RTVSPropertyOp16
 70
     1
102
RTVSPropertyOp17
 70
     1
102
RTVSPropertyOp18
 70
     1
102
RTVSPropertyOp19
 70
     1
102
RTVSPropertyOp20
 70
     1
102
RTVSPropertyOp21
 70
     1
102
RTVSPropertyOp22
 70
     1
102
RTVSPropertyOp23
 70
     1
102
RTVSPropertyOp24
 70
     1
102
RTVSPropertyOp25
 70
     1
102
RTVSPropertyOp26
 70
     1
102
RTVSPropertyOp27
 70
     1
102
RTVSPropertyOp28
 70
     1
102
RTVSPropertyOp29
 70
     1
102
RTVSPropertyOp30
 70
     1
102
RTVSPropertyOp31
 70
     1
102
RTVSPropertyOp32
 70
     1
102
RTVSPropertyOp33
 70
     1
102
RTVSPropertyOp34
 70
     1
102
RTVSPropertyOp35
 70
     1
102
RTVSPropertyOp36
 70
     1
102
RTVSPropertyOp37
 70
     1
102
RTVSPropertyOp38
 70
     1
102
RTVSPropertyOp39
 70
     1
102
RTVSPropertyOp40
 70
     1
102
RTVSPropertyOp41
 70
     1
102
RTVSPropertyOp42
 70
     1
102
RTVSPropertyOp43
 70
     1
102
RTVSPropertyOp44
 70
     1
102
RTVSPropertyOp45
 70
     1
102
RTVSPropertyOp46
 70
     1
102
RTVSPropertyOp47
 70
     1
102
RTVSPropertyOp48
 70
     1
102
RTVSPropertyOp49
 70
     1
102
RTVSPropertyOp50
 70
     1
102
RTVSPropertyOp51
 70
     0
102
RTVSPropertyOp52
 70
     0
102
RTVSPropertyOp53
 70
     1
102
RTVSPropertyOp54
 70
     1
102
RTVSPropertyOp55
 70
     1
102
RTVSPropertyOp56
 70
     1
102
RTVSPropertyOp57
 70
     1
102
RTVSPost2010Prop28
280
     0
102
RTVSPost2010PropOp28
 70
     1
102
RTVSPost2010Prop29
280
     1
102
RTVSPost2010PropOp29
 70
     1
102
RTVSPost2010Prop30
280
     1
102
RTVSPost2010PropOp30
 70
     1
102
RTVSPost2010Prop31
280
     0
102
RTVSPost2010PropOp31
 70
     1
102
RTVSPost2010Prop32
280
     0
102
RTVSPost2010PropOp32
 70
     1
102
RTVSPost2010Prop33
280
     0
102
RTVSPost2010PropOp33
 70
     1
102
RTVSPost2010Prop34
280
     0
102
RTVSPost2010PropOp34
 70
     1
102
RTVSPost2010Prop35
280
     0
102
RTVSPost2010PropOp35
 70
     1
102
RTVSPost2010Prop36
280
     0
102
RTVSPost2010PropOp36
 70
     1
102
RTVSPost2010Prop37
 90
       50
102
RTVSPost2010PropOp37
 70
     1
102
RTVSPost2010Prop38
140
0.0
102
RTVSPost2010PropOp38
 70
     1
102
RTVSPost2010Prop39
140
1.0
102
RTVSPost2010PropOp39
 70
     1
102
RTVSPost2010Prop40
 90
        0
102
RTVSPost2010PropOp40
 70
     1
102
RTVSPost2010Prop41ColorIndex
 90
       18
102
RTVSPost2010Prop41ColorRGB
 90
        0
102
RTVSPost2010PropOp41
 70
     1
102
RTVSPost2010Prop42
 90
       50
102
RTVSPost2010PropOp42
 70
     1
102
RTVSPost2010Prop43
 90
        3
102
RTVSPost2010PropOp43
 70
     1
102
RTVSPost2010Prop44ColorIndex
 90
        5
102
RTVSPost2010Prop44ColorRGB
 90
      255
102
RTVSPost2010PropOp44
 70
     1
102
RTVSPost2010Prop45
280
     0
102
RTVSPost2010PropOp45
 70
     1
102
RTVSPost2010Prop46
 90
       50
102
RTVSPost2010PropOp46
 70
     1
102
RTVSPost2010Prop47
 90
       50
102
RTVSPost2010PropOp47
 70
     1
102
RTVSPost2010Prop48
 90
       50
102
RTVSPost2010PropOp48
 70
     1
102
RTVSPost2010Prop49
280
     0
102
RTVSPost2010PropOp49
 70
     1
102
RTVSPost2010Prop50
 90
       50
102
RTVSPost2010PropOp50
 70
     1
102
RTVSPost2010Prop51ColorIndex
 90
      256
102
RTVSPost2010Prop51ColorRGB
 90
-16777216
102
RTVSPost2010PropOp51
 70
     0
102
RTVSPost2010Prop52
140
1.0
102
RTVSPost2010PropOp52
 70
     0
102
RTVSPost2010Prop53
 90
        2
102
RTVSPost2010PropOp53
 70
     1
102
RTVSPost2010Prop54
  1
strokes_ogs.tif
102
RTVSPost2010PropOp54
 70
     1
102
RTVSPost2010Prop55
280
     0
102
RTVSPost2010PropOp55
 70
     1
102
RTVSPost2010Prop56
140
1.0
102
RTVSPost2010PropOp56
 70
     1
102
RTVSPost2010Prop57
140
1.0
102
RTVSPost2010PropOp57
 70
     1
  0
XRECORD
  5
492
102
{ACAD_REACTORS
330
491
102
}
330
491
100
AcDbXrecord
280
     1
102
RTVSPropertyOp0
 70
     0
102
RTVSPropertyOp1
 70
     0
102
RTVSPropertyOp2
 70
     0
102
RTVSPropertyOp3
 70
     0
102
RTVSPropertyOp4
 70
     0
102
RTVSPropertyOp5
 70
     0
102
RTVSPropertyOp6
 70
     0
102
RTVSPropertyOp7
 70
     0
102
RTVSPropertyOp8
 70
     0
102
RTVSPropertyOp9
 70
     0
102
RTVSPropertyOp10
 70
     0
102
RTVSPropertyOp11
 70
     0
102
RTVSPropertyOp12
 70
     0
102
RTVSPropertyOp13
 70
     0
102
RTVSPropertyOp14
 70
     2
102
RTVSPropertyOp15
 70
     0
102
RTVSPropertyOp16
 70
     0
102
RTVSPropertyOp17
 70
     0
102
RTVSPropertyOp18
 70
     0
102
RTVSPropertyOp19
 70
     0
102
RTVSPropertyOp20
 70
     0
102
RTVSPropertyOp21
 70
     0
102
RTVSPropertyOp22
 70
     0
102
RTVSPropertyOp23
 70
     0
102
RTVSPropertyOp24
 70
     0
102
RTVSPropertyOp25
 70
     0
102
RTVSPropertyOp26
 70
     0
102
RTVSPropertyOp27
 70
     0
102
RTVSPropertyOp28
 70
     0
102
RTVSPropertyOp29
 70
     0
102
RTVSPropertyOp30
 70
     0
102
RTVSPropertyOp31
 70
     0
102
RTVSPropertyOp32
 70
     0
102
RTVSPropertyOp33
 70
     0
102
RTVSPropertyOp34
 70
     0
102
RTVSPropertyOp35
 70
     0
102
RTVSPropertyOp36
 70
     0
102
RTVSPropertyOp37
 70
     0
102
RTVSPropertyOp38
 70
     0
102
RTVSPropertyOp39
 70
     0
102
RTVSPropertyOp40
 70
     0
102
RTVSPropertyOp41
 70
     0
102
RTVSPropertyOp42
 70
     0
102
RTVSPropertyOp43
 70
     0
102
RTVSPropertyOp44
 70
     0
102
RTVSPropertyOp45
 70
     0
102
RTVSPropertyOp46
 70
     0
102
RTVSPropertyOp47
 70
     0
102
RTVSPropertyOp48
 70
     0
102
RTVSPropertyOp49
 70
     0
102
RTVSPropertyOp50
 70
     0
102
RTVSPropertyOp51
 70
     0
102
RTVSPropertyOp52
 70
     0
102
RTVSPropertyOp53
 70
     0
102
RTVSPropertyOp54
 70
     0
102
RTVSPropertyOp55
 70
     0
102
RTVSPropertyOp56
 70
     0
102
RTVSPropertyOp57
 70
     0
102
RTVSPost2010Prop28
280
     0
102
RTVSPost2010PropOp28
 70
     0
102
RTVSPost2010Prop29
280
     1
102
RTVSPost2010PropOp29
 70
     0
102
RTVSPost2010Prop30
280
     1
102
RTVSPost2010PropOp30
 70
     0
102
RTVSPost2010Prop31
280
     0
102
RTVSPost2010PropOp31
 70
     0
102
RTVSPost2010Prop32
280
     0
102
RTVSPost2010PropOp32
 70
     0
102
RTVSPost2010Prop33
280
     0
102
RTVSPost2010PropOp33
 70
     0
102
RTVSPost2010Prop34
280
     0
102
RTVSPost2010PropOp34
 70
     0
102
RTVSPost2010Prop35
280
     0
102
RTVSPost2010PropOp35
 70
     0
102
RTVSPost2010Prop36
280
     0
102
RTVSPost2010PropOp36
 70
     0
102
RTVSPost2010Prop37
 90
       50
102
RTVSPost2010PropOp37
 70
     0
102
RTVSPost2010Prop38
140
0.0
102
RTVSPost2010PropOp38
 70
     0
102
RTVSPost2010Prop39
140
1.0
102
RTVSPost2010PropOp39
 70
     0
102
RTVSPost2010Prop40
 90
        0
102
RTVSPost2010PropOp40
 70
     0
102
RTVSPost2010Prop41ColorIndex
 90
       18
102
RTVSPost2010Prop41ColorRGB
 90
        0
102
RTVSPost2010PropOp41
 70
     0
102
RTVSPost2010Prop42
 90
       50
102
RTVSPost2010PropOp42
 70
     0
102
RTVSPost2010Prop43
 90
        3
102
RTVSPost2010PropOp43
 70
     0
102
RTVSPost2010Prop44ColorIndex
 90
        5
102
RTVSPost2010Prop44ColorRGB
 90
      255
102
RTVSPost2010PropOp44
 70
     0
102
RTVSPost2010Prop45
280
     0
102
RTVSPost2010PropOp45
 70
     0
102
RTVSPost2010Prop46
 90
       50
102
RTVSPost2010PropOp46
 70
     0
102
RTVSPost2010Prop47
 90
       50
102
RTVSPost2010PropOp47
 70
     0
102
RTVSPost2010Prop48
 90
       50
102
RTVSPost2010PropOp48
 70
     0
102
RTVSPost2010Prop49
280
     0
102
RTVSPost2010PropOp49
 70
     0
102
RTVSPost2010Prop50
 90
       50
102
RTVSPost2010PropOp50
 70
     0
102
RTVSPost2010Prop51ColorIndex
 90
      256
102
RTVSPost2010Prop51ColorRGB
 90
-16777216
102
RTVSPost2010PropOp51
 70
     0
102
RTVSPost2010Prop52
140
1.0
102
RTVSPost2010PropOp52
 70
     0
102
RTVSPost2010Prop53
 90
        2
102
RTVSPost2010PropOp53
 70
     0
102
RTVSPost2010Prop54
  1
strokes_ogs.tif
102
RTVSPost2010PropOp54
 70
     0
102
RTVSPost2010Prop55
280
     0
102
RTVSPost2010PropOp55
 70
     0
102
RTVSPost2010Prop56
140
1.0
102
RTVSPost2010PropOp56
 70
     0
102
RTVSPost2010Prop57
140
1.0
102
RTVSPost2010PropOp57
 70
     0
  0
XRECORD
  5
48C
102
{ACAD_REACTORS
330
48B
102
}
330
48B
100
AcDbXrecord
280
     1
102
RTVSPropertyOp0
 70
     1
102
RTVSPropertyOp1
 70
     1
102
RTVSPropertyOp2
 70
     1
102
RTVSPropertyOp3
 70
     1
102
RTVSPropertyOp4
 70
     1
102
RTVSPropertyOp5
 70
     1
102
RTVSPropertyOp6
 70
     1
102
RTVSPropertyOp7
 70
     1
102
RTVSPropertyOp8
 70
     1
102
RTVSPropertyOp9
 70
     1
102
RTVSPropertyOp10
 70
     1
102
RTVSPropertyOp11
 70
     1
102
RTVSPropertyOp12
 70
     1
102
RTVSPropertyOp13
 70
     1
102
RTVSPropertyOp14
 70
     1
102
RTVSPropertyOp15
 70
     1
102
RTVSPropertyOp16
 70
     1
102
RTVSPropertyOp17
 70
     1
102
RTVSPropertyOp18
 70
     1
102
RTVSPropertyOp19
 70
     1
102
RTVSPropertyOp20
 70
     1
102
RTVSPropertyOp21
 70
     1
102
RTVSPropertyOp22
 70
     1
102
RTVSPropertyOp23
 70
     1
102
RTVSPropertyOp24
 70
     1
102
RTVSPropertyOp25
 70
     1
102
RTVSPropertyOp26
 70
     1
102
RTVSPropertyOp27
 70
     1
102
RTVSPropertyOp28
 70
     1
102
RTVSPropertyOp29
 70
     1
102
RTVSPropertyOp30
 70
     1
102
RTVSPropertyOp31
 70
     1
102
RTVSPropertyOp32
 70
     1
102
RTVSPropertyOp33
 70
     1
102
RTVSPropertyOp34
 70
     1
102
RTVSPropertyOp35
 70
     1
102
RTVSPropertyOp36
 70
     1
102
RTVSPropertyOp37
 70
     1
102
RTVSPropertyOp38
 70
     1
102
RTVSPropertyOp39
 70
     1
102
RTVSPropertyOp40
 70
     1
102
RTVSPropertyOp41
 70
     1
102
RTVSPropertyOp42
 70
     1
102
RTVSPropertyOp43
 70
     1
102
RTVSPropertyOp44
 70
     1
102
RTVSPropertyOp45
 70
     1
102
RTVSPropertyOp46
 70
     1
102
RTVSPropertyOp47
 70
     1
102
RTVSPropertyOp48
 70
     1
102
RTVSPropertyOp49
 70
     1
102
RTVSPropertyOp50
 70
     1
102
RTVSPropertyOp51
 70
     0
102
RTVSPropertyOp52
 70
     0
102
RTVSPropertyOp53
 70
     1
102
RTVSPropertyOp54
 70
     1
102
RTVSPropertyOp55
 70
     1
102
RTVSPropertyOp56
 70
     1
102
RTVSPropertyOp57
 70
     1
102
RTVSPost2010Prop28
280
     0
102
RTVSPost2010PropOp28
 70
     1
102
RTVSPost2010Prop29
280
     1
102
RTVSPost2010PropOp29
 70
     1
102
RTVSPost2010Prop30
280
     1
102
RTVSPost2010PropOp30
 70
     1
102
RTVSPost2010Prop31
280
     0
102
RTVSPost2010PropOp31
 70
     1
102
RTVSPost2010Prop32
280
     0
102
RTVSPost2010PropOp32
 70
     1
102
RTVSPost2010Prop33
280
     0
102
RTVSPost2010PropOp33
 70
     1
102
RTVSPost2010Prop34
280
     0
102
RTVSPost2010PropOp34
 70
     1
102
RTVSPost2010Prop35
280
     0
102
RTVSPost2010PropOp35
 70
     1
102
RTVSPost2010Prop36
280
     0
102
RTVSPost2010PropOp36
 70
     1
102
RTVSPost2010Prop37
 90
       50
102
RTVSPost2010PropOp37
 70
     1
102
RTVSPost2010Prop38
140
0.0
102
RTVSPost2010PropOp38
 70
     1
102
RTVSPost2010Prop39
140
1.0
102
RTVSPost2010PropOp39
 70
     1
102
RTVSPost2010Prop40
 90
        0
102
RTVSPost2010PropOp40
 70
     1
102
RTVSPost2010Prop41ColorIndex
 90
       18
102
RTVSPost2010Prop41ColorRGB
 90
        0
102
RTVSPost2010PropOp41
 70
     1
102
RTVSPost2010Prop42
 90
       50
102
RTVSPost2010PropOp42
 70
     1
102
RTVSPost2010Prop43
 90
        3
102
RTVSPost2010PropOp43
 70
     1
102
RTVSPost2010Prop44ColorIndex
 90
        5
102
RTVSPost2010Prop44ColorRGB
 90
      255
102
RTVSPost2010PropOp44
 70
     1
102
RTVSPost2010Prop45
280
     0
102
RTVSPost2010PropOp45
 70
     1
102
RTVSPost2010Prop46
 90
       50
102
RTVSPost2010PropOp46
 70
     1
102
RTVSPost2010Prop47
 90
       50
102
RTVSPost2010PropOp47
 70
     1
102
RTVSPost2010Prop48
 90
       50
102
RTVSPost2010PropOp48
 70
     1
102
RTVSPost2010Prop49
280
     0
102
RTVSPost2010PropOp49
 70
     1
102
RTVSPost2010Prop50
 90
       50
102
RTVSPost2010PropOp50
 70
     1
102
RTVSPost2010Prop51ColorIndex
 90
      256
102
RTVSPost2010Prop51ColorRGB
 90
-16777216
102
RTVSPost2010PropOp51
 70
     0
102
RTVSPost2010Prop52
140
1.0
102
RTVSPost2010PropOp52
 70
     0
102
RTVSPost2010Prop53
 90
        2
102
RTVSPost2010PropOp53
 70
     1
102
RTVSPost2010Prop54
  1
strokes_ogs.tif
102
RTVSPost2010PropOp54
 70
     1
102
RTVSPost2010Prop55
280
     0
102
RTVSPost2010PropOp55
 70
     1
102
RTVSPost2010Prop56
140
1.0
102
RTVSPost2010PropOp56
 70
     1
102
RTVSPost2010Prop57
140
1.0
102
RTVSPost2010PropOp57
 70
     1
  0
XRECORD
  5
494
102
{ACAD_REACTORS
330
493
102
}
330
493
100
AcDbXrecord
280
     1
102
RTVSPropertyOp0
 70
     0
102
RTVSPropertyOp1
 70
     0
102
RTVSPropertyOp2
 70
     0
102
RTVSPropertyOp3
 70
     0
102
RTVSPropertyOp4
 70
     0
102
RTVSPropertyOp5
 70
     0
102
RTVSPropertyOp6
 70
     0
102
RTVSPropertyOp7
 70
     0
102
RTVSPropertyOp8
 70
     0
102
RTVSPropertyOp9
 70
     0
102
RTVSPropertyOp10
 70
     0
102
RTVSPropertyOp11
 70
     0
102
RTVSPropertyOp12
 70
     0
102
RTVSPropertyOp13
 70
     0
102
RTVSPropertyOp14
 70
     2
102
RTVSPropertyOp15
 70
     0
102
RTVSPropertyOp16
 70
     0
102
RTVSPropertyOp17
 70
     0
102
RTVSPropertyOp18
 70
     0
102
RTVSPropertyOp19
 70
     0
102
RTVSPropertyOp20
 70
     0
102
RTVSPropertyOp21
 70
     0
102
RTVSPropertyOp22
 70
     0
102
RTVSPropertyOp23
 70
     0
102
RTVSPropertyOp24
 70
     0
102
RTVSPropertyOp25
 70
     0
102
RTVSPropertyOp26
 70
     0
102
RTVSPropertyOp27
 70
     0
102
RTVSPropertyOp28
 70
     0
102
RTVSPropertyOp29
 70
     0
102
RTVSPropertyOp30
 70
     0
102
RTVSPropertyOp31
 70
     0
102
RTVSPropertyOp32
 70
     0
102
RTVSPropertyOp33
 70
     0
102
RTVSPropertyOp34
 70
     0
102
RTVSPropertyOp35
 70
     0
102
RTVSPropertyOp36
 70
     0
102
RTVSPropertyOp37
 70
     0
102
RTVSPropertyOp38
 70
     0
102
RTVSPropertyOp39
 70
     0
102
RTVSPropertyOp40
 70
     0
102
RTVSPropertyOp41
 70
     0
102
RTVSPropertyOp42
 70
     0
102
RTVSPropertyOp43
 70
     0
102
RTVSPropertyOp44
 70
     0
102
RTVSPropertyOp45
 70
     0
102
RTVSPropertyOp46
 70
     0
102
RTVSPropertyOp47
 70
     0
102
RTVSPropertyOp48
 70
     0
102
RTVSPropertyOp49
 70
     0
102
RTVSPropertyOp50
 70
     0
102
RTVSPropertyOp51
 70
     0
102
RTVSPropertyOp52
 70
     0
102
RTVSPropertyOp53
 70
     0
102
RTVSPropertyOp54
 70
     0
102
RTVSPropertyOp55
 70
     0
102
RTVSPropertyOp56
 70
     0
102
RTVSPropertyOp57
 70
     0
102
RTVSPost2010Prop28
280
     0
102
RTVSPost2010PropOp28
 70
     0
102
RTVSPost2010Prop29
280
     1
102
RTVSPost2010PropOp29
 70
     0
102
RTVSPost2010Prop30
280
     1
102
RTVSPost2010PropOp30
 70
     0
102
RTVSPost2010Prop31
280
     0
102
RTVSPost2010PropOp31
 70
     0
102
RTVSPost2010Prop32
280
     0
102
RTVSPost2010PropOp32
 70
     0
102
RTVSPost2010Prop33
280
     0
102
RTVSPost2010PropOp33
 70
     0
102
RTVSPost2010Prop34
280
     0
102
RTVSPost2010PropOp34
 70
     0
102
RTVSPost2010Prop35
280
     0
102
RTVSPost2010PropOp35
 70
     0
102
RTVSPost2010Prop36
280
     0
102
RTVSPost2010PropOp36
 70
     0
102
RTVSPost2010Prop37
 90
       50
102
RTVSPost2010PropOp37
 70
     0
102
RTVSPost2010Prop38
140
0.0
102
RTVSPost2010PropOp38
 70
     0
102
RTVSPost2010Prop39
140
1.0
102
RTVSPost2010PropOp39
 70
     0
102
RTVSPost2010Prop40
 90
        0
102
RTVSPost2010PropOp40
 70
     0
102
RTVSPost2010Prop41ColorIndex
 90
       18
102
RTVSPost2010Prop41ColorRGB
 90
        0
102
RTVSPost2010PropOp41
 70
     0
102
RTVSPost2010Prop42
 90
       50
102
RTVSPost2010PropOp42
 70
     0
102
RTVSPost2010Prop43
 90
        3
102
RTVSPost2010PropOp43
 70
     0
102
RTVSPost2010Prop44ColorIndex
 90
        5
102
RTVSPost2010Prop44ColorRGB
 90
      255
102
RTVSPost2010PropOp44
 70
     0
102
RTVSPost2010Prop45
280
     0
102
RTVSPost2010PropOp45
 70
     0
102
RTVSPost2010Prop46
 90
       50
102
RTVSPost2010PropOp46
 70
     0
102
RTVSPost2010Prop47
 90
       50
102
RTVSPost2010PropOp47
 70
     0
102
RTVSPost2010Prop48
 90
       50
102
RTVSPost2010PropOp48
 70
     0
102
RTVSPost2010Prop49
280
     0
102
RTVSPost2010PropOp49
 70
     0
102
RTVSPost2010Prop50
 90
       50
102
RTVSPost2010PropOp50
 70
     0
102
RTVSPost2010Prop51ColorIndex
 90
      256
102
RTVSPost2010Prop51ColorRGB
 90
-16777216
102
RTVSPost2010PropOp51
 70
     0
102
RTVSPost2010Prop52
140
1.0
102
RTVSPost2010PropOp52
 70
     0
102
RTVSPost2010Prop53
 90
        2
102
RTVSPost2010PropOp53
 70
     0
102
RTVSPost2010Prop54
  1
strokes_ogs.tif
102
RTVSPost2010PropOp54
 70
     0
102
RTVSPost2010Prop55
280
     0
102
RTVSPost2010PropOp55
 70
     0
102
RTVSPost2010Prop56
140
1.0
102
RTVSPost2010PropOp56
 70
     0
102
RTVSPost2010Prop57
140
1.0
102
RTVSPost2010PropOp57
 70
     0
  0
XRECORD
  5
482
102
{ACAD_REACTORS
330
481
102
}
330
481
100
AcDbXrecord
280
     1
102
RTVSPropertyOp0
 70
     1
102
RTVSPropertyOp1
 70
     1
102
RTVSPropertyOp2
 70
     1
102
RTVSPropertyOp3
 70
     1
102
RTVSPropertyOp4
 70
     1
102
RTVSPropertyOp5
 70
     1
102
RTVSPropertyOp6
 70
     1
102
RTVSPropertyOp7
 70
     1
102
RTVSPropertyOp8
 70
     1
102
RTVSPropertyOp9
 70
     1
102
RTVSPropertyOp10
 70
     1
102
RTVSPropertyOp11
 70
     1
102
RTVSPropertyOp12
 70
     1
102
RTVSPropertyOp13
 70
     1
102
RTVSPropertyOp14
 70
     1
102
RTVSPropertyOp15
 70
     1
102
RTVSPropertyOp16
 70
     1
102
RTVSPropertyOp17
 70
     1
102
RTVSPropertyOp18
 70
     1
102
RTVSPropertyOp19
 70
     1
102
RTVSPropertyOp20
 70
     1
102
RTVSPropertyOp21
 70
     1
102
RTVSPropertyOp22
 70
     1
102
RTVSPropertyOp23
 70
     1
102
RTVSPropertyOp24
 70
     1
102
RTVSPropertyOp25
 70
     1
102
RTVSPropertyOp26
 70
     1
102
RTVSPropertyOp27
 70
     1
102
RTVSPropertyOp28
 70
     1
102
RTVSPropertyOp29
 70
     1
102
RTVSPropertyOp30
 70
     1
102
RTVSPropertyOp31
 70
     1
102
RTVSPropertyOp32
 70
     1
102
RTVSPropertyOp33
 70
     1
102
RTVSPropertyOp34
 70
     1
102
RTVSPropertyOp35
 70
     1
102
RTVSPropertyOp36
 70
     1
102
RTVSPropertyOp37
 70
     1
102
RTVSPropertyOp38
 70
     1
102
RTVSPropertyOp39
 70
     1
102
RTVSPropertyOp40
 70
     1
102
RTVSPropertyOp41
 70
     1
102
RTVSPropertyOp42
 70
     1
102
RTVSPropertyOp43
 70
     1
102
RTVSPropertyOp44
 70
     1
102
RTVSPropertyOp45
 70
     1
102
RTVSPropertyOp46
 70
     1
102
RTVSPropertyOp47
 70
     1
102
RTVSPropertyOp48
 70
     1
102
RTVSPropertyOp49
 70
     1
102
RTVSPropertyOp50
 70
     1
102
RTVSPropertyOp51
 70
     0
102
RTVSPropertyOp52
 70
     0
102
RTVSPropertyOp53
 70
     1
102
RTVSPropertyOp54
 70
     1
102
RTVSPropertyOp55
 70
     1
102
RTVSPropertyOp56
 70
     1
102
RTVSPropertyOp57
 70
     1
102
RTVSPost2010Prop28
280
     0
102
RTVSPost2010PropOp28
 70
     1
102
RTVSPost2010Prop29
280
     1
102
RTVSPost2010PropOp29
 70
     1
102
RTVSPost2010Prop30
280
     1
102
RTVSPost2010PropOp30
 70
     1
102
RTVSPost2010Prop31
280
     0
102
RTVSPost2010PropOp31
 70
     1
102
RTVSPost2010Prop32
280
     0
102
RTVSPost2010PropOp32
 70
     1
102
RTVSPost2010Prop33
280
     0
102
RTVSPost2010PropOp33
 70
     1
102
RTVSPost2010Prop34
280
     0
102
RTVSPost2010PropOp34
 70
     1
102
RTVSPost2010Prop35
280
     0
102
RTVSPost2010PropOp35
 70
     1
102
RTVSPost2010Prop36
280
     0
102
RTVSPost2010PropOp36
 70
     1
102
RTVSPost2010Prop37
 90
       50
102
RTVSPost2010PropOp37
 70
     1
102
RTVSPost2010Prop38
140
0.0
102
RTVSPost2010PropOp38
 70
     1
102
RTVSPost2010Prop39
140
1.0
102
RTVSPost2010PropOp39
 70
     1
102
RTVSPost2010Prop40
 90
        0
102
RTVSPost2010PropOp40
 70
     1
102
RTVSPost2010Prop41ColorIndex
 90
       18
102
RTVSPost2010Prop41ColorRGB
 90
        0
102
RTVSPost2010PropOp41
 70
     1
102
RTVSPost2010Prop42
 90
       50
102
RTVSPost2010PropOp42
 70
     1
102
RTVSPost2010Prop43
 90
        3
102
RTVSPost2010PropOp43
 70
     1
102
RTVSPost2010Prop44ColorIndex
 90
        5
102
RTVSPost2010Prop44ColorRGB
 90
      255
102
RTVSPost2010PropOp44
 70
     1
102
RTVSPost2010Prop45
280
     0
102
RTVSPost2010PropOp45
 70
     1
102
RTVSPost2010Prop46
 90
       50
102
RTVSPost2010PropOp46
 70
     1
102
RTVSPost2010Prop47
 90
       50
102
RTVSPost2010PropOp47
 70
     1
102
RTVSPost2010Prop48
 90
       50
102
RTVSPost2010PropOp48
 70
     1
102
RTVSPost2010Prop49
280
     0
102
RTVSPost2010PropOp49
 70
     1
102
RTVSPost2010Prop50
 90
       50
102
RTVSPost2010PropOp50
 70
     1
102
RTVSPost2010Prop51ColorIndex
 90
      256
102
RTVSPost2010Prop51ColorRGB
 90
-16777216
102
RTVSPost2010PropOp51
 70
     0
102
RTVSPost2010Prop52
140
1.0
102
RTVSPost2010PropOp52
 70
     0
102
RTVSPost2010Prop53
 90
        2
102
RTVSPost2010PropOp53
 70
     1
102
RTVSPost2010Prop54
  1
strokes_ogs.tif
102
RTVSPost2010PropOp54
 70
     1
102
RTVSPost2010Prop55
280
     0
102
RTVSPost2010PropOp55
 70
     1
102
RTVSPost2010Prop56
140
1.0
102
RTVSPost2010PropOp56
 70
     1
102
RTVSPost2010Prop57
140
1.0
102
RTVSPost2010PropOp57
 70
     1
  0
XRECORD
  5
4A0
102
{ACAD_REACTORS
330
49F
102
}
330
49F
100
AcDbXrecord
280
     1
102
RTVSPropertyOp0
 70
     1
102
RTVSPropertyOp1
 70
     1
102
RTVSPropertyOp2
 70
     1
102
RTVSPropertyOp3
 70
     1
102
RTVSPropertyOp4
 70
     1
102
RTVSPropertyOp5
 70
     1
102
RTVSPropertyOp6
 70
     1
102
RTVSPropertyOp7
 70
     1
102
RTVSPropertyOp8
 70
     1
102
RTVSPropertyOp9
 70
     1
102
RTVSPropertyOp10
 70
     1
102
RTVSPropertyOp11
 70
     1
102
RTVSPropertyOp12
 70
     1
102
RTVSPropertyOp13
 70
     1
102
RTVSPropertyOp14
 70
     1
102
RTVSPropertyOp15
 70
     1
102
RTVSPropertyOp16
 70
     1
102
RTVSPropertyOp17
 70
     1
102
RTVSPropertyOp18
 70
     1
102
RTVSPropertyOp19
 70
     1
102
RTVSPropertyOp20
 70
     1
102
RTVSPropertyOp21
 70
     1
102
RTVSPropertyOp22
 70
     1
102
RTVSPropertyOp23
 70
     1
102
RTVSPropertyOp24
 70
     1
102
RTVSPropertyOp25
 70
     1
102
RTVSPropertyOp26
 70
     1
102
RTVSPropertyOp27
 70
     1
102
RTVSPropertyOp28
 70
     1
102
RTVSPropertyOp29
 70
     1
102
RTVSPropertyOp30
 70
     1
102
RTVSPropertyOp31
 70
     1
102
RTVSPropertyOp32
 70
     1
102
RTVSPropertyOp33
 70
     1
102
RTVSPropertyOp34
 70
     1
102
RTVSPropertyOp35
 70
     1
102
RTVSPropertyOp36
 70
     1
102
RTVSPropertyOp37
 70
     1
102
RTVSPropertyOp38
 70
     1
102
RTVSPropertyOp39
 70
     1
102
RTVSPropertyOp40
 70
     1
102
RTVSPropertyOp41
 70
     1
102
RTVSPropertyOp42
 70
     1
102
RTVSPropertyOp43
 70
     1
102
RTVSPropertyOp44
 70
     1
102
RTVSPropertyOp45
 70
     1
102
RTVSPropertyOp46
 70
     1
102
RTVSPropertyOp47
 70
     1
102
RTVSPropertyOp48
 70
     1
102
RTVSPropertyOp49
 70
     1
102
RTVSPropertyOp50
 70
     1
102
RTVSPropertyOp51
 70
     0
102
RTVSPropertyOp52
 70
     0
102
RTVSPropertyOp53
 70
     1
102
RTVSPropertyOp54
 70
     1
102
RTVSPropertyOp55
 70
     1
102
RTVSPropertyOp56
 70
     1
102
RTVSPropertyOp57
 70
     1
102
RTVSPost2010Prop28
280
     0
102
RTVSPost2010PropOp28
 70
     1
102
RTVSPost2010Prop29
280
     1
102
RTVSPost2010PropOp29
 70
     1
102
RTVSPost2010Prop30
280
     1
102
RTVSPost2010PropOp30
 70
     1
102
RTVSPost2010Prop31
280
     0
102
RTVSPost2010PropOp31
 70
     1
102
RTVSPost2010Prop32
280
     0
102
RTVSPost2010PropOp32
 70
     1
102
RTVSPost2010Prop33
280
     0
102
RTVSPost2010PropOp33
 70
     1
102
RTVSPost2010Prop34
280
     0
102
RTVSPost2010PropOp34
 70
     1
102
RTVSPost2010Prop35
280
     0
102
RTVSPost2010PropOp35
 70
     1
102
RTVSPost2010Prop36
280
     0
102
RTVSPost2010PropOp36
 70
     1
102
RTVSPost2010Prop37
 90
       50
102
RTVSPost2010PropOp37
 70
     1
102
RTVSPost2010Prop38
140
0.0
102
RTVSPost2010PropOp38
 70
     1
102
RTVSPost2010Prop39
140
1.0
102
RTVSPost2010PropOp39
 70
     1
102
RTVSPost2010Prop40
 90
        0
102
RTVSPost2010PropOp40
 70
     1
102
RTVSPost2010Prop41ColorIndex
 90
       18
102
RTVSPost2010Prop41ColorRGB
 90
        0
102
RTVSPost2010PropOp41
 70
     1
102
RTVSPost2010Prop42
 90
       50
102
RTVSPost2010PropOp42
 70
     1
102
RTVSPost2010Prop43
 90
        3
102
RTVSPost2010PropOp43
 70
     1
102
RTVSPost2010Prop44ColorIndex
 90
        5
102
RTVSPost2010Prop44ColorRGB
 90
      255
102
RTVSPost2010PropOp44
 70
     1
102
RTVSPost2010Prop45
280
     0
102
RTVSPost2010PropOp45
 70
     1
102
RTVSPost2010Prop46
 90
       50
102
RTVSPost2010PropOp46
 70
     1
102
RTVSPost2010Prop47
 90
       50
102
RTVSPost2010PropOp47
 70
     1
102
RTVSPost2010Prop48
 90
       50
102
RTVSPost2010PropOp48
 70
     1
102
RTVSPost2010Prop49
280
     0
102
RTVSPost2010PropOp49
 70
     1
102
RTVSPost2010Prop50
 90
       50
102
RTVSPost2010PropOp50
 70
     1
102
RTVSPost2010Prop51ColorIndex
 90
      256
102
RTVSPost2010Prop51ColorRGB
 90
-16777216
102
RTVSPost2010PropOp51
 70
     0
102
RTVSPost2010Prop52
140
1.0
102
RTVSPost2010PropOp52
 70
     0
102
RTVSPost2010Prop53
 90
        2
102
RTVSPost2010PropOp53
 70
     1
102
RTVSPost2010Prop54
  1
strokes_ogs.tif
102
RTVSPost2010PropOp54
 70
     1
102
RTVSPost2010Prop55
280
     0
102
RTVSPost2010PropOp55
 70
     1
102
RTVSPost2010Prop56
140
1.0
102
RTVSPost2010PropOp56
 70
     1
102
RTVSPost2010Prop57
140
1.0
102
RTVSPost2010PropOp57
 70
     1
  0
XRECORD
  5
49E
102
{ACAD_REACTORS
330
49D
102
}
330
49D
100
AcDbXrecord
280
     1
102
RTVSPropertyOp0
 70
     1
102
RTVSPropertyOp1
 70
     1
102
RTVSPropertyOp2
 70
     1
102
RTVSPropertyOp3
 70
     1
102
RTVSPropertyOp4
 70
     1
102
RTVSPropertyOp5
 70
     1
102
RTVSPropertyOp6
 70
     1
102
RTVSPropertyOp7
 70
     1
102
RTVSPropertyOp8
 70
     1
102
RTVSPropertyOp9
 70
     1
102
RTVSPropertyOp10
 70
     1
102
RTVSPropertyOp11
 70
     1
102
RTVSPropertyOp12
 70
     1
102
RTVSPropertyOp13
 70
     1
102
RTVSPropertyOp14
 70
     1
102
RTVSPropertyOp15
 70
     1
102
RTVSPropertyOp16
 70
     1
102
RTVSPropertyOp17
 70
     1
102
RTVSPropertyOp18
 70
     1
102
RTVSPropertyOp19
 70
     1
102
RTVSPropertyOp20
 70
     1
102
RTVSPropertyOp21
 70
     1
102
RTVSPropertyOp22
 70
     1
102
RTVSPropertyOp23
 70
     1
102
RTVSPropertyOp24
 70
     1
102
RTVSPropertyOp25
 70
     1
102
RTVSPropertyOp26
 70
     1
102
RTVSPropertyOp27
 70
     1
102
RTVSPropertyOp28
 70
     1
102
RTVSPropertyOp29
 70
     1
102
RTVSPropertyOp30
 70
     1
102
RTVSPropertyOp31
 70
     1
102
RTVSPropertyOp32
 70
     1
102
RTVSPropertyOp33
 70
     1
102
RTVSPropertyOp34
 70
     1
102
RTVSPropertyOp35
 70
     1
102
RTVSPropertyOp36
 70
     1
102
RTVSPropertyOp37
 70
     1
102
RTVSPropertyOp38
 70
     1
102
RTVSPropertyOp39
 70
     1
102
RTVSPropertyOp40
 70
     1
102
RTVSPropertyOp41
 70
     1
102
RTVSPropertyOp42
 70
     1
102
RTVSPropertyOp43
 70
     1
102
RTVSPropertyOp44
 70
     1
102
RTVSPropertyOp45
 70
     1
102
RTVSPropertyOp46
 70
     1
102
RTVSPropertyOp47
 70
     1
102
RTVSPropertyOp48
 70
     1
102
RTVSPropertyOp49
 70
     1
102
RTVSPropertyOp50
 70
     1
102
RTVSPropertyOp51
 70
     0
102
RTVSPropertyOp52
 70
     0
102
RTVSPropertyOp53
 70
     1
102
RTVSPropertyOp54
 70
     1
102
RTVSPropertyOp55
 70
     1
102
RTVSPropertyOp56
 70
     1
102
RTVSPropertyOp57
 70
     1
102
RTVSPost2010Prop28
280
     0
102
RTVSPost2010PropOp28
 70
     1
102
RTVSPost2010Prop29
280
     1
102
RTVSPost2010PropOp29
 70
     1
102
RTVSPost2010Prop30
280
     1
102
RTVSPost2010PropOp30
 70
     1
102
RTVSPost2010Prop31
280
     0
102
RTVSPost2010PropOp31
 70
     1
102
RTVSPost2010Prop32
280
     0
102
RTVSPost2010PropOp32
 70
     1
102
RTVSPost2010Prop33
280
     0
102
RTVSPost2010PropOp33
 70
     1
102
RTVSPost2010Prop34
280
     0
102
RTVSPost2010PropOp34
 70
     1
102
RTVSPost2010Prop35
280
     0
102
RTVSPost2010PropOp35
 70
     1
102
RTVSPost2010Prop36
280
     0
102
RTVSPost2010PropOp36
 70
     1
102
RTVSPost2010Prop37
 90
       50
102
RTVSPost2010PropOp37
 70
     1
102
RTVSPost2010Prop38
140
0.0
102
RTVSPost2010PropOp38
 70
     1
102
RTVSPost2010Prop39
140
1.0
102
RTVSPost2010PropOp39
 70
     1
102
RTVSPost2010Prop40
 90
        0
102
RTVSPost2010PropOp40
 70
     1
102
RTVSPost2010Prop41ColorIndex
 90
       18
102
RTVSPost2010Prop41ColorRGB
 90
        0
102
RTVSPost2010PropOp41
 70
     1
102
RTVSPost2010Prop42
 90
       50
102
RTVSPost2010PropOp42
 70
     1
102
RTVSPost2010Prop43
 90
        3
102
RTVSPost2010PropOp43
 70
     1
102
RTVSPost2010Prop44ColorIndex
 90
        5
102
RTVSPost2010Prop44ColorRGB
 90
      255
102
RTVSPost2010PropOp44
 70
     1
102
RTVSPost2010Prop45
280
     0
102
RTVSPost2010PropOp45
 70
     1
102
RTVSPost2010Prop46
 90
       50
102
RTVSPost2010PropOp46
 70
     1
102
RTVSPost2010Prop47
 90
       50
102
RTVSPost2010PropOp47
 70
     1
102
RTVSPost2010Prop48
 90
       50
102
RTVSPost2010PropOp48
 70
     1
102
RTVSPost2010Prop49
280
     0
102
RTVSPost2010PropOp49
 70
     1
102
RTVSPost2010Prop50
 90
       50
102
RTVSPost2010PropOp50
 70
     1
102
RTVSPost2010Prop51ColorIndex
 90
      256
102
RTVSPost2010Prop51ColorRGB
 90
-16777216
102
RTVSPost2010PropOp51
 70
     0
102
RTVSPost2010Prop52
140
1.0
102
RTVSPost2010PropOp52
 70
     0
102
RTVSPost2010Prop53
 90
        2
102
RTVSPost2010PropOp53
 70
     1
102
RTVSPost2010Prop54
  1
strokes_ogs.tif
102
RTVSPost2010PropOp54
 70
     1
102
RTVSPost2010Prop55
280
     0
102
RTVSPost2010PropOp55
 70
     1
102
RTVSPost2010Prop56
140
1.0
102
RTVSPost2010PropOp56
 70
     1
102
RTVSPost2010Prop57
140
1.0
102
RTVSPost2010PropOp57
 70
     1
  0
XRECORD
  5
498
102
{ACAD_REACTORS
330
497
102
}
330
497
100
AcDbXrecord
280
     1
102
RTVSPropertyOp0
 70
     1
102
RTVSPropertyOp1
 70
     1
102
RTVSPropertyOp2
 70
     1
102
RTVSPropertyOp3
 70
     1
102
RTVSPropertyOp4
 70
     1
102
RTVSPropertyOp5
 70
     1
102
RTVSPropertyOp6
 70
     1
102
RTVSPropertyOp7
 70
     1
102
RTVSPropertyOp8
 70
     1
102
RTVSPropertyOp9
 70
     1
102
RTVSPropertyOp10
 70
     1
102
RTVSPropertyOp11
 70
     1
102
RTVSPropertyOp12
 70
     1
102
RTVSPropertyOp13
 70
     1
102
RTVSPropertyOp14
 70
     1
102
RTVSPropertyOp15
 70
     1
102
RTVSPropertyOp16
 70
     1
102
RTVSPropertyOp17
 70
     1
102
RTVSPropertyOp18
 70
     1
102
RTVSPropertyOp19
 70
     1
102
RTVSPropertyOp20
 70
     1
102
RTVSPropertyOp21
 70
     1
102
RTVSPropertyOp22
 70
     1
102
RTVSPropertyOp23
 70
     1
102
RTVSPropertyOp24
 70
     1
102
RTVSPropertyOp25
 70
     1
102
RTVSPropertyOp26
 70
     1
102
RTVSPropertyOp27
 70
     1
102
RTVSPropertyOp28
 70
     1
102
RTVSPropertyOp29
 70
     1
102
RTVSPropertyOp30
 70
     1
102
RTVSPropertyOp31
 70
     1
102
RTVSPropertyOp32
 70
     1
102
RTVSPropertyOp33
 70
     1
102
RTVSPropertyOp34
 70
     1
102
RTVSPropertyOp35
 70
     1
102
RTVSPropertyOp36
 70
     1
102
RTVSPropertyOp37
 70
     1
102
RTVSPropertyOp38
 70
     1
102
RTVSPropertyOp39
 70
     1
102
RTVSPropertyOp40
 70
     1
102
RTVSPropertyOp41
 70
     1
102
RTVSPropertyOp42
 70
     1
102
RTVSPropertyOp43
 70
     1
102
RTVSPropertyOp44
 70
     1
102
RTVSPropertyOp45
 70
     1
102
RTVSPropertyOp46
 70
     1
102
RTVSPropertyOp47
 70
     1
102
RTVSPropertyOp48
 70
     1
102
RTVSPropertyOp49
 70
     1
102
RTVSPropertyOp50
 70
     1
102
RTVSPropertyOp51
 70
     0
102
RTVSPropertyOp52
 70
     0
102
RTVSPropertyOp53
 70
     1
102
RTVSPropertyOp54
 70
     1
102
RTVSPropertyOp55
 70
     1
102
RTVSPropertyOp56
 70
     1
102
RTVSPropertyOp57
 70
     1
102
RTVSPost2010Prop28
280
     0
102
RTVSPost2010PropOp28
 70
     1
102
RTVSPost2010Prop29
280
     1
102
RTVSPost2010PropOp29
 70
     1
102
RTVSPost2010Prop30
280
     1
102
RTVSPost2010PropOp30
 70
     1
102
RTVSPost2010Prop31
280
     0
102
RTVSPost2010PropOp31
 70
     1
102
RTVSPost2010Prop32
280
     0
102
RTVSPost2010PropOp32
 70
     1
102
RTVSPost2010Prop33
280
     0
102
RTVSPost2010PropOp33
 70
     1
102
RTVSPost2010Prop34
280
     0
102
RTVSPost2010PropOp34
 70
     1
102
RTVSPost2010Prop35
280
     0
102
RTVSPost2010PropOp35
 70
     1
102
RTVSPost2010Prop36
280
     0
102
RTVSPost2010PropOp36
 70
     1
102
RTVSPost2010Prop37
 90
       50
102
RTVSPost2010PropOp37
 70
     1
102
RTVSPost2010Prop38
140
0.0
102
RTVSPost2010PropOp38
 70
     1
102
RTVSPost2010Prop39
140
1.0
102
RTVSPost2010PropOp39
 70
     1
102
RTVSPost2010Prop40
 90
        0
102
RTVSPost2010PropOp40
 70
     1
102
RTVSPost2010Prop41ColorIndex
 90
       18
102
RTVSPost2010Prop41ColorRGB
 90
        0
102
RTVSPost2010PropOp41
 70
     1
102
RTVSPost2010Prop42
 90
       50
102
RTVSPost2010PropOp42
 70
     1
102
RTVSPost2010Prop43
 90
        3
102
RTVSPost2010PropOp43
 70
     1
102
RTVSPost2010Prop44ColorIndex
 90
        5
102
RTVSPost2010Prop44ColorRGB
 90
      255
102
RTVSPost2010PropOp44
 70
     1
102
RTVSPost2010Prop45
280
     0
102
RTVSPost2010PropOp45
 70
     1
102
RTVSPost2010Prop46
 90
       50
102
RTVSPost2010PropOp46
 70
     1
102
RTVSPost2010Prop47
 90
       50
102
RTVSPost2010PropOp47
 70
     1
102
RTVSPost2010Prop48
 90
       50
102
RTVSPost2010PropOp48
 70
     1
102
RTVSPost2010Prop49
280
     0
102
RTVSPost2010PropOp49
 70
     1
102
RTVSPost2010Prop50
 90
       50
102
RTVSPost2010PropOp50
 70
     1
102
RTVSPost2010Prop51ColorIndex
 90
      256
102
RTVSPost2010Prop51ColorRGB
 90
-16777216
102
RTVSPost2010PropOp51
 70
     0
102
RTVSPost2010Prop52
140
1.0
102
RTVSPost2010PropOp52
 70
     0
102
RTVSPost2010Prop53
 90
        2
102
RTVSPost2010PropOp53
 70
     1
102
RTVSPost2010Prop54
  1
strokes_ogs.tif
102
RTVSPost2010PropOp54
 70
     1
102
RTVSPost2010Prop55
280
     0
102
RTVSPost2010PropOp55
 70
     1
102
RTVSPost2010Prop56
140
1.0
102
RTVSPost2010PropOp56
 70
     1
102
RTVSPost2010Prop57
140
1.0
102
RTVSPost2010PropOp57
 70
     1
  0
XRECORD
  5
49A
102
{ACAD_REACTORS
330
499
102
}
330
499
100
AcDbXrecord
280
     1
102
RTVSPropertyOp0
 70
     1
102
RTVSPropertyOp1
 70
     1
102
RTVSPropertyOp2
 70
     1
102
RTVSPropertyOp3
 70
     1
102
RTVSPropertyOp4
 70
     1
102
RTVSPropertyOp5
 70
     1
102
RTVSPropertyOp6
 70
     1
102
RTVSPropertyOp7
 70
     1
102
RTVSPropertyOp8
 70
     1
102
RTVSPropertyOp9
 70
     1
102
RTVSPropertyOp10
 70
     1
102
RTVSPropertyOp11
 70
     1
102
RTVSPropertyOp12
 70
     1
102
RTVSPropertyOp13
 70
     1
102
RTVSPropertyOp14
 70
     1
102
RTVSPropertyOp15
 70
     1
102
RTVSPropertyOp16
 70
     1
102
RTVSPropertyOp17
 70
     1
102
RTVSPropertyOp18
 70
     1
102
RTVSPropertyOp19
 70
     1
102
RTVSPropertyOp20
 70
     1
102
RTVSPropertyOp21
 70
     1
102
RTVSPropertyOp22
 70
     1
102
RTVSPropertyOp23
 70
     1
102
RTVSPropertyOp24
 70
     1
102
RTVSPropertyOp25
 70
     1
102
RTVSPropertyOp26
 70
     1
102
RTVSPropertyOp27
 70
     1
102
RTVSPropertyOp28
 70
     1
102
RTVSPropertyOp29
 70
     1
102
RTVSPropertyOp30
 70
     1
102
RTVSPropertyOp31
 70
     1
102
RTVSPropertyOp32
 70
     1
102
RTVSPropertyOp33
 70
     1
102
RTVSPropertyOp34
 70
     1
102
RTVSPropertyOp35
 70
     1
102
RTVSPropertyOp36
 70
     1
102
RTVSPropertyOp37
 70
     1
102
RTVSPropertyOp38
 70
     1
102
RTVSPropertyOp39
 70
     1
102
RTVSPropertyOp40
 70
     1
102
RTVSPropertyOp41
 70
     1
102
RTVSPropertyOp42
 70
     1
102
RTVSPropertyOp43
 70
     1
102
RTVSPropertyOp44
 70
     1
102
RTVSPropertyOp45
 70
     1
102
RTVSPropertyOp46
 70
     1
102
RTVSPropertyOp47
 70
     1
102
RTVSPropertyOp48
 70
     1
102
RTVSPropertyOp49
 70
     1
102
RTVSPropertyOp50
 70
     1
102
RTVSPropertyOp51
 70
     0
102
RTVSPropertyOp52
 70
     0
102
RTVSPropertyOp53
 70
     1
102
RTVSPropertyOp54
 70
     1
102
RTVSPropertyOp55
 70
     1
102
RTVSPropertyOp56
 70
     1
102
RTVSPropertyOp57
 70
     1
102
RTVSPost2010Prop28
280
     0
102
RTVSPost2010PropOp28
 70
     1
102
RTVSPost2010Prop29
280
     1
102
RTVSPost2010PropOp29
 70
     1
102
RTVSPost2010Prop30
280
     1
102
RTVSPost2010PropOp30
 70
     1
102
RTVSPost2010Prop31
280
     0
102
RTVSPost2010PropOp31
 70
     1
102
RTVSPost2010Prop32
280
     0
102
RTVSPost2010PropOp32
 70
     1
102
RTVSPost2010Prop33
280
     0
102
RTVSPost2010PropOp33
 70
     1
102
RTVSPost2010Prop34
280
     0
102
RTVSPost2010PropOp34
 70
     1
102
RTVSPost2010Prop35
280
     0
102
RTVSPost2010PropOp35
 70
     1
102
RTVSPost2010Prop36
280
     0
102
RTVSPost2010PropOp36
 70
     1
102
RTVSPost2010Prop37
 90
       50
102
RTVSPost2010PropOp37
 70
     1
102
RTVSPost2010Prop38
140
0.0
102
RTVSPost2010PropOp38
 70
     1
102
RTVSPost2010Prop39
140
1.0
102
RTVSPost2010PropOp39
 70
     1
102
RTVSPost2010Prop40
 90
        0
102
RTVSPost2010PropOp40
 70
     1
102
RTVSPost2010Prop41ColorIndex
 90
       18
102
RTVSPost2010Prop41ColorRGB
 90
        0
102
RTVSPost2010PropOp41
 70
     1
102
RTVSPost2010Prop42
 90
       50
102
RTVSPost2010PropOp42
 70
     1
102
RTVSPost2010Prop43
 90
        3
102
RTVSPost2010PropOp43
 70
     1
102
RTVSPost2010Prop44ColorIndex
 90
        5
102
RTVSPost2010Prop44ColorRGB
 90
      255
102
RTVSPost2010PropOp44
 70
     1
102
RTVSPost2010Prop45
280
     0
102
RTVSPost2010PropOp45
 70
     1
102
RTVSPost2010Prop46
 90
       50
102
RTVSPost2010PropOp46
 70
     1
102
RTVSPost2010Prop47
 90
       50
102
RTVSPost2010PropOp47
 70
     1
102
RTVSPost2010Prop48
 90
       50
102
RTVSPost2010PropOp48
 70
     1
102
RTVSPost2010Prop49
280
     0
102
RTVSPost2010PropOp49
 70
     1
102
RTVSPost2010Prop50
 90
       50
102
RTVSPost2010PropOp50
 70
     1
102
RTVSPost2010Prop51ColorIndex
 90
      256
102
RTVSPost2010Prop51ColorRGB
 90
-16777216
102
RTVSPost2010PropOp51
 70
     0
102
RTVSPost2010Prop52
140
1.0
102
RTVSPost2010PropOp52
 70
     0
102
RTVSPost2010Prop53
 90
        2
102
RTVSPost2010PropOp53
 70
     1
102
RTVSPost2010Prop54
  1
strokes_ogs.tif
102
RTVSPost2010PropOp54
 70
     1
102
RTVSPost2010Prop55
280
     0
102
RTVSPost2010PropOp55
 70
     1
102
RTVSPost2010Prop56
140
1.0
102
RTVSPost2010PropOp56
 70
     1
102
RTVSPost2010Prop57
140
1.0
102
RTVSPost2010PropOp57
 70
     1
  0
XRECORD
  5
48A
102
{ACAD_REACTORS
330
489
102
}
330
489
100
AcDbXrecord
280
     1
102
RTVSPropertyOp0
 70
     1
102
RTVSPropertyOp1
 70
     1
102
RTVSPropertyOp2
 70
     1
102
RTVSPropertyOp3
 70
     1
102
RTVSPropertyOp4
 70
     1
102
RTVSPropertyOp5
 70
     1
102
RTVSPropertyOp6
 70
     1
102
RTVSPropertyOp7
 70
     1
102
RTVSPropertyOp8
 70
     1
102
RTVSPropertyOp9
 70
     1
102
RTVSPropertyOp10
 70
     1
102
RTVSPropertyOp11
 70
     1
102
RTVSPropertyOp12
 70
     1
102
RTVSPropertyOp13
 70
     1
102
RTVSPropertyOp14
 70
     1
102
RTVSPropertyOp15
 70
     1
102
RTVSPropertyOp16
 70
     1
102
RTVSPropertyOp17
 70
     1
102
RTVSPropertyOp18
 70
     1
102
RTVSPropertyOp19
 70
     1
102
RTVSPropertyOp20
 70
     1
102
RTVSPropertyOp21
 70
     1
102
RTVSPropertyOp22
 70
     1
102
RTVSPropertyOp23
 70
     1
102
RTVSPropertyOp24
 70
     1
102
RTVSPropertyOp25
 70
     1
102
RTVSPropertyOp26
 70
     1
102
RTVSPropertyOp27
 70
     1
102
RTVSPropertyOp28
 70
     1
102
RTVSPropertyOp29
 70
     1
102
RTVSPropertyOp30
 70
     1
102
RTVSPropertyOp31
 70
     1
102
RTVSPropertyOp32
 70
     1
102
RTVSPropertyOp33
 70
     1
102
RTVSPropertyOp34
 70
     1
102
RTVSPropertyOp35
 70
     1
102
RTVSPropertyOp36
 70
     1
102
RTVSPropertyOp37
 70
     1
102
RTVSPropertyOp38
 70
     1
102
RTVSPropertyOp39
 70
     1
102
RTVSPropertyOp40
 70
     1
102
RTVSPropertyOp41
 70
     1
102
RTVSPropertyOp42
 70
     1
102
RTVSPropertyOp43
 70
     1
102
RTVSPropertyOp44
 70
     1
102
RTVSPropertyOp45
 70
     1
102
RTVSPropertyOp46
 70
     1
102
RTVSPropertyOp47
 70
     1
102
RTVSPropertyOp48
 70
     1
102
RTVSPropertyOp49
 70
     1
102
RTVSPropertyOp50
 70
     1
102
RTVSPropertyOp51
 70
     0
102
RTVSPropertyOp52
 70
     0
102
RTVSPropertyOp53
 70
     1
102
RTVSPropertyOp54
 70
     1
102
RTVSPropertyOp55
 70
     1
102
RTVSPropertyOp56
 70
     1
102
RTVSPropertyOp57
 70
     1
102
RTVSPost2010Prop28
280
     0
102
RTVSPost2010PropOp28
 70
     1
102
RTVSPost2010Prop29
280
     1
102
RTVSPost2010PropOp29
 70
     1
102
RTVSPost2010Prop30
280
     1
102
RTVSPost2010PropOp30
 70
     1
102
RTVSPost2010Prop31
280
     0
102
RTVSPost2010PropOp31
 70
     1
102
RTVSPost2010Prop32
280
     0
102
RTVSPost2010PropOp32
 70
     1
102
RTVSPost2010Prop33
280
     0
102
RTVSPost2010PropOp33
 70
     1
102
RTVSPost2010Prop34
280
     0
102
RTVSPost2010PropOp34
 70
     1
102
RTVSPost2010Prop35
280
     0
102
RTVSPost2010PropOp35
 70
     1
102
RTVSPost2010Prop36
280
     0
102
RTVSPost2010PropOp36
 70
     1
102
RTVSPost2010Prop37
 90
       50
102
RTVSPost2010PropOp37
 70
     1
102
RTVSPost2010Prop38
140
0.0
102
RTVSPost2010PropOp38
 70
     1
102
RTVSPost2010Prop39
140
1.0
102
RTVSPost2010PropOp39
 70
     1
102
RTVSPost2010Prop40
 90
        0
102
RTVSPost2010PropOp40
 70
     1
102
RTVSPost2010Prop41ColorIndex
 90
       18
102
RTVSPost2010Prop41ColorRGB
 90
        0
102
RTVSPost2010PropOp41
 70
     1
102
RTVSPost2010Prop42
 90
       50
102
RTVSPost2010PropOp42
 70
     1
102
RTVSPost2010Prop43
 90
        3
102
RTVSPost2010PropOp43
 70
     1
102
RTVSPost2010Prop44ColorIndex
 90
        5
102
RTVSPost2010Prop44ColorRGB
 90
      255
102
RTVSPost2010PropOp44
 70
     1
102
RTVSPost2010Prop45
280
     0
102
RTVSPost2010PropOp45
 70
     1
102
RTVSPost2010Prop46
 90
       50
102
RTVSPost2010PropOp46
 70
     1
102
RTVSPost2010Prop47
 90
       50
102
RTVSPost2010PropOp47
 70
     1
102
RTVSPost2010Prop48
 90
       50
102
RTVSPost2010PropOp48
 70
     1
102
RTVSPost2010Prop49
280
     0
102
RTVSPost2010PropOp49
 70
     1
102
RTVSPost2010Prop50
 90
       50
102
RTVSPost2010PropOp50
 70
     1
102
RTVSPost2010Prop51ColorIndex
 90
      256
102
RTVSPost2010Prop51ColorRGB
 90
-16777216
102
RTVSPost2010PropOp51
 70
     0
102
RTVSPost2010Prop52
140
1.0
102
RTVSPost2010PropOp52
 70
     0
102
RTVSPost2010Prop53
 90
        2
102
RTVSPost2010PropOp53
 70
     1
102
RTVSPost2010Prop54
  1
strokes_ogs.tif
102
RTVSPost2010PropOp54
 70
     1
102
RTVSPost2010Prop55
280
     0
102
RTVSPost2010PropOp55
 70
     1
102
RTVSPost2010Prop56
140
1.0
102
RTVSPost2010PropOp56
 70
     1
102
RTVSPost2010Prop57
140
1.0
102
RTVSPost2010PropOp57
 70
     1
  0
XRECORD
  5
47C
102
{ACAD_REACTORS
330
47B
102
}
330
47B
100
AcDbXrecord
280
     1
102
RTVSPropertyOp0
 70
     1
102
RTVSPropertyOp1
 70
     1
102
RTVSPropertyOp2
 70
     1
102
RTVSPropertyOp3
 70
     1
102
RTVSPropertyOp4
 70
     1
102
RTVSPropertyOp5
 70
     1
102
RTVSPropertyOp6
 70
     1
102
RTVSPropertyOp7
 70
     1
102
RTVSPropertyOp8
 70
     1
102
RTVSPropertyOp9
 70
     1
102
RTVSPropertyOp10
 70
     1
102
RTVSPropertyOp11
 70
     1
102
RTVSPropertyOp12
 70
     1
102
RTVSPropertyOp13
 70
     1
102
RTVSPropertyOp14
 70
     1
102
RTVSPropertyOp15
 70
     1
102
RTVSPropertyOp16
 70
     1
102
RTVSPropertyOp17
 70
     1
102
RTVSPropertyOp18
 70
     1
102
RTVSPropertyOp19
 70
     1
102
RTVSPropertyOp20
 70
     1
102
RTVSPropertyOp21
 70
     1
102
RTVSPropertyOp22
 70
     1
102
RTVSPropertyOp23
 70
     1
102
RTVSPropertyOp24
 70
     1
102
RTVSPropertyOp25
 70
     1
102
RTVSPropertyOp26
 70
     1
102
RTVSPropertyOp27
 70
     1
102
RTVSPropertyOp28
 70
     1
102
RTVSPropertyOp29
 70
     1
102
RTVSPropertyOp30
 70
     1
102
RTVSPropertyOp31
 70
     1
102
RTVSPropertyOp32
 70
     1
102
RTVSPropertyOp33
 70
     1
102
RTVSPropertyOp34
 70
     1
102
RTVSPropertyOp35
 70
     1
102
RTVSPropertyOp36
 70
     1
102
RTVSPropertyOp37
 70
     1
102
RTVSPropertyOp38
 70
     1
102
RTVSPropertyOp39
 70
     1
102
RTVSPropertyOp40
 70
     1
102
RTVSPropertyOp41
 70
     1
102
RTVSPropertyOp42
 70
     1
102
RTVSPropertyOp43
 70
     1
102
RTVSPropertyOp44
 70
     1
102
RTVSPropertyOp45
 70
     1
102
RTVSPropertyOp46
 70
     1
102
RTVSPropertyOp47
 70
     1
102
RTVSPropertyOp48
 70
     1
102
RTVSPropertyOp49
 70
     1
102
RTVSPropertyOp50
 70
     1
102
RTVSPropertyOp51
 70
     0
102
RTVSPropertyOp52
 70
     0
102
RTVSPropertyOp53
 70
     1
102
RTVSPropertyOp54
 70
     1
102
RTVSPropertyOp55
 70
     1
102
RTVSPropertyOp56
 70
     1
102
RTVSPropertyOp57
 70
     1
102
RTVSPost2010Prop28
280
     0
102
RTVSPost2010PropOp28
 70
     1
102
RTVSPost2010Prop29
280
     1
102
RTVSPost2010PropOp29
 70
     1
102
RTVSPost2010Prop30
280
     1
102
RTVSPost2010PropOp30
 70
     1
102
RTVSPost2010Prop31
280
     0
102
RTVSPost2010PropOp31
 70
     1
102
RTVSPost2010Prop32
280
     0
102
RTVSPost2010PropOp32
 70
     1
102
RTVSPost2010Prop33
280
     0
102
RTVSPost2010PropOp33
 70
     1
102
RTVSPost2010Prop34
280
     0
102
RTVSPost2010PropOp34
 70
     1
102
RTVSPost2010Prop35
280
     0
102
RTVSPost2010PropOp35
 70
     1
102
RTVSPost2010Prop36
280
     0
102
RTVSPost2010PropOp36
 70
     1
102
RTVSPost2010Prop37
 90
       50
102
RTVSPost2010PropOp37
 70
     1
102
RTVSPost2010Prop38
140
0.0
102
RTVSPost2010PropOp38
 70
     1
102
RTVSPost2010Prop39
140
1.0
102
RTVSPost2010PropOp39
 70
     1
102
RTVSPost2010Prop40
 90
        0
102
RTVSPost2010PropOp40
 70
     1
102
RTVSPost2010Prop41ColorIndex
 90
       18
102
RTVSPost2010Prop41ColorRGB
 90
        0
102
RTVSPost2010PropOp41
 70
     1
102
RTVSPost2010Prop42
 90
       50
102
RTVSPost2010PropOp42
 70
     1
102
RTVSPost2010Prop43
 90
        3
102
RTVSPost2010PropOp43
 70
     1
102
RTVSPost2010Prop44ColorIndex
 90
        5
102
RTVSPost2010Prop44ColorRGB
 90
      255
102
RTVSPost2010PropOp44
 70
     1
102
RTVSPost2010Prop45
280
     0
102
RTVSPost2010PropOp45
 70
     1
102
RTVSPost2010Prop46
 90
       50
102
RTVSPost2010PropOp46
 70
     1
102
RTVSPost2010Prop47
 90
       50
102
RTVSPost2010PropOp47
 70
     1
102
RTVSPost2010Prop48
 90
       50
102
RTVSPost2010PropOp48
 70
     1
102
RTVSPost2010Prop49
280
     0
102
RTVSPost2010PropOp49
 70
     1
102
RTVSPost2010Prop50
 90
       50
102
RTVSPost2010PropOp50
 70
     1
102
RTVSPost2010Prop51ColorIndex
 90
      256
102
RTVSPost2010Prop51ColorRGB
 90
-16777216
102
RTVSPost2010PropOp51
 70
     0
102
RTVSPost2010Prop52
140
1.0
102
RTVSPost2010PropOp52
 70
     0
102
RTVSPost2010Prop53
 90
        2
102
RTVSPost2010PropOp53
 70
     1
102
RTVSPost2010Prop54
  1
strokes_ogs.tif
102
RTVSPost2010PropOp54
 70
     1
102
RTVSPost2010Prop55
280
     0
102
RTVSPost2010PropOp55
 70
     1
102
RTVSPost2010Prop56
140
1.0
102
RTVSPost2010PropOp56
 70
     1
102
RTVSPost2010Prop57
140
1.0
102
RTVSPost2010PropOp57
 70
     1
  0
XRECORD
  5
49C
102
{ACAD_REACTORS
330
49B
102
}
330
49B
100
AcDbXrecord
280
     1
102
RTVSPropertyOp0
 70
     1
102
RTVSPropertyOp1
 70
     1
102
RTVSPropertyOp2
 70
     1
102
RTVSPropertyOp3
 70
     1
102
RTVSPropertyOp4
 70
     1
102
RTVSPropertyOp5
 70
     1
102
RTVSPropertyOp6
 70
     1
102
RTVSPropertyOp7
 70
     1
102
RTVSPropertyOp8
 70
     1
102
RTVSPropertyOp9
 70
     1
102
RTVSPropertyOp10
 70
     1
102
RTVSPropertyOp11
 70
     1
102
RTVSPropertyOp12
 70
     1
102
RTVSPropertyOp13
 70
     1
102
RTVSPropertyOp14
 70
     1
102
RTVSPropertyOp15
 70
     1
102
RTVSPropertyOp16
 70
     1
102
RTVSPropertyOp17
 70
     1
102
RTVSPropertyOp18
 70
     1
102
RTVSPropertyOp19
 70
     1
102
RTVSPropertyOp20
 70
     1
102
RTVSPropertyOp21
 70
     1
102
RTVSPropertyOp22
 70
     1
102
RTVSPropertyOp23
 70
     1
102
RTVSPropertyOp24
 70
     1
102
RTVSPropertyOp25
 70
     1
102
RTVSPropertyOp26
 70
     1
102
RTVSPropertyOp27
 70
     1
102
RTVSPropertyOp28
 70
     1
102
RTVSPropertyOp29
 70
     1
102
RTVSPropertyOp30
 70
     1
102
RTVSPropertyOp31
 70
     1
102
RTVSPropertyOp32
 70
     1
102
RTVSPropertyOp33
 70
     1
102
RTVSPropertyOp34
 70
     1
102
RTVSPropertyOp35
 70
     1
102
RTVSPropertyOp36
 70
     1
102
RTVSPropertyOp37
 70
     1
102
RTVSPropertyOp38
 70
     1
102
RTVSPropertyOp39
 70
     1
102
RTVSPropertyOp40
 70
     1
102
RTVSPropertyOp41
 70
     1
102
RTVSPropertyOp42
 70
     1
102
RTVSPropertyOp43
 70
     1
102
RTVSPropertyOp44
 70
     1
102
RTVSPropertyOp45
 70
     1
102
RTVSPropertyOp46
 70
     1
102
RTVSPropertyOp47
 70
     1
102
RTVSPropertyOp48
 70
     1
102
RTVSPropertyOp49
 70
     1
102
RTVSPropertyOp50
 70
     1
102
RTVSPropertyOp51
 70
     0
102
RTVSPropertyOp52
 70
     0
102
RTVSPropertyOp53
 70
     1
102
RTVSPropertyOp54
 70
     1
102
RTVSPropertyOp55
 70
     1
102
RTVSPropertyOp56
 70
     1
102
RTVSPropertyOp57
 70
     1
102
RTVSPost2010Prop28
280
     0
102
RTVSPost2010PropOp28
 70
     1
102
RTVSPost2010Prop29
280
     1
102
RTVSPost2010PropOp29
 70
     1
102
RTVSPost2010Prop30
280
     1
102
RTVSPost2010PropOp30
 70
     1
102
RTVSPost2010Prop31
280
     0
102
RTVSPost2010PropOp31
 70
     1
102
RTVSPost2010Prop32
280
     0
102
RTVSPost2010PropOp32
 70
     1
102
RTVSPost2010Prop33
280
     0
102
RTVSPost2010PropOp33
 70
     1
102
RTVSPost2010Prop34
280
     0
102
RTVSPost2010PropOp34
 70
     1
102
RTVSPost2010Prop35
280
     0
102
RTVSPost2010PropOp35
 70
     1
102
RTVSPost2010Prop36
280
     0
102
RTVSPost2010PropOp36
 70
     1
102
RTVSPost2010Prop37
 90
       50
102
RTVSPost2010PropOp37
 70
     1
102
RTVSPost2010Prop38
140
0.0
102
RTVSPost2010PropOp38
 70
     1
102
RTVSPost2010Prop39
140
1.0
102
RTVSPost2010PropOp39
 70
     1
102
RTVSPost2010Prop40
 90
        0
102
RTVSPost2010PropOp40
 70
     1
102
RTVSPost2010Prop41ColorIndex
 90
       18
102
RTVSPost2010Prop41ColorRGB
 90
        0
102
RTVSPost2010PropOp41
 70
     1
102
RTVSPost2010Prop42
 90
       50
102
RTVSPost2010PropOp42
 70
     1
102
RTVSPost2010Prop43
 90
        3
102
RTVSPost2010PropOp43
 70
     1
102
RTVSPost2010Prop44ColorIndex
 90
        5
102
RTVSPost2010Prop44ColorRGB
 90
      255
102
RTVSPost2010PropOp44
 70
     1
102
RTVSPost2010Prop45
280
     0
102
RTVSPost2010PropOp45
 70
     1
102
RTVSPost2010Prop46
 90
       50
102
RTVSPost2010PropOp46
 70
     1
102
RTVSPost2010Prop47
 90
       50
102
RTVSPost2010PropOp47
 70
     1
102
RTVSPost2010Prop48
 90
       50
102
RTVSPost2010PropOp48
 70
     1
102
RTVSPost2010Prop49
280
     0
102
RTVSPost2010PropOp49
 70
     1
102
RTVSPost2010Prop50
 90
       50
102
RTVSPost2010PropOp50
 70
     1
102
RTVSPost2010Prop51ColorIndex
 90
      256
102
RTVSPost2010Prop51ColorRGB
 90
-16777216
102
RTVSPost2010PropOp51
 70
     0
102
RTVSPost2010Prop52
140
1.0
102
RTVSPost2010PropOp52
 70
     0
102
RTVSPost2010Prop53
 90
        2
102
RTVSPost2010PropOp53
 70
     1
102
RTVSPost2010Prop54
  1
strokes_ogs.tif
102
RTVSPost2010PropOp54
 70
     1
102
RTVSPost2010Prop55
280
     0
102
RTVSPost2010PropOp55
 70
     1
102
RTVSPost2010Prop56
140
1.0
102
RTVSPost2010PropOp56
 70
     1
102
RTVSPost2010Prop57
140
1.0
102
RTVSPost2010PropOp57
 70
     1
  0
ENDSEC
  0
EOF
