  0
SECTION
  2
HEADER
  9
$ACADVER
  1
AC1015
  9
$ACADMAINTVER
 70
     6
  9
$DWGCODEPAGE
  3
ANSI_932
  9
$INSBASE
 10
-909.2870734149614
 20
1048.664652054114
 30
0.0
  9
$EXTMIN
 10
-522.3479302229864
 20
-136.7008389097236
 30
0.0
  9
$EXTMAX
 10
11.65206977701359
 20
603.2991610902764
 30
0.0
  9
$LIMMIN
 10
-522.3479302229864
 20
-136.7008389097236
  9
$LIMMAX
 10
11.65206977701359
 20
603.2991610902764
  9
$ORTHOMODE
 70
     0
  9
$REGENMODE
 70
     0
  9
$FILLMODE
 70
     1
  9
$QTEXTMODE
 70
     0
  9
$MIRRTEXT
 70
     1
  9
$LTSCALE
 40
2.0
  9
$ATTMODE
 70
     1
  9
$TEXTSIZE
 40
8.0
  9
$TRACEWID
 40
0.05
  9
$TEXTSTYLE
  7
Standard
  9
$CLAYER
  8
1
  9
$CELTYPE
  6
Continuous
  9
$CECOLOR
 62
     7
  9
$CELTSCALE
 40
1.0
  9
$DISPSILH
 70
     0
  9
$DIMSCALE
 40
2.0
  9
$DIMASZ
 40
3.0
  9
$DIMEXO
 40
1.0
  9
$DIMDLI
 40
10.0
  9
$DIMRND
 40
0.0
  9
$DIMDLE
 40
1.0
  9
$DIMEXE
 40
1.0
  9
$DIMTP
 40
0.0
  9
$DIMTM
 40
0.0
  9
$DIMTXT
 40
4.0
  9
$DIMCEN
 40
0.09
  9
$DIMTSZ
 40
0.0
  9
$DIMTOL
 70
     0
  9
$DIMLIM
 70
     0
  9
$DIMTIH
 70
     0
  9
$DIMTOH
 70
     0
  9
$DIMSE1
 70
     0
  9
$DIMSE2
 70
     0
  9
$DIMTAD
 70
     1
  9
$DIMZIN
 70
     8
  9
$DIMBLK
  1
OPEN30
  9
$DIMASO
 70
     1
  9
$DIMSHO
 70
     0
  9
$DIMPOST
  1

  9
$DIMAPOST
  1

  9
$DIMALT
 70
     0
  9
$DIMALTD
 70
     3
  9
$DIMALTF
 40
25.4
  9
$DIMLFAC
 40
1.0
  9
$DIMTOFL
 70
     0
  9
$DIMTVP
 40
0.0
  9
$DIMTIX
 70
     0
  9
$DIMSOXD
 70
     0
  9
$DIMSAH
 70
     0
  9
$DIMBLK1
  1

  9
$DIMBLK2
  1

  9
$DIMSTYLE
  2
Standard
  9
$DIMCLRD
 70
     1
  9
$DIMCLRE
 70
     1
  9
$DIMCLRT
 70
     7
  9
$DIMTFAC
 40
0.5
  9
$DIMGAP
 40
0.0
  9
$DIMJUST
 70
     0
  9
$DIMSD1
 70
     0
  9
$DIMSD2
 70
     0
  9
$DIMTOLJ
 70
     1
  9
$DIMTZIN
 70
     0
  9
$DIMALTZ
 70
     0
  9
$DIMALTTZ
 70
     0
  9
$DIMUPT
 70
     0
  9
$DIMDEC
 70
     3
  9
$DIMTDEC
 70
     4
  9
$DIMALTU
 70
     2
  9
$DIMALTTD
 70
     2
  9
$DIMTXSTY
  7
Standard
  9
$DIMAUNIT
 70
     0
  9
$DIMADEC
 70
     3
  9
$DIMALTRND
 40
0.0
  9
$DIMAZIN
 70
     2
  9
$DIMDSEP
 70
    46
  9
$DIMATFIT
 70
     3
  9
$DIMFRAC
 70
     0
  9
$DIMLDRBLK
  1
OPEN30
  9
$DIMLUNIT
 70
     2
  9
$DIMLWD
 70
    -1
  9
$DIMLWE
 70
    -1
  9
$DIMTMOVE
 70
     0
  9
$LUNITS
 70
     2
  9
$LUPREC
 70
     4
  9
$SKETCHINC
 40
0.1
  9
$FILLETRAD
 40
0.0
  9
$AUNITS
 70
     0
  9
$AUPREC
 70
     0
  9
$MENU
  1
ACAD
  9
$ELEVATION
 40
0.0
  9
$PELEVATION
 40
0.0
  9
$THICKNESS
 40
0.0
  9
$LIMCHECK
 70
     0
  9
$CHAMFERA
 40
0.0
  9
$CHAMFERB
 40
0.0
  9
$CHAMFERC
 40
0.0
  9
$CHAMFERD
 40
0.0
  9
$SKPOLY
 70
     0
  9
$TDCREATE
 40
2419699.375
  9
$TDUCREATE
 40
2419699.0
  9
$TDUPDATE
 40
2459261.564536158
  9
$TDUUPDATE
 40
2459261.189536158
  9
$TDINDWG
 40
0.0
  9
$TDUSRTIMER
 40
0.0
  9
$USRTIMER
 70
     1
  9
$ANGBASE
 50
0.0
  9
$ANGDIR
 70
     0
  9
$PDMODE
 70
    65
  9
$PDSIZE
 40
0.2
  9
$PLINEWID
 40
0.0
  9
$SPLFRAME
 70
     0
  9
$SPLINETYPE
 70
     6
  9
$SPLINESEGS
 70
     8
  9
$HANDSEED
  5
3DE
  9
$SURFTAB1
 70
     6
  9
$SURFTAB2
 70
     6
  9
$SURFTYPE
 70
     6
  9
$SURFU
 70
     6
  9
$SURFV
 70
     6
  9
$UCSBASE
  2

  9
$UCSNAME
  2

  9
$UCSORG
 10
0.0
 20
0.0
 30
0.0
  9
$UCSXDIR
 10
1.0
 20
0.0
 30
0.0
  9
$UCSYDIR
 10
0.0
 20
1.0
 30
0.0
  9
$UCSORTHOREF
  2

  9
$UCSORTHOVIEW
 70
     0
  9
$UCSORGTOP
 10
0.0
 20
0.0
 30
0.0
  9
$UCSORGBOTTOM
 10
0.0
 20
0.0
 30
0.0
  9
$UCSORGLEFT
 10
0.0
 20
0.0
 30
0.0
  9
$UCSORGRIGHT
 10
0.0
 20
0.0
 30
0.0
  9
$UCSORGFRONT
 10
0.0
 20
0.0
 30
0.0
  9
$UCSORGBACK
 10
0.0
 20
0.0
 30
0.0
  9
$PUCSBASE
  2

  9
$PUCSNAME
  2

  9
$PUCSORG
 10
0.0
 20
0.0
 30
0.0
  9
$PUCSXDIR
 10
1.0
 20
0.0
 30
0.0
  9
$PUCSYDIR
 10
0.0
 20
1.0
 30
0.0
  9
$PUCSORTHOREF
  2

  9
$PUCSORTHOVIEW
 70
     0
  9
$PUCSORGTOP
 10
0.0
 20
0.0
 30
0.0
  9
$PUCSORGBOTTOM
 10
0.0
 20
0.0
 30
0.0
  9
$PUCSORGLEFT
 10
0.0
 20
0.0
 30
0.0
  9
$PUCSORGRIGHT
 10
0.0
 20
0.0
 30
0.0
  9
$PUCSORGFRONT
 10
0.0
 20
0.0
 30
0.0
  9
$PUCSORGBACK
 10
0.0
 20
0.0
 30
0.0
  9
$USERI1
 70
     0
  9
$USERI2
 70
     0
  9
$USERI3
 70
     0
  9
$USERI4
 70
     0
  9
$USERI5
 70
     0
  9
$USERR1
 40
0.0
  9
$USERR2
 40
0.0
  9
$USERR3
 40
0.0
  9
$USERR4
 40
0.0
  9
$USERR5
 40
0.0
  9
$WORLDVIEW
 70
     1
  9
$SHADEDGE
 70
     3
  9
$SHADEDIF
 70
    70
  9
$TILEMODE
 70
     1
  9
$MAXACTVP
 70
    64
  9
$PINSBASE
 10
0.0
 20
0.0
 30
0.0
  9
$PLIMCHECK
 70
     0
  9
$PEXTMIN
 10
1.000000000000000E+20
 20
1.000000000000000E+20
 30
1.000000000000000E+20
  9
$PEXTMAX
 10
-1.000000000000000E+20
 20
-1.000000000000000E+20
 30
-1.000000000000000E+20
  9
$PLIMMIN
 10
0.0
 20
0.0
  9
$PLIMMAX
 10
12.0
 20
9.0
  9
$UNITMODE
 70
     0
  9
$VISRETAIN
 70
     1
  9
$PLINEGEN
 70
     0
  9
$PSLTSCALE
 70
     1
  9
$TREEDEPTH
 70
  3020
  9
$CMLSTYLE
  2
Standard
  9
$CMLJUST
 70
     0
  9
$CMLSCALE
 40
1.0
  9
$PROXYGRAPHICS
 70
     1
  9
$MEASUREMENT
 70
     0
  9
$CELWEIGHT
370
    -1
  9
$ENDCAPS
280
     0
  9
$JOINSTYLE
280
     0
  9
$LWDISPLAY
290
     0
  9
$INSUNITS
 70
     1
  9
$HYPERLINKBASE
  1

  9
$STYLESHEET
  1

  9
$XEDIT
290
     1
  9
$CEPSNTYPE
380
     0
  9
$PSTYLEMODE
290
     1
  9
$FINGERPRINTGUID
  2
{15F1167D-8381-46D1-B5B7-1CD81633519C}
  9
$VERSIONGUID
  2
{FAEB1C32-E019-11D5-929B-00C0DF256EC4}
  9
$EXTNAMES
290
     1
  9
$PSVPSCALE
 40
0.0
  9
$OLESTARTUP
290
     0
  0
ENDSEC
  0
SECTION
  2
CLASSES
  0
CLASS
  1
ACDBDICTIONARYWDFLT
  2
AcDbDictionaryWithDefault
  3
ObjectDBX Classes
 90
        0
280
     0
281
     0
  0
CLASS
  1
VISUALSTYLE
  2
AcDbVisualStyle
  3
ObjectDBX Classes
 90
     4095
280
     0
281
     0
  0
CLASS
  1
MATERIAL
  2
AcDbMaterial
  3
ObjectDBX Classes
 90
     1153
280
     0
281
     0
  0
CLASS
  1
SCALE
  2
AcDbScale
  3
ObjectDBX Classes
 90
     1153
280
     0
281
     0
  0
CLASS
  1
TABLESTYLE
  2
AcDbTableStyle
  3
ObjectDBX Classes
 90
     4095
280
     0
281
     0
  0
CLASS
  1
MLEADERSTYLE
  2
AcDbMLeaderStyle
  3
ACDB_MLEADERSTYLE_CLASS
 90
     4095
280
     0
281
     0
  0
CLASS
  1
SUN
  2
AcDbSun
  3
SCENEOE
 90
     1153
280
     0
281
     0
  0
CLASS
  1
DICTIONARYVAR
  2
AcDbDictionaryVar
  3
ObjectDBX Classes
 90
        0
280
     0
281
     0
  0
CLASS
  1
ACDBPLACEHOLDER
  2
AcDbPlaceHolder
  3
ObjectDBX Classes
 90
        0
280
     0
281
     0
  0
CLASS
  1
LAYOUT
  2
AcDbLayout
  3
ObjectDBX Classes
 90
        0
280
     0
281
     0
  0
ENDSEC
  0
SECTION
  2
TABLES
  0
TABLE
  2
VPORT
  5
8
102
{ACAD_XDICTIONARY
360
3A1
102
}
330
0
100
AcDbSymbolTable
 70
     1
  0
VPORT
  5
29
330
8
100
AcDbSymbolTableRecord
100
AcDbViewportTableRecord
  2
*Active
 70
     0
 10
0.0
 20
0.0
 11
1.0
 21
1.0
 12
267.0
 22
370.0
 13
0.0
 23
0.0
 14
0.5
 24
0.5
 15
0.5
 25
0.5
 16
0.0
 26
0.0
 36
1.0
 17
0.0
 27
0.0
 37
0.0
 40
740.0
 41
0.7216216216216216
 42
50.0
 43
0.0
 44
0.0
 50
0.0
 51
0.0
 71
     0
 72
   100
 73
     1
 74
     3
 75
     0
 76
     0
 77
     0
 78
     0
281
     0
 65
     1
110
0.0
120
0.0
130
0.0
111
1.0
121
0.0
131
0.0
112
0.0
122
1.0
132
0.0
 79
     0
146
0.0
  0
ENDTAB
  0
TABLE
  2
LTYPE
  5
5
330
0
100
AcDbSymbolTable
 70
    17
  0
LTYPE
  5
14
330
5
100
AcDbSymbolTableRecord
100
AcDbLinetypeTableRecord
  2
ByBlock
 70
     0
  3

 72
    65
 73
     0
 40
0.0
  0
LTYPE
  5
15
330
5
100
AcDbSymbolTableRecord
100
AcDbLinetypeTableRecord
  2
ByLayer
 70
     0
  3

 72
    65
 73
     0
 40
0.0
  0
LTYPE
  5
16
330
5
100
AcDbSymbolTableRecord
100
AcDbLinetypeTableRecord
  2
Continuous
 70
     0
  3
Solid line
 72
    65
 73
     0
 40
0.0
  0
LTYPE
  5
6E
330
5
100
AcDbSymbolTableRecord
100
AcDbLinetypeTableRecord
  2
DIVIDE
 70
     0
  3
Divide ____ . . ____ . . ____ . . ____ . . ____
 72
    65
 73
     6
 40
1.25
 49
0.5
 74
     0
 49
-0.25
 74
     0
 49
0.0
 74
     0
 49
-0.25
 74
     0
 49
0.0
 74
     0
 49
-0.25
 74
     0
  0
LTYPE
  5
6F
330
5
100
AcDbSymbolTableRecord
100
AcDbLinetypeTableRecord
  2
HIDDEN
 70
     0
  3
Hidden __ __ __ __ __ __ __ __ __ __ __ __ __ _
 72
    65
 73
     2
 40
9.525
 49
6.35
 74
     0
 49
-3.175
 74
     0
  0
LTYPE
  5
70
330
5
100
AcDbSymbolTableRecord
100
AcDbLinetypeTableRecord
  2
HIDDEN2
 70
     0
  3
Hidden (.5x) _ _ _ _ _ _ _ _ _ _ _ _ _ _ _ _ _
 72
    65
 73
     2
 40
4.7625
 49
3.175
 74
     0
 49
-1.5875
 74
     0
  0
LTYPE
  5
71
330
5
100
AcDbSymbolTableRecord
100
AcDbLinetypeTableRecord
  2
CENTER2
 70
     0
  3
Center (.5x) ___ _ ___ _ ___ _ ___ _ ___ _ ___
 72
    65
 73
     4
 40
28.575
 49
19.05
 74
     0
 49
-3.175
 74
     0
 49
3.175
 74
     0
 49
-3.175
 74
     0
  0
LTYPE
  5
72
330
5
100
AcDbSymbolTableRecord
100
AcDbLinetypeTableRecord
  2
PHANTOM2
 70
     0
  3
Phantom (.5x) ___ _ _ ___ _ _ ___ _ _ ___ _ _
 72
    65
 73
     6
 40
31.75
 49
15.875
 74
     0
 49
-3.175
 74
     0
 49
3.175
 74
     0
 49
-3.175
 74
     0
 49
3.175
 74
     0
 49
-3.175
 74
     0
  0
LTYPE
  5
73
330
5
100
AcDbSymbolTableRecord
100
AcDbLinetypeTableRecord
  2
DASHED
 70
     0
  3
Dashed __ __ __ __ __ __ __ __ __ __ __ __ __ _
 72
    65
 73
     2
 40
19.05
 49
12.7
 74
     0
 49
-6.35
 74
     0
  0
LTYPE
  5
74
330
5
100
AcDbSymbolTableRecord
100
AcDbLinetypeTableRecord
  2
CENTER
 70
     0
  3
Center ____ _ ____ _ ____ _ ____ _ ____ _ ____
 72
    65
 73
     4
 40
50.8
 49
31.75
 74
     0
 49
-6.35
 74
     0
 49
6.35
 74
     0
 49
-6.35
 74
     0
  0
LTYPE
  5
75
330
5
100
AcDbSymbolTableRecord
100
AcDbLinetypeTableRecord
  2
PHANTOM
 70
     0
  3
Phantom ______  __  __  ______  __  __  ______
 72
    65
 73
     6
 40
63.5
 49
31.75
 74
     0
 49
-6.35
 74
     0
 49
6.35
 74
     0
 49
-6.35
 74
     0
 49
6.35
 74
     0
 49
-6.35
 74
     0
  0
LTYPE
  5
76
330
5
100
AcDbSymbolTableRecord
100
AcDbLinetypeTableRecord
  2
BORDER2
 70
     0
  3
Border (.5x) __.__.__.__.__.__.__.__.__.__.__.
 72
    65
 73
     6
 40
22.225
 49
6.35
 74
     0
 49
-3.175
 74
     0
 49
6.35
 74
     0
 49
-3.175
 74
     0
 49
0.0
 74
     0
 49
-3.175
 74
     0
  0
LTYPE
  5
77
330
5
100
AcDbSymbolTableRecord
100
AcDbLinetypeTableRecord
  2
HIDDENX2
 70
     0
  3
Hidden (2x) ____ ____ ____ ____ ____ ____ ____
 72
    65
 73
     2
 40
19.05
 49
12.7
 74
     0
 49
-6.35
 74
     0
  0
LTYPE
  5
78
330
5
100
AcDbSymbolTableRecord
100
AcDbLinetypeTableRecord
  2
DOTX2
 70
     0
  3
Dot (2x) .  .  .  .  .  .  .  .  .  .  .  .  . 
 72
    65
 73
     2
 40
12.7
 49
0.0
 74
     0
 49
-12.7
 74
     0
  0
LTYPE
  5
79
330
5
100
AcDbSymbolTableRecord
100
AcDbLinetypeTableRecord
  2
DASHDOTX2
 70
     0
  3
Dash dot (2x) ____  .  ____  .  ____  .  ___
 72
    65
 73
     4
 40
50.8
 49
25.4
 74
     0
 49
-12.7
 74
     0
 49
0.0
 74
     0
 49
-12.7
 74
     0
  0
LTYPE
  5
7A
330
5
100
AcDbSymbolTableRecord
100
AcDbLinetypeTableRecord
  2
DIVIDEX2
 70
     0
  3
Divide (2x) ________  .  .  ________  .  .  _
 72
    65
 73
     6
 40
63.5
 49
25.4
 74
     0
 49
-12.7
 74
     0
 49
0.0
 74
     0
 49
-12.7
 74
     0
 49
0.0
 74
     0
 49
-12.7
 74
     0
  0
LTYPE
  5
7B
330
5
100
AcDbSymbolTableRecord
100
AcDbLinetypeTableRecord
  2
DASHEDX2
 70
     0
  3
Dashed (2x) ____  ____  ____  ____  ____  ___
 72
    65
 73
     2
 40
38.1
 49
25.4
 74
     0
 49
-12.7
 74
     0
  0
LTYPE
  5
7C
330
5
100
AcDbSymbolTableRecord
100
AcDbLinetypeTableRecord
  2
CENTERX2
 70
     0
  3
Center (2x) ________  __  ________  __  _____
 72
    65
 73
     4
 40
101.6
 49
63.5
 74
     0
 49
-12.7
 74
     0
 49
12.7
 74
     0
 49
-12.7
 74
     0
  0
LTYPE
  5
7D
330
5
100
AcDbSymbolTableRecord
100
AcDbLinetypeTableRecord
  2
PHANTOMX2
 70
     0
  3
Phantom (2x) ____________    ____    ____   _
 72
    65
 73
     6
 40
127.0
 49
63.5
 74
     0
 49
-12.7
 74
     0
 49
12.7
 74
     0
 49
-12.7
 74
     0
 49
12.7
 74
     0
 49
-12.7
 74
     0
  0
ENDTAB
  0
TABLE
  2
LAYER
  5
2
330
0
100
AcDbSymbolTable
 70
     4
  0
LAYER
  5
10
330
2
100
AcDbSymbolTableRecord
100
AcDbLayerTableRecord
  2
0
 70
     0
 62
     7
  6
Continuous
370
    -3
390
F
  0
LAYER
  5
7E
330
2
100
AcDbSymbolTableRecord
100
AcDbLayerTableRecord
  2
1
 70
     0
 62
     7
  6
Continuous
370
     0
390
F
  0
LAYER
  5
7F
330
2
100
AcDbSymbolTableRecord
100
AcDbLayerTableRecord
  2
2
 70
     0
 62
     7
  6
Continuous
370
     0
390
F
  0
LAYER
  5
80
330
2
100
AcDbSymbolTableRecord
100
AcDbLayerTableRecord
  2
DEFPOINTS
 70
     0
 62
     3
  6
DIVIDE
290
     0
370
     0
390
F
  0
ENDTAB
  0
TABLE
  2
STYLE
  5
3
330
0
100
AcDbSymbolTable
 70
    10
  0
STYLE
  5
11
330
3
100
AcDbSymbolTableRecord
100
AcDbTextStyleTableRecord
  2
Standard
 70
     0
 40
0.0
 41
0.8
 50
0.0
 71
     0
 42
8.0
  3
MONOTXT.shx
  4
EXTFONT.shx
  0
STYLE
  5
81
330
3
100
AcDbSymbolTableRecord
100
AcDbTextStyleTableRecord
  2
DIMSTANDARD
 70
     0
 40
0.0
 41
0.5
 50
0.0
 71
     0
 42
8.0
  3
MONOTXT.shx
  4
EXTFONT.shx
  0
STYLE
  5
BE
330
3
100
AcDbSymbolTableRecord
100
AcDbTextStyleTableRecord
  2
MTSTANDARD
 70
     0
 40
0.0
 41
1.0
 50
0.0
 71
     0
 42
8.0
  3
MONOTXT.shx
  4
EXTFONT.shx
  0
STYLE
  5
ED
330
3
100
AcDbSymbolTableRecord
100
AcDbTextStyleTableRecord
  2
MTSTANDARD1
 70
     0
 40
0.0
 41
1.0
 50
0.0
 71
     0
 42
8.0
  3
MONOTXT.shx
  4
EXTFONT.shx
  0
STYLE
  5
123
330
3
100
AcDbSymbolTableRecord
100
AcDbTextStyleTableRecord
  2
MTSTANDARD2
 70
     0
 40
0.0
 41
0.75
 50
0.0
 71
     0
 42
8.0
  3
MONOTXT.shx
  4
EXTFONT.shx
  0
STYLE
  5
19F
330
3
100
AcDbSymbolTableRecord
100
AcDbTextStyleTableRecord
  2
MTSTANDARD3
 70
     0
 40
0.0
 41
1.0
 50
0.0
 71
     0
 42
8.0
  3
MONOTXT.shx
  4
EXTFONT.shx
  0
STYLE
  5
1AA
330
3
100
AcDbSymbolTableRecord
100
AcDbTextStyleTableRecord
  2
MTSTANDARD4
 70
     0
 40
0.0
 41
1.0
 50
0.0
 71
     0
 42
8.0
  3
MONOTXT.shx
  4
EXTFONT.shx
  0
STYLE
  5
1AC
330
3
100
AcDbSymbolTableRecord
100
AcDbTextStyleTableRecord
  2
MTSTANDARD5
 70
     0
 40
0.0
 41
1.0
 50
0.0
 71
     0
 42
8.0
  3
MONOTXT.shx
  4
EXTFONT.shx
  0
STYLE
  5
1C4
330
3
100
AcDbSymbolTableRecord
100
AcDbTextStyleTableRecord
  2
MTSTANDARD6
 70
     0
 40
0.0
 41
1.0
 50
0.0
 71
     0
 42
8.0
  3
MONOTXT.shx
  4
EXTFONT.shx
  0
STYLE
  5
290
330
3
100
AcDbSymbolTableRecord
100
AcDbTextStyleTableRecord
  2
MTSTANDARD7
 70
     0
 40
0.0
 41
1.0
 50
0.0
 71
     0
 42
8.0
  3
MONOTXT.shx
  4
EXTFONT.shx
  0
ENDTAB
  0
TABLE
  2
VIEW
  5
6
330
0
100
AcDbSymbolTable
 70
     0
  0
ENDTAB
  0
TABLE
  2
UCS
  5
7
330
0
100
AcDbSymbolTable
 70
     0
  0
ENDTAB
  0
TABLE
  2
APPID
  5
9
330
0
100
AcDbSymbolTable
 70
     2
  0
APPID
  5
12
330
9
100
AcDbSymbolTableRecord
100
AcDbRegAppTableRecord
  2
ACAD
 70
     0
  0
APPID
  5
3DB
330
9
100
AcDbSymbolTableRecord
100
AcDbRegAppTableRecord
  2
ACAD_MLEADERVER
 70
     0
  0
ENDTAB
  0
TABLE
  2
DIMSTYLE
  5
A
330
0
100
AcDbSymbolTable
 70
     4
100
AcDbDimStyleTable
  0
DIMSTYLE
105
27
330
A
100
AcDbSymbolTableRecord
100
AcDbDimStyleTableRecord
  2
Standard
 70
     0
 40
2.0
 41
3.0
 42
1.0
 43
10.0
 44
1.0
 73
     0
 74
     0
 77
     3
 78
     8
 79
     2
140
4.0
141
0.0
146
0.5
147
0.0
176
     1
177
     1
271
     3
178
     7
179
     3
271
     3
340
11
342
86
371
    -1
372
    -1
  0
DIMSTYLE
105
128
102
{ACAD_REACTORS
330
129
330
136
330
151
330
15E
330
16B
330
178
102
}
330
A
100
AcDbSymbolTableRecord
100
AcDbDimStyleTableRecord
  2
DIMSTYEX_1
 70
     0
 40
2.0
 41
2.0
 42
1.0
 43
7.0
 44
1.0
 73
     0
 74
     0
 77
     3
 78
     8
 79
     2
140
3.584
141
0.0
146
0.5
147
0.0
173
     1
176
     3
177
     3
271
     3
178
     2
179
     3
271
     3
272
     3
340
81
342
86
343
86
344
86
371
    -1
372
    -1
  0
DIMSTYLE
105
143
102
{ACAD_REACTORS
330
144
102
}
330
A
100
AcDbSymbolTableRecord
100
AcDbDimStyleTableRecord
  2
DIMSTYEX_2
 70
     0
 40
2.0
 41
2.0
 42
1.0
 43
7.0
 44
1.0
 73
     0
 74
     0
 77
     3
 78
     8
 79
     2
140
3.584
141
0.0
146
0.5
147
1.0
173
     1
176
     3
177
     3
271
     3
178
     2
179
     3
271
     3
272
     3
340
81
342
86
343
86
344
86
371
    -1
372
    -1
  0
DIMSTYLE
105
17E
330
A
100
AcDbSymbolTableRecord
100
AcDbDimStyleTableRecord
  2
DIMSTYEX_3
 70
     0
 40
2.0
 41
2.0
 42
1.0
 43
10.0
 44
1.0
 73
     0
 74
     0
 77
     3
 78
     8
 79
     2
140
4.0
141
0.0
146
0.5
147
0.0
176
     3
177
     3
271
     3
178
     2
179
     3
271
     3
340
11
341
86
342
86
371
    -1
372
    -1
  0
ENDTAB
  0
TABLE
  2
BLOCK_RECORD
  5
1
330
0
100
AcDbSymbolTable
 70
    28
  0
BLOCK_RECORD
  5
1F
330
1
100
AcDbSymbolTableRecord
100
AcDbBlockTableRecord
  2
*Model_Space
340
22
  0
BLOCK_RECORD
  5
1B
330
1
100
AcDbSymbolTableRecord
100
AcDbBlockTableRecord
  2
*Paper_Space
340
1E
  0
BLOCK_RECORD
  5
82
330
1
100
AcDbSymbolTableRecord
100
AcDbBlockTableRecord
  2
_SMALL
340
0
  0
BLOCK_RECORD
  5
86
330
1
100
AcDbSymbolTableRecord
100
AcDbBlockTableRecord
  2
_OPEN30
340
0
102
{BLKREFS
331
11F
331
120
331
12E
331
12F
331
13B
331
13C
331
149
331
14A
331
156
331
157
331
163
331
164
331
170
331
171
102
}
  0
BLOCK_RECORD
  5
8C
330
1
100
AcDbSymbolTableRecord
100
AcDbBlockTableRecord
  2
_OBLIQUE
340
0
  0
BLOCK_RECORD
  5
90
330
1
100
AcDbSymbolTableRecord
100
AcDbBlockTableRecord
  2
_DOT
340
0
  0
BLOCK_RECORD
  5
94
330
1
100
AcDbSymbolTableRecord
100
AcDbBlockTableRecord
  2
_DOTSMALL
340
0
  0
BLOCK_RECORD
  5
98
330
1
100
AcDbSymbolTableRecord
100
AcDbBlockTableRecord
  2
_DATUMFILLED
340
0
  0
BLOCK_RECORD
  5
9C
330
1
100
AcDbSymbolTableRecord
100
AcDbBlockTableRecord
  2
DATUMFILLED2
340
0
  0
BLOCK_RECORD
  5
A0
330
1
100
AcDbSymbolTableRecord
100
AcDbBlockTableRecord
  2
_DATUMBLANK
340
0
  0
BLOCK_RECORD
  5
A6
330
1
100
AcDbSymbolTableRecord
100
AcDbBlockTableRecord
  2
DATUMBLANK2
340
0
  0
BLOCK_RECORD
  5
AC
330
1
100
AcDbSymbolTableRecord
100
AcDbBlockTableRecord
  2
_NONE
340
0
  0
BLOCK_RECORD
  5
C3
330
1
100
AcDbSymbolTableRecord
100
AcDbBlockTableRecord
  2
MAKR0
340
0
102
{BLKREFS
331
C8
102
}
  0
BLOCK_RECORD
  5
C9
330
1
100
AcDbSymbolTableRecord
100
AcDbBlockTableRecord
  2
MAKR1
340
0
102
{BLKREFS
331
CE
102
}
  0
BLOCK_RECORD
  5
CF
330
1
100
AcDbSymbolTableRecord
100
AcDbBlockTableRecord
  2
MAKR2
340
0
102
{BLKREFS
331
D4
102
}
  0
BLOCK_RECORD
  5
11B
330
1
100
AcDbSymbolTableRecord
100
AcDbBlockTableRecord
  2
_D1
340
0
  0
BLOCK_RECORD
  5
12A
330
1
100
AcDbSymbolTableRecord
100
AcDbBlockTableRecord
  2
_D2
340
0
  0
BLOCK_RECORD
  5
137
330
1
100
AcDbSymbolTableRecord
100
AcDbBlockTableRecord
  2
_D3
340
0
  0
BLOCK_RECORD
  5
145
330
1
100
AcDbSymbolTableRecord
100
AcDbBlockTableRecord
  2
_D4
340
0
  0
BLOCK_RECORD
  5
152
330
1
100
AcDbSymbolTableRecord
100
AcDbBlockTableRecord
  2
_D5
340
0
  0
BLOCK_RECORD
  5
15F
330
1
100
AcDbSymbolTableRecord
100
AcDbBlockTableRecord
  2
_D6
340
0
  0
BLOCK_RECORD
  5
16C
330
1
100
AcDbSymbolTableRecord
100
AcDbBlockTableRecord
  2
_D7
340
0
  0
BLOCK_RECORD
  5
179
330
1
100
AcDbSymbolTableRecord
100
AcDbBlockTableRecord
  2
BALN0
340
0
102
{BLKREFS
331
180
102
}
  0
BLOCK_RECORD
  5
181
330
1
100
AcDbSymbolTableRecord
100
AcDbBlockTableRecord
  2
BALN1
340
0
102
{BLKREFS
331
187
102
}
  0
BLOCK_RECORD
  5
188
330
1
100
AcDbSymbolTableRecord
100
AcDbBlockTableRecord
  2
BALN2
340
0
102
{BLKREFS
331
18E
102
}
  0
BLOCK_RECORD
  5
18F
330
1
100
AcDbSymbolTableRecord
100
AcDbBlockTableRecord
  2
BLK0
340
0
102
{BLKREFS
331
1B9
102
}
  0
BLOCK_RECORD
  5
1C7
330
1
100
AcDbSymbolTableRecord
100
AcDbBlockTableRecord
  2
BLK1
340
0
102
{BLKREFS
331
2E4
102
}
  0
BLOCK_RECORD
  5
2E5
330
1
100
AcDbSymbolTableRecord
100
AcDbBlockTableRecord
  2
BLK2
340
0
102
{BLKREFS
331
320
102
}
  0
BLOCK_RECORD
  5
36E
330
1
100
AcDbSymbolTableRecord
100
AcDbBlockTableRecord
  2
BLK3
340
0
102
{BLKREFS
331
37A
102
}
  0
ENDTAB
  0
ENDSEC
  0
SECTION
  2
BLOCKS
  0
BLOCK
  5
20
330
1F
100
AcDbEntity
  8
0
100
AcDbBlockBegin
  2
*Model_Space
 70
     0
 10
0.0
 20
0.0
 30
0.0
  3
*Model_Space
  1

  0
ENDBLK
  5
21
330
1F
100
AcDbEntity
  8
0
100
AcDbBlockEnd
  0
BLOCK
  5
1C
330
1B
100
AcDbEntity
 67
     1
  8
0
100
AcDbBlockBegin
  2
*Paper_Space
 70
     0
 10
0.0
 20
0.0
 30
0.0
  3
*Paper_Space
  1

  0
ENDBLK
  5
1D
330
1B
100
AcDbEntity
 67
     1
  8
0
100
AcDbBlockEnd
  0
BLOCK
  5
83
330
82
100
AcDbEntity
  8
0
100
AcDbBlockBegin
  2
_SMALL
 70
     0
 10
0.0
 20
0.0
 30
0.0
  3
_SMALL
  1

  0
CIRCLE
  5
85
330
82
100
AcDbEntity
  8
0
  6
ByBlock
 62
     0
370
    -2
100
AcDbCircle
 10
0.0
 20
0.0
 30
0.0
 40
0.1666666666
  0
CIRCLE
  5
38B
330
82
100
AcDbEntity
  8
0
  6
ByBlock
 62
     0
370
    -2
100
AcDbCircle
 10
0.0
 20
0.0
 30
0.0
 40
0.1666666666
  0
ENDBLK
  5
84
330
82
100
AcDbEntity
  8
0
100
AcDbBlockEnd
  0
BLOCK
  5
87
330
86
100
AcDbEntity
  8
0
100
AcDbBlockBegin
  2
_OPEN30
 70
     0
 10
0.0
 20
0.0
 30
0.0
  3
_OPEN30
  1

  0
LINE
  5
89
330
86
100
AcDbEntity
  8
0
  6
ByBlock
 62
     0
370
    -2
100
AcDbLine
 10
-1.0
 20
0.26794919
 30
0.0
 11
0.0
 21
0.0
 31
0.0
  0
LINE
  5
8A
330
86
100
AcDbEntity
  8
0
  6
ByBlock
 62
     0
370
    -2
100
AcDbLine
 10
0.0
 20
0.0
 30
0.0
 11
-1.0
 21
-0.26794919
 31
0.0
  0
LINE
  5
8B
330
86
100
AcDbEntity
  8
0
  6
ByBlock
 62
     0
370
    -2
100
AcDbLine
 10
0.0
 20
0.0
 30
0.0
 11
-1.0
 21
0.0
 31
0.0
  0
LINE
  5
38C
330
86
100
AcDbEntity
  8
0
  6
ByBlock
 62
     0
370
    -2
100
AcDbLine
 10
-1.0
 20
0.26794919
 30
0.0
 11
0.0
 21
0.0
 31
0.0
  0
LINE
  5
38D
330
86
100
AcDbEntity
  8
0
  6
ByBlock
 62
     0
370
    -2
100
AcDbLine
 10
0.0
 20
0.0
 30
0.0
 11
-1.0
 21
-0.26794919
 31
0.0
  0
LINE
  5
38E
330
86
100
AcDbEntity
  8
0
  6
ByBlock
 62
     0
370
    -2
100
AcDbLine
 10
0.0
 20
0.0
 30
0.0
 11
-1.0
 21
0.0
 31
0.0
  0
ENDBLK
  5
88
330
86
100
AcDbEntity
  8
0
100
AcDbBlockEnd
  0
BLOCK
  5
8D
330
8C
100
AcDbEntity
  8
0
100
AcDbBlockBegin
  2
_OBLIQUE
 70
     0
 10
0.0
 20
0.0
 30
0.0
  3
_OBLIQUE
  1

  0
LINE
  5
8F
330
8C
100
AcDbEntity
  8
0
  6
ByBlock
 62
     0
370
    -2
100
AcDbLine
 10
-0.5
 20
-0.5
 30
0.0
 11
0.5
 21
0.5
 31
0.0
  0
LINE
  5
38F
330
8C
100
AcDbEntity
  8
0
  6
ByBlock
 62
     0
370
    -2
100
AcDbLine
 10
-0.5
 20
-0.5
 30
0.0
 11
0.5
 21
0.5
 31
0.0
  0
ENDBLK
  5
8E
330
8C
100
AcDbEntity
  8
0
100
AcDbBlockEnd
  0
BLOCK
  5
91
330
90
100
AcDbEntity
  8
0
100
AcDbBlockBegin
  2
_DOT
 70
     0
 10
0.0
 20
0.0
 30
0.0
  3
_DOT
  1

  0
LWPOLYLINE
  5
93
330
90
100
AcDbEntity
  8
0
  6
ByBlock
 62
     0
370
    -2
100
AcDbPolyline
 90
        2
 70
     1
 43
0.5
 10
-0.25
 20
0.0
 42
1.0
 10
0.25
 20
0.0
 42
1.0
  0
LWPOLYLINE
  5
390
330
90
100
AcDbEntity
  8
0
  6
ByBlock
 62
     0
370
    -2
100
AcDbPolyline
 90
        2
 70
     1
 43
0.5
 10
-0.25
 20
0.0
 42
1.0
 10
0.25
 20
0.0
 42
1.0
  0
ENDBLK
  5
92
330
90
100
AcDbEntity
  8
0
100
AcDbBlockEnd
  0
BLOCK
  5
95
330
94
100
AcDbEntity
  8
0
100
AcDbBlockBegin
  2
_DOTSMALL
 70
     0
 10
0.0
 20
0.0
 30
0.0
  3
_DOTSMALL
  1

  0
LWPOLYLINE
  5
97
330
94
100
AcDbEntity
  8
0
  6
ByBlock
 62
     0
370
    -2
100
AcDbPolyline
 90
        2
 70
     1
 43
0.5
 10
-0.0625
 20
0.0
 42
1.0
 10
0.0625
 20
0.0
 42
1.0
  0
LWPOLYLINE
  5
391
330
94
100
AcDbEntity
  8
0
  6
ByBlock
 62
     0
370
    -2
100
AcDbPolyline
 90
        2
 70
     1
 43
0.5
 10
-0.0625
 20
0.0
 42
1.0
 10
0.0625
 20
0.0
 42
1.0
  0
ENDBLK
  5
96
330
94
100
AcDbEntity
  8
0
100
AcDbBlockEnd
  0
BLOCK
  5
99
330
98
100
AcDbEntity
  8
0
100
AcDbBlockBegin
  2
_DATUMFILLED
 70
     0
 10
0.0
 20
0.0
 30
0.0
  3
_DATUMFILLED
  1

  0
SOLID
  5
9B
330
98
100
AcDbEntity
  8
0
  6
ByBlock
 62
     0
370
    -2
100
AcDbTrace
 10
0.0
 20
0.57735027
 30
0.0
 11
-1.0
 21
0.0
 31
0.0
 12
0.0
 22
-0.57735027
 32
0.0
 13
0.0
 23
-0.57735027
 33
0.0
  0
SOLID
  5
392
330
98
100
AcDbEntity
  8
0
  6
ByBlock
 62
     0
370
    -2
100
AcDbTrace
 10
0.0
 20
0.57735027
 30
0.0
 11
-1.0
 21
0.0
 31
0.0
 12
0.0
 22
-0.57735027
 32
0.0
 13
0.0
 23
-0.57735027
 33
0.0
  0
ENDBLK
  5
9A
330
98
100
AcDbEntity
  8
0
100
AcDbBlockEnd
  0
BLOCK
  5
9D
330
9C
100
AcDbEntity
  8
0
100
AcDbBlockBegin
  2
DATUMFILLED2
 70
     0
 10
0.0
 20
0.0
 30
0.0
  3
DATUMFILLED2
  1

  0
SOLID
  5
9F
330
9C
100
AcDbEntity
  8
0
  6
ByBlock
 62
     0
370
    -2
100
AcDbTrace
 10
0.0
 20
1.0
 30
0.0
 11
-1.0
 21
0.0
 31
0.0
 12
0.0
 22
-1.0
 32
0.0
 13
0.0
 23
-1.0
 33
0.0
  0
SOLID
  5
393
330
9C
100
AcDbEntity
  8
0
  6
ByBlock
 62
     0
370
    -2
100
AcDbTrace
 10
0.0
 20
1.0
 30
0.0
 11
-1.0
 21
0.0
 31
0.0
 12
0.0
 22
-1.0
 32
0.0
 13
0.0
 23
-1.0
 33
0.0
  0
ENDBLK
  5
9E
330
9C
100
AcDbEntity
  8
0
100
AcDbBlockEnd
  0
BLOCK
  5
A1
330
A0
100
AcDbEntity
  8
0
100
AcDbBlockBegin
  2
_DATUMBLANK
 70
     0
 10
0.0
 20
0.0
 30
0.0
  3
_DATUMBLANK
  1

  0
LINE
  5
A3
330
A0
100
AcDbEntity
  8
0
  6
ByBlock
 62
     0
370
    -2
100
AcDbLine
 10
0.0
 20
0.57735027
 30
0.0
 11
-1.0
 21
0.0
 31
0.0
  0
LINE
  5
A4
330
A0
100
AcDbEntity
  8
0
  6
ByBlock
 62
     0
370
    -2
100
AcDbLine
 10
-1.0
 20
0.0
 30
0.0
 11
0.0
 21
-0.57735027
 31
0.0
  0
LINE
  5
A5
330
A0
100
AcDbEntity
  8
0
  6
ByBlock
 62
     0
370
    -2
100
AcDbLine
 10
0.0
 20
-0.57735027
 30
0.0
 11
0.0
 21
0.57735027
 31
0.0
  0
LINE
  5
394
330
A0
100
AcDbEntity
  8
0
  6
ByBlock
 62
     0
370
    -2
100
AcDbLine
 10
0.0
 20
0.57735027
 30
0.0
 11
-1.0
 21
0.0
 31
0.0
  0
LINE
  5
395
330
A0
100
AcDbEntity
  8
0
  6
ByBlock
 62
     0
370
    -2
100
AcDbLine
 10
-1.0
 20
0.0
 30
0.0
 11
0.0
 21
-0.57735027
 31
0.0
  0
LINE
  5
396
330
A0
100
AcDbEntity
  8
0
  6
ByBlock
 62
     0
370
    -2
100
AcDbLine
 10
0.0
 20
-0.57735027
 30
0.0
 11
0.0
 21
0.57735027
 31
0.0
  0
ENDBLK
  5
A2
330
A0
100
AcDbEntity
  8
0
100
AcDbBlockEnd
  0
BLOCK
  5
A7
330
A6
100
AcDbEntity
  8
0
100
AcDbBlockBegin
  2
DATUMBLANK2
 70
     0
 10
0.0
 20
0.0
 30
0.0
  3
DATUMBLANK2
  1

  0
LINE
  5
A9
330
A6
100
AcDbEntity
  8
0
  6
ByBlock
 62
     0
370
    -2
100
AcDbLine
 10
0.0
 20
1.0
 30
0.0
 11
-1.0
 21
0.0
 31
0.0
  0
LINE
  5
AA
330
A6
100
AcDbEntity
  8
0
  6
ByBlock
 62
     0
370
    -2
100
AcDbLine
 10
-1.0
 20
0.0
 30
0.0
 11
0.0
 21
-1.0
 31
0.0
  0
LINE
  5
AB
330
A6
100
AcDbEntity
  8
0
  6
ByBlock
 62
     0
370
    -2
100
AcDbLine
 10
0.0
 20
-1.0
 30
0.0
 11
0.0
 21
1.0
 31
0.0
  0
LINE
  5
397
330
A6
100
AcDbEntity
  8
0
  6
ByBlock
 62
     0
370
    -2
100
AcDbLine
 10
0.0
 20
1.0
 30
0.0
 11
-1.0
 21
0.0
 31
0.0
  0
LINE
  5
398
330
A6
100
AcDbEntity
  8
0
  6
ByBlock
 62
     0
370
    -2
100
AcDbLine
 10
-1.0
 20
0.0
 30
0.0
 11
0.0
 21
-1.0
 31
0.0
  0
LINE
  5
399
330
A6
100
AcDbEntity
  8
0
  6
ByBlock
 62
     0
370
    -2
100
AcDbLine
 10
0.0
 20
-1.0
 30
0.0
 11
0.0
 21
1.0
 31
0.0
  0
ENDBLK
  5
A8
330
A6
100
AcDbEntity
  8
0
100
AcDbBlockEnd
  0
BLOCK
  5
AD
330
AC
100
AcDbEntity
  8
0
100
AcDbBlockBegin
  2
_NONE
 70
     0
 10
0.0
 20
0.0
 30
0.0
  3
_NONE
  1

  0
ENDBLK
  5
AE
330
AC
100
AcDbEntity
  8
0
100
AcDbBlockEnd
  0
BLOCK
  5
C4
330
C3
100
AcDbEntity
  8
0
100
AcDbBlockBegin
  2
MAKR0
 70
     0
 10
-498.8725574137807
 20
-48.17527675948349
 30
0.0
  3
MAKR0
  1

  0
CIRCLE
  5
C6
330
C3
100
AcDbEntity
  8
1
  6
ByBlock
 62
     3
100
AcDbCircle
 10
-498.8725574137807
 20
-48.17527675948349
 30
0.0
 40
7.0
  0
MTEXT
  5
C7
330
C3
100
AcDbEntity
  8
1
  6
Continuous
 62
     2
100
AcDbMText
 10
-500.8725574137807
 20
-52.17527675948349
 30
0.0
 40
8.0
 41
0.0
 71
     7
 72
     5
  1
{\fＭＳ ゴシック|b0|i0|c128|p49;\W1.0;1}
  7
MTSTANDARD
 73
     1
 44
0.78125
  0
ENDBLK
  5
C5
330
C3
100
AcDbEntity
  8
0
100
AcDbBlockEnd
  0
BLOCK
  5
CA
330
C9
100
AcDbEntity
  8
0
100
AcDbBlockBegin
  2
MAKR1
 70
     0
 10
-498.8725574137807
 20
-64.1752767594835
 30
0.0
  3
MAKR1
  1

  0
CIRCLE
  5
CC
330
C9
100
AcDbEntity
  8
1
  6
ByBlock
 62
     3
100
AcDbCircle
 10
-498.8725574137807
 20
-64.1752767594835
 30
0.0
 40
7.0
  0
MTEXT
  5
CD
330
C9
100
AcDbEntity
  8
1
  6
Continuous
 62
     2
100
AcDbMText
 10
-500.8725574137807
 20
-68.1752767594835
 30
0.0
 40
8.0
 41
0.0
 71
     7
 72
     5
  1
{\fＭＳ ゴシック|b0|i0|c128|p49;\W1.0;2}
  7
MTSTANDARD
 73
     1
 44
0.78125
  0
ENDBLK
  5
CB
330
C9
100
AcDbEntity
  8
0
100
AcDbBlockEnd
  0
BLOCK
  5
D0
330
CF
100
AcDbEntity
  8
0
100
AcDbBlockBegin
  2
MAKR2
 70
     0
 10
-498.8725574137807
 20
-80.1752767594835
 30
0.0
  3
MAKR2
  1

  0
CIRCLE
  5
D2
330
CF
100
AcDbEntity
  8
1
  6
ByBlock
 62
     3
100
AcDbCircle
 10
-498.8725574137807
 20
-80.1752767594835
 30
0.0
 40
7.0
  0
MTEXT
  5
D3
330
CF
100
AcDbEntity
  8
1
  6
Continuous
 62
     2
100
AcDbMText
 10
-500.8725574137807
 20
-84.1752767594835
 30
0.0
 40
8.0
 41
0.0
 71
     7
 72
     5
  1
{\fＭＳ ゴシック|b0|i0|c128|p49;\W1.0;3}
  7
MTSTANDARD
 73
     1
 44
0.78125
  0
ENDBLK
  5
D1
330
CF
100
AcDbEntity
  8
0
100
AcDbBlockEnd
  0
BLOCK
  5
11C
330
11B
100
AcDbEntity
  8
0
100
AcDbBlockBegin
  2
_D1
 70
     0
 10
0.0
 20
0.0
 30
0.0
  3
_D1
  1

  0
LINE
  5
11E
330
11B
100
AcDbEntity
  8
1
  6
Continuous
 62
     3
100
AcDbLine
 10
-93.85758689532054
 20
245.2143713660153
 30
0.0
 11
-388.8575868953205
 21
245.2143713660153
 31
0.0
  0
INSERT
  5
11F
330
11B
100
AcDbEntity
  8
1
  6
Continuous
 62
     3
100
AcDbBlockReference
  2
_OPEN30
 10
-93.85758689532054
 20
245.2143713660153
 30
0.0
 41
3.939231012048836
 42
3.939231012048836
 43
3.939231012048836
  0
INSERT
  5
120
330
11B
100
AcDbEntity
  8
1
  6
Continuous
 62
     3
100
AcDbBlockReference
  2
_OPEN30
 10
-388.8575868953205
 20
245.2143713660153
 30
0.0
 41
3.939231012048822
 42
3.939231012048822
 43
3.939231012048822
 50
180.0
  0
LINE
  5
121
330
11B
100
AcDbEntity
  8
1
  6
Continuous
 62
     3
100
AcDbLine
 10
-93.85758689532054
 20
233.2143713660153
 30
0.0
 11
-93.85758689532054
 21
247.2143713660153
 31
0.0
  0
LINE
  5
122
330
11B
100
AcDbEntity
  8
1
  6
Continuous
 62
     3
100
AcDbLine
 10
-388.8575868953206
 20
233.2143713660153
 30
0.0
 11
-388.8575868953206
 21
247.2143713660153
 31
0.0
  0
MTEXT
  5
124
330
11B
100
AcDbEntity
  8
1
  6
Continuous
 62
     2
100
AcDbMText
 10
-265.9575868953206
 20
245.2143713660153
 30
0.0
 40
8.0
 41
0.0
 71
     7
 72
     5
  1
２９５ｘ１８５
  7
MTSTANDARD2
 73
     1
 44
0.8125
  0
POINT
  5
125
330
11B
100
AcDbEntity
  8
DEFPOINTS
  6
Continuous
 62
     3
100
AcDbPoint
 10
-93.85758689532054
 20
231.2143713660153
 30
0.0
  0
POINT
  5
126
330
11B
100
AcDbEntity
  8
DEFPOINTS
  6
Continuous
 62
     3
100
AcDbPoint
 10
-388.8575868953205
 20
231.2143713660153
 30
0.0
  0
POINT
  5
127
330
11B
100
AcDbEntity
  8
DEFPOINTS
  6
Continuous
 62
     3
100
AcDbPoint
 10
-388.8575868953205
 20
245.2143713660153
 30
0.0
  0
ENDBLK
  5
11D
330
11B
100
AcDbEntity
  8
0
100
AcDbBlockEnd
  0
BLOCK
  5
12B
330
12A
100
AcDbEntity
  8
0
100
AcDbBlockBegin
  2
_D2
 70
     0
 10
0.0
 20
0.0
 30
0.0
  3
_D2
  1

  0
LINE
  5
12D
330
12A
100
AcDbEntity
  8
1
  6
Continuous
 62
     3
100
AcDbLine
 10
-78.35758689532054
 20
259.2143713660153
 30
0.0
 11
-404.3575868953208
 21
259.2143713660153
 31
0.0
  0
INSERT
  5
12E
330
12A
100
AcDbEntity
  8
1
  6
Continuous
 62
     3
100
AcDbBlockReference
  2
_OPEN30
 10
-78.35758689532054
 20
259.2143713660153
 30
0.0
 41
3.939231012048836
 42
3.939231012048836
 43
3.939231012048836
  0
INSERT
  5
12F
330
12A
100
AcDbEntity
  8
1
  6
Continuous
 62
     3
100
AcDbBlockReference
  2
_OPEN30
 10
-404.3575868953208
 20
259.2143713660153
 30
0.0
 41
3.939231012048822
 42
3.939231012048822
 43
3.939231012048822
 50
180.0
  0
LINE
  5
130
330
12A
100
AcDbEntity
  8
1
  6
Continuous
 62
     3
100
AcDbLine
 10
-78.35758689532054
 20
233.2143713660153
 30
0.0
 11
-78.35758689532054
 21
261.2143713660153
 31
0.0
  0
LINE
  5
131
330
12A
100
AcDbEntity
  8
1
  6
Continuous
 62
     3
100
AcDbLine
 10
-404.3575868953208
 20
233.2143713660153
 30
0.0
 11
-404.3575868953207
 21
261.2143713660153
 31
0.0
  0
MTEXT
  5
132
330
12A
100
AcDbEntity
  8
1
  6
Continuous
 62
     2
100
AcDbMText
 10
-265.9575868953207
 20
259.2143713660153
 30
0.0
 40
8.0
 41
0.0
 71
     7
 72
     5
  1
３２６ｘ２１６
  7
MTSTANDARD2
 73
     1
 44
0.8125
  0
POINT
  5
133
330
12A
100
AcDbEntity
  8
DEFPOINTS
  6
Continuous
 62
     3
100
AcDbPoint
 10
-78.35758689532054
 20
231.2143713660153
 30
0.0
  0
POINT
  5
134
330
12A
100
AcDbEntity
  8
DEFPOINTS
  6
Continuous
 62
     3
100
AcDbPoint
 10
-404.3575868953208
 20
231.2143713660153
 30
0.0
  0
POINT
  5
135
330
12A
100
AcDbEntity
  8
DEFPOINTS
  6
Continuous
 62
     3
100
AcDbPoint
 10
-404.3575868953208
 20
259.2143713660153
 30
0.0
  0
ENDBLK
  5
12C
330
12A
100
AcDbEntity
  8
0
100
AcDbBlockEnd
  0
BLOCK
  5
138
330
137
100
AcDbEntity
  8
0
100
AcDbBlockBegin
  2
_D3
 70
     0
 10
0.0
 20
0.0
 30
0.0
  3
_D3
  1

  0
LINE
  5
13A
330
137
100
AcDbEntity
  8
1
  6
Continuous
 62
     3
100
AcDbLine
 10
-64.35758689532054
 20
231.2143713660153
 30
0.0
 11
-64.35758689532054
 21
218.2143713660153
 31
0.0
  0
INSERT
  5
13B
330
137
100
AcDbEntity
  8
1
  6
Continuous
 62
     3
100
AcDbBlockReference
  2
_OPEN30
 10
-64.35758689532054
 20
231.2143713660153
 30
0.0
 41
3.939231012048822
 42
3.939231012048822
 43
3.939231012048822
 50
90.0
  0
INSERT
  5
13C
330
137
100
AcDbEntity
  8
1
  6
Continuous
 62
     3
100
AcDbBlockReference
  2
_OPEN30
 10
-64.35758689532054
 20
218.2143713660153
 30
0.0
 41
3.939231012048822
 42
3.939231012048822
 43
3.939231012048822
 50
270.0
  0
LINE
  5
13D
330
137
100
AcDbEntity
  8
1
  6
Continuous
 62
     3
100
AcDbLine
 10
-76.35758689532054
 20
231.2143713660153
 30
0.0
 11
-62.35758689532054
 21
231.2143713660153
 31
0.0
  0
LINE
  5
13E
330
137
100
AcDbEntity
  8
1
  6
Continuous
 62
     3
100
AcDbLine
 10
-77.35758689532054
 20
218.2143713660153
 30
0.0
 11
-62.35758689532054
 21
218.2143713660153
 31
0.0
  0
MTEXT
  5
13F
330
137
100
AcDbEntity
  8
1
  6
Continuous
 62
     2
100
AcDbMText
 10
-54.35758689532054
 20
218.1143713660153
 30
0.0
 40
8.0
 41
0.0
 71
     7
 72
     5
  1
１３
  7
MTSTANDARD2
 11
0.0
 21
1.0
 31
0.0
 73
     1
 44
0.8125
  0
POINT
  5
140
330
137
100
AcDbEntity
  8
DEFPOINTS
  6
Continuous
 62
     3
100
AcDbPoint
 10
-78.35758689532054
 20
231.2143713660153
 30
0.0
  0
POINT
  5
141
330
137
100
AcDbEntity
  8
DEFPOINTS
  6
Continuous
 62
     3
100
AcDbPoint
 10
-79.35758689532054
 20
218.2143713660153
 30
0.0
  0
POINT
  5
142
330
137
100
AcDbEntity
  8
DEFPOINTS
  6
Continuous
 62
     3
100
AcDbPoint
 10
-64.35758689532054
 20
218.2143713660153
 30
0.0
  0
ENDBLK
  5
139
330
137
100
AcDbEntity
  8
0
100
AcDbBlockEnd
  0
BLOCK
  5
146
330
145
100
AcDbEntity
  8
0
100
AcDbBlockBegin
  2
_D4
 70
     0
 10
0.0
 20
0.0
 30
0.0
  3
_D4
  1

  0
LINE
  5
148
330
145
100
AcDbEntity
  8
1
  6
Continuous
 62
     3
100
AcDbLine
 10
-50.35758689532054
 20
231.2143713660153
 30
0.0
 11
-50.35758689532054
 21
81.21437136601526
 31
0.0
  0
INSERT
  5
149
330
145
100
AcDbEntity
  8
1
  6
Continuous
 62
     3
100
AcDbBlockReference
  2
_OPEN30
 10
-50.35758689532054
 20
231.2143713660153
 30
0.0
 41
3.939231012048822
 42
3.939231012048822
 43
3.939231012048822
 50
90.0
  0
INSERT
  5
14A
330
145
100
AcDbEntity
  8
1
  6
Continuous
 62
     3
100
AcDbBlockReference
  2
_OPEN30
 10
-50.35758689532054
 20
81.21437136601526
 30
0.0
 41
3.939231012048836
 42
3.939231012048836
 43
3.939231012048836
 50
270.0
  0
LINE
  5
14B
330
145
100
AcDbEntity
  8
1
  6
Continuous
 62
     3
100
AcDbLine
 10
-62.35758689532054
 20
231.2143713660153
 30
0.0
 11
-48.35758689532054
 21
231.2143713660153
 31
0.0
  0
LINE
  5
14C
330
145
100
AcDbEntity
  8
1
  6
Continuous
 62
     3
100
AcDbLine
 10
-84.35758689532054
 20
81.21437136601526
 30
0.0
 11
-48.35758689532054
 21
81.21437136601526
 31
0.0
  0
MTEXT
  5
14D
330
145
100
AcDbEntity
  8
1
  6
Continuous
 62
     2
100
AcDbMText
 10
-50.35758689532054
 20
146.0143713660153
 30
0.0
 40
8.0
 41
0.0
 71
     7
 72
     5
  1
１５０
  7
MTSTANDARD2
 11
0.0
 21
1.0
 31
0.0
 73
     1
 44
0.8125
  0
POINT
  5
14E
330
145
100
AcDbEntity
  8
DEFPOINTS
  6
Continuous
 62
     3
100
AcDbPoint
 10
-64.35758689532054
 20
231.2143713660153
 30
0.0
  0
POINT
  5
14F
330
145
100
AcDbEntity
  8
DEFPOINTS
  6
Continuous
 62
     3
100
AcDbPoint
 10
-86.35758689532054
 20
81.21437136601526
 30
0.0
  0
POINT
  5
150
330
145
100
AcDbEntity
  8
DEFPOINTS
  6
Continuous
 62
     3
100
AcDbPoint
 10
-50.35758689532054
 20
81.21437136601526
 30
0.0
  0
ENDBLK
  5
147
330
145
100
AcDbEntity
  8
0
100
AcDbBlockEnd
  0
BLOCK
  5
153
330
152
100
AcDbEntity
  8
0
100
AcDbBlockBegin
  2
_D5
 70
     0
 10
0.0
 20
0.0
 30
0.0
  3
_D5
  1

  0
LINE
  5
155
330
152
100
AcDbEntity
  8
1
  6
Continuous
 62
     3
100
AcDbLine
 10
-418.3575868953208
 20
81.21437136601526
 30
0.0
 11
-418.3575868953208
 21
141.2143713660153
 31
0.0
  0
INSERT
  5
156
330
152
100
AcDbEntity
  8
1
  6
Continuous
 62
     3
100
AcDbBlockReference
  2
_OPEN30
 10
-418.3575868953208
 20
81.21437136601526
 30
0.0
 41
3.939231012048836
 42
3.939231012048836
 43
3.939231012048836
 50
270.0
  0
INSERT
  5
157
330
152
100
AcDbEntity
  8
1
  6
Continuous
 62
     3
100
AcDbBlockReference
  2
_OPEN30
 10
-418.3575868953208
 20
141.2143713660153
 30
0.0
 41
3.939231012048822
 42
3.939231012048822
 43
3.939231012048822
 50
90.0
  0
LINE
  5
158
330
152
100
AcDbEntity
  8
1
  6
Continuous
 62
     3
100
AcDbLine
 10
-398.3575868953206
 20
81.21437136601526
 30
0.0
 11
-420.3575868953208
 21
81.21437136601526
 31
0.0
  0
LINE
  5
159
330
152
100
AcDbEntity
  8
1
  6
Continuous
 62
     3
100
AcDbLine
 10
-398.7955430997002
 20
141.2143713660153
 30
0.0
 11
-420.3575868953208
 21
141.2143713660153
 31
0.0
  0
MTEXT
  5
15A
330
152
100
AcDbEntity
  8
1
  6
Continuous
 62
     2
100
AcDbMText
 10
-418.3575868953208
 20
90.21437136601526
 30
0.0
 40
8.0
 41
0.0
 71
     7
 72
     5
  1
６０ｘ幅５０
  7
MTSTANDARD2
 11
0.0
 21
1.0
 31
0.0
 73
     1
 44
0.8125
  0
POINT
  5
15B
330
152
100
AcDbEntity
  8
DEFPOINTS
  6
Continuous
 62
     3
100
AcDbPoint
 10
-396.3575868953205
 20
81.21437136601526
 30
0.0
  0
POINT
  5
15C
330
152
100
AcDbEntity
  8
DEFPOINTS
  6
Continuous
 62
     3
100
AcDbPoint
 10
-396.7955430997001
 20
141.2143713660153
 30
0.0
  0
POINT
  5
15D
330
152
100
AcDbEntity
  8
DEFPOINTS
  6
Continuous
 62
     3
100
AcDbPoint
 10
-418.3575868953208
 20
141.2143713660153
 30
0.0
  0
ENDBLK
  5
154
330
152
100
AcDbEntity
  8
0
100
AcDbBlockEnd
  0
BLOCK
  5
160
330
15F
100
AcDbEntity
  8
0
100
AcDbBlockBegin
  2
_D6
 70
     0
 10
0.0
 20
0.0
 30
0.0
  3
_D6
  1

  0
LINE
  5
162
330
15F
100
AcDbEntity
  8
1
  6
Continuous
 62
     3
100
AcDbLine
 10
-90.35758689532054
 20
54.97089855586842
 30
0.0
 11
-392.3575868953205
 21
54.97089855586842
 31
0.0
  0
INSERT
  5
163
330
15F
100
AcDbEntity
  8
1
  6
Continuous
 62
     3
100
AcDbBlockReference
  2
_OPEN30
 10
-90.35758689532054
 20
54.97089855586842
 30
0.0
 41
3.939231012048836
 42
3.939231012048836
 43
3.939231012048836
  0
INSERT
  5
164
330
15F
100
AcDbEntity
  8
1
  6
Continuous
 62
     3
100
AcDbBlockReference
  2
_OPEN30
 10
-392.3575868953205
 20
54.97089855586842
 30
0.0
 41
3.939231012048822
 42
3.939231012048822
 43
3.939231012048822
 50
180.0
  0
LINE
  5
165
330
15F
100
AcDbEntity
  8
1
  6
Continuous
 62
     3
100
AcDbLine
 10
-90.35758689532054
 20
79.21437136601526
 30
0.0
 11
-90.35758689532054
 21
52.97089855586841
 31
0.0
  0
LINE
  5
166
330
15F
100
AcDbEntity
  8
1
  6
Continuous
 62
     3
100
AcDbLine
 10
-392.3575868953205
 20
79.21437136601526
 30
0.0
 11
-392.3575868953205
 21
52.97089855586841
 31
0.0
  0
MTEXT
  5
167
330
15F
100
AcDbEntity
  8
1
  6
Continuous
 62
     2
100
AcDbMText
 10
-265.9575868953206
 20
54.97089855586842
 30
0.0
 40
8.0
 41
0.0
 71
     7
 72
     5
  1
３０２ｘ１９２
  7
MTSTANDARD2
 73
     1
 44
0.8125
  0
POINT
  5
168
330
15F
100
AcDbEntity
  8
DEFPOINTS
  6
Continuous
 62
     3
100
AcDbPoint
 10
-90.35758689532054
 20
81.21437136601526
 30
0.0
  0
POINT
  5
169
330
15F
100
AcDbEntity
  8
DEFPOINTS
  6
Continuous
 62
     3
100
AcDbPoint
 10
-392.3575868953205
 20
81.21437136601526
 30
0.0
  0
POINT
  5
16A
330
15F
100
AcDbEntity
  8
DEFPOINTS
  6
Continuous
 62
     3
100
AcDbPoint
 10
-392.3575868953205
 20
54.97089855586842
 30
0.0
  0
ENDBLK
  5
161
330
15F
100
AcDbEntity
  8
0
100
AcDbBlockEnd
  0
BLOCK
  5
16D
330
16C
100
AcDbEntity
  8
0
100
AcDbBlockBegin
  2
_D7
 70
     0
 10
0.0
 20
0.0
 30
0.0
  3
_D7
  1

  0
LINE
  5
16F
330
16C
100
AcDbEntity
  8
1
  6
Continuous
 62
     3
100
AcDbLine
 10
-86.35758689532054
 20
40.97089855586842
 30
0.0
 11
-396.3575868953205
 21
40.97089855586842
 31
0.0
  0
INSERT
  5
170
330
16C
100
AcDbEntity
  8
1
  6
Continuous
 62
     3
100
AcDbBlockReference
  2
_OPEN30
 10
-86.35758689532054
 20
40.97089855586842
 30
0.0
 41
3.939231012048836
 42
3.939231012048836
 43
3.939231012048836
  0
INSERT
  5
171
330
16C
100
AcDbEntity
  8
1
  6
Continuous
 62
     3
100
AcDbBlockReference
  2
_OPEN30
 10
-396.3575868953205
 20
40.97089855586842
 30
0.0
 41
3.939231012048822
 42
3.939231012048822
 43
3.939231012048822
 50
180.0
  0
LINE
  5
172
330
16C
100
AcDbEntity
  8
1
  6
Continuous
 62
     3
100
AcDbLine
 10
-86.35758689532054
 20
79.21437136601526
 30
0.0
 11
-86.35758689532054
 21
38.97089855586842
 31
0.0
  0
LINE
  5
173
330
16C
100
AcDbEntity
  8
1
  6
Continuous
 62
     3
100
AcDbLine
 10
-396.3575868953205
 20
79.21437136601526
 30
0.0
 11
-396.3575868953206
 21
38.97089855586842
 31
0.0
  0
MTEXT
  5
174
330
16C
100
AcDbEntity
  8
1
  6
Continuous
 62
     2
100
AcDbMText
 10
-265.9575868953206
 20
40.97089855586842
 30
0.0
 40
8.0
 41
0.0
 71
     7
 72
     5
  1
３１０ｘ２００
  7
MTSTANDARD2
 73
     1
 44
0.8125
  0
POINT
  5
175
330
16C
100
AcDbEntity
  8
DEFPOINTS
  6
Continuous
 62
     3
100
AcDbPoint
 10
-86.35758689532054
 20
81.21437136601526
 30
0.0
  0
POINT
  5
176
330
16C
100
AcDbEntity
  8
DEFPOINTS
  6
Continuous
 62
     3
100
AcDbPoint
 10
-396.3575868953205
 20
81.21437136601526
 30
0.0
  0
POINT
  5
177
330
16C
100
AcDbEntity
  8
DEFPOINTS
  6
Continuous
 62
     3
100
AcDbPoint
 10
-396.3575868953205
 20
40.97089855586842
 30
0.0
  0
ENDBLK
  5
16E
330
16C
100
AcDbEntity
  8
0
100
AcDbBlockEnd
  0
BLOCK
  5
17A
330
179
100
AcDbEntity
  8
0
100
AcDbBlockBegin
  2
BALN0
 70
     0
 10
0.0
 20
0.0
 30
0.0
  3
BALN0
  1

  0
CIRCLE
  5
17C
330
179
100
AcDbEntity
  8
1
  6
Continuous
 62
     3
100
AcDbCircle
 10
-55.99373616821117
 20
55.99373616821117
 30
0.0
 40
8.0
  0
MTEXT
  5
17D
330
179
100
AcDbEntity
  8
1
  6
Continuous
 62
     2
100
AcDbMText
 10
-58.99373616821117
 20
51.99373616821117
 30
0.0
 40
8.0
 41
0.0
 71
     7
 72
     5
  1
１
  7
MTSTANDARD2
 73
     1
 44
0.8125
  0
LEADER
  5
17F
330
179
100
AcDbEntity
  8
1
  6
Continuous
 62
     3
100
AcDbLeader
  3
DIMSTYEX_3
 76
     2
 10
0.0
 20
0.0
 30
0.0
 10
-50.33688191871879
 20
50.33688191871879
 30
0.0
1001
ACAD
1000
DSTYLE
1002
{
1070
   176
1070
     0
1002
}
  0
ENDBLK
  5
17B
330
179
100
AcDbEntity
  8
0
100
AcDbBlockEnd
  0
BLOCK
  5
182
330
181
100
AcDbEntity
  8
0
100
AcDbBlockBegin
  2
BALN1
 70
     0
 10
0.0
 20
0.0
 30
0.0
  3
BALN1
  1

  0
CIRCLE
  5
184
330
181
100
AcDbEntity
  8
1
  6
Continuous
 62
     3
100
AcDbCircle
 10
-30.15053049458834
 20
30.15053049458822
 30
0.0
 40
8.0
  0
MTEXT
  5
185
330
181
100
AcDbEntity
  8
1
  6
Continuous
 62
     2
100
AcDbMText
 10
-33.15053049458834
 20
26.15053049458822
 30
0.0
 40
8.0
 41
0.0
 71
     7
 72
     5
  1
２
  7
MTSTANDARD2
 73
     1
 44
0.8125
  0
LEADER
  5
186
330
181
100
AcDbEntity
  8
1
  6
Continuous
 62
     3
100
AcDbLeader
  3
DIMSTYEX_3
 76
     2
 10
0.0
 20
0.0
 30
0.0
 10
-24.49367624509595
 20
24.49367624509586
 30
0.0
1001
ACAD
1000
DSTYLE
1002
{
1070
   176
1070
     0
1002
}
  0
ENDBLK
  5
183
330
181
100
AcDbEntity
  8
0
100
AcDbBlockEnd
  0
BLOCK
  5
189
330
188
100
AcDbEntity
  8
0
100
AcDbBlockBegin
  2
BALN2
 70
     0
 10
0.0
 20
0.0
 30
0.0
  3
BALN2
  1

  0
CIRCLE
  5
18B
330
188
100
AcDbEntity
  8
1
  6
Continuous
 62
     3
100
AcDbCircle
 10
-58.68688218423631
 20
-3.753972576311583
 30
0.0
 40
8.0
  0
MTEXT
  5
18C
330
188
100
AcDbEntity
  8
1
  6
Continuous
 62
     2
100
AcDbMText
 10
-61.68688218423631
 20
-7.753972576311583
 30
0.0
 40
8.0
 41
0.0
 71
     7
 72
     5
  1
３
  7
MTSTANDARD2
 73
     1
 44
0.8125
  0
LEADER
  5
18D
330
188
100
AcDbEntity
  8
1
  6
Continuous
 62
     3
100
AcDbLeader
  3
DIMSTYEX_3
 76
     2
 10
0.0
 20
0.0
 30
0.0
 10
-50.70319879146525
 20
-3.243287268130957
 30
0.0
1001
ACAD
1000
DSTYLE
1002
{
1070
   176
1070
     0
1002
}
  0
ENDBLK
  5
18A
330
188
100
AcDbEntity
  8
0
100
AcDbBlockEnd
  0
BLOCK
  5
190
330
18F
100
AcDbEntity
  8
0
100
AcDbBlockBegin
  2
BLK0
 70
     0
 10
11.65206977701359
 20
-136.7008389097236
 30
0.0
  3
BLK0
  1

  0
LINE
  5
192
330
18F
100
AcDbEntity
  8
1
  6
Continuous
 62
     7
100
AcDbLine
 10
-108.3478102229867
 20
-60.70088090972388
 30
0.0
 11
-108.3478102229867
 21
-136.7008389097236
 31
0.0
  0
LINE
  5
193
330
18F
100
AcDbEntity
  8
1
  6
Continuous
 62
     7
100
AcDbLine
 10
-118.3478002229867
 20
-136.7008389097236
 30
0.0
 11
-118.3478002229867
 21
-60.70088090972388
 31
0.0
  0
LINE
  5
194
330
18F
100
AcDbEntity
  8
1
  6
Continuous
 62
     7
100
AcDbLine
 10
-240.3477802229863
 20
-60.70088090972388
 30
0.0
 11
-240.3477802229866
 21
-116.7008589097236
 31
0.0
  0
LINE
  5
195
330
18F
100
AcDbEntity
  8
1
  6
Continuous
 62
     7
100
AcDbLine
 10
-8.347910222986457
 20
-60.70088090972388
 30
0.0
 11
-8.347910222986457
 21
-82.70085890972359
 31
0.0
  0
LINE
  5
196
330
18F
100
AcDbEntity
  8
1
  6
Continuous
 62
     7
100
AcDbLine
 10
-18.34790022298648
 20
-60.70088090972388
 30
0.0
 11
-18.34790022298648
 21
-82.70085890972359
 31
0.0
  0
LINE
  5
197
330
18F
100
AcDbEntity
  8
1
  6
Continuous
 62
     7
100
AcDbLine
 10
-8.347910222986457
 20
-116.7008589097236
 30
0.0
 11
-8.347910222986457
 21
-136.7008389097236
 31
0.0
  0
LINE
  5
198
330
18F
100
AcDbEntity
  8
1
  6
Continuous
 62
     7
100
AcDbLine
 10
-18.34790022298648
 20
-116.7008589097236
 30
0.0
 11
-18.34790022298648
 21
-136.7008389097236
 31
0.0
  0
LINE
  5
199
330
18F
100
AcDbEntity
  8
1
  6
Continuous
 62
     7
100
AcDbLine
 10
-36.34788222298675
 20
-116.7008589097236
 30
0.0
 11
-36.34788222298675
 21
-136.7008389097236
 31
0.0
  0
LINE
  5
19A
330
18F
100
AcDbEntity
  8
1
  6
Continuous
 62
     7
100
AcDbLine
 10
-250.3477702229866
 20
-116.7008589097236
 30
0.0
 11
11.65206977701359
 21
-116.7008589097236
 31
0.0
  0
LINE
  5
19B
330
18F
100
AcDbEntity
  8
1
  6
Continuous
 62
     7
100
AcDbLine
 10
11.65206977701359
 20
-82.70085890972359
 30
0.0
 11
-250.3477702229866
 21
-82.70085890972359
 31
0.0
  0
LINE
  5
19C
330
18F
100
AcDbEntity
  8
1
  6
Continuous
 62
     7
100
AcDbLine
 10
-250.3477702229866
 20
-60.70088090972388
 30
0.0
 11
11.65206977701359
 21
-60.70088090972388
 31
0.0
  0
LINE
  5
19D
330
18F
100
AcDbEntity
  8
1
  6
Continuous
 62
     7
100
AcDbLine
 10
-250.3477702229866
 20
-60.70088090972388
 30
0.0
 11
-250.3477702229866
 21
-136.7008389097236
 31
0.0
  0
LINE
  5
19E
330
18F
100
AcDbEntity
  8
1
  6
Continuous
 62
     7
100
AcDbLine
 10
-240.3477802229863
 20
-60.70088090972388
 30
0.0
 11
-240.3477802229866
 21
-116.7008589097236
 31
0.0
  0
MTEXT
  5
1A0
330
18F
100
AcDbEntity
  8
1
  6
Continuous
 62
     7
100
AcDbMText
 10
-248.8477752229867
 20
-71.2008739097239
 30
0.0
 40
7.0
 41
0.0
 71
     7
 72
     5
  1
{\fＭＳ 明朝|b0|i0|c128|p17;\W1.0;図}
  7
MTSTANDARD3
 73
     1
 44
0.8392857142857144
  0
MTEXT
  5
1A1
330
18F
100
AcDbEntity
  8
1
  6
Continuous
 62
     7
100
AcDbMText
 10
-116.8478052229866
 20
-127.2008519097236
 30
0.0
 40
7.0
 41
0.0
 71
     7
 72
     5
  1
{\fＭＳ 明朝|b0|i0|c128|p17;\W1.0;図}
  7
MTSTANDARD3
 73
     1
 44
0.8392857142857144
  0
MTEXT
  5
1A2
330
18F
100
AcDbEntity
  8
1
  6
Continuous
 62
     7
100
AcDbMText
 10
-248.8477752229867
 20
-79.20086590972392
 30
0.0
 40
7.0
 41
0.0
 71
     7
 72
     5
  1
{\fＭＳ 明朝|b0|i0|c128|p17;\W1.0;名}
  7
MTSTANDARD3
 73
     1
 44
0.8392857142857144
  0
MTEXT
  5
1A3
330
18F
100
AcDbEntity
  8
1
  6
Continuous
 62
     7
100
AcDbMText
 10
-116.8478052229866
 20
-135.2008439097236
 30
0.0
 40
7.0
 41
0.0
 71
     7
 72
     5
  1
{\fＭＳ 明朝|b0|i0|c128|p17;\W1.0;番}
  7
MTSTANDARD3
 73
     1
 44
0.8392857142857144
  0
MTEXT
  5
1A4
330
18F
100
AcDbEntity
  8
1
  6
Continuous
 62
     7
100
AcDbMText
 10
-116.8478052229866
 20
-71.2008739097239
 30
0.0
 40
7.0
 41
0.0
 71
     7
 72
     5
  1
{\fＭＳ 明朝|b0|i0|c128|p17;\W1.0;符}
  7
MTSTANDARD3
 73
     1
 44
0.8392857142857144
  0
MTEXT
  5
1A5
330
18F
100
AcDbEntity
  8
1
  6
Continuous
 62
     7
100
AcDbMText
 10
-116.8478052229866
 20
-79.20086590972392
 30
0.0
 40
7.0
 41
0.0
 71
     7
 72
     5
  1
{\fＭＳ 明朝|b0|i0|c128|p17;\W1.0;号}
  7
MTSTANDARD3
 73
     1
 44
0.8392857142857144
  0
MTEXT
  5
1A6
330
18F
100
AcDbEntity
  8
1
  6
Continuous
 62
     7
100
AcDbMText
 10
-116.8478052229866
 20
-99.48176564461619
 30
0.0
 40
7.0
 41
0.0
 71
     7
 72
     5
  1
{\fＭＳ 明朝|b0|i0|c128|p17;\W1.0;記}
  7
MTSTANDARD3
 73
     1
 44
0.8392857142857144
  0
MTEXT
  5
1A7
330
18F
100
AcDbEntity
  8
1
  6
Continuous
 62
     7
100
AcDbMText
 10
-116.8478052229866
 20
-107.4817576446162
 30
0.0
 40
7.0
 41
0.0
 71
     7
 72
     5
  1
{\fＭＳ 明朝|b0|i0|c128|p17;\W1.0;事}
  7
MTSTANDARD3
 73
     1
 44
0.8392857142857144
  0
MTEXT
  5
1A8
330
18F
100
AcDbEntity
  8
1
  6
Continuous
 62
     7
100
AcDbMText
 10
-16.84790522298999
 20
-71.2008739097239
 30
0.0
 40
7.0
 41
0.0
 71
     7
 72
     5
  1
{\fＭＳ 明朝|b0|i0|c128|p17;\W1.0;縮}
  7
MTSTANDARD3
 73
     1
 44
0.8392857142857144
  0
MTEXT
  5
1A9
330
18F
100
AcDbEntity
  8
1
  6
Continuous
 62
     7
100
AcDbMText
 10
-16.84790522298999
 20
-79.20086590972403
 30
0.0
 40
7.0
 41
0.0
 71
     7
 72
     5
  1
{\fＭＳ 明朝|b0|i0|c128|p17;\W1.0;尺}
  7
MTSTANDARD3
 73
     1
 44
0.8392857142857144
  0
MTEXT
  5
1AB
330
18F
100
AcDbEntity
  8
1
  6
Continuous
 62
     7
100
AcDbMText
 10
-218.3477702229866
 20
-131.2008489097236
 30
0.0
 40
9.0
 41
0.0
 71
     7
 72
     5
  1
{\fＭＳ ゴシック|b0|i0|c128|p49;\W1.0;伊藤鉄工株式会社}
  7
MTSTANDARD4
 73
     1
 44
0.7916666666666667
  0
MTEXT
  5
1AD
330
18F
100
AcDbEntity
  8
1
  6
Continuous
 62
     7
100
AcDbMText
 10
-16.34790522298636
 20
-124.7008539097237
 30
0.0
 40
6.0
 41
0.0
 71
     7
 72
     5
  1
{\fＭＳ 明朝|b0|i0|c128|p17;\W1.0;葉}
  7
MTSTANDARD5
 73
     1
 44
0.8333333333333334
  0
MTEXT
  5
1AE
330
18F
100
AcDbEntity
  8
1
  6
Continuous
 62
     7
100
AcDbMText
 10
-16.34790522298636
 20
-129.7008489097234
 30
0.0
 40
6.0
 41
0.0
 71
     7
 72
     5
  1
{\fＭＳ 明朝|b0|i0|c128|p17;\W1.0;ノ}
  7
MTSTANDARD5
 73
     1
 44
0.8333333333333334
  0
MTEXT
  5
1AF
330
18F
100
AcDbEntity
  8
1
  6
Continuous
 62
     7
100
AcDbMText
 10
-16.34790522298636
 20
-134.7008439097236
 30
0.0
 40
6.0
 41
0.0
 71
     7
 72
     5
  1
{\fＭＳ 明朝|b0|i0|c128|p17;\W1.0;内}
  7
MTSTANDARD5
 73
     1
 44
0.8333333333333334
  0
LINE
  5
1B0
330
18F
100
AcDbEntity
  8
1
  6
Continuous
 62
     7
100
AcDbLine
 10
-250.3477702229866
 20
-60.70088090972388
 30
0.0
 11
-250.3477702229866
 21
-136.7008389097236
 31
0.0
  0
LINE
  5
1B1
330
18F
100
AcDbEntity
  8
1
  6
Continuous
 62
     7
100
AcDbLine
 10
-250.3477702229866
 20
-60.70088090972388
 30
0.0
 11
-250.3477702229866
 21
-136.7008389097236
 31
0.0
  0
LINE
  5
1B2
330
18F
100
AcDbEntity
  8
1
  6
Continuous
 62
     7
100
AcDbLine
 10
-8.347910222986457
 20
-136.7008389097236
 30
0.0
 11
11.65206977701359
 21
-116.7008589097236
 31
0.0
  0
MTEXT
  5
1B3
330
18F
100
AcDbEntity
  8
1
  6
Continuous
 62
     7
100
AcDbMText
 10
-79.34785522298671
 20
-75.70086990972379
 30
0.0
 40
8.0
 41
0.0
 71
     7
 72
     5
  1
{\fＭＳ 明朝|b0|i0|c128|p17;\W1.0;Ｂ３ＢＤ}
  7
MTSTANDARD
 73
     1
 44
1.171874999999988
  0
MTEXT
  5
1B4
330
18F
100
AcDbEntity
  8
1
  6
Continuous
 62
     7
100
AcDbMText
 10
-218.3477742229843
 20
-75.70086990972379
 30
0.0
 40
8.0
 41
0.0
 71
     7
 72
     5
  1
{\fＭＳ 明朝|b0|i0|c128|p17;\W1.0;中耐型散水栓ボックス}
  7
MTSTANDARD
 73
     1
 44
1.171874999999991
  0
MTEXT
  5
1B5
330
18F
100
AcDbEntity
  8
1
  6
Continuous
 62
     7
100
AcDbMText
 10
-2.847920222986432
 20
-74.70086990972379
 30
0.0
 40
6.0
 41
0.0
 71
     7
 72
     5
  1
{\fＭＳ 明朝|b0|i0|c128|p17;\W1.0;1/2}
  7
MTSTANDARD5
 73
     1
 44
1.354165520833317
  0
MTEXT
  5
1B6
330
18F
100
AcDbEntity
  8
1
  6
Continuous
 62
     7
100
AcDbMText
 10
-80.34787022298656
 20
-108.2008589097236
 30
0.0
 40
8.0
 41
0.0
 71
     7
 72
     5
  1
{\fＭＳ 明朝|b0|i0|c128|p17;\W1.0;破壊荷重６０ＫＮ\P加重体　φ１５０}
  7
MTSTANDARD
 73
     1
 44
0.703125
  0
MTEXT
  5
1B7
330
18F
100
AcDbEntity
  8
1
  6
Continuous
 62
     7
100
AcDbMText
 10
-108.3478462229866
 20
-130.7008489097236
 30
0.0
 40
8.0
 41
0.0
 71
     7
 72
     5
  1
{\fＭＳ 明朝|b0|i0|c128|p17;\W1.0;Ｇ１１Ａ９８１３７}
  7
MTSTANDARD
 73
     1
 44
1.093749218750001
  0
LINE
  5
1B8
330
18F
100
AcDbEntity
  8
1
  6
Continuous
 62
     7
100
AcDbLine
 10
11.65206977701359
 20
-136.7008389097236
 30
0.0
 11
11.65206977701359
 21
-60.70088090972388
 31
0.0
  0
ENDBLK
  5
191
330
18F
100
AcDbEntity
  8
0
100
AcDbBlockEnd
  0
BLOCK
  5
1C8
330
1C7
100
AcDbEntity
  8
0
100
AcDbBlockBegin
  2
BLK1
 70
     0
 10
-241.3575868953205
 20
430.6716162759357
 30
0.0
  3
BLK1
  1

  0
LINE
  5
1CA
330
1C7
100
AcDbEntity
  8
1
  6
Continuous
 62
     7
100
AcDbLine
 10
-390.1424822494664
 20
505.6716162759358
 30
0.0
 11
-390.1424822494664
 21
355.6716162759358
 31
0.0
  0
LINE
  5
1CB
330
1C7
100
AcDbEntity
  8
1
  6
Continuous
 62
     7
100
AcDbLine
 10
-372.1424822494664
 20
337.6716162759358
 30
0.0
 11
-112.1424822494662
 21
337.6716162759358
 31
0.0
  0
LINE
  5
1CC
330
1C7
100
AcDbEntity
  8
1
  6
Continuous
 62
     7
100
AcDbLine
 10
-94.14248224946618
 20
355.6716162759358
 30
0.0
 11
-94.14248224946618
 21
505.6716162759355
 31
0.0
  0
LINE
  5
1CD
330
1C7
100
AcDbEntity
  8
1
  6
Continuous
 62
     7
100
AcDbLine
 10
-112.1424822494664
 20
523.6716162759355
 30
0.0
 11
-372.1424822494664
 21
523.6716162759355
 31
0.0
  0
LINE
  5
1CE
330
1C7
100
AcDbEntity
  8
1
  6
Continuous
 62
     7
100
AcDbLine
 10
-378.1424822494664
 20
505.6716162759355
 30
0.0
 11
-378.1424822494664
 21
355.6716162759359
 31
0.0
  0
LINE
  5
1CF
330
1C7
100
AcDbEntity
  8
1
  6
Continuous
 62
     7
100
AcDbLine
 10
-372.1424822494664
 20
349.6716162759358
 30
0.0
 11
-112.1424822494662
 21
349.6716162759358
 31
0.0
  0
LINE
  5
1D0
330
1C7
100
AcDbEntity
  8
1
  6
Continuous
 62
     7
100
AcDbLine
 10
-106.1424822494662
 20
355.6716162759358
 30
0.0
 11
-106.1424822494662
 21
505.6716162759355
 31
0.0
  0
LINE
  5
1D1
330
1C7
100
AcDbEntity
  8
1
  6
Continuous
 62
     7
100
AcDbLine
 10
-112.1424822494662
 20
511.6716162759355
 30
0.0
 11
-372.1424822494664
 21
511.6716162759355
 31
0.0
  0
LINE
  5
1D2
330
1C7
100
AcDbEntity
  8
1
  6
Continuous
 62
     7
100
AcDbLine
 10
-121.1424822494662
 20
498.6716162759355
 30
0.0
 11
-363.1424822494664
 21
498.6716162759355
 31
0.0
  0
LINE
  5
1D3
330
1C7
100
AcDbEntity
  8
1
  6
Continuous
 62
     7
100
AcDbLine
 10
-365.1424822494664
 20
496.6716162759355
 30
0.0
 11
-365.1424822494664
 21
364.6716162759359
 31
0.0
  0
LINE
  5
1D4
330
1C7
100
AcDbEntity
  8
1
  6
Continuous
 62
     7
100
AcDbLine
 10
-363.1424822494664
 20
362.6716162759359
 30
0.0
 11
-121.1424822494662
 21
362.6716162759359
 31
0.0
  0
LINE
  5
1D5
330
1C7
100
AcDbEntity
  8
1
  6
Continuous
 62
     7
100
AcDbLine
 10
-119.1424822494662
 20
364.6716162759359
 30
0.0
 11
-119.1424822494662
 21
496.6716162759355
 31
0.0
  0
ARC
  5
1D6
330
1C7
100
AcDbEntity
  8
1
  6
Continuous
 62
     7
100
AcDbCircle
 10
-372.1424822494664
 20
505.6716162759358
 30
0.0
 40
18.0
100
AcDbArc
 50
90.0
 51
180.0
  0
ARC
  5
1D7
330
1C7
100
AcDbEntity
  8
1
  6
Continuous
 62
     7
100
AcDbCircle
 10
-372.1424822494664
 20
355.6716162759358
 30
0.0
 40
18.0
100
AcDbArc
 50
180.0
 51
270.0
  0
ARC
  5
1D8
330
1C7
100
AcDbEntity
  8
1
  6
Continuous
 62
     7
100
AcDbCircle
 10
-112.1424822494662
 20
355.6716162759358
 30
0.0
 40
18.0
100
AcDbArc
 50
270.0
 51
0.0
  0
ARC
  5
1D9
330
1C7
100
AcDbEntity
  8
1
  6
Continuous
 62
     7
100
AcDbCircle
 10
-112.1424822494664
 20
505.6716162759355
 30
0.0
 40
18.0
100
AcDbArc
 50
0.0
 51
90.0
  0
ARC
  5
1DA
330
1C7
100
AcDbEntity
  8
1
  6
Continuous
 62
     7
100
AcDbCircle
 10
-112.1424822494662
 20
505.6716162759355
 30
0.0
 40
6.0
100
AcDbArc
 50
0.0
 51
90.0
  0
ARC
  5
1DB
330
1C7
100
AcDbEntity
  8
1
  6
Continuous
 62
     7
100
AcDbCircle
 10
-112.1424822494662
 20
355.6716162759358
 30
0.0
 40
6.0
100
AcDbArc
 50
270.0
 51
0.0
  0
ARC
  5
1DC
330
1C7
100
AcDbEntity
  8
1
  6
Continuous
 62
     7
100
AcDbCircle
 10
-372.1424822494664
 20
355.6716162759358
 30
0.0
 40
6.0
100
AcDbArc
 50
179.9999999999989
 51
270.0
  0
ARC
  5
1DD
330
1C7
100
AcDbEntity
  8
1
  6
Continuous
 62
     7
100
AcDbCircle
 10
-372.1424822494664
 20
505.6716162759355
 30
0.0
 40
6.0
100
AcDbArc
 50
90.0
 51
180.0
  0
ARC
  5
1DE
330
1C7
100
AcDbEntity
  8
1
  6
Continuous
 62
     7
100
AcDbCircle
 10
-363.1424822494664
 20
496.6716162759355
 30
0.0
 40
2.0
100
AcDbArc
 50
90.0
 51
180.0
  0
ARC
  5
1DF
330
1C7
100
AcDbEntity
  8
1
  6
Continuous
 62
     7
100
AcDbCircle
 10
-121.1424822494662
 20
496.6716162759355
 30
0.0
 40
2.0
100
AcDbArc
 50
0.0
 51
90.0
  0
ARC
  5
1E0
330
1C7
100
AcDbEntity
  8
1
  6
Continuous
 62
     7
100
AcDbCircle
 10
-121.1424822494662
 20
364.6716162759359
 30
0.0
 40
2.0
100
AcDbArc
 50
270.0
 51
0.0
  0
ARC
  5
1E1
330
1C7
100
AcDbEntity
  8
1
  6
Continuous
 62
     7
100
AcDbCircle
 10
-363.1424822494664
 20
364.6716162759359
 30
0.0
 40
2.0
100
AcDbArc
 50
180.0
 51
270.0
  0
LINE
  5
1E2
330
1C7
100
AcDbEntity
  8
1
  6
Continuous
 62
     7
100
AcDbLine
 10
-259.1424822494671
 20
486.055790233819
 30
0.0
 11
-249.4155862180528
 21
491.6716162759355
 31
0.0
  0
LINE
  5
1E3
330
1C7
100
AcDbEntity
  8
1
  6
Continuous
 62
     7
100
AcDbLine
 10
-242.1424822494666
 20
476.2408356575953
 30
0.0
 11
-259.1424822494614
 21
486.0557902338159
 31
0.0
  0
LINE
  5
1E4
330
1C7
100
AcDbEntity
  8
1
  6
Continuous
 62
     7
100
AcDbLine
 10
-307.1424822494622
 20
486.0557902338161
 30
0.0
 11
-297.4155862180428
 21
491.6716162759355
 31
0.0
  0
LINE
  5
1E5
330
1C7
100
AcDbEntity
  8
1
  6
Continuous
 62
     7
100
AcDbLine
 10
-282.8693782808809
 20
491.6716162759355
 30
0.0
 11
-273.1424822494615
 21
486.055790233816
 31
0.0
  0
LINE
  5
1E6
330
1C7
100
AcDbEntity
  8
1
  6
Continuous
 62
     7
100
AcDbLine
 10
-273.1424822494615
 20
486.055790233816
 30
0.0
 11
-290.1424822494619
 21
476.2408356575924
 31
0.0
  0
LINE
  5
1E7
330
1C7
100
AcDbEntity
  8
1
  6
Continuous
 62
     7
100
AcDbLine
 10
-290.1424822494619
 20
476.2408356575924
 30
0.0
 11
-307.1424822494565
 21
486.0557902338129
 31
0.0
  0
LINE
  5
1E8
330
1C7
100
AcDbEntity
  8
1
  6
Continuous
 62
     7
100
AcDbLine
 10
-355.1424822494573
 20
486.0557902338132
 30
0.0
 11
-345.4155862180328
 21
491.6716162759355
 31
0.0
  0
LINE
  5
1E9
330
1C7
100
AcDbEntity
  8
1
  6
Continuous
 62
     7
100
AcDbLine
 10
-330.8693782808811
 20
491.6716162759355
 30
0.0
 11
-321.1424822494566
 21
486.0557902338131
 31
0.0
  0
LINE
  5
1EA
330
1C7
100
AcDbEntity
  8
1
  6
Continuous
 62
     7
100
AcDbLine
 10
-321.1424822494566
 20
486.0557902338131
 30
0.0
 11
-338.142482249457
 21
476.2408356575894
 31
0.0
  0
LINE
  5
1EB
330
1C7
100
AcDbEntity
  8
1
  6
Continuous
 62
     7
100
AcDbLine
 10
-338.142482249457
 20
476.2408356575894
 30
0.0
 11
-355.1424822494516
 21
486.0557902338101
 31
0.0
  0
LINE
  5
1EC
330
1C7
100
AcDbEntity
  8
1
  6
Continuous
 62
     7
100
AcDbLine
 10
-283.1424822494732
 20
472.1993837732648
 30
0.0
 11
-266.1424822494728
 21
482.0143383494885
 31
0.0
  0
LINE
  5
1ED
330
1C7
100
AcDbEntity
  8
1
  6
Continuous
 62
     7
100
AcDbLine
 10
-266.1424822494728
 20
482.0143383494885
 30
0.0
 11
-249.1424822494726
 21
472.1993837732647
 31
0.0
  0
LINE
  5
1EE
330
1C7
100
AcDbEntity
  8
1
  6
Continuous
 62
     7
100
AcDbLine
 10
-249.1424822494726
 20
472.1993837732647
 30
0.0
 11
-266.1424822494728
 21
462.3844291970411
 31
0.0
  0
LINE
  5
1EF
330
1C7
100
AcDbEntity
  8
1
  6
Continuous
 62
     7
100
AcDbLine
 10
-266.1424822494728
 20
462.3844291970411
 30
0.0
 11
-283.1424822494675
 21
472.1993837732616
 31
0.0
  0
LINE
  5
1F0
330
1C7
100
AcDbEntity
  8
1
  6
Continuous
 62
     7
100
AcDbLine
 10
-331.1424822494683
 20
472.1993837732618
 30
0.0
 11
-314.1424822494679
 21
482.0143383494856
 31
0.0
  0
LINE
  5
1F1
330
1C7
100
AcDbEntity
  8
1
  6
Continuous
 62
     7
100
AcDbLine
 10
-314.1424822494679
 20
482.0143383494856
 30
0.0
 11
-297.1424822494677
 21
472.1993837732617
 31
0.0
  0
LINE
  5
1F2
330
1C7
100
AcDbEntity
  8
1
  6
Continuous
 62
     7
100
AcDbLine
 10
-297.1424822494677
 20
472.1993837732617
 30
0.0
 11
-314.142482249468
 21
462.3844291970381
 31
0.0
  0
LINE
  5
1F3
330
1C7
100
AcDbEntity
  8
1
  6
Continuous
 62
     7
100
AcDbLine
 10
-314.142482249468
 20
462.3844291970381
 30
0.0
 11
-331.1424822494627
 21
472.1993837732587
 31
0.0
  0
LINE
  5
1F4
330
1C7
100
AcDbEntity
  8
1
  6
Continuous
 62
     7
100
AcDbLine
 10
-358.1424822494664
 20
479.7049372727262
 30
0.0
 11
-345.1424822494628
 21
472.1993837732589
 31
0.0
  0
LINE
  5
1F5
330
1C7
100
AcDbEntity
  8
1
  6
Continuous
 62
     7
100
AcDbLine
 10
-345.1424822494628
 20
472.1993837732589
 30
0.0
 11
-358.1424822494664
 21
464.6938302737918
 31
0.0
  0
LINE
  5
1F6
330
1C7
100
AcDbEntity
  8
1
  6
Continuous
 62
     7
100
AcDbLine
 10
-259.142482249478
 20
458.3429773127104
 30
0.0
 11
-242.1424822494776
 21
468.1579318889342
 31
0.0
  0
LINE
  5
1F7
330
1C7
100
AcDbEntity
  8
1
  6
Continuous
 62
     7
100
AcDbLine
 10
-249.3193967857176
 20
452.6716162759358
 30
0.0
 11
-259.1424822494723
 21
458.3429773127073
 31
0.0
  0
LINE
  5
1F8
330
1C7
100
AcDbEntity
  8
1
  6
Continuous
 62
     7
100
AcDbLine
 10
-307.1424822494732
 20
458.3429773127075
 30
0.0
 11
-290.1424822494728
 21
468.1579318889312
 31
0.0
  0
LINE
  5
1F9
330
1C7
100
AcDbEntity
  8
1
  6
Continuous
 62
     7
100
AcDbLine
 10
-290.1424822494728
 20
468.1579318889312
 30
0.0
 11
-273.1424822494726
 21
458.3429773127074
 31
0.0
  0
LINE
  5
1FA
330
1C7
100
AcDbEntity
  8
1
  6
Continuous
 62
     7
100
AcDbLine
 10
-273.1424822494726
 20
458.3429773127074
 30
0.0
 11
-282.9655677132275
 21
452.6716162759358
 31
0.0
  0
LINE
  5
1FB
330
1C7
100
AcDbEntity
  8
1
  6
Continuous
 62
     7
100
AcDbLine
 10
-297.319396785718
 20
452.6716162759358
 30
0.0
 11
-307.1424822494675
 21
458.3429773127043
 31
0.0
  0
LINE
  5
1FC
330
1C7
100
AcDbEntity
  8
1
  6
Continuous
 62
     7
100
AcDbLine
 10
-355.1424822494683
 20
458.3429773127046
 30
0.0
 11
-338.1424822494679
 21
468.1579318889284
 31
0.0
  0
LINE
  5
1FD
330
1C7
100
AcDbEntity
  8
1
  6
Continuous
 62
     7
100
AcDbLine
 10
-338.1424822494679
 20
468.1579318889284
 30
0.0
 11
-321.1424822494677
 21
458.3429773127045
 31
0.0
  0
LINE
  5
1FE
330
1C7
100
AcDbEntity
  8
1
  6
Continuous
 62
     7
100
AcDbLine
 10
-321.1424822494677
 20
458.3429773127045
 30
0.0
 11
-338.142482249468
 21
448.5280227364808
 31
0.0
  0
LINE
  5
1FF
330
1C7
100
AcDbEntity
  8
1
  6
Continuous
 62
     7
100
AcDbLine
 10
-338.142482249468
 20
448.5280227364808
 30
0.0
 11
-355.1424822494627
 21
458.3429773127015
 31
0.0
  0
LINE
  5
200
330
1C7
100
AcDbEntity
  8
1
  6
Continuous
 62
     7
100
AcDbLine
 10
-331.1424822494796
 20
444.4865708521596
 30
0.0
 11
-314.1424822494791
 21
454.3015254283833
 31
0.0
  0
LINE
  5
201
330
1C7
100
AcDbEntity
  8
1
  6
Continuous
 62
     7
100
AcDbLine
 10
-314.1424822494791
 20
454.3015254283833
 30
0.0
 11
-297.1424822494789
 21
444.4865708521595
 31
0.0
  0
LINE
  5
202
330
1C7
100
AcDbEntity
  8
1
  6
Continuous
 62
     7
100
AcDbLine
 10
-297.1424822494789
 20
444.4865708521595
 30
0.0
 11
-314.1424822494793
 21
434.6716162759358
 31
0.0
  0
LINE
  5
203
330
1C7
100
AcDbEntity
  8
1
  6
Continuous
 62
     7
100
AcDbLine
 10
-314.1424822494793
 20
434.6716162759358
 30
0.0
 11
-331.1424822494739
 21
444.4865708521564
 31
0.0
  0
LINE
  5
204
330
1C7
100
AcDbEntity
  8
1
  6
Continuous
 62
     7
100
AcDbLine
 10
-358.1424822494664
 20
451.9921243516173
 30
0.0
 11
-345.142482249474
 21
444.4865708521565
 31
0.0
  0
LINE
  5
205
330
1C7
100
AcDbEntity
  8
1
  6
Continuous
 62
     7
100
AcDbLine
 10
-345.142482249474
 20
444.4865708521565
 30
0.0
 11
-358.1424822494664
 21
436.981017352696
 31
0.0
  0
LINE
  5
206
330
1C7
100
AcDbEntity
  8
1
  6
Continuous
 62
     7
100
AcDbLine
 10
-345.4155862180329
 20
491.6716162759355
 30
0.0
 11
-330.8693782808811
 21
491.6716162759355
 31
0.0
  0
LINE
  5
207
330
1C7
100
AcDbEntity
  8
1
  6
Continuous
 62
     7
100
AcDbLine
 10
-297.4155862180428
 20
491.6716162759355
 30
0.0
 11
-282.8693782808809
 21
491.6716162759355
 31
0.0
  0
LINE
  5
208
330
1C7
100
AcDbEntity
  8
1
  6
Continuous
 62
     7
100
AcDbLine
 10
-249.4155862180528
 20
491.6716162759355
 30
0.0
 11
-242.1424822494664
 21
491.6716162759355
 31
0.0
  0
LINE
  5
209
330
1C7
100
AcDbEntity
  8
1
  6
Continuous
 62
     7
100
AcDbLine
 10
-358.1424822494664
 20
479.7049372727262
 30
0.0
 11
-358.1424822494664
 21
464.6938302737918
 31
0.0
  0
LINE
  5
20A
330
1C7
100
AcDbEntity
  8
1
  6
Continuous
 62
     7
100
AcDbLine
 10
-358.1424822494664
 20
451.9921243516173
 30
0.0
 11
-358.1424822494664
 21
436.9810173526961
 31
0.0
  0
LINE
  5
20B
330
1C7
100
AcDbEntity
  8
1
  6
Continuous
 62
     7
100
AcDbLine
 10
-259.1424822494671
 20
375.2874423180525
 30
0.0
 11
-249.4155862180528
 21
369.6716162759361
 31
0.0
  0
LINE
  5
20C
330
1C7
100
AcDbEntity
  8
1
  6
Continuous
 62
     7
100
AcDbLine
 10
-242.1424822494666
 20
385.1023968942764
 30
0.0
 11
-259.1424822494614
 21
375.2874423180557
 31
0.0
  0
LINE
  5
20D
330
1C7
100
AcDbEntity
  8
1
  6
Continuous
 62
     7
100
AcDbLine
 10
-307.1424822494622
 20
375.2874423180555
 30
0.0
 11
-297.4155862180428
 21
369.6716162759361
 31
0.0
  0
LINE
  5
20E
330
1C7
100
AcDbEntity
  8
1
  6
Continuous
 62
     7
100
AcDbLine
 10
-282.8693782808809
 20
369.6716162759361
 30
0.0
 11
-273.1424822494615
 21
375.2874423180556
 31
0.0
  0
LINE
  5
20F
330
1C7
100
AcDbEntity
  8
1
  6
Continuous
 62
     7
100
AcDbLine
 10
-273.1424822494615
 20
375.2874423180556
 30
0.0
 11
-290.1424822494619
 21
385.1023968942793
 31
0.0
  0
LINE
  5
210
330
1C7
100
AcDbEntity
  8
1
  6
Continuous
 62
     7
100
AcDbLine
 10
-290.1424822494619
 20
385.1023968942793
 30
0.0
 11
-307.1424822494565
 21
375.2874423180587
 31
0.0
  0
LINE
  5
211
330
1C7
100
AcDbEntity
  8
1
  6
Continuous
 62
     7
100
AcDbLine
 10
-355.1424822494573
 20
375.2874423180584
 30
0.0
 11
-345.4155862180328
 21
369.6716162759361
 31
0.0
  0
LINE
  5
212
330
1C7
100
AcDbEntity
  8
1
  6
Continuous
 62
     7
100
AcDbLine
 10
-330.8693782808811
 20
369.6716162759361
 30
0.0
 11
-321.1424822494566
 21
375.2874423180585
 31
0.0
  0
LINE
  5
213
330
1C7
100
AcDbEntity
  8
1
  6
Continuous
 62
     7
100
AcDbLine
 10
-321.1424822494566
 20
375.2874423180585
 30
0.0
 11
-338.142482249457
 21
385.1023968942822
 31
0.0
  0
LINE
  5
214
330
1C7
100
AcDbEntity
  8
1
  6
Continuous
 62
     7
100
AcDbLine
 10
-338.142482249457
 20
385.1023968942822
 30
0.0
 11
-355.1424822494516
 21
375.2874423180616
 31
0.0
  0
LINE
  5
215
330
1C7
100
AcDbEntity
  8
1
  6
Continuous
 62
     7
100
AcDbLine
 10
-283.1424822494732
 20
389.1438487786068
 30
0.0
 11
-266.1424822494728
 21
379.328894202383
 31
0.0
  0
LINE
  5
216
330
1C7
100
AcDbEntity
  8
1
  6
Continuous
 62
     7
100
AcDbLine
 10
-266.1424822494728
 20
379.328894202383
 30
0.0
 11
-249.1424822494726
 21
389.1438487786069
 31
0.0
  0
LINE
  5
217
330
1C7
100
AcDbEntity
  8
1
  6
Continuous
 62
     7
100
AcDbLine
 10
-249.1424822494726
 20
389.1438487786069
 30
0.0
 11
-266.1424822494728
 21
398.9588033548306
 31
0.0
  0
LINE
  5
218
330
1C7
100
AcDbEntity
  8
1
  6
Continuous
 62
     7
100
AcDbLine
 10
-266.1424822494728
 20
398.9588033548306
 30
0.0
 11
-283.1424822494675
 21
389.1438487786099
 31
0.0
  0
LINE
  5
219
330
1C7
100
AcDbEntity
  8
1
  6
Continuous
 62
     7
100
AcDbLine
 10
-331.1424822494683
 20
389.1438487786097
 30
0.0
 11
-314.1424822494679
 21
379.328894202386
 31
0.0
  0
LINE
  5
21A
330
1C7
100
AcDbEntity
  8
1
  6
Continuous
 62
     7
100
AcDbLine
 10
-314.1424822494679
 20
379.328894202386
 30
0.0
 11
-297.1424822494677
 21
389.1438487786098
 31
0.0
  0
LINE
  5
21B
330
1C7
100
AcDbEntity
  8
1
  6
Continuous
 62
     7
100
AcDbLine
 10
-297.1424822494677
 20
389.1438487786098
 30
0.0
 11
-314.142482249468
 21
398.9588033548335
 31
0.0
  0
LINE
  5
21C
330
1C7
100
AcDbEntity
  8
1
  6
Continuous
 62
     7
100
AcDbLine
 10
-314.142482249468
 20
398.9588033548335
 30
0.0
 11
-331.1424822494627
 21
389.1438487786129
 31
0.0
  0
LINE
  5
21D
330
1C7
100
AcDbEntity
  8
1
  6
Continuous
 62
     7
100
AcDbLine
 10
-358.1424822494664
 20
381.6382952791455
 30
0.0
 11
-345.1424822494628
 21
389.1438487786128
 31
0.0
  0
LINE
  5
21E
330
1C7
100
AcDbEntity
  8
1
  6
Continuous
 62
     7
100
AcDbLine
 10
-345.1424822494628
 20
389.1438487786128
 30
0.0
 11
-358.1424822494664
 21
396.6494022780798
 31
0.0
  0
LINE
  5
21F
330
1C7
100
AcDbEntity
  8
1
  6
Continuous
 62
     7
100
AcDbLine
 10
-259.142482249478
 20
403.0002552391611
 30
0.0
 11
-242.1424822494776
 21
393.1853006629374
 31
0.0
  0
LINE
  5
220
330
1C7
100
AcDbEntity
  8
1
  6
Continuous
 62
     7
100
AcDbLine
 10
-249.3193967857178
 20
408.6716162759358
 30
0.0
 11
-259.1424822494723
 21
403.0002552391643
 31
0.0
  0
LINE
  5
221
330
1C7
100
AcDbEntity
  8
1
  6
Continuous
 62
     7
100
AcDbLine
 10
-307.1424822494732
 20
403.0002552391641
 30
0.0
 11
-290.1424822494728
 21
393.1853006629403
 31
0.0
  0
LINE
  5
222
330
1C7
100
AcDbEntity
  8
1
  6
Continuous
 62
     7
100
AcDbLine
 10
-290.1424822494728
 20
393.1853006629403
 30
0.0
 11
-273.1424822494726
 21
403.0002552391642
 31
0.0
  0
LINE
  5
223
330
1C7
100
AcDbEntity
  8
1
  6
Continuous
 62
     7
100
AcDbLine
 10
-273.1424822494726
 20
403.0002552391642
 30
0.0
 11
-282.9655677132276
 21
408.6716162759358
 31
0.0
  0
LINE
  5
224
330
1C7
100
AcDbEntity
  8
1
  6
Continuous
 62
     7
100
AcDbLine
 10
-297.319396785718
 20
408.6716162759358
 30
0.0
 11
-307.1424822494675
 21
403.0002552391672
 31
0.0
  0
LINE
  5
225
330
1C7
100
AcDbEntity
  8
1
  6
Continuous
 62
     7
100
AcDbLine
 10
-355.1424822494683
 20
403.000255239167
 30
0.0
 11
-338.1424822494679
 21
393.1853006629433
 31
0.0
  0
LINE
  5
226
330
1C7
100
AcDbEntity
  8
1
  6
Continuous
 62
     7
100
AcDbLine
 10
-338.1424822494679
 20
393.1853006629433
 30
0.0
 11
-321.1424822494677
 21
403.0002552391671
 31
0.0
  0
LINE
  5
227
330
1C7
100
AcDbEntity
  8
1
  6
Continuous
 62
     7
100
AcDbLine
 10
-321.1424822494677
 20
403.0002552391671
 30
0.0
 11
-338.142482249468
 21
412.8152098153907
 31
0.0
  0
LINE
  5
228
330
1C7
100
AcDbEntity
  8
1
  6
Continuous
 62
     7
100
AcDbLine
 10
-338.142482249468
 20
412.8152098153907
 30
0.0
 11
-355.1424822494627
 21
403.0002552391702
 31
0.0
  0
LINE
  5
229
330
1C7
100
AcDbEntity
  8
1
  6
Continuous
 62
     7
100
AcDbLine
 10
-331.1424822494796
 20
416.856661699712
 30
0.0
 11
-314.1424822494791
 21
407.0417071234883
 31
0.0
  0
LINE
  5
22A
330
1C7
100
AcDbEntity
  8
1
  6
Continuous
 62
     7
100
AcDbLine
 10
-314.1424822494791
 20
407.0417071234883
 30
0.0
 11
-297.1424822494789
 21
416.8566616997122
 31
0.0
  0
LINE
  5
22B
330
1C7
100
AcDbEntity
  8
1
  6
Continuous
 62
     7
100
AcDbLine
 10
-297.1424822494789
 20
416.8566616997122
 30
0.0
 11
-314.1424822494793
 21
426.6716162759358
 31
0.0
  0
LINE
  5
22C
330
1C7
100
AcDbEntity
  8
1
  6
Continuous
 62
     7
100
AcDbLine
 10
-314.1424822494793
 20
426.6716162759358
 30
0.0
 11
-331.1424822494739
 21
416.8566616997152
 31
0.0
  0
LINE
  5
22D
330
1C7
100
AcDbEntity
  8
1
  6
Continuous
 62
     7
100
AcDbLine
 10
-358.1424822494664
 20
409.3511082002543
 30
0.0
 11
-345.142482249474
 21
416.856661699715
 31
0.0
  0
LINE
  5
22E
330
1C7
100
AcDbEntity
  8
1
  6
Continuous
 62
     7
100
AcDbLine
 10
-345.142482249474
 20
416.856661699715
 30
0.0
 11
-358.1424822494664
 21
424.3622151991756
 31
0.0
  0
LINE
  5
22F
330
1C7
100
AcDbEntity
  8
1
  6
Continuous
 62
     7
100
AcDbLine
 10
-345.4155862180329
 20
369.6716162759361
 30
0.0
 11
-330.8693782808811
 21
369.6716162759361
 31
0.0
  0
LINE
  5
230
330
1C7
100
AcDbEntity
  8
1
  6
Continuous
 62
     7
100
AcDbLine
 10
-297.4155862180428
 20
369.6716162759361
 30
0.0
 11
-282.8693782808809
 21
369.6716162759361
 31
0.0
  0
LINE
  5
231
330
1C7
100
AcDbEntity
  8
1
  6
Continuous
 62
     7
100
AcDbLine
 10
-249.4155862180528
 20
369.6716162759361
 30
0.0
 11
-242.1424822494664
 21
369.6716162759361
 31
0.0
  0
LINE
  5
232
330
1C7
100
AcDbEntity
  8
1
  6
Continuous
 62
     7
100
AcDbLine
 10
-358.1424822494664
 20
381.6382952791455
 30
0.0
 11
-358.1424822494664
 21
396.6494022780798
 31
0.0
  0
LINE
  5
233
330
1C7
100
AcDbEntity
  8
1
  6
Continuous
 62
     7
100
AcDbLine
 10
-358.1424822494664
 20
409.3511082002543
 30
0.0
 11
-358.1424822494664
 21
424.3622151991756
 31
0.0
  0
LINE
  5
234
330
1C7
100
AcDbEntity
  8
1
  6
Continuous
 62
     7
100
AcDbLine
 10
-307.1424822494732
 20
430.6716162759357
 30
0.0
 11
-294.1424822494664
 21
423.1660627764667
 31
0.0
  0
LINE
  5
235
330
1C7
100
AcDbEntity
  8
1
  6
Continuous
 62
     7
100
AcDbLine
 10
-294.1424822494664
 20
438.1771697754048
 30
0.0
 11
-307.1424822494675
 21
430.6716162759388
 31
0.0
  0
CIRCLE
  5
236
330
1C7
100
AcDbEntity
  8
1
  6
Continuous
 62
     7
100
AcDbCircle
 10
-337.1424822494664
 20
430.6716162759358
 30
0.0
 40
8.5
  0
LINE
  5
237
330
1C7
100
AcDbEntity
  8
1
  6
Continuous
 62
     7
100
AcDbLine
 10
-225.1424822494657
 20
486.055790233819
 30
0.0
 11
-234.86937828088
 21
491.6716162759355
 31
0.0
  0
LINE
  5
238
330
1C7
100
AcDbEntity
  8
1
  6
Continuous
 62
     7
100
AcDbLine
 10
-242.142482249466
 20
476.2408356575953
 30
0.0
 11
-225.1424822494714
 21
486.0557902338159
 31
0.0
  0
LINE
  5
239
330
1C7
100
AcDbEntity
  8
1
  6
Continuous
 62
     7
100
AcDbLine
 10
-177.1424822494705
 20
486.0557902338161
 30
0.0
 11
-186.8693782808899
 21
491.6716162759355
 31
0.0
  0
LINE
  5
23A
330
1C7
100
AcDbEntity
  8
1
  6
Continuous
 62
     7
100
AcDbLine
 10
-201.4155862180519
 20
491.6716162759355
 30
0.0
 11
-211.1424822494712
 21
486.055790233816
 31
0.0
  0
LINE
  5
23B
330
1C7
100
AcDbEntity
  8
1
  6
Continuous
 62
     7
100
AcDbLine
 10
-211.1424822494712
 20
486.055790233816
 30
0.0
 11
-194.1424822494708
 21
476.2408356575924
 31
0.0
  0
LINE
  5
23C
330
1C7
100
AcDbEntity
  8
1
  6
Continuous
 62
     7
100
AcDbLine
 10
-194.1424822494708
 20
476.2408356575924
 30
0.0
 11
-177.1424822494762
 21
486.0557902338129
 31
0.0
  0
LINE
  5
23D
330
1C7
100
AcDbEntity
  8
1
  6
Continuous
 62
     7
100
AcDbLine
 10
-129.1424822494754
 20
486.0557902338132
 30
0.0
 11
-138.8693782808998
 21
491.6716162759355
 31
0.0
  0
LINE
  5
23E
330
1C7
100
AcDbEntity
  8
1
  6
Continuous
 62
     7
100
AcDbLine
 10
-153.4155862180517
 20
491.6716162759355
 30
0.0
 11
-163.1424822494761
 21
486.0557902338131
 31
0.0
  0
LINE
  5
23F
330
1C7
100
AcDbEntity
  8
1
  6
Continuous
 62
     7
100
AcDbLine
 10
-163.1424822494761
 20
486.0557902338131
 30
0.0
 11
-146.1424822494757
 21
476.2408356575894
 31
0.0
  0
LINE
  5
240
330
1C7
100
AcDbEntity
  8
1
  6
Continuous
 62
     7
100
AcDbLine
 10
-146.1424822494757
 20
476.2408356575894
 30
0.0
 11
-129.1424822494811
 21
486.0557902338101
 31
0.0
  0
LINE
  5
241
330
1C7
100
AcDbEntity
  8
1
  6
Continuous
 62
     7
100
AcDbLine
 10
-201.1424822494596
 20
472.1993837732648
 30
0.0
 11
-218.14248224946
 21
482.0143383494885
 31
0.0
  0
LINE
  5
242
330
1C7
100
AcDbEntity
  8
1
  6
Continuous
 62
     7
100
AcDbLine
 10
-218.14248224946
 20
482.0143383494885
 30
0.0
 11
-235.1424822494603
 21
472.1993837732647
 31
0.0
  0
LINE
  5
243
330
1C7
100
AcDbEntity
  8
1
  6
Continuous
 62
     7
100
AcDbLine
 10
-235.1424822494603
 20
472.1993837732647
 30
0.0
 11
-218.1424822494598
 21
462.3844291970411
 31
0.0
  0
LINE
  5
244
330
1C7
100
AcDbEntity
  8
1
  6
Continuous
 62
     7
100
AcDbLine
 10
-218.1424822494598
 20
462.3844291970411
 30
0.0
 11
-201.1424822494653
 21
472.1993837732616
 31
0.0
  0
LINE
  5
245
330
1C7
100
AcDbEntity
  8
1
  6
Continuous
 62
     7
100
AcDbLine
 10
-153.1424822494644
 20
472.1993837732618
 30
0.0
 11
-170.1424822494648
 21
482.0143383494856
 31
0.0
  0
LINE
  5
246
330
1C7
100
AcDbEntity
  8
1
  6
Continuous
 62
     7
100
AcDbLine
 10
-170.1424822494648
 20
482.0143383494856
 30
0.0
 11
-187.142482249465
 21
472.1993837732617
 31
0.0
  0
LINE
  5
247
330
1C7
100
AcDbEntity
  8
1
  6
Continuous
 62
     7
100
AcDbLine
 10
-187.142482249465
 20
472.1993837732617
 30
0.0
 11
-170.1424822494647
 21
462.3844291970381
 31
0.0
  0
LINE
  5
248
330
1C7
100
AcDbEntity
  8
1
  6
Continuous
 62
     7
100
AcDbLine
 10
-170.1424822494647
 20
462.3844291970381
 30
0.0
 11
-153.14248224947
 21
472.1993837732587
 31
0.0
  0
LINE
  5
249
330
1C7
100
AcDbEntity
  8
1
  6
Continuous
 62
     7
100
AcDbLine
 10
-126.1424822494664
 20
479.7049372727262
 30
0.0
 11
-139.1424822494699
 21
472.1993837732589
 31
0.0
  0
LINE
  5
24A
330
1C7
100
AcDbEntity
  8
1
  6
Continuous
 62
     7
100
AcDbLine
 10
-139.1424822494699
 20
472.1993837732589
 30
0.0
 11
-126.1424822494664
 21
464.6938302737918
 31
0.0
  0
LINE
  5
24B
330
1C7
100
AcDbEntity
  8
1
  6
Continuous
 62
     7
100
AcDbLine
 10
-225.1424822494546
 20
458.3429773127104
 30
0.0
 11
-242.142482249455
 21
468.1579318889342
 31
0.0
  0
LINE
  5
24C
330
1C7
100
AcDbEntity
  8
1
  6
Continuous
 62
     7
100
AcDbLine
 10
-234.965567713215
 20
452.6716162759358
 30
0.0
 11
-225.1424822494603
 21
458.3429773127073
 31
0.0
  0
LINE
  5
24D
330
1C7
100
AcDbEntity
  8
1
  6
Continuous
 62
     7
100
AcDbLine
 10
-177.1424822494595
 20
458.3429773127075
 30
0.0
 11
-194.1424822494599
 21
468.1579318889312
 31
0.0
  0
LINE
  5
24E
330
1C7
100
AcDbEntity
  8
1
  6
Continuous
 62
     7
100
AcDbLine
 10
-194.1424822494599
 20
468.1579318889312
 30
0.0
 11
-211.1424822494602
 21
458.3429773127074
 31
0.0
  0
LINE
  5
24F
330
1C7
100
AcDbEntity
  8
1
  6
Continuous
 62
     7
100
AcDbLine
 10
-211.1424822494602
 20
458.3429773127074
 30
0.0
 11
-201.3193967857051
 21
452.6716162759358
 31
0.0
  0
LINE
  5
250
330
1C7
100
AcDbEntity
  8
1
  6
Continuous
 62
     7
100
AcDbLine
 10
-186.9655677132148
 20
452.6716162759358
 30
0.0
 11
-177.1424822494652
 21
458.3429773127043
 31
0.0
  0
LINE
  5
251
330
1C7
100
AcDbEntity
  8
1
  6
Continuous
 62
     7
100
AcDbLine
 10
-129.1424822494644
 20
458.3429773127046
 30
0.0
 11
-146.1424822494648
 21
468.1579318889284
 31
0.0
  0
LINE
  5
252
330
1C7
100
AcDbEntity
  8
1
  6
Continuous
 62
     7
100
AcDbLine
 10
-146.1424822494648
 20
468.1579318889284
 30
0.0
 11
-163.142482249465
 21
458.3429773127045
 31
0.0
  0
LINE
  5
253
330
1C7
100
AcDbEntity
  8
1
  6
Continuous
 62
     7
100
AcDbLine
 10
-163.142482249465
 20
458.3429773127045
 30
0.0
 11
-146.1424822494647
 21
448.5280227364808
 31
0.0
  0
LINE
  5
254
330
1C7
100
AcDbEntity
  8
1
  6
Continuous
 62
     7
100
AcDbLine
 10
-146.1424822494647
 20
448.5280227364808
 30
0.0
 11
-129.14248224947
 21
458.3429773127015
 31
0.0
  0
LINE
  5
255
330
1C7
100
AcDbEntity
  8
1
  6
Continuous
 62
     7
100
AcDbLine
 10
-153.1424822494531
 20
444.4865708521596
 30
0.0
 11
-170.1424822494536
 21
454.3015254283833
 31
0.0
  0
LINE
  5
256
330
1C7
100
AcDbEntity
  8
1
  6
Continuous
 62
     7
100
AcDbLine
 10
-170.1424822494536
 20
454.3015254283833
 30
0.0
 11
-187.1424822494538
 21
444.4865708521595
 31
0.0
  0
LINE
  5
257
330
1C7
100
AcDbEntity
  8
1
  6
Continuous
 62
     7
100
AcDbLine
 10
-187.1424822494538
 20
444.4865708521595
 30
0.0
 11
-170.1424822494535
 21
434.6716162759358
 31
0.0
  0
LINE
  5
258
330
1C7
100
AcDbEntity
  8
1
  6
Continuous
 62
     7
100
AcDbLine
 10
-170.1424822494535
 20
434.6716162759358
 30
0.0
 11
-153.1424822494588
 21
444.4865708521564
 31
0.0
  0
LINE
  5
259
330
1C7
100
AcDbEntity
  8
1
  6
Continuous
 62
     7
100
AcDbLine
 10
-126.1424822494664
 20
451.9921243516173
 30
0.0
 11
-139.1424822494587
 21
444.4865708521565
 31
0.0
  0
LINE
  5
25A
330
1C7
100
AcDbEntity
  8
1
  6
Continuous
 62
     7
100
AcDbLine
 10
-139.1424822494587
 20
444.4865708521565
 30
0.0
 11
-126.1424822494664
 21
436.981017352696
 31
0.0
  0
LINE
  5
25B
330
1C7
100
AcDbEntity
  8
1
  6
Continuous
 62
     7
100
AcDbLine
 10
-138.8693782808998
 20
491.6716162759355
 30
0.0
 11
-153.4155862180517
 21
491.6716162759355
 31
0.0
  0
LINE
  5
25C
330
1C7
100
AcDbEntity
  8
1
  6
Continuous
 62
     7
100
AcDbLine
 10
-186.8693782808899
 20
491.6716162759355
 30
0.0
 11
-201.4155862180519
 21
491.6716162759355
 31
0.0
  0
LINE
  5
25D
330
1C7
100
AcDbEntity
  8
1
  6
Continuous
 62
     7
100
AcDbLine
 10
-234.86937828088
 20
491.6716162759355
 30
0.0
 11
-242.1424822494664
 21
491.6716162759355
 31
0.0
  0
LINE
  5
25E
330
1C7
100
AcDbEntity
  8
1
  6
Continuous
 62
     7
100
AcDbLine
 10
-126.1424822494664
 20
479.7049372727262
 30
0.0
 11
-126.1424822494664
 21
464.6938302737918
 31
0.0
  0
LINE
  5
25F
330
1C7
100
AcDbEntity
  8
1
  6
Continuous
 62
     7
100
AcDbLine
 10
-126.1424822494664
 20
451.9921243516173
 30
0.0
 11
-126.1424822494664
 21
436.9810173526961
 31
0.0
  0
LINE
  5
260
330
1C7
100
AcDbEntity
  8
1
  6
Continuous
 62
     7
100
AcDbLine
 10
-225.1424822494657
 20
375.2874423180525
 30
0.0
 11
-234.86937828088
 21
369.6716162759361
 31
0.0
  0
LINE
  5
261
330
1C7
100
AcDbEntity
  8
1
  6
Continuous
 62
     7
100
AcDbLine
 10
-242.142482249466
 20
385.1023968942764
 30
0.0
 11
-225.1424822494714
 21
375.2874423180557
 31
0.0
  0
LINE
  5
262
330
1C7
100
AcDbEntity
  8
1
  6
Continuous
 62
     7
100
AcDbLine
 10
-177.1424822494705
 20
375.2874423180555
 30
0.0
 11
-186.8693782808899
 21
369.6716162759361
 31
0.0
  0
LINE
  5
263
330
1C7
100
AcDbEntity
  8
1
  6
Continuous
 62
     7
100
AcDbLine
 10
-201.4155862180519
 20
369.6716162759361
 30
0.0
 11
-211.1424822494712
 21
375.2874423180556
 31
0.0
  0
LINE
  5
264
330
1C7
100
AcDbEntity
  8
1
  6
Continuous
 62
     7
100
AcDbLine
 10
-211.1424822494712
 20
375.2874423180556
 30
0.0
 11
-194.1424822494708
 21
385.1023968942793
 31
0.0
  0
LINE
  5
265
330
1C7
100
AcDbEntity
  8
1
  6
Continuous
 62
     7
100
AcDbLine
 10
-194.1424822494708
 20
385.1023968942793
 30
0.0
 11
-177.1424822494762
 21
375.2874423180587
 31
0.0
  0
LINE
  5
266
330
1C7
100
AcDbEntity
  8
1
  6
Continuous
 62
     7
100
AcDbLine
 10
-129.1424822494754
 20
375.2874423180584
 30
0.0
 11
-138.8693782808998
 21
369.6716162759361
 31
0.0
  0
LINE
  5
267
330
1C7
100
AcDbEntity
  8
1
  6
Continuous
 62
     7
100
AcDbLine
 10
-153.4155862180517
 20
369.6716162759361
 30
0.0
 11
-163.1424822494761
 21
375.2874423180585
 31
0.0
  0
LINE
  5
268
330
1C7
100
AcDbEntity
  8
1
  6
Continuous
 62
     7
100
AcDbLine
 10
-163.1424822494761
 20
375.2874423180585
 30
0.0
 11
-146.1424822494757
 21
385.1023968942822
 31
0.0
  0
LINE
  5
269
330
1C7
100
AcDbEntity
  8
1
  6
Continuous
 62
     7
100
AcDbLine
 10
-146.1424822494757
 20
385.1023968942822
 30
0.0
 11
-129.1424822494811
 21
375.2874423180616
 31
0.0
  0
LINE
  5
26A
330
1C7
100
AcDbEntity
  8
1
  6
Continuous
 62
     7
100
AcDbLine
 10
-201.1424822494596
 20
389.1438487786068
 30
0.0
 11
-218.14248224946
 21
379.328894202383
 31
0.0
  0
LINE
  5
26B
330
1C7
100
AcDbEntity
  8
1
  6
Continuous
 62
     7
100
AcDbLine
 10
-218.14248224946
 20
379.328894202383
 30
0.0
 11
-235.1424822494603
 21
389.1438487786069
 31
0.0
  0
LINE
  5
26C
330
1C7
100
AcDbEntity
  8
1
  6
Continuous
 62
     7
100
AcDbLine
 10
-235.1424822494603
 20
389.1438487786069
 30
0.0
 11
-218.1424822494598
 21
398.9588033548306
 31
0.0
  0
LINE
  5
26D
330
1C7
100
AcDbEntity
  8
1
  6
Continuous
 62
     7
100
AcDbLine
 10
-218.1424822494598
 20
398.9588033548306
 30
0.0
 11
-201.1424822494653
 21
389.1438487786099
 31
0.0
  0
LINE
  5
26E
330
1C7
100
AcDbEntity
  8
1
  6
Continuous
 62
     7
100
AcDbLine
 10
-153.1424822494644
 20
389.1438487786097
 30
0.0
 11
-170.1424822494648
 21
379.328894202386
 31
0.0
  0
LINE
  5
26F
330
1C7
100
AcDbEntity
  8
1
  6
Continuous
 62
     7
100
AcDbLine
 10
-170.1424822494648
 20
379.328894202386
 30
0.0
 11
-187.142482249465
 21
389.1438487786098
 31
0.0
  0
LINE
  5
270
330
1C7
100
AcDbEntity
  8
1
  6
Continuous
 62
     7
100
AcDbLine
 10
-187.142482249465
 20
389.1438487786098
 30
0.0
 11
-170.1424822494647
 21
398.9588033548335
 31
0.0
  0
LINE
  5
271
330
1C7
100
AcDbEntity
  8
1
  6
Continuous
 62
     7
100
AcDbLine
 10
-170.1424822494647
 20
398.9588033548335
 30
0.0
 11
-153.14248224947
 21
389.1438487786129
 31
0.0
  0
LINE
  5
272
330
1C7
100
AcDbEntity
  8
1
  6
Continuous
 62
     7
100
AcDbLine
 10
-126.1424822494664
 20
381.6382952791455
 30
0.0
 11
-139.1424822494699
 21
389.1438487786128
 31
0.0
  0
LINE
  5
273
330
1C7
100
AcDbEntity
  8
1
  6
Continuous
 62
     7
100
AcDbLine
 10
-139.1424822494699
 20
389.1438487786128
 30
0.0
 11
-126.1424822494664
 21
396.6494022780798
 31
0.0
  0
LINE
  5
274
330
1C7
100
AcDbEntity
  8
1
  6
Continuous
 62
     7
100
AcDbLine
 10
-225.1424822494546
 20
403.0002552391611
 30
0.0
 11
-242.142482249455
 21
393.1853006629374
 31
0.0
  0
LINE
  5
275
330
1C7
100
AcDbEntity
  8
1
  6
Continuous
 62
     7
100
AcDbLine
 10
-234.965567713215
 20
408.6716162759358
 30
0.0
 11
-225.1424822494603
 21
403.0002552391643
 31
0.0
  0
LINE
  5
276
330
1C7
100
AcDbEntity
  8
1
  6
Continuous
 62
     7
100
AcDbLine
 10
-177.1424822494595
 20
403.0002552391641
 30
0.0
 11
-194.1424822494599
 21
393.1853006629403
 31
0.0
  0
LINE
  5
277
330
1C7
100
AcDbEntity
  8
1
  6
Continuous
 62
     7
100
AcDbLine
 10
-194.1424822494599
 20
393.1853006629403
 30
0.0
 11
-211.1424822494602
 21
403.0002552391642
 31
0.0
  0
LINE
  5
278
330
1C7
100
AcDbEntity
  8
1
  6
Continuous
 62
     7
100
AcDbLine
 10
-211.1424822494602
 20
403.0002552391642
 30
0.0
 11
-201.3193967857051
 21
408.6716162759358
 31
0.0
  0
LINE
  5
279
330
1C7
100
AcDbEntity
  8
1
  6
Continuous
 62
     7
100
AcDbLine
 10
-186.9655677132148
 20
408.6716162759358
 30
0.0
 11
-177.1424822494652
 21
403.0002552391672
 31
0.0
  0
LINE
  5
27A
330
1C7
100
AcDbEntity
  8
1
  6
Continuous
 62
     7
100
AcDbLine
 10
-129.1424822494644
 20
403.000255239167
 30
0.0
 11
-146.1424822494648
 21
393.1853006629433
 31
0.0
  0
LINE
  5
27B
330
1C7
100
AcDbEntity
  8
1
  6
Continuous
 62
     7
100
AcDbLine
 10
-146.1424822494648
 20
393.1853006629433
 30
0.0
 11
-163.142482249465
 21
403.0002552391671
 31
0.0
  0
LINE
  5
27C
330
1C7
100
AcDbEntity
  8
1
  6
Continuous
 62
     7
100
AcDbLine
 10
-163.142482249465
 20
403.0002552391671
 30
0.0
 11
-146.1424822494647
 21
412.8152098153907
 31
0.0
  0
LINE
  5
27D
330
1C7
100
AcDbEntity
  8
1
  6
Continuous
 62
     7
100
AcDbLine
 10
-146.1424822494647
 20
412.8152098153907
 30
0.0
 11
-129.14248224947
 21
403.0002552391702
 31
0.0
  0
LINE
  5
27E
330
1C7
100
AcDbEntity
  8
1
  6
Continuous
 62
     7
100
AcDbLine
 10
-153.1424822494531
 20
416.856661699712
 30
0.0
 11
-170.1424822494536
 21
407.0417071234883
 31
0.0
  0
LINE
  5
27F
330
1C7
100
AcDbEntity
  8
1
  6
Continuous
 62
     7
100
AcDbLine
 10
-170.1424822494536
 20
407.0417071234883
 30
0.0
 11
-187.1424822494538
 21
416.8566616997122
 31
0.0
  0
LINE
  5
280
330
1C7
100
AcDbEntity
  8
1
  6
Continuous
 62
     7
100
AcDbLine
 10
-187.1424822494538
 20
416.8566616997122
 30
0.0
 11
-170.1424822494535
 21
426.6716162759358
 31
0.0
  0
LINE
  5
281
330
1C7
100
AcDbEntity
  8
1
  6
Continuous
 62
     7
100
AcDbLine
 10
-170.1424822494535
 20
426.6716162759358
 30
0.0
 11
-153.1424822494588
 21
416.8566616997152
 31
0.0
  0
LINE
  5
282
330
1C7
100
AcDbEntity
  8
1
  6
Continuous
 62
     7
100
AcDbLine
 10
-126.1424822494664
 20
409.3511082002543
 30
0.0
 11
-139.1424822494587
 21
416.856661699715
 31
0.0
  0
LINE
  5
283
330
1C7
100
AcDbEntity
  8
1
  6
Continuous
 62
     7
100
AcDbLine
 10
-139.1424822494587
 20
416.856661699715
 30
0.0
 11
-126.1424822494664
 21
424.3622151991756
 31
0.0
  0
LINE
  5
284
330
1C7
100
AcDbEntity
  8
1
  6
Continuous
 62
     7
100
AcDbLine
 10
-138.8693782808998
 20
369.6716162759361
 30
0.0
 11
-153.4155862180517
 21
369.6716162759361
 31
0.0
  0
LINE
  5
285
330
1C7
100
AcDbEntity
  8
1
  6
Continuous
 62
     7
100
AcDbLine
 10
-186.8693782808899
 20
369.6716162759361
 30
0.0
 11
-201.4155862180519
 21
369.6716162759361
 31
0.0
  0
LINE
  5
286
330
1C7
100
AcDbEntity
  8
1
  6
Continuous
 62
     7
100
AcDbLine
 10
-234.86937828088
 20
369.6716162759361
 30
0.0
 11
-242.1424822494664
 21
369.6716162759361
 31
0.0
  0
LINE
  5
287
330
1C7
100
AcDbEntity
  8
1
  6
Continuous
 62
     7
100
AcDbLine
 10
-126.1424822494664
 20
381.6382952791455
 30
0.0
 11
-126.1424822494664
 21
396.6494022780798
 31
0.0
  0
LINE
  5
288
330
1C7
100
AcDbEntity
  8
1
  6
Continuous
 62
     7
100
AcDbLine
 10
-126.1424822494664
 20
409.3511082002543
 30
0.0
 11
-126.1424822494664
 21
424.3622151991756
 31
0.0
  0
LINE
  5
289
330
1C7
100
AcDbEntity
  8
1
  6
Continuous
 62
     7
100
AcDbLine
 10
-177.1424822494595
 20
430.6716162759357
 30
0.0
 11
-190.1424822494664
 21
423.1660627764667
 31
0.0
  0
LINE
  5
28A
330
1C7
100
AcDbEntity
  8
1
  6
Continuous
 62
     7
100
AcDbLine
 10
-190.1424822494664
 20
438.1771697754048
 30
0.0
 11
-177.1424822494652
 21
430.6716162759388
 31
0.0
  0
CIRCLE
  5
28B
330
1C7
100
AcDbEntity
  8
1
  6
Continuous
 62
     7
100
AcDbCircle
 10
-147.1424822494664
 20
430.6716162759358
 30
0.0
 40
8.5
  0
LINE
  5
28C
330
1C7
100
AcDbEntity
  8
1
  6
Continuous
 62
     7
100
AcDbLine
 10
-197.1424822494664
 20
445.6716162759358
 30
0.0
 11
-287.1424822494663
 21
445.6716162759358
 31
0.0
  0
LINE
  5
28D
330
1C7
100
AcDbEntity
  8
1
  6
Continuous
 62
     7
100
AcDbLine
 10
-287.1424822494663
 20
445.6716162759358
 30
0.0
 11
-287.1424822494664
 21
415.6716162759359
 31
0.0
  0
LINE
  5
28E
330
1C7
100
AcDbEntity
  8
1
  6
Continuous
 62
     7
100
AcDbLine
 10
-287.1424822494664
 20
415.6716162759359
 30
0.0
 11
-197.1424822494664
 21
415.6716162759358
 31
0.0
  0
LINE
  5
28F
330
1C7
100
AcDbEntity
  8
1
  6
Continuous
 62
     7
100
AcDbLine
 10
-197.1424822494664
 20
415.6716162759358
 30
0.0
 11
-197.1424822494664
 21
445.6716162759358
 31
0.0
  0
MTEXT
  5
291
330
1C7
100
AcDbEntity
  8
1
  6
Continuous
 62
     7
100
AcDbMText
 10
-284.2575868953205
 20
417.6716162759357
 30
0.0
 40
26.0
 41
0.0
 71
     7
 72
     5
  1
{\fHG丸ｺﾞｼｯｸM-PRO|b1|i0|c128|p50;\W1.0;散水栓}
  7
MTSTANDARD7
 73
     1
 44
0.625
  0
LINE
  5
292
330
1C7
100
AcDbEntity
  8
1
  6
Continuous
 62
     7
100
AcDbLine
 10
-297.319396785718
 20
452.6716162759358
 30
0.0
 11
-282.9655677132275
 21
452.6716162759358
 31
0.0
  0
LINE
  5
293
330
1C7
100
AcDbEntity
  8
1
  6
Continuous
 62
     7
100
AcDbLine
 10
-249.3193967857176
 20
452.6716162759358
 30
0.0
 11
-234.965567713215
 21
452.6716162759358
 31
0.0
  0
LINE
  5
294
330
1C7
100
AcDbEntity
  8
1
  6
Continuous
 62
     7
100
AcDbLine
 10
-201.3193967857051
 20
452.6716162759358
 30
0.0
 11
-186.9655677132148
 21
452.6716162759358
 31
0.0
  0
LINE
  5
295
330
1C7
100
AcDbEntity
  8
1
  6
Continuous
 62
     7
100
AcDbLine
 10
-297.319396785718
 20
408.6716162759358
 30
0.0
 11
-282.9655677132276
 21
408.6716162759358
 31
0.0
  0
LINE
  5
296
330
1C7
100
AcDbEntity
  8
1
  6
Continuous
 62
     7
100
AcDbLine
 10
-249.3193967857178
 20
408.6716162759358
 30
0.0
 11
-234.965567713215
 21
408.6716162759358
 31
0.0
  0
LINE
  5
297
330
1C7
100
AcDbEntity
  8
1
  6
Continuous
 62
     7
100
AcDbLine
 10
-201.3193967857051
 20
408.6716162759358
 30
0.0
 11
-186.9655677132148
 21
408.6716162759358
 31
0.0
  0
LINE
  5
298
330
1C7
100
AcDbEntity
  8
1
  6
Continuous
 62
     7
100
AcDbLine
 10
-190.1424822494664
 20
423.1660627764668
 30
0.0
 11
-190.1424822494664
 21
438.1771697754048
 31
0.0
  0
LINE
  5
299
330
1C7
100
AcDbEntity
  8
1
  6
Continuous
 62
     7
100
AcDbLine
 10
-294.1424822494664
 20
423.1660627764667
 30
0.0
 11
-294.1424822494664
 21
438.1771697754048
 31
0.0
  0
LINE
  5
29A
330
1C7
100
AcDbEntity
  8
1
  6
Continuous
 62
     7
100
AcDbLine
 10
-257.7424822494663
 20
360.6716162759358
 30
0.0
 11
-252.9777763671134
 21
360.6716162759358
 31
0.0
  0
ARC
  5
29B
330
1C7
100
AcDbEntity
  8
1
  6
Continuous
 62
     7
100
AcDbCircle
 10
-247.3042469553486
 20
359.0833809818182
 30
0.0
 40
1.588235294117653
100
AcDbArc
 50
90.0
 51
180.0
  0
LINE
  5
29C
330
1C7
100
AcDbEntity
  8
1
  6
Continuous
 62
     7
100
AcDbLine
 10
-241.2160116612308
 20
360.6716162759358
 30
0.0
 11
-247.3042469553486
 21
360.6716162759358
 31
0.0
  0
ARC
  5
29D
330
1C7
100
AcDbEntity
  8
1
  6
Continuous
 62
     7
100
AcDbCircle
 10
-241.2160116612308
 20
359.0833809818182
 30
0.0
 40
1.588235294117653
100
AcDbArc
 50
0.0
 51
90.0
  0
LINE
  5
29E
330
1C7
100
AcDbEntity
  8
1
  6
Continuous
 62
     7
100
AcDbLine
 10
-252.9777763671134
 20
351.6716162759358
 30
0.0
 11
-257.7424822494663
 21
351.6716162759358
 31
0.0
  0
LINE
  5
29F
330
1C7
100
AcDbEntity
  8
1
  6
Continuous
 62
     7
100
AcDbLine
 10
-241.7454234259369
 20
352.7304398053475
 30
0.0
 11
-241.7454234259369
 21
351.6716162759358
 31
0.0
  0
LINE
  5
2A0
330
1C7
100
AcDbEntity
  8
1
  6
Continuous
 62
     7
100
AcDbLine
 10
-241.7454234259369
 20
351.6716162759358
 30
0.0
 11
-239.6277763671133
 21
351.6716162759358
 31
0.0
  0
ARC
  5
2A1
330
1C7
100
AcDbEntity
  8
1
  6
Continuous
 62
     7
100
AcDbCircle
 10
-247.3042469553486
 20
353.2598515700533
 30
0.0
 40
1.588235294117653
100
AcDbArc
 50
180.0
 51
270.0
  0
LINE
  5
2A2
330
1C7
100
AcDbEntity
  8
1
  6
Continuous
 62
     7
100
AcDbLine
 10
-247.3042469553486
 20
351.6716162759358
 30
0.0
 11
-246.7748351906428
 21
351.6716162759358
 31
0.0
  0
LINE
  5
2A3
330
1C7
100
AcDbEntity
  8
1
  6
Continuous
 62
     7
100
AcDbLine
 10
-248.8924822494664
 20
353.2598515700533
 30
0.0
 11
-248.8924822494664
 21
359.0833809818182
 31
0.0
  0
ARC
  5
2A4
330
1C7
100
AcDbEntity
  8
1
  6
Continuous
 62
     7
100
AcDbCircle
 10
-228.1307175435841
 20
359.0833809818182
 30
0.0
 40
1.588235294117653
100
AcDbArc
 50
0.0
 51
90.0
  0
LINE
  5
2A5
330
1C7
100
AcDbEntity
  8
1
  6
Continuous
 62
     7
100
AcDbLine
 10
-233.9542469553487
 20
360.6716162759358
 30
0.0
 11
-228.1307175435841
 21
360.6716162759358
 31
0.0
  0
ARC
  5
2A6
330
1C7
100
AcDbEntity
  8
1
  6
Continuous
 62
     7
100
AcDbCircle
 10
-233.9542469553487
 20
359.0833809818182
 30
0.0
 40
1.588235294117653
100
AcDbArc
 50
90.0
 51
180.0
  0
ARC
  5
2A7
330
1C7
100
AcDbEntity
  8
1
  6
Continuous
 62
     7
100
AcDbCircle
 10
-233.9542469553487
 20
353.2598515700533
 30
0.0
 40
1.588235294117653
100
AcDbArc
 50
180.0
 51
270.0
  0
LINE
  5
2A8
330
1C7
100
AcDbEntity
  8
1
  6
Continuous
 62
     7
100
AcDbLine
 10
-228.1307175435841
 20
351.6716162759358
 30
0.0
 11
-233.9542469553487
 21
351.6716162759358
 31
0.0
  0
ARC
  5
2A9
330
1C7
100
AcDbEntity
  8
1
  6
Continuous
 62
     7
100
AcDbCircle
 10
-228.1307175435841
 20
353.2598515700533
 30
0.0
 40
1.588235294117653
100
AcDbArc
 50
270.0
 51
0.0
  0
LINE
  5
2AA
330
1C7
100
AcDbEntity
  8
1
  6
Continuous
 62
     7
100
AcDbLine
 10
-235.5424822494663
 20
353.2598515700533
 30
0.0
 11
-235.5424822494663
 21
354.5833809818182
 31
0.0
  0
LINE
  5
2AB
330
1C7
100
AcDbEntity
  8
1
  6
Continuous
 62
     7
100
AcDbLine
 10
-226.5424822494663
 20
359.0833809818182
 30
0.0
 11
-226.5424822494663
 21
357.7598515700533
 31
0.0
  0
LINE
  5
2AC
330
1C7
100
AcDbEntity
  8
1
  6
Continuous
 62
     7
100
AcDbLine
 10
-239.6277763671133
 20
358.0245574524065
 30
0.0
 11
-241.480717543584
 21
358.0245574524065
 31
0.0
  0
LINE
  5
2AD
330
1C7
100
AcDbEntity
  8
1
  6
Continuous
 62
     7
100
AcDbLine
 10
-241.480717543584
 20
358.0245574524065
 30
0.0
 11
-241.480717543584
 21
358.8186750994651
 31
0.0
  0
LINE
  5
2AE
330
1C7
100
AcDbEntity
  8
1
  6
Continuous
 62
     7
100
AcDbLine
 10
-241.480717543584
 20
358.8186750994651
 30
0.0
 11
-247.0395410729957
 21
358.8186750994651
 31
0.0
  0
LINE
  5
2AF
330
1C7
100
AcDbEntity
  8
1
  6
Continuous
 62
     7
100
AcDbLine
 10
-247.0395410729957
 20
358.8186750994651
 30
0.0
 11
-247.0395410729957
 21
353.5245574524065
 31
0.0
  0
LINE
  5
2B0
330
1C7
100
AcDbEntity
  8
1
  6
Continuous
 62
     7
100
AcDbLine
 10
-241.480717543584
 20
355.3774986288768
 30
0.0
 11
-244.1277763671133
 21
355.3774986288768
 31
0.0
  0
LINE
  5
2B1
330
1C7
100
AcDbEntity
  8
1
  6
Continuous
 62
     7
100
AcDbLine
 10
-244.1277763671133
 20
355.3774986288768
 30
0.0
 11
-244.1277763671133
 21
356.9657339229948
 31
0.0
  0
LINE
  5
2B2
330
1C7
100
AcDbEntity
  8
1
  6
Continuous
 62
     7
100
AcDbLine
 10
-239.6277763671133
 20
358.0245574524065
 30
0.0
 11
-239.6277763671133
 21
359.0833809818182
 31
0.0
  0
LINE
  5
2B3
330
1C7
100
AcDbEntity
  8
1
  6
Continuous
 62
     7
100
AcDbLine
 10
-241.480717543584
 20
354.5833809818182
 30
0.0
 11
-241.480717543584
 21
355.3774986288768
 31
0.0
  0
LINE
  5
2B4
330
1C7
100
AcDbEntity
  8
1
  6
Continuous
 62
     7
100
AcDbLine
 10
-241.2160116612308
 20
356.9657339229948
 30
0.0
 11
-244.1277763671133
 21
356.9657339229948
 31
0.0
  0
LINE
  5
2B5
330
1C7
100
AcDbEntity
  8
1
  6
Continuous
 62
     7
100
AcDbLine
 10
-239.6277763671133
 20
355.3774986288768
 30
0.0
 11
-239.6277763671133
 21
351.6716162759358
 31
0.0
  0
ARC
  5
2B6
330
1C7
100
AcDbEntity
  8
1
  6
Continuous
 62
     7
100
AcDbCircle
 10
-241.2160116612308
 20
355.3774986288768
 30
0.0
 40
1.588235294117653
100
AcDbArc
 50
0.0
 51
90.0
  0
LINE
  5
2B7
330
1C7
100
AcDbEntity
  8
1
  6
Continuous
 62
     7
100
AcDbLine
 10
-243.6686610709721
 20
354.5833809818182
 30
0.0
 11
-241.480717543584
 21
354.5833809818182
 31
0.0
  0
ARC
  5
2B8
330
1C7
100
AcDbEntity
  8
1
  6
Continuous
 62
     7
100
AcDbCircle
 10
-243.6686610709721
 20
352.9951456877006
 30
0.0
 40
1.588235294117653
100
AcDbArc
 50
90.0
 51
119.7448812968914
  0
LINE
  5
2B9
330
1C7
100
AcDbEntity
  8
1
  6
Continuous
 62
     7
100
AcDbLine
 10
-246.365159871114
 20
353.5245574524065
 30
0.0
 11
-247.0395410729957
 21
353.5245574524065
 31
0.0
  0
LINE
  5
2BA
330
1C7
100
AcDbEntity
  8
1
  6
Continuous
 62
     7
100
AcDbLine
 10
-245.5771744984197
 20
353.7338183443071
 30
0.0
 11
-244.4566464436659
 21
354.3741200899176
 31
0.0
  0
ARC
  5
2BB
330
1C7
100
AcDbEntity
  8
1
  6
Continuous
 62
     7
100
AcDbCircle
 10
-246.365159871114
 20
355.1127927465241
 30
0.0
 40
1.588235294117653
100
AcDbArc
 50
270.0
 51
299.7448812969056
  0
ARC
  5
2BC
330
1C7
100
AcDbEntity
  8
1
  6
Continuous
 62
     7
100
AcDbCircle
 10
-243.1765857905077
 20
351.1422045112299
 30
0.0
 40
1.588235294117653
100
AcDbArc
 50
90.0
 51
119.7448812968985
  0
LINE
  5
2BD
330
1C7
100
AcDbEntity
  8
1
  6
Continuous
 62
     7
100
AcDbLine
 10
-245.8730845906496
 20
351.6716162759358
 30
0.0
 11
-247.3042469553486
 21
351.6716162759358
 31
0.0
  0
ARC
  5
2BE
330
1C7
100
AcDbEntity
  8
1
  6
Continuous
 62
     7
100
AcDbCircle
 10
-245.8730845906496
 20
353.2598515700533
 30
0.0
 40
1.588235294117653
100
AcDbArc
 50
270.0
 51
299.7448812968914
  0
LINE
  5
2BF
330
1C7
100
AcDbEntity
  8
1
  6
Continuous
 62
     7
100
AcDbLine
 10
-243.8558977507601
 20
352.5832780062742
 30
0.0
 11
-245.0850992179558
 21
351.8808771678364
 31
0.0
  0
LINE
  5
2C0
330
1C7
100
AcDbEntity
  8
1
  6
Continuous
 62
     7
100
AcDbLine
 10
-243.1765857905077
 20
352.7304398053475
 30
0.0
 11
-241.7454234259369
 21
352.7304398053475
 31
0.0
  0
LINE
  5
2C1
330
1C7
100
AcDbEntity
  8
1
  6
Continuous
 62
     7
100
AcDbLine
 10
-257.7424822494663
 20
359.6127927465241
 30
0.0
 11
-256.4189528377017
 21
359.6127927465241
 31
0.0
  0
LINE
  5
2C2
330
1C7
100
AcDbEntity
  8
1
  6
Continuous
 62
     7
100
AcDbLine
 10
-256.4189528377017
 20
359.6127927465241
 30
0.0
 11
-256.4189528377017
 21
352.7304398053475
 31
0.0
  0
LINE
  5
2C3
330
1C7
100
AcDbEntity
  8
1
  6
Continuous
 62
     7
100
AcDbLine
 10
-256.4189528377017
 20
352.7304398053475
 30
0.0
 11
-257.7424822494663
 21
352.7304398053475
 31
0.0
  0
LINE
  5
2C4
330
1C7
100
AcDbEntity
  8
1
  6
Continuous
 62
     7
100
AcDbLine
 10
-254.301305778878
 20
352.7304398053475
 30
0.0
 11
-252.9777763671134
 21
352.7304398053475
 31
0.0
  0
LINE
  5
2C5
330
1C7
100
AcDbEntity
  8
1
  6
Continuous
 62
     7
100
AcDbLine
 10
-254.301305778878
 20
352.7304398053475
 30
0.0
 11
-254.301305778878
 21
359.6127927465241
 31
0.0
  0
LINE
  5
2C6
330
1C7
100
AcDbEntity
  8
1
  6
Continuous
 62
     7
100
AcDbLine
 10
-254.301305778878
 20
359.6127927465241
 30
0.0
 11
-252.9777763671134
 21
359.6127927465241
 31
0.0
  0
LINE
  5
2C7
330
1C7
100
AcDbEntity
  8
1
  6
Continuous
 62
     7
100
AcDbLine
 10
-252.9777763671134
 20
360.6716162759358
 30
0.0
 11
-252.9777763671134
 21
359.6127927465241
 31
0.0
  0
LINE
  5
2C8
330
1C7
100
AcDbEntity
  8
1
  6
Continuous
 62
     7
100
AcDbLine
 10
-257.7424822494663
 20
359.6127927465241
 30
0.0
 11
-257.7424822494663
 21
360.6716162759358
 31
0.0
  0
LINE
  5
2C9
330
1C7
100
AcDbEntity
  8
1
  6
Continuous
 62
     7
100
AcDbLine
 10
-257.7424822494663
 20
351.6716162759358
 30
0.0
 11
-257.7424822494663
 21
352.7304398053475
 31
0.0
  0
LINE
  5
2CA
330
1C7
100
AcDbEntity
  8
1
  6
Continuous
 62
     7
100
AcDbLine
 10
-252.9777763671134
 20
352.7304398053475
 30
0.0
 11
-252.9777763671134
 21
351.6716162759358
 31
0.0
  0
LINE
  5
2CB
330
1C7
100
AcDbEntity
  8
1
  6
Continuous
 62
     7
100
AcDbLine
 10
-233.6895410729958
 20
358.8186750994651
 30
0.0
 11
-228.395423425937
 21
358.8186750994651
 31
0.0
  0
LINE
  5
2CC
330
1C7
100
AcDbEntity
  8
1
  6
Continuous
 62
     7
100
AcDbLine
 10
-228.395423425937
 20
358.8186750994651
 30
0.0
 11
-228.395423425937
 21
357.7598515700533
 31
0.0
  0
LINE
  5
2CD
330
1C7
100
AcDbEntity
  8
1
  6
Continuous
 62
     7
100
AcDbLine
 10
-233.6895410729958
 20
354.5833809818182
 30
0.0
 11
-233.6895410729958
 21
353.5245574524065
 31
0.0
  0
LINE
  5
2CE
330
1C7
100
AcDbEntity
  8
1
  6
Continuous
 62
     7
100
AcDbLine
 10
-233.6895410729958
 20
353.5245574524065
 30
0.0
 11
-228.395423425937
 21
353.5245574524065
 31
0.0
  0
LINE
  5
2CF
330
1C7
100
AcDbEntity
  8
1
  6
Continuous
 62
     7
100
AcDbLine
 10
-233.6895410729958
 20
354.5833809818182
 30
0.0
 11
-235.5424822494663
 21
354.5833809818182
 31
0.0
  0
LINE
  5
2D0
330
1C7
100
AcDbEntity
  8
1
  6
Continuous
 62
     7
100
AcDbLine
 10
-226.5424822494663
 20
357.7598515700533
 30
0.0
 11
-228.395423425937
 21
357.7598515700533
 31
0.0
  0
LINE
  5
2D1
330
1C7
100
AcDbEntity
  8
1
  6
Continuous
 62
     7
100
AcDbLine
 10
-228.395423425937
 20
353.5245574524065
 30
0.0
 11
-228.395423425937
 21
355.3774986288768
 31
0.0
  0
LINE
  5
2D2
330
1C7
100
AcDbEntity
  8
1
  6
Continuous
 62
     7
100
AcDbLine
 10
-233.6895410729958
 20
356.9657339229948
 30
0.0
 11
-233.6895410729958
 21
358.8186750994651
 31
0.0
  0
LINE
  5
2D3
330
1C7
100
AcDbEntity
  8
1
  6
Continuous
 62
     7
100
AcDbLine
 10
-226.5424822494663
 20
355.3774986288768
 30
0.0
 11
-226.5424822494663
 21
353.2598515700533
 31
0.0
  0
LINE
  5
2D4
330
1C7
100
AcDbEntity
  8
1
  6
Continuous
 62
     7
100
AcDbLine
 10
-228.1307175435841
 20
356.9657339229948
 30
0.0
 11
-233.6895410729958
 21
356.9657339229948
 31
0.0
  0
ARC
  5
2D5
330
1C7
100
AcDbEntity
  8
1
  6
Continuous
 62
     7
100
AcDbCircle
 10
-228.1307175435841
 20
355.3774986288768
 30
0.0
 40
1.588235294117653
100
AcDbArc
 50
0.0
 51
90.0
  0
LINE
  5
2D6
330
1C7
100
AcDbEntity
  8
1
  6
Continuous
 62
     7
100
AcDbLine
 10
-233.9542469554767
 20
355.3774986288768
 30
0.0
 11
-228.395423425937
 21
355.3774986288768
 31
0.0
  0
LINE
  5
2D7
330
1C7
100
AcDbEntity
  8
1
  6
Continuous
 62
     7
100
AcDbLine
 10
-235.5424822494663
 20
356.9657339229948
 30
0.0
 11
-235.5424822494663
 21
359.0833809818182
 31
0.0
  0
ARC
  5
2D8
330
1C7
100
AcDbEntity
  8
1
  6
Continuous
 62
     7
100
AcDbCircle
 10
-233.9542469554767
 20
356.9657339229948
 30
0.0
 40
1.588235294117653
100
AcDbArc
 50
180.0
 51
270.0
  0
POINT
  5
2D9
330
1C7
100
AcDbEntity
  8
1
  6
Continuous
 62
     7
100
AcDbPoint
 10
-257.7424822494663
 20
360.6716162759358
 30
0.0
  0
POINT
  5
2DA
330
1C7
100
AcDbEntity
  8
1
  6
Continuous
 62
     7
100
AcDbPoint
 10
-257.7424822494663
 20
351.6716162759358
 30
0.0
  0
POINT
  5
2DB
330
1C7
100
AcDbEntity
  8
1
  6
Continuous
 62
     7
100
AcDbPoint
 10
-226.5424822494663
 20
351.6716162759358
 30
0.0
  0
POINT
  5
2DC
330
1C7
100
AcDbEntity
  8
1
  6
Continuous
 62
     7
100
AcDbPoint
 10
-226.5424822494663
 20
360.6716162759358
 30
0.0
  0
POINT
  5
2DD
330
1C7
100
AcDbEntity
  8
1
  6
Continuous
 62
     7
100
AcDbPoint
 10
-245.451305778761
 20
351.6716162759358
 30
0.0
  0
POINT
  5
2DE
330
1C7
100
AcDbEntity
  8
1
  6
Continuous
 62
     7
100
AcDbPoint
 10
-243.5983646023967
 20
352.7304398053475
 30
0.0
  0
POINT
  5
2DF
330
1C7
100
AcDbEntity
  8
1
  6
Continuous
 62
     7
100
AcDbPoint
 10
-245.9433810592252
 20
353.5245574524065
 30
0.0
  0
POINT
  5
2E0
330
1C7
100
AcDbEntity
  8
1
  6
Continuous
 62
     7
100
AcDbPoint
 10
-244.0904398828607
 20
354.5833809818182
 30
0.0
  0
POINT
  5
2E1
330
1C7
100
AcDbEntity
  8
1
  6
Continuous
 62
     7
100
AcDbPoint
 10
-242.1424822494664
 20
356.1716162759358
 30
0.0
  0
LINE
  5
2E2
330
1C7
100
AcDbEntity
  8
1
  6
CENTER2
 62
     5
100
AcDbLine
 10
-337.1424822494664
 20
444.1716162759358
 30
0.0
 11
-337.1424822494664
 21
417.1716162759358
 31
0.0
  0
LINE
  5
2E3
330
1C7
100
AcDbEntity
  8
1
  6
CENTER2
 62
     5
100
AcDbLine
 10
-147.1424822494664
 20
444.1716162759358
 30
0.0
 11
-147.1424822494664
 21
417.1716162759358
 31
0.0
  0
ENDBLK
  5
1C9
330
1C7
100
AcDbEntity
  8
0
100
AcDbBlockEnd
  0
BLOCK
  5
2E6
330
2E5
100
AcDbEntity
  8
0
100
AcDbBlockBegin
  2
BLK2
 70
     0
 10
-241.3575868953205
 20
231.2143713660153
 30
0.0
  3
BLK2
  1

  0
LINE
  5
2E8
330
2E5
100
AcDbEntity
  8
1
  6
Continuous
 62
     7
100
AcDbLine
 10
-241.3575868953205
 20
231.2143713660153
 30
0.0
 11
-389.3575868953207
 21
231.2143713660154
 31
0.0
  0
LINE
  5
2E9
330
2E5
100
AcDbEntity
  8
1
  6
Continuous
 62
     7
100
AcDbLine
 10
-389.3575868953207
 20
231.2143713660154
 30
0.0
 11
-387.3575868953205
 21
219.2143713660155
 31
0.0
  0
LINE
  5
2EA
330
2E5
100
AcDbEntity
  8
1
  6
Continuous
 62
     7
100
AcDbLine
 10
-387.3575868953205
 20
219.2143713660155
 30
0.0
 11
-381.3575868953205
 21
219.2143713660151
 31
0.0
  0
LINE
  5
2EB
330
2E5
100
AcDbEntity
  8
1
  6
Continuous
 62
     7
100
AcDbLine
 10
-381.3575868953205
 20
219.2143713660151
 30
0.0
 11
-380.8134350513092
 21
220.8468268980491
 31
0.0
  0
LINE
  5
2EC
330
2E5
100
AcDbEntity
  8
1
  6
Continuous
 62
     7
100
AcDbLine
 10
-378.9160684552081
 20
222.2143713660154
 30
0.0
 11
-365.7644043976635
 21
222.2143713660154
 31
0.0
  0
LINE
  5
2ED
330
2E5
100
AcDbEntity
  8
1
  6
Continuous
 62
     7
100
AcDbLine
 10
-351.9507693929777
 20
222.2143713660154
 30
0.0
 11
-348.3575868953205
 21
222.2143713660154
 31
0.0
  0
LINE
  5
2EE
330
2E5
100
AcDbEntity
  8
1
  6
Continuous
 62
     7
100
AcDbLine
 10
-324.3575868953203
 20
222.2143713660154
 30
0.0
 11
-241.3575868953207
 21
222.2143713660154
 31
0.0
  0
LINE
  5
2EF
330
2E5
100
AcDbEntity
  8
1
  6
Continuous
 62
     7
100
AcDbLine
 10
-344.8575868953205
 20
231.2143713660153
 30
0.0
 11
-348.5634692482618
 21
222.2143713660154
 31
0.0
  0
LINE
  5
2F0
330
2E5
100
AcDbEntity
  8
1
  6
Continuous
 62
     7
100
AcDbLine
 10
-327.8575868953205
 20
231.2143713660153
 30
0.0
 11
-324.1517045423793
 21
222.2143713660154
 31
0.0
  0
LINE
  5
2F1
330
2E5
100
AcDbEntity
  8
1
  6
Continuous
 62
     7
100
AcDbLine
 10
-363.7666786332131
 20
220.3097221397477
 30
0.0
 11
-362.946288160497
 21
203.1214485673104
 31
0.0
  0
LINE
  5
2F2
330
2E5
100
AcDbEntity
  8
1
  6
Continuous
 62
     7
100
AcDbLine
 10
-360.9484479883409
 20
201.2143713660154
 30
0.0
 11
-356.7667258023001
 21
201.2143713660154
 31
0.0
  0
LINE
  5
2F3
330
2E5
100
AcDbEntity
  8
1
  6
Continuous
 62
     7
100
AcDbLine
 10
-354.768885630144
 20
203.1214485673104
 30
0.0
 11
-353.9484951574279
 21
220.3097221397477
 31
0.0
  0
LINE
  5
2F4
330
2E5
100
AcDbEntity
  8
1
  6
Continuous
 62
     7
100
AcDbLine
 10
-363.4757496064231
 20
214.2143713660153
 30
0.0
 11
-354.239424184218
 21
214.2143713660154
 31
0.0
  0
LINE
  5
2F5
330
2E5
100
AcDbEntity
  8
1
  6
Continuous
 62
     7
100
AcDbLine
 10
-363.1416419786376
 20
207.2143713660154
 30
0.0
 11
-354.5735318120035
 21
207.2143713660154
 31
0.0
  0
LINE
  5
2F6
330
2E5
100
AcDbEntity
  8
1
  6
Continuous
 62
     7
100
AcDbLine
 10
-324.3575868953205
 20
222.2143713660153
 30
0.0
 11
-348.3575868953205
 21
222.2143713660154
 31
0.0
  0
POINT
  5
2F7
330
2E5
100
AcDbEntity
  8
1
  6
Continuous
 62
     7
100
AcDbPoint
 10
-380.3575868953203
 20
222.2143713660154
 30
0.0
  0
POINT
  5
2F8
330
2E5
100
AcDbEntity
  8
1
  6
Continuous
 62
     7
100
AcDbPoint
 10
-363.8575868953205
 20
222.2143713660154
 30
0.0
  0
POINT
  5
2F9
330
2E5
100
AcDbEntity
  8
1
  6
Continuous
 62
     7
100
AcDbPoint
 10
-353.8575868953205
 20
222.2143713660154
 30
0.0
  0
POINT
  5
2FA
330
2E5
100
AcDbEntity
  8
1
  6
Continuous
 62
     7
100
AcDbPoint
 10
-354.8575868953205
 20
201.2143713660154
 30
0.0
  0
POINT
  5
2FB
330
2E5
100
AcDbEntity
  8
1
  6
Continuous
 62
     7
100
AcDbPoint
 10
-362.8575868953205
 20
201.2143713660154
 30
0.0
  0
ARC
  5
2FC
330
2E5
100
AcDbEntity
  8
1
  6
Continuous
 62
     7
100
AcDbCircle
 10
-360.9484479883409
 20
203.2143713660154
 30
0.0
 40
2.0
100
AcDbArc
 50
182.6630007660671
 51
270.0
  0
ARC
  5
2FD
330
2E5
100
AcDbEntity
  8
1
  6
Continuous
 62
     7
100
AcDbCircle
 10
-356.7667258023001
 20
203.2143713660154
 30
0.0
 40
2.0
100
AcDbArc
 50
270.0
 51
357.3369992339329
  0
LINE
  5
2FE
330
2E5
100
AcDbEntity
  8
1
  6
Continuous
 62
     7
100
AcDbLine
 10
-241.3575868953205
 20
231.2143713660153
 30
0.0
 11
-154.8575868953205
 21
231.2143713660131
 31
0.0
  0
LINE
  5
2FF
330
2E5
100
AcDbEntity
  8
1
  6
Continuous
 62
     7
100
AcDbLine
 10
-137.8575868953205
 20
231.2143713660126
 30
0.0
 11
-93.35758689532042
 21
231.2143713660116
 31
0.0
  0
LINE
  5
300
330
2E5
100
AcDbEntity
  8
1
  6
Continuous
 62
     7
100
AcDbLine
 10
-93.43758689532046
 20
231.2143713660116
 30
0.0
 11
-95.35758689532088
 21
219.2143713660118
 31
0.0
  0
LINE
  5
301
330
2E5
100
AcDbEntity
  8
1
  6
Continuous
 62
     7
100
AcDbLine
 10
-95.35758689532088
 20
219.2143713660118
 30
0.0
 11
-101.3575868953209
 21
219.2143713660116
 31
0.0
  0
LINE
  5
302
330
2E5
100
AcDbEntity
  8
1
  6
Continuous
 62
     7
100
AcDbLine
 10
-101.3575868953209
 20
219.2143713660116
 30
0.0
 11
-101.9017387393321
 21
220.8468268980455
 31
0.0
  0
LINE
  5
303
330
2E5
100
AcDbEntity
  8
1
  6
Continuous
 62
     7
100
AcDbLine
 10
-103.7991053354331
 20
222.2143713660119
 30
0.0
 11
-134.3575868953219
 21
222.2143713660154
 31
0.0
  0
LINE
  5
304
330
2E5
100
AcDbEntity
  8
1
  6
Continuous
 62
     7
100
AcDbLine
 10
-158.357586895321
 20
222.2143713660133
 30
0.0
 11
-241.3575868953207
 21
222.2143713660154
 31
0.0
  0
LINE
  5
305
330
2E5
100
AcDbEntity
  8
1
  6
Continuous
 62
     7
100
AcDbLine
 10
-137.8575868953205
 20
231.2143713660128
 30
0.0
 11
-154.8575868953202
 21
231.2143713660132
 31
0.0
  0
LINE
  5
306
330
2E5
100
AcDbEntity
  8
1
  6
Continuous
 62
     7
100
AcDbLine
 10
-158.3575868953208
 20
222.2143713660132
 30
0.0
 11
-134.3575868953208
 21
222.2143713660126
 31
0.0
  0
POINT
  5
307
330
2E5
100
AcDbEntity
  8
1
  6
Continuous
 62
     7
100
AcDbPoint
 10
-102.357586895321
 20
222.2143713660118
 30
0.0
  0
LINE
  5
308
330
2E5
100
AcDbEntity
  8
1
  6
Continuous
 62
     7
100
AcDbLine
 10
-377.3575868953205
 20
231.2143713660153
 30
0.0
 11
-377.3575868953205
 21
228.2143713660153
 31
0.0
  0
LINE
  5
309
330
2E5
100
AcDbEntity
  8
1
  6
Continuous
 62
     7
100
AcDbLine
 10
-377.3575868953205
 20
228.2143713660153
 30
0.0
 11
-364.3575868953205
 21
228.2143713660153
 31
0.0
  0
LINE
  5
30A
330
2E5
100
AcDbEntity
  8
1
  6
Continuous
 62
     7
100
AcDbLine
 10
-364.3575868953205
 20
228.2143713660153
 30
0.0
 11
-364.3575868953205
 21
231.2143713660153
 31
0.0
  0
LINE
  5
30B
330
2E5
100
AcDbEntity
  8
1
  6
Continuous
 62
     7
100
AcDbLine
 10
-306.3575868953217
 20
231.2143713660153
 30
0.0
 11
-306.3575868953217
 21
228.2143713660153
 31
0.0
  0
LINE
  5
30C
330
2E5
100
AcDbEntity
  8
1
  6
Continuous
 62
     7
100
AcDbLine
 10
-306.3575868953217
 20
228.2143713660153
 30
0.0
 11
-293.3575868953205
 21
228.2143713660153
 31
0.0
  0
LINE
  5
30D
330
2E5
100
AcDbEntity
  8
1
  6
Continuous
 62
     7
100
AcDbLine
 10
-293.3575868953205
 20
228.2143713660153
 30
0.0
 11
-293.3575868953205
 21
231.2143713660153
 31
0.0
  0
LINE
  5
30E
330
2E5
100
AcDbEntity
  8
1
  6
Continuous
 62
     7
100
AcDbLine
 10
-286.3575868953204
 20
228.2143713660153
 30
0.0
 11
-286.3575868953204
 21
231.2143713660153
 31
0.0
  0
LINE
  5
30F
330
2E5
100
AcDbEntity
  8
1
  6
Continuous
 62
     7
100
AcDbLine
 10
-286.3575868953204
 20
228.2143713660153
 30
0.0
 11
-196.3575868953205
 21
228.214371366015
 31
0.0
  0
LINE
  5
310
330
2E5
100
AcDbEntity
  8
1
  6
Continuous
 62
     7
100
AcDbLine
 10
-196.3575868953205
 20
228.2143713660153
 30
0.0
 11
-196.3575868953205
 21
231.2143713660153
 31
0.0
  0
LINE
  5
311
330
2E5
100
AcDbEntity
  8
1
  6
Continuous
 62
     7
100
AcDbLine
 10
-105.3575868953205
 20
231.2143713660153
 30
0.0
 11
-105.3575868953205
 21
228.2143713660153
 31
0.0
  0
LINE
  5
312
330
2E5
100
AcDbEntity
  8
1
  6
Continuous
 62
     7
100
AcDbLine
 10
-105.3575868953205
 20
228.2143713660153
 30
0.0
 11
-118.3575868953205
 21
228.2143713660153
 31
0.0
  0
LINE
  5
313
330
2E5
100
AcDbEntity
  8
1
  6
Continuous
 62
     7
100
AcDbLine
 10
-118.3575868953205
 20
228.2143713660153
 30
0.0
 11
-118.3575868953205
 21
231.2143713660153
 31
0.0
  0
LINE
  5
314
330
2E5
100
AcDbEntity
  8
1
  6
Continuous
 62
     7
100
AcDbLine
 10
-176.3575868953194
 20
231.2143713660153
 30
0.0
 11
-176.3575868953194
 21
228.2143713660153
 31
0.0
  0
LINE
  5
315
330
2E5
100
AcDbEntity
  8
1
  6
Continuous
 62
     7
100
AcDbLine
 10
-176.3575868953194
 20
228.2143713660153
 30
0.0
 11
-189.3575868953205
 21
228.2143713660153
 31
0.0
  0
LINE
  5
316
330
2E5
100
AcDbEntity
  8
1
  6
Continuous
 62
     7
100
AcDbLine
 10
-189.3575868953205
 20
228.2143713660153
 30
0.0
 11
-189.3575868953205
 21
231.2143713660153
 31
0.0
  0
LINE
  5
317
330
2E5
100
AcDbEntity
  8
1
  6
Continuous
 62
     7
100
AcDbLine
 10
-381.3575868953205
 20
219.2143713660151
 30
0.0
 11
-363.714397911984
 21
219.2143713660151
 31
0.0
  0
LINE
  5
318
330
2E5
100
AcDbEntity
  8
1
  6
Continuous
 62
     7
100
AcDbLine
 10
-354.0007758786571
 20
219.2143713660151
 30
0.0
 11
-101.3575868953209
 21
219.2143713660116
 31
0.0
  0
LINE
  5
319
330
2E5
100
AcDbEntity
  8
1
  6
Continuous
 62
     7
100
AcDbLine
 10
-137.8575868953205
 20
231.2143713660153
 30
0.0
 11
-134.1517045423793
 21
222.2143713660154
 31
0.0
  0
LINE
  5
31A
330
2E5
100
AcDbEntity
  8
1
  6
Continuous
 62
     7
100
AcDbLine
 10
-154.8575868953205
 20
231.2143713660153
 30
0.0
 11
-158.5634692482618
 21
222.2143713660154
 31
0.0
  0
ARC
  5
31B
330
2E5
100
AcDbEntity
  8
1
  6
Continuous
 62
     7
100
AcDbCircle
 10
-378.9160684552081
 20
220.2143713660154
 30
0.0
 40
2.0
100
AcDbArc
 50
90.0
 51
161.5650511770759
  0
ARC
  5
31C
330
2E5
100
AcDbEntity
  8
1
  6
Continuous
 62
     7
100
AcDbCircle
 10
-365.7644043976635
 20
220.2143713660154
 30
0.0
 40
2.0
100
AcDbArc
 50
2.732634308306936
 51
90.0
  0
ARC
  5
31D
330
2E5
100
AcDbEntity
  8
1
  6
Continuous
 62
     7
100
AcDbCircle
 10
-351.9507693929776
 20
220.2143713660154
 30
0.0
 40
2.0
100
AcDbArc
 50
90.00000000000325
 51
177.2673656916931
  0
ARC
  5
31E
330
2E5
100
AcDbEntity
  8
1
  6
Continuous
 62
     7
100
AcDbCircle
 10
-103.7991053354333
 20
220.2143713660118
 30
0.0
 40
2.0
100
AcDbArc
 50
18.43494882292149
 51
89.99999999999349
  0
HATCH
  5
31F
330
2E5
100
AcDbEntity
  8
1
  6
Continuous
 62
     7
100
AcDbHatch
 10
0.0
 20
0.0
 30
0.0
210
0.0
220
0.0
230
1.0
  2
_U
 70
     0
 71
     0
 91
        5
 92
        0
 93
       17
 72
     1
 10
-344.8575868953205
 20
231.2143713660154
 11
-364.3575868953205
 21
231.2143713660153
 72
     1
 10
-364.3575868953205
 20
231.2143713660153
 11
-364.3575868953205
 21
228.2143713660153
 72
     1
 10
-364.3575868953205
 20
228.2143713660153
 11
-377.3575868953205
 21
228.2143713660153
 72
     1
 10
-377.3575868953205
 20
228.2143713660153
 11
-377.3575868953205
 21
231.2143713660153
 72
     1
 10
-377.3575868953205
 20
231.2143713660154
 11
-389.3575868953207
 21
231.2143713660154
 72
     1
 10
-389.3575868953207
 20
231.2143713660154
 11
-387.3575868953205
 21
219.2143713660155
 72
     1
 10
-387.3575868953205
 20
219.2143713660155
 11
-381.3575868953205
 21
219.2143713660151
 72
     1
 10
-381.3575868953205
 20
219.2143713660151
 11
-380.8134350513092
 21
220.8468268980491
 72
     2
 10
-378.9160684552081
 20
220.2143713660154
 40
2.0
 50
198.434948822924
 51
270.0
 73
     0
 72
     1
 10
-378.9160684552081
 20
222.2143713660154
 11
-365.7644043976635
 21
222.2143713660154
 72
     2
 10
-365.7644043976635
 20
220.2143713660154
 40
2.0
 50
270.0
 51
357.267365691693
 73
     0
 72
     1
 10
-363.7666786332131
 20
220.3097221397477
 11
-363.4757496064231
 21
214.2143713660153
 72
     1
 10
-363.4757496064231
 20
214.2143713660153
 11
-354.239424184218
 21
214.2143713660154
 72
     1
 10
-354.239424184218
 20
214.2143713660153
 11
-353.9484951574279
 21
220.3097221397477
 72
     2
 10
-351.9507693929776
 20
220.2143713660154
 40
2.0
 50
182.7326343083069
 51
269.9999999999968
 73
     0
 72
     1
 10
-351.9507693929777
 20
222.2143713660154
 11
-348.5634692482618
 21
222.2143713660154
 72
     1
 10
-348.5634692482618
 20
222.2143713660154
 11
-344.8575868953205
 21
231.2143713660153
 97
        0
 92
        0
 93
        6
 72
     1
 10
-354.5735318120035
 20
207.2143713660154
 11
-363.1416419786376
 21
207.2143713660154
 72
     1
 10
-363.1416419786376
 20
207.2143713660154
 11
-362.946288160497
 21
203.1214485673104
 72
     2
 10
-360.9484479883409
 20
203.2143713660154
 40
2.0
 50
182.6630007660671
 51
270.0
 73
     1
 72
     1
 10
-360.9484479883409
 20
201.2143713660154
 11
-356.7667258023001
 21
201.2143713660154
 72
     2
 10
-356.7667258023001
 20
203.2143713660154
 40
2.0
 50
270.0
 51
357.3369992339329
 73
     1
 72
     1
 10
-354.768885630144
 20
203.1214485673104
 11
-354.5735318120035
 21
207.2143713660154
 97
        0
 92
        0
 93
       10
 72
     1
 10
-154.8575868953205
 20
231.2143713660131
 11
-176.3575868953194
 21
231.2143713660153
 72
     1
 10
-176.3575868953194
 20
231.2143713660153
 11
-176.3575868953194
 21
228.2143713660153
 72
     1
 10
-176.3575868953194
 20
228.2143713660153
 11
-189.3575868953205
 21
228.2143713660153
 72
     1
 10
-189.3575868953205
 20
228.2143713660153
 11
-189.3575868953205
 21
231.2143713660153
 72
     1
 10
-189.3575868953205
 20
231.2143713660139
 11
-196.3575868953205
 21
231.2143713660153
 72
     1
 10
-196.3575868953205
 20
231.2143713660153
 11
-196.3575868953205
 21
228.2143713660153
 72
     1
 10
-196.3575868953205
 20
228.214371366015
 11
-241.3575868953205
 21
228.2143713660153
 72
     1
 10
-241.3575868953205
 20
228.2143713660153
 11
-241.3575868953205
 21
222.2143713660154
 72
     1
 10
-241.3575868953207
 20
222.2143713660154
 11
-158.5634692482625
 21
222.2143713660133
 72
     1
 10
-158.5634692482618
 20
222.2143713660154
 11
-154.8575868953205
 21
231.2143713660153
 97
        0
 92
        0
 93
       10
 72
     1
 10
-241.3575868953205
 20
228.2143713660151
 11
-286.3575868953204
 21
228.2143713660153
 72
     1
 10
-286.3575868953204
 20
228.2143713660153
 11
-286.3575868953204
 21
231.2143713660153
 72
     1
 10
-286.3575868953204
 20
231.2143713660153
 11
-293.3575868953205
 21
231.2143713660153
 72
     1
 10
-293.3575868953205
 20
231.2143713660153
 11
-293.3575868953205
 21
228.2143713660153
 72
     1
 10
-293.3575868953205
 20
228.2143713660153
 11
-306.3575868953217
 21
228.2143713660153
 72
     1
 10
-306.3575868953217
 20
228.2143713660153
 11
-306.3575868953217
 21
231.2143713660153
 72
     1
 10
-306.3575868953217
 20
231.2143713660153
 11
-327.8575868953205
 21
231.2143713660153
 72
     1
 10
-327.8575868953205
 20
231.2143713660153
 11
-324.1517045423793
 21
222.2143713660154
 72
     1
 10
-324.1517045423793
 20
222.2143713660154
 11
-241.3575868953207
 21
222.2143713660154
 72
     1
 10
-241.3575868953205
 20
222.2143713660154
 11
-241.3575868953205
 21
228.2143713660151
 97
        0
 92
        0
 93
       11
 72
     1
 10
-93.43758689532046
 20
231.2143713660116
 11
-105.3575868953205
 21
231.2143713660126
 72
     1
 10
-105.3575868953205
 20
231.2143713660153
 11
-105.3575868953205
 21
228.2143713660153
 72
     1
 10
-105.3575868953205
 20
228.2143713660153
 11
-118.3575868953205
 21
228.2143713660153
 72
     1
 10
-118.3575868953205
 20
228.2143713660153
 11
-118.3575868953205
 21
231.2143713660153
 72
     1
 10
-118.3575868953205
 20
231.2143713660122
 11
-137.8575868953205
 21
231.2143713660126
 72
     1
 10
-137.8575868953205
 20
231.2143713660153
 11
-134.1517045423793
 21
222.2143713660154
 72
     1
 10
-134.1517045423795
 20
222.2143713660158
 11
-103.7991053354331
 21
222.2143713660119
 72
     2
 10
-103.7991053354333
 20
220.2143713660118
 40
2.0
 50
270.0000000000065
 51
341.5650511770785
 73
     0
 72
     1
 10
-101.9017387393321
 20
220.8468268980455
 11
-101.3575868953209
 21
219.2143713660116
 72
     1
 10
-101.3575868953209
 20
219.2143713660116
 11
-95.35758689532088
 21
219.2143713660118
 72
     1
 10
-95.35758689532088
 20
219.2143713660118
 11
-93.43758689532046
 21
231.2143713660116
 97
        0
 75
     0
 76
     0
 52
45.0
 41
2.0
 77
     0
 78
     1
 53
45.0
 43
0.0
 44
0.0
 45
-1.414213562373095
 46
1.414213562373095
 79
     0
 98
        1
 10
0.0
 20
0.0
  0
ENDBLK
  5
2E7
330
2E5
100
AcDbEntity
  8
0
100
AcDbBlockEnd
  0
BLOCK
  5
36F
330
36E
100
AcDbEntity
  8
0
100
AcDbBlockBegin
  2
BLK3
 70
     0
 10
-341.3575868953205
 20
181.2150328894331
 30
0.0
  3
BLK3
  1

  0
CIRCLE
  5
371
330
36E
100
AcDbEntity
  8
1
  6
Continuous
 62
     7
100
AcDbCircle
 10
-341.3575868953205
 20
181.2150328894331
 30
0.0
 40
3.0
  0
CIRCLE
  5
372
330
36E
100
AcDbEntity
  8
1
  6
Continuous
 62
     3
100
AcDbCircle
 10
-341.3575868953205
 20
181.2150328894331
 30
0.0
 40
2.4585
  0
LINE
  5
373
330
36E
100
AcDbEntity
  8
1
  6
Continuous
 62
     7
100
AcDbLine
 10
-336.3575868953205
 20
184.1017842353812
 30
0.0
 11
-341.3575868953205
 21
186.9885355813294
 31
0.0
  0
LINE
  5
374
330
36E
100
AcDbEntity
  8
1
  6
Continuous
 62
     7
100
AcDbLine
 10
-341.3575868953205
 20
186.9885355813294
 30
0.0
 11
-346.3575868953205
 21
184.1017842353812
 31
0.0
  0
LINE
  5
375
330
36E
100
AcDbEntity
  8
1
  6
Continuous
 62
     7
100
AcDbLine
 10
-346.3575868953205
 20
184.1017842353812
 30
0.0
 11
-346.3575868953205
 21
178.3282815434849
 31
0.0
  0
LINE
  5
376
330
36E
100
AcDbEntity
  8
1
  6
Continuous
 62
     7
100
AcDbLine
 10
-346.3575868953205
 20
178.3282815434849
 30
0.0
 11
-341.3575868953205
 21
175.4415301975368
 31
0.0
  0
LINE
  5
377
330
36E
100
AcDbEntity
  8
1
  6
Continuous
 62
     7
100
AcDbLine
 10
-341.3575868953205
 20
175.4415301975368
 30
0.0
 11
-336.3575868953205
 21
178.3282815434849
 31
0.0
  0
LINE
  5
378
330
36E
100
AcDbEntity
  8
1
  6
Continuous
 62
     7
100
AcDbLine
 10
-336.3575868953205
 20
178.3282815434849
 30
0.0
 11
-336.3575868953205
 21
184.1017842353812
 31
0.0
  0
CIRCLE
  5
379
330
36E
100
AcDbEntity
  8
1
  6
Continuous
 62
     7
100
AcDbCircle
 10
-341.3575868953205
 20
181.2150328894331
 30
0.0
 40
5.0
  0
ENDBLK
  5
370
330
36E
100
AcDbEntity
  8
0
100
AcDbBlockEnd
  0
ENDSEC
  0
SECTION
  2
ENTITIES
  0
LINE
  5
AF
330
1F
100
AcDbEntity
  8
1
  6
Continuous
 62
     7
100
AcDbLine
 10
-522.3479302229864
 20
603.2991610902764
 30
0.0
 11
11.65206977701359
 21
603.2991610902764
 31
0.0
  0
LINE
  5
B0
330
1F
100
AcDbEntity
  8
1
  6
Continuous
 62
     7
100
AcDbLine
 10
11.65206977701359
 20
603.2991610902764
 30
0.0
 11
11.65206977701359
 21
-136.7008389097236
 31
0.0
  0
LINE
  5
B1
330
1F
100
AcDbEntity
  8
1
  6
Continuous
 62
     7
100
AcDbLine
 10
-522.3479302229864
 20
-136.7008389097236
 30
0.0
 11
-522.3479302229864
 21
603.2991610902764
 31
0.0
  0
LINE
  5
B2
330
1F
100
AcDbEntity
  8
1
  6
Continuous
 62
     7
100
AcDbLine
 10
-522.3479302229864
 20
-136.7008389097236
 30
0.0
 11
11.65206977701359
 21
-136.7008389097236
 31
0.0
  0
LINE
  5
B3
330
1F
100
AcDbEntity
  8
1
  6
Continuous
 62
     7
100
AcDbLine
 10
-480.3475402229867
 20
-136.7008389097236
 30
0.0
 11
11.65206977701359
 21
-136.7008389097236
 31
0.0
  0
LINE
  5
B4
330
1F
100
AcDbEntity
  8
1
  6
Continuous
 62
     7
100
AcDbLine
 10
-508.4312635563197
 20
-40.29343150231625
 30
0.0
 11
-268.4312635563197
 21
-40.29343150231625
 31
0.0
  0
LINE
  5
B5
330
1F
100
AcDbEntity
  8
1
  6
Continuous
 62
     7
100
AcDbLine
 10
-268.43126355632
 20
-24.29343150231625
 30
0.0
 11
-268.4312635563197
 21
-88.29343150231625
 31
0.0
  0
LINE
  5
B6
330
1F
100
AcDbEntity
  8
1
  6
Continuous
 62
     7
100
AcDbLine
 10
-508.4312635563197
 20
-24.29343150231625
 30
0.0
 11
-508.4312635563197
 21
-88.29343150231625
 31
0.0
  0
LINE
  5
B7
330
1F
100
AcDbEntity
  8
1
  6
Continuous
 62
     7
100
AcDbLine
 10
-508.4312635563197
 20
-24.29343150231625
 30
0.0
 11
-268.4312635563197
 21
-24.29343150231625
 31
0.0
  0
LINE
  5
B8
330
1F
100
AcDbEntity
  8
1
  6
Continuous
 62
     7
100
AcDbLine
 10
-508.4312635563197
 20
-56.29343150231625
 30
0.0
 11
-328.4312635563201
 21
-56.29343150231625
 31
0.0
  0
LINE
  5
B9
330
1F
100
AcDbEntity
  8
1
  6
Continuous
 62
     7
100
AcDbLine
 10
-508.4312635563197
 20
-72.29343150231625
 30
0.0
 11
-268.43126355632
 21
-72.29343150231625
 31
0.0
  0
LINE
  5
BA
330
1F
100
AcDbEntity
  8
1
  6
Continuous
 62
     7
100
AcDbLine
 10
-508.4312635563197
 20
-88.29343150231625
 30
0.0
 11
-268.4312635563197
 21
-88.29343150231625
 31
0.0
  0
LINE
  5
BB
330
1F
100
AcDbEntity
  8
1
  6
Continuous
 62
     7
100
AcDbLine
 10
-488.4312635563197
 20
-24.29343150231625
 30
0.0
 11
-488.4312635563197
 21
-88.29343150231625
 31
0.0
  0
LINE
  5
BC
330
1F
100
AcDbEntity
  8
1
  6
Continuous
 62
     7
100
AcDbLine
 10
-428.4312635563197
 20
-88.29343150231625
 30
0.0
 11
-428.4312635563197
 21
-24.29343150231625
 31
0.0
  0
LINE
  5
BD
330
1F
100
AcDbEntity
  8
1
  6
Continuous
 62
     7
100
AcDbLine
 10
-328.4312635563201
 20
-24.29343150231625
 30
0.0
 11
-328.4312635563201
 21
-88.29343150231625
 31
0.0
  0
MTEXT
  5
BF
330
1F
100
AcDbEntity
  8
1
  6
Continuous
 62
     7
100
AcDbMText
 10
-506.4312635563197
 20
-36.29343150231625
 30
0.0
 40
8.0
 41
0.0
 71
     7
 72
     5
  1
{\fＭＳ 明朝|b0|i0|c128|p17;\W1.0;部番}
  7
MTSTANDARD
 73
     1
 44
0.9375
  0
MTEXT
  5
C0
330
1F
100
AcDbEntity
  8
1
  6
Continuous
 62
     7
100
AcDbMText
 10
-470.4312635563197
 20
-36.29343150231625
 30
0.0
 40
8.0
 41
0.0
 71
     7
 72
     5
  1
{\fＭＳ 明朝|b0|i0|c128|p17;\W1.0;部品名}
  7
MTSTANDARD
 73
     1
 44
0.9375
  0
MTEXT
  5
C1
330
1F
100
AcDbEntity
  8
1
  6
Continuous
 62
     7
100
AcDbMText
 10
-386.4312635563201
 20
-36.29343150231625
 30
0.0
 40
8.0
 41
0.0
 71
     7
 72
     5
  1
{\fＭＳ 明朝|b0|i0|c128|p17;\W1.0;材質}
  7
MTSTANDARD
 73
     1
 44
0.625
  0
MTEXT
  5
C2
330
1F
100
AcDbEntity
  8
1
  6
Continuous
 62
     7
100
AcDbMText
 10
-306.4312635563201
 20
-36.29343150231625
 30
0.0
 40
8.0
 41
0.0
 71
     7
 72
     5
  1
{\fＭＳ 明朝|b0|i0|c128|p17;\W1.0;備考}
  7
MTSTANDARD
 73
     1
 44
0.9375
  0
INSERT
  5
C8
330
1F
100
AcDbEntity
  8
1
  6
ByBlock
 62
     3
100
AcDbBlockReference
  2
MAKR0
 10
-498.8725574137807
 20
-48.17527675948349
 30
0.0
  0
INSERT
  5
CE
330
1F
100
AcDbEntity
  8
1
  6
ByBlock
 62
     3
100
AcDbBlockReference
  2
MAKR1
 10
-498.8725574137807
 20
-64.1752767594835
 30
0.0
  0
INSERT
  5
D4
330
1F
100
AcDbEntity
  8
1
  6
ByBlock
 62
     3
100
AcDbBlockReference
  2
MAKR2
 10
-498.8725574137807
 20
-80.1752767594835
 30
0.0
  0
MTEXT
  5
D5
330
1F
100
AcDbEntity
  8
1
  6
Continuous
 62
     7
100
AcDbMText
 10
-462.4312635563197
 20
-52.29343150231625
 30
0.0
 40
8.0
 41
0.0
 71
     7
 72
     5
  1
{\fＭＳ 明朝|b0|i0|c128|p17;\W1.0;蓋}
  7
MTSTANDARD
 73
     1
 44
1.875
  0
MTEXT
  5
D6
330
1F
100
AcDbEntity
  8
1
  6
Continuous
 62
     7
100
AcDbMText
 10
-422.4312635563201
 20
-52.29343150231625
 30
0.0
 40
8.0
 41
0.0
 71
     7
 72
     5
  1
{\fＭＳ 明朝|b0|i0|c128|p17;\W1.0;ＦＣＤ５００ダクタイル}
  7
MTSTANDARD
 73
     1
 44
1.875
  0
MTEXT
  5
D7
330
1F
100
AcDbEntity
  8
1
  6
Continuous
 62
     7
100
AcDbMText
 10
-508.4312635563197
 20
-20.1996742595727
 30
0.0
 40
8.0
 41
0.0
 71
     7
 72
     5
  1
{\fＭＳ 明朝|b0|i0|c128|p17;\W1.0;●部品表}
  7
MTSTANDARD
 73
     1
 44
1.203125
  0
MTEXT
  5
D8
330
1F
100
AcDbEntity
  8
1
  6
Continuous
 62
     7
100
AcDbMText
 10
-466.4312635563197
 20
-68.29343150231625
 30
0.0
 40
8.0
 41
0.0
 71
     7
 72
     5
  1
{\fＭＳ 明朝|b0|i0|c128|p17;\W1.0;本体}
  7
MTSTANDARD
 73
     1
 44
1.875
  0
MTEXT
  5
D9
330
1F
100
AcDbEntity
  8
1
  6
Continuous
 62
     7
100
AcDbMText
 10
-406.4312635563201
 20
-68.29343150231625
 30
0.0
 40
8.0
 41
0.0
 71
     7
 72
     5
  1
{\fＭＳ 明朝|b0|i0|c128|p17;\W1.0;ＦＣ２００鋳鉄}
  7
MTSTANDARD
 73
     1
 44
1.875
  0
MTEXT
  5
DA
330
1F
100
AcDbEntity
  8
1
  6
Continuous
 62
     7
100
AcDbMText
 10
-318.4312635563201
 20
-60.29343150231625
 30
0.0
 40
8.0
 41
0.0
 71
     7
 72
     5
  1
{\fＭＳ 明朝|b0|i0|c128|p17;\W1.0;錆止め塗装}
  7
MTSTANDARD
 73
     1
 44
1.5625
  0
MTEXT
  5
DB
330
1F
100
AcDbEntity
  8
1
  6
Continuous
 62
     7
100
AcDbMText
 10
-462.4312635563197
 20
-84.29343150231625
 30
0.0
 40
8.0
 41
0.0
 71
     7
 72
     5
  1
{\fＭＳ 明朝|b0|i0|c128|p17;\W1.0;鎖}
  7
MTSTANDARD
 73
     1
 44
1.875
  0
MTEXT
  5
DC
330
1F
100
AcDbEntity
  8
1
  6
Continuous
 62
     7
100
AcDbMText
 10
-402.4312635563201
 20
-84.29343150231625
 30
0.0
 40
8.0
 41
0.0
 71
     7
 72
     5
  1
{\fＭＳ 明朝|b0|i0|c128|p17;\W1.0;ＳＷＲＭ軟鋼}
  7
MTSTANDARD
 73
     1
 44
1.875
  0
ARC
  5
DD
330
1F
100
AcDbEntity
  8
2
  6
Continuous
 62
     7
100
AcDbCircle
 10
-113.3575868953205
 20
503.6716162759357
 30
0.0
 40
35.0
100
AcDbArc
 50
0.0
 51
90.0
  0
LINE
  5
DE
330
1F
100
AcDbEntity
  8
2
  6
Continuous
 62
     7
100
AcDbLine
 10
-78.35758689532054
 20
357.6716162759357
 30
0.0
 11
-78.35758689532054
 21
503.6716162759357
 31
0.0
  0
ARC
  5
DF
330
1F
100
AcDbEntity
  8
2
  6
Continuous
 62
     7
100
AcDbCircle
 10
-113.3575868953205
 20
357.6716162759357
 30
0.0
 40
35.0
100
AcDbArc
 50
270.0
 51
0.0
  0
LINE
  5
E0
330
1F
100
AcDbEntity
  8
2
  6
Continuous
 62
     7
100
AcDbLine
 10
-369.3575868953205
 20
322.6716162759357
 30
0.0
 11
-113.3575868953205
 21
322.6716162759357
 31
0.0
  0
ARC
  5
E1
330
1F
100
AcDbEntity
  8
2
  6
Continuous
 62
     7
100
AcDbCircle
 10
-369.3575868953205
 20
357.6716162759357
 30
0.0
 40
35.0
100
AcDbArc
 50
180.0
 51
270.0
  0
LINE
  5
E2
330
1F
100
AcDbEntity
  8
2
  6
Continuous
 62
     7
100
AcDbLine
 10
-369.3575868953205
 20
538.6716162759357
 30
0.0
 11
-113.3575868953205
 21
538.6716162759357
 31
0.0
  0
LINE
  5
E3
330
1F
100
AcDbEntity
  8
2
  6
Continuous
 62
     7
100
AcDbLine
 10
-404.3575868953205
 20
503.6716162759357
 30
0.0
 11
-404.3575868953205
 21
357.6716162759357
 31
0.0
  0
ARC
  5
E4
330
1F
100
AcDbEntity
  8
2
  6
Continuous
 62
     7
100
AcDbCircle
 10
-369.3575868953205
 20
503.6716162759357
 30
0.0
 40
35.0
100
AcDbArc
 50
90.0
 51
180.0
  0
ARC
  5
E5
330
1F
100
AcDbEntity
  8
2
  6
Continuous
 62
     7
100
AcDbCircle
 10
-369.3575868953205
 20
503.6716162759357
 30
0.0
 40
22.0
100
AcDbArc
 50
90.0
 51
180.0
  0
LINE
  5
E6
330
1F
100
AcDbEntity
  8
2
  6
Continuous
 62
     7
100
AcDbLine
 10
-391.3575868953205
 20
357.6716162759357
 30
0.0
 11
-391.3575868953205
 21
503.6716162759357
 31
0.0
  0
ARC
  5
E7
330
1F
100
AcDbEntity
  8
2
  6
Continuous
 62
     7
100
AcDbCircle
 10
-369.3575868953205
 20
357.6716162759357
 30
0.0
 40
22.0
100
AcDbArc
 50
180.0
 51
270.0
  0
LINE
  5
E8
330
1F
100
AcDbEntity
  8
2
  6
Continuous
 62
     7
100
AcDbLine
 10
-113.3575868953205
 20
335.6716162759357
 30
0.0
 11
-369.3575868953205
 21
335.6716162759357
 31
0.0
  0
ARC
  5
E9
330
1F
100
AcDbEntity
  8
2
  6
Continuous
 62
     7
100
AcDbCircle
 10
-113.3575868953205
 20
357.6716162759357
 30
0.0
 40
22.0
100
AcDbArc
 50
270.0
 51
0.0
  0
LINE
  5
EA
330
1F
100
AcDbEntity
  8
2
  6
Continuous
 62
     7
100
AcDbLine
 10
-113.3575868953205
 20
525.6716162759357
 30
0.0
 11
-369.3575868953205
 21
525.6716162759357
 31
0.0
  0
LINE
  5
EB
330
1F
100
AcDbEntity
  8
2
  6
Continuous
 62
     7
100
AcDbLine
 10
-91.35758689532054
 20
503.6716162759357
 30
0.0
 11
-91.35758689532054
 21
357.6716162759357
 31
0.0
  0
ARC
  5
EC
330
1F
100
AcDbEntity
  8
2
  6
Continuous
 62
     7
100
AcDbCircle
 10
-113.3575868953205
 20
503.6716162759357
 30
0.0
 40
22.0
100
AcDbArc
 50
0.0
 51
90.0
  0
MTEXT
  5
EE
330
1F
100
AcDbEntity
  8
1
  6
Continuous
 62
     7
100
AcDbMText
 10
-507.6284073385721
 20
-116.8669075702842
 30
0.0
 40
10.0
 41
0.0
 71
     7
 72
     5
  1
{\fＭＳ 明朝|b0|i0|c128|p17;\W1.0;呼び径１３Ａ～２０Ａに適用}
  7
MTSTANDARD1
 73
     1
 44
0.775
  0
MTEXT
  5
EF
330
1F
100
AcDbEntity
  8
1
  6
Continuous
 62
     7
100
AcDbMText
 10
-254.655068507237
 20
-52.62177360882743
 30
0.0
 40
8.0
 41
0.0
 71
     7
 72
     5
  1
●参考\P住宅都市整備公団\P機械設備詳細図Ｅ－１０３\P造園施設標準図Ｅ－９０５
  7
MTSTANDARD
 73
     1
 44
0.8125
  0
LINE
  5
F0
330
1F
100
AcDbEntity
  8
1
  6
CENTER2
 62
     7
100
AcDbLine
 10
-424.0587599676339
 20
430.6716162759357
 30
0.0
 11
-61.93762517377013
 21
430.6716162759357
 31
0.0
  0
LINE
  5
F1
330
1F
100
AcDbEntity
  8
1
  6
CENTER2
 62
     7
100
AcDbLine
 10
-241.3575868953205
 20
310.496341780927
 30
0.0
 11
-241.3575868953205
 21
551.9382699841236
 31
0.0
  0
LINE
  5
F2
330
1F
100
AcDbEntity
  8
2
  6
Continuous
 62
     7
100
AcDbLine
 10
-396.3575868953205
 20
81.21437136601526
 30
0.0
 11
-392.3575868953205
 21
81.21437136601526
 31
0.0
  0
LINE
  5
F3
330
1F
100
AcDbEntity
  8
2
  6
Continuous
 62
     7
100
AcDbLine
 10
-397.3358489188745
 20
215.236268592907
 30
0.0
 11
-396.3575868953205
 21
81.21437136601526
 31
0.0
  0
ARC
  5
F4
330
1F
100
AcDbEntity
  8
2
  6
Continuous
 62
     7
100
AcDbCircle
 10
-400.3357690030523
 20
215.2143713660153
 30
0.0
 40
3.0
100
AcDbArc
 50
0.4182099414954801
 51
90.0
  0
LINE
  5
F5
330
1F
100
AcDbEntity
  8
2
  6
Continuous
 62
     7
100
AcDbLine
 10
-390.4037295628361
 20
206.2612406450169
 30
0.0
 11
-392.3575868953205
 21
81.21437136601526
 31
0.0
  0
ARC
  5
F6
330
1F
100
AcDbEntity
  8
2
  6
Continuous
 62
     7
100
AcDbCircle
 10
-387.4040957067321
 20
206.2143713660153
 30
0.0
 40
3.0
100
AcDbArc
 50
90.0
 51
179.1048262897892
  0
ARC
  5
F7
330
1F
100
AcDbEntity
  8
2
  6
Continuous
 62
     7
100
AcDbCircle
 10
-388.9663367162204
 20
219.2143713660153
 30
0.0
 40
1.0
100
AcDbArc
 50
186.58194465518
 51
270.0
  0
LINE
  5
F8
330
1F
100
AcDbEntity
  8
2
  6
Continuous
 62
     7
100
AcDbLine
 10
-392.2488370744206
 20
231.2143713660153
 30
0.0
 11
-404.3575868953205
 21
231.2143713660153
 31
0.0
  0
LINE
  5
F9
330
1F
100
AcDbEntity
  8
2
  6
Continuous
 62
     7
100
AcDbLine
 10
-391.2554281385496
 20
230.3289954740003
 30
0.0
 11
-389.9597456520914
 21
219.0997472580301
 31
0.0
  0
ARC
  5
FA
330
1F
100
AcDbEntity
  8
2
  6
Continuous
 62
     7
100
AcDbCircle
 10
-392.2488370744206
 20
230.2143713660153
 30
0.0
 40
1.0
100
AcDbArc
 50
6.581944655173531
 51
90.0
  0
LINE
  5
FB
330
1F
100
AcDbEntity
  8
2
  6
Continuous
 62
     7
100
AcDbLine
 10
-404.3575868953205
 20
219.2143713660153
 30
0.0
 11
-404.3575868953205
 21
231.2143713660153
 31
0.0
  0
LINE
  5
FC
330
1F
100
AcDbEntity
  8
2
  6
Continuous
 62
     7
100
AcDbLine
 10
-403.3575868953205
 20
218.2143713660153
 30
0.0
 11
-400.3357690030523
 21
218.2143713660153
 31
0.0
  0
ARC
  5
FD
330
1F
100
AcDbEntity
  8
2
  6
Continuous
 62
     7
100
AcDbCircle
 10
-403.3575868953205
 20
219.2143713660153
 30
0.0
 40
1.0
100
AcDbArc
 50
180.0
 51
270.0
  0
LINE
  5
FE
330
1F
100
AcDbEntity
  8
2
  6
Continuous
 62
     7
100
AcDbLine
 10
-376.3575868953205
 20
218.2143713660153
 30
0.0
 11
-388.9663367162204
 21
218.2143713660153
 31
0.0
  0
ARC
  5
FF
330
1F
100
AcDbEntity
  8
2
  6
Continuous
 62
     7
100
AcDbCircle
 10
-376.3575868953205
 20
215.2143713660153
 30
0.0
 40
3.0
100
AcDbArc
 50
0.0
 51
90.0
  0
LINE
  5
100
330
1F
100
AcDbEntity
  8
2
  6
Continuous
 62
     7
100
AcDbLine
 10
-376.3575868953205
 20
209.2143713660153
 30
0.0
 11
-387.4040957067321
 21
209.2143713660153
 31
0.0
  0
LINE
  5
101
330
1F
100
AcDbEntity
  8
2
  6
Continuous
 62
     7
100
AcDbLine
 10
-373.3575868953205
 20
212.2143713660153
 30
0.0
 11
-373.3575868953205
 21
215.2143713660153
 31
0.0
  0
ARC
  5
102
330
1F
100
AcDbEntity
  8
2
  6
Continuous
 62
     7
100
AcDbCircle
 10
-376.3575868953205
 20
212.2143713660153
 30
0.0
 40
3.0
100
AcDbArc
 50
270.0
 51
0.0
  0
LINE
  5
103
330
1F
100
AcDbEntity
  8
2
  6
Continuous
 62
     7
100
AcDbLine
 10
-392.3575868953205
 20
81.21437136601526
 30
0.0
 11
-241.3575868953205
 21
81.21437136601526
 31
0.0
  0
LINE
  5
104
330
1F
100
AcDbEntity
  8
2
  6
Continuous
 62
     7
100
AcDbLine
 10
-391.4200868953205
 20
141.2143713660153
 30
0.0
 11
-396.7955430996999
 21
141.2143713660153
 31
0.0
  0
LINE
  5
105
330
1F
100
AcDbEntity
  8
2
  6
Continuous
 62
     7
100
AcDbLine
 10
-86.35758689532054
 20
81.21437136601526
 30
0.0
 11
-90.35758689532054
 21
81.21437136601526
 31
0.0
  0
LINE
  5
106
330
1F
100
AcDbEntity
  8
2
  6
Continuous
 62
     7
100
AcDbLine
 10
-85.37932487176658
 20
215.236268592907
 30
0.0
 11
-86.35758689532054
 21
81.21437136601526
 31
0.0
  0
ARC
  5
107
330
1F
100
AcDbEntity
  8
2
  6
Continuous
 62
     7
100
AcDbCircle
 10
-82.37940478758878
 20
215.2143713660153
 30
0.0
 40
3.0
100
AcDbArc
 50
90.0
 51
179.5817900585045
  0
LINE
  5
108
330
1F
100
AcDbEntity
  8
2
  6
Continuous
 62
     7
100
AcDbLine
 10
-92.31144422780494
 20
206.2612406450169
 30
0.0
 11
-90.35758689532054
 21
81.21437136601526
 31
0.0
  0
ARC
  5
109
330
1F
100
AcDbEntity
  8
2
  6
Continuous
 62
     7
100
AcDbCircle
 10
-95.31107808390902
 20
206.2143713660153
 30
0.0
 40
3.0
100
AcDbArc
 50
0.8951737102108029
 51
90.0
  0
ARC
  5
10A
330
1F
100
AcDbEntity
  8
2
  6
Continuous
 62
     7
100
AcDbCircle
 10
-93.74883707442063
 20
219.2143713660153
 30
0.0
 40
1.0
100
AcDbArc
 50
270.0
 51
353.4180553448199
  0
LINE
  5
10B
330
1F
100
AcDbEntity
  8
2
  6
Continuous
 62
     7
100
AcDbLine
 10
-90.46633671622044
 20
231.2143713660153
 30
0.0
 11
-78.35758689532054
 21
231.2143713660153
 31
0.0
  0
LINE
  5
10C
330
1F
100
AcDbEntity
  8
2
  6
Continuous
 62
     7
100
AcDbLine
 10
-91.45974565209144
 20
230.3289954740003
 30
0.0
 11
-92.75542813854963
 21
219.0997472580301
 31
0.0
  0
ARC
  5
10D
330
1F
100
AcDbEntity
  8
2
  6
Continuous
 62
     7
100
AcDbCircle
 10
-90.46633671622044
 20
230.2143713660153
 30
0.0
 40
1.0
100
AcDbArc
 50
90.0
 51
173.4180553448265
  0
LINE
  5
10E
330
1F
100
AcDbEntity
  8
2
  6
Continuous
 62
     7
100
AcDbLine
 10
-78.35758689532054
 20
219.2143713660153
 30
0.0
 11
-78.35758689532054
 21
231.2143713660153
 31
0.0
  0
LINE
  5
10F
330
1F
100
AcDbEntity
  8
2
  6
Continuous
 62
     7
100
AcDbLine
 10
-79.35758689532054
 20
218.2143713660153
 30
0.0
 11
-82.37940478758878
 21
218.2143713660153
 31
0.0
  0
ARC
  5
110
330
1F
100
AcDbEntity
  8
2
  6
Continuous
 62
     7
100
AcDbCircle
 10
-79.35758689532054
 20
219.2143713660153
 30
0.0
 40
1.0
100
AcDbArc
 50
270.0
 51
0.0
  0
LINE
  5
111
330
1F
100
AcDbEntity
  8
2
  6
Continuous
 62
     7
100
AcDbLine
 10
-106.3575868953205
 20
218.2143713660153
 30
0.0
 11
-93.74883707442063
 21
218.2143713660153
 31
0.0
  0
ARC
  5
112
330
1F
100
AcDbEntity
  8
2
  6
Continuous
 62
     7
100
AcDbCircle
 10
-106.3575868953205
 20
215.2143713660153
 30
0.0
 40
3.0
100
AcDbArc
 50
90.0
 51
180.0
  0
LINE
  5
113
330
1F
100
AcDbEntity
  8
2
  6
Continuous
 62
     7
100
AcDbLine
 10
-106.3575868953205
 20
209.2143713660153
 30
0.0
 11
-95.31107808390902
 21
209.2143713660153
 31
0.0
  0
LINE
  5
114
330
1F
100
AcDbEntity
  8
2
  6
Continuous
 62
     7
100
AcDbLine
 10
-109.3575868953205
 20
212.2143713660153
 30
0.0
 11
-109.3575868953205
 21
215.2143713660153
 31
0.0
  0
ARC
  5
115
330
1F
100
AcDbEntity
  8
2
  6
Continuous
 62
     7
100
AcDbCircle
 10
-106.3575868953205
 20
212.2143713660153
 30
0.0
 40
3.0
100
AcDbArc
 50
180.0
 51
270.0
  0
LINE
  5
116
330
1F
100
AcDbEntity
  8
2
  6
Continuous
 62
     7
100
AcDbLine
 10
-90.35758689532054
 20
81.21437136601526
 30
0.0
 11
-241.3575868953205
 21
81.21437136601526
 31
0.0
  0
LINE
  5
117
330
1F
100
AcDbEntity
  8
2
  6
Continuous
 62
     7
100
AcDbLine
 10
-91.29508689532054
 20
141.2143713660153
 30
0.0
 11
-85.91963069094118
 21
141.2143713660153
 31
0.0
  0
HATCH
  5
118
330
1F
100
AcDbEntity
  8
2
  6
Continuous
 62
     7
100
AcDbHatch
 10
0.0
 20
0.0
 30
0.0
210
0.0
220
0.0
230
1.0
  2
_U
 70
     0
 71
     0
 91
        2
 92
        0
 93
       17
 72
     1
 10
-391.4200868953205
 20
141.2143713660153
 11
-396.7955430997001
 21
141.2143713660153
 72
     1
 10
-396.7955430997001
 20
141.2143713660153
 11
-397.3358489188745
 21
215.236268592907
 72
     2
 10
-400.3357690030523
 20
215.2143713660153
 40
3.0
 50
0.4182099414954801
 51
90.0
 73
     1
 72
     1
 10
-400.3357690030523
 20
218.2143713660153
 11
-403.3575868953205
 21
218.2143713660153
 72
     2
 10
-403.3575868953205
 20
219.2143713660153
 40
1.0
 50
90.0
 51
180.0
 73
     0
 72
     1
 10
-404.3575868953205
 20
219.2143713660153
 11
-404.3575868953205
 21
231.2143713660153
 72
     1
 10
-404.3575868953205
 20
231.2143713660153
 11
-392.2488370744206
 21
231.2143713660153
 72
     2
 10
-392.2488370744206
 20
230.2143713660153
 40
1.0
 50
270.0
 51
353.4180553448264
 73
     0
 72
     1
 10
-391.2554281385496
 20
230.3289954740003
 11
-389.9597456520914
 21
219.0997472580301
 72
     2
 10
-388.9663367162204
 20
219.2143713660153
 40
1.0
 50
186.58194465518
 51
270.0
 73
     1
 72
     1
 10
-388.9663367162204
 20
218.2143713660153
 11
-376.3575868953205
 21
218.2143713660153
 72
     2
 10
-376.3575868953205
 20
215.2143713660153
 40
3.0
 50
270.0
 51
360.0
 73
     0
 72
     1
 10
-373.3575868953205
 20
215.2143713660153
 11
-373.3575868953205
 21
212.2143713660153
 72
     2
 10
-376.3575868953205
 20
212.2143713660153
 40
3.0
 50
0.0
 51
90.0
 73
     0
 72
     1
 10
-376.3575868953205
 20
209.2143713660153
 11
-387.4040957067321
 21
209.2143713660153
 72
     2
 10
-387.4040957067321
 20
206.2143713660153
 40
3.0
 50
90.0
 51
179.1048262897892
 73
     1
 72
     1
 10
-390.4037295628361
 20
206.2612406450169
 11
-391.4200868953205
 21
141.2143713660153
 97
        0
 92
        0
 93
        2
 72
     1
 10
-391.4200868953205
 20
141.2143713660153
 11
-396.7955430996999
 21
141.2143713660153
 72
     1
 10
-396.7955430996999
 20
141.2143713660153
 11
-391.4200868953205
 21
141.2143713660153
 97
        0
 75
     0
 76
     0
 52
315.0
 41
2.0
 77
     0
 78
     1
 53
315.0
 43
0.0
 44
0.0
 45
1.414213562373095
 46
1.414213562373095
 79
     0
 98
        1
 10
0.0
 20
0.0
  0
HATCH
  5
119
330
1F
100
AcDbEntity
  8
2
  6
Continuous
 62
     7
100
AcDbHatch
 10
0.0
 20
0.0
 30
0.0
210
0.0
220
0.0
230
1.0
  2
_U
 70
     0
 71
     0
 91
        2
 92
        0
 93
       17
 72
     1
 10
-91.29508689532054
 20
141.2143713660153
 11
-85.91963069094095
 21
141.2143713660153
 72
     1
 10
-85.91963069094095
 20
141.2143713660153
 11
-85.37932487176658
 21
215.236268592907
 72
     2
 10
-82.37940478758878
 20
215.2143713660153
 40
3.0
 50
180.4182099414955
 51
270.0
 73
     0
 72
     1
 10
-82.37940478758878
 20
218.2143713660153
 11
-79.35758689532054
 21
218.2143713660153
 72
     2
 10
-79.35758689532054
 20
219.2143713660153
 40
1.0
 50
270.0
 51
360.0
 73
     1
 72
     1
 10
-78.35758689532054
 20
219.2143713660153
 11
-78.35758689532054
 21
231.2143713660153
 72
     1
 10
-78.35758689532054
 20
231.2143713660153
 11
-90.46633671622044
 21
231.2143713660153
 72
     2
 10
-90.46633671622044
 20
230.2143713660153
 40
1.0
 50
90.0
 51
173.4180553448265
 73
     1
 72
     1
 10
-91.45974565209144
 20
230.3289954740003
 11
-92.75542813854963
 21
219.0997472580301
 72
     2
 10
-93.74883707442063
 20
219.2143713660153
 40
1.0
 50
6.581944655180003
 51
90.0
 73
     0
 72
     1
 10
-93.74883707442063
 20
218.2143713660153
 11
-106.3575868953205
 21
218.2143713660153
 72
     2
 10
-106.3575868953205
 20
215.2143713660153
 40
3.0
 50
90.0
 51
180.0
 73
     1
 72
     1
 10
-109.3575868953205
 20
215.2143713660153
 11
-109.3575868953205
 21
212.2143713660153
 72
     2
 10
-106.3575868953205
 20
212.2143713660153
 40
3.0
 50
180.0
 51
270.0
 73
     1
 72
     1
 10
-106.3575868953205
 20
209.2143713660153
 11
-95.31107808390902
 21
209.2143713660153
 72
     2
 10
-95.31107808390902
 20
206.2143713660153
 40
3.0
 50
270.0
 51
359.1048262897892
 73
     0
 72
     1
 10
-92.31144422780494
 20
206.2612406450169
 11
-91.29508689532054
 21
141.2143713660153
 97
        0
 92
        0
 93
        2
 72
     1
 10
-91.29508689532054
 20
141.2143713660153
 11
-85.91963069094118
 21
141.2143713660153
 72
     1
 10
-85.91963069094118
 20
141.2143713660153
 11
-91.29508689532054
 21
141.2143713660153
 97
        0
 75
     0
 76
     0
 52
315.0
 41
2.0
 77
     0
 78
     1
 53
315.0
 43
0.0
 44
0.0
 45
1.414213562373095
 46
1.414213562373095
 79
     0
 98
        1
 10
0.0
 20
0.0
  0
LINE
  5
11A
330
1F
100
AcDbEntity
  8
1
  6
CENTER2
 62
     7
100
AcDbLine
 10
-241.3575868953205
 20
244.2689294443187
 30
0.0
 11
-241.3575868953205
 21
68.97089855586842
 31
0.0
  0
DIMENSION
  5
129
330
1F
100
AcDbEntity
  8
1
  6
Continuous
 62
     3
100
AcDbDimension
  2
_D1
 10
-388.8575868953205
 20
245.2143713660153
 30
0.0
 11
-241.3575868953205
 21
249.2143713660153
 31
0.0
 70
   160
  1
<>ｘ１８５
 71
     5
 42
-1.0
 52
90.0
  3
DIMSTYEX_1
100
AcDbAlignedDimension
 13
-93.85758689532054
 23
231.2143713660153
 33
0.0
 14
-388.8575868953205
 24
231.2143713660153
 34
0.0
 50
180.0
100
AcDbRotatedDimension
1001
ACAD
1000
DSTYLE
1002
{
1070
    41
1040
2.0
1070
   343
1005
86
1070
   344
1005
86
1070
   176
1070
     3
1070
   177
1070
     3
1070
   178
1070
     2
1070
    43
1040
7.0
1070
   173
1070
     1
1070
   272
1070
     3
1070
   340
1005
81
1070
   140
1040
3.584
1002
}
  0
DIMENSION
  5
136
330
1F
100
AcDbEntity
  8
1
  6
Continuous
 62
     3
100
AcDbDimension
  2
_D2
 10
-404.3575868953208
 20
259.2143713660153
 30
0.0
 11
-241.3575868953207
 21
263.2143713660153
 31
0.0
 70
   160
  1
<>ｘ２１６
 71
     5
 42
-1.0
 52
90.0
  3
DIMSTYEX_1
100
AcDbAlignedDimension
 13
-78.35758689532054
 23
231.2143713660153
 33
0.0
 14
-404.3575868953208
 24
231.2143713660153
 34
0.0
 50
180.0
100
AcDbRotatedDimension
1001
ACAD
1000
DSTYLE
1002
{
1070
    41
1040
2.0
1070
   343
1005
86
1070
   344
1005
86
1070
   176
1070
     3
1070
   177
1070
     3
1070
   178
1070
     2
1070
    43
1040
7.0
1070
   173
1070
     1
1070
   272
1070
     3
1070
   340
1005
81
1070
   140
1040
3.584
1002
}
  0
DIMENSION
  5
144
330
1F
100
AcDbEntity
  8
1
  6
Continuous
 62
     3
100
AcDbDimension
  2
_D3
 10
-64.35758689532054
 20
218.2143713660153
 30
0.0
 11
-58.35758689532054
 21
224.7143713660153
 31
0.0
 70
   160
 71
     5
 42
-1.0
 52
90.0
  3
DIMSTYEX_2
100
AcDbAlignedDimension
 13
-78.35758689532054
 23
231.2143713660153
 33
0.0
 14
-79.35758689532054
 24
218.2143713660153
 34
0.0
 50
-90.0
100
AcDbRotatedDimension
1001
ACAD
1000
DSTYLE
1002
{
1070
    41
1040
2.0
1070
   343
1005
86
1070
   344
1005
86
1070
   176
1070
     3
1070
   177
1070
     3
1070
   178
1070
     2
1070
    43
1040
7.0
1070
   147
1040
1.0
1070
   173
1070
     1
1070
   272
1070
     3
1070
   340
1005
81
1070
   140
1040
3.584
1002
}
  0
DIMENSION
  5
151
330
1F
100
AcDbEntity
  8
1
  6
Continuous
 62
     3
100
AcDbDimension
  2
_D4
 10
-50.35758689532054
 20
81.21437136601526
 30
0.0
 11
-54.35758689532054
 21
156.2143713660153
 31
0.0
 70
   160
 71
     5
 42
-1.0
 52
90.0
  3
DIMSTYEX_1
100
AcDbAlignedDimension
 13
-64.35758689532054
 23
231.2143713660153
 33
0.0
 14
-86.35758689532054
 24
81.21437136601526
 34
0.0
 50
-90.0
100
AcDbRotatedDimension
1001
ACAD
1000
DSTYLE
1002
{
1070
    41
1040
2.0
1070
   343
1005
86
1070
   344
1005
86
1070
   176
1070
     3
1070
   177
1070
     3
1070
   178
1070
     2
1070
    43
1040
7.0
1070
   173
1070
     1
1070
   272
1070
     3
1070
   340
1005
81
1070
   140
1040
3.584
1002
}
  0
DIMENSION
  5
15E
330
1F
100
AcDbEntity
  8
1
  6
Continuous
 62
     3
100
AcDbDimension
  2
_D5
 10
-418.3575868953208
 20
141.2143713660153
 30
0.0
 11
-422.3575868953208
 21
111.2143713660153
 31
0.0
 70
   160
  1
<>ｘ幅５０
 71
     5
 42
-1.0
 52
90.0
  3
DIMSTYEX_1
100
AcDbAlignedDimension
 13
-396.3575868953205
 23
81.21437136601526
 33
0.0
 14
-396.7955430997001
 24
141.2143713660153
 34
0.0
 50
90.0
100
AcDbRotatedDimension
1001
ACAD
1000
DSTYLE
1002
{
1070
    41
1040
2.0
1070
   343
1005
86
1070
   344
1005
86
1070
   176
1070
     3
1070
   177
1070
     3
1070
   178
1070
     2
1070
    43
1040
7.0
1070
   173
1070
     1
1070
   272
1070
     3
1070
   340
1005
81
1070
   140
1040
3.584
1002
}
  0
DIMENSION
  5
16B
330
1F
100
AcDbEntity
  8
1
  6
Continuous
 62
     3
100
AcDbDimension
  2
_D6
 10
-392.3575868953205
 20
54.97089855586842
 30
0.0
 11
-241.3575868953205
 21
58.97089855586842
 31
0.0
 70
   160
  1
<>ｘ１９２
 71
     5
 42
-1.0
 52
90.0
  3
DIMSTYEX_1
100
AcDbAlignedDimension
 13
-90.35758689532054
 23
81.21437136601526
 33
0.0
 14
-392.3575868953205
 24
81.21437136601526
 34
0.0
 50
180.0
100
AcDbRotatedDimension
1001
ACAD
1000
DSTYLE
1002
{
1070
    41
1040
2.0
1070
   343
1005
86
1070
   344
1005
86
1070
   176
1070
     3
1070
   177
1070
     3
1070
   178
1070
     2
1070
    43
1040
7.0
1070
   173
1070
     1
1070
   272
1070
     3
1070
   340
1005
81
1070
   140
1040
3.584
1002
}
  0
DIMENSION
  5
178
330
1F
100
AcDbEntity
  8
1
  6
Continuous
 62
     3
100
AcDbDimension
  2
_D7
 10
-396.3575868953205
 20
40.97089855586842
 30
0.0
 11
-241.3575868953205
 21
44.97089855586842
 31
0.0
 70
   160
  1
<>ｘ２００
 71
     5
 42
-1.0
 52
90.0
  3
DIMSTYEX_1
100
AcDbAlignedDimension
 13
-86.35758689532054
 23
81.21437136601526
 33
0.0
 14
-396.3575868953205
 24
81.21437136601526
 34
0.0
 50
180.0
100
AcDbRotatedDimension
1001
ACAD
1000
DSTYLE
1002
{
1070
    41
1040
2.0
1070
   343
1005
86
1070
   344
1005
86
1070
   176
1070
     3
1070
   177
1070
     3
1070
   178
1070
     2
1070
    43
1040
7.0
1070
   173
1070
     1
1070
   272
1070
     3
1070
   340
1005
81
1070
   140
1040
3.584
1002
}
  0
INSERT
  5
180
330
1F
100
AcDbEntity
  8
1
  6
Continuous
 62
     3
100
AcDbBlockReference
  2
BALN0
 10
-364.3575868953205
 20
231.2143713660153
 30
0.0
  0
INSERT
  5
187
330
1F
100
AcDbEntity
  8
1
  6
Continuous
 62
     3
100
AcDbBlockReference
  2
BALN1
 10
-397.2354057654893
 20
201.4755565791347
 30
0.0
  0
INSERT
  5
18E
330
1F
100
AcDbEntity
  8
1
  6
Continuous
 62
     3
100
AcDbBlockReference
  2
BALN2
 10
-359.1972430208415
 20
182.215784077211
 30
0.0
  0
INSERT
  5
1B9
330
1F
100
AcDbEntity
  8
1
  6
Continuous
 62
     0
100
AcDbBlockReference
  2
BLK0
 10
11.65206977701359
 20
-136.7008389097236
 30
0.0
  0
LINE
  5
1BA
330
1F
100
AcDbEntity
  8
1
  6
Continuous
 62
     7
100
AcDbLine
 10
-152.3478002229867
 20
-82.70085890972359
 30
0.0
 11
-152.3478002229867
 21
-116.7008589097236
 31
0.0
  0
LINE
  5
1BB
330
1F
100
AcDbEntity
  8
1
  6
Continuous
 62
     7
100
AcDbLine
 10
-162.347790222987
 20
-116.7008589097236
 30
0.0
 11
-162.347790222987
 21
-82.70085890972359
 31
0.0
  0
LINE
  5
1BC
330
1F
100
AcDbEntity
  8
1
  6
Continuous
 62
     7
100
AcDbLine
 10
-196.3477902229865
 20
-82.70085890972359
 30
0.0
 11
-196.3477902229865
 21
-116.7008589097236
 31
0.0
  0
LINE
  5
1BD
330
1F
100
AcDbEntity
  8
1
  6
Continuous
 62
     7
100
AcDbLine
 10
-206.3477802229868
 20
-116.7008589097236
 30
0.0
 11
-206.3477802229868
 21
-82.70085890972359
 31
0.0
  0
MTEXT
  5
1BE
330
1F
100
AcDbEntity
  8
1
  6
Continuous
 62
     7
100
AcDbMText
 10
-204.8477852229867
 20
-107.4817576446162
 30
0.0
 40
7.0
 41
0.0
 71
     7
 72
     5
  1
{\fＭＳ 明朝|b0|i0|c128|p17;\W1.0;査}
  7
MTSTANDARD3
 73
     1
 44
0.8392857142857144
  0
MTEXT
  5
1BF
330
1F
100
AcDbEntity
  8
1
  6
Continuous
 62
     7
100
AcDbMText
 10
-160.8477952229869
 20
-107.4817576446162
 30
0.0
 40
7.0
 41
0.0
 71
     7
 72
     5
  1
{\fＭＳ 明朝|b0|i0|c128|p17;\W1.0;認}
  7
MTSTANDARD3
 73
     1
 44
0.8392857142857144
  0
MTEXT
  5
1C0
330
1F
100
AcDbEntity
  8
1
  6
Continuous
 62
     7
100
AcDbMText
 10
-160.8477952229869
 20
-99.48176564461619
 30
0.0
 40
7.0
 41
0.0
 71
     7
 72
     5
  1
{\fＭＳ 明朝|b0|i0|c128|p17;\W1.0;承}
  7
MTSTANDARD3
 73
     1
 44
0.8392857142857144
  0
MTEXT
  5
1C1
330
1F
100
AcDbEntity
  8
1
  6
Continuous
 62
     7
100
AcDbMText
 10
-248.8477752229869
 20
-99.48176564461619
 30
0.0
 40
7.0
 41
0.0
 71
     7
 72
     5
  1
{\fＭＳ 明朝|b0|i0|c128|p17;\W1.0;設}
  7
MTSTANDARD3
 73
     1
 44
0.8392857142857144
  0
MTEXT
  5
1C2
330
1F
100
AcDbEntity
  8
1
  6
Continuous
 62
     7
100
AcDbMText
 10
-248.8477752229869
 20
-107.4817576446162
 30
0.0
 40
7.0
 41
0.0
 71
     7
 72
     5
  1
{\fＭＳ 明朝|b0|i0|c128|p17;\W1.0;計}
  7
MTSTANDARD3
 73
     1
 44
0.8392857142857144
  0
MTEXT
  5
1C3
330
1F
100
AcDbEntity
  8
1
  6
Continuous
 62
     7
100
AcDbMText
 10
-204.8477852229867
 20
-99.48176564461619
 30
0.0
 40
7.0
 41
0.0
 71
     7
 72
     5
  1
{\fＭＳ 明朝|b0|i0|c128|p17;\W1.0;照}
  7
MTSTANDARD3
 73
     1
 44
0.8392857142857144
  0
MTEXT
  5
1C5
330
1F
100
AcDbEntity
  8
1
  6
Continuous
 62
     7
100
AcDbMText
 10
-191.4176023601249
 20
-102.38006851209
 30
0.0
 40
5.0
 41
0.0
 71
     7
 72
     5
  1
{\fＭＳ 明朝|b0|i0|c128|p17;\W1.0;2006.03.23}
  7
MTSTANDARD6
 73
     1
 44
0.875
  0
MTEXT
  5
1C6
330
1F
100
AcDbEntity
  8
1
  6
Continuous
 62
     7
100
AcDbMText
 10
-147.8846724211085
 20
-102.38006851209
 30
0.0
 40
5.0
 41
0.0
 71
     7
 72
     5
  1
{\fＭＳ 明朝|b0|i0|c128|p17;\W1.0;2006.03.23}
  7
MTSTANDARD6
 73
     1
 44
0.875
  0
INSERT
  5
2E4
330
1F
100
AcDbEntity
  8
1
  6
Continuous
 62
     7
100
AcDbBlockReference
  2
BLK1
 10
-241.3575868953205
 20
430.6716162759357
 30
0.0
  0
INSERT
  5
320
330
1F
100
AcDbEntity
  8
1
  6
Continuous
 62
     7
100
AcDbBlockReference
  2
BLK2
 10
-241.3575868953205
 20
231.2143713660153
 30
0.0
  0
LINE
  5
321
330
1F
100
AcDbEntity
  8
1
  6
CENTER2
 62
     7
100
AcDbLine
 10
-349.2671832141903
 20
210.7432501249367
 30
0.0
 11
-373.3372836984013
 21
210.7432501249367
 31
0.0
  0
LINE
  5
322
330
1F
100
AcDbEntity
  8
1
  6
Continuous
 62
     7
100
AcDbLine
 10
-355.747247089359
 20
213.7432501249368
 30
0.0
 11
-363.6082997209378
 21
213.7432501249368
 31
0.0
  0
LINE
  5
323
330
1F
100
AcDbEntity
  8
1
  6
Continuous
 62
     7
100
AcDbLine
 10
-363.6609312998853
 20
207.7432501249368
 30
0.0
 11
-355.6939137560257
 21
207.7432501249368
 31
0.0
  0
LINE
  5
324
330
1F
100
AcDbEntity
  8
1
  6
Continuous
 62
     7
100
AcDbLine
 10
-363.634615510412
 20
217.1432501249369
 30
0.0
 11
-363.634615510412
 21
204.3432501249367
 31
0.0
  0
LINE
  5
325
330
1F
100
AcDbEntity
  8
1
  6
Continuous
 62
     7
100
AcDbLine
 10
-363.634615510412
 20
204.3432501249367
 30
0.0
 11
-367.0346155104121
 21
204.3432501249367
 31
0.0
  0
LINE
  5
326
330
1F
100
AcDbEntity
  8
1
  6
Continuous
 62
     7
100
AcDbLine
 10
-367.0346155104121
 20
204.3432501249367
 30
0.0
 11
-367.3274355104122
 21
204.8504301249367
 31
0.0
  0
LINE
  5
327
330
1F
100
AcDbEntity
  8
1
  6
Continuous
 62
     7
100
AcDbLine
 10
-367.634615510412
 20
205.9968401249368
 30
0.0
 11
-367.634615510412
 21
215.4896601249367
 31
0.0
  0
LINE
  5
328
330
1F
100
AcDbEntity
  8
1
  6
Continuous
 62
     7
100
AcDbLine
 10
-367.3274355104122
 20
216.6360701249368
 30
0.0
 11
-367.0346155104121
 21
217.1432501249369
 31
0.0
  0
LINE
  5
329
330
1F
100
AcDbEntity
  8
1
  6
Continuous
 62
     7
100
AcDbLine
 10
-367.0346155104121
 20
217.1432501249369
 30
0.0
 11
-363.634615510412
 21
217.1432501249369
 31
0.0
  0
LINE
  5
32A
330
1F
100
AcDbEntity
  8
1
  6
Continuous
 62
     7
100
AcDbLine
 10
-367.0346155104121
 20
213.9432501249368
 30
0.0
 11
-363.634615510412
 21
213.9432501249368
 31
0.0
  0
LINE
  5
32B
330
1F
100
AcDbEntity
  8
1
  6
Continuous
 62
     7
100
AcDbLine
 10
-367.0346155104121
 20
207.5432501249367
 30
0.0
 11
-363.634615510412
 21
207.5432501249367
 31
0.0
  0
LINE
  5
32C
330
1F
100
AcDbEntity
  8
1
  6
Continuous
 62
     7
100
AcDbLine
 10
-357.634615510412
 20
213.7432501249368
 30
0.0
 11
-357.634615510412
 21
207.7432501249368
 31
0.0
  0
LINE
  5
32D
330
1F
100
AcDbEntity
  8
1
  6
Continuous
 62
     7
100
AcDbLine
 10
-347.2402722779718
 20
213.7432501249368
 30
0.0
 11
-338.1756155104122
 21
213.7432501249368
 31
0.0
  0
LINE
  5
32E
330
1F
100
AcDbEntity
  8
1
  6
Continuous
 62
     7
100
AcDbLine
 10
-338.1756155104122
 20
213.7432501249368
 30
0.0
 11
-337.634615510412
 21
213.2022501249368
 31
0.0
  0
LINE
  5
32F
330
1F
100
AcDbEntity
  8
1
  6
Continuous
 62
     7
100
AcDbLine
 10
-337.634615510412
 20
213.2022501249368
 30
0.0
 11
-337.634615510412
 21
208.2842501249367
 31
0.0
  0
LINE
  5
330
330
1F
100
AcDbEntity
  8
1
  6
Continuous
 62
     7
100
AcDbLine
 10
-337.634615510412
 20
208.2842501249367
 30
0.0
 11
-338.1756155104122
 21
207.7432501249368
 31
0.0
  0
LINE
  5
331
330
1F
100
AcDbEntity
  8
1
  6
Continuous
 62
     7
100
AcDbLine
 10
-338.1756155104122
 20
207.7432501249368
 30
0.0
 11
-347.2402722779718
 21
207.7432501249368
 31
0.0
  0
LINE
  5
332
330
1F
100
AcDbEntity
  8
1
  6
Continuous
 62
     7
100
AcDbLine
 10
-338.1756155104122
 20
213.7432501249368
 30
0.0
 11
-338.1756155104122
 21
207.7432501249368
 31
0.0
  0
ARC
  5
333
330
1F
100
AcDbEntity
  8
1
  6
Continuous
 62
     7
100
AcDbCircle
 10
-365.3417955104119
 20
215.4896601249367
 30
0.0
 40
2.292819682770856
100
AcDbArc
 50
149.9999954231639
 51
222.4120486904531
  0
ARC
  5
334
330
1F
100
AcDbEntity
  8
1
  6
Continuous
 62
     7
100
AcDbCircle
 10
-365.3417955104119
 20
205.9968401249368
 30
0.0
 40
2.29281997559784
100
AcDbArc
 50
137.5879513095473
 51
210.0000045768317
  0
ARC
  5
335
330
1F
100
AcDbEntity
  8
1
  6
Continuous
 62
     7
100
AcDbCircle
 10
-358.8012821770772
 20
210.7432501249368
 30
0.0
 40
8.833333333334847
100
AcDbArc
 50
158.7606894476932
 51
201.2393105523068
  0
LINE
  5
336
330
1F
100
AcDbEntity
  8
1
  6
Continuous
 62
     7
100
AcDbLine
 10
-352.040272277972
 20
217.1432501249369
 30
0.0
 11
-352.040272277972
 21
204.3432501249367
 31
0.0
  0
LINE
  5
337
330
1F
100
AcDbEntity
  8
1
  6
Continuous
 62
     7
100
AcDbLine
 10
-352.040272277972
 20
204.3432501249367
 30
0.0
 11
-347.8402722779722
 21
204.3432501249367
 31
0.0
  0
LINE
  5
338
330
1F
100
AcDbEntity
  8
1
  6
Continuous
 62
     7
100
AcDbLine
 10
-347.8402722779722
 20
204.3432501249367
 30
0.0
 11
-347.5474522779721
 21
204.8504301249367
 31
0.0
  0
LINE
  5
339
330
1F
100
AcDbEntity
  8
1
  6
Continuous
 62
     7
100
AcDbLine
 10
-347.2402722779718
 20
205.9968401249368
 30
0.0
 11
-347.2402722779718
 21
215.4896601249367
 31
0.0
  0
LINE
  5
33A
330
1F
100
AcDbEntity
  8
1
  6
Continuous
 62
     7
100
AcDbLine
 10
-347.5474522779721
 20
216.6360701249368
 30
0.0
 11
-347.8402722779722
 21
217.1432501249369
 31
0.0
  0
LINE
  5
33B
330
1F
100
AcDbEntity
  8
1
  6
Continuous
 62
     7
100
AcDbLine
 10
-347.8402722779722
 20
217.1432501249369
 30
0.0
 11
-352.040272277972
 21
217.1432501249369
 31
0.0
  0
LINE
  5
33C
330
1F
100
AcDbEntity
  8
1
  6
Continuous
 62
     7
100
AcDbLine
 10
-347.8402722779722
 20
213.9432501249368
 30
0.0
 11
-352.040272277972
 21
213.9432501249368
 31
0.0
  0
LINE
  5
33D
330
1F
100
AcDbEntity
  8
1
  6
Continuous
 62
     7
100
AcDbLine
 10
-347.8402722779722
 20
207.5432501249367
 30
0.0
 11
-352.040272277972
 21
207.5432501249367
 31
0.0
  0
ARC
  5
33E
330
1F
100
AcDbEntity
  8
1
  6
Continuous
 62
     7
100
AcDbCircle
 10
-349.5330922779719
 20
215.4896601249367
 30
0.0
 40
2.292819975597503
100
AcDbArc
 50
317.5879513095397
 51
30.00000457684392
  0
ARC
  5
33F
330
1F
100
AcDbEntity
  8
1
  6
Continuous
 62
     7
100
AcDbCircle
 10
-349.5330922779719
 20
205.9968401249368
 30
0.0
 40
2.292819682770463
100
AcDbArc
 50
329.9999954231582
 51
42.41204869046183
  0
ARC
  5
340
330
1F
100
AcDbEntity
  8
1
  6
Continuous
 62
     7
100
AcDbCircle
 10
-356.0736056113003
 20
210.7432501249368
 30
0.0
 40
8.83333333332849
100
AcDbArc
 50
338.7606894476772
 51
21.2393105523228
  0
LINE
  5
341
330
1F
100
AcDbEntity
  8
1
  6
Continuous
 62
     7
100
AcDbLine
 10
-359.634615510412
 20
213.7432501249368
 30
0.0
 11
-357.634615510412
 21
213.2022501249368
 31
0.0
  0
LINE
  5
342
330
1F
100
AcDbEntity
  8
1
  6
Continuous
 62
     7
100
AcDbLine
 10
-359.634615510412
 20
207.7432501249368
 30
0.0
 11
-357.634615510412
 21
208.2842501249367
 31
0.0
  0
LINE
  5
343
330
1F
100
AcDbEntity
  8
1
  6
Continuous
 62
     7
100
AcDbLine
 10
-347.2402722779718
 20
213.2022501249368
 30
0.0
 11
-337.634615510412
 21
213.2022501249368
 31
0.0
  0
LINE
  5
344
330
1F
100
AcDbEntity
  8
1
  6
Continuous
 62
     7
100
AcDbLine
 10
-347.2402722779718
 20
208.2842501249367
 30
0.0
 11
-337.634615510412
 21
208.2842501249367
 31
0.0
  0
LINE
  5
345
330
1F
100
AcDbEntity
  8
1
  6
Continuous
 62
     7
100
AcDbLine
 10
-363.634615510412
 20
207.7432501249368
 30
0.0
 11
-352.040272277972
 21
207.7432501249365
 31
0.0
  0
LINE
  5
346
330
1F
100
AcDbEntity
  8
1
  6
Continuous
 62
     7
100
AcDbLine
 10
-357.634615510412
 20
208.2842501249367
 30
0.0
 11
-352.040272277972
 21
208.2842501249369
 31
0.0
  0
LINE
  5
347
330
1F
100
AcDbEntity
  8
1
  6
Continuous
 62
     7
100
AcDbLine
 10
-357.634615510412
 20
213.2022501249368
 30
0.0
 11
-352.040272277972
 21
213.2022501249367
 31
0.0
  0
LINE
  5
348
330
1F
100
AcDbEntity
  8
1
  6
Continuous
 62
     7
100
AcDbLine
 10
-363.634615510412
 20
213.7432501249368
 30
0.0
 11
-352.040272277972
 21
213.7432501249367
 31
0.0
  0
LINE
  5
349
330
1F
100
AcDbEntity
  8
1
  6
CENTER2
 62
     7
100
AcDbLine
 10
-337.634615510412
 20
210.7432501249368
 30
0.0
 11
-372.9901416297962
 21
210.7432501249368
 31
0.0
  0
ARC
  5
34A
330
1F
100
AcDbEntity
  8
1
  6
Continuous
 62
     7
100
AcDbCircle
 10
-353.3021300931008
 20
162.2143430398966
 30
0.0
 40
4.0
100
AcDbArc
 50
269.9893250562404
 51
359.9860000736988
  0
ARC
  5
34B
330
1F
100
AcDbEntity
  8
1
  6
Continuous
 62
     7
100
AcDbCircle
 10
-353.3021300931008
 20
162.2143430398966
 30
0.0
 40
4.0
100
AcDbArc
 50
179.9860000736988
 51
269.9893250562404
  0
ARC
  5
34C
330
1F
100
AcDbEntity
  8
1
  6
Continuous
 62
     7
100
AcDbCircle
 10
-353.3021300931008
 20
162.2143430398966
 30
0.0
 40
5.899999999999978
100
AcDbArc
 50
269.9927627500161
 51
359.9860000736969
  0
ARC
  5
34D
330
1F
100
AcDbEntity
  8
1
  6
Continuous
 62
     7
100
AcDbCircle
 10
-353.3021300931008
 20
162.2143430398966
 30
0.0
 40
5.899999999999978
100
AcDbArc
 50
179.9860000737002
 51
269.9927627500161
  0
LINE
  5
34E
330
1F
100
AcDbEntity
  8
1
  6
Continuous
 62
     7
100
AcDbLine
 10
-359.2021299169727
 20
162.2157846742552
 30
0.0
 11
-359.1996864689071
 21
172.2157843757332
 31
0.0
  0
LINE
  5
34F
330
1F
100
AcDbEntity
  8
1
  6
Continuous
 62
     7
100
AcDbLine
 10
-357.2996865256263
 20
172.215320120601
 30
0.0
 11
-357.3021299736921
 21
162.2153204191229
 31
0.0
  0
LINE
  5
350
330
1F
100
AcDbEntity
  8
1
  6
Continuous
 62
     7
100
AcDbLine
 10
-349.3021302125095
 20
162.2133656606704
 30
0.0
 11
-349.2996867644434
 21
172.2133653621484
 31
0.0
  0
LINE
  5
351
330
1F
100
AcDbEntity
  8
1
  6
Continuous
 62
     7
100
AcDbLine
 10
-347.3996868211626
 20
172.2129011070157
 30
0.0
 11
-347.4021302692282
 21
162.2129014055377
 31
0.0
  0
ARC
  5
352
330
1F
100
AcDbEntity
  8
1
  6
Continuous
 62
     7
100
AcDbCircle
 10
-353.2972431969696
 20
182.2143424428523
 30
0.0
 40
4.0
100
AcDbArc
 50
359.9860000736988
 51
76.24696489931831
  0
ARC
  5
353
330
1F
100
AcDbEntity
  8
1
  6
Continuous
 62
     7
100
AcDbCircle
 10
-353.2972431969696
 20
182.2143424428523
 30
0.0
 40
4.0
100
AcDbArc
 50
103.7250352480577
 51
179.9860000736988
  0
ARC
  5
354
330
1F
100
AcDbEntity
  8
1
  6
Continuous
 62
     7
100
AcDbCircle
 10
-353.2972431969696
 20
182.2143424428523
 30
0.0
 40
5.899999999999978
100
AcDbArc
 50
359.9860000737012
 51
80.7200715698567
  0
ARC
  5
355
330
1F
100
AcDbEntity
  8
1
  6
Continuous
 62
     7
100
AcDbCircle
 10
-353.2972431969696
 20
182.2143424428523
 30
0.0
 40
5.899999999999978
100
AcDbArc
 50
99.25192857752984
 51
179.9860000736969
  0
LINE
  5
356
330
1F
100
AcDbEntity
  8
1
  6
Continuous
 62
     7
100
AcDbLine
 10
-359.1972430208415
 20
182.2157840772113
 30
0.0
 11
-359.1996864689071
 21
172.2157843757332
 31
0.0
  0
LINE
  5
357
330
1F
100
AcDbEntity
  8
1
  6
Continuous
 62
     7
100
AcDbLine
 10
-357.2996865256263
 20
172.2153201206006
 30
0.0
 11
-357.2972430775609
 21
182.2153198220786
 31
0.0
  0
LINE
  5
358
330
1F
100
AcDbEntity
  8
1
  6
Continuous
 62
     7
100
AcDbLine
 10
-349.2972433163781
 20
182.2133650636261
 30
0.0
 11
-349.2996867644434
 21
172.213365362148
 31
0.0
  0
LINE
  5
359
330
1F
100
AcDbEntity
  8
1
  6
Continuous
 62
     7
100
AcDbLine
 10
-347.3996868211626
 20
172.2129011070157
 30
0.0
 11
-347.397243373097
 21
182.2129008084939
 31
0.0
  0
LINE
  5
35A
330
1F
100
AcDbEntity
  8
1
  6
Continuous
 62
     7
100
AcDbLine
 10
-354.2391920072333
 20
215.1645735867896
 30
0.0
 11
-354.2464979169494
 21
185.26457447937
 31
0.0
  0
LINE
  5
35B
330
1F
100
AcDbEntity
  8
1
  6
Continuous
 62
     7
100
AcDbLine
 10
-352.3464979736688
 20
185.2641102242373
 30
0.0
 11
-352.3391920639521
 21
215.1641093316568
 31
0.0
  0
ARC
  5
35C
330
1F
100
AcDbEntity
  8
1
  6
Continuous
 62
     7
100
AcDbCircle
 10
-353.2891920355929
 20
215.1643414592233
 30
0.0
 40
0.950000000000017
100
AcDbArc
 50
359.9860000736824
 51
179.9860000737029
  0
ARC
  5
35D
330
1F
100
AcDbEntity
  8
1
  6
Continuous
 62
     7
100
AcDbCircle
 10
-353.2964979453094
 20
185.2643423518038
 30
0.0
 40
0.950000000000017
100
AcDbArc
 50
179.9860000737029
 51
359.9860000736961
  0
CIRCLE
  5
35E
330
1F
100
AcDbEntity
  8
1
  6
Continuous
 62
     7
100
AcDbCircle
 10
-223.321190897921
 20
-99.88006851209002
 30
0.0
 40
16.0
  0
LINE
  5
35F
330
1F
100
AcDbEntity
  8
1
  6
Continuous
 62
     7
100
AcDbLine
 10
-238.8131242827508
 20
-95.88006851209002
 30
0.0
 11
-207.8292575130913
 21
-95.88006851209002
 31
0.0
  0
LINE
  5
360
330
1F
100
AcDbEntity
  8
1
  6
Continuous
 62
     7
100
AcDbLine
 10
-238.8131242827508
 20
-103.88006851209
 30
0.0
 11
-207.8292575130913
 21
-103.88006851209
 31
0.0
  0
MTEXT
  5
361
330
1F
100
AcDbEntity
  8
1
  6
Continuous
 62
     7
100
AcDbMText
 10
-227.3211908979215
 20
-93.88006851209002
 30
0.0
 40
8.0
 41
0.0
 71
     7
 72
     5
  1
{\fＭＳ 明朝|b0|i0|c128|p17;\W1.0;橋}
  7
MTSTANDARD
 73
     1
 44
0.78125
  0
MTEXT
  5
362
330
1F
100
AcDbEntity
  8
1
  6
Continuous
 62
     7
100
AcDbMText
 10
-227.3211908979215
 20
-113.88006851209
 30
0.0
 40
8.0
 41
0.0
 71
     7
 72
     5
  1
{\fＭＳ 明朝|b0|i0|c128|p17;\W1.0;本}
  7
MTSTANDARD
 73
     1
 44
0.78125
  0
MTEXT
  5
363
330
1F
100
AcDbEntity
  8
1
  6
Continuous
 62
     7
100
AcDbMText
 10
-235.8211908979215
 20
-102.38006851209
 30
0.0
 40
5.0
 41
0.0
 71
     7
 72
     5
  1
{\fＭＳ 明朝|b0|i0|c128|p17;\W1.0;2006.03.23}
  7
MTSTANDARD6
 73
     1
 44
0.875
  0
CIRCLE
  5
364
330
1F
100
AcDbEntity
  8
1
  6
Continuous
 62
     7
100
AcDbCircle
 10
-178.9176023601244
 20
-99.88006851209002
 30
0.0
 40
16.0
  0
LINE
  5
365
330
1F
100
AcDbEntity
  8
1
  6
Continuous
 62
     7
100
AcDbLine
 10
-194.4095357449542
 20
-95.88006851209002
 30
0.0
 11
-163.4256689752947
 21
-95.88006851209002
 31
0.0
  0
LINE
  5
366
330
1F
100
AcDbEntity
  8
1
  6
Continuous
 62
     7
100
AcDbLine
 10
-194.4095357449542
 20
-103.88006851209
 30
0.0
 11
-163.4256689752947
 21
-103.88006851209
 31
0.0
  0
MTEXT
  5
367
330
1F
100
AcDbEntity
  8
1
  6
Continuous
 62
     7
100
AcDbMText
 10
-182.9176023601249
 20
-93.88006851209002
 30
0.0
 40
8.0
 41
0.0
 71
     7
 72
     5
  1
{\fＭＳ 明朝|b0|i0|c128|p17;\W1.0;野}
  7
MTSTANDARD
 73
     1
 44
0.78125
  0
MTEXT
  5
368
330
1F
100
AcDbEntity
  8
1
  6
Continuous
 62
     7
100
AcDbMText
 10
-182.9176023601249
 20
-113.88006851209
 30
0.0
 40
8.0
 41
0.0
 71
     7
 72
     5
  1
{\fＭＳ 明朝|b0|i0|c128|p17;\W1.0;島}
  7
MTSTANDARD
 73
     1
 44
0.78125
  0
CIRCLE
  5
369
330
1F
100
AcDbEntity
  8
1
  6
Continuous
 62
     7
100
AcDbCircle
 10
-135.3846724211085
 20
-99.88006851209002
 30
0.0
 40
16.0
  0
LINE
  5
36A
330
1F
100
AcDbEntity
  8
1
  6
Continuous
 62
     7
100
AcDbLine
 10
-150.8766058059382
 20
-95.88006851209002
 30
0.0
 11
-119.8927390362787
 21
-95.88006851209002
 31
0.0
  0
LINE
  5
36B
330
1F
100
AcDbEntity
  8
1
  6
Continuous
 62
     7
100
AcDbLine
 10
-150.8766058059382
 20
-103.88006851209
 30
0.0
 11
-119.8927390362787
 21
-103.88006851209
 31
0.0
  0
MTEXT
  5
36C
330
1F
100
AcDbEntity
  8
1
  6
Continuous
 62
     7
100
AcDbMText
 10
-139.3846724211085
 20
-93.88006851209002
 30
0.0
 40
8.0
 41
0.0
 71
     7
 72
     5
  1
{\fＭＳ 明朝|b0|i0|c128|p17;\W1.0;梅}
  7
MTSTANDARD
 73
     1
 44
0.78125
  0
MTEXT
  5
36D
330
1F
100
AcDbEntity
  8
1
  6
Continuous
 62
     7
100
AcDbMText
 10
-139.3846724211085
 20
-113.88006851209
 30
0.0
 40
8.0
 41
0.0
 71
     7
 72
     5
  1
{\fＭＳ 明朝|b0|i0|c128|p17;\W1.0;村}
  7
MTSTANDARD
 73
     1
 44
0.78125
  0
INSERT
  5
37A
330
1F
100
AcDbEntity
  8
1
  6
Continuous
 62
     0
100
AcDbBlockReference
  2
BLK3
 10
-341.3575868953205
 20
181.2150328894331
 30
0.0
  0
ARC
  5
37B
330
1F
100
AcDbEntity
  8
1
  6
Continuous
 62
     7
100
AcDbCircle
 10
-341.3624737914517
 20
161.2150334864774
 30
0.0
 40
4.0
100
AcDbArc
 50
269.9893250562372
 51
359.9860000736988
  0
ARC
  5
37C
330
1F
100
AcDbEntity
  8
1
  6
Continuous
 62
     7
100
AcDbCircle
 10
-341.3624737914517
 20
161.2150334864774
 30
0.0
 40
4.0
100
AcDbArc
 50
179.9860000736988
 51
269.9893250562372
  0
ARC
  5
37D
330
1F
100
AcDbEntity
  8
1
  6
Continuous
 62
     7
100
AcDbCircle
 10
-341.3624737914517
 20
161.2150334864774
 30
0.0
 40
5.899999999999978
100
AcDbArc
 50
269.992762750014
 51
359.9860000736969
  0
ARC
  5
37E
330
1F
100
AcDbEntity
  8
1
  6
Continuous
 62
     7
100
AcDbCircle
 10
-341.3624737914517
 20
161.2150334864774
 30
0.0
 40
5.899999999999978
100
AcDbArc
 50
179.9860000737002
 51
269.992762750014
  0
LINE
  5
37F
330
1F
100
AcDbEntity
  8
1
  6
Continuous
 62
     7
100
AcDbLine
 10
-347.2624736153236
 20
161.2164751208359
 30
0.0
 11
-347.260030167258
 21
171.216474822314
 31
0.0
  0
LINE
  5
380
330
1F
100
AcDbEntity
  8
1
  6
Continuous
 62
     7
100
AcDbLine
 10
-345.3600302239772
 20
171.2160105671817
 30
0.0
 11
-345.3624736720433
 21
161.2160108657036
 31
0.0
  0
LINE
  5
381
330
1F
100
AcDbEntity
  8
1
  6
Continuous
 62
     7
100
AcDbLine
 10
-337.3624739108607
 20
161.2140561072511
 30
0.0
 11
-337.3600304627946
 21
171.2140558087291
 31
0.0
  0
LINE
  5
382
330
1F
100
AcDbEntity
  8
1
  6
Continuous
 62
     7
100
AcDbLine
 10
-335.4600305195138
 20
171.2135915535965
 30
0.0
 11
-335.4624739675794
 21
161.2135918521184
 31
0.0
  0
ARC
  5
383
330
1F
100
AcDbEntity
  8
1
  6
Continuous
 62
     7
100
AcDbCircle
 10
-341.3575868953205
 20
181.2150328894331
 30
0.0
 40
5.899999999999978
100
AcDbArc
 50
359.9860000737012
 51
90.0
  0
ARC
  5
384
330
1F
100
AcDbEntity
  8
1
  6
Continuous
 62
     7
100
AcDbCircle
 10
-341.3575868953205
 20
181.2150328894331
 30
0.0
 40
5.899999999999978
100
AcDbArc
 50
90.0
 51
179.9860000736969
  0
LINE
  5
385
330
1F
100
AcDbEntity
  8
1
  6
Continuous
 62
     7
100
AcDbLine
 10
-347.2575867191924
 20
181.216474523792
 30
0.0
 11
-347.260030167258
 21
171.216474822314
 31
0.0
  0
LINE
  5
386
330
1F
100
AcDbEntity
  8
1
  6
Continuous
 62
     7
100
AcDbLine
 10
-345.3600302239772
 20
171.2160105671813
 30
0.0
 11
-345.3584333305851
 21
177.7514199639231
 31
0.0
  0
LINE
  5
387
330
1F
100
AcDbEntity
  8
1
  6
Continuous
 62
     7
100
AcDbLine
 10
-337.3584333305846
 20
177.7504425846678
 30
0.0
 11
-337.3600304627946
 21
171.2140558087287
 31
0.0
  0
LINE
  5
388
330
1F
100
AcDbEntity
  8
1
  6
Continuous
 62
     7
100
AcDbLine
 10
-335.4600305195138
 20
171.2135915535965
 30
0.0
 11
-335.4575870714482
 21
181.2135912550746
 31
0.0
  0
SPLINE
  5
389
330
1F
100
AcDbEntity
  8
1
  6
PHANTOM2
 62
     7
100
AcDbSpline
210
0.0
220
0.0
230
1.0
 70
     8
 71
     3
 72
    47
 73
    43
 74
     0
 42
0.000000001
 43
0.0
 40
0.0
 40
0.0
 40
0.0
 40
0.0
 40
1.0
 40
1.0
 40
1.0
 40
2.0
 40
2.0
 40
2.0
 40
3.0
 40
3.0
 40
3.0
 40
4.0
 40
4.0
 40
4.0
 40
5.0
 40
5.0
 40
5.0
 40
6.0
 40
6.0
 40
6.0
 40
7.0
 40
7.0
 40
7.0
 40
8.0
 40
8.0
 40
8.0
 40
9.0
 40
9.0
 40
9.0
 40
10.0
 40
10.0
 40
10.0
 40
11.0
 40
11.0
 40
11.0
 40
12.0
 40
12.0
 40
12.0
 40
13.0
 40
13.0
 40
13.0
 40
14.0
 40
14.0
 40
14.0
 40
14.0
 10
-353.3028753447609
 20
156.3143430869645
 30
0.0
 10
-353.3028753447609
 20
156.3143430869645
 30
0.0
 10
-355.7943369793468
 20
146.4151405741758
 30
0.0
 10
-355.9063984771901
 20
142.1822869020202
 30
0.0
 10
-356.0184599750335
 20
137.9494332298647
 30
0.0
 10
-354.0224503220406
 20
134.3968747270766
 30
0.0
 10
-353.9752443318205
 20
130.9172210540311
 30
0.0
 10
-353.9280383416003
 20
127.4375673809856
 30
0.0
 10
-355.7490451764561
 20
123.6274717763991
 30
0.0
 10
-355.6231625358691
 20
121.3043648637471
 30
0.0
 10
-355.4972798952822
 20
118.9812579510951
 30
0.0
 10
-354.3185606243308
 20
117.9398651971476
 30
0.0
 10
-353.2199484882983
 20
116.9785795781193
 30
0.0
 10
-352.1213363522659
 20
116.0172939590909
 30
0.0
 10
-350.4161987661321
 20
115.7884164307507
 30
0.0
 10
-349.0314897196745
 20
115.5366511495766
 30
0.0
 10
-347.6467806732169
 20
115.2848858684026
 30
0.0
 10
-346.2849593795934
 20
115.0331205872284
 30
0.0
 10
-344.9116942095527
 20
115.4679878910746
 30
0.0
 10
-343.538429039512
 20
115.9028551949208
 30
0.0
 10
-341.7302965656254
 20
117.1273499715404
 30
0.0
 10
-340.7918986994309
 20
118.1458549726538
 30
0.0
 10
-339.8535008332365
 20
119.1643599737671
 30
0.0
 10
-339.8763885860706
 20
119.5420078955283
 30
0.0
 10
-339.2813070123864
 20
121.5790178977552
 30
0.0
 10
-338.6862254387022
 20
123.616027899982
 30
0.0
 10
-337.3701796507466
 20
127.6442723987678
 30
0.0
 10
-337.2214092573256
 20
130.3679149860149
 30
0.0
 10
-337.0726388639046
 20
133.091557573262
 30
0.0
 10
-337.5990571790869
 20
135.6092103850031
 30
0.0
 10
-338.3886846518601
 20
137.9208734212381
 30
0.0
 10
-339.1783121246333
 20
140.232536457473
 30
0.0
 10
-341.2496537561112
 20
142.38398522387
 30
0.0
 10
-341.9591740939654
 20
144.2378932034247
 30
0.0
 10
-342.6686944318196
 20
146.0918011829795
 30
0.0
 10
-342.7460712120933
 20
147.4728148110108
 30
0.0
 10
-342.6458066789858
 20
149.0443212985667
 30
0.0
 10
-342.5455421458782
 20
150.6158277861227
 30
0.0
 10
-341.5722901925981
 20
152.6218130934622
 30
0.0
 10
-341.3575868953205
 20
153.6669321287603
 30
0.0
 10
-341.142883598043
 20
154.7120511640583
 30
0.0
 10
-341.3575868953205
 20
155.3150355103552
 30
0.0
 10
-341.3575868953205
 20
155.3150355103552
 30
0.0
  0
MTEXT
  5
38A
330
1F
100
AcDbEntity
  8
1
  6
Continuous
 62
     7
100
AcDbMText
 10
-326.4312635563201
 20
-84.29343150231625
 30
0.0
 40
8.0
 41
0.0
 71
     7
 72
     5
  1
{\fＭＳ 明朝|b0|i0|c128|p17;\W1.0;溶融亜鉛メッキ}
  7
MTSTANDARD
 73
     1
 44
0.9375
  0
ENDSEC
  0
SECTION
  2
OBJECTS
  0
DICTIONARY
  5
C
330
0
100
AcDbDictionary
281
     1
  3
ACAD_GROUP
350
D
  3
ACAD_LAYOUT
350
1A
  3
ACAD_MATERIAL
350
43
  3
ACAD_MLEADERSTYLE
350
6B
  3
ACAD_MLINESTYLE
350
17
  3
ACAD_PLOTSETTINGS
350
19
  3
ACAD_PLOTSTYLENAME
350
E
  3
ACAD_SCALELIST
350
47
  3
ACAD_TABLESTYLE
350
69
  3
ACAD_VISUALSTYLE
350
2A
  3
AcDbVariableDictionary
350
39A
  0
DICTIONARY
  5
3A1
330
8
100
AcDbDictionary
280
     1
281
     1
  3
ACAD_XREC_ROUNDTRIP
360
3A2
  0
DICTIONARY
  5
D
102
{ACAD_REACTORS
330
C
102
}
330
C
100
AcDbDictionary
281
     1
  0
DICTIONARY
  5
1A
102
{ACAD_REACTORS
330
C
102
}
330
C
100
AcDbDictionary
281
     1
  3
Layout1
350
1E
  3
Model
350
22
  0
DICTIONARY
  5
43
102
{ACAD_REACTORS
330
C
102
}
330
C
100
AcDbDictionary
281
     1
  3
ByBlock
350
45
  3
ByLayer
350
44
  3
Global
350
46
  0
DICTIONARY
  5
6B
102
{ACAD_REACTORS
330
C
102
}
330
C
100
AcDbDictionary
281
     1
  3
Standard
350
6C
  0
DICTIONARY
  5
17
102
{ACAD_REACTORS
330
C
102
}
330
C
100
AcDbDictionary
281
     1
  3
Standard
350
18
  0
DICTIONARY
  5
19
102
{ACAD_REACTORS
330
C
102
}
330
C
100
AcDbDictionary
281
     1
  0
ACDBDICTIONARYWDFLT
  5
E
102
{ACAD_REACTORS
330
C
102
}
330
C
100
AcDbDictionary
281
     1
  3
Normal
350
F
100
AcDbDictionaryWithDefault
340
F
  0
DICTIONARY
  5
47
102
{ACAD_REACTORS
330
C
102
}
330
C
100
AcDbDictionary
281
     1
  3
A0
350
48
  3
A1
350
49
  3
A2
350
4A
  3
A3
350
4B
  3
A4
350
4C
  3
A5
350
4D
  3
A6
350
4E
  3
A7
350
4F
  3
A8
350
50
  3
A9
350
51
  3
B0
350
52
  3
B1
350
53
  3
B2
350
54
  3
B3
350
55
  3
B4
350
56
  3
B5
350
57
  3
B6
350
58
  3
B7
350
59
  3
B8
350
5A
  3
B9
350
5B
  3
C0
350
5C
  3
C1
350
5D
  3
C2
350
5E
  3
C3
350
5F
  3
C4
350
60
  3
C5
350
61
  3
C6
350
62
  3
C7
350
63
  3
C8
350
64
  3
C9
350
65
  3
D0
350
66
  3
D1
350
67
  3
D2
350
68
  0
DICTIONARY
  5
69
102
{ACAD_REACTORS
330
C
102
}
330
C
100
AcDbDictionary
281
     1
  3
Standard
350
6A
  0
DICTIONARY
  5
2A
102
{ACAD_REACTORS
330
C
102
}
330
C
100
AcDbDictionary
281
     1
  3
2dWireframe
350
2F
  3
Basic
350
32
  3
Brighten
350
36
  3
ColorChange
350
3A
  3
Conceptual
350
34
  3
Dim
350
35
  3
EdgeColorOff
350
3D
  3
Facepattern
350
39
  3
Flat
350
2B
  3
FlatWithEdges
350
2C
  3
Gouraud
350
2D
  3
GouraudWithEdges
350
2E
  3
Hidden
350
31
  3
JitterOff
350
3B
  3
Linepattern
350
38
  3
OverhangOff
350
3C
  3
Realistic
350
33
  3
Shaded
350
42
  3
Shaded with edges
350
41
  3
Shades of Gray
350
3E
  3
Sketchy
350
3F
  3
Thicken
350
37
  3
Wireframe
350
30
  3
X-Ray
350
40
  0
DICTIONARY
  5
39A
102
{ACAD_REACTORS
330
C
102
}
330
C
100
AcDbDictionary
281
     1
  3
CANNOSCALE
350
3A3
  3
CMLEADERSTYLE
350
39C
  3
CTABLESTYLE
350
39B
  3
DIMASSOC
350
39F
  3
HIDETEXT
350
3A0
  3
MSLTSCALE
350
3A4
  0
XRECORD
  5
3A2
102
{ACAD_REACTORS
330
3A1
102
}
330
3A1
100
AcDbXrecord
280
     1
102
VTR_0.000_0.000_1.000_1.000_VISUALSTYLE
340
2F
102
VTR_0.000_0.000_1.000_1.000_GRIDDISPLAY
 70
     3
102
VTR_0.000_0.000_1.000_1.000_GRIDMAJOR
 70
     5
102
VTR_0.000_0.000_1.000_1.000_DEFAULTLIGHTING
280
     1
102
VTR_0.000_0.000_1.000_1.000_DEFAULTLIGHTINGTYPE
 70
     1
102
VTR_0.000_0.000_1.000_1.000_BRIGHTNESS
141
0.0
102
VTR_0.000_0.000_1.000_1.000_CONTRAST
142
0.0
  0
LAYOUT
  5
1E
102
{ACAD_REACTORS
330
1A
102
}
330
1A
100
AcDbPlotSettings
  1

  2
none_device
  4

  6

 40
0.0
 41
0.0
 42
0.0
 43
0.0
 44
0.0
 45
0.0
 46
0.0
 47
0.0
 48
0.0
 49
0.0
140
0.0
141
0.0
142
1.0
143
1.0
 70
   688
 72
     0
 73
     0
 74
     5
  7

 75
    16
147
1.0
148
0.0
149
0.0
100
AcDbLayout
  1
Layout1
 70
     1
 71
     1
 10
0.0
 20
0.0
 11
12.0
 21
9.0
 12
0.0
 22
0.0
 32
0.0
 14
1.000000000000000E+20
 24
1.000000000000000E+20
 34
1.000000000000000E+20
 15
-1.000000000000000E+20
 25
-1.000000000000000E+20
 35
-1.000000000000000E+20
146
0.0
 13
0.0
 23
0.0
 33
0.0
 16
1.0
 26
0.0
 36
0.0
 17
0.0
 27
1.0
 37
0.0
 76
     0
330
1B
  0
LAYOUT
  5
22
102
{ACAD_REACTORS
330
1A
102
}
330
1A
100
AcDbPlotSettings
  1

  2
none_device
  4
Letter_(8.50_x_11.00_Inches)
  6

 40
6.35
 41
6.35
 42
6.35000508
 43
6.35000508
 44
215.9
 45
279.4
 46
0.0
 47
0.0
 48
0.0
 49
0.0
140
0.0
141
0.0
142
1.0
143
1.0
 70
  1712
 72
     0
 73
     0
 74
     0
  7

 75
     0
147
1.0
148
0.0
149
0.0
100
AcDbLayout
  1
Model
 70
     1
 71
     0
 10
-522.3479302229864
 20
-136.7008389097236
 11
11.65206977701359
 21
603.2991610902764
 12
-909.2870734149614
 22
1048.664652054114
 32
0.0
 14
-522.3479302229864
 24
-136.7008389097236
 34
0.0
 15
11.65206977701359
 25
603.2991610902764
 35
0.0
146
0.0
 13
0.0
 23
0.0
 33
0.0
 16
1.0
 26
0.0
 36
0.0
 17
0.0
 27
1.0
 37
0.0
 76
     0
330
1F
331
29
  0
MATERIAL
  5
45
102
{ACAD_REACTORS
330
43
102
}
102
{ACAD_XDICTIONARY
360
3D7
102
}
330
43
100
AcDbMaterial
  1
ByBlock
  0
MATERIAL
  5
44
102
{ACAD_REACTORS
330
43
102
}
102
{ACAD_XDICTIONARY
360
3D5
102
}
330
43
100
AcDbMaterial
  1
ByLayer
  0
MATERIAL
  5
46
102
{ACAD_REACTORS
330
43
102
}
102
{ACAD_XDICTIONARY
360
3D9
102
}
330
43
100
AcDbMaterial
  1
Global
  0
MLEADERSTYLE
  5
6C
102
{ACAD_REACTORS
330
6B
102
}
102
{ACAD_XDICTIONARY
360
3DC
102
}
330
6B
100
AcDbMLeaderStyle
170
     2
171
     1
172
     0
 90
        2
 40
0.0
 41
0.0
173
     1
 91
-1056964608
340
14
 92
       -2
290
     1
 42
0.09
291
     1
 43
0.36
  3
Standard
341
0
 44
0.18
300

342
11
174
     1
178
     6
175
     1
176
     0
 93
-1056964608
 45
0.18
292
     0
297
     0
 46
0.18
343
0
 94
-1056964608
 47
1.0
 49
1.0
140
1.0
293
     1
141
0.0
294
     1
177
     0
142
1.0
295
     0
296
     0
143
0.125
1001
ACAD_MLEADERVER
1070
     2
  0
MLINESTYLE
  5
18
102
{ACAD_REACTORS
330
17
102
}
330
17
100
AcDbMlineStyle
  2
Standard
 70
     0
  3

 62
   256
 51
90.0
 52
90.0
 71
     2
 49
0.5
 62
   256
  6
BYLAYER
 49
-0.5
 62
   256
  6
BYLAYER
  0
ACDBPLACEHOLDER
  5
F
102
{ACAD_REACTORS
330
E
102
}
330
E
  0
SCALE
  5
48
102
{ACAD_REACTORS
330
47
102
}
330
47
100
AcDbScale
 70
     0
300
1:1
140
1.0
141
1.0
290
     1
  0
SCALE
  5
49
102
{ACAD_REACTORS
330
47
102
}
330
47
100
AcDbScale
 70
     0
300
1:2
140
1.0
141
2.0
290
     0
  0
SCALE
  5
4A
102
{ACAD_REACTORS
330
47
102
}
330
47
100
AcDbScale
 70
     0
300
1:4
140
1.0
141
4.0
290
     0
  0
SCALE
  5
4B
102
{ACAD_REACTORS
330
47
102
}
330
47
100
AcDbScale
 70
     0
300
1:5
140
1.0
141
5.0
290
     0
  0
SCALE
  5
4C
102
{ACAD_REACTORS
330
47
102
}
330
47
100
AcDbScale
 70
     0
300
1:8
140
1.0
141
8.0
290
     0
  0
SCALE
  5
4D
102
{ACAD_REACTORS
330
47
102
}
330
47
100
AcDbScale
 70
     0
300
1:10
140
1.0
141
10.0
290
     0
  0
SCALE
  5
4E
102
{ACAD_REACTORS
330
47
102
}
330
47
100
AcDbScale
 70
     0
300
1:16
140
1.0
141
16.0
290
     0
  0
SCALE
  5
4F
102
{ACAD_REACTORS
330
47
102
}
330
47
100
AcDbScale
 70
     0
300
1:20
140
1.0
141
20.0
290
     0
  0
SCALE
  5
50
102
{ACAD_REACTORS
330
47
102
}
330
47
100
AcDbScale
 70
     0
300
1:30
140
1.0
141
30.0
290
     0
  0
SCALE
  5
51
102
{ACAD_REACTORS
330
47
102
}
330
47
100
AcDbScale
 70
     0
300
1:40
140
1.0
141
40.0
290
     0
  0
SCALE
  5
52
102
{ACAD_REACTORS
330
47
102
}
330
47
100
AcDbScale
 70
     0
300
1:50
140
1.0
141
50.0
290
     0
  0
SCALE
  5
53
102
{ACAD_REACTORS
330
47
102
}
330
47
100
AcDbScale
 70
     0
300
1:100
140
1.0
141
100.0
290
     0
  0
SCALE
  5
54
102
{ACAD_REACTORS
330
47
102
}
330
47
100
AcDbScale
 70
     0
300
2:1
140
2.0
141
1.0
290
     0
  0
SCALE
  5
55
102
{ACAD_REACTORS
330
47
102
}
330
47
100
AcDbScale
 70
     0
300
4:1
140
4.0
141
1.0
290
     0
  0
SCALE
  5
56
102
{ACAD_REACTORS
330
47
102
}
330
47
100
AcDbScale
 70
     0
300
8:1
140
8.0
141
1.0
290
     0
  0
SCALE
  5
57
102
{ACAD_REACTORS
330
47
102
}
330
47
100
AcDbScale
 70
     0
300
10:1
140
10.0
141
1.0
290
     0
  0
SCALE
  5
58
102
{ACAD_REACTORS
330
47
102
}
330
47
100
AcDbScale
 70
     0
300
100:1
140
100.0
141
1.0
290
     0
  0
SCALE
  5
59
102
{ACAD_REACTORS
330
47
102
}
330
47
100
AcDbScale
 70
     0
300
1/128" = 1'-0"
140
0.0078125
141
12.0
290
     0
  0
SCALE
  5
5A
102
{ACAD_REACTORS
330
47
102
}
330
47
100
AcDbScale
 70
     0
300
1/64" = 1'-0"
140
0.015625
141
12.0
290
     0
  0
SCALE
  5
5B
102
{ACAD_REACTORS
330
47
102
}
330
47
100
AcDbScale
 70
     0
300
1/32" = 1'-0"
140
0.03125
141
12.0
290
     0
  0
SCALE
  5
5C
102
{ACAD_REACTORS
330
47
102
}
330
47
100
AcDbScale
 70
     0
300
1/16" = 1'-0"
140
0.0625
141
12.0
290
     0
  0
SCALE
  5
5D
102
{ACAD_REACTORS
330
47
102
}
330
47
100
AcDbScale
 70
     0
300
3/32" = 1'-0"
140
0.09375
141
12.0
290
     0
  0
SCALE
  5
5E
102
{ACAD_REACTORS
330
47
102
}
330
47
100
AcDbScale
 70
     0
300
1/8" = 1'-0"
140
0.125
141
12.0
290
     0
  0
SCALE
  5
5F
102
{ACAD_REACTORS
330
47
102
}
330
47
100
AcDbScale
 70
     0
300
3/16" = 1'-0"
140
0.1875
141
12.0
290
     0
  0
SCALE
  5
60
102
{ACAD_REACTORS
330
47
102
}
330
47
100
AcDbScale
 70
     0
300
1/4" = 1'-0"
140
0.25
141
12.0
290
     0
  0
SCALE
  5
61
102
{ACAD_REACTORS
330
47
102
}
330
47
100
AcDbScale
 70
     0
300
3/8" = 1'-0"
140
0.375
141
12.0
290
     0
  0
SCALE
  5
62
102
{ACAD_REACTORS
330
47
102
}
330
47
100
AcDbScale
 70
     0
300
1/2" = 1'-0"
140
0.5
141
12.0
290
     0
  0
SCALE
  5
63
102
{ACAD_REACTORS
330
47
102
}
330
47
100
AcDbScale
 70
     0
300
3/4" = 1'-0"
140
0.75
141
12.0
290
     0
  0
SCALE
  5
64
102
{ACAD_REACTORS
330
47
102
}
330
47
100
AcDbScale
 70
     0
300
1" = 1'-0"
140
1.0
141
12.0
290
     0
  0
SCALE
  5
65
102
{ACAD_REACTORS
330
47
102
}
330
47
100
AcDbScale
 70
     0
300
1-1/2" = 1'-0"
140
1.5
141
12.0
290
     0
  0
SCALE
  5
66
102
{ACAD_REACTORS
330
47
102
}
330
47
100
AcDbScale
 70
     0
300
3" = 1'-0"
140
3.0
141
12.0
290
     0
  0
SCALE
  5
67
102
{ACAD_REACTORS
330
47
102
}
330
47
100
AcDbScale
 70
     0
300
6" = 1'-0"
140
6.0
141
12.0
290
     0
  0
SCALE
  5
68
102
{ACAD_REACTORS
330
47
102
}
330
47
100
AcDbScale
 70
     0
300
1'-0" = 1'-0"
140
12.0
141
12.0
290
     0
  0
TABLESTYLE
  5
6A
102
{ACAD_REACTORS
330
69
102
}
330
69
100
AcDbTableStyle
  3
Standard
 70
     0
 71
     0
 40
0.06
 41
0.06
280
     0
281
     0
  7
Standard
140
0.18
170
     2
 62
     0
 63
   257
283
     0
274
    -2
284
     1
 64
     0
275
    -2
285
     1
 65
     0
276
    -2
286
     1
 66
     0
277
    -2
287
     1
 67
     0
278
    -2
288
     1
 68
     0
279
    -2
289
     1
 69
     0
  7
Standard
140
0.25
170
     5
 62
     0
 63
   257
283
     0
274
    -2
284
     1
 64
     0
275
    -2
285
     1
 65
     0
276
    -2
286
     1
 66
     0
277
    -2
287
     1
 67
     0
278
    -2
288
     1
 68
     0
279
    -2
289
     1
 69
     0
  7
Standard
140
0.18
170
     5
 62
     0
 63
   257
283
     0
274
    -2
284
     1
 64
     0
275
    -2
285
     1
 65
     0
276
    -2
286
     1
 66
     0
277
    -2
287
     1
 67
     0
278
    -2
288
     1
 68
     0
279
    -2
289
     1
 69
     0
  0
VISUALSTYLE
  5
2F
102
{ACAD_REACTORS
330
2A
102
}
102
{ACAD_XDICTIONARY
360
3AD
102
}
330
2A
100
AcDbVisualStyle
  2
2dWireframe
 70
     4
 71
     0
 72
     2
 73
     0
 90
        0
 40
0.6
 41
30.0
 62
     5
 63
     7
 74
     1
 91
        4
 64
     7
 65
   257
 75
     1
175
     1
 42
1.0
 92
        0
 66
   257
 43
1.0
 76
     1
 77
     6
 78
     2
 67
     7
 79
     5
170
     0
171
     0
290
     0
174
     0
 93
        1
 44
0.0
173
     0
291
     0
 45
0.0
1001
ACAD
1000
AcDbSavedByObjectVersion
1070
     0
  0
VISUALSTYLE
  5
32
102
{ACAD_REACTORS
330
2A
102
}
102
{ACAD_XDICTIONARY
360
3B3
102
}
330
2A
100
AcDbVisualStyle
  2
Basic
 70
     7
 71
     1
 72
     0
 73
     1
 90
        0
 40
0.6
 41
30.0
 62
     5
 63
     7
 74
     0
 91
        4
 64
     7
 65
   257
 75
     1
175
     1
 42
1.0
 92
        8
 66
     7
 43
1.0
 76
     1
 77
     6
 78
     2
 67
     7
 79
     5
170
     0
171
     0
290
     0
174
     0
 93
        1
 44
0.0
173
     0
291
     1
 45
0.0
1001
ACAD
1000
AcDbSavedByObjectVersion
1070
     0
  0
VISUALSTYLE
  5
36
102
{ACAD_REACTORS
330
2A
102
}
102
{ACAD_XDICTIONARY
360
3BB
102
}
330
2A
100
AcDbVisualStyle
  2
Brighten
 70
    12
 71
     2
 72
     2
 73
     0
 90
        0
 40
0.6
 41
30.0
 62
     5
 63
     7
 74
     1
 91
        4
 64
     7
 65
   257
 75
     1
175
     1
 42
1.0
 92
        8
 66
     7
 43
1.0
 76
     1
 77
     6
 78
     2
 67
     7
 79
     5
170
     0
171
     0
290
     0
174
     0
 93
        1
 44
50.0
173
     0
291
     1
 45
0.0
1001
ACAD
1000
AcDbSavedByObjectVersion
1070
     0
  0
VISUALSTYLE
  5
3A
102
{ACAD_REACTORS
330
2A
102
}
102
{ACAD_XDICTIONARY
360
3C3
102
}
330
2A
100
AcDbVisualStyle
  2
ColorChange
 70
    16
 71
     2
 72
     2
 73
     3
 90
        0
 40
0.6
 41
30.0
 62
     5
 63
     8
 74
     1
 91
        4
 64
     7
 65
   257
 75
     1
175
     1
 42
1.0
 92
        8
 66
     8
 43
1.0
 76
     1
 77
     6
 78
     2
 67
     7
 79
     5
170
     0
171
     0
290
     0
174
     0
 93
        1
 44
0.0
173
     0
291
     1
 45
0.0
1001
ACAD
1000
AcDbSavedByObjectVersion
1070
     0
  0
VISUALSTYLE
  5
34
102
{ACAD_REACTORS
330
2A
102
}
102
{ACAD_XDICTIONARY
360
3B7
102
}
330
2A
100
AcDbVisualStyle
  2
Conceptual
 70
     9
 71
     3
 72
     2
 73
     0
 90
        0
 40
0.6
 41
30.0
 62
     5
 63
     7
 74
     2
 91
        2
 64
     7
 65
   257
 75
     1
175
     1
 42
179.0
 92
        8
 66
     7
 43
1.0
 76
     1
 77
     6
 78
     2
 67
     7
 79
     3
170
     0
171
     0
290
     0
174
     0
 93
        1
 44
0.0
173
     0
291
     0
 45
0.0
1001
ACAD
1000
AcDbSavedByObjectVersion
1070
     0
  0
VISUALSTYLE
  5
35
102
{ACAD_REACTORS
330
2A
102
}
102
{ACAD_XDICTIONARY
360
3B9
102
}
330
2A
100
AcDbVisualStyle
  2
Dim
 70
    11
 71
     2
 72
     2
 73
     0
 90
        0
 40
0.6
 41
30.0
 62
     5
 63
     7
 74
     1
 91
        4
 64
     7
 65
   257
 75
     1
175
     1
 42
1.0
 92
        8
 66
     7
 43
1.0
 76
     1
 77
     6
 78
     2
 67
     7
 79
     5
170
     0
171
     0
290
     0
174
     0
 93
        1
 44
-50.0
173
     0
291
     1
 45
0.0
1001
ACAD
1000
AcDbSavedByObjectVersion
1070
     0
  0
VISUALSTYLE
  5
3D
102
{ACAD_REACTORS
330
2A
102
}
102
{ACAD_XDICTIONARY
360
3C9
102
}
330
2A
100
AcDbVisualStyle
  2
EdgeColorOff
 70
    22
 71
     2
 72
     2
 73
     0
 90
        0
 40
0.6
 41
30.0
 62
     5
 63
     7
 74
     1
 91
        4
 64
     7
 65
   257
 75
     1
175
     1
 42
1.0
 92
        8
 66
     7
 43
1.0
 76
     1
 77
     6
 78
     2
 67
     7
 79
     5
170
     0
171
     0
290
     0
174
     0
 93
        1
 44
0.0
173
     0
291
     1
 45
0.0
1001
ACAD
1000
AcDbSavedByObjectVersion
1070
     0
  0
VISUALSTYLE
  5
39
102
{ACAD_REACTORS
330
2A
102
}
102
{ACAD_XDICTIONARY
360
3C1
102
}
330
2A
100
AcDbVisualStyle
  2
Facepattern
 70
    15
 71
     2
 72
     2
 73
     0
 90
        0
 40
0.6
 41
30.0
 62
     5
 63
     7
 74
     1
 91
        4
 64
     7
 65
   257
 75
     1
175
     1
 42
1.0
 92
        8
 66
     7
 43
1.0
 76
     1
 77
     6
 78
     2
 67
     7
 79
     5
170
     0
171
     0
290
     0
174
     0
 93
        1
 44
0.0
173
     0
291
     1
 45
0.0
1001
ACAD
1000
AcDbSavedByObjectVersion
1070
     0
  0
VISUALSTYLE
  5
2B
102
{ACAD_REACTORS
330
2A
102
}
102
{ACAD_XDICTIONARY
360
3A5
102
}
330
2A
100
AcDbVisualStyle
  2
Flat
 70
     0
 71
     2
 72
     1
 73
     1
 90
        2
 40
0.6
 41
30.0
 62
     5
 63
     7
 74
     0
 91
        0
 64
     7
 65
   257
 75
     1
175
     1
 42
1.0
 92
        8
 66
     7
 43
1.0
 76
     1
 77
     6
 78
     2
 67
     7
 79
     5
170
     0
171
     0
290
     0
174
     0
 93
       13
 44
0.0
173
     0
291
     1
 45
0.0
1001
ACAD
1000
AcDbSavedByObjectVersion
1070
     0
  0
VISUALSTYLE
  5
2C
102
{ACAD_REACTORS
330
2A
102
}
102
{ACAD_XDICTIONARY
360
3A7
102
}
330
2A
100
AcDbVisualStyle
  2
FlatWithEdges
 70
     1
 71
     2
 72
     1
 73
     1
 90
        2
 40
0.6
 41
30.0
 62
     5
 63
     7
 74
     1
 91
        0
 64
     7
 65
   257
 75
     1
175
     1
 42
1.0
 92
        0
 66
   257
 43
1.0
 76
     1
 77
     6
 78
     2
 67
     7
 79
     5
170
     0
171
     0
290
     0
174
     0
 93
       13
 44
0.0
173
     0
291
     1
 45
0.0
1001
ACAD
1000
AcDbSavedByObjectVersion
1070
     0
  0
VISUALSTYLE
  5
2D
102
{ACAD_REACTORS
330
2A
102
}
102
{ACAD_XDICTIONARY
360
3A9
102
}
330
2A
100
AcDbVisualStyle
  2
Gouraud
 70
     2
 71
     2
 72
     2
 73
     1
 90
        2
 40
0.6
 41
30.0
 62
     5
 63
     7
 74
     0
 91
        0
 64
     7
 65
   257
 75
     1
175
     1
 42
1.0
 92
        0
 66
     7
 43
1.0
 76
     1
 77
     6
 78
     2
 67
     7
 79
     5
170
     0
171
     0
290
     0
174
     0
 93
       13
 44
0.0
173
     0
291
     1
 45
0.0
1001
ACAD
1000
AcDbSavedByObjectVersion
1070
     0
  0
VISUALSTYLE
  5
2E
102
{ACAD_REACTORS
330
2A
102
}
102
{ACAD_XDICTIONARY
360
3AB
102
}
330
2A
100
AcDbVisualStyle
  2
GouraudWithEdges
 70
     3
 71
     2
 72
     2
 73
     1
 90
        2
 40
0.6
 41
30.0
 62
     5
 63
     7
 74
     1
 91
        0
 64
     7
 65
   257
 75
     1
175
     1
 42
1.0
 92
        0
 66
   257
 43
1.0
 76
     1
 77
     6
 78
     2
 67
     7
 79
     5
170
     0
171
     0
290
     0
174
     0
 93
       13
 44
0.0
173
     0
291
     1
 45
0.0
1001
ACAD
1000
AcDbSavedByObjectVersion
1070
     0
  0
VISUALSTYLE
  5
31
102
{ACAD_REACTORS
330
2A
102
}
102
{ACAD_XDICTIONARY
360
3B1
102
}
330
2A
100
AcDbVisualStyle
  2
Hidden
 70
     6
 71
     1
 72
     2
 73
     2
 90
        0
 40
0.6
 41
30.0
 62
     5
 63
     7
 74
     2
 91
        2
 64
     7
 65
   257
 75
     2
175
     1
 42
40.0
 92
        0
 66
   257
 43
1.0
 76
     1
 77
     6
 78
     2
 67
     7
 79
     3
170
     0
171
     0
290
     0
174
     0
 93
        1
 44
0.0
173
     0
291
     0
 45
0.0
1001
ACAD
1000
AcDbSavedByObjectVersion
1070
     0
  0
VISUALSTYLE
  5
3B
102
{ACAD_REACTORS
330
2A
102
}
102
{ACAD_XDICTIONARY
360
3C5
102
}
330
2A
100
AcDbVisualStyle
  2
JitterOff
 70
    20
 71
     2
 72
     2
 73
     0
 90
        0
 40
0.6
 41
30.0
 62
     5
 63
     7
 74
     1
 91
        4
 64
     7
 65
   257
 75
     1
175
     1
 42
1.0
 92
       10
 66
     7
 43
1.0
 76
     1
 77
     6
 78
     2
 67
     7
 79
     5
170
     0
171
     0
290
     0
174
     0
 93
        1
 44
0.0
173
     0
291
     1
 45
0.0
1001
ACAD
1000
AcDbSavedByObjectVersion
1070
     0
  0
VISUALSTYLE
  5
38
102
{ACAD_REACTORS
330
2A
102
}
102
{ACAD_XDICTIONARY
360
3BF
102
}
330
2A
100
AcDbVisualStyle
  2
Linepattern
 70
    14
 71
     2
 72
     2
 73
     0
 90
        0
 40
0.6
 41
30.0
 62
     5
 63
     7
 74
     1
 91
        4
 64
     7
 65
   257
 75
     7
175
     7
 42
1.0
 92
        8
 66
     7
 43
1.0
 76
     1
 77
     6
 78
     2
 67
     7
 79
     5
170
     0
171
     0
290
     0
174
     0
 93
        1
 44
0.0
173
     0
291
     1
 45
0.0
1001
ACAD
1000
AcDbSavedByObjectVersion
1070
     0
  0
VISUALSTYLE
  5
3C
102
{ACAD_REACTORS
330
2A
102
}
102
{ACAD_XDICTIONARY
360
3C7
102
}
330
2A
100
AcDbVisualStyle
  2
OverhangOff
 70
    21
 71
     2
 72
     2
 73
     0
 90
        0
 40
0.6
 41
30.0
 62
     5
 63
     7
 74
     1
 91
        4
 64
     7
 65
   257
 75
     1
175
     1
 42
1.0
 92
        9
 66
     7
 43
1.0
 76
     1
 77
     6
 78
     2
 67
     7
 79
     5
170
     0
171
     0
290
     0
174
     0
 93
        1
 44
0.0
173
     0
291
     1
 45
0.0
1001
ACAD
1000
AcDbSavedByObjectVersion
1070
     0
  0
VISUALSTYLE
  5
33
102
{ACAD_REACTORS
330
2A
102
}
102
{ACAD_XDICTIONARY
360
3B5
102
}
330
2A
100
AcDbVisualStyle
  2
Realistic
 70
     8
 71
     2
 72
     3
 73
     0
 90
        2
 40
0.6
 41
30.0
 62
     5
 63
     7
 74
     0
 91
        0
 64
     7
 65
   257
 75
     1
175
     1
 42
1.0
 92
        8
 66
   257
 43
1.0
 76
     1
 77
     6
 78
     2
 67
     7
 79
     3
170
     0
171
     0
290
     0
174
     0
 93
       13
 44
0.0
173
     0
291
     0
 45
0.0
1001
ACAD
1000
AcDbSavedByObjectVersion
1070
     0
  0
VISUALSTYLE
  5
42
102
{ACAD_REACTORS
330
2A
102
}
102
{ACAD_XDICTIONARY
360
3D3
102
}
330
2A
100
AcDbVisualStyle
  2
Shaded
 70
    27
 71
     2
 72
     2
 73
     1
 90
        2
 40
0.6
 41
30.0
 62
     5
 63
     7
 74
     0
 91
        4
 64
     7
 65
   257
 75
     1
175
     1
 42
1.0
 92
        8
 66
   257
 43
1.0
 76
     1
 77
     6
 78
     2
 67
     8
 79
     3
170
     0
171
     0
290
     0
174
     0
 93
        5
 44
0.0
173
     0
291
     0
 45
0.0
1001
ACAD
1000
AcDbSavedByObjectVersion
1070
     0
  0
VISUALSTYLE
  5
41
102
{ACAD_REACTORS
330
2A
102
}
102
{ACAD_XDICTIONARY
360
3D1
102
}
330
2A
100
AcDbVisualStyle
  2
Shaded with edges
 70
    26
 71
     2
 72
     2
 73
     1
 90
        2
 40
0.6
 41
30.0
 62
     5
 63
     7
 74
     1
 91
       10
 64
     7
 65
   257
 75
     2
175
     1
 42
1.0
 92
        8
 66
   257
 43
1.0
 76
     1
 77
     6
 78
     2
 67
     7
 79
     3
170
     0
171
     0
290
     0
174
     0
 93
        5
 44
0.0
173
     0
291
     0
 45
0.0
1001
ACAD
1000
AcDbSavedByObjectVersion
1070
     0
  0
VISUALSTYLE
  5
3E
102
{ACAD_REACTORS
330
2A
102
}
102
{ACAD_XDICTIONARY
360
3CB
102
}
330
2A
100
AcDbVisualStyle
  2
Shades of Gray
 70
    23
 71
     2
 72
     2
 73
     3
 90
        0
 40
0.6
 41
30.0
 62
     5
 63
     7
 74
     2
 91
        2
 64
     7
 65
     7
 75
     1
175
     1
 42
40.0
 92
        8
 66
     7
 43
1.0
 76
     1
 77
     6
 78
     2
 67
     7
 79
     3
170
     0
171
     0
290
     0
174
     0
 93
        1
 44
0.0
173
     0
291
     0
 45
0.0
1001
ACAD
1000
AcDbSavedByObjectVersion
1070
     0
  0
VISUALSTYLE
  5
3F
102
{ACAD_REACTORS
330
2A
102
}
102
{ACAD_XDICTIONARY
360
3CD
102
}
330
2A
100
AcDbVisualStyle
  2
Sketchy
 70
    24
 71
     1
 72
     2
 73
     2
 90
        0
 40
0.6
 41
30.0
 62
     5
 63
     7
 74
     2
 91
        2
 64
     7
 65
     7
 75
     1
175
     1
 42
40.0
 92
       11
 66
     7
 43
1.0
 76
     1
 77
     6
 78
     2
 67
     7
 79
     6
170
     0
171
     0
290
     0
174
     0
 93
        1
 44
0.0
173
     0
291
     0
 45
0.0
1001
ACAD
1000
AcDbSavedByObjectVersion
1070
     0
  0
VISUALSTYLE
  5
37
102
{ACAD_REACTORS
330
2A
102
}
102
{ACAD_XDICTIONARY
360
3BD
102
}
330
2A
100
AcDbVisualStyle
  2
Thicken
 70
    13
 71
     2
 72
     2
 73
     0
 90
        0
 40
0.6
 41
30.0
 62
     5
 63
     7
 74
     1
 91
        4
 64
     7
 65
   257
 75
     1
175
     1
 42
1.0
 92
       12
 66
     7
 43
1.0
 76
     1
 77
     6
 78
     2
 67
     7
 79
     5
170
     0
171
     0
290
     0
174
     0
 93
        1
 44
0.0
173
     0
291
     1
 45
0.0
1001
ACAD
1000
AcDbSavedByObjectVersion
1070
     0
  0
VISUALSTYLE
  5
30
102
{ACAD_REACTORS
330
2A
102
}
102
{ACAD_XDICTIONARY
360
3AF
102
}
330
2A
100
AcDbVisualStyle
  2
Wireframe
 70
     5
 71
     0
 72
     2
 73
     0
 90
        0
 40
0.6
 41
30.0
 62
     5
 63
     7
 74
     1
 91
        4
 64
     7
 65
   257
 75
     1
175
     1
 42
1.0
 92
        0
 66
   257
 43
1.0
 76
     1
 77
     6
 78
     2
 67
     7
 79
     3
170
     0
171
     0
290
     0
174
     0
 93
        1
 44
0.0
173
     0
291
     0
 45
0.0
1001
ACAD
1000
AcDbSavedByObjectVersion
1070
     0
  0
VISUALSTYLE
  5
40
102
{ACAD_REACTORS
330
2A
102
}
102
{ACAD_XDICTIONARY
360
3CF
102
}
330
2A
100
AcDbVisualStyle
  2
X-Ray
 70
    25
 71
     2
 72
     2
 73
     1
 90
        1
 40
0.5
 41
30.0
 62
     5
 63
     7
 74
     1
 91
        0
 64
     7
 65
   257
 75
     1
175
     1
 42
1.0
 92
        8
 66
     7
 43
1.0
 76
     1
 77
     6
 78
     2
 67
     7
 79
     3
170
     0
171
     0
290
     0
174
     0
 93
       13
 44
0.0
173
     0
291
     0
 45
0.0
1001
ACAD
1000
AcDbSavedByObjectVersion
1070
     0
  0
DICTIONARYVAR
  5
3A3
102
{ACAD_REACTORS
330
39A
102
}
330
39A
100
DictionaryVariables
280
     0
  1
1:1
  0
DICTIONARYVAR
  5
39C
102
{ACAD_REACTORS
330
39A
102
}
330
39A
100
DictionaryVariables
280
     0
  1
Standard
  0
DICTIONARYVAR
  5
39B
102
{ACAD_REACTORS
330
39A
102
}
330
39A
100
DictionaryVariables
280
     0
  1
Standard
  0
DICTIONARYVAR
  5
39F
102
{ACAD_REACTORS
330
39A
102
}
330
39A
100
DictionaryVariables
280
     0
  1
2
  0
DICTIONARYVAR
  5
3A0
102
{ACAD_REACTORS
330
39A
102
}
330
39A
100
DictionaryVariables
280
     0
  1
1
  0
DICTIONARYVAR
  5
3A4
102
{ACAD_REACTORS
330
39A
102
}
330
39A
100
DictionaryVariables
280
     0
  1
1
  0
DICTIONARY
  5
3D7
330
45
100
AcDbDictionary
280
     1
281
     1
  3
ACAD_XREC_ROUNDTRIP
360
3D8
  0
DICTIONARY
  5
3D5
330
44
100
AcDbDictionary
280
     1
281
     1
  3
ACAD_XREC_ROUNDTRIP
360
3D6
  0
DICTIONARY
  5
3D9
330
46
100
AcDbDictionary
280
     1
281
     1
  3
ACAD_XREC_ROUNDTRIP
360
3DA
  0
DICTIONARY
  5
3DC
330
6C
100
AcDbDictionary
280
     1
281
     1
  3
ACAD_XREC_ROUNDTRIP
360
3DD
  0
DICTIONARY
  5
3AD
330
2F
100
AcDbDictionary
280
     1
281
     1
  3
ACAD_XREC_ROUNDTRIP
360
3AE
  0
DICTIONARY
  5
3B3
330
32
100
AcDbDictionary
280
     1
281
     1
  3
ACAD_XREC_ROUNDTRIP
360
3B4
  0
DICTIONARY
  5
3BB
330
36
100
AcDbDictionary
280
     1
281
     1
  3
ACAD_XREC_ROUNDTRIP
360
3BC
  0
DICTIONARY
  5
3C3
330
3A
100
AcDbDictionary
280
     1
281
     1
  3
ACAD_XREC_ROUNDTRIP
360
3C4
  0
DICTIONARY
  5
3B7
330
34
100
AcDbDictionary
280
     1
281
     1
  3
ACAD_XREC_ROUNDTRIP
360
3B8
  0
DICTIONARY
  5
3B9
330
35
100
AcDbDictionary
280
     1
281
     1
  3
ACAD_XREC_ROUNDTRIP
360
3BA
  0
DICTIONARY
  5
3C9
330
3D
100
AcDbDictionary
280
     1
281
     1
  3
ACAD_XREC_ROUNDTRIP
360
3CA
  0
DICTIONARY
  5
3C1
330
39
100
AcDbDictionary
280
     1
281
     1
  3
ACAD_XREC_ROUNDTRIP
360
3C2
  0
DICTIONARY
  5
3A5
330
2B
100
AcDbDictionary
280
     1
281
     1
  3
ACAD_XREC_ROUNDTRIP
360
3A6
  0
DICTIONARY
  5
3A7
330
2C
100
AcDbDictionary
280
     1
281
     1
  3
ACAD_XREC_ROUNDTRIP
360
3A8
  0
DICTIONARY
  5
3A9
330
2D
100
AcDbDictionary
280
     1
281
     1
  3
ACAD_XREC_ROUNDTRIP
360
3AA
  0
DICTIONARY
  5
3AB
330
2E
100
AcDbDictionary
280
     1
281
     1
  3
ACAD_XREC_ROUNDTRIP
360
3AC
  0
DICTIONARY
  5
3B1
330
31
100
AcDbDictionary
280
     1
281
     1
  3
ACAD_XREC_ROUNDTRIP
360
3B2
  0
DICTIONARY
  5
3C5
330
3B
100
AcDbDictionary
280
     1
281
     1
  3
ACAD_XREC_ROUNDTRIP
360
3C6
  0
DICTIONARY
  5
3BF
330
38
100
AcDbDictionary
280
     1
281
     1
  3
ACAD_XREC_ROUNDTRIP
360
3C0
  0
DICTIONARY
  5
3C7
330
3C
100
AcDbDictionary
280
     1
281
     1
  3
ACAD_XREC_ROUNDTRIP
360
3C8
  0
DICTIONARY
  5
3B5
330
33
100
AcDbDictionary
280
     1
281
     1
  3
ACAD_XREC_ROUNDTRIP
360
3B6
  0
DICTIONARY
  5
3D3
330
42
100
AcDbDictionary
280
     1
281
     1
  3
ACAD_XREC_ROUNDTRIP
360
3D4
  0
DICTIONARY
  5
3D1
330
41
100
AcDbDictionary
280
     1
281
     1
  3
ACAD_XREC_ROUNDTRIP
360
3D2
  0
DICTIONARY
  5
3CB
330
3E
100
AcDbDictionary
280
     1
281
     1
  3
ACAD_XREC_ROUNDTRIP
360
3CC
  0
DICTIONARY
  5
3CD
330
3F
100
AcDbDictionary
280
     1
281
     1
  3
ACAD_XREC_ROUNDTRIP
360
3CE
  0
DICTIONARY
  5
3BD
330
37
100
AcDbDictionary
280
     1
281
     1
  3
ACAD_XREC_ROUNDTRIP
360
3BE
  0
DICTIONARY
  5
3AF
330
30
100
AcDbDictionary
280
     1
281
     1
  3
ACAD_XREC_ROUNDTRIP
360
3B0
  0
DICTIONARY
  5
3CF
330
40
100
AcDbDictionary
280
     1
281
     1
  3
ACAD_XREC_ROUNDTRIP
360
3D0
  0
XRECORD
  5
3D8
102
{ACAD_REACTORS
330
3D7
102
}
330
3D7
100
AcDbXrecord
280
     1
102
MATERIAL
148
0.0
149
0.0
149
0.0
 93
        0
 94
      127
282
     0
 72
     1
 77
     1
171
     1
175
     1
179
     1
273
     0
  0
XRECORD
  5
3D6
102
{ACAD_REACTORS
330
3D5
102
}
330
3D5
100
AcDbXrecord
280
     1
102
MATERIAL
148
0.0
149
0.0
149
0.0
 93
        0
 94
      127
282
     0
 72
     1
 77
     1
171
     1
175
     1
179
     1
273
     0
  0
XRECORD
  5
3DA
102
{ACAD_REACTORS
330
3D9
102
}
330
3D9
100
AcDbXrecord
280
     1
102
MATERIAL
148
0.0
149
0.0
149
0.0
 93
        0
 94
      127
282
     0
 72
     1
 77
     1
171
     1
175
     1
179
     1
273
     0
  0
XRECORD
  5
3DD
102
{ACAD_REACTORS
330
3DC
102
}
330
3DC
100
AcDbXrecord
280
     1
102
ACAD_ROUNDTRIP_2010_MLEADER_STYLE
  0
XRECORD
  5
3AE
102
{ACAD_REACTORS
330
3AD
102
}
330
3AD
100
AcDbXrecord
280
     1
102
RTVSPropertyOp0
 70
     1
102
RTVSPropertyOp1
 70
     1
102
RTVSPropertyOp2
 70
     1
102
RTVSPropertyOp3
 70
     1
102
RTVSPropertyOp4
 70
     1
102
RTVSPropertyOp5
 70
     1
102
RTVSPropertyOp6
 70
     1
102
RTVSPropertyOp7
 70
     1
102
RTVSPropertyOp8
 70
     1
102
RTVSPropertyOp9
 70
     1
102
RTVSPropertyOp10
 70
     1
102
RTVSPropertyOp11
 70
     1
102
RTVSPropertyOp12
 70
     1
102
RTVSPropertyOp13
 70
     1
102
RTVSPropertyOp14
 70
     1
102
RTVSPropertyOp15
 70
     1
102
RTVSPropertyOp16
 70
     1
102
RTVSPropertyOp17
 70
     1
102
RTVSPropertyOp18
 70
     1
102
RTVSPropertyOp19
 70
     1
102
RTVSPropertyOp20
 70
     1
102
RTVSPropertyOp21
 70
     1
102
RTVSPropertyOp22
 70
     1
102
RTVSPropertyOp23
 70
     1
102
RTVSPropertyOp24
 70
     1
102
RTVSPropertyOp25
 70
     1
102
RTVSPropertyOp26
 70
     1
102
RTVSPropertyOp27
 70
     1
102
RTVSPropertyOp28
 70
     1
102
RTVSPropertyOp29
 70
     1
102
RTVSPropertyOp30
 70
     1
102
RTVSPropertyOp31
 70
     1
102
RTVSPropertyOp32
 70
     1
102
RTVSPropertyOp33
 70
     1
102
RTVSPropertyOp34
 70
     1
102
RTVSPropertyOp35
 70
     1
102
RTVSPropertyOp36
 70
     1
102
RTVSPropertyOp37
 70
     1
102
RTVSPropertyOp38
 70
     1
102
RTVSPropertyOp39
 70
     1
102
RTVSPropertyOp40
 70
     1
102
RTVSPropertyOp41
 70
     1
102
RTVSPropertyOp42
 70
     1
102
RTVSPropertyOp43
 70
     1
102
RTVSPropertyOp44
 70
     1
102
RTVSPropertyOp45
 70
     1
102
RTVSPropertyOp46
 70
     1
102
RTVSPropertyOp47
 70
     1
102
RTVSPropertyOp48
 70
     1
102
RTVSPropertyOp49
 70
     1
102
RTVSPropertyOp50
 70
     1
102
RTVSPropertyOp51
 70
     0
102
RTVSPropertyOp52
 70
     0
102
RTVSPropertyOp53
 70
     1
102
RTVSPropertyOp54
 70
     1
102
RTVSPropertyOp55
 70
     1
102
RTVSPropertyOp56
 70
     1
102
RTVSPropertyOp57
 70
     1
102
RTVSPost2010Prop28
280
     1
102
RTVSPost2010PropOp28
 70
     1
102
RTVSPost2010Prop29
280
     1
102
RTVSPost2010PropOp29
 70
     1
102
RTVSPost2010Prop30
280
     0
102
RTVSPost2010PropOp30
 70
     1
102
RTVSPost2010Prop31
280
     0
102
RTVSPost2010PropOp31
 70
     1
102
RTVSPost2010Prop32
280
     0
102
RTVSPost2010PropOp32
 70
     1
102
RTVSPost2010Prop33
280
     0
102
RTVSPost2010PropOp33
 70
     1
102
RTVSPost2010Prop34
280
     0
102
RTVSPost2010PropOp34
 70
     1
102
RTVSPost2010Prop35
280
     0
102
RTVSPost2010PropOp35
 70
     1
102
RTVSPost2010Prop36
280
     0
102
RTVSPost2010PropOp36
 70
     1
102
RTVSPost2010Prop37
 90
       50
102
RTVSPost2010PropOp37
 70
     1
102
RTVSPost2010Prop38
140
0.0
102
RTVSPost2010PropOp38
 70
     1
102
RTVSPost2010Prop39
140
1.0
102
RTVSPost2010PropOp39
 70
     1
102
RTVSPost2010Prop40
 90
        0
102
RTVSPost2010PropOp40
 70
     1
102
RTVSPost2010Prop41ColorIndex
 90
       18
102
RTVSPost2010Prop41ColorRGB
 90
        0
102
RTVSPost2010PropOp41
 70
     1
102
RTVSPost2010Prop42
 90
       50
102
RTVSPost2010PropOp42
 70
     1
102
RTVSPost2010Prop43
 90
        3
102
RTVSPost2010PropOp43
 70
     1
102
RTVSPost2010Prop44ColorIndex
 90
        5
102
RTVSPost2010Prop44ColorRGB
 90
      255
102
RTVSPost2010PropOp44
 70
     1
102
RTVSPost2010Prop45
280
     0
102
RTVSPost2010PropOp45
 70
     1
102
RTVSPost2010Prop46
 90
       50
102
RTVSPost2010PropOp46
 70
     1
102
RTVSPost2010Prop47
 90
       50
102
RTVSPost2010PropOp47
 70
     1
102
RTVSPost2010Prop48
 90
       50
102
RTVSPost2010PropOp48
 70
     1
102
RTVSPost2010Prop49
280
     0
102
RTVSPost2010PropOp49
 70
     1
102
RTVSPost2010Prop50
 90
       50
102
RTVSPost2010PropOp50
 70
     1
102
RTVSPost2010Prop51ColorIndex
 90
      256
102
RTVSPost2010Prop51ColorRGB
 90
-16777216
102
RTVSPost2010PropOp51
 70
     0
102
RTVSPost2010Prop52
140
1.0
102
RTVSPost2010PropOp52
 70
     0
102
RTVSPost2010Prop53
 90
        2
102
RTVSPost2010PropOp53
 70
     1
102
RTVSPost2010Prop54
  1
strokes_ogs.tif
102
RTVSPost2010PropOp54
 70
     1
102
RTVSPost2010Prop55
280
     0
102
RTVSPost2010PropOp55
 70
     1
102
RTVSPost2010Prop56
140
1.0
102
RTVSPost2010PropOp56
 70
     1
102
RTVSPost2010Prop57
140
1.0
102
RTVSPost2010PropOp57
 70
     1
  0
XRECORD
  5
3B4
102
{ACAD_REACTORS
330
3B3
102
}
330
3B3
100
AcDbXrecord
280
     1
102
RTVSPropertyOp0
 70
     1
102
RTVSPropertyOp1
 70
     1
102
RTVSPropertyOp2
 70
     1
102
RTVSPropertyOp3
 70
     1
102
RTVSPropertyOp4
 70
     1
102
RTVSPropertyOp5
 70
     1
102
RTVSPropertyOp6
 70
     1
102
RTVSPropertyOp7
 70
     1
102
RTVSPropertyOp8
 70
     1
102
RTVSPropertyOp9
 70
     1
102
RTVSPropertyOp10
 70
     1
102
RTVSPropertyOp11
 70
     1
102
RTVSPropertyOp12
 70
     1
102
RTVSPropertyOp13
 70
     1
102
RTVSPropertyOp14
 70
     1
102
RTVSPropertyOp15
 70
     1
102
RTVSPropertyOp16
 70
     1
102
RTVSPropertyOp17
 70
     1
102
RTVSPropertyOp18
 70
     1
102
RTVSPropertyOp19
 70
     1
102
RTVSPropertyOp20
 70
     1
102
RTVSPropertyOp21
 70
     1
102
RTVSPropertyOp22
 70
     1
102
RTVSPropertyOp23
 70
     1
102
RTVSPropertyOp24
 70
     1
102
RTVSPropertyOp25
 70
     1
102
RTVSPropertyOp26
 70
     1
102
RTVSPropertyOp27
 70
     1
102
RTVSPropertyOp28
 70
     1
102
RTVSPropertyOp29
 70
     1
102
RTVSPropertyOp30
 70
     1
102
RTVSPropertyOp31
 70
     1
102
RTVSPropertyOp32
 70
     1
102
RTVSPropertyOp33
 70
     1
102
RTVSPropertyOp34
 70
     1
102
RTVSPropertyOp35
 70
     1
102
RTVSPropertyOp36
 70
     1
102
RTVSPropertyOp37
 70
     1
102
RTVSPropertyOp38
 70
     1
102
RTVSPropertyOp39
 70
     1
102
RTVSPropertyOp40
 70
     1
102
RTVSPropertyOp41
 70
     1
102
RTVSPropertyOp42
 70
     1
102
RTVSPropertyOp43
 70
     1
102
RTVSPropertyOp44
 70
     1
102
RTVSPropertyOp45
 70
     1
102
RTVSPropertyOp46
 70
     1
102
RTVSPropertyOp47
 70
     1
102
RTVSPropertyOp48
 70
     1
102
RTVSPropertyOp49
 70
     1
102
RTVSPropertyOp50
 70
     1
102
RTVSPropertyOp51
 70
     0
102
RTVSPropertyOp52
 70
     0
102
RTVSPropertyOp53
 70
     1
102
RTVSPropertyOp54
 70
     1
102
RTVSPropertyOp55
 70
     1
102
RTVSPropertyOp56
 70
     1
102
RTVSPropertyOp57
 70
     1
102
RTVSPost2010Prop28
280
     0
102
RTVSPost2010PropOp28
 70
     1
102
RTVSPost2010Prop29
280
     1
102
RTVSPost2010PropOp29
 70
     1
102
RTVSPost2010Prop30
280
     1
102
RTVSPost2010PropOp30
 70
     1
102
RTVSPost2010Prop31
280
     0
102
RTVSPost2010PropOp31
 70
     1
102
RTVSPost2010Prop32
280
     0
102
RTVSPost2010PropOp32
 70
     1
102
RTVSPost2010Prop33
280
     0
102
RTVSPost2010PropOp33
 70
     1
102
RTVSPost2010Prop34
280
     0
102
RTVSPost2010PropOp34
 70
     1
102
RTVSPost2010Prop35
280
     0
102
RTVSPost2010PropOp35
 70
     1
102
RTVSPost2010Prop36
280
     0
102
RTVSPost2010PropOp36
 70
     1
102
RTVSPost2010Prop37
 90
       50
102
RTVSPost2010PropOp37
 70
     1
102
RTVSPost2010Prop38
140
0.0
102
RTVSPost2010PropOp38
 70
     1
102
RTVSPost2010Prop39
140
1.0
102
RTVSPost2010PropOp39
 70
     1
102
RTVSPost2010Prop40
 90
        0
102
RTVSPost2010PropOp40
 70
     1
102
RTVSPost2010Prop41ColorIndex
 90
       18
102
RTVSPost2010Prop41ColorRGB
 90
        0
102
RTVSPost2010PropOp41
 70
     1
102
RTVSPost2010Prop42
 90
       50
102
RTVSPost2010PropOp42
 70
     1
102
RTVSPost2010Prop43
 90
        3
102
RTVSPost2010PropOp43
 70
     1
102
RTVSPost2010Prop44ColorIndex
 90
        5
102
RTVSPost2010Prop44ColorRGB
 90
      255
102
RTVSPost2010PropOp44
 70
     1
102
RTVSPost2010Prop45
280
     0
102
RTVSPost2010PropOp45
 70
     1
102
RTVSPost2010Prop46
 90
       50
102
RTVSPost2010PropOp46
 70
     1
102
RTVSPost2010Prop47
 90
       50
102
RTVSPost2010PropOp47
 70
     1
102
RTVSPost2010Prop48
 90
       50
102
RTVSPost2010PropOp48
 70
     1
102
RTVSPost2010Prop49
280
     0
102
RTVSPost2010PropOp49
 70
     1
102
RTVSPost2010Prop50
 90
       50
102
RTVSPost2010PropOp50
 70
     1
102
RTVSPost2010Prop51ColorIndex
 90
      256
102
RTVSPost2010Prop51ColorRGB
 90
-16777216
102
RTVSPost2010PropOp51
 70
     0
102
RTVSPost2010Prop52
140
1.0
102
RTVSPost2010PropOp52
 70
     0
102
RTVSPost2010Prop53
 90
        2
102
RTVSPost2010PropOp53
 70
     1
102
RTVSPost2010Prop54
  1
strokes_ogs.tif
102
RTVSPost2010PropOp54
 70
     1
102
RTVSPost2010Prop55
280
     0
102
RTVSPost2010PropOp55
 70
     1
102
RTVSPost2010Prop56
140
1.0
102
RTVSPost2010PropOp56
 70
     1
102
RTVSPost2010Prop57
140
1.0
102
RTVSPost2010PropOp57
 70
     1
  0
XRECORD
  5
3BC
102
{ACAD_REACTORS
330
3BB
102
}
330
3BB
100
AcDbXrecord
280
     1
102
RTVSPropertyOp0
 70
     1
102
RTVSPropertyOp1
 70
     1
102
RTVSPropertyOp2
 70
     1
102
RTVSPropertyOp3
 70
     1
102
RTVSPropertyOp4
 70
     1
102
RTVSPropertyOp5
 70
     1
102
RTVSPropertyOp6
 70
     1
102
RTVSPropertyOp7
 70
     1
102
RTVSPropertyOp8
 70
     1
102
RTVSPropertyOp9
 70
     1
102
RTVSPropertyOp10
 70
     1
102
RTVSPropertyOp11
 70
     1
102
RTVSPropertyOp12
 70
     1
102
RTVSPropertyOp13
 70
     1
102
RTVSPropertyOp14
 70
     1
102
RTVSPropertyOp15
 70
     1
102
RTVSPropertyOp16
 70
     1
102
RTVSPropertyOp17
 70
     1
102
RTVSPropertyOp18
 70
     1
102
RTVSPropertyOp19
 70
     1
102
RTVSPropertyOp20
 70
     1
102
RTVSPropertyOp21
 70
     1
102
RTVSPropertyOp22
 70
     1
102
RTVSPropertyOp23
 70
     1
102
RTVSPropertyOp24
 70
     1
102
RTVSPropertyOp25
 70
     1
102
RTVSPropertyOp26
 70
     1
102
RTVSPropertyOp27
 70
     1
102
RTVSPropertyOp28
 70
     1
102
RTVSPropertyOp29
 70
     1
102
RTVSPropertyOp30
 70
     1
102
RTVSPropertyOp31
 70
     1
102
RTVSPropertyOp32
 70
     1
102
RTVSPropertyOp33
 70
     1
102
RTVSPropertyOp34
 70
     1
102
RTVSPropertyOp35
 70
     1
102
RTVSPropertyOp36
 70
     1
102
RTVSPropertyOp37
 70
     1
102
RTVSPropertyOp38
 70
     1
102
RTVSPropertyOp39
 70
     1
102
RTVSPropertyOp40
 70
     1
102
RTVSPropertyOp41
 70
     1
102
RTVSPropertyOp42
 70
     1
102
RTVSPropertyOp43
 70
     1
102
RTVSPropertyOp44
 70
     1
102
RTVSPropertyOp45
 70
     1
102
RTVSPropertyOp46
 70
     1
102
RTVSPropertyOp47
 70
     1
102
RTVSPropertyOp48
 70
     1
102
RTVSPropertyOp49
 70
     1
102
RTVSPropertyOp50
 70
     1
102
RTVSPropertyOp51
 70
     0
102
RTVSPropertyOp52
 70
     0
102
RTVSPropertyOp53
 70
     1
102
RTVSPropertyOp54
 70
     1
102
RTVSPropertyOp55
 70
     1
102
RTVSPropertyOp56
 70
     1
102
RTVSPropertyOp57
 70
     1
102
RTVSPost2010Prop28
280
     0
102
RTVSPost2010PropOp28
 70
     1
102
RTVSPost2010Prop29
280
     1
102
RTVSPost2010PropOp29
 70
     1
102
RTVSPost2010Prop30
280
     1
102
RTVSPost2010PropOp30
 70
     1
102
RTVSPost2010Prop31
280
     0
102
RTVSPost2010PropOp31
 70
     1
102
RTVSPost2010Prop32
280
     0
102
RTVSPost2010PropOp32
 70
     1
102
RTVSPost2010Prop33
280
     0
102
RTVSPost2010PropOp33
 70
     1
102
RTVSPost2010Prop34
280
     0
102
RTVSPost2010PropOp34
 70
     1
102
RTVSPost2010Prop35
280
     0
102
RTVSPost2010PropOp35
 70
     1
102
RTVSPost2010Prop36
280
     0
102
RTVSPost2010PropOp36
 70
     1
102
RTVSPost2010Prop37
 90
       50
102
RTVSPost2010PropOp37
 70
     1
102
RTVSPost2010Prop38
140
0.0
102
RTVSPost2010PropOp38
 70
     1
102
RTVSPost2010Prop39
140
1.0
102
RTVSPost2010PropOp39
 70
     1
102
RTVSPost2010Prop40
 90
        0
102
RTVSPost2010PropOp40
 70
     1
102
RTVSPost2010Prop41ColorIndex
 90
       18
102
RTVSPost2010Prop41ColorRGB
 90
        0
102
RTVSPost2010PropOp41
 70
     1
102
RTVSPost2010Prop42
 90
       50
102
RTVSPost2010PropOp42
 70
     1
102
RTVSPost2010Prop43
 90
        3
102
RTVSPost2010PropOp43
 70
     1
102
RTVSPost2010Prop44ColorIndex
 90
        5
102
RTVSPost2010Prop44ColorRGB
 90
      255
102
RTVSPost2010PropOp44
 70
     1
102
RTVSPost2010Prop45
280
     0
102
RTVSPost2010PropOp45
 70
     1
102
RTVSPost2010Prop46
 90
       50
102
RTVSPost2010PropOp46
 70
     1
102
RTVSPost2010Prop47
 90
       50
102
RTVSPost2010PropOp47
 70
     1
102
RTVSPost2010Prop48
 90
       50
102
RTVSPost2010PropOp48
 70
     1
102
RTVSPost2010Prop49
280
     0
102
RTVSPost2010PropOp49
 70
     1
102
RTVSPost2010Prop50
 90
       50
102
RTVSPost2010PropOp50
 70
     1
102
RTVSPost2010Prop51ColorIndex
 90
      256
102
RTVSPost2010Prop51ColorRGB
 90
-16777216
102
RTVSPost2010PropOp51
 70
     0
102
RTVSPost2010Prop52
140
1.0
102
RTVSPost2010PropOp52
 70
     0
102
RTVSPost2010Prop53
 90
        2
102
RTVSPost2010PropOp53
 70
     1
102
RTVSPost2010Prop54
  1
strokes_ogs.tif
102
RTVSPost2010PropOp54
 70
     1
102
RTVSPost2010Prop55
280
     0
102
RTVSPost2010PropOp55
 70
     1
102
RTVSPost2010Prop56
140
1.0
102
RTVSPost2010PropOp56
 70
     1
102
RTVSPost2010Prop57
140
1.0
102
RTVSPost2010PropOp57
 70
     1
  0
XRECORD
  5
3C4
102
{ACAD_REACTORS
330
3C3
102
}
330
3C3
100
AcDbXrecord
280
     1
102
RTVSPropertyOp0
 70
     1
102
RTVSPropertyOp1
 70
     1
102
RTVSPropertyOp2
 70
     1
102
RTVSPropertyOp3
 70
     1
102
RTVSPropertyOp4
 70
     1
102
RTVSPropertyOp5
 70
     1
102
RTVSPropertyOp6
 70
     1
102
RTVSPropertyOp7
 70
     1
102
RTVSPropertyOp8
 70
     1
102
RTVSPropertyOp9
 70
     1
102
RTVSPropertyOp10
 70
     1
102
RTVSPropertyOp11
 70
     1
102
RTVSPropertyOp12
 70
     1
102
RTVSPropertyOp13
 70
     1
102
RTVSPropertyOp14
 70
     1
102
RTVSPropertyOp15
 70
     1
102
RTVSPropertyOp16
 70
     1
102
RTVSPropertyOp17
 70
     1
102
RTVSPropertyOp18
 70
     1
102
RTVSPropertyOp19
 70
     1
102
RTVSPropertyOp20
 70
     1
102
RTVSPropertyOp21
 70
     1
102
RTVSPropertyOp22
 70
     1
102
RTVSPropertyOp23
 70
     1
102
RTVSPropertyOp24
 70
     1
102
RTVSPropertyOp25
 70
     1
102
RTVSPropertyOp26
 70
     1
102
RTVSPropertyOp27
 70
     1
102
RTVSPropertyOp28
 70
     1
102
RTVSPropertyOp29
 70
     1
102
RTVSPropertyOp30
 70
     1
102
RTVSPropertyOp31
 70
     1
102
RTVSPropertyOp32
 70
     1
102
RTVSPropertyOp33
 70
     1
102
RTVSPropertyOp34
 70
     1
102
RTVSPropertyOp35
 70
     1
102
RTVSPropertyOp36
 70
     1
102
RTVSPropertyOp37
 70
     1
102
RTVSPropertyOp38
 70
     1
102
RTVSPropertyOp39
 70
     1
102
RTVSPropertyOp40
 70
     1
102
RTVSPropertyOp41
 70
     1
102
RTVSPropertyOp42
 70
     1
102
RTVSPropertyOp43
 70
     1
102
RTVSPropertyOp44
 70
     1
102
RTVSPropertyOp45
 70
     1
102
RTVSPropertyOp46
 70
     1
102
RTVSPropertyOp47
 70
     1
102
RTVSPropertyOp48
 70
     1
102
RTVSPropertyOp49
 70
     1
102
RTVSPropertyOp50
 70
     1
102
RTVSPropertyOp51
 70
     0
102
RTVSPropertyOp52
 70
     0
102
RTVSPropertyOp53
 70
     1
102
RTVSPropertyOp54
 70
     1
102
RTVSPropertyOp55
 70
     1
102
RTVSPropertyOp56
 70
     1
102
RTVSPropertyOp57
 70
     1
102
RTVSPost2010Prop28
280
     0
102
RTVSPost2010PropOp28
 70
     1
102
RTVSPost2010Prop29
280
     1
102
RTVSPost2010PropOp29
 70
     1
102
RTVSPost2010Prop30
280
     1
102
RTVSPost2010PropOp30
 70
     1
102
RTVSPost2010Prop31
280
     0
102
RTVSPost2010PropOp31
 70
     1
102
RTVSPost2010Prop32
280
     0
102
RTVSPost2010PropOp32
 70
     1
102
RTVSPost2010Prop33
280
     0
102
RTVSPost2010PropOp33
 70
     1
102
RTVSPost2010Prop34
280
     0
102
RTVSPost2010PropOp34
 70
     1
102
RTVSPost2010Prop35
280
     0
102
RTVSPost2010PropOp35
 70
     1
102
RTVSPost2010Prop36
280
     0
102
RTVSPost2010PropOp36
 70
     1
102
RTVSPost2010Prop37
 90
       50
102
RTVSPost2010PropOp37
 70
     1
102
RTVSPost2010Prop38
140
0.0
102
RTVSPost2010PropOp38
 70
     1
102
RTVSPost2010Prop39
140
1.0
102
RTVSPost2010PropOp39
 70
     1
102
RTVSPost2010Prop40
 90
        0
102
RTVSPost2010PropOp40
 70
     1
102
RTVSPost2010Prop41ColorIndex
 90
       18
102
RTVSPost2010Prop41ColorRGB
 90
        0
102
RTVSPost2010PropOp41
 70
     1
102
RTVSPost2010Prop42
 90
       50
102
RTVSPost2010PropOp42
 70
     1
102
RTVSPost2010Prop43
 90
        3
102
RTVSPost2010PropOp43
 70
     1
102
RTVSPost2010Prop44ColorIndex
 90
        5
102
RTVSPost2010Prop44ColorRGB
 90
      255
102
RTVSPost2010PropOp44
 70
     1
102
RTVSPost2010Prop45
280
     0
102
RTVSPost2010PropOp45
 70
     1
102
RTVSPost2010Prop46
 90
       50
102
RTVSPost2010PropOp46
 70
     1
102
RTVSPost2010Prop47
 90
       50
102
RTVSPost2010PropOp47
 70
     1
102
RTVSPost2010Prop48
 90
       50
102
RTVSPost2010PropOp48
 70
     1
102
RTVSPost2010Prop49
280
     0
102
RTVSPost2010PropOp49
 70
     1
102
RTVSPost2010Prop50
 90
       50
102
RTVSPost2010PropOp50
 70
     1
102
RTVSPost2010Prop51ColorIndex
 90
      256
102
RTVSPost2010Prop51ColorRGB
 90
-16777216
102
RTVSPost2010PropOp51
 70
     0
102
RTVSPost2010Prop52
140
1.0
102
RTVSPost2010PropOp52
 70
     0
102
RTVSPost2010Prop53
 90
        2
102
RTVSPost2010PropOp53
 70
     1
102
RTVSPost2010Prop54
  1
strokes_ogs.tif
102
RTVSPost2010PropOp54
 70
     1
102
RTVSPost2010Prop55
280
     0
102
RTVSPost2010PropOp55
 70
     1
102
RTVSPost2010Prop56
140
1.0
102
RTVSPost2010PropOp56
 70
     1
102
RTVSPost2010Prop57
140
1.0
102
RTVSPost2010PropOp57
 70
     1
  0
XRECORD
  5
3B8
102
{ACAD_REACTORS
330
3B7
102
}
330
3B7
100
AcDbXrecord
280
     1
102
RTVSPropertyOp0
 70
     1
102
RTVSPropertyOp1
 70
     1
102
RTVSPropertyOp2
 70
     1
102
RTVSPropertyOp3
 70
     1
102
RTVSPropertyOp4
 70
     1
102
RTVSPropertyOp5
 70
     1
102
RTVSPropertyOp6
 70
     1
102
RTVSPropertyOp7
 70
     1
102
RTVSPropertyOp8
 70
     1
102
RTVSPropertyOp9
 70
     1
102
RTVSPropertyOp10
 70
     1
102
RTVSPropertyOp11
 70
     1
102
RTVSPropertyOp12
 70
     1
102
RTVSPropertyOp13
 70
     1
102
RTVSPropertyOp14
 70
     1
102
RTVSPropertyOp15
 70
     1
102
RTVSPropertyOp16
 70
     1
102
RTVSPropertyOp17
 70
     1
102
RTVSPropertyOp18
 70
     1
102
RTVSPropertyOp19
 70
     1
102
RTVSPropertyOp20
 70
     1
102
RTVSPropertyOp21
 70
     1
102
RTVSPropertyOp22
 70
     1
102
RTVSPropertyOp23
 70
     1
102
RTVSPropertyOp24
 70
     1
102
RTVSPropertyOp25
 70
     1
102
RTVSPropertyOp26
 70
     1
102
RTVSPropertyOp27
 70
     1
102
RTVSPropertyOp28
 70
     1
102
RTVSPropertyOp29
 70
     1
102
RTVSPropertyOp30
 70
     1
102
RTVSPropertyOp31
 70
     1
102
RTVSPropertyOp32
 70
     1
102
RTVSPropertyOp33
 70
     1
102
RTVSPropertyOp34
 70
     1
102
RTVSPropertyOp35
 70
     1
102
RTVSPropertyOp36
 70
     1
102
RTVSPropertyOp37
 70
     1
102
RTVSPropertyOp38
 70
     1
102
RTVSPropertyOp39
 70
     1
102
RTVSPropertyOp40
 70
     1
102
RTVSPropertyOp41
 70
     1
102
RTVSPropertyOp42
 70
     1
102
RTVSPropertyOp43
 70
     1
102
RTVSPropertyOp44
 70
     1
102
RTVSPropertyOp45
 70
     1
102
RTVSPropertyOp46
 70
     1
102
RTVSPropertyOp47
 70
     1
102
RTVSPropertyOp48
 70
     1
102
RTVSPropertyOp49
 70
     1
102
RTVSPropertyOp50
 70
     1
102
RTVSPropertyOp51
 70
     0
102
RTVSPropertyOp52
 70
     0
102
RTVSPropertyOp53
 70
     1
102
RTVSPropertyOp54
 70
     1
102
RTVSPropertyOp55
 70
     1
102
RTVSPropertyOp56
 70
     1
102
RTVSPropertyOp57
 70
     1
102
RTVSPost2010Prop28
280
     0
102
RTVSPost2010PropOp28
 70
     1
102
RTVSPost2010Prop29
280
     1
102
RTVSPost2010PropOp29
 70
     1
102
RTVSPost2010Prop30
280
     1
102
RTVSPost2010PropOp30
 70
     1
102
RTVSPost2010Prop31
280
     0
102
RTVSPost2010PropOp31
 70
     1
102
RTVSPost2010Prop32
280
     0
102
RTVSPost2010PropOp32
 70
     1
102
RTVSPost2010Prop33
280
     0
102
RTVSPost2010PropOp33
 70
     1
102
RTVSPost2010Prop34
280
     0
102
RTVSPost2010PropOp34
 70
     1
102
RTVSPost2010Prop35
280
     0
102
RTVSPost2010PropOp35
 70
     1
102
RTVSPost2010Prop36
280
     0
102
RTVSPost2010PropOp36
 70
     1
102
RTVSPost2010Prop37
 90
       50
102
RTVSPost2010PropOp37
 70
     1
102
RTVSPost2010Prop38
140
0.0
102
RTVSPost2010PropOp38
 70
     1
102
RTVSPost2010Prop39
140
1.0
102
RTVSPost2010PropOp39
 70
     1
102
RTVSPost2010Prop40
 90
        0
102
RTVSPost2010PropOp40
 70
     1
102
RTVSPost2010Prop41ColorIndex
 90
       18
102
RTVSPost2010Prop41ColorRGB
 90
        0
102
RTVSPost2010PropOp41
 70
     1
102
RTVSPost2010Prop42
 90
       50
102
RTVSPost2010PropOp42
 70
     1
102
RTVSPost2010Prop43
 90
        3
102
RTVSPost2010PropOp43
 70
     1
102
RTVSPost2010Prop44ColorIndex
 90
        5
102
RTVSPost2010Prop44ColorRGB
 90
      255
102
RTVSPost2010PropOp44
 70
     1
102
RTVSPost2010Prop45
280
     0
102
RTVSPost2010PropOp45
 70
     1
102
RTVSPost2010Prop46
 90
       50
102
RTVSPost2010PropOp46
 70
     1
102
RTVSPost2010Prop47
 90
       50
102
RTVSPost2010PropOp47
 70
     1
102
RTVSPost2010Prop48
 90
       50
102
RTVSPost2010PropOp48
 70
     1
102
RTVSPost2010Prop49
280
     0
102
RTVSPost2010PropOp49
 70
     1
102
RTVSPost2010Prop50
 90
       50
102
RTVSPost2010PropOp50
 70
     1
102
RTVSPost2010Prop51ColorIndex
 90
      256
102
RTVSPost2010Prop51ColorRGB
 90
-16777216
102
RTVSPost2010PropOp51
 70
     0
102
RTVSPost2010Prop52
140
1.0
102
RTVSPost2010PropOp52
 70
     0
102
RTVSPost2010Prop53
 90
        2
102
RTVSPost2010PropOp53
 70
     1
102
RTVSPost2010Prop54
  1
strokes_ogs.tif
102
RTVSPost2010PropOp54
 70
     1
102
RTVSPost2010Prop55
280
     0
102
RTVSPost2010PropOp55
 70
     1
102
RTVSPost2010Prop56
140
1.0
102
RTVSPost2010PropOp56
 70
     1
102
RTVSPost2010Prop57
140
1.0
102
RTVSPost2010PropOp57
 70
     1
  0
XRECORD
  5
3BA
102
{ACAD_REACTORS
330
3B9
102
}
330
3B9
100
AcDbXrecord
280
     1
102
RTVSPropertyOp0
 70
     1
102
RTVSPropertyOp1
 70
     1
102
RTVSPropertyOp2
 70
     1
102
RTVSPropertyOp3
 70
     1
102
RTVSPropertyOp4
 70
     1
102
RTVSPropertyOp5
 70
     1
102
RTVSPropertyOp6
 70
     1
102
RTVSPropertyOp7
 70
     1
102
RTVSPropertyOp8
 70
     1
102
RTVSPropertyOp9
 70
     1
102
RTVSPropertyOp10
 70
     1
102
RTVSPropertyOp11
 70
     1
102
RTVSPropertyOp12
 70
     1
102
RTVSPropertyOp13
 70
     1
102
RTVSPropertyOp14
 70
     1
102
RTVSPropertyOp15
 70
     1
102
RTVSPropertyOp16
 70
     1
102
RTVSPropertyOp17
 70
     1
102
RTVSPropertyOp18
 70
     1
102
RTVSPropertyOp19
 70
     1
102
RTVSPropertyOp20
 70
     1
102
RTVSPropertyOp21
 70
     1
102
RTVSPropertyOp22
 70
     1
102
RTVSPropertyOp23
 70
     1
102
RTVSPropertyOp24
 70
     1
102
RTVSPropertyOp25
 70
     1
102
RTVSPropertyOp26
 70
     1
102
RTVSPropertyOp27
 70
     1
102
RTVSPropertyOp28
 70
     1
102
RTVSPropertyOp29
 70
     1
102
RTVSPropertyOp30
 70
     1
102
RTVSPropertyOp31
 70
     1
102
RTVSPropertyOp32
 70
     1
102
RTVSPropertyOp33
 70
     1
102
RTVSPropertyOp34
 70
     1
102
RTVSPropertyOp35
 70
     1
102
RTVSPropertyOp36
 70
     1
102
RTVSPropertyOp37
 70
     1
102
RTVSPropertyOp38
 70
     1
102
RTVSPropertyOp39
 70
     1
102
RTVSPropertyOp40
 70
     1
102
RTVSPropertyOp41
 70
     1
102
RTVSPropertyOp42
 70
     1
102
RTVSPropertyOp43
 70
     1
102
RTVSPropertyOp44
 70
     1
102
RTVSPropertyOp45
 70
     1
102
RTVSPropertyOp46
 70
     1
102
RTVSPropertyOp47
 70
     1
102
RTVSPropertyOp48
 70
     1
102
RTVSPropertyOp49
 70
     1
102
RTVSPropertyOp50
 70
     1
102
RTVSPropertyOp51
 70
     0
102
RTVSPropertyOp52
 70
     0
102
RTVSPropertyOp53
 70
     1
102
RTVSPropertyOp54
 70
     1
102
RTVSPropertyOp55
 70
     1
102
RTVSPropertyOp56
 70
     1
102
RTVSPropertyOp57
 70
     1
102
RTVSPost2010Prop28
280
     0
102
RTVSPost2010PropOp28
 70
     1
102
RTVSPost2010Prop29
280
     1
102
RTVSPost2010PropOp29
 70
     1
102
RTVSPost2010Prop30
280
     1
102
RTVSPost2010PropOp30
 70
     1
102
RTVSPost2010Prop31
280
     0
102
RTVSPost2010PropOp31
 70
     1
102
RTVSPost2010Prop32
280
     0
102
RTVSPost2010PropOp32
 70
     1
102
RTVSPost2010Prop33
280
     0
102
RTVSPost2010PropOp33
 70
     1
102
RTVSPost2010Prop34
280
     0
102
RTVSPost2010PropOp34
 70
     1
102
RTVSPost2010Prop35
280
     0
102
RTVSPost2010PropOp35
 70
     1
102
RTVSPost2010Prop36
280
     0
102
RTVSPost2010PropOp36
 70
     1
102
RTVSPost2010Prop37
 90
       50
102
RTVSPost2010PropOp37
 70
     1
102
RTVSPost2010Prop38
140
0.0
102
RTVSPost2010PropOp38
 70
     1
102
RTVSPost2010Prop39
140
1.0
102
RTVSPost2010PropOp39
 70
     1
102
RTVSPost2010Prop40
 90
        0
102
RTVSPost2010PropOp40
 70
     1
102
RTVSPost2010Prop41ColorIndex
 90
       18
102
RTVSPost2010Prop41ColorRGB
 90
        0
102
RTVSPost2010PropOp41
 70
     1
102
RTVSPost2010Prop42
 90
       50
102
RTVSPost2010PropOp42
 70
     1
102
RTVSPost2010Prop43
 90
        3
102
RTVSPost2010PropOp43
 70
     1
102
RTVSPost2010Prop44ColorIndex
 90
        5
102
RTVSPost2010Prop44ColorRGB
 90
      255
102
RTVSPost2010PropOp44
 70
     1
102
RTVSPost2010Prop45
280
     0
102
RTVSPost2010PropOp45
 70
     1
102
RTVSPost2010Prop46
 90
       50
102
RTVSPost2010PropOp46
 70
     1
102
RTVSPost2010Prop47
 90
       50
102
RTVSPost2010PropOp47
 70
     1
102
RTVSPost2010Prop48
 90
       50
102
RTVSPost2010PropOp48
 70
     1
102
RTVSPost2010Prop49
280
     0
102
RTVSPost2010PropOp49
 70
     1
102
RTVSPost2010Prop50
 90
       50
102
RTVSPost2010PropOp50
 70
     1
102
RTVSPost2010Prop51ColorIndex
 90
      256
102
RTVSPost2010Prop51ColorRGB
 90
-16777216
102
RTVSPost2010PropOp51
 70
     0
102
RTVSPost2010Prop52
140
1.0
102
RTVSPost2010PropOp52
 70
     0
102
RTVSPost2010Prop53
 90
        2
102
RTVSPost2010PropOp53
 70
     1
102
RTVSPost2010Prop54
  1
strokes_ogs.tif
102
RTVSPost2010PropOp54
 70
     1
102
RTVSPost2010Prop55
280
     0
102
RTVSPost2010PropOp55
 70
     1
102
RTVSPost2010Prop56
140
1.0
102
RTVSPost2010PropOp56
 70
     1
102
RTVSPost2010Prop57
140
1.0
102
RTVSPost2010PropOp57
 70
     1
  0
XRECORD
  5
3CA
102
{ACAD_REACTORS
330
3C9
102
}
330
3C9
100
AcDbXrecord
280
     1
102
RTVSPropertyOp0
 70
     0
102
RTVSPropertyOp1
 70
     0
102
RTVSPropertyOp2
 70
     0
102
RTVSPropertyOp3
 70
     0
102
RTVSPropertyOp4
 70
     0
102
RTVSPropertyOp5
 70
     0
102
RTVSPropertyOp6
 70
     0
102
RTVSPropertyOp7
 70
     0
102
RTVSPropertyOp8
 70
     0
102
RTVSPropertyOp9
 70
     0
102
RTVSPropertyOp10
 70
     0
102
RTVSPropertyOp11
 70
     0
102
RTVSPropertyOp12
 70
     0
102
RTVSPropertyOp13
 70
     0
102
RTVSPropertyOp14
 70
     2
102
RTVSPropertyOp15
 70
     0
102
RTVSPropertyOp16
 70
     0
102
RTVSPropertyOp17
 70
     0
102
RTVSPropertyOp18
 70
     0
102
RTVSPropertyOp19
 70
     0
102
RTVSPropertyOp20
 70
     0
102
RTVSPropertyOp21
 70
     0
102
RTVSPropertyOp22
 70
     0
102
RTVSPropertyOp23
 70
     0
102
RTVSPropertyOp24
 70
     0
102
RTVSPropertyOp25
 70
     0
102
RTVSPropertyOp26
 70
     0
102
RTVSPropertyOp27
 70
     0
102
RTVSPropertyOp28
 70
     0
102
RTVSPropertyOp29
 70
     0
102
RTVSPropertyOp30
 70
     0
102
RTVSPropertyOp31
 70
     0
102
RTVSPropertyOp32
 70
     0
102
RTVSPropertyOp33
 70
     0
102
RTVSPropertyOp34
 70
     0
102
RTVSPropertyOp35
 70
     0
102
RTVSPropertyOp36
 70
     0
102
RTVSPropertyOp37
 70
     0
102
RTVSPropertyOp38
 70
     0
102
RTVSPropertyOp39
 70
     0
102
RTVSPropertyOp40
 70
     0
102
RTVSPropertyOp41
 70
     0
102
RTVSPropertyOp42
 70
     0
102
RTVSPropertyOp43
 70
     0
102
RTVSPropertyOp44
 70
     0
102
RTVSPropertyOp45
 70
     0
102
RTVSPropertyOp46
 70
     0
102
RTVSPropertyOp47
 70
     0
102
RTVSPropertyOp48
 70
     0
102
RTVSPropertyOp49
 70
     0
102
RTVSPropertyOp50
 70
     0
102
RTVSPropertyOp51
 70
     0
102
RTVSPropertyOp52
 70
     0
102
RTVSPropertyOp53
 70
     0
102
RTVSPropertyOp54
 70
     0
102
RTVSPropertyOp55
 70
     0
102
RTVSPropertyOp56
 70
     0
102
RTVSPropertyOp57
 70
     0
102
RTVSPost2010Prop28
280
     0
102
RTVSPost2010PropOp28
 70
     0
102
RTVSPost2010Prop29
280
     1
102
RTVSPost2010PropOp29
 70
     0
102
RTVSPost2010Prop30
280
     1
102
RTVSPost2010PropOp30
 70
     0
102
RTVSPost2010Prop31
280
     0
102
RTVSPost2010PropOp31
 70
     0
102
RTVSPost2010Prop32
280
     0
102
RTVSPost2010PropOp32
 70
     0
102
RTVSPost2010Prop33
280
     0
102
RTVSPost2010PropOp33
 70
     0
102
RTVSPost2010Prop34
280
     0
102
RTVSPost2010PropOp34
 70
     0
102
RTVSPost2010Prop35
280
     0
102
RTVSPost2010PropOp35
 70
     0
102
RTVSPost2010Prop36
280
     0
102
RTVSPost2010PropOp36
 70
     0
102
RTVSPost2010Prop37
 90
       50
102
RTVSPost2010PropOp37
 70
     0
102
RTVSPost2010Prop38
140
0.0
102
RTVSPost2010PropOp38
 70
     0
102
RTVSPost2010Prop39
140
1.0
102
RTVSPost2010PropOp39
 70
     0
102
RTVSPost2010Prop40
 90
        0
102
RTVSPost2010PropOp40
 70
     0
102
RTVSPost2010Prop41ColorIndex
 90
       18
102
RTVSPost2010Prop41ColorRGB
 90
        0
102
RTVSPost2010PropOp41
 70
     0
102
RTVSPost2010Prop42
 90
       50
102
RTVSPost2010PropOp42
 70
     0
102
RTVSPost2010Prop43
 90
        3
102
RTVSPost2010PropOp43
 70
     0
102
RTVSPost2010Prop44ColorIndex
 90
        5
102
RTVSPost2010Prop44ColorRGB
 90
      255
102
RTVSPost2010PropOp44
 70
     0
102
RTVSPost2010Prop45
280
     0
102
RTVSPost2010PropOp45
 70
     0
102
RTVSPost2010Prop46
 90
       50
102
RTVSPost2010PropOp46
 70
     0
102
RTVSPost2010Prop47
 90
       50
102
RTVSPost2010PropOp47
 70
     0
102
RTVSPost2010Prop48
 90
       50
102
RTVSPost2010PropOp48
 70
     0
102
RTVSPost2010Prop49
280
     0
102
RTVSPost2010PropOp49
 70
     0
102
RTVSPost2010Prop50
 90
       50
102
RTVSPost2010PropOp50
 70
     0
102
RTVSPost2010Prop51ColorIndex
 90
      256
102
RTVSPost2010Prop51ColorRGB
 90
-16777216
102
RTVSPost2010PropOp51
 70
     0
102
RTVSPost2010Prop52
140
1.0
102
RTVSPost2010PropOp52
 70
     0
102
RTVSPost2010Prop53
 90
        2
102
RTVSPost2010PropOp53
 70
     0
102
RTVSPost2010Prop54
  1
strokes_ogs.tif
102
RTVSPost2010PropOp54
 70
     0
102
RTVSPost2010Prop55
280
     0
102
RTVSPost2010PropOp55
 70
     0
102
RTVSPost2010Prop56
140
1.0
102
RTVSPost2010PropOp56
 70
     0
102
RTVSPost2010Prop57
140
1.0
102
RTVSPost2010PropOp57
 70
     0
  0
XRECORD
  5
3C2
102
{ACAD_REACTORS
330
3C1
102
}
330
3C1
100
AcDbXrecord
280
     1
102
RTVSPropertyOp0
 70
     1
102
RTVSPropertyOp1
 70
     1
102
RTVSPropertyOp2
 70
     1
102
RTVSPropertyOp3
 70
     1
102
RTVSPropertyOp4
 70
     1
102
RTVSPropertyOp5
 70
     1
102
RTVSPropertyOp6
 70
     1
102
RTVSPropertyOp7
 70
     1
102
RTVSPropertyOp8
 70
     1
102
RTVSPropertyOp9
 70
     1
102
RTVSPropertyOp10
 70
     1
102
RTVSPropertyOp11
 70
     1
102
RTVSPropertyOp12
 70
     1
102
RTVSPropertyOp13
 70
     1
102
RTVSPropertyOp14
 70
     1
102
RTVSPropertyOp15
 70
     1
102
RTVSPropertyOp16
 70
     1
102
RTVSPropertyOp17
 70
     1
102
RTVSPropertyOp18
 70
     1
102
RTVSPropertyOp19
 70
     1
102
RTVSPropertyOp20
 70
     1
102
RTVSPropertyOp21
 70
     1
102
RTVSPropertyOp22
 70
     1
102
RTVSPropertyOp23
 70
     1
102
RTVSPropertyOp24
 70
     1
102
RTVSPropertyOp25
 70
     1
102
RTVSPropertyOp26
 70
     1
102
RTVSPropertyOp27
 70
     1
102
RTVSPropertyOp28
 70
     1
102
RTVSPropertyOp29
 70
     1
102
RTVSPropertyOp30
 70
     1
102
RTVSPropertyOp31
 70
     1
102
RTVSPropertyOp32
 70
     1
102
RTVSPropertyOp33
 70
     1
102
RTVSPropertyOp34
 70
     1
102
RTVSPropertyOp35
 70
     1
102
RTVSPropertyOp36
 70
     1
102
RTVSPropertyOp37
 70
     1
102
RTVSPropertyOp38
 70
     1
102
RTVSPropertyOp39
 70
     1
102
RTVSPropertyOp40
 70
     1
102
RTVSPropertyOp41
 70
     1
102
RTVSPropertyOp42
 70
     1
102
RTVSPropertyOp43
 70
     1
102
RTVSPropertyOp44
 70
     1
102
RTVSPropertyOp45
 70
     1
102
RTVSPropertyOp46
 70
     1
102
RTVSPropertyOp47
 70
     1
102
RTVSPropertyOp48
 70
     1
102
RTVSPropertyOp49
 70
     1
102
RTVSPropertyOp50
 70
     1
102
RTVSPropertyOp51
 70
     0
102
RTVSPropertyOp52
 70
     0
102
RTVSPropertyOp53
 70
     1
102
RTVSPropertyOp54
 70
     1
102
RTVSPropertyOp55
 70
     1
102
RTVSPropertyOp56
 70
     1
102
RTVSPropertyOp57
 70
     1
102
RTVSPost2010Prop28
280
     0
102
RTVSPost2010PropOp28
 70
     1
102
RTVSPost2010Prop29
280
     1
102
RTVSPost2010PropOp29
 70
     1
102
RTVSPost2010Prop30
280
     1
102
RTVSPost2010PropOp30
 70
     1
102
RTVSPost2010Prop31
280
     0
102
RTVSPost2010PropOp31
 70
     1
102
RTVSPost2010Prop32
280
     0
102
RTVSPost2010PropOp32
 70
     1
102
RTVSPost2010Prop33
280
     0
102
RTVSPost2010PropOp33
 70
     1
102
RTVSPost2010Prop34
280
     0
102
RTVSPost2010PropOp34
 70
     1
102
RTVSPost2010Prop35
280
     0
102
RTVSPost2010PropOp35
 70
     1
102
RTVSPost2010Prop36
280
     0
102
RTVSPost2010PropOp36
 70
     1
102
RTVSPost2010Prop37
 90
       50
102
RTVSPost2010PropOp37
 70
     1
102
RTVSPost2010Prop38
140
0.0
102
RTVSPost2010PropOp38
 70
     1
102
RTVSPost2010Prop39
140
1.0
102
RTVSPost2010PropOp39
 70
     1
102
RTVSPost2010Prop40
 90
        0
102
RTVSPost2010PropOp40
 70
     1
102
RTVSPost2010Prop41ColorIndex
 90
       18
102
RTVSPost2010Prop41ColorRGB
 90
        0
102
RTVSPost2010PropOp41
 70
     1
102
RTVSPost2010Prop42
 90
       50
102
RTVSPost2010PropOp42
 70
     1
102
RTVSPost2010Prop43
 90
        3
102
RTVSPost2010PropOp43
 70
     1
102
RTVSPost2010Prop44ColorIndex
 90
        5
102
RTVSPost2010Prop44ColorRGB
 90
      255
102
RTVSPost2010PropOp44
 70
     1
102
RTVSPost2010Prop45
280
     0
102
RTVSPost2010PropOp45
 70
     1
102
RTVSPost2010Prop46
 90
       50
102
RTVSPost2010PropOp46
 70
     1
102
RTVSPost2010Prop47
 90
       50
102
RTVSPost2010PropOp47
 70
     1
102
RTVSPost2010Prop48
 90
       50
102
RTVSPost2010PropOp48
 70
     1
102
RTVSPost2010Prop49
280
     0
102
RTVSPost2010PropOp49
 70
     1
102
RTVSPost2010Prop50
 90
       50
102
RTVSPost2010PropOp50
 70
     1
102
RTVSPost2010Prop51ColorIndex
 90
      256
102
RTVSPost2010Prop51ColorRGB
 90
-16777216
102
RTVSPost2010PropOp51
 70
     0
102
RTVSPost2010Prop52
140
1.0
102
RTVSPost2010PropOp52
 70
     0
102
RTVSPost2010Prop53
 90
        2
102
RTVSPost2010PropOp53
 70
     1
102
RTVSPost2010Prop54
  1
strokes_ogs.tif
102
RTVSPost2010PropOp54
 70
     1
102
RTVSPost2010Prop55
280
     0
102
RTVSPost2010PropOp55
 70
     1
102
RTVSPost2010Prop56
140
1.0
102
RTVSPost2010PropOp56
 70
     1
102
RTVSPost2010Prop57
140
1.0
102
RTVSPost2010PropOp57
 70
     1
  0
XRECORD
  5
3A6
102
{ACAD_REACTORS
330
3A5
102
}
330
3A5
100
AcDbXrecord
280
     1
102
RTVSPropertyOp0
 70
     1
102
RTVSPropertyOp1
 70
     1
102
RTVSPropertyOp2
 70
     1
102
RTVSPropertyOp3
 70
     1
102
RTVSPropertyOp4
 70
     1
102
RTVSPropertyOp5
 70
     1
102
RTVSPropertyOp6
 70
     1
102
RTVSPropertyOp7
 70
     1
102
RTVSPropertyOp8
 70
     1
102
RTVSPropertyOp9
 70
     1
102
RTVSPropertyOp10
 70
     1
102
RTVSPropertyOp11
 70
     1
102
RTVSPropertyOp12
 70
     1
102
RTVSPropertyOp13
 70
     1
102
RTVSPropertyOp14
 70
     1
102
RTVSPropertyOp15
 70
     1
102
RTVSPropertyOp16
 70
     1
102
RTVSPropertyOp17
 70
     1
102
RTVSPropertyOp18
 70
     1
102
RTVSPropertyOp19
 70
     1
102
RTVSPropertyOp20
 70
     1
102
RTVSPropertyOp21
 70
     1
102
RTVSPropertyOp22
 70
     1
102
RTVSPropertyOp23
 70
     1
102
RTVSPropertyOp24
 70
     1
102
RTVSPropertyOp25
 70
     1
102
RTVSPropertyOp26
 70
     1
102
RTVSPropertyOp27
 70
     1
102
RTVSPropertyOp28
 70
     1
102
RTVSPropertyOp29
 70
     1
102
RTVSPropertyOp30
 70
     1
102
RTVSPropertyOp31
 70
     1
102
RTVSPropertyOp32
 70
     1
102
RTVSPropertyOp33
 70
     1
102
RTVSPropertyOp34
 70
     1
102
RTVSPropertyOp35
 70
     1
102
RTVSPropertyOp36
 70
     1
102
RTVSPropertyOp37
 70
     1
102
RTVSPropertyOp38
 70
     1
102
RTVSPropertyOp39
 70
     1
102
RTVSPropertyOp40
 70
     1
102
RTVSPropertyOp41
 70
     1
102
RTVSPropertyOp42
 70
     1
102
RTVSPropertyOp43
 70
     1
102
RTVSPropertyOp44
 70
     1
102
RTVSPropertyOp45
 70
     1
102
RTVSPropertyOp46
 70
     1
102
RTVSPropertyOp47
 70
     1
102
RTVSPropertyOp48
 70
     1
102
RTVSPropertyOp49
 70
     1
102
RTVSPropertyOp50
 70
     1
102
RTVSPropertyOp51
 70
     0
102
RTVSPropertyOp52
 70
     0
102
RTVSPropertyOp53
 70
     1
102
RTVSPropertyOp54
 70
     1
102
RTVSPropertyOp55
 70
     1
102
RTVSPropertyOp56
 70
     1
102
RTVSPropertyOp57
 70
     1
102
RTVSPost2010Prop28
280
     0
102
RTVSPost2010PropOp28
 70
     1
102
RTVSPost2010Prop29
280
     1
102
RTVSPost2010PropOp29
 70
     1
102
RTVSPost2010Prop30
280
     1
102
RTVSPost2010PropOp30
 70
     1
102
RTVSPost2010Prop31
280
     0
102
RTVSPost2010PropOp31
 70
     1
102
RTVSPost2010Prop32
280
     0
102
RTVSPost2010PropOp32
 70
     1
102
RTVSPost2010Prop33
280
     0
102
RTVSPost2010PropOp33
 70
     1
102
RTVSPost2010Prop34
280
     0
102
RTVSPost2010PropOp34
 70
     1
102
RTVSPost2010Prop35
280
     0
102
RTVSPost2010PropOp35
 70
     1
102
RTVSPost2010Prop36
280
     0
102
RTVSPost2010PropOp36
 70
     1
102
RTVSPost2010Prop37
 90
       50
102
RTVSPost2010PropOp37
 70
     1
102
RTVSPost2010Prop38
140
0.0
102
RTVSPost2010PropOp38
 70
     1
102
RTVSPost2010Prop39
140
1.0
102
RTVSPost2010PropOp39
 70
     1
102
RTVSPost2010Prop40
 90
        0
102
RTVSPost2010PropOp40
 70
     1
102
RTVSPost2010Prop41ColorIndex
 90
       18
102
RTVSPost2010Prop41ColorRGB
 90
        0
102
RTVSPost2010PropOp41
 70
     1
102
RTVSPost2010Prop42
 90
       50
102
RTVSPost2010PropOp42
 70
     1
102
RTVSPost2010Prop43
 90
        3
102
RTVSPost2010PropOp43
 70
     1
102
RTVSPost2010Prop44ColorIndex
 90
        5
102
RTVSPost2010Prop44ColorRGB
 90
      255
102
RTVSPost2010PropOp44
 70
     1
102
RTVSPost2010Prop45
280
     0
102
RTVSPost2010PropOp45
 70
     1
102
RTVSPost2010Prop46
 90
       50
102
RTVSPost2010PropOp46
 70
     1
102
RTVSPost2010Prop47
 90
       50
102
RTVSPost2010PropOp47
 70
     1
102
RTVSPost2010Prop48
 90
       50
102
RTVSPost2010PropOp48
 70
     1
102
RTVSPost2010Prop49
280
     0
102
RTVSPost2010PropOp49
 70
     1
102
RTVSPost2010Prop50
 90
       50
102
RTVSPost2010PropOp50
 70
     1
102
RTVSPost2010Prop51ColorIndex
 90
      256
102
RTVSPost2010Prop51ColorRGB
 90
-16777216
102
RTVSPost2010PropOp51
 70
     0
102
RTVSPost2010Prop52
140
1.0
102
RTVSPost2010PropOp52
 70
     0
102
RTVSPost2010Prop53
 90
        2
102
RTVSPost2010PropOp53
 70
     1
102
RTVSPost2010Prop54
  1
strokes_ogs.tif
102
RTVSPost2010PropOp54
 70
     1
102
RTVSPost2010Prop55
280
     0
102
RTVSPost2010PropOp55
 70
     1
102
RTVSPost2010Prop56
140
1.0
102
RTVSPost2010PropOp56
 70
     1
102
RTVSPost2010Prop57
140
1.0
102
RTVSPost2010PropOp57
 70
     1
  0
XRECORD
  5
3A8
102
{ACAD_REACTORS
330
3A7
102
}
330
3A7
100
AcDbXrecord
280
     1
102
RTVSPropertyOp0
 70
     1
102
RTVSPropertyOp1
 70
     1
102
RTVSPropertyOp2
 70
     1
102
RTVSPropertyOp3
 70
     1
102
RTVSPropertyOp4
 70
     1
102
RTVSPropertyOp5
 70
     1
102
RTVSPropertyOp6
 70
     1
102
RTVSPropertyOp7
 70
     1
102
RTVSPropertyOp8
 70
     1
102
RTVSPropertyOp9
 70
     1
102
RTVSPropertyOp10
 70
     1
102
RTVSPropertyOp11
 70
     1
102
RTVSPropertyOp12
 70
     1
102
RTVSPropertyOp13
 70
     1
102
RTVSPropertyOp14
 70
     1
102
RTVSPropertyOp15
 70
     1
102
RTVSPropertyOp16
 70
     1
102
RTVSPropertyOp17
 70
     1
102
RTVSPropertyOp18
 70
     1
102
RTVSPropertyOp19
 70
     1
102
RTVSPropertyOp20
 70
     1
102
RTVSPropertyOp21
 70
     1
102
RTVSPropertyOp22
 70
     1
102
RTVSPropertyOp23
 70
     1
102
RTVSPropertyOp24
 70
     1
102
RTVSPropertyOp25
 70
     1
102
RTVSPropertyOp26
 70
     1
102
RTVSPropertyOp27
 70
     1
102
RTVSPropertyOp28
 70
     1
102
RTVSPropertyOp29
 70
     1
102
RTVSPropertyOp30
 70
     1
102
RTVSPropertyOp31
 70
     1
102
RTVSPropertyOp32
 70
     1
102
RTVSPropertyOp33
 70
     1
102
RTVSPropertyOp34
 70
     1
102
RTVSPropertyOp35
 70
     1
102
RTVSPropertyOp36
 70
     1
102
RTVSPropertyOp37
 70
     1
102
RTVSPropertyOp38
 70
     1
102
RTVSPropertyOp39
 70
     1
102
RTVSPropertyOp40
 70
     1
102
RTVSPropertyOp41
 70
     1
102
RTVSPropertyOp42
 70
     1
102
RTVSPropertyOp43
 70
     1
102
RTVSPropertyOp44
 70
     1
102
RTVSPropertyOp45
 70
     1
102
RTVSPropertyOp46
 70
     1
102
RTVSPropertyOp47
 70
     1
102
RTVSPropertyOp48
 70
     1
102
RTVSPropertyOp49
 70
     1
102
RTVSPropertyOp50
 70
     1
102
RTVSPropertyOp51
 70
     0
102
RTVSPropertyOp52
 70
     0
102
RTVSPropertyOp53
 70
     1
102
RTVSPropertyOp54
 70
     1
102
RTVSPropertyOp55
 70
     1
102
RTVSPropertyOp56
 70
     1
102
RTVSPropertyOp57
 70
     1
102
RTVSPost2010Prop28
280
     0
102
RTVSPost2010PropOp28
 70
     1
102
RTVSPost2010Prop29
280
     1
102
RTVSPost2010PropOp29
 70
     1
102
RTVSPost2010Prop30
280
     1
102
RTVSPost2010PropOp30
 70
     1
102
RTVSPost2010Prop31
280
     0
102
RTVSPost2010PropOp31
 70
     1
102
RTVSPost2010Prop32
280
     0
102
RTVSPost2010PropOp32
 70
     1
102
RTVSPost2010Prop33
280
     0
102
RTVSPost2010PropOp33
 70
     1
102
RTVSPost2010Prop34
280
     0
102
RTVSPost2010PropOp34
 70
     1
102
RTVSPost2010Prop35
280
     0
102
RTVSPost2010PropOp35
 70
     1
102
RTVSPost2010Prop36
280
     0
102
RTVSPost2010PropOp36
 70
     1
102
RTVSPost2010Prop37
 90
       50
102
RTVSPost2010PropOp37
 70
     1
102
RTVSPost2010Prop38
140
0.0
102
RTVSPost2010PropOp38
 70
     1
102
RTVSPost2010Prop39
140
1.0
102
RTVSPost2010PropOp39
 70
     1
102
RTVSPost2010Prop40
 90
        0
102
RTVSPost2010PropOp40
 70
     1
102
RTVSPost2010Prop41ColorIndex
 90
       18
102
RTVSPost2010Prop41ColorRGB
 90
        0
102
RTVSPost2010PropOp41
 70
     1
102
RTVSPost2010Prop42
 90
       50
102
RTVSPost2010PropOp42
 70
     1
102
RTVSPost2010Prop43
 90
        3
102
RTVSPost2010PropOp43
 70
     1
102
RTVSPost2010Prop44ColorIndex
 90
        5
102
RTVSPost2010Prop44ColorRGB
 90
      255
102
RTVSPost2010PropOp44
 70
     1
102
RTVSPost2010Prop45
280
     0
102
RTVSPost2010PropOp45
 70
     1
102
RTVSPost2010Prop46
 90
       50
102
RTVSPost2010PropOp46
 70
     1
102
RTVSPost2010Prop47
 90
       50
102
RTVSPost2010PropOp47
 70
     1
102
RTVSPost2010Prop48
 90
       50
102
RTVSPost2010PropOp48
 70
     1
102
RTVSPost2010Prop49
280
     0
102
RTVSPost2010PropOp49
 70
     1
102
RTVSPost2010Prop50
 90
       50
102
RTVSPost2010PropOp50
 70
     1
102
RTVSPost2010Prop51ColorIndex
 90
      256
102
RTVSPost2010Prop51ColorRGB
 90
-16777216
102
RTVSPost2010PropOp51
 70
     0
102
RTVSPost2010Prop52
140
1.0
102
RTVSPost2010PropOp52
 70
     0
102
RTVSPost2010Prop53
 90
        2
102
RTVSPost2010PropOp53
 70
     1
102
RTVSPost2010Prop54
  1
strokes_ogs.tif
102
RTVSPost2010PropOp54
 70
     1
102
RTVSPost2010Prop55
280
     0
102
RTVSPost2010PropOp55
 70
     1
102
RTVSPost2010Prop56
140
1.0
102
RTVSPost2010PropOp56
 70
     1
102
RTVSPost2010Prop57
140
1.0
102
RTVSPost2010PropOp57
 70
     1
  0
XRECORD
  5
3AA
102
{ACAD_REACTORS
330
3A9
102
}
330
3A9
100
AcDbXrecord
280
     1
102
RTVSPropertyOp0
 70
     1
102
RTVSPropertyOp1
 70
     1
102
RTVSPropertyOp2
 70
     1
102
RTVSPropertyOp3
 70
     1
102
RTVSPropertyOp4
 70
     1
102
RTVSPropertyOp5
 70
     1
102
RTVSPropertyOp6
 70
     1
102
RTVSPropertyOp7
 70
     1
102
RTVSPropertyOp8
 70
     1
102
RTVSPropertyOp9
 70
     1
102
RTVSPropertyOp10
 70
     1
102
RTVSPropertyOp11
 70
     1
102
RTVSPropertyOp12
 70
     1
102
RTVSPropertyOp13
 70
     1
102
RTVSPropertyOp14
 70
     1
102
RTVSPropertyOp15
 70
     1
102
RTVSPropertyOp16
 70
     1
102
RTVSPropertyOp17
 70
     1
102
RTVSPropertyOp18
 70
     1
102
RTVSPropertyOp19
 70
     1
102
RTVSPropertyOp20
 70
     1
102
RTVSPropertyOp21
 70
     1
102
RTVSPropertyOp22
 70
     1
102
RTVSPropertyOp23
 70
     1
102
RTVSPropertyOp24
 70
     1
102
RTVSPropertyOp25
 70
     1
102
RTVSPropertyOp26
 70
     1
102
RTVSPropertyOp27
 70
     1
102
RTVSPropertyOp28
 70
     1
102
RTVSPropertyOp29
 70
     1
102
RTVSPropertyOp30
 70
     1
102
RTVSPropertyOp31
 70
     1
102
RTVSPropertyOp32
 70
     1
102
RTVSPropertyOp33
 70
     1
102
RTVSPropertyOp34
 70
     1
102
RTVSPropertyOp35
 70
     1
102
RTVSPropertyOp36
 70
     1
102
RTVSPropertyOp37
 70
     1
102
RTVSPropertyOp38
 70
     1
102
RTVSPropertyOp39
 70
     1
102
RTVSPropertyOp40
 70
     1
102
RTVSPropertyOp41
 70
     1
102
RTVSPropertyOp42
 70
     1
102
RTVSPropertyOp43
 70
     1
102
RTVSPropertyOp44
 70
     1
102
RTVSPropertyOp45
 70
     1
102
RTVSPropertyOp46
 70
     1
102
RTVSPropertyOp47
 70
     1
102
RTVSPropertyOp48
 70
     1
102
RTVSPropertyOp49
 70
     1
102
RTVSPropertyOp50
 70
     1
102
RTVSPropertyOp51
 70
     0
102
RTVSPropertyOp52
 70
     0
102
RTVSPropertyOp53
 70
     1
102
RTVSPropertyOp54
 70
     1
102
RTVSPropertyOp55
 70
     1
102
RTVSPropertyOp56
 70
     1
102
RTVSPropertyOp57
 70
     1
102
RTVSPost2010Prop28
280
     0
102
RTVSPost2010PropOp28
 70
     1
102
RTVSPost2010Prop29
280
     1
102
RTVSPost2010PropOp29
 70
     1
102
RTVSPost2010Prop30
280
     1
102
RTVSPost2010PropOp30
 70
     1
102
RTVSPost2010Prop31
280
     0
102
RTVSPost2010PropOp31
 70
     1
102
RTVSPost2010Prop32
280
     0
102
RTVSPost2010PropOp32
 70
     1
102
RTVSPost2010Prop33
280
     0
102
RTVSPost2010PropOp33
 70
     1
102
RTVSPost2010Prop34
280
     0
102
RTVSPost2010PropOp34
 70
     1
102
RTVSPost2010Prop35
280
     0
102
RTVSPost2010PropOp35
 70
     1
102
RTVSPost2010Prop36
280
     0
102
RTVSPost2010PropOp36
 70
     1
102
RTVSPost2010Prop37
 90
       50
102
RTVSPost2010PropOp37
 70
     1
102
RTVSPost2010Prop38
140
0.0
102
RTVSPost2010PropOp38
 70
     1
102
RTVSPost2010Prop39
140
1.0
102
RTVSPost2010PropOp39
 70
     1
102
RTVSPost2010Prop40
 90
        0
102
RTVSPost2010PropOp40
 70
     1
102
RTVSPost2010Prop41ColorIndex
 90
       18
102
RTVSPost2010Prop41ColorRGB
 90
        0
102
RTVSPost2010PropOp41
 70
     1
102
RTVSPost2010Prop42
 90
       50
102
RTVSPost2010PropOp42
 70
     1
102
RTVSPost2010Prop43
 90
        3
102
RTVSPost2010PropOp43
 70
     1
102
RTVSPost2010Prop44ColorIndex
 90
        5
102
RTVSPost2010Prop44ColorRGB
 90
      255
102
RTVSPost2010PropOp44
 70
     1
102
RTVSPost2010Prop45
280
     0
102
RTVSPost2010PropOp45
 70
     1
102
RTVSPost2010Prop46
 90
       50
102
RTVSPost2010PropOp46
 70
     1
102
RTVSPost2010Prop47
 90
       50
102
RTVSPost2010PropOp47
 70
     1
102
RTVSPost2010Prop48
 90
       50
102
RTVSPost2010PropOp48
 70
     1
102
RTVSPost2010Prop49
280
     0
102
RTVSPost2010PropOp49
 70
     1
102
RTVSPost2010Prop50
 90
       50
102
RTVSPost2010PropOp50
 70
     1
102
RTVSPost2010Prop51ColorIndex
 90
      256
102
RTVSPost2010Prop51ColorRGB
 90
-16777216
102
RTVSPost2010PropOp51
 70
     0
102
RTVSPost2010Prop52
140
1.0
102
RTVSPost2010PropOp52
 70
     0
102
RTVSPost2010Prop53
 90
        2
102
RTVSPost2010PropOp53
 70
     1
102
RTVSPost2010Prop54
  1
strokes_ogs.tif
102
RTVSPost2010PropOp54
 70
     1
102
RTVSPost2010Prop55
280
     0
102
RTVSPost2010PropOp55
 70
     1
102
RTVSPost2010Prop56
140
1.0
102
RTVSPost2010PropOp56
 70
     1
102
RTVSPost2010Prop57
140
1.0
102
RTVSPost2010PropOp57
 70
     1
  0
XRECORD
  5
3AC
102
{ACAD_REACTORS
330
3AB
102
}
330
3AB
100
AcDbXrecord
280
     1
102
RTVSPropertyOp0
 70
     1
102
RTVSPropertyOp1
 70
     1
102
RTVSPropertyOp2
 70
     1
102
RTVSPropertyOp3
 70
     1
102
RTVSPropertyOp4
 70
     1
102
RTVSPropertyOp5
 70
     1
102
RTVSPropertyOp6
 70
     1
102
RTVSPropertyOp7
 70
     1
102
RTVSPropertyOp8
 70
     1
102
RTVSPropertyOp9
 70
     1
102
RTVSPropertyOp10
 70
     1
102
RTVSPropertyOp11
 70
     1
102
RTVSPropertyOp12
 70
     1
102
RTVSPropertyOp13
 70
     1
102
RTVSPropertyOp14
 70
     1
102
RTVSPropertyOp15
 70
     1
102
RTVSPropertyOp16
 70
     1
102
RTVSPropertyOp17
 70
     1
102
RTVSPropertyOp18
 70
     1
102
RTVSPropertyOp19
 70
     1
102
RTVSPropertyOp20
 70
     1
102
RTVSPropertyOp21
 70
     1
102
RTVSPropertyOp22
 70
     1
102
RTVSPropertyOp23
 70
     1
102
RTVSPropertyOp24
 70
     1
102
RTVSPropertyOp25
 70
     1
102
RTVSPropertyOp26
 70
     1
102
RTVSPropertyOp27
 70
     1
102
RTVSPropertyOp28
 70
     1
102
RTVSPropertyOp29
 70
     1
102
RTVSPropertyOp30
 70
     1
102
RTVSPropertyOp31
 70
     1
102
RTVSPropertyOp32
 70
     1
102
RTVSPropertyOp33
 70
     1
102
RTVSPropertyOp34
 70
     1
102
RTVSPropertyOp35
 70
     1
102
RTVSPropertyOp36
 70
     1
102
RTVSPropertyOp37
 70
     1
102
RTVSPropertyOp38
 70
     1
102
RTVSPropertyOp39
 70
     1
102
RTVSPropertyOp40
 70
     1
102
RTVSPropertyOp41
 70
     1
102
RTVSPropertyOp42
 70
     1
102
RTVSPropertyOp43
 70
     1
102
RTVSPropertyOp44
 70
     1
102
RTVSPropertyOp45
 70
     1
102
RTVSPropertyOp46
 70
     1
102
RTVSPropertyOp47
 70
     1
102
RTVSPropertyOp48
 70
     1
102
RTVSPropertyOp49
 70
     1
102
RTVSPropertyOp50
 70
     1
102
RTVSPropertyOp51
 70
     0
102
RTVSPropertyOp52
 70
     0
102
RTVSPropertyOp53
 70
     1
102
RTVSPropertyOp54
 70
     1
102
RTVSPropertyOp55
 70
     1
102
RTVSPropertyOp56
 70
     1
102
RTVSPropertyOp57
 70
     1
102
RTVSPost2010Prop28
280
     0
102
RTVSPost2010PropOp28
 70
     1
102
RTVSPost2010Prop29
280
     1
102
RTVSPost2010PropOp29
 70
     1
102
RTVSPost2010Prop30
280
     1
102
RTVSPost2010PropOp30
 70
     1
102
RTVSPost2010Prop31
280
     0
102
RTVSPost2010PropOp31
 70
     1
102
RTVSPost2010Prop32
280
     0
102
RTVSPost2010PropOp32
 70
     1
102
RTVSPost2010Prop33
280
     0
102
RTVSPost2010PropOp33
 70
     1
102
RTVSPost2010Prop34
280
     0
102
RTVSPost2010PropOp34
 70
     1
102
RTVSPost2010Prop35
280
     0
102
RTVSPost2010PropOp35
 70
     1
102
RTVSPost2010Prop36
280
     0
102
RTVSPost2010PropOp36
 70
     1
102
RTVSPost2010Prop37
 90
       50
102
RTVSPost2010PropOp37
 70
     1
102
RTVSPost2010Prop38
140
0.0
102
RTVSPost2010PropOp38
 70
     1
102
RTVSPost2010Prop39
140
1.0
102
RTVSPost2010PropOp39
 70
     1
102
RTVSPost2010Prop40
 90
        0
102
RTVSPost2010PropOp40
 70
     1
102
RTVSPost2010Prop41ColorIndex
 90
       18
102
RTVSPost2010Prop41ColorRGB
 90
        0
102
RTVSPost2010PropOp41
 70
     1
102
RTVSPost2010Prop42
 90
       50
102
RTVSPost2010PropOp42
 70
     1
102
RTVSPost2010Prop43
 90
        3
102
RTVSPost2010PropOp43
 70
     1
102
RTVSPost2010Prop44ColorIndex
 90
        5
102
RTVSPost2010Prop44ColorRGB
 90
      255
102
RTVSPost2010PropOp44
 70
     1
102
RTVSPost2010Prop45
280
     0
102
RTVSPost2010PropOp45
 70
     1
102
RTVSPost2010Prop46
 90
       50
102
RTVSPost2010PropOp46
 70
     1
102
RTVSPost2010Prop47
 90
       50
102
RTVSPost2010PropOp47
 70
     1
102
RTVSPost2010Prop48
 90
       50
102
RTVSPost2010PropOp48
 70
     1
102
RTVSPost2010Prop49
280
     0
102
RTVSPost2010PropOp49
 70
     1
102
RTVSPost2010Prop50
 90
       50
102
RTVSPost2010PropOp50
 70
     1
102
RTVSPost2010Prop51ColorIndex
 90
      256
102
RTVSPost2010Prop51ColorRGB
 90
-16777216
102
RTVSPost2010PropOp51
 70
     0
102
RTVSPost2010Prop52
140
1.0
102
RTVSPost2010PropOp52
 70
     0
102
RTVSPost2010Prop53
 90
        2
102
RTVSPost2010PropOp53
 70
     1
102
RTVSPost2010Prop54
  1
strokes_ogs.tif
102
RTVSPost2010PropOp54
 70
     1
102
RTVSPost2010Prop55
280
     0
102
RTVSPost2010PropOp55
 70
     1
102
RTVSPost2010Prop56
140
1.0
102
RTVSPost2010PropOp56
 70
     1
102
RTVSPost2010Prop57
140
1.0
102
RTVSPost2010PropOp57
 70
     1
  0
XRECORD
  5
3B2
102
{ACAD_REACTORS
330
3B1
102
}
330
3B1
100
AcDbXrecord
280
     1
102
RTVSPropertyOp0
 70
     1
102
RTVSPropertyOp1
 70
     1
102
RTVSPropertyOp2
 70
     1
102
RTVSPropertyOp3
 70
     1
102
RTVSPropertyOp4
 70
     1
102
RTVSPropertyOp5
 70
     1
102
RTVSPropertyOp6
 70
     1
102
RTVSPropertyOp7
 70
     1
102
RTVSPropertyOp8
 70
     1
102
RTVSPropertyOp9
 70
     1
102
RTVSPropertyOp10
 70
     1
102
RTVSPropertyOp11
 70
     1
102
RTVSPropertyOp12
 70
     1
102
RTVSPropertyOp13
 70
     1
102
RTVSPropertyOp14
 70
     1
102
RTVSPropertyOp15
 70
     1
102
RTVSPropertyOp16
 70
     1
102
RTVSPropertyOp17
 70
     1
102
RTVSPropertyOp18
 70
     1
102
RTVSPropertyOp19
 70
     1
102
RTVSPropertyOp20
 70
     1
102
RTVSPropertyOp21
 70
     1
102
RTVSPropertyOp22
 70
     1
102
RTVSPropertyOp23
 70
     1
102
RTVSPropertyOp24
 70
     1
102
RTVSPropertyOp25
 70
     1
102
RTVSPropertyOp26
 70
     1
102
RTVSPropertyOp27
 70
     1
102
RTVSPropertyOp28
 70
     1
102
RTVSPropertyOp29
 70
     1
102
RTVSPropertyOp30
 70
     1
102
RTVSPropertyOp31
 70
     1
102
RTVSPropertyOp32
 70
     1
102
RTVSPropertyOp33
 70
     1
102
RTVSPropertyOp34
 70
     1
102
RTVSPropertyOp35
 70
     1
102
RTVSPropertyOp36
 70
     1
102
RTVSPropertyOp37
 70
     1
102
RTVSPropertyOp38
 70
     1
102
RTVSPropertyOp39
 70
     1
102
RTVSPropertyOp40
 70
     1
102
RTVSPropertyOp41
 70
     1
102
RTVSPropertyOp42
 70
     1
102
RTVSPropertyOp43
 70
     1
102
RTVSPropertyOp44
 70
     1
102
RTVSPropertyOp45
 70
     1
102
RTVSPropertyOp46
 70
     1
102
RTVSPropertyOp47
 70
     1
102
RTVSPropertyOp48
 70
     1
102
RTVSPropertyOp49
 70
     1
102
RTVSPropertyOp50
 70
     1
102
RTVSPropertyOp51
 70
     0
102
RTVSPropertyOp52
 70
     0
102
RTVSPropertyOp53
 70
     1
102
RTVSPropertyOp54
 70
     1
102
RTVSPropertyOp55
 70
     1
102
RTVSPropertyOp56
 70
     1
102
RTVSPropertyOp57
 70
     1
102
RTVSPost2010Prop28
280
     0
102
RTVSPost2010PropOp28
 70
     1
102
RTVSPost2010Prop29
280
     1
102
RTVSPost2010PropOp29
 70
     1
102
RTVSPost2010Prop30
280
     1
102
RTVSPost2010PropOp30
 70
     1
102
RTVSPost2010Prop31
280
     0
102
RTVSPost2010PropOp31
 70
     1
102
RTVSPost2010Prop32
280
     0
102
RTVSPost2010PropOp32
 70
     1
102
RTVSPost2010Prop33
280
     0
102
RTVSPost2010PropOp33
 70
     1
102
RTVSPost2010Prop34
280
     0
102
RTVSPost2010PropOp34
 70
     1
102
RTVSPost2010Prop35
280
     0
102
RTVSPost2010PropOp35
 70
     1
102
RTVSPost2010Prop36
280
     0
102
RTVSPost2010PropOp36
 70
     1
102
RTVSPost2010Prop37
 90
       50
102
RTVSPost2010PropOp37
 70
     1
102
RTVSPost2010Prop38
140
0.0
102
RTVSPost2010PropOp38
 70
     1
102
RTVSPost2010Prop39
140
1.0
102
RTVSPost2010PropOp39
 70
     1
102
RTVSPost2010Prop40
 90
        0
102
RTVSPost2010PropOp40
 70
     1
102
RTVSPost2010Prop41ColorIndex
 90
       18
102
RTVSPost2010Prop41ColorRGB
 90
        0
102
RTVSPost2010PropOp41
 70
     1
102
RTVSPost2010Prop42
 90
       50
102
RTVSPost2010PropOp42
 70
     1
102
RTVSPost2010Prop43
 90
        3
102
RTVSPost2010PropOp43
 70
     1
102
RTVSPost2010Prop44ColorIndex
 90
        5
102
RTVSPost2010Prop44ColorRGB
 90
      255
102
RTVSPost2010PropOp44
 70
     1
102
RTVSPost2010Prop45
280
     0
102
RTVSPost2010PropOp45
 70
     1
102
RTVSPost2010Prop46
 90
       50
102
RTVSPost2010PropOp46
 70
     1
102
RTVSPost2010Prop47
 90
       50
102
RTVSPost2010PropOp47
 70
     1
102
RTVSPost2010Prop48
 90
       50
102
RTVSPost2010PropOp48
 70
     1
102
RTVSPost2010Prop49
280
     0
102
RTVSPost2010PropOp49
 70
     1
102
RTVSPost2010Prop50
 90
       50
102
RTVSPost2010PropOp50
 70
     1
102
RTVSPost2010Prop51ColorIndex
 90
      256
102
RTVSPost2010Prop51ColorRGB
 90
-16777216
102
RTVSPost2010PropOp51
 70
     0
102
RTVSPost2010Prop52
140
1.0
102
RTVSPost2010PropOp52
 70
     0
102
RTVSPost2010Prop53
 90
        2
102
RTVSPost2010PropOp53
 70
     1
102
RTVSPost2010Prop54
  1
strokes_ogs.tif
102
RTVSPost2010PropOp54
 70
     1
102
RTVSPost2010Prop55
280
     0
102
RTVSPost2010PropOp55
 70
     1
102
RTVSPost2010Prop56
140
1.0
102
RTVSPost2010PropOp56
 70
     1
102
RTVSPost2010Prop57
140
1.0
102
RTVSPost2010PropOp57
 70
     1
  0
XRECORD
  5
3C6
102
{ACAD_REACTORS
330
3C5
102
}
330
3C5
100
AcDbXrecord
280
     1
102
RTVSPropertyOp0
 70
     0
102
RTVSPropertyOp1
 70
     0
102
RTVSPropertyOp2
 70
     0
102
RTVSPropertyOp3
 70
     0
102
RTVSPropertyOp4
 70
     0
102
RTVSPropertyOp5
 70
     0
102
RTVSPropertyOp6
 70
     0
102
RTVSPropertyOp7
 70
     0
102
RTVSPropertyOp8
 70
     0
102
RTVSPropertyOp9
 70
     0
102
RTVSPropertyOp10
 70
     0
102
RTVSPropertyOp11
 70
     0
102
RTVSPropertyOp12
 70
     0
102
RTVSPropertyOp13
 70
     0
102
RTVSPropertyOp14
 70
     2
102
RTVSPropertyOp15
 70
     0
102
RTVSPropertyOp16
 70
     0
102
RTVSPropertyOp17
 70
     0
102
RTVSPropertyOp18
 70
     0
102
RTVSPropertyOp19
 70
     0
102
RTVSPropertyOp20
 70
     0
102
RTVSPropertyOp21
 70
     0
102
RTVSPropertyOp22
 70
     0
102
RTVSPropertyOp23
 70
     0
102
RTVSPropertyOp24
 70
     0
102
RTVSPropertyOp25
 70
     0
102
RTVSPropertyOp26
 70
     0
102
RTVSPropertyOp27
 70
     0
102
RTVSPropertyOp28
 70
     0
102
RTVSPropertyOp29
 70
     0
102
RTVSPropertyOp30
 70
     0
102
RTVSPropertyOp31
 70
     0
102
RTVSPropertyOp32
 70
     0
102
RTVSPropertyOp33
 70
     0
102
RTVSPropertyOp34
 70
     0
102
RTVSPropertyOp35
 70
     0
102
RTVSPropertyOp36
 70
     0
102
RTVSPropertyOp37
 70
     0
102
RTVSPropertyOp38
 70
     0
102
RTVSPropertyOp39
 70
     0
102
RTVSPropertyOp40
 70
     0
102
RTVSPropertyOp41
 70
     0
102
RTVSPropertyOp42
 70
     0
102
RTVSPropertyOp43
 70
     0
102
RTVSPropertyOp44
 70
     0
102
RTVSPropertyOp45
 70
     0
102
RTVSPropertyOp46
 70
     0
102
RTVSPropertyOp47
 70
     0
102
RTVSPropertyOp48
 70
     0
102
RTVSPropertyOp49
 70
     0
102
RTVSPropertyOp50
 70
     0
102
RTVSPropertyOp51
 70
     0
102
RTVSPropertyOp52
 70
     0
102
RTVSPropertyOp53
 70
     0
102
RTVSPropertyOp54
 70
     0
102
RTVSPropertyOp55
 70
     0
102
RTVSPropertyOp56
 70
     0
102
RTVSPropertyOp57
 70
     0
102
RTVSPost2010Prop28
280
     0
102
RTVSPost2010PropOp28
 70
     0
102
RTVSPost2010Prop29
280
     1
102
RTVSPost2010PropOp29
 70
     0
102
RTVSPost2010Prop30
280
     1
102
RTVSPost2010PropOp30
 70
     0
102
RTVSPost2010Prop31
280
     0
102
RTVSPost2010PropOp31
 70
     0
102
RTVSPost2010Prop32
280
     0
102
RTVSPost2010PropOp32
 70
     0
102
RTVSPost2010Prop33
280
     0
102
RTVSPost2010PropOp33
 70
     0
102
RTVSPost2010Prop34
280
     0
102
RTVSPost2010PropOp34
 70
     0
102
RTVSPost2010Prop35
280
     0
102
RTVSPost2010PropOp35
 70
     0
102
RTVSPost2010Prop36
280
     0
102
RTVSPost2010PropOp36
 70
     0
102
RTVSPost2010Prop37
 90
       50
102
RTVSPost2010PropOp37
 70
     0
102
RTVSPost2010Prop38
140
0.0
102
RTVSPost2010PropOp38
 70
     0
102
RTVSPost2010Prop39
140
1.0
102
RTVSPost2010PropOp39
 70
     0
102
RTVSPost2010Prop40
 90
        0
102
RTVSPost2010PropOp40
 70
     0
102
RTVSPost2010Prop41ColorIndex
 90
       18
102
RTVSPost2010Prop41ColorRGB
 90
        0
102
RTVSPost2010PropOp41
 70
     0
102
RTVSPost2010Prop42
 90
       50
102
RTVSPost2010PropOp42
 70
     0
102
RTVSPost2010Prop43
 90
        3
102
RTVSPost2010PropOp43
 70
     0
102
RTVSPost2010Prop44ColorIndex
 90
        5
102
RTVSPost2010Prop44ColorRGB
 90
      255
102
RTVSPost2010PropOp44
 70
     0
102
RTVSPost2010Prop45
280
     0
102
RTVSPost2010PropOp45
 70
     0
102
RTVSPost2010Prop46
 90
       50
102
RTVSPost2010PropOp46
 70
     0
102
RTVSPost2010Prop47
 90
       50
102
RTVSPost2010PropOp47
 70
     0
102
RTVSPost2010Prop48
 90
       50
102
RTVSPost2010PropOp48
 70
     0
102
RTVSPost2010Prop49
280
     0
102
RTVSPost2010PropOp49
 70
     0
102
RTVSPost2010Prop50
 90
       50
102
RTVSPost2010PropOp50
 70
     0
102
RTVSPost2010Prop51ColorIndex
 90
      256
102
RTVSPost2010Prop51ColorRGB
 90
-16777216
102
RTVSPost2010PropOp51
 70
     0
102
RTVSPost2010Prop52
140
1.0
102
RTVSPost2010PropOp52
 70
     0
102
RTVSPost2010Prop53
 90
        2
102
RTVSPost2010PropOp53
 70
     0
102
RTVSPost2010Prop54
  1
strokes_ogs.tif
102
RTVSPost2010PropOp54
 70
     0
102
RTVSPost2010Prop55
280
     0
102
RTVSPost2010PropOp55
 70
     0
102
RTVSPost2010Prop56
140
1.0
102
RTVSPost2010PropOp56
 70
     0
102
RTVSPost2010Prop57
140
1.0
102
RTVSPost2010PropOp57
 70
     0
  0
XRECORD
  5
3C0
102
{ACAD_REACTORS
330
3BF
102
}
330
3BF
100
AcDbXrecord
280
     1
102
RTVSPropertyOp0
 70
     1
102
RTVSPropertyOp1
 70
     1
102
RTVSPropertyOp2
 70
     1
102
RTVSPropertyOp3
 70
     1
102
RTVSPropertyOp4
 70
     1
102
RTVSPropertyOp5
 70
     1
102
RTVSPropertyOp6
 70
     1
102
RTVSPropertyOp7
 70
     1
102
RTVSPropertyOp8
 70
     1
102
RTVSPropertyOp9
 70
     1
102
RTVSPropertyOp10
 70
     1
102
RTVSPropertyOp11
 70
     1
102
RTVSPropertyOp12
 70
     1
102
RTVSPropertyOp13
 70
     1
102
RTVSPropertyOp14
 70
     1
102
RTVSPropertyOp15
 70
     1
102
RTVSPropertyOp16
 70
     1
102
RTVSPropertyOp17
 70
     1
102
RTVSPropertyOp18
 70
     1
102
RTVSPropertyOp19
 70
     1
102
RTVSPropertyOp20
 70
     1
102
RTVSPropertyOp21
 70
     1
102
RTVSPropertyOp22
 70
     1
102
RTVSPropertyOp23
 70
     1
102
RTVSPropertyOp24
 70
     1
102
RTVSPropertyOp25
 70
     1
102
RTVSPropertyOp26
 70
     1
102
RTVSPropertyOp27
 70
     1
102
RTVSPropertyOp28
 70
     1
102
RTVSPropertyOp29
 70
     1
102
RTVSPropertyOp30
 70
     1
102
RTVSPropertyOp31
 70
     1
102
RTVSPropertyOp32
 70
     1
102
RTVSPropertyOp33
 70
     1
102
RTVSPropertyOp34
 70
     1
102
RTVSPropertyOp35
 70
     1
102
RTVSPropertyOp36
 70
     1
102
RTVSPropertyOp37
 70
     1
102
RTVSPropertyOp38
 70
     1
102
RTVSPropertyOp39
 70
     1
102
RTVSPropertyOp40
 70
     1
102
RTVSPropertyOp41
 70
     1
102
RTVSPropertyOp42
 70
     1
102
RTVSPropertyOp43
 70
     1
102
RTVSPropertyOp44
 70
     1
102
RTVSPropertyOp45
 70
     1
102
RTVSPropertyOp46
 70
     1
102
RTVSPropertyOp47
 70
     1
102
RTVSPropertyOp48
 70
     1
102
RTVSPropertyOp49
 70
     1
102
RTVSPropertyOp50
 70
     1
102
RTVSPropertyOp51
 70
     0
102
RTVSPropertyOp52
 70
     0
102
RTVSPropertyOp53
 70
     1
102
RTVSPropertyOp54
 70
     1
102
RTVSPropertyOp55
 70
     1
102
RTVSPropertyOp56
 70
     1
102
RTVSPropertyOp57
 70
     1
102
RTVSPost2010Prop28
280
     0
102
RTVSPost2010PropOp28
 70
     1
102
RTVSPost2010Prop29
280
     1
102
RTVSPost2010PropOp29
 70
     1
102
RTVSPost2010Prop30
280
     1
102
RTVSPost2010PropOp30
 70
     1
102
RTVSPost2010Prop31
280
     0
102
RTVSPost2010PropOp31
 70
     1
102
RTVSPost2010Prop32
280
     0
102
RTVSPost2010PropOp32
 70
     1
102
RTVSPost2010Prop33
280
     0
102
RTVSPost2010PropOp33
 70
     1
102
RTVSPost2010Prop34
280
     0
102
RTVSPost2010PropOp34
 70
     1
102
RTVSPost2010Prop35
280
     0
102
RTVSPost2010PropOp35
 70
     1
102
RTVSPost2010Prop36
280
     0
102
RTVSPost2010PropOp36
 70
     1
102
RTVSPost2010Prop37
 90
       50
102
RTVSPost2010PropOp37
 70
     1
102
RTVSPost2010Prop38
140
0.0
102
RTVSPost2010PropOp38
 70
     1
102
RTVSPost2010Prop39
140
1.0
102
RTVSPost2010PropOp39
 70
     1
102
RTVSPost2010Prop40
 90
        0
102
RTVSPost2010PropOp40
 70
     1
102
RTVSPost2010Prop41ColorIndex
 90
       18
102
RTVSPost2010Prop41ColorRGB
 90
        0
102
RTVSPost2010PropOp41
 70
     1
102
RTVSPost2010Prop42
 90
       50
102
RTVSPost2010PropOp42
 70
     1
102
RTVSPost2010Prop43
 90
        3
102
RTVSPost2010PropOp43
 70
     1
102
RTVSPost2010Prop44ColorIndex
 90
        5
102
RTVSPost2010Prop44ColorRGB
 90
      255
102
RTVSPost2010PropOp44
 70
     1
102
RTVSPost2010Prop45
280
     0
102
RTVSPost2010PropOp45
 70
     1
102
RTVSPost2010Prop46
 90
       50
102
RTVSPost2010PropOp46
 70
     1
102
RTVSPost2010Prop47
 90
       50
102
RTVSPost2010PropOp47
 70
     1
102
RTVSPost2010Prop48
 90
       50
102
RTVSPost2010PropOp48
 70
     1
102
RTVSPost2010Prop49
280
     0
102
RTVSPost2010PropOp49
 70
     1
102
RTVSPost2010Prop50
 90
       50
102
RTVSPost2010PropOp50
 70
     1
102
RTVSPost2010Prop51ColorIndex
 90
      256
102
RTVSPost2010Prop51ColorRGB
 90
-16777216
102
RTVSPost2010PropOp51
 70
     0
102
RTVSPost2010Prop52
140
1.0
102
RTVSPost2010PropOp52
 70
     0
102
RTVSPost2010Prop53
 90
        2
102
RTVSPost2010PropOp53
 70
     1
102
RTVSPost2010Prop54
  1
strokes_ogs.tif
102
RTVSPost2010PropOp54
 70
     1
102
RTVSPost2010Prop55
280
     0
102
RTVSPost2010PropOp55
 70
     1
102
RTVSPost2010Prop56
140
1.0
102
RTVSPost2010PropOp56
 70
     1
102
RTVSPost2010Prop57
140
1.0
102
RTVSPost2010PropOp57
 70
     1
  0
XRECORD
  5
3C8
102
{ACAD_REACTORS
330
3C7
102
}
330
3C7
100
AcDbXrecord
280
     1
102
RTVSPropertyOp0
 70
     0
102
RTVSPropertyOp1
 70
     0
102
RTVSPropertyOp2
 70
     0
102
RTVSPropertyOp3
 70
     0
102
RTVSPropertyOp4
 70
     0
102
RTVSPropertyOp5
 70
     0
102
RTVSPropertyOp6
 70
     0
102
RTVSPropertyOp7
 70
     0
102
RTVSPropertyOp8
 70
     0
102
RTVSPropertyOp9
 70
     0
102
RTVSPropertyOp10
 70
     0
102
RTVSPropertyOp11
 70
     0
102
RTVSPropertyOp12
 70
     0
102
RTVSPropertyOp13
 70
     0
102
RTVSPropertyOp14
 70
     2
102
RTVSPropertyOp15
 70
     0
102
RTVSPropertyOp16
 70
     0
102
RTVSPropertyOp17
 70
     0
102
RTVSPropertyOp18
 70
     0
102
RTVSPropertyOp19
 70
     0
102
RTVSPropertyOp20
 70
     0
102
RTVSPropertyOp21
 70
     0
102
RTVSPropertyOp22
 70
     0
102
RTVSPropertyOp23
 70
     0
102
RTVSPropertyOp24
 70
     0
102
RTVSPropertyOp25
 70
     0
102
RTVSPropertyOp26
 70
     0
102
RTVSPropertyOp27
 70
     0
102
RTVSPropertyOp28
 70
     0
102
RTVSPropertyOp29
 70
     0
102
RTVSPropertyOp30
 70
     0
102
RTVSPropertyOp31
 70
     0
102
RTVSPropertyOp32
 70
     0
102
RTVSPropertyOp33
 70
     0
102
RTVSPropertyOp34
 70
     0
102
RTVSPropertyOp35
 70
     0
102
RTVSPropertyOp36
 70
     0
102
RTVSPropertyOp37
 70
     0
102
RTVSPropertyOp38
 70
     0
102
RTVSPropertyOp39
 70
     0
102
RTVSPropertyOp40
 70
     0
102
RTVSPropertyOp41
 70
     0
102
RTVSPropertyOp42
 70
     0
102
RTVSPropertyOp43
 70
     0
102
RTVSPropertyOp44
 70
     0
102
RTVSPropertyOp45
 70
     0
102
RTVSPropertyOp46
 70
     0
102
RTVSPropertyOp47
 70
     0
102
RTVSPropertyOp48
 70
     0
102
RTVSPropertyOp49
 70
     0
102
RTVSPropertyOp50
 70
     0
102
RTVSPropertyOp51
 70
     0
102
RTVSPropertyOp52
 70
     0
102
RTVSPropertyOp53
 70
     0
102
RTVSPropertyOp54
 70
     0
102
RTVSPropertyOp55
 70
     0
102
RTVSPropertyOp56
 70
     0
102
RTVSPropertyOp57
 70
     0
102
RTVSPost2010Prop28
280
     0
102
RTVSPost2010PropOp28
 70
     0
102
RTVSPost2010Prop29
280
     1
102
RTVSPost2010PropOp29
 70
     0
102
RTVSPost2010Prop30
280
     1
102
RTVSPost2010PropOp30
 70
     0
102
RTVSPost2010Prop31
280
     0
102
RTVSPost2010PropOp31
 70
     0
102
RTVSPost2010Prop32
280
     0
102
RTVSPost2010PropOp32
 70
     0
102
RTVSPost2010Prop33
280
     0
102
RTVSPost2010PropOp33
 70
     0
102
RTVSPost2010Prop34
280
     0
102
RTVSPost2010PropOp34
 70
     0
102
RTVSPost2010Prop35
280
     0
102
RTVSPost2010PropOp35
 70
     0
102
RTVSPost2010Prop36
280
     0
102
RTVSPost2010PropOp36
 70
     0
102
RTVSPost2010Prop37
 90
       50
102
RTVSPost2010PropOp37
 70
     0
102
RTVSPost2010Prop38
140
0.0
102
RTVSPost2010PropOp38
 70
     0
102
RTVSPost2010Prop39
140
1.0
102
RTVSPost2010PropOp39
 70
     0
102
RTVSPost2010Prop40
 90
        0
102
RTVSPost2010PropOp40
 70
     0
102
RTVSPost2010Prop41ColorIndex
 90
       18
102
RTVSPost2010Prop41ColorRGB
 90
        0
102
RTVSPost2010PropOp41
 70
     0
102
RTVSPost2010Prop42
 90
       50
102
RTVSPost2010PropOp42
 70
     0
102
RTVSPost2010Prop43
 90
        3
102
RTVSPost2010PropOp43
 70
     0
102
RTVSPost2010Prop44ColorIndex
 90
        5
102
RTVSPost2010Prop44ColorRGB
 90
      255
102
RTVSPost2010PropOp44
 70
     0
102
RTVSPost2010Prop45
280
     0
102
RTVSPost2010PropOp45
 70
     0
102
RTVSPost2010Prop46
 90
       50
102
RTVSPost2010PropOp46
 70
     0
102
RTVSPost2010Prop47
 90
       50
102
RTVSPost2010PropOp47
 70
     0
102
RTVSPost2010Prop48
 90
       50
102
RTVSPost2010PropOp48
 70
     0
102
RTVSPost2010Prop49
280
     0
102
RTVSPost2010PropOp49
 70
     0
102
RTVSPost2010Prop50
 90
       50
102
RTVSPost2010PropOp50
 70
     0
102
RTVSPost2010Prop51ColorIndex
 90
      256
102
RTVSPost2010Prop51ColorRGB
 90
-16777216
102
RTVSPost2010PropOp51
 70
     0
102
RTVSPost2010Prop52
140
1.0
102
RTVSPost2010PropOp52
 70
     0
102
RTVSPost2010Prop53
 90
        2
102
RTVSPost2010PropOp53
 70
     0
102
RTVSPost2010Prop54
  1
strokes_ogs.tif
102
RTVSPost2010PropOp54
 70
     0
102
RTVSPost2010Prop55
280
     0
102
RTVSPost2010PropOp55
 70
     0
102
RTVSPost2010Prop56
140
1.0
102
RTVSPost2010PropOp56
 70
     0
102
RTVSPost2010Prop57
140
1.0
102
RTVSPost2010PropOp57
 70
     0
  0
XRECORD
  5
3B6
102
{ACAD_REACTORS
330
3B5
102
}
330
3B5
100
AcDbXrecord
280
     1
102
RTVSPropertyOp0
 70
     1
102
RTVSPropertyOp1
 70
     1
102
RTVSPropertyOp2
 70
     1
102
RTVSPropertyOp3
 70
     1
102
RTVSPropertyOp4
 70
     1
102
RTVSPropertyOp5
 70
     1
102
RTVSPropertyOp6
 70
     1
102
RTVSPropertyOp7
 70
     1
102
RTVSPropertyOp8
 70
     1
102
RTVSPropertyOp9
 70
     1
102
RTVSPropertyOp10
 70
     1
102
RTVSPropertyOp11
 70
     1
102
RTVSPropertyOp12
 70
     1
102
RTVSPropertyOp13
 70
     1
102
RTVSPropertyOp14
 70
     1
102
RTVSPropertyOp15
 70
     1
102
RTVSPropertyOp16
 70
     1
102
RTVSPropertyOp17
 70
     1
102
RTVSPropertyOp18
 70
     1
102
RTVSPropertyOp19
 70
     1
102
RTVSPropertyOp20
 70
     1
102
RTVSPropertyOp21
 70
     1
102
RTVSPropertyOp22
 70
     1
102
RTVSPropertyOp23
 70
     1
102
RTVSPropertyOp24
 70
     1
102
RTVSPropertyOp25
 70
     1
102
RTVSPropertyOp26
 70
     1
102
RTVSPropertyOp27
 70
     1
102
RTVSPropertyOp28
 70
     1
102
RTVSPropertyOp29
 70
     1
102
RTVSPropertyOp30
 70
     1
102
RTVSPropertyOp31
 70
     1
102
RTVSPropertyOp32
 70
     1
102
RTVSPropertyOp33
 70
     1
102
RTVSPropertyOp34
 70
     1
102
RTVSPropertyOp35
 70
     1
102
RTVSPropertyOp36
 70
     1
102
RTVSPropertyOp37
 70
     1
102
RTVSPropertyOp38
 70
     1
102
RTVSPropertyOp39
 70
     1
102
RTVSPropertyOp40
 70
     1
102
RTVSPropertyOp41
 70
     1
102
RTVSPropertyOp42
 70
     1
102
RTVSPropertyOp43
 70
     1
102
RTVSPropertyOp44
 70
     1
102
RTVSPropertyOp45
 70
     1
102
RTVSPropertyOp46
 70
     1
102
RTVSPropertyOp47
 70
     1
102
RTVSPropertyOp48
 70
     1
102
RTVSPropertyOp49
 70
     1
102
RTVSPropertyOp50
 70
     1
102
RTVSPropertyOp51
 70
     0
102
RTVSPropertyOp52
 70
     0
102
RTVSPropertyOp53
 70
     1
102
RTVSPropertyOp54
 70
     1
102
RTVSPropertyOp55
 70
     1
102
RTVSPropertyOp56
 70
     1
102
RTVSPropertyOp57
 70
     1
102
RTVSPost2010Prop28
280
     0
102
RTVSPost2010PropOp28
 70
     1
102
RTVSPost2010Prop29
280
     1
102
RTVSPost2010PropOp29
 70
     1
102
RTVSPost2010Prop30
280
     1
102
RTVSPost2010PropOp30
 70
     1
102
RTVSPost2010Prop31
280
     0
102
RTVSPost2010PropOp31
 70
     1
102
RTVSPost2010Prop32
280
     0
102
RTVSPost2010PropOp32
 70
     1
102
RTVSPost2010Prop33
280
     0
102
RTVSPost2010PropOp33
 70
     1
102
RTVSPost2010Prop34
280
     0
102
RTVSPost2010PropOp34
 70
     1
102
RTVSPost2010Prop35
280
     0
102
RTVSPost2010PropOp35
 70
     1
102
RTVSPost2010Prop36
280
     0
102
RTVSPost2010PropOp36
 70
     1
102
RTVSPost2010Prop37
 90
       50
102
RTVSPost2010PropOp37
 70
     1
102
RTVSPost2010Prop38
140
0.0
102
RTVSPost2010PropOp38
 70
     1
102
RTVSPost2010Prop39
140
1.0
102
RTVSPost2010PropOp39
 70
     1
102
RTVSPost2010Prop40
 90
        0
102
RTVSPost2010PropOp40
 70
     1
102
RTVSPost2010Prop41ColorIndex
 90
       18
102
RTVSPost2010Prop41ColorRGB
 90
        0
102
RTVSPost2010PropOp41
 70
     1
102
RTVSPost2010Prop42
 90
       50
102
RTVSPost2010PropOp42
 70
     1
102
RTVSPost2010Prop43
 90
        3
102
RTVSPost2010PropOp43
 70
     1
102
RTVSPost2010Prop44ColorIndex
 90
        5
102
RTVSPost2010Prop44ColorRGB
 90
      255
102
RTVSPost2010PropOp44
 70
     1
102
RTVSPost2010Prop45
280
     0
102
RTVSPost2010PropOp45
 70
     1
102
RTVSPost2010Prop46
 90
       50
102
RTVSPost2010PropOp46
 70
     1
102
RTVSPost2010Prop47
 90
       50
102
RTVSPost2010PropOp47
 70
     1
102
RTVSPost2010Prop48
 90
       50
102
RTVSPost2010PropOp48
 70
     1
102
RTVSPost2010Prop49
280
     0
102
RTVSPost2010PropOp49
 70
     1
102
RTVSPost2010Prop50
 90
       50
102
RTVSPost2010PropOp50
 70
     1
102
RTVSPost2010Prop51ColorIndex
 90
      256
102
RTVSPost2010Prop51ColorRGB
 90
-16777216
102
RTVSPost2010PropOp51
 70
     0
102
RTVSPost2010Prop52
140
1.0
102
RTVSPost2010PropOp52
 70
     0
102
RTVSPost2010Prop53
 90
        2
102
RTVSPost2010PropOp53
 70
     1
102
RTVSPost2010Prop54
  1
strokes_ogs.tif
102
RTVSPost2010PropOp54
 70
     1
102
RTVSPost2010Prop55
280
     0
102
RTVSPost2010PropOp55
 70
     1
102
RTVSPost2010Prop56
140
1.0
102
RTVSPost2010PropOp56
 70
     1
102
RTVSPost2010Prop57
140
1.0
102
RTVSPost2010PropOp57
 70
     1
  0
XRECORD
  5
3D4
102
{ACAD_REACTORS
330
3D3
102
}
330
3D3
100
AcDbXrecord
280
     1
102
RTVSPropertyOp0
 70
     1
102
RTVSPropertyOp1
 70
     1
102
RTVSPropertyOp2
 70
     1
102
RTVSPropertyOp3
 70
     1
102
RTVSPropertyOp4
 70
     1
102
RTVSPropertyOp5
 70
     1
102
RTVSPropertyOp6
 70
     1
102
RTVSPropertyOp7
 70
     1
102
RTVSPropertyOp8
 70
     1
102
RTVSPropertyOp9
 70
     1
102
RTVSPropertyOp10
 70
     1
102
RTVSPropertyOp11
 70
     1
102
RTVSPropertyOp12
 70
     1
102
RTVSPropertyOp13
 70
     1
102
RTVSPropertyOp14
 70
     1
102
RTVSPropertyOp15
 70
     1
102
RTVSPropertyOp16
 70
     1
102
RTVSPropertyOp17
 70
     1
102
RTVSPropertyOp18
 70
     1
102
RTVSPropertyOp19
 70
     1
102
RTVSPropertyOp20
 70
     1
102
RTVSPropertyOp21
 70
     1
102
RTVSPropertyOp22
 70
     1
102
RTVSPropertyOp23
 70
     1
102
RTVSPropertyOp24
 70
     1
102
RTVSPropertyOp25
 70
     1
102
RTVSPropertyOp26
 70
     1
102
RTVSPropertyOp27
 70
     1
102
RTVSPropertyOp28
 70
     1
102
RTVSPropertyOp29
 70
     1
102
RTVSPropertyOp30
 70
     1
102
RTVSPropertyOp31
 70
     1
102
RTVSPropertyOp32
 70
     1
102
RTVSPropertyOp33
 70
     1
102
RTVSPropertyOp34
 70
     1
102
RTVSPropertyOp35
 70
     1
102
RTVSPropertyOp36
 70
     1
102
RTVSPropertyOp37
 70
     1
102
RTVSPropertyOp38
 70
     1
102
RTVSPropertyOp39
 70
     1
102
RTVSPropertyOp40
 70
     1
102
RTVSPropertyOp41
 70
     1
102
RTVSPropertyOp42
 70
     1
102
RTVSPropertyOp43
 70
     1
102
RTVSPropertyOp44
 70
     1
102
RTVSPropertyOp45
 70
     1
102
RTVSPropertyOp46
 70
     1
102
RTVSPropertyOp47
 70
     1
102
RTVSPropertyOp48
 70
     1
102
RTVSPropertyOp49
 70
     1
102
RTVSPropertyOp50
 70
     1
102
RTVSPropertyOp51
 70
     0
102
RTVSPropertyOp52
 70
     0
102
RTVSPropertyOp53
 70
     1
102
RTVSPropertyOp54
 70
     1
102
RTVSPropertyOp55
 70
     1
102
RTVSPropertyOp56
 70
     1
102
RTVSPropertyOp57
 70
     1
102
RTVSPost2010Prop28
280
     0
102
RTVSPost2010PropOp28
 70
     1
102
RTVSPost2010Prop29
280
     1
102
RTVSPost2010PropOp29
 70
     1
102
RTVSPost2010Prop30
280
     1
102
RTVSPost2010PropOp30
 70
     1
102
RTVSPost2010Prop31
280
     0
102
RTVSPost2010PropOp31
 70
     1
102
RTVSPost2010Prop32
280
     0
102
RTVSPost2010PropOp32
 70
     1
102
RTVSPost2010Prop33
280
     0
102
RTVSPost2010PropOp33
 70
     1
102
RTVSPost2010Prop34
280
     0
102
RTVSPost2010PropOp34
 70
     1
102
RTVSPost2010Prop35
280
     0
102
RTVSPost2010PropOp35
 70
     1
102
RTVSPost2010Prop36
280
     0
102
RTVSPost2010PropOp36
 70
     1
102
RTVSPost2010Prop37
 90
       50
102
RTVSPost2010PropOp37
 70
     1
102
RTVSPost2010Prop38
140
0.0
102
RTVSPost2010PropOp38
 70
     1
102
RTVSPost2010Prop39
140
1.0
102
RTVSPost2010PropOp39
 70
     1
102
RTVSPost2010Prop40
 90
        0
102
RTVSPost2010PropOp40
 70
     1
102
RTVSPost2010Prop41ColorIndex
 90
       18
102
RTVSPost2010Prop41ColorRGB
 90
        0
102
RTVSPost2010PropOp41
 70
     1
102
RTVSPost2010Prop42
 90
       50
102
RTVSPost2010PropOp42
 70
     1
102
RTVSPost2010Prop43
 90
        3
102
RTVSPost2010PropOp43
 70
     1
102
RTVSPost2010Prop44ColorIndex
 90
        5
102
RTVSPost2010Prop44ColorRGB
 90
      255
102
RTVSPost2010PropOp44
 70
     1
102
RTVSPost2010Prop45
280
     0
102
RTVSPost2010PropOp45
 70
     1
102
RTVSPost2010Prop46
 90
       50
102
RTVSPost2010PropOp46
 70
     1
102
RTVSPost2010Prop47
 90
       50
102
RTVSPost2010PropOp47
 70
     1
102
RTVSPost2010Prop48
 90
       50
102
RTVSPost2010PropOp48
 70
     1
102
RTVSPost2010Prop49
280
     0
102
RTVSPost2010PropOp49
 70
     1
102
RTVSPost2010Prop50
 90
       50
102
RTVSPost2010PropOp50
 70
     1
102
RTVSPost2010Prop51ColorIndex
 90
      256
102
RTVSPost2010Prop51ColorRGB
 90
-16777216
102
RTVSPost2010PropOp51
 70
     0
102
RTVSPost2010Prop52
140
1.0
102
RTVSPost2010PropOp52
 70
     0
102
RTVSPost2010Prop53
 90
        2
102
RTVSPost2010PropOp53
 70
     1
102
RTVSPost2010Prop54
  1
strokes_ogs.tif
102
RTVSPost2010PropOp54
 70
     1
102
RTVSPost2010Prop55
280
     0
102
RTVSPost2010PropOp55
 70
     1
102
RTVSPost2010Prop56
140
1.0
102
RTVSPost2010PropOp56
 70
     1
102
RTVSPost2010Prop57
140
1.0
102
RTVSPost2010PropOp57
 70
     1
  0
XRECORD
  5
3D2
102
{ACAD_REACTORS
330
3D1
102
}
330
3D1
100
AcDbXrecord
280
     1
102
RTVSPropertyOp0
 70
     1
102
RTVSPropertyOp1
 70
     1
102
RTVSPropertyOp2
 70
     1
102
RTVSPropertyOp3
 70
     1
102
RTVSPropertyOp4
 70
     1
102
RTVSPropertyOp5
 70
     1
102
RTVSPropertyOp6
 70
     1
102
RTVSPropertyOp7
 70
     1
102
RTVSPropertyOp8
 70
     1
102
RTVSPropertyOp9
 70
     1
102
RTVSPropertyOp10
 70
     1
102
RTVSPropertyOp11
 70
     1
102
RTVSPropertyOp12
 70
     1
102
RTVSPropertyOp13
 70
     1
102
RTVSPropertyOp14
 70
     1
102
RTVSPropertyOp15
 70
     1
102
RTVSPropertyOp16
 70
     1
102
RTVSPropertyOp17
 70
     1
102
RTVSPropertyOp18
 70
     1
102
RTVSPropertyOp19
 70
     1
102
RTVSPropertyOp20
 70
     1
102
RTVSPropertyOp21
 70
     1
102
RTVSPropertyOp22
 70
     1
102
RTVSPropertyOp23
 70
     1
102
RTVSPropertyOp24
 70
     1
102
RTVSPropertyOp25
 70
     1
102
RTVSPropertyOp26
 70
     1
102
RTVSPropertyOp27
 70
     1
102
RTVSPropertyOp28
 70
     1
102
RTVSPropertyOp29
 70
     1
102
RTVSPropertyOp30
 70
     1
102
RTVSPropertyOp31
 70
     1
102
RTVSPropertyOp32
 70
     1
102
RTVSPropertyOp33
 70
     1
102
RTVSPropertyOp34
 70
     1
102
RTVSPropertyOp35
 70
     1
102
RTVSPropertyOp36
 70
     1
102
RTVSPropertyOp37
 70
     1
102
RTVSPropertyOp38
 70
     1
102
RTVSPropertyOp39
 70
     1
102
RTVSPropertyOp40
 70
     1
102
RTVSPropertyOp41
 70
     1
102
RTVSPropertyOp42
 70
     1
102
RTVSPropertyOp43
 70
     1
102
RTVSPropertyOp44
 70
     1
102
RTVSPropertyOp45
 70
     1
102
RTVSPropertyOp46
 70
     1
102
RTVSPropertyOp47
 70
     1
102
RTVSPropertyOp48
 70
     1
102
RTVSPropertyOp49
 70
     1
102
RTVSPropertyOp50
 70
     1
102
RTVSPropertyOp51
 70
     0
102
RTVSPropertyOp52
 70
     0
102
RTVSPropertyOp53
 70
     1
102
RTVSPropertyOp54
 70
     1
102
RTVSPropertyOp55
 70
     1
102
RTVSPropertyOp56
 70
     1
102
RTVSPropertyOp57
 70
     1
102
RTVSPost2010Prop28
280
     0
102
RTVSPost2010PropOp28
 70
     1
102
RTVSPost2010Prop29
280
     1
102
RTVSPost2010PropOp29
 70
     1
102
RTVSPost2010Prop30
280
     1
102
RTVSPost2010PropOp30
 70
     1
102
RTVSPost2010Prop31
280
     0
102
RTVSPost2010PropOp31
 70
     1
102
RTVSPost2010Prop32
280
     0
102
RTVSPost2010PropOp32
 70
     1
102
RTVSPost2010Prop33
280
     0
102
RTVSPost2010PropOp33
 70
     1
102
RTVSPost2010Prop34
280
     0
102
RTVSPost2010PropOp34
 70
     1
102
RTVSPost2010Prop35
280
     0
102
RTVSPost2010PropOp35
 70
     1
102
RTVSPost2010Prop36
280
     0
102
RTVSPost2010PropOp36
 70
     1
102
RTVSPost2010Prop37
 90
       50
102
RTVSPost2010PropOp37
 70
     1
102
RTVSPost2010Prop38
140
0.0
102
RTVSPost2010PropOp38
 70
     1
102
RTVSPost2010Prop39
140
1.0
102
RTVSPost2010PropOp39
 70
     1
102
RTVSPost2010Prop40
 90
        0
102
RTVSPost2010PropOp40
 70
     1
102
RTVSPost2010Prop41ColorIndex
 90
       18
102
RTVSPost2010Prop41ColorRGB
 90
        0
102
RTVSPost2010PropOp41
 70
     1
102
RTVSPost2010Prop42
 90
       50
102
RTVSPost2010PropOp42
 70
     1
102
RTVSPost2010Prop43
 90
        3
102
RTVSPost2010PropOp43
 70
     1
102
RTVSPost2010Prop44ColorIndex
 90
        5
102
RTVSPost2010Prop44ColorRGB
 90
      255
102
RTVSPost2010PropOp44
 70
     1
102
RTVSPost2010Prop45
280
     0
102
RTVSPost2010PropOp45
 70
     1
102
RTVSPost2010Prop46
 90
       50
102
RTVSPost2010PropOp46
 70
     1
102
RTVSPost2010Prop47
 90
       50
102
RTVSPost2010PropOp47
 70
     1
102
RTVSPost2010Prop48
 90
       50
102
RTVSPost2010PropOp48
 70
     1
102
RTVSPost2010Prop49
280
     0
102
RTVSPost2010PropOp49
 70
     1
102
RTVSPost2010Prop50
 90
       50
102
RTVSPost2010PropOp50
 70
     1
102
RTVSPost2010Prop51ColorIndex
 90
      256
102
RTVSPost2010Prop51ColorRGB
 90
-16777216
102
RTVSPost2010PropOp51
 70
     0
102
RTVSPost2010Prop52
140
1.0
102
RTVSPost2010PropOp52
 70
     0
102
RTVSPost2010Prop53
 90
        2
102
RTVSPost2010PropOp53
 70
     1
102
RTVSPost2010Prop54
  1
strokes_ogs.tif
102
RTVSPost2010PropOp54
 70
     1
102
RTVSPost2010Prop55
280
     0
102
RTVSPost2010PropOp55
 70
     1
102
RTVSPost2010Prop56
140
1.0
102
RTVSPost2010PropOp56
 70
     1
102
RTVSPost2010Prop57
140
1.0
102
RTVSPost2010PropOp57
 70
     1
  0
XRECORD
  5
3CC
102
{ACAD_REACTORS
330
3CB
102
}
330
3CB
100
AcDbXrecord
280
     1
102
RTVSPropertyOp0
 70
     1
102
RTVSPropertyOp1
 70
     1
102
RTVSPropertyOp2
 70
     1
102
RTVSPropertyOp3
 70
     1
102
RTVSPropertyOp4
 70
     1
102
RTVSPropertyOp5
 70
     1
102
RTVSPropertyOp6
 70
     1
102
RTVSPropertyOp7
 70
     1
102
RTVSPropertyOp8
 70
     1
102
RTVSPropertyOp9
 70
     1
102
RTVSPropertyOp10
 70
     1
102
RTVSPropertyOp11
 70
     1
102
RTVSPropertyOp12
 70
     1
102
RTVSPropertyOp13
 70
     1
102
RTVSPropertyOp14
 70
     1
102
RTVSPropertyOp15
 70
     1
102
RTVSPropertyOp16
 70
     1
102
RTVSPropertyOp17
 70
     1
102
RTVSPropertyOp18
 70
     1
102
RTVSPropertyOp19
 70
     1
102
RTVSPropertyOp20
 70
     1
102
RTVSPropertyOp21
 70
     1
102
RTVSPropertyOp22
 70
     1
102
RTVSPropertyOp23
 70
     1
102
RTVSPropertyOp24
 70
     1
102
RTVSPropertyOp25
 70
     1
102
RTVSPropertyOp26
 70
     1
102
RTVSPropertyOp27
 70
     1
102
RTVSPropertyOp28
 70
     1
102
RTVSPropertyOp29
 70
     1
102
RTVSPropertyOp30
 70
     1
102
RTVSPropertyOp31
 70
     1
102
RTVSPropertyOp32
 70
     1
102
RTVSPropertyOp33
 70
     1
102
RTVSPropertyOp34
 70
     1
102
RTVSPropertyOp35
 70
     1
102
RTVSPropertyOp36
 70
     1
102
RTVSPropertyOp37
 70
     1
102
RTVSPropertyOp38
 70
     1
102
RTVSPropertyOp39
 70
     1
102
RTVSPropertyOp40
 70
     1
102
RTVSPropertyOp41
 70
     1
102
RTVSPropertyOp42
 70
     1
102
RTVSPropertyOp43
 70
     1
102
RTVSPropertyOp44
 70
     1
102
RTVSPropertyOp45
 70
     1
102
RTVSPropertyOp46
 70
     1
102
RTVSPropertyOp47
 70
     1
102
RTVSPropertyOp48
 70
     1
102
RTVSPropertyOp49
 70
     1
102
RTVSPropertyOp50
 70
     1
102
RTVSPropertyOp51
 70
     0
102
RTVSPropertyOp52
 70
     0
102
RTVSPropertyOp53
 70
     1
102
RTVSPropertyOp54
 70
     1
102
RTVSPropertyOp55
 70
     1
102
RTVSPropertyOp56
 70
     1
102
RTVSPropertyOp57
 70
     1
102
RTVSPost2010Prop28
280
     0
102
RTVSPost2010PropOp28
 70
     1
102
RTVSPost2010Prop29
280
     1
102
RTVSPost2010PropOp29
 70
     1
102
RTVSPost2010Prop30
280
     1
102
RTVSPost2010PropOp30
 70
     1
102
RTVSPost2010Prop31
280
     0
102
RTVSPost2010PropOp31
 70
     1
102
RTVSPost2010Prop32
280
     0
102
RTVSPost2010PropOp32
 70
     1
102
RTVSPost2010Prop33
280
     0
102
RTVSPost2010PropOp33
 70
     1
102
RTVSPost2010Prop34
280
     0
102
RTVSPost2010PropOp34
 70
     1
102
RTVSPost2010Prop35
280
     0
102
RTVSPost2010PropOp35
 70
     1
102
RTVSPost2010Prop36
280
     0
102
RTVSPost2010PropOp36
 70
     1
102
RTVSPost2010Prop37
 90
       50
102
RTVSPost2010PropOp37
 70
     1
102
RTVSPost2010Prop38
140
0.0
102
RTVSPost2010PropOp38
 70
     1
102
RTVSPost2010Prop39
140
1.0
102
RTVSPost2010PropOp39
 70
     1
102
RTVSPost2010Prop40
 90
        0
102
RTVSPost2010PropOp40
 70
     1
102
RTVSPost2010Prop41ColorIndex
 90
       18
102
RTVSPost2010Prop41ColorRGB
 90
        0
102
RTVSPost2010PropOp41
 70
     1
102
RTVSPost2010Prop42
 90
       50
102
RTVSPost2010PropOp42
 70
     1
102
RTVSPost2010Prop43
 90
        3
102
RTVSPost2010PropOp43
 70
     1
102
RTVSPost2010Prop44ColorIndex
 90
        5
102
RTVSPost2010Prop44ColorRGB
 90
      255
102
RTVSPost2010PropOp44
 70
     1
102
RTVSPost2010Prop45
280
     0
102
RTVSPost2010PropOp45
 70
     1
102
RTVSPost2010Prop46
 90
       50
102
RTVSPost2010PropOp46
 70
     1
102
RTVSPost2010Prop47
 90
       50
102
RTVSPost2010PropOp47
 70
     1
102
RTVSPost2010Prop48
 90
       50
102
RTVSPost2010PropOp48
 70
     1
102
RTVSPost2010Prop49
280
     0
102
RTVSPost2010PropOp49
 70
     1
102
RTVSPost2010Prop50
 90
       50
102
RTVSPost2010PropOp50
 70
     1
102
RTVSPost2010Prop51ColorIndex
 90
      256
102
RTVSPost2010Prop51ColorRGB
 90
-16777216
102
RTVSPost2010PropOp51
 70
     0
102
RTVSPost2010Prop52
140
1.0
102
RTVSPost2010PropOp52
 70
     0
102
RTVSPost2010Prop53
 90
        2
102
RTVSPost2010PropOp53
 70
     1
102
RTVSPost2010Prop54
  1
strokes_ogs.tif
102
RTVSPost2010PropOp54
 70
     1
102
RTVSPost2010Prop55
280
     0
102
RTVSPost2010PropOp55
 70
     1
102
RTVSPost2010Prop56
140
1.0
102
RTVSPost2010PropOp56
 70
     1
102
RTVSPost2010Prop57
140
1.0
102
RTVSPost2010PropOp57
 70
     1
  0
XRECORD
  5
3CE
102
{ACAD_REACTORS
330
3CD
102
}
330
3CD
100
AcDbXrecord
280
     1
102
RTVSPropertyOp0
 70
     1
102
RTVSPropertyOp1
 70
     1
102
RTVSPropertyOp2
 70
     1
102
RTVSPropertyOp3
 70
     1
102
RTVSPropertyOp4
 70
     1
102
RTVSPropertyOp5
 70
     1
102
RTVSPropertyOp6
 70
     1
102
RTVSPropertyOp7
 70
     1
102
RTVSPropertyOp8
 70
     1
102
RTVSPropertyOp9
 70
     1
102
RTVSPropertyOp10
 70
     1
102
RTVSPropertyOp11
 70
     1
102
RTVSPropertyOp12
 70
     1
102
RTVSPropertyOp13
 70
     1
102
RTVSPropertyOp14
 70
     1
102
RTVSPropertyOp15
 70
     1
102
RTVSPropertyOp16
 70
     1
102
RTVSPropertyOp17
 70
     1
102
RTVSPropertyOp18
 70
     1
102
RTVSPropertyOp19
 70
     1
102
RTVSPropertyOp20
 70
     1
102
RTVSPropertyOp21
 70
     1
102
RTVSPropertyOp22
 70
     1
102
RTVSPropertyOp23
 70
     1
102
RTVSPropertyOp24
 70
     1
102
RTVSPropertyOp25
 70
     1
102
RTVSPropertyOp26
 70
     1
102
RTVSPropertyOp27
 70
     1
102
RTVSPropertyOp28
 70
     1
102
RTVSPropertyOp29
 70
     1
102
RTVSPropertyOp30
 70
     1
102
RTVSPropertyOp31
 70
     1
102
RTVSPropertyOp32
 70
     1
102
RTVSPropertyOp33
 70
     1
102
RTVSPropertyOp34
 70
     1
102
RTVSPropertyOp35
 70
     1
102
RTVSPropertyOp36
 70
     1
102
RTVSPropertyOp37
 70
     1
102
RTVSPropertyOp38
 70
     1
102
RTVSPropertyOp39
 70
     1
102
RTVSPropertyOp40
 70
     1
102
RTVSPropertyOp41
 70
     1
102
RTVSPropertyOp42
 70
     1
102
RTVSPropertyOp43
 70
     1
102
RTVSPropertyOp44
 70
     1
102
RTVSPropertyOp45
 70
     1
102
RTVSPropertyOp46
 70
     1
102
RTVSPropertyOp47
 70
     1
102
RTVSPropertyOp48
 70
     1
102
RTVSPropertyOp49
 70
     1
102
RTVSPropertyOp50
 70
     1
102
RTVSPropertyOp51
 70
     0
102
RTVSPropertyOp52
 70
     0
102
RTVSPropertyOp53
 70
     1
102
RTVSPropertyOp54
 70
     1
102
RTVSPropertyOp55
 70
     1
102
RTVSPropertyOp56
 70
     1
102
RTVSPropertyOp57
 70
     1
102
RTVSPost2010Prop28
280
     0
102
RTVSPost2010PropOp28
 70
     1
102
RTVSPost2010Prop29
280
     1
102
RTVSPost2010PropOp29
 70
     1
102
RTVSPost2010Prop30
280
     1
102
RTVSPost2010PropOp30
 70
     1
102
RTVSPost2010Prop31
280
     0
102
RTVSPost2010PropOp31
 70
     1
102
RTVSPost2010Prop32
280
     0
102
RTVSPost2010PropOp32
 70
     1
102
RTVSPost2010Prop33
280
     0
102
RTVSPost2010PropOp33
 70
     1
102
RTVSPost2010Prop34
280
     0
102
RTVSPost2010PropOp34
 70
     1
102
RTVSPost2010Prop35
280
     0
102
RTVSPost2010PropOp35
 70
     1
102
RTVSPost2010Prop36
280
     0
102
RTVSPost2010PropOp36
 70
     1
102
RTVSPost2010Prop37
 90
       50
102
RTVSPost2010PropOp37
 70
     1
102
RTVSPost2010Prop38
140
0.0
102
RTVSPost2010PropOp38
 70
     1
102
RTVSPost2010Prop39
140
1.0
102
RTVSPost2010PropOp39
 70
     1
102
RTVSPost2010Prop40
 90
        0
102
RTVSPost2010PropOp40
 70
     1
102
RTVSPost2010Prop41ColorIndex
 90
       18
102
RTVSPost2010Prop41ColorRGB
 90
        0
102
RTVSPost2010PropOp41
 70
     1
102
RTVSPost2010Prop42
 90
       50
102
RTVSPost2010PropOp42
 70
     1
102
RTVSPost2010Prop43
 90
        3
102
RTVSPost2010PropOp43
 70
     1
102
RTVSPost2010Prop44ColorIndex
 90
        5
102
RTVSPost2010Prop44ColorRGB
 90
      255
102
RTVSPost2010PropOp44
 70
     1
102
RTVSPost2010Prop45
280
     0
102
RTVSPost2010PropOp45
 70
     1
102
RTVSPost2010Prop46
 90
       50
102
RTVSPost2010PropOp46
 70
     1
102
RTVSPost2010Prop47
 90
       50
102
RTVSPost2010PropOp47
 70
     1
102
RTVSPost2010Prop48
 90
       50
102
RTVSPost2010PropOp48
 70
     1
102
RTVSPost2010Prop49
280
     0
102
RTVSPost2010PropOp49
 70
     1
102
RTVSPost2010Prop50
 90
       50
102
RTVSPost2010PropOp50
 70
     1
102
RTVSPost2010Prop51ColorIndex
 90
      256
102
RTVSPost2010Prop51ColorRGB
 90
-16777216
102
RTVSPost2010PropOp51
 70
     0
102
RTVSPost2010Prop52
140
1.0
102
RTVSPost2010PropOp52
 70
     0
102
RTVSPost2010Prop53
 90
        2
102
RTVSPost2010PropOp53
 70
     1
102
RTVSPost2010Prop54
  1
strokes_ogs.tif
102
RTVSPost2010PropOp54
 70
     1
102
RTVSPost2010Prop55
280
     0
102
RTVSPost2010PropOp55
 70
     1
102
RTVSPost2010Prop56
140
1.0
102
RTVSPost2010PropOp56
 70
     1
102
RTVSPost2010Prop57
140
1.0
102
RTVSPost2010PropOp57
 70
     1
  0
XRECORD
  5
3BE
102
{ACAD_REACTORS
330
3BD
102
}
330
3BD
100
AcDbXrecord
280
     1
102
RTVSPropertyOp0
 70
     1
102
RTVSPropertyOp1
 70
     1
102
RTVSPropertyOp2
 70
     1
102
RTVSPropertyOp3
 70
     1
102
RTVSPropertyOp4
 70
     1
102
RTVSPropertyOp5
 70
     1
102
RTVSPropertyOp6
 70
     1
102
RTVSPropertyOp7
 70
     1
102
RTVSPropertyOp8
 70
     1
102
RTVSPropertyOp9
 70
     1
102
RTVSPropertyOp10
 70
     1
102
RTVSPropertyOp11
 70
     1
102
RTVSPropertyOp12
 70
     1
102
RTVSPropertyOp13
 70
     1
102
RTVSPropertyOp14
 70
     1
102
RTVSPropertyOp15
 70
     1
102
RTVSPropertyOp16
 70
     1
102
RTVSPropertyOp17
 70
     1
102
RTVSPropertyOp18
 70
     1
102
RTVSPropertyOp19
 70
     1
102
RTVSPropertyOp20
 70
     1
102
RTVSPropertyOp21
 70
     1
102
RTVSPropertyOp22
 70
     1
102
RTVSPropertyOp23
 70
     1
102
RTVSPropertyOp24
 70
     1
102
RTVSPropertyOp25
 70
     1
102
RTVSPropertyOp26
 70
     1
102
RTVSPropertyOp27
 70
     1
102
RTVSPropertyOp28
 70
     1
102
RTVSPropertyOp29
 70
     1
102
RTVSPropertyOp30
 70
     1
102
RTVSPropertyOp31
 70
     1
102
RTVSPropertyOp32
 70
     1
102
RTVSPropertyOp33
 70
     1
102
RTVSPropertyOp34
 70
     1
102
RTVSPropertyOp35
 70
     1
102
RTVSPropertyOp36
 70
     1
102
RTVSPropertyOp37
 70
     1
102
RTVSPropertyOp38
 70
     1
102
RTVSPropertyOp39
 70
     1
102
RTVSPropertyOp40
 70
     1
102
RTVSPropertyOp41
 70
     1
102
RTVSPropertyOp42
 70
     1
102
RTVSPropertyOp43
 70
     1
102
RTVSPropertyOp44
 70
     1
102
RTVSPropertyOp45
 70
     1
102
RTVSPropertyOp46
 70
     1
102
RTVSPropertyOp47
 70
     1
102
RTVSPropertyOp48
 70
     1
102
RTVSPropertyOp49
 70
     1
102
RTVSPropertyOp50
 70
     1
102
RTVSPropertyOp51
 70
     0
102
RTVSPropertyOp52
 70
     0
102
RTVSPropertyOp53
 70
     1
102
RTVSPropertyOp54
 70
     1
102
RTVSPropertyOp55
 70
     1
102
RTVSPropertyOp56
 70
     1
102
RTVSPropertyOp57
 70
     1
102
RTVSPost2010Prop28
280
     0
102
RTVSPost2010PropOp28
 70
     1
102
RTVSPost2010Prop29
280
     1
102
RTVSPost2010PropOp29
 70
     1
102
RTVSPost2010Prop30
280
     1
102
RTVSPost2010PropOp30
 70
     1
102
RTVSPost2010Prop31
280
     0
102
RTVSPost2010PropOp31
 70
     1
102
RTVSPost2010Prop32
280
     0
102
RTVSPost2010PropOp32
 70
     1
102
RTVSPost2010Prop33
280
     0
102
RTVSPost2010PropOp33
 70
     1
102
RTVSPost2010Prop34
280
     0
102
RTVSPost2010PropOp34
 70
     1
102
RTVSPost2010Prop35
280
     0
102
RTVSPost2010PropOp35
 70
     1
102
RTVSPost2010Prop36
280
     0
102
RTVSPost2010PropOp36
 70
     1
102
RTVSPost2010Prop37
 90
       50
102
RTVSPost2010PropOp37
 70
     1
102
RTVSPost2010Prop38
140
0.0
102
RTVSPost2010PropOp38
 70
     1
102
RTVSPost2010Prop39
140
1.0
102
RTVSPost2010PropOp39
 70
     1
102
RTVSPost2010Prop40
 90
        0
102
RTVSPost2010PropOp40
 70
     1
102
RTVSPost2010Prop41ColorIndex
 90
       18
102
RTVSPost2010Prop41ColorRGB
 90
        0
102
RTVSPost2010PropOp41
 70
     1
102
RTVSPost2010Prop42
 90
       50
102
RTVSPost2010PropOp42
 70
     1
102
RTVSPost2010Prop43
 90
        3
102
RTVSPost2010PropOp43
 70
     1
102
RTVSPost2010Prop44ColorIndex
 90
        5
102
RTVSPost2010Prop44ColorRGB
 90
      255
102
RTVSPost2010PropOp44
 70
     1
102
RTVSPost2010Prop45
280
     0
102
RTVSPost2010PropOp45
 70
     1
102
RTVSPost2010Prop46
 90
       50
102
RTVSPost2010PropOp46
 70
     1
102
RTVSPost2010Prop47
 90
       50
102
RTVSPost2010PropOp47
 70
     1
102
RTVSPost2010Prop48
 90
       50
102
RTVSPost2010PropOp48
 70
     1
102
RTVSPost2010Prop49
280
     0
102
RTVSPost2010PropOp49
 70
     1
102
RTVSPost2010Prop50
 90
       50
102
RTVSPost2010PropOp50
 70
     1
102
RTVSPost2010Prop51ColorIndex
 90
      256
102
RTVSPost2010Prop51ColorRGB
 90
-16777216
102
RTVSPost2010PropOp51
 70
     0
102
RTVSPost2010Prop52
140
1.0
102
RTVSPost2010PropOp52
 70
     0
102
RTVSPost2010Prop53
 90
        2
102
RTVSPost2010PropOp53
 70
     1
102
RTVSPost2010Prop54
  1
strokes_ogs.tif
102
RTVSPost2010PropOp54
 70
     1
102
RTVSPost2010Prop55
280
     0
102
RTVSPost2010PropOp55
 70
     1
102
RTVSPost2010Prop56
140
1.0
102
RTVSPost2010PropOp56
 70
     1
102
RTVSPost2010Prop57
140
1.0
102
RTVSPost2010PropOp57
 70
     1
  0
XRECORD
  5
3B0
102
{ACAD_REACTORS
330
3AF
102
}
330
3AF
100
AcDbXrecord
280
     1
102
RTVSPropertyOp0
 70
     1
102
RTVSPropertyOp1
 70
     1
102
RTVSPropertyOp2
 70
     1
102
RTVSPropertyOp3
 70
     1
102
RTVSPropertyOp4
 70
     1
102
RTVSPropertyOp5
 70
     1
102
RTVSPropertyOp6
 70
     1
102
RTVSPropertyOp7
 70
     1
102
RTVSPropertyOp8
 70
     1
102
RTVSPropertyOp9
 70
     1
102
RTVSPropertyOp10
 70
     1
102
RTVSPropertyOp11
 70
     1
102
RTVSPropertyOp12
 70
     1
102
RTVSPropertyOp13
 70
     1
102
RTVSPropertyOp14
 70
     1
102
RTVSPropertyOp15
 70
     1
102
RTVSPropertyOp16
 70
     1
102
RTVSPropertyOp17
 70
     1
102
RTVSPropertyOp18
 70
     1
102
RTVSPropertyOp19
 70
     1
102
RTVSPropertyOp20
 70
     1
102
RTVSPropertyOp21
 70
     1
102
RTVSPropertyOp22
 70
     1
102
RTVSPropertyOp23
 70
     1
102
RTVSPropertyOp24
 70
     1
102
RTVSPropertyOp25
 70
     1
102
RTVSPropertyOp26
 70
     1
102
RTVSPropertyOp27
 70
     1
102
RTVSPropertyOp28
 70
     1
102
RTVSPropertyOp29
 70
     1
102
RTVSPropertyOp30
 70
     1
102
RTVSPropertyOp31
 70
     1
102
RTVSPropertyOp32
 70
     1
102
RTVSPropertyOp33
 70
     1
102
RTVSPropertyOp34
 70
     1
102
RTVSPropertyOp35
 70
     1
102
RTVSPropertyOp36
 70
     1
102
RTVSPropertyOp37
 70
     1
102
RTVSPropertyOp38
 70
     1
102
RTVSPropertyOp39
 70
     1
102
RTVSPropertyOp40
 70
     1
102
RTVSPropertyOp41
 70
     1
102
RTVSPropertyOp42
 70
     1
102
RTVSPropertyOp43
 70
     1
102
RTVSPropertyOp44
 70
     1
102
RTVSPropertyOp45
 70
     1
102
RTVSPropertyOp46
 70
     1
102
RTVSPropertyOp47
 70
     1
102
RTVSPropertyOp48
 70
     1
102
RTVSPropertyOp49
 70
     1
102
RTVSPropertyOp50
 70
     1
102
RTVSPropertyOp51
 70
     0
102
RTVSPropertyOp52
 70
     0
102
RTVSPropertyOp53
 70
     1
102
RTVSPropertyOp54
 70
     1
102
RTVSPropertyOp55
 70
     1
102
RTVSPropertyOp56
 70
     1
102
RTVSPropertyOp57
 70
     1
102
RTVSPost2010Prop28
280
     0
102
RTVSPost2010PropOp28
 70
     1
102
RTVSPost2010Prop29
280
     1
102
RTVSPost2010PropOp29
 70
     1
102
RTVSPost2010Prop30
280
     1
102
RTVSPost2010PropOp30
 70
     1
102
RTVSPost2010Prop31
280
     0
102
RTVSPost2010PropOp31
 70
     1
102
RTVSPost2010Prop32
280
     0
102
RTVSPost2010PropOp32
 70
     1
102
RTVSPost2010Prop33
280
     0
102
RTVSPost2010PropOp33
 70
     1
102
RTVSPost2010Prop34
280
     0
102
RTVSPost2010PropOp34
 70
     1
102
RTVSPost2010Prop35
280
     0
102
RTVSPost2010PropOp35
 70
     1
102
RTVSPost2010Prop36
280
     0
102
RTVSPost2010PropOp36
 70
     1
102
RTVSPost2010Prop37
 90
       50
102
RTVSPost2010PropOp37
 70
     1
102
RTVSPost2010Prop38
140
0.0
102
RTVSPost2010PropOp38
 70
     1
102
RTVSPost2010Prop39
140
1.0
102
RTVSPost2010PropOp39
 70
     1
102
RTVSPost2010Prop40
 90
        0
102
RTVSPost2010PropOp40
 70
     1
102
RTVSPost2010Prop41ColorIndex
 90
       18
102
RTVSPost2010Prop41ColorRGB
 90
        0
102
RTVSPost2010PropOp41
 70
     1
102
RTVSPost2010Prop42
 90
       50
102
RTVSPost2010PropOp42
 70
     1
102
RTVSPost2010Prop43
 90
        3
102
RTVSPost2010PropOp43
 70
     1
102
RTVSPost2010Prop44ColorIndex
 90
        5
102
RTVSPost2010Prop44ColorRGB
 90
      255
102
RTVSPost2010PropOp44
 70
     1
102
RTVSPost2010Prop45
280
     0
102
RTVSPost2010PropOp45
 70
     1
102
RTVSPost2010Prop46
 90
       50
102
RTVSPost2010PropOp46
 70
     1
102
RTVSPost2010Prop47
 90
       50
102
RTVSPost2010PropOp47
 70
     1
102
RTVSPost2010Prop48
 90
       50
102
RTVSPost2010PropOp48
 70
     1
102
RTVSPost2010Prop49
280
     0
102
RTVSPost2010PropOp49
 70
     1
102
RTVSPost2010Prop50
 90
       50
102
RTVSPost2010PropOp50
 70
     1
102
RTVSPost2010Prop51ColorIndex
 90
      256
102
RTVSPost2010Prop51ColorRGB
 90
-16777216
102
RTVSPost2010PropOp51
 70
     0
102
RTVSPost2010Prop52
140
1.0
102
RTVSPost2010PropOp52
 70
     0
102
RTVSPost2010Prop53
 90
        2
102
RTVSPost2010PropOp53
 70
     1
102
RTVSPost2010Prop54
  1
strokes_ogs.tif
102
RTVSPost2010PropOp54
 70
     1
102
RTVSPost2010Prop55
280
     0
102
RTVSPost2010PropOp55
 70
     1
102
RTVSPost2010Prop56
140
1.0
102
RTVSPost2010PropOp56
 70
     1
102
RTVSPost2010Prop57
140
1.0
102
RTVSPost2010PropOp57
 70
     1
  0
XRECORD
  5
3D0
102
{ACAD_REACTORS
330
3CF
102
}
330
3CF
100
AcDbXrecord
280
     1
102
RTVSPropertyOp0
 70
     1
102
RTVSPropertyOp1
 70
     1
102
RTVSPropertyOp2
 70
     1
102
RTVSPropertyOp3
 70
     1
102
RTVSPropertyOp4
 70
     1
102
RTVSPropertyOp5
 70
     1
102
RTVSPropertyOp6
 70
     1
102
RTVSPropertyOp7
 70
     1
102
RTVSPropertyOp8
 70
     1
102
RTVSPropertyOp9
 70
     1
102
RTVSPropertyOp10
 70
     1
102
RTVSPropertyOp11
 70
     1
102
RTVSPropertyOp12
 70
     1
102
RTVSPropertyOp13
 70
     1
102
RTVSPropertyOp14
 70
     1
102
RTVSPropertyOp15
 70
     1
102
RTVSPropertyOp16
 70
     1
102
RTVSPropertyOp17
 70
     1
102
RTVSPropertyOp18
 70
     1
102
RTVSPropertyOp19
 70
     1
102
RTVSPropertyOp20
 70
     1
102
RTVSPropertyOp21
 70
     1
102
RTVSPropertyOp22
 70
     1
102
RTVSPropertyOp23
 70
     1
102
RTVSPropertyOp24
 70
     1
102
RTVSPropertyOp25
 70
     1
102
RTVSPropertyOp26
 70
     1
102
RTVSPropertyOp27
 70
     1
102
RTVSPropertyOp28
 70
     1
102
RTVSPropertyOp29
 70
     1
102
RTVSPropertyOp30
 70
     1
102
RTVSPropertyOp31
 70
     1
102
RTVSPropertyOp32
 70
     1
102
RTVSPropertyOp33
 70
     1
102
RTVSPropertyOp34
 70
     1
102
RTVSPropertyOp35
 70
     1
102
RTVSPropertyOp36
 70
     1
102
RTVSPropertyOp37
 70
     1
102
RTVSPropertyOp38
 70
     1
102
RTVSPropertyOp39
 70
     1
102
RTVSPropertyOp40
 70
     1
102
RTVSPropertyOp41
 70
     1
102
RTVSPropertyOp42
 70
     1
102
RTVSPropertyOp43
 70
     1
102
RTVSPropertyOp44
 70
     1
102
RTVSPropertyOp45
 70
     1
102
RTVSPropertyOp46
 70
     1
102
RTVSPropertyOp47
 70
     1
102
RTVSPropertyOp48
 70
     1
102
RTVSPropertyOp49
 70
     1
102
RTVSPropertyOp50
 70
     1
102
RTVSPropertyOp51
 70
     0
102
RTVSPropertyOp52
 70
     0
102
RTVSPropertyOp53
 70
     1
102
RTVSPropertyOp54
 70
     1
102
RTVSPropertyOp55
 70
     1
102
RTVSPropertyOp56
 70
     1
102
RTVSPropertyOp57
 70
     1
102
RTVSPost2010Prop28
280
     0
102
RTVSPost2010PropOp28
 70
     1
102
RTVSPost2010Prop29
280
     1
102
RTVSPost2010PropOp29
 70
     1
102
RTVSPost2010Prop30
280
     1
102
RTVSPost2010PropOp30
 70
     1
102
RTVSPost2010Prop31
280
     0
102
RTVSPost2010PropOp31
 70
     1
102
RTVSPost2010Prop32
280
     0
102
RTVSPost2010PropOp32
 70
     1
102
RTVSPost2010Prop33
280
     0
102
RTVSPost2010PropOp33
 70
     1
102
RTVSPost2010Prop34
280
     0
102
RTVSPost2010PropOp34
 70
     1
102
RTVSPost2010Prop35
280
     0
102
RTVSPost2010PropOp35
 70
     1
102
RTVSPost2010Prop36
280
     0
102
RTVSPost2010PropOp36
 70
     1
102
RTVSPost2010Prop37
 90
       50
102
RTVSPost2010PropOp37
 70
     1
102
RTVSPost2010Prop38
140
0.0
102
RTVSPost2010PropOp38
 70
     1
102
RTVSPost2010Prop39
140
1.0
102
RTVSPost2010PropOp39
 70
     1
102
RTVSPost2010Prop40
 90
        0
102
RTVSPost2010PropOp40
 70
     1
102
RTVSPost2010Prop41ColorIndex
 90
       18
102
RTVSPost2010Prop41ColorRGB
 90
        0
102
RTVSPost2010PropOp41
 70
     1
102
RTVSPost2010Prop42
 90
       50
102
RTVSPost2010PropOp42
 70
     1
102
RTVSPost2010Prop43
 90
        3
102
RTVSPost2010PropOp43
 70
     1
102
RTVSPost2010Prop44ColorIndex
 90
        5
102
RTVSPost2010Prop44ColorRGB
 90
      255
102
RTVSPost2010PropOp44
 70
     1
102
RTVSPost2010Prop45
280
     0
102
RTVSPost2010PropOp45
 70
     1
102
RTVSPost2010Prop46
 90
       50
102
RTVSPost2010PropOp46
 70
     1
102
RTVSPost2010Prop47
 90
       50
102
RTVSPost2010PropOp47
 70
     1
102
RTVSPost2010Prop48
 90
       50
102
RTVSPost2010PropOp48
 70
     1
102
RTVSPost2010Prop49
280
     0
102
RTVSPost2010PropOp49
 70
     1
102
RTVSPost2010Prop50
 90
       50
102
RTVSPost2010PropOp50
 70
     1
102
RTVSPost2010Prop51ColorIndex
 90
      256
102
RTVSPost2010Prop51ColorRGB
 90
-16777216
102
RTVSPost2010PropOp51
 70
     0
102
RTVSPost2010Prop52
140
1.0
102
RTVSPost2010PropOp52
 70
     0
102
RTVSPost2010Prop53
 90
        2
102
RTVSPost2010PropOp53
 70
     1
102
RTVSPost2010Prop54
  1
strokes_ogs.tif
102
RTVSPost2010PropOp54
 70
     1
102
RTVSPost2010Prop55
280
     0
102
RTVSPost2010PropOp55
 70
     1
102
RTVSPost2010Prop56
140
1.0
102
RTVSPost2010PropOp56
 70
     1
102
RTVSPost2010Prop57
140
1.0
102
RTVSPost2010PropOp57
 70
     1
  0
ENDSEC
  0
EOF
