  0
SECTION
  2
HEADER
  9
$ACADVER
  1
AC1018
  9
$ACADMAINTVER
 70
     2
  9
$DWGCODEPAGE
  3
ANSI_932
  9
$TITLE
  1

  9
$SUBJECT
  1

  9
$AUTHOR
  1

  9
$KEYWORDS
  1

  9
$COMMENTS
  1

  9
$LASTSAVEDBY
  1

  9
$REVISIONNUMBER
  1

  9
$CUSTOMPROPERTYTAG
  1
AmdtFileType
  9
$CUSTOMPROPERTY
  1
84
  9
$INSBASE
 10
0.0
 20
0.0
 30
0.0
  9
$EXTMIN
 10
-4.201835015091091
 20
3206.007588112353
 30
0.0
  9
$EXTMAX
 10
4195.798164984909
 20
6176.007588112351
 30
520.0
  9
$LIMMIN
 10
-4.201835015091091
 20
3206.007588112353
  9
$LIMMAX
 10
4195.798164984909
 20
6176.007588112351
  9
$ORTHOMODE
 70
     0
  9
$REGENMODE
 70
     1
  9
$FILLMODE
 70
     1
  9
$QTEXTMODE
 70
     0
  9
$MIRRTEXT
 70
     1
  9
$LTSCALE
 40
10.0
  9
$ATTMODE
 70
     1
  9
$TEXTSIZE
 40
2.5
  9
$TRACEWID
 40
1.0
  9
$TEXTSTYLE
  7
STANDARD
  9
$CLAYER
  8
1
  9
$CELTYPE
  6
ByLayer
  9
$CECOLOR
 62
   256
  9
$CELTSCALE
 40
1.0
  9
$DISPSILH
 70
     0
  9
$DIMSCALE
 40
1.0
  9
$DIMASZ
 40
2.5
  9
$DIMEXO
 40
1.0
  9
$DIMDLI
 40
10.0
  9
$DIMRND
 40
0.0
  9
$DIMDLE
 40
0.0
  9
$DIMEXE
 40
1.0
  9
$DIMTP
 40
0.1
  9
$DIMTM
 40
0.1
  9
$DIMTXT
 40
3.0
  9
$DIMCEN
 40
0.0
  9
$DIMTSZ
 40
0.0
  9
$DIMTOL
 70
     0
  9
$DIMLIM
 70
     0
  9
$DIMTIH
 70
     0
  9
$DIMTOH
 70
     0
  9
$DIMSE1
 70
     0
  9
$DIMSE2
 70
     0
  9
$DIMTAD
 70
     3
  9
$DIMZIN
 70
     8
  9
$DIMBLK
  1
Open30
  9
$DIMASO
 70
     1
  9
$DIMSHO
 70
     1
  9
$DIMPOST
  1

  9
$DIMAPOST
  1
"
  9
$DIMALT
 70
     0
  9
$DIMALTD
 70
     2
  9
$DIMALTF
 40
0.0393701
  9
$DIMLFAC
 40
1.0
  9
$DIMTOFL
 70
     1
  9
$DIMTVP
 40
0.0
  9
$DIMTIX
 70
     0
  9
$DIMSOXD
 70
     0
  9
$DIMSAH
 70
     0
  9
$DIMBLK1
  1

  9
$DIMBLK2
  1

  9
$DIMSTYLE
  2
IGS
  9
$DIMCLRD
 70
   256
  9
$DIMCLRE
 70
   256
  9
$DIMCLRT
 70
     2
  9
$DIMTFAC
 40
0.71
  9
$DIMGAP
 40
1.5
  9
$DIMJUST
 70
     0
  9
$DIMSD1
 70
     0
  9
$DIMSD2
 70
     0
  9
$DIMTOLJ
 70
     0
  9
$DIMTZIN
 70
     8
  9
$DIMALTZ
 70
     0
  9
$DIMALTTZ
 70
     0
  9
$DIMUPT
 70
     0
  9
$DIMDEC
 70
     2
  9
$DIMTDEC
 70
     2
  9
$DIMALTU
 70
     2
  9
$DIMALTTD
 70
     2
  9
$DIMTXSTY
  7
STANDARD
  9
$DIMAUNIT
 70
     0
  9
$DIMADEC
 70
     0
  9
$DIMALTRND
 40
0.0
  9
$DIMAZIN
 70
     2
  9
$DIMDSEP
 70
    46
  9
$DIMATFIT
 70
     3
  9
$DIMFRAC
 70
     0
  9
$DIMLDRBLK
  1
Open30
  9
$DIMLUNIT
 70
     2
  9
$DIMLWD
 70
    -1
  9
$DIMLWE
 70
    -1
  9
$DIMTMOVE
 70
     0
  9
$LUNITS
 70
     2
  9
$LUPREC
 70
     2
  9
$SKETCHINC
 40
1.0
  9
$FILLETRAD
 40
0.0
  9
$AUNITS
 70
     0
  9
$AUPREC
 70
     0
  9
$MENU
  1
.
  9
$ELEVATION
 40
0.0
  9
$PELEVATION
 40
0.0
  9
$THICKNESS
 40
0.0
  9
$LIMCHECK
 70
     0
  9
$CHAMFERA
 40
25.0
  9
$CHAMFERB
 40
25.0
  9
$CHAMFERC
 40
20.0
  9
$CHAMFERD
 40
0.0
  9
$SKPOLY
 70
     0
  9
$TDCREATE
 40
2453999.354719329
  9
$TDUCREATE
 40
2453998.979719329
  9
$TDUPDATE
 40
2454719.480398761
  9
$TDUUPDATE
 40
2454719.105398762
  9
$TDINDWG
 40
0.0361969097
  9
$TDUSRTIMER
 40
0.0361969097
  9
$USRTIMER
 70
     1
  9
$ANGBASE
 50
0.0
  9
$ANGDIR
 70
     0
  9
$PDMODE
 70
     0
  9
$PDSIZE
 40
0.0
  9
$PLINEWID
 40
0.0
  9
$SPLFRAME
 70
     0
  9
$SPLINETYPE
 70
     6
  9
$SPLINESEGS
 70
     8
  9
$HANDSEED
  5
1957
  9
$SURFTAB1
 70
     6
  9
$SURFTAB2
 70
     6
  9
$SURFTYPE
 70
     6
  9
$SURFU
 70
     6
  9
$SURFV
 70
     6
  9
$UCSBASE
  2

  9
$UCSNAME
  2

  9
$UCSORG
 10
0.0
 20
0.0
 30
0.0
  9
$UCSXDIR
 10
1.0
 20
0.0
 30
0.0
  9
$UCSYDIR
 10
0.0
 20
1.0
 30
0.0
  9
$UCSORTHOREF
  2

  9
$UCSORTHOVIEW
 70
     0
  9
$UCSORGTOP
 10
0.0
 20
0.0
 30
0.0
  9
$UCSORGBOTTOM
 10
0.0
 20
0.0
 30
0.0
  9
$UCSORGLEFT
 10
0.0
 20
0.0
 30
0.0
  9
$UCSORGRIGHT
 10
0.0
 20
0.0
 30
0.0
  9
$UCSORGFRONT
 10
0.0
 20
0.0
 30
0.0
  9
$UCSORGBACK
 10
0.0
 20
0.0
 30
0.0
  9
$PUCSBASE
  2

  9
$PUCSNAME
  2

  9
$PUCSORG
 10
0.0
 20
0.0
 30
0.0
  9
$PUCSXDIR
 10
1.0
 20
0.0
 30
0.0
  9
$PUCSYDIR
 10
0.0
 20
1.0
 30
0.0
  9
$PUCSORTHOREF
  2

  9
$PUCSORTHOVIEW
 70
     0
  9
$PUCSORGTOP
 10
0.0
 20
0.0
 30
0.0
  9
$PUCSORGBOTTOM
 10
0.0
 20
0.0
 30
0.0
  9
$PUCSORGLEFT
 10
0.0
 20
0.0
 30
0.0
  9
$PUCSORGRIGHT
 10
0.0
 20
0.0
 30
0.0
  9
$PUCSORGFRONT
 10
0.0
 20
0.0
 30
0.0
  9
$PUCSORGBACK
 10
0.0
 20
0.0
 30
0.0
  9
$USERI1
 70
     0
  9
$USERI2
 70
     0
  9
$USERI3
 70
     0
  9
$USERI4
 70
     0
  9
$USERI5
 70
     0
  9
$USERR1
 40
0.0
  9
$USERR2
 40
0.0
  9
$USERR3
 40
0.0
  9
$USERR4
 40
0.0
  9
$USERR5
 40
0.0
  9
$WORLDVIEW
 70
     1
  9
$SHADEDGE
 70
     3
  9
$SHADEDIF
 70
    70
  9
$TILEMODE
 70
     1
  9
$MAXACTVP
 70
    64
  9
$PINSBASE
 10
0.0
 20
0.0
 30
0.0
  9
$PLIMCHECK
 70
     0
  9
$PEXTMIN
 10
1.000000000000000E+20
 20
1.000000000000000E+20
 30
1.000000000000000E+20
  9
$PEXTMAX
 10
-1.000000000000000E+20
 20
-1.000000000000000E+20
 30
-1.000000000000000E+20
  9
$PLIMMIN
 10
0.0
 20
0.0
  9
$PLIMMAX
 10
420.0
 20
297.0
  9
$UNITMODE
 70
     0
  9
$VISRETAIN
 70
     1
  9
$PLINEGEN
 70
     0
  9
$PSLTSCALE
 70
     1
  9
$TREEDEPTH
 70
  3020
  9
$CMLSTYLE
  2
Standard
  9
$CMLJUST
 70
     0
  9
$CMLSCALE
 40
20.0
  9
$PROXYGRAPHICS
 70
     1
  9
$MEASUREMENT
 70
     1
  9
$CELWEIGHT
370
    -1
  9
$ENDCAPS
280
     0
  9
$JOINSTYLE
280
     0
  9
$LWDISPLAY
290
     0
  9
$INSUNITS
 70
     4
  9
$HYPERLINKBASE
  1

  9
$STYLESHEET
  1
monochrome.ctb
  9
$XEDIT
290
     1
  9
$CEPSNTYPE
380
     0
  9
$PSTYLEMODE
290
     1
  9
$FINGERPRINTGUID
  2
{A179640A-E7AE-11D4-BDB4-00B0D0A1239A}
  9
$VERSIONGUID
  2
{6F6170C4-73E8-48E0-BC49-3E8301FAB25F}
  9
$EXTNAMES
290
     1
  9
$PSVPSCALE
 40
0.0
  9
$OLESTARTUP
290
     0
  9
$SORTENTS
280
   103
  9
$INDEXCTL
280
     1
  9
$HIDETEXT
280
     0
  9
$XCLIPFRAME
290
     0
  9
$HALOGAP
280
     0
  9
$OBSCOLOR
 70
   257
  9
$OBSLTYPE
280
     0
  9
$INTERSECTIONDISPLAY
280
     0
  9
$INTERSECTIONCOLOR
 70
   257
  9
$DIMASSOC
280
     1
  9
$PROJECTNAME
  1

  0
ENDSEC
  0
SECTION
  2
CLASSES
  0
CLASS
  1
ACDBDICTIONARYWDFLT
  2
AcDbDictionaryWithDefault
  3
ObjectDBX Classes
 90
        0
 91
        1
280
     0
281
     0
  0
CLASS
  1
ACDBPLACEHOLDER
  2
AcDbPlaceHolder
  3
ObjectDBX Classes
 90
        0
 91
        1
280
     0
281
     0
  0
CLASS
  1
LAYOUT
  2
AcDbLayout
  3
ObjectDBX Classes
 90
        0
 91
        3
280
     0
281
     0
  0
CLASS
  1
AMGSETTINGSOBJ
  2
AmgSettingsObj
  3
"AcadM|Product Description: AutoCAD Mechanical 2000|Company: Autodesk"
 90
        0
 91
       12
280
     0
281
     0
  0
CLASS
  1
AMGOBJPROPCFG
  2
AmgObjPropCfg
  3
"AmgLay|Product Description: AutoCAD Mechanical 2000|Company: Autodesk"
 90
        1
 91
        3
280
     0
281
     0
  0
CLASS
  1
ACME_DOCUMENT
  2
AcMeDbDoc
  3
AcMeServices
 90
        0
 91
        2
280
     0
281
     0
  0
CLASS
  1
ACMESCOPE
  2
AcMeScope
  3
AcMeServices
 90
        0
 91
        3
280
     0
281
     0
  0
CLASS
  1
ACMECOMMANDHISTORY
  2
AcMeCommandHistory
  3
AcMeServices
 90
        0
 91
        3
280
     0
281
     0
  0
CLASS
  1
DICTIONARYVAR
  2
AcDbDictionaryVar
  3
ObjectDBX Classes
 90
        0
 91
        4
280
     0
281
     0
  0
CLASS
  1
ACIMSYSVARMAN
  2
AcImSysVarManager
  3
AcMeServices
 90
        0
 91
       15
280
     0
281
     0
  0
CLASS
  1
ACIMREALSYSVAR
  2
AcImRealSysVar
  3
AcMeServices
 90
        0
 91
        9
280
     0
281
     0
  0
CLASS
  1
ACIMINTSYSVAR
  2
AcImIntSysVar
  3
AcMeServices
 90
        0
 91
       78
280
     0
281
     0
  0
CLASS
  1
ACMEDRAWINGMAN
  2
AcMeDrawingMan
  3
AcMeServices
 90
        0
 91
        3
280
     0
281
     0
  0
CLASS
  1
ACMEVIEW
  2
AcMeView
  3
AcMeServices
 90
        0
 91
        3
280
     0
281
     0
  0
CLASS
  1
ACDBENTITYCACHE
  2
AcMeEntityCache
  3
AcMeServices
 90
        0
 91
        1
280
     0
281
     0
  0
CLASS
  1
GSMANAGER
  2
AcMeGSManager
  3
AcMeServices
 90
        0
 91
        1
280
     0
281
     0
  0
CLASS
  1
AMDTINTERNALREACTOR
  2
AmdtInternalReactor
  3
AcMeServices
 90
        0
 91
        8
280
     0
281
     0
  0
CLASS
  1
ACMESTATEMGR
  2
AcMeStateMgr
  3
AcMeServices
 90
        0
 91
        3
280
     0
281
     0
  0
CLASS
  1
ACGREFMASTER
  2
AcGrefMaster
  3
AcAttribServices
 90
        0
 91
        3
280
     0
281
     0
  0
CLASS
  1
ACME_DATABASE
  2
AcMeDbDatabase
  3
AcMeServices
 90
        0
 91
        1
280
     0
281
     0
  0
CLASS
  1
ACRFINSADJUSTERMGR
  2
AcRfInsAdjusterMgr
  3
AcMeServices
 90
        0
 91
        1
280
     0
281
     0
  0
CLASS
  1
ACGREFACADMASTER
  2
AcGrefacadMaster
  3
AcGrefServices
 90
        0
 91
        3
280
     0
281
     0
  0
CLASS
  1
AMIMASTER
  2
AmiMaster
  3
AmiServices
 90
        0
 91
        3
280
     0
281
     0
  0
CLASS
  1
ACMDATADICTIONARY
  2
AcmDataDictionary
  3
"AcmSymBB|Product Description: AutoCAD Mechanical 2004 DX|Company: Autodesk"
 90
        0
 91
        3
280
     0
281
     0
  0
CLASS
  1
ACMDATAENTRYBLOCK
  2
AcmDataEntryBlock
  3
"AcmSymBB|Product Description: AutoCAD Mechanical 2004 DX|Company: Autodesk"
 90
        0
 91
        3
280
     0
281
     0
  0
CLASS
  1
ACMSTANDARDJIS
  2
AcmStandardJIS
  3
"Amdt_StdImp|Product Description: AutoCAD Mechanical 2004 DX|Company: Autodesk"
 90
        0
 91
        3
280
     0
281
     0
  0
CLASS
  1
ACMSURFSTANDARDJIS
  2
AcmSurfTextStdJIS
  3
"Amdt_StdImp|Product Description: AutoCAD Mechanical 2004 DX|Company: Autodesk"
 90
        0
 91
        3
280
     0
281
     0
  0
CLASS
  1
ACMFCFSTANDARDJIS
  2
AcmFCFStdJIS
  3
"Amdt_StdImp|Product Description: AutoCAD Mechanical 2004 DX|Company: Autodesk"
 90
        0
 91
        3
280
     0
281
     0
  0
CLASS
  1
ACMWELDSTANDARDJIS
  2
AcmWeldingStdJIS
  3
"Amdt_StdImp|Product Description: AutoCAD Mechanical 2004 DX|Company: Autodesk"
 90
        0
 91
        3
280
     0
281
     0
  0
CLASS
  1
ACMIDSTANDARDJIS
  2
AcmIdStdJIS
  3
"Amdt_StdImp|Product Description: AutoCAD Mechanical 2004 DX|Company: Autodesk"
 90
        0
 91
        3
280
     0
281
     0
  0
CLASS
  1
ACMDATUMSTANDARDJIS
  2
AcmDatumStdJIS
  3
"Amdt_StdImp|Product Description: AutoCAD Mechanical 2004 DX|Company: Autodesk"
 90
        0
 91
        3
280
     0
281
     0
  0
CLASS
  1
ACMBOMSTANDARDJIS
  2
AcmBOMStdJIS
  3
"Amdt_StdImp|Product Description: AutoCAD Mechanical 2004 DX|Company: Autodesk"
 90
        0
 91
        3
280
     0
281
     0
  0
CLASS
  1
ACMDETAILSTANDARDJIS
  2
AmdtDetailSymStdJIS
  3
"Amdt_StdImp|Product Description: AutoCAD Mechanical 2004 DX|Company: Autodesk"
 90
        0
 91
        3
280
     0
281
     0
  0
CLASS
  1
ACMSECTIONSTANDARDJIS
  2
AmdtSectionSymStdJIS
  3
"Amdt_StdImp|Product Description: AutoCAD Mechanical 2004 DX|Company: Autodesk"
 90
        0
 91
        3
280
     0
281
     0
  0
CLASS
  1
ACMCENTERLINESTANDARDJIS
  2
AmdtCenterLineStdJIS
  3
"Amdt_StdImp|Product Description: AutoCAD Mechanical 2004 DX|Company: Autodesk"
 90
        0
 91
        3
280
     0
281
     0
  0
CLASS
  1
ACAMGLAYSTD
  2
AcAmgLayStd
  3
"AcAmgLayStd|Product Description: AutoCAD Mechanical 2000|Company: Autodesk"
 90
        0
 91
        6
280
     0
281
     0
  0
CLASS
  1
ACAMGDIMSTD
  2
AcAmgDimStd
  3
"AcAmgDimStd|Product Description: AutoCAD Mechanical 2000|Company: Autodesk"
 90
        0
 91
        6
280
     0
281
     0
  0
CLASS
  1
ACAMGTITLESTD
  2
AcAmgTitleStd
  3
"TITLEAPP"
 90
        0
 91
        6
280
     0
281
     0
  0
CLASS
  1
ACMSTANDARDISO
  2
AcmStandardISO
  3
"Amdt_StdImp|Product Description: AutoCAD Mechanical 2004 DX|Company: Autodesk"
 90
        0
 91
        3
280
     0
281
     0
  0
CLASS
  1
AMDTEDGESTANDARDISO
  2
AmdtEdgeStdISO
  3
"Amdt_StdImp|Product Description: AutoCAD Mechanical 2004 DX|Company: Autodesk"
 90
        0
 91
        3
280
     0
281
     0
  0
CLASS
  1
ACMSURFSTANDARDISO
  2
AcmSurfTextStdISO
  3
"Amdt_StdImp|Product Description: AutoCAD Mechanical 2004 DX|Company: Autodesk"
 90
        0
 91
        3
280
     0
281
     0
  0
CLASS
  1
ACMFCFSTANDARDISO
  2
AcmFCFStdISO
  3
"Amdt_StdImp|Product Description: AutoCAD Mechanical 2004 DX|Company: Autodesk"
 90
        0
 91
        3
280
     0
281
     0
  0
CLASS
  1
ACMWELDSTANDARDISO
  2
AcmWeldingStdISO
  3
"Amdt_StdImp|Product Description: AutoCAD Mechanical 2004 DX|Company: Autodesk"
 90
        0
 91
        3
280
     0
281
     0
  0
CLASS
  1
ACMIDSTANDARDISO
  2
AcmIdStdISO
  3
"Amdt_StdImp|Product Description: AutoCAD Mechanical 2004 DX|Company: Autodesk"
 90
        0
 91
        3
280
     0
281
     0
  0
CLASS
  1
ACMDATUMSTANDARDISO
  2
AcmDatumStdISO
  3
"Amdt_StdImp|Product Description: AutoCAD Mechanical 2004 DX|Company: Autodesk"
 90
        0
 91
        3
280
     0
281
     0
  0
CLASS
  1
ACMBOMSTANDARDISO
  2
AcmBOMStdISO
  3
"Amdt_StdImp|Product Description: AutoCAD Mechanical 2004 DX|Company: Autodesk"
 90
        0
 91
        3
280
     0
281
     0
  0
CLASS
  1
ACMDETAILSTANDARDISO
  2
AmdtDetailSymStdISO
  3
"Amdt_StdImp|Product Description: AutoCAD Mechanical 2004 DX|Company: Autodesk"
 90
        0
 91
        3
280
     0
281
     0
  0
CLASS
  1
ACMSECTIONSTANDARDISO
  2
AmdtSectionSymStdISO
  3
"Amdt_StdImp|Product Description: AutoCAD Mechanical 2004 DX|Company: Autodesk"
 90
        0
 91
        3
280
     0
281
     0
  0
CLASS
  1
ACMCENTERLINESTANDARDISO
  2
AmdtCenterLineStdISO
  3
"Amdt_StdImp|Product Description: AutoCAD Mechanical 2004 DX|Company: Autodesk"
 90
        0
 91
        3
280
     0
281
     0
  0
CLASS
  1
ACIMSTRSYSVAR
  2
AcImStrSysVar
  3
AcMeServices
 90
        0
 91
       15
280
     0
281
     0
  0
CLASS
  1
ACAMGFILTERDAT
  2
AcAmgFilterDat
  3
"AcadM|Product Description: AutoCAD Mechanical 2000|Company: Autodesk"
 90
        0
 91
       18
280
     0
281
     0
  0
CLASS
  1
LAYER_INDEX
  2
AcDbLayerIndex
  3
ObjectDBX Classes
 90
        0
 91
        1
280
     0
281
     0
  0
CLASS
  1
IDBUFFER
  2
AcDbIdBuffer
  3
ObjectDBX Classes
 90
        0
 91
       15
280
     0
281
     0
  0
CLASS
  1
AMDTFORMULAUPDATEDISPATCHER
  2
AmdtFormulaUpdateDispatcher
  3
AcMeServices
 90
        0
 91
        3
280
     0
281
     0
  0
CLASS
  1
ACMDATAENTRYPART
  2
AcmDataEntryPart
  3
"AcmSymBB|Product Description: AutoCAD Mechanical 2004 DX|Company: Autodesk"
 90
        0
 91
       15
280
     0
281
     0
  0
CLASS
  1
ACMPARTREF
  2
AcmPartRef
  3
"AcmSymBB|Product Description: AutoCAD Mechanical 2004 DX|Company: Autodesk"
 90
     1023
 91
       15
280
     0
281
     1
  0
CLASS
  1
ACMDATAENTRY
  2
AcmDataEntry
  3
"AcmSymBB|Product Description: AutoCAD Mechanical 2004 DX|Company: Autodesk"
 90
        0
 91
       15
280
     0
281
     0
  0
CLASS
  1
ACMBOM
  2
AcmBom
  3
"AcmSymBB|Product Description: AutoCAD Mechanical 2004 DX|Company: Autodesk"
 90
        0
 91
        6
280
     0
281
     0
  0
CLASS
  1
ACMBOMROW
  2
AcmBomRow
  3
"AcmSymBB|Product Description: AutoCAD Mechanical 2004 DX|Company: Autodesk"
 90
        0
 91
       30
280
     0
281
     0
  0
CLASS
  1
ACMBALLOON
  2
AcmBalloon
  3
"AcmSymBB|Product Description: AutoCAD Mechanical 2004 DX|Company: Autodesk"
 90
     1023
 91
       15
280
     0
281
     1
  0
CLASS
  1
ACMPARTLIST
  2
AcmPartList
  3
"AcmSymBB|Product Description: AutoCAD Mechanical 2004 DX|Company: Autodesk"
 90
     1023
 91
        3
280
     0
281
     1
  0
CLASS
  1
ACDBLINERES
  2
AcDbLineRes
  3
AcGrefServices
 90
        0
 91
        9
280
     0
281
     0
  0
CLASS
  1
ACRFINSADJ
  2
AcRfInsAdjuster
  3
AcMeServices
 90
        0
 91
        3
280
     0
281
     0
  0
CLASS
  1
STDPART2D
  2
AmgStdPart
  3
"AmgStdPart|Product Description: AutoCAD Mechanical 2000|Company: Autodesk"
 90
     1023
 91
        0
280
     0
281
     1
  0
CLASS
  1
ACDBSTDPARTRES_ARC
  2
AcDbStdPartRes_Arc
  3
"AcDbStdPartRes_Arc|Product Description: AutoCAD Mechanical 2000|Company: Autodesk"
 90
        0
 91
        0
280
     0
281
     0
  0
CLASS
  1
ACMPICKOBJ
  2
AcmPickEnt
  3
"AcmSymBB|Product Description: AutoCAD Mechanical 2004 DX|Company: Autodesk"
 90
        0
 91
        0
280
     0
281
     1
  0
CLASS
  1
ACDBSTDPARTRES_LINE
  2
AcDbStdPartRes_Line
  3
"AcDbStdPartRes_Line|Product Description: AutoCAD Mechanical 2000|Company: Autodesk"
 90
        0
 91
        0
280
     0
281
     0
  0
CLASS
  1
AM_DRAWING_MGR
  2
AcDmDwgMgr
  3
AcMechDwgViewMgmt
 90
        0
 91
        3
280
     0
281
     0
  0
CLASS
  1
AM_DWG_DOCUMENT
  2
AcDmDwgDocument
  3
AcMechDwgViewMgmt
 90
        0
 91
        3
280
     0
281
     0
  0
CLASS
  1
AM_DWG_SHEET
  2
AcDmSheet
  3
AcMechDwgViewMgmt
 90
        0
 91
        6
280
     0
281
     0
  0
CLASS
  1
AM_VIEWDIMPARMAP
  2
AcDmViewDimParMap
  3
AcMechDwgViewMgmt
 90
        0
 91
        6
280
     0
281
     0
  0
CLASS
  1
AM_DWGMGR_NAME
  2
AcDmDwgMgrName
  3
AcMechDwgViewMgmt
 90
        0
 91
        3
280
     0
281
     0
  0
CLASS
  1
AMDTMENUSTATEMGR
  2
AmdtMenuStateMgr
  3
McadcomServices
 90
        0
 91
        1
280
     0
281
     0
  0
CLASS
  1
AMDTMCOMMENUSTATE
  2
AmdtMcomMenuState
  3
McadcomServices
 90
        0
 91
        1
280
     0
281
     0
  0
CLASS
  1
MAPIAMMOUDLE
  2
MApiAmModule
  3
MApiAmServices
 90
        0
 91
        3
280
     0
281
     0
  0
CLASS
  1
AMDTADMENUSTATE
  2
AmdtAdMenuState
  3
DesignerServices
 90
        0
 91
        1
280
     0
281
     0
  0
CLASS
  1
ADAPPL
  2
AcAdAppl
  3
DesignerServices
 90
        0
 91
        3
280
     0
281
     0
  0
CLASS
  1
DEPMGR
  2
AcAdDepMgr
  3
DesignerServices
 90
        0
 91
        3
280
     0
281
     0
  0
CLASS
  1
PARAMMGR
  2
AcAdParamMgr
  3
DesignerServices
 90
        0
 91
        3
280
     0
281
     0
  0
CLASS
  1
PARAMSCOPE
  2
AcAdParamScope
  3
DesignerServices
 90
        0
 91
        3
280
     0
281
     0
  0
CLASS
  1
NAMEDAPPL
  2
AcAdNamedAppl
  3
DesignerServices
 90
        0
 91
        3
280
     0
281
     0
  0
CLASS
  1
AMDTDMMENUSTATE
  2
AmdtDmMenuState
  3
AcMechDwgViewMgmt
 90
        0
 91
        1
280
     0
281
     0
  0
CLASS
  1
AMDTAMMENUSTATE
  2
AmdtAmMenuState
  3
DesignerAssemblies
 90
        0
 91
        1
280
     0
281
     0
  0
CLASS
  1
ACAMPROJECT
  2
AcAmProject
  3
DesignerAssemblies
 90
        0
 91
        3
280
     0
281
     0
  0
CLASS
  1
ACAMGRCOMPDEF
  2
AcAmGrCompDef
  3
DesignerAssemblies
 90
        0
 91
        3
280
     0
281
     0
  0
CLASS
  1
ACCMCONTEXT
  2
AcCmContext
  3
DesignerAssemblies
 90
        0
 91
        3
280
     0
281
     0
  0
CLASS
  1
ACAMCOMPDEF
  2
AcAmCompDef
  3
DesignerAssemblies
 90
        0
 91
        3
280
     0
281
     0
  0
CLASS
  1
ACAMCOMPDEFMGR
  2
AcAmCompDefMgr
  3
DesignerAssemblies
 90
        0
 91
        3
280
     0
281
     0
  0
CLASS
  1
AMCONTEXTMGR
  2
AcAmContextMgr
  3
DesignerAssemblies
 90
        0
 91
        3
280
     0
281
     0
  0
CLASS
  1
ACAMCONTEXTMODELER
  2
AcAmContextModeler
  3
DesignerAssemblies
 90
        0
 91
        3
280
     0
281
     0
  0
CLASS
  1
ACMTHREADLINESTANDARDJIS
  2
AmdtThreadLineStdJIS
  3
"Amdt_StdImp|Product Description: AutoCAD Mechanical 2004 DX|Company: Autodesk"
 90
        0
 91
        3
280
     0
281
     0
  0
CLASS
  1
ACMNOTESTANDARDJIS
  2
AmdtNoteStdJIS
  3
"Amdt_StdImp|Product Description: AutoCAD Mechanical 2004 DX|Company: Autodesk"
 90
        0
 91
        3
280
     0
281
     0
  0
CLASS
  1
AMDTNOTETEMPLATEDB
  2
AmdtNoteTemplateDB
  3
AMDT_STDIMP_MODULE_NAME
 90
        0
 91
       24
280
     0
281
     0
  0
CLASS
  1
ACMTHREADLINESTANDARDISO
  2
AmdtThreadLineStdISO
  3
"Amdt_StdImp|Product Description: AutoCAD Mechanical 2004 DX|Company: Autodesk"
 90
        0
 91
        3
280
     0
281
     0
  0
CLASS
  1
ACMNOTESTANDARDISO
  2
AmdtNoteStdISO
  3
"Amdt_StdImp|Product Description: AutoCAD Mechanical 2004 DX|Company: Autodesk"
 90
        0
 91
        3
280
     0
281
     0
  0
CLASS
  1
CATALOGSTATE
  2
AcAmCatalogState
  3
DesignerAssemblies
 90
        0
 91
        3
280
     0
281
     0
  0
CLASS
  1
ACAMGRCOMPDEFSET
  2
AcAmGrCompDefSet
  3
DesignerAssemblies
 90
        0
 91
        1
280
     0
281
     0
  0
CLASS
  1
AMDTBROWSERDBTAB
  2
AmdtBrowserDbTab
  3
McadcomServices
 90
        0
 91
        1
280
     0
281
     0
  0
CLASS
  1
CBROWSERAPPOBJECT
  2
CBrowserAppObject
  3
McadcomServices
 90
        0
 91
        3
280
     0
281
     0
  0
CLASS
  1
DM_PLACEHOLDER
  2
AcDmSelsetPlaceholder
  3
AcMechDwgViewMgmt
 90
        0
 91
        1
280
     0
281
     0
  0
CLASS
  1
ACDBCIRCARCRES
  2
AcDbCircArcRes
  3
AcGrefServices
 90
        0
 91
        6
280
     0
281
     0
  0
CLASS
  1
ACRFATTGENMGR
  2
AcRfAttGeneralMgr
  3
AcAttribServices
 90
        0
 91
        3
280
     0
281
     0
  0
CLASS
  1
ACRFOBJATTMGR
  2
AcRfObjAttGroupMgr
  3
AcAttribServices
 90
        0
 91
        3
280
     0
281
     0
  0
CLASS
  1
ACRFMCADAPIATTHOLDER
  2
AcRfMCADAPIAttHolder
  3
AcAttribServices
 90
        0
 91
        3
280
     0
281
     0
  0
CLASS
  1
AMDTSYSATTR
  2
AmdtSystemAttribute
  3
AcAttribServices
 90
        0
 91
        6
280
     0
281
     0
  0
ENDSEC
  0
SECTION
  2
TABLES
  0
TABLE
  2
VPORT
  5
8
330
0
100
AcDbSymbolTable
 70
     3
  0
VPORT
  5
1956
330
8
100
AcDbSymbolTableRecord
100
AcDbViewportTableRecord
  2
*Active
 70
     0
 10
0.0
 20
0.0
 11
1.0
 21
1.0
 12
2168.385273793074
 22
4690.998957705541
 13
0.0
 23
0.0
 14
25.0
 24
25.0
 15
100.0
 25
100.0
 16
0.0
 26
0.0
 36
1.0
 17
0.0
 27
0.0
 37
0.0
 40
2998.818519594337
 41
1.498730964467005
 42
50.0
 43
0.0
 44
0.0
 50
0.0
 51
0.0
 71
    16
 72
   100
 73
     1
 74
     3
 75
     0
 76
     0
 77
     0
 78
     0
281
     0
 65
     1
110
0.0
120
0.0
130
0.0
111
1.0
121
0.0
131
0.0
112
0.0
122
1.0
132
0.0
 79
     0
146
0.0
  0
ENDTAB
  0
TABLE
  2
LTYPE
  5
5
330
0
100
AcDbSymbolTable
 70
    18
  0
LTYPE
  5
14
330
5
100
AcDbSymbolTableRecord
100
AcDbLinetypeTableRecord
  2
ByBlock
 70
     0
  3

 72
    65
 73
     0
 40
0.0
  0
LTYPE
  5
15
330
5
100
AcDbSymbolTableRecord
100
AcDbLinetypeTableRecord
  2
ByLayer
 70
     0
  3

 72
    65
 73
     0
 40
0.0
  0
LTYPE
  5
16
330
5
100
AcDbSymbolTableRecord
100
AcDbLinetypeTableRecord
  2
Continuous
 70
     0
  3
Solid line
 72
    65
 73
     0
 40
0.0
  0
LTYPE
  5
35
330
5
100
AcDbSymbolTableRecord
100
AcDbLinetypeTableRecord
  2
AM_ISO02W050
 70
     0
  3
__ __ __ __ __ __ __ __ __ __ __ __ __ __ __
 72
    65
 73
     2
 40
7.5
 49
6.0
 74
     0
 49
-1.5
 74
     0
  0
LTYPE
  5
36
330
5
100
AcDbSymbolTableRecord
100
AcDbLinetypeTableRecord
  2
AM_ISO08W050
 70
     0
  3
____ . ____ . ____ . ____ . ____ . ____ . ____
 72
    65
 73
     4
 40
18.0
 49
12.0
 74
     0
 49
-1.5
 74
     0
 49
3.0
 74
     0
 49
-1.5
 74
     0
  0
LTYPE
  5
37
330
5
100
AcDbSymbolTableRecord
100
AcDbLinetypeTableRecord
  2
AM_ISO09W050
 70
     0
  3
_____ . . _____ . . _____ . . ____ .. ____
 72
    65
 73
     6
 40
22.5
 49
12.0
 74
     0
 49
-1.5
 74
     0
 49
3.0
 74
     0
 49
-1.5
 74
     0
 49
3.0
 74
     0
 49
-1.5
 74
     0
  0
LTYPE
  5
38
330
5
100
AcDbSymbolTableRecord
100
AcDbLinetypeTableRecord
  2
Amconstr
 70
     0
  3
_______________________
 72
    65
 73
     2
 40
9999.0
 49
9999.0
 74
     0
 49
0.0
 74
     0
  0
LTYPE
  5
39
330
5
100
AcDbSymbolTableRecord
100
AcDbLinetypeTableRecord
  2
AM_ISO08W050x2
 70
     0
  3
__ . __ . __ . __ . __ . __
 72
    65
 73
     4
 40
9.0
 49
6.0
 74
     0
 49
-0.75
 74
     0
 49
1.5
 74
     0
 49
-0.75
 74
     0
  0
LTYPE
  5
3A
330
5
100
AcDbSymbolTableRecord
100
AcDbLinetypeTableRecord
  2
AM_ISO02W050x2
 70
     0
  3
 _ _ _ _ _ _ _ _ _ _ _ _
 72
    65
 73
     2
 40
3.75
 49
3.0
 74
     0
 49
-0.75
 74
     0
  0
LTYPE
  5
3B
330
5
100
AcDbSymbolTableRecord
100
AcDbLinetypeTableRecord
  2
Amzigzag
 70
     0
  3
/\/-/\/-/\/-/\/-/\/-/\/
 72
    65
 73
     2
 40
11.0001
 49
0.0001
 74
     4
 75
   135
340
3C
 46
0.04
 50
0.0
 44
0.0
 45
0.0
 49
-11.0
 74
     0
  0
LTYPE
  5
64
330
5
100
AcDbSymbolTableRecord
100
AcDbLinetypeTableRecord
  2
ACJISTGB
 70
     0
  3
__ . . __ . .
 72
    65
 73
     6
 40
9.0
 49
4.0
 74
     0
 49
-1.0
 74
     0
 49
1.0
 74
     0
 49
-1.0
 74
     0
 49
1.0
 74
     0
 49
-1.0
 74
     0
  0
LTYPE
  5
65
330
5
100
AcDbSymbolTableRecord
100
AcDbLinetypeTableRecord
  2
ACJISTGL
 70
     0
  3
_ _ _ _ _
 72
    65
 73
     2
 40
3.0
 49
2.0
 74
     0
 49
-1.0
 74
     0
  0
LTYPE
  5
69
330
5
100
AcDbSymbolTableRecord
100
AcDbLinetypeTableRecord
  2
CENTER
 70
     0
  3
__ . __
 72
    65
 73
     4
 40
7.0
 49
4.0
 74
     0
 49
-1.0
 74
     0
 49
1.0
 74
     0
 49
-1.0
 74
     0
  0
LTYPE
  5
8F
330
5
100
AcDbSymbolTableRecord
100
AcDbLinetypeTableRecord
  2
ACISOWELD
 70
     0
  3
_ _ _ _ _
 72
    65
 73
     2
 40
2.0
 49
2.0
 74
     0
 49
-1.0
 74
     0
  0
LTYPE
  5
92
330
5
100
AcDbSymbolTableRecord
100
AcDbLinetypeTableRecord
  2
ACISOTGB
 70
     0
  3
__ . . __ . .
 72
    65
 73
     6
 40
9.0
 49
4.0
 74
     0
 49
-1.0
 74
     0
 49
1.0
 74
     0
 49
-1.0
 74
     0
 49
1.0
 74
     0
 49
-1.0
 74
     0
  0
LTYPE
  5
93
330
5
100
AcDbSymbolTableRecord
100
AcDbLinetypeTableRecord
  2
ACISOTGL
 70
     0
  3
_ _ _ _ _
 72
    65
 73
     2
 40
3.0
 49
2.0
 74
     0
 49
-1.0
 74
     0
  0
LTYPE
  5
309
330
5
100
AcDbSymbolTableRecord
100
AcDbLinetypeTableRecord
  2
HIDDEN
 70
     0
  3
_ _ _ _ _ _ _ _ _ _ _ _ _ _ _ _ _ _ _ _ _ _ _
 72
    65
 73
     2
 40
1.5
 49
1.0
 74
     0
 49
-0.5
 74
     0
  0
LTYPE
  5
30A
330
5
100
AcDbSymbolTableRecord
100
AcDbLinetypeTableRecord
  2
PHANTOM
 70
     0
  3
_____ _ _ _____ _ _ _____ _ _ _____ _ _ ____
 72
    65
 73
     6
 40
27.0
 49
20.0
 74
     0
 49
-1.0
 74
     0
 49
2.0
 74
     0
 49
-1.0
 74
     0
 49
2.0
 74
     0
 49
-1.0
 74
     0
  0
LTYPE
  5
30F
330
5
100
AcDbSymbolTableRecord
100
AcDbLinetypeTableRecord
  2
GEN7A
 70
     0
  3
__ . __ . __
 72
    65
 73
     4
 40
6.875
 49
5.0
 74
     0
 49
-0.625
 74
     0
 49
0.625
 74
     0
 49
-0.625
 74
     0
  0
LTYPE
  5
9B5
330
5
100
AcDbSymbolTableRecord
100
AcDbLinetypeTableRecord
  2
PHANTOM2
 70
     0
  3
Phantom (.5x) ___ _ _ ___ _ _ ___ _ _ ___ _ _
 72
    65
 73
     6
 40
31.75
 49
15.875
 74
     0
 49
-3.174999999999999
 74
     0
 49
3.174999999999999
 74
     0
 49
-3.174999999999999
 74
     0
 49
3.174999999999999
 74
     0
 49
-3.174999999999999
 74
     0
  0
ENDTAB
  0
TABLE
  2
LAYER
  5
2
102
{ACAD_XDICTIONARY
360
164D
102
}
330
0
100
AcDbSymbolTable
 70
    15
  0
LAYER
  5
10
330
2
100
AcDbSymbolTableRecord
100
AcDbLayerTableRecord
  2
0
 70
     0
 62
     7
  6
Continuous
370
    -3
390
F
  0
LAYER
  5
F5
330
2
100
AcDbSymbolTableRecord
100
AcDbLayerTableRecord
  2
RAHM2
 70
     0
 62
     1
  6
Continuous
370
    -3
390
F
  0
LAYER
  5
1EF
330
2
100
AcDbSymbolTableRecord
100
AcDbLayerTableRecord
  2
AM_BOR
 70
     0
 62
     7
  6
Continuous
370
    50
390
F
  0
LAYER
  5
310
330
2
100
AcDbSymbolTableRecord
100
AcDbLayerTableRecord
  2
RAHM3
 70
     0
 62
     2
  6
Continuous
370
    -3
390
F
  0
LAYER
  5
312
330
2
100
AcDbSymbolTableRecord
100
AcDbLayerTableRecord
  2
1
 70
     0
 62
     7
  6
Continuous
370
    -3
390
F
  0
LAYER
  5
313
330
2
100
AcDbSymbolTableRecord
100
AcDbLayerTableRecord
  2
DEFPOINTS
 70
     0
 62
     7
  6
Continuous
290
     0
370
    -3
390
F
  0
LAYER
  5
316
330
2
100
AcDbSymbolTableRecord
100
AcDbLayerTableRecord
  2
7A
 70
     0
 62
     4
  6
GEN7A
370
    -3
390
F
  0
LAYER
  5
9ED
330
2
100
AcDbSymbolTableRecord
100
AcDbLayerTableRecord
  2
AM_5
 70
     0
 62
     3
  6
Continuous
370
    25
390
F
  0
LAYER
  5
B7F
330
2
100
AcDbSymbolTableRecord
100
AcDbLayerTableRecord
  2
40
 70
     0
 62
     7
  6
Continuous
370
    -3
390
F
  0
LAYER
  5
13E8
330
2
100
AcDbSymbolTableRecord
100
AcDbLayerTableRecord
  2
AM_7
 70
     0
 62
     4
  6
AM_ISO08W050
370
    25
390
F
  0
LAYER
  5
15F2
330
2
100
AcDbSymbolTableRecord
100
AcDbLayerTableRecord
  2
AM_8
 70
     0
 62
     1
  6
Continuous
370
    25
390
F
  0
LAYER
  5
15FC
330
2
100
AcDbSymbolTableRecord
100
AcDbLayerTableRecord
  2
AM_12
 70
     0
 62
     7
  6
Continuous
290
     0
370
    50
390
F
  0
LAYER
  5
15FD
330
2
100
AcDbSymbolTableRecord
100
AcDbLayerTableRecord
  2
AM_PAREF
 70
     0
 62
     4
  6
Continuous
290
     0
370
    25
390
F
  0
LAYER
  5
1623
330
2
100
AcDbSymbolTableRecord
100
AcDbLayerTableRecord
  2
AM_6
 70
     0
 62
     2
  6
Continuous
370
    35
390
F
  0
LAYER
  5
164C
330
2
100
AcDbSymbolTableRecord
100
AcDbLayerTableRecord
  2
TEXT
 70
     0
 62
     7
  6
Continuous
370
    -3
390
F
  0
ENDTAB
  0
TABLE
  2
STYLE
  5
3
330
0
100
AcDbSymbolTable
 70
     6
  0
STYLE
  5
11
330
3
100
AcDbSymbolTableRecord
100
AcDbTextStyleTableRecord
  2
STANDARD
 70
     0
 40
0.0
 41
1.0
 50
0.0
 71
     0
 42
2.5
  3
ISOCP.SHX
  4
EXTFONT.SHX
  0
STYLE
  5
3C
330
3
100
AcDbSymbolTableRecord
100
AcDbTextStyleTableRecord
  2

 70
     1
 40
0.0
 41
1.0
 50
0.0
 71
     0
 42
2.5
  3
ltypeshp.shx
  4

  0
STYLE
  5
5D
330
3
100
AcDbSymbolTableRecord
100
AcDbTextStyleTableRecord
  2
ACJISTS
 70
     0
 40
1.0
 41
1.0
 50
0.0
 71
     0
 42
2.5
  3
isocp.shx
  4
extfont.shx
  0
STYLE
  5
60
330
3
100
AcDbSymbolTableRecord
100
AcDbTextStyleTableRecord
  2
ACJISGDT
 70
     0
 40
0.0
 41
1.0
 50
0.0
 71
     0
 42
2.5
  3
amgdt.shx
  4

  0
STYLE
  5
89
330
3
100
AcDbSymbolTableRecord
100
AcDbTextStyleTableRecord
  2
ACISOTS
 70
     0
 40
1.0
 41
1.0
 50
0.0
 71
     0
 42
2.5
  3
isocp.shx
  4
extfont.shx
  0
STYLE
  5
8D
330
3
100
AcDbSymbolTableRecord
100
AcDbTextStyleTableRecord
  2
ACISOGDT
 70
     0
 40
0.0
 41
1.0
 50
0.0
 71
     0
 42
2.5
  3
amgdt.shx
  4

  0
ENDTAB
  0
TABLE
  2
VIEW
  5
6
330
0
100
AcDbSymbolTable
 70
     6
  0
VIEW
  5
3C5
330
6
100
AcDbSymbolTableRecord
100
AcDbViewTableRecord
  2
AM_VIEW1
 70
     0
 40
1485.0
 10
1096.039695725185
 20
5433.507588112352
 41
2200.483061480552
 11
0.0
 21
0.0
 31
1.0
 12
0.0
 22
0.0
 32
0.0
 42
50.0
 43
0.0
 44
0.0
 50
0.0
 71
    16
281
     0
 72
     0
  0
VIEW
  5
3C6
330
6
100
AcDbSymbolTableRecord
100
AcDbViewTableRecord
  2
AM_VIEW2
 70
     0
 40
1485.0
 10
3095.556634244633
 20
5433.507588112352
 41
2200.483061480552
 11
0.0
 21
0.0
 31
1.0
 12
0.0
 22
0.0
 32
0.0
 42
50.0
 43
0.0
 44
0.0
 50
0.0
 71
    16
281
     0
 72
     0
  0
VIEW
  5
3C7
330
6
100
AcDbSymbolTableRecord
100
AcDbViewTableRecord
  2
AM_VIEW3
 70
     0
 40
1485.0
 10
1096.039695725185
 20
3948.507588112352
 41
2200.483061480552
 11
0.0
 21
0.0
 31
1.0
 12
0.0
 22
0.0
 32
0.0
 42
50.0
 43
0.0
 44
0.0
 50
0.0
 71
    16
281
     0
 72
     0
  0
VIEW
  5
3C8
330
6
100
AcDbSymbolTableRecord
100
AcDbViewTableRecord
  2
AM_VIEW4
 70
     0
 40
1485.0
 10
3095.556634244633
 20
3948.507588112352
 41
2200.483061480552
 11
0.0
 21
0.0
 31
1.0
 12
0.0
 22
0.0
 32
0.0
 42
50.0
 43
0.0
 44
0.0
 50
0.0
 71
    16
281
     0
 72
     0
  0
VIEW
  5
3C9
330
6
100
AcDbSymbolTableRecord
100
AcDbViewTableRecord
  2
AM_VIEW5
 70
     0
 40
1485.0
 10
2095.798164984909
 20
4691.007588112352
 41
2200.483061480552
 11
0.0
 21
0.0
 31
1.0
 12
0.0
 22
0.0
 32
0.0
 42
50.0
 43
0.0
 44
0.0
 50
0.0
 71
    16
281
     0
 72
     0
  0
VIEW
  5
3CA
330
6
100
AcDbSymbolTableRecord
100
AcDbViewTableRecord
  2
AM_VIEW6
 70
     0
 40
2969.9703
 10
2095.798164984909
 20
4691.007588112352
 41
4400.922113299875
 11
0.0
 21
0.0
 31
1.0
 12
0.0
 22
0.0
 32
0.0
 42
50.0
 43
0.0
 44
0.0
 50
0.0
 71
    16
281
     0
 72
     0
  0
ENDTAB
  0
TABLE
  2
UCS
  5
7
330
0
100
AcDbSymbolTable
 70
     0
  0
ENDTAB
  0
TABLE
  2
APPID
  5
9
330
0
100
AcDbSymbolTable
 70
    49
  0
APPID
  5
12
330
9
100
AcDbSymbolTableRecord
100
AcDbRegAppTableRecord
  2
ACAD
 70
     0
  0
APPID
  5
2D
330
9
100
AcDbSymbolTableRecord
100
AcDbRegAppTableRecord
  2
MCAD_NO_VIS
 70
     0
  0
APPID
  5
2E
330
9
100
AcDbSymbolTableRecord
100
AcDbRegAppTableRecord
  2
ACAD_TEMP_GRAPHIC
 70
     0
  0
APPID
  5
2F
330
9
100
AcDbSymbolTableRecord
100
AcDbRegAppTableRecord
  2
ACATTRIBSERVICES
 70
     0
  0
APPID
  5
1F0
330
9
100
AcDbSymbolTableRecord
100
AcDbRegAppTableRecord
  2
GENIUS_GENBLLY_14
 70
     0
  0
APPID
  5
321
330
9
100
AcDbSymbolTableRecord
100
AcDbRegAppTableRecord
  2
GENIUS_GENCFG_13
 70
     0
  0
APPID
  5
322
330
9
100
AcDbSymbolTableRecord
100
AcDbRegAppTableRecord
  2
GENIUS_GENOBJ_13
 70
     0
  0
APPID
  5
323
330
9
100
AcDbSymbolTableRecord
100
AcDbRegAppTableRecord
  2
GENIUS_GENODEF_13
 70
     0
  0
APPID
  5
324
330
9
100
AcDbSymbolTableRecord
100
AcDbRegAppTableRecord
  2
GENIUS_GENOENT_13
 70
     0
  0
APPID
  5
325
330
9
100
AcDbSymbolTableRecord
100
AcDbRegAppTableRecord
  2
GENIUS_GENOLIS_13
 70
     0
  0
APPID
  5
326
330
9
100
AcDbSymbolTableRecord
100
AcDbRegAppTableRecord
  2
GENIUS_GENOREF_13
 70
     0
  0
APPID
  5
327
330
9
100
AcDbSymbolTableRecord
100
AcDbRegAppTableRecord
  2
GENIUS_GENOBJ-N-TIT_13
 70
     0
  0
APPID
  5
328
330
9
100
AcDbSymbolTableRecord
100
AcDbRegAppTableRecord
  2
GENIUS_GENTITLE_13
 70
     0
  0
APPID
  5
329
330
9
100
AcDbSymbolTableRecord
100
AcDbRegAppTableRecord
  2
GENIUS_GENZVEED_13
 70
     0
  0
APPID
  5
32A
330
9
100
AcDbSymbolTableRecord
100
AcDbRegAppTableRecord
  2
GENIUS_GENOBJ-N-SDF_13
 70
     0
  0
APPID
  5
32B
330
9
100
AcDbSymbolTableRecord
100
AcDbRegAppTableRecord
  2
GENIUS_GENSCREG_13
 70
     0
  0
APPID
  5
32C
330
9
100
AcDbSymbolTableRecord
100
AcDbRegAppTableRecord
  2
GENIUS_GENCFG0_13
 70
     0
  0
APPID
  5
32D
330
9
100
AcDbSymbolTableRecord
100
AcDbRegAppTableRecord
  2
GENIUS_GENCFG1_13
 70
     0
  0
APPID
  5
32E
330
9
100
AcDbSymbolTableRecord
100
AcDbRegAppTableRecord
  2
GENIUS_GENCFG2_13
 70
     0
  0
APPID
  5
32F
330
9
100
AcDbSymbolTableRecord
100
AcDbRegAppTableRecord
  2
GENIUS_GENCFG3_13
 70
     0
  0
APPID
  5
330
330
9
100
AcDbSymbolTableRecord
100
AcDbRegAppTableRecord
  2
GENIUS_GENCFG4_13
 70
     0
  0
APPID
  5
331
330
9
100
AcDbSymbolTableRecord
100
AcDbRegAppTableRecord
  2
GENIUS_GEVCFG0_13
 70
     0
  0
APPID
  5
332
330
9
100
AcDbSymbolTableRecord
100
AcDbRegAppTableRecord
  2
GENIUS_GENOBJ-N-CRS_13
 70
     0
  0
APPID
  5
333
330
9
100
AcDbSymbolTableRecord
100
AcDbRegAppTableRecord
  2
GENIUS_GENOBJ-N-CEN_13
 70
     0
  0
APPID
  5
334
330
9
100
AcDbSymbolTableRecord
100
AcDbRegAppTableRecord
  2
GENIUS_GEFCFG0_13
 70
     0
  0
APPID
  5
3BA
330
9
100
AcDbSymbolTableRecord
100
AcDbRegAppTableRecord
  2
GENIUS_GENTRA_14
 70
     0
  0
APPID
  5
3CB
330
9
100
AcDbSymbolTableRecord
100
AcDbRegAppTableRecord
  2
GENIUS_GENSCREG_15
 70
     0
  0
APPID
  5
436
330
9
100
AcDbSymbolTableRecord
100
AcDbRegAppTableRecord
  2
GEVID984623613
 70
     0
  0
APPID
  5
437
330
9
100
AcDbSymbolTableRecord
100
AcDbRegAppTableRecord
  2
GEVDC
 70
     0
  0
APPID
  5
438
330
9
100
AcDbSymbolTableRecord
100
AcDbRegAppTableRecord
  2
GEVCON
 70
     0
  0
APPID
  5
43C
330
9
100
AcDbSymbolTableRecord
100
AcDbRegAppTableRecord
  2
GENIUS_GENBH_13
 70
     0
  0
APPID
  5
43E
330
9
100
AcDbSymbolTableRecord
100
AcDbRegAppTableRecord
  2
GENIUS_GENOBJ-NBEHI-BHF_13
 70
     0
  0
APPID
  5
440
330
9
100
AcDbSymbolTableRecord
100
AcDbRegAppTableRecord
  2
GENIUS_GENOBJ-NBEHI-BHB_13
 70
     0
  0
APPID
  5
455
330
9
100
AcDbSymbolTableRecord
100
AcDbRegAppTableRecord
  2
GENIUS_GENOBJ-F-SCPASSM_13
 70
     0
  0
APPID
  5
47B
330
9
100
AcDbSymbolTableRecord
100
AcDbRegAppTableRecord
  2
GEVID984623614
 70
     0
  0
APPID
  5
48B
330
9
100
AcDbSymbolTableRecord
100
AcDbRegAppTableRecord
  2
GEVID984623615
 70
     0
  0
APPID
  5
54A
330
9
100
AcDbSymbolTableRecord
100
AcDbRegAppTableRecord
  2
GENIUS_GENOBJ-N-REV_13
 70
     0
  0
APPID
  5
54B
330
9
100
AcDbSymbolTableRecord
100
AcDbRegAppTableRecord
  2
GENIUS_GENOBJ-N-RSSYM_13
 70
     0
  0
APPID
  5
54C
330
9
100
AcDbSymbolTableRecord
100
AcDbRegAppTableRecord
  2
GENIUS_GENSYMENT_13
 70
     0
  0
APPID
  5
54D
330
9
100
AcDbSymbolTableRecord
100
AcDbRegAppTableRecord
  2
GENIUS_GENSCSYM_13
 70
     0
  0
APPID
  5
943
330
9
100
AcDbSymbolTableRecord
100
AcDbRegAppTableRecord
  2
DCO15
 70
     0
  0
APPID
  5
9B7
330
9
100
AcDbSymbolTableRecord
100
AcDbRegAppTableRecord
  2
AD_DRAW
 70
     0
  0
APPID
  5
9D5
330
9
100
AcDbSymbolTableRecord
100
AcDbRegAppTableRecord
  2
DESIGNERASSEMBLIES
 70
     0
  0
APPID
  5
9E5
330
9
100
AcDbSymbolTableRecord
100
AcDbRegAppTableRecord
  2
ACADM_DIM_EDIT
 70
     0
  0
APPID
  5
9E6
330
9
100
AcDbSymbolTableRecord
100
AcDbRegAppTableRecord
  2
AMDT_DM_ADJ
 70
     0
  0
APPID
  5
B81
330
9
100
AcDbSymbolTableRecord
100
AcDbRegAppTableRecord
  2
GENIUS_GENDTOL_13
 70
     0
  0
APPID
  5
1625
330
9
100
AcDbSymbolTableRecord
100
AcDbRegAppTableRecord
  2
GENIUS_AMGTXT_16
 70
     0
  0
APPID
  5
182D
330
9
100
AcDbSymbolTableRecord
100
AcDbRegAppTableRecord
  2
GENIUS_GENOBJ-N-HTC_13
 70
     0
  0
APPID
  5
182E
330
9
100
AcDbSymbolTableRecord
100
AcDbRegAppTableRecord
  2
GENIUS_GENHATCH_13
 70
     0
  0
ENDTAB
  0
TABLE
  2
DIMSTYLE
  5
A
330
0
100
AcDbSymbolTable
 70
    15
100
AcDbDimStyleTable
 71
     1
340
76
  0
DIMSTYLE
105
76
102
{ACAD_REACTORS
330
E22
330
E21
330
E20
330
E1F
330
E1E
330
E1D
330
E1C
330
E1B
330
F74
330
F76
330
F75
330
F77
330
F70
330
F6F
330
17FE
102
}
330
A
100
AcDbSymbolTableRecord
100
AcDbDimStyleTableRecord
  2
IGS
 70
     0
  4
"
 41
2.5
 42
1.0
 43
10.0
 44
1.0
 47
0.1
 48
0.1
 73
     0
 74
     0
 77
     3
 78
     8
 79
     2
140
3.0
141
0.0
143
0.0393701
146
0.71
147
1.5
172
     1
176
   256
177
   256
178
     2
271
     2
272
     2
283
     0
284
     8
340
11
341
77
342
77
371
    -1
372
    -1
  0
DIMSTYLE
105
7D
330
A
100
AcDbSymbolTableRecord
100
AcDbDimStyleTableRecord
  2
IGS$3
 70
     0
  4
"
 41
2.5
 42
1.0
 43
10.0
 44
1.0
 47
0.1
 48
0.1
 73
     0
 77
     3
 78
     8
 79
     2
140
4.0
141
0.0
143
0.0393701
146
0.71
147
1.5
176
   256
177
   256
178
     2
271
     2
272
     2
283
     0
284
     8
288
     1
289
     0
340
11
341
77
342
77
371
    -1
372
    -1
  0
DIMSTYLE
105
7E
330
A
100
AcDbSymbolTableRecord
100
AcDbDimStyleTableRecord
  2
IGS$4
 70
     0
  4
"
 41
2.5
 42
1.0
 43
10.0
 44
1.0
 47
0.1
 48
0.1
 73
     0
 77
     3
 78
     8
 79
     2
140
4.0
141
0.0
143
0.0393701
146
0.71
147
1.5
176
   256
177
   256
178
     2
271
     2
272
     2
283
     0
284
     8
288
     1
289
     0
340
11
341
77
342
77
371
    -1
372
    -1
  0
DIMSTYLE
105
7F
330
A
100
AcDbSymbolTableRecord
100
AcDbDimStyleTableRecord
  2
IGS$6
 70
     0
  4
"
 41
2.5
 42
1.0
 43
10.0
 44
1.0
 47
0.1
 48
0.1
 73
     0
 74
     0
 78
     8
 79
     2
140
4.0
141
0.0
143
0.0393701
146
0.71
147
1.5
172
     1
176
   256
177
   256
178
     2
271
     2
272
     2
283
     0
284
     8
340
11
341
77
342
77
371
    -1
372
    -1
  0
DIMSTYLE
105
80
330
A
100
AcDbSymbolTableRecord
100
AcDbDimStyleTableRecord
  2
IGS$7
 70
     0
  4
"
 41
2.5
 42
1.0
 43
10.0
 44
1.0
 47
0.1
 48
0.1
 73
     0
 74
     0
 77
     3
 78
     8
 79
     2
140
5.0
141
0.0
143
0.0393701
146
0.71
147
1.5
172
     1
176
   256
177
   256
178
     2
271
     2
272
     2
283
     0
284
     8
340
11
341
77
342
77
371
    -1
372
    -1
  0
DIMSTYLE
105
81
330
A
100
AcDbSymbolTableRecord
100
AcDbDimStyleTableRecord
  2
IGS$SF
 70
     0
  4
"
 41
2.5
 42
1.0
 43
10.0
 44
1.0
 47
0.1
 48
0.1
 73
     0
 74
     0
 75
     1
 76
     1
 77
     3
 78
     8
 79
     2
140
3.5
141
0.0
143
0.0393701
146
0.71
147
1.5
172
     1
176
   256
177
   256
178
     2
271
     2
272
     3
274
     4
283
     0
284
     8
340
11
341
77
342
77
343
77
344
77
371
    -1
372
    -1
  0
DIMSTYLE
105
82
330
A
100
AcDbSymbolTableRecord
100
AcDbDimStyleTableRecord
  2
IGS$SH
 70
     0
  4
"
 41
2.5
 42
1.0
 43
10.0
 44
1.0
 47
0.1
 48
0.1
 73
     0
 74
     0
 75
     1
 76
     1
 77
     3
 78
     8
 79
     2
140
3.5
141
0.0
143
0.0393701
144
2.0
146
0.71
147
1.5
172
     1
173
     1
176
   256
177
   256
178
     2
271
     2
272
     3
274
     4
283
     0
284
     8
340
11
341
77
342
77
343
83
344
77
371
    -1
372
    -1
  0
DIMSTYLE
105
9A
330
A
100
AcDbSymbolTableRecord
100
AcDbDimStyleTableRecord
  2
AM_ISO
 70
     0
  4
"
 41
2.5
 42
1.0
 43
10.0
 44
1.0
 47
0.1
 48
0.1
 73
     0
 74
     0
 77
     1
 78
     8
 79
     2
140
3.5
141
0.0
143
0.0393701
146
0.71
147
1.5
172
     1
176
   256
177
   256
178
     2
271
     2
272
     3
274
     4
283
     0
284
     8
340
11
371
    -1
372
    -1
  0
DIMSTYLE
105
9B
330
A
100
AcDbSymbolTableRecord
100
AcDbDimStyleTableRecord
  2
AM_ISO$3
 70
     0
  4
"
 41
2.5
 42
1.0
 43
10.0
 44
1.0
 47
0.1
 48
0.1
 73
     0
 77
     1
 78
     8
 79
     2
140
3.5
141
0.0
143
0.0393701
146
0.71
147
1.5
176
   256
177
   256
178
     2
271
     2
272
     3
274
     4
283
     0
284
     8
288
     1
289
     0
340
11
371
    -1
372
    -1
  0
DIMSTYLE
105
9C
330
A
100
AcDbSymbolTableRecord
100
AcDbDimStyleTableRecord
  2
AM_ISO$4
 70
     0
  4
"
 41
2.5
 42
1.0
 43
10.0
 44
1.0
 47
0.1
 48
0.1
 73
     0
 77
     1
 78
     8
 79
     2
140
3.5
141
0.0
143
0.0393701
146
0.71
147
1.5
176
   256
177
   256
178
     2
271
     2
272
     3
274
     4
283
     0
284
     8
288
     1
289
     0
340
11
371
    -1
372
    -1
  0
DIMSTYLE
105
9D
330
A
100
AcDbSymbolTableRecord
100
AcDbDimStyleTableRecord
  2
AM_ISO$6
 70
     0
  4
"
 41
2.5
 42
1.0
 43
10.0
 44
1.0
 47
0.1
 48
0.1
 73
     0
 74
     0
 78
     8
 79
     2
140
3.5
141
0.0
143
0.0393701
146
0.71
147
1.5
172
     1
176
   256
177
   256
178
     2
271
     2
272
     3
274
     4
283
     0
284
     8
340
11
371
    -1
372
    -1
  0
DIMSTYLE
105
9E
330
A
100
AcDbSymbolTableRecord
100
AcDbDimStyleTableRecord
  2
AM_ISO$7
 70
     0
  4
"
 41
2.5
 42
1.0
 43
10.0
 44
1.0
 47
0.1
 48
0.1
 73
     0
 74
     0
 77
     1
 78
     8
 79
     2
140
5.0
141
0.0
143
0.0393701
146
0.71
147
1.5
172
     1
176
   256
177
   256
178
     2
271
     2
272
     3
274
     4
283
     0
284
     8
340
11
371
    -1
372
    -1
  0
DIMSTYLE
105
9F
330
A
100
AcDbSymbolTableRecord
100
AcDbDimStyleTableRecord
  2
AM_ISO$SF
 70
     0
  4
"
 41
2.5
 42
1.0
 43
10.0
 44
1.0
 47
0.1
 48
0.1
 73
     0
 74
     0
 75
     1
 76
     1
 77
     1
 78
     8
 79
     2
140
3.5
141
0.0
143
0.0393701
146
0.71
147
1.5
172
     1
176
   256
177
   256
178
     2
271
     2
272
     3
274
     4
283
     0
284
     8
340
11
371
    -1
372
    -1
  0
DIMSTYLE
105
A0
330
A
100
AcDbSymbolTableRecord
100
AcDbDimStyleTableRecord
  2
AM_ISO$SH
 70
     0
  4
"
 41
2.5
 42
1.0
 43
10.0
 44
1.0
 47
0.1
 48
0.1
 73
     0
 74
     0
 75
     1
 76
     1
 77
     1
 78
     8
 79
     2
140
3.5
141
0.0
143
0.0393701
144
2.0
146
0.71
147
1.5
172
     1
173
     1
176
   256
177
   256
178
     2
271
     2
272
     3
274
     4
283
     0
284
     8
340
11
343
83
371
    -1
372
    -1
  0
DIMSTYLE
105
317
330
A
100
AcDbSymbolTableRecord
100
AcDbDimStyleTableRecord
  2
STANDARD
 70
     0
340
11
  0
ENDTAB
  0
TABLE
  2
BLOCK_RECORD
  5
1
330
0
100
AcDbSymbolTable
 70
    32
  0
BLOCK_RECORD
  5
1F
102
{ACAD_XDICTIONARY
360
B1
102
}
330
1
100
AcDbSymbolTableRecord
100
AcDbBlockTableRecord
  2
*Model_Space
340
22
  0
BLOCK_RECORD
  5
1B
330
1
100
AcDbSymbolTableRecord
100
AcDbBlockTableRecord
  2
*Paper_Space
340
1E
  0
BLOCK_RECORD
  5
23
330
1
100
AcDbSymbolTableRecord
100
AcDbBlockTableRecord
  2
*Paper_Space0
340
26
  0
BLOCK_RECORD
  5
77
330
1
100
AcDbSymbolTableRecord
100
AcDbBlockTableRecord
  2
_Open30
340
0
310
2800000020000000200000000100080000000000000400000000000000000000000000000000000000000000000080000080000000808000800000008000800080800000C0C0C000C0DCC000F0CAA6000020400000206000002080000020A0000020C0000020E00000400000004020000040400000406000004080000040A0
310
000040C0000040E00000600000006020000060400000606000006080000060A0000060C0000060E00000800000008020000080400000806000008080000080A0000080C0000080E00000A0000000A0200000A0400000A0600000A0800000A0A00000A0C00000A0E00000C0000000C0200000C0400000C0600000C0800000C0
310
A00000C0C00000C0E00000E0000000E0200000E0400000E0600000E0800000E0A00000E0C00000E0E00040000000400020004000400040006000400080004000A0004000C0004000E00040200000402020004020400040206000402080004020A0004020C0004020E000404000004040200040404000404060004040800040
310
40A0004040C0004040E00040600000406020004060400040606000406080004060A0004060C0004060E00040800000408020004080400040806000408080004080A0004080C0004080E00040A0000040A0200040A0400040A0600040A0800040A0A00040A0C00040A0E00040C0000040C0200040C0400040C0600040C08000
310
40C0A00040C0C00040C0E00040E0000040E0200040E0400040E0600040E0800040E0A00040E0C00040E0E00080000000800020008000400080006000800080008000A0008000C0008000E00080200000802020008020400080206000802080008020A0008020C0008020E00080400000804020008040400080406000804080
310
008040A0008040C0008040E00080600000806020008060400080606000806080008060A0008060C0008060E00080800000808020008080400080806000808080008080A0008080C0008080E00080A0000080A0200080A0400080A0600080A0800080A0A00080A0C00080A0E00080C0000080C0200080C0400080C0600080C0
310
800080C0A00080C0C00080C0E00080E0000080E0200080E0400080E0600080E0800080E0A00080E0C00080E0E000C0000000C0002000C0004000C0006000C0008000C000A000C000C000C000E000C0200000C0202000C0204000C0206000C0208000C020A000C020C000C020E000C0400000C0402000C0404000C0406000C0
310
408000C040A000C040C000C040E000C0600000C0602000C0604000C0606000C0608000C060A000C060C000C060E000C0800000C0802000C0804000C0806000C0808000C080A000C080C000C080E000C0A00000C0A02000C0A04000C0A06000C0A08000C0A0A000C0A0C000C0A0E000C0C00000C0C02000C0C04000C0C06000
310
C0C08000C0C0A000F0FBFF00A4A0A000808080000000FF0000FF000000FFFF00FF000000FF00FF00FFFF0000FFFFFF0000000000000000000000000000000000000000000000000000000000000000000000000000000000000000000000000000000000000000000000000000000000000000000000000000000000000000
310
00000000000000000000000000000000000000000000000000000000000000000000000000000000000000000000000000000000000000000000000000000000000000000000000000000000000000000000000000000000000000000000000000000000000000000000000000000000000000000000000000000000000000
310
000000000000000000000000000000000000000000000000000000000000000000000000000000000000000000000000000000FFFF0000000000000000000000000000000000000000000000000000000000000000FFFFFFFF0000000000000000000000000000000000000000000000000000000000000000FFFFFFFF0000
310
000000000000000000000000000000000000000000000000000000000000FFFFFF0000000000000000000000000000000000000000000000000000000000000000FFFFFFFF0000000000000000000000000000000000000000000000000000000000000000FFFFFF0000000000000000000000000000000000000000000000
310
000000000000000000FFFFFFFF0000000000000000000000000000000000000000000000000000000000000000FFFFFFFF00000000FFFFFFFFFFFFFFFFFFFFFFFFFFFFFFFFFFFFFFFFFFFFFFFFFFFFFFFFFFFF00000000000000000000000000000000000000000000000000FFFFFFFF000000000000000000000000000000
310
000000000000000000FFFFFFFF000000000000000000000000000000000000000000000000FFFFFFFF000000000000000000000000000000000000000000000000FFFFFFFF000000000000000000000000000000000000000000000000FFFFFFFF000000000000000000000000000000000000000000000000FFFFFFFF0000
310
0000000000000000000000000000000000000000000000FFFFFF0000000000000000000000000000000000000000000000000000000000000000000000000000000000000000000000000000000000000000000000000000000000000000000000000000000000000000000000000000000000000000000000000000000000
310
00000000000000000000000000000000000000000000000000000000000000000000000000000000000000000000000000000000000000000000000000000000000000000000000000000000000000000000000000000000000000000000000000000000000000000000000000000000000000000000000000000000000000
310
0000000000000000000000000000000000000000000000000000000000000000000000000000000000000000000000000000000000000000
102
{BLKREFS
331
139E
331
139F
331
13C2
331
13C3
331
14D5
331
14D6
331
14E0
331
14E1
331
14E9
331
14EA
331
150E
331
150F
331
173A
331
173B
331
1743
331
1744
331
1755
331
1756
331
175E
331
175F
331
1767
331
1768
331
1770
331
1771
331
1779
331
177A
331
17F8
331
17F9
331
1815
331
1816
102
}
  0
BLOCK_RECORD
  5
83
330
1
100
AcDbSymbolTableRecord
100
AcDbBlockTableRecord
  2
GENAXEH
340
0
310
2800000020000000200000000100080000000000000400000000000000000000000000000000000000000000000080000080000000808000800000008000800080800000C0C0C000C0DCC000F0CAA6000020400000206000002080000020A0000020C0000020E00000400000004020000040400000406000004080000040A0
310
000040C0000040E00000600000006020000060400000606000006080000060A0000060C0000060E00000800000008020000080400000806000008080000080A0000080C0000080E00000A0000000A0200000A0400000A0600000A0800000A0A00000A0C00000A0E00000C0000000C0200000C0400000C0600000C0800000C0
310
A00000C0C00000C0E00000E0000000E0200000E0400000E0600000E0800000E0A00000E0C00000E0E00040000000400020004000400040006000400080004000A0004000C0004000E00040200000402020004020400040206000402080004020A0004020C0004020E000404000004040200040404000404060004040800040
310
40A0004040C0004040E00040600000406020004060400040606000406080004060A0004060C0004060E00040800000408020004080400040806000408080004080A0004080C0004080E00040A0000040A0200040A0400040A0600040A0800040A0A00040A0C00040A0E00040C0000040C0200040C0400040C0600040C08000
310
40C0A00040C0C00040C0E00040E0000040E0200040E0400040E0600040E0800040E0A00040E0C00040E0E00080000000800020008000400080006000800080008000A0008000C0008000E00080200000802020008020400080206000802080008020A0008020C0008020E00080400000804020008040400080406000804080
310
008040A0008040C0008040E00080600000806020008060400080606000806080008060A0008060C0008060E00080800000808020008080400080806000808080008080A0008080C0008080E00080A0000080A0200080A0400080A0600080A0800080A0A00080A0C00080A0E00080C0000080C0200080C0400080C0600080C0
310
800080C0A00080C0C00080C0E00080E0000080E0200080E0400080E0600080E0800080E0A00080E0C00080E0E000C0000000C0002000C0004000C0006000C0008000C000A000C000C000C000E000C0200000C0202000C0204000C0206000C0208000C020A000C020C000C020E000C0400000C0402000C0404000C0406000C0
310
408000C040A000C040C000C040E000C0600000C0602000C0604000C0606000C0608000C060A000C060C000C060E000C0800000C0802000C0804000C0806000C0808000C080A000C080C000C080E000C0A00000C0A02000C0A04000C0A06000C0A08000C0A0A000C0A0C000C0A0E000C0C00000C0C02000C0C04000C0C06000
310
C0C08000C0C0A000F0FBFF00A4A0A000808080000000FF0000FF000000FFFF00FF000000FF00FF00FFFF0000FFFFFF0000000000000000000000000000000000000000000000000000000000000000000000000000000000000000000000000000000000000000000000000000000000000000000000000000000000000000
310
00000000000000000000000000000000000000000000000000000000000000000000000000000000000000000000000000000000000000000000000000000000000000000000000000000000000000000000000000000000000000000000000000000000000000000000000000000000000000000000000000000000000000
310
00000000000000000000000000000000000000000000000000000000000000000000000000000000000000000000000000000000000000000000000000000000000000000000000000000000000000000000000000000000000000000000000000000000000000000000000000000000000000000000000000000000000000
310
00000000000000000000000000000000000000000000000000000000000000000000000000000000000000000000000000000000000000000000000000000000000000000000000000000000000000000000000000000000000000000000000000000000000000000000000000000000000000000000000000000000000000
310
0000000000000000000000000000000000000000000000000000000000000000000000000000000000000000000000000000000000FFFFFFFFFFFFFFFFFFFFFFFFFFFFFFFFFFFFFFFFFFFFFFFFFFFFFFFFFFFF0000000000000000000000000000000000000000000000000000000000000000000000000000000000000000
310
00000000000000000000000000000000000000000000000000000000000000000000000000000000000000000000000000000000000000000000000000000000000000000000000000000000000000000000000000000000000000000000000000000000000000000000000000000000000000000000000000000000000000
310
00000000000000000000000000000000000000000000000000000000000000000000000000000000000000000000000000000000000000000000000000000000000000000000000000000000000000000000000000000000000000000000000000000000000000000000000000000000000000000000000000000000000000
310
00000000000000000000000000000000000000000000000000000000000000000000000000000000000000000000000000000000000000000000000000000000000000000000000000000000000000000000000000000000000000000000000000000000000000000000000000000000000000000000000000000000000000
310
0000000000000000000000000000000000000000000000000000000000000000000000000000000000000000000000000000000000000000
  0
BLOCK_RECORD
  5
335
330
1
100
AcDbSymbolTableRecord
100
AcDbBlockTableRecord
  2
IGS2
340
0
310
2800000020000000200000000100080000000000000400000000000000000000000000000000000000000000000080000080000000808000800000008000800080800000C0C0C000C0DCC000F0CAA6000020400000206000002080000020A0000020C0000020E00000400000004020000040400000406000004080000040A0
310
000040C0000040E00000600000006020000060400000606000006080000060A0000060C0000060E00000800000008020000080400000806000008080000080A0000080C0000080E00000A0000000A0200000A0400000A0600000A0800000A0A00000A0C00000A0E00000C0000000C0200000C0400000C0600000C0800000C0
310
A00000C0C00000C0E00000E0000000E0200000E0400000E0600000E0800000E0A00000E0C00000E0E00040000000400020004000400040006000400080004000A0004000C0004000E00040200000402020004020400040206000402080004020A0004020C0004020E000404000004040200040404000404060004040800040
310
40A0004040C0004040E00040600000406020004060400040606000406080004060A0004060C0004060E00040800000408020004080400040806000408080004080A0004080C0004080E00040A0000040A0200040A0400040A0600040A0800040A0A00040A0C00040A0E00040C0000040C0200040C0400040C0600040C08000
310
40C0A00040C0C00040C0E00040E0000040E0200040E0400040E0600040E0800040E0A00040E0C00040E0E00080000000800020008000400080006000800080008000A0008000C0008000E00080200000802020008020400080206000802080008020A0008020C0008020E00080400000804020008040400080406000804080
310
008040A0008040C0008040E00080600000806020008060400080606000806080008060A0008060C0008060E00080800000808020008080400080806000808080008080A0008080C0008080E00080A0000080A0200080A0400080A0600080A0800080A0A00080A0C00080A0E00080C0000080C0200080C0400080C0600080C0
310
800080C0A00080C0C00080C0E00080E0000080E0200080E0400080E0600080E0800080E0A00080E0C00080E0E000C0000000C0002000C0004000C0006000C0008000C000A000C000C000C000E000C0200000C0202000C0204000C0206000C0208000C020A000C020C000C020E000C0400000C0402000C0404000C0406000C0
310
408000C040A000C040C000C040E000C0600000C0602000C0604000C0606000C0608000C060A000C060C000C060E000C0800000C0802000C0804000C0806000C0808000C080A000C080C000C080E000C0A00000C0A02000C0A04000C0A06000C0A08000C0A0A000C0A0C000C0A0E000C0C00000C0C02000C0C04000C0C06000
310
C0C08000C0C0A000F0FBFF00A4A0A000808080000000FF0000FF000000FFFF00FF000000FF00FF00FFFF0000FFFFFF0000000000000000000000000000000000000000000000000000000000000000000000000000000000000000000000000000000000000000000000000000000000000000000000000000000000000000
310
00000000000000000000000000000000000000000000000000000000000000000000000000000000000000000000000000000000000000000000000000000000000000000000000000000000000000000000F9FBFBF9F9F9FBFBF9F9F9F90000000000000000000000000000000000000000F9F9FBFBFBFBFBFBFBF9F9F900
310
00000000000000000000000000000000000000F9FBFBFBFBFBFBFBFBF9F9F90000000000000000000000000000000000000000F9F9F9F9F9F9F9F9F9F9F9F900000000000000000000000000000000000000000000000000000000000000000000000000000000000000000000000000000000000000000000000000000000
310
00000000000000000000000000000000000000000000000000000000000000000000000000000000000000000000000000000000000000000000000000000000000000000000000000000000000000000000000000000000000000000000000000000000000000000000000000000000000000000000000000000000000000
310
00000000000000000000000000000000000000000000000000000000000000000000000000000000000000000000000000000000000000000000000000000000000000000000000000000000000000000000000000000000000000000000000000000000000000000000000000000000000000000000000000000000000000
310
00000000000000000000000000000000000000000000000000000000000000000000000000000000000000000000000000000000000000000000000000000000000000000000000000000000000000000000000000000000000000000000000000000000000000000000000000000000000000000000000000000000000000
310
00000000000000000000000000000000000000000000000000000000000000000000000000000000000000000000000000000000000000000000000000000000000000000000000000000000000000000000000000000000000000000000000000000000000000000000000000000000000000000000000000000000000000
310
00000000000000000000000000000000000000000000000000000000000000000000000000000000000000000000000000000000000000000000000000000000000000000000000000000000000000000000000000000000000000000000000000000000000000000000000000000000000000000000000000000000000000
310
0000000000000000000000000000000000000000000000000000000000000000000000000000000000000000000000000000000000000000
102
{BLKREFS
331
119C
102
}
  0
BLOCK_RECORD
  5
6A8
330
1
100
AcDbSymbolTableRecord
100
AcDbBlockTableRecord
  2
IGS_A3
340
0
310
2800000020000000200000000100080000000000000400000000000000000000000000000000000000000000000080000080000000808000800000008000800080800000C0C0C000C0DCC000F0CAA6000020400000206000002080000020A0000020C0000020E00000400000004020000040400000406000004080000040A0
310
000040C0000040E00000600000006020000060400000606000006080000060A0000060C0000060E00000800000008020000080400000806000008080000080A0000080C0000080E00000A0000000A0200000A0400000A0600000A0800000A0A00000A0C00000A0E00000C0000000C0200000C0400000C0600000C0800000C0
310
A00000C0C00000C0E00000E0000000E0200000E0400000E0600000E0800000E0A00000E0C00000E0E00040000000400020004000400040006000400080004000A0004000C0004000E00040200000402020004020400040206000402080004020A0004020C0004020E000404000004040200040404000404060004040800040
310
40A0004040C0004040E00040600000406020004060400040606000406080004060A0004060C0004060E00040800000408020004080400040806000408080004080A0004080C0004080E00040A0000040A0200040A0400040A0600040A0800040A0A00040A0C00040A0E00040C0000040C0200040C0400040C0600040C08000
310
40C0A00040C0C00040C0E00040E0000040E0200040E0400040E0600040E0800040E0A00040E0C00040E0E00080000000800020008000400080006000800080008000A0008000C0008000E00080200000802020008020400080206000802080008020A0008020C0008020E00080400000804020008040400080406000804080
310
008040A0008040C0008040E00080600000806020008060400080606000806080008060A0008060C0008060E00080800000808020008080400080806000808080008080A0008080C0008080E00080A0000080A0200080A0400080A0600080A0800080A0A00080A0C00080A0E00080C0000080C0200080C0400080C0600080C0
310
800080C0A00080C0C00080C0E00080E0000080E0200080E0400080E0600080E0800080E0A00080E0C00080E0E000C0000000C0002000C0004000C0006000C0008000C000A000C000C000C000E000C0200000C0202000C0204000C0206000C0208000C020A000C020C000C020E000C0400000C0402000C0404000C0406000C0
310
408000C040A000C040C000C040E000C0600000C0602000C0604000C0606000C0608000C060A000C060C000C060E000C0800000C0802000C0804000C0806000C0808000C080A000C080C000C080E000C0A00000C0A02000C0A04000C0A06000C0A08000C0A0A000C0A0C000C0A0E000C0C00000C0C02000C0C04000C0C06000
310
C0C08000C0C0A000F0FBFF00A4A0A000808080000000FF0000FF000000FFFF00FF000000FF00FF00FFFF0000FFFFFF0000000000000000000000000000000000000000000000000000000000000000000000000000000000000000000000000000000000000000000000000000000000000000000000000000000000000000
310
000000000000000000000000000000000000000000000000000000000000000000000000000000000000000000000000000000000000000000000000000000000000000000000000000000000000000000000000000000000000000000000000000000000000000000000000000000000000F9F9FFF9F9F9F9F9F9F9F9F9F9
310
F9F9F9F9F9F9F9F9F9F9F9F9F9F9F900000000F900FFFFFFFFFFFFFFFFFFFFFFFFFFFFFFFFFFFFFFFFFFFFFFFFFFF900000000F900FF0000000000000000000000000000000000000000000000FFF900000000F900FF0000000000000000000000000000000000000000000000FFF900000000F900FF000000000000000000
310
0000000000000000000000000000FFF900000000F900FF0000000000000000000000000000000000000000000000FFF900000000F900FF0000000000000000000000000000000000000000000000FFF900000000F900FF0000000000000000000000000000000000000000000000FFF900000000F900FF0000000000000000
310
000000000000000000000000000000FFF900000000F900FF0000000000000000000000000000000000000000000000FFF900000000F900FF0000000000000000000000000000000000000000000000FFF900000000F900FF0000000000000000000000000000000000000000000000FFF900000000F900FF00000000000000
310
00000000000000000000000000000000FFF900000000F900FF0000000000000000000000000000000000000000000000FFF900000000F900FF0000000000000000000000000000000000000000000000FFF900000000F900FF0000000000000000000000000000000000000000000000FFF900000000F900FF000000000000
310
0000000000000000000000000000000000FFF900000000F900FF0000000000000000000000000000000000000000000000FFF900000000F900FFFFFFFFFFFFFFFFFFFFFFFFFFFFFFFFFFFFFFFFFFFFFFFFFFF900000000F9F9F9F9F9F9F9F9F9F9F9F9F9F9F9F9F9F9F9F9F9F9F9F9F9F9F9F9000000000000000000000000
310
00000000000000000000000000000000000000000000000000000000000000000000000000000000000000000000000000000000000000000000000000000000000000000000000000000000000000000000000000000000000000000000000000000000000000000000000000000000000000000000000000000000000000
310
0000000000000000000000000000000000000000000000000000000000000000000000000000000000000000000000000000000000000000
102
{BLKREFS
331
119B
102
}
  0
BLOCK_RECORD
  5
104B
330
1
100
AcDbSymbolTableRecord
100
AcDbBlockTableRecord
  2
*D6
340
0
  0
BLOCK_RECORD
  5
1057
330
1
100
AcDbSymbolTableRecord
100
AcDbBlockTableRecord
  2
*D7
340
0
  0
BLOCK_RECORD
  5
1063
330
1
100
AcDbSymbolTableRecord
100
AcDbBlockTableRecord
  2
*D8
340
0
  0
BLOCK_RECORD
  5
106F
330
1
100
AcDbSymbolTableRecord
100
AcDbBlockTableRecord
  2
*D9
340
0
  0
BLOCK_RECORD
  5
107B
330
1
100
AcDbSymbolTableRecord
100
AcDbBlockTableRecord
  2
*D10
340
0
  0
BLOCK_RECORD
  5
1087
330
1
100
AcDbSymbolTableRecord
100
AcDbBlockTableRecord
  2
*D11
340
0
  0
BLOCK_RECORD
  5
1094
330
1
100
AcDbSymbolTableRecord
100
AcDbBlockTableRecord
  2
*D12
340
0
  0
BLOCK_RECORD
  5
10A0
330
1
100
AcDbSymbolTableRecord
100
AcDbBlockTableRecord
  2
*D13
340
0
  0
BLOCK_RECORD
  5
10AD
330
1
100
AcDbSymbolTableRecord
100
AcDbBlockTableRecord
  2
*D14
340
0
  0
BLOCK_RECORD
  5
10BA
330
1
100
AcDbSymbolTableRecord
100
AcDbBlockTableRecord
  2
*D15
340
0
  0
BLOCK_RECORD
  5
10D4
330
1
100
AcDbSymbolTableRecord
100
AcDbBlockTableRecord
  2
*D16
340
0
  0
BLOCK_RECORD
  5
10E1
330
1
100
AcDbSymbolTableRecord
100
AcDbBlockTableRecord
  2
*D17
340
0
  0
BLOCK_RECORD
  5
10ED
330
1
100
AcDbSymbolTableRecord
100
AcDbBlockTableRecord
  2
*D18
340
0
  0
BLOCK_RECORD
  5
10F9
330
1
100
AcDbSymbolTableRecord
100
AcDbBlockTableRecord
  2
*D19
340
0
  0
BLOCK_RECORD
  5
17FF
330
1
100
AcDbSymbolTableRecord
100
AcDbBlockTableRecord
  2
*D20
340
0
  0
BLOCK_RECORD
  5
18C8
330
1
100
AcDbSymbolTableRecord
100
AcDbBlockTableRecord
  2
*S21
340
0
  0
BLOCK_RECORD
  5
18CF
330
1
100
AcDbSymbolTableRecord
100
AcDbBlockTableRecord
  2
*S22
340
0
  0
BLOCK_RECORD
  5
18D7
330
1
100
AcDbSymbolTableRecord
100
AcDbBlockTableRecord
  2
*S23
340
0
  0
BLOCK_RECORD
  5
18DE
330
1
100
AcDbSymbolTableRecord
100
AcDbBlockTableRecord
  2
*S24
340
0
  0
BLOCK_RECORD
  5
18E6
330
1
100
AcDbSymbolTableRecord
100
AcDbBlockTableRecord
  2
*S25
340
0
  0
BLOCK_RECORD
  5
18ED
330
1
100
AcDbSymbolTableRecord
100
AcDbBlockTableRecord
  2
*S26
340
0
  0
BLOCK_RECORD
  5
18F5
330
1
100
AcDbSymbolTableRecord
100
AcDbBlockTableRecord
  2
*S27
340
0
  0
BLOCK_RECORD
  5
18FC
330
1
100
AcDbSymbolTableRecord
100
AcDbBlockTableRecord
  2
*S28
340
0
  0
BLOCK_RECORD
  5
1904
330
1
100
AcDbSymbolTableRecord
100
AcDbBlockTableRecord
  2
*S29
340
0
  0
BLOCK_RECORD
  5
190B
330
1
100
AcDbSymbolTableRecord
100
AcDbBlockTableRecord
  2
*S30
340
0
  0
BLOCK_RECORD
  5
1913
330
1
100
AcDbSymbolTableRecord
100
AcDbBlockTableRecord
  2
*S31
340
0
  0
ENDTAB
  0
ENDSEC
  0
SECTION
  2
BLOCKS
  0
BLOCK
  5
20
330
1F
100
AcDbEntity
  8
0
100
AcDbBlockBegin
  2
*Model_Space
 70
     0
 10
0.0
 20
0.0
 30
0.0
  3
*Model_Space
  1

  0
ENDBLK
  5
21
330
1F
100
AcDbEntity
  8
0
100
AcDbBlockEnd
  0
BLOCK
  5
1C
330
1B
100
AcDbEntity
 67
     1
  8
0
100
AcDbBlockBegin
  2
*Paper_Space
 70
     0
 10
0.0
 20
0.0
 30
0.0
  3
*Paper_Space
  1

  0
ENDBLK
  5
1D
330
1B
100
AcDbEntity
 67
     1
  8
0
100
AcDbBlockEnd
  0
BLOCK
  5
24
330
23
100
AcDbEntity
  8
0
100
AcDbBlockBegin
  2
*Paper_Space0
 70
     0
 10
0.0
 20
0.0
 30
0.0
  3
*Paper_Space0
  1

  0
ENDBLK
  5
25
330
23
100
AcDbEntity
  8
0
100
AcDbBlockEnd
  0
BLOCK
  5
7B
330
77
100
AcDbEntity
  8
0
100
AcDbBlockBegin
  2
_Open30
 70
     0
 10
0.0
 20
0.0
 30
0.0
  3
_Open30
  1

  0
LINE
  5
78
330
77
100
AcDbEntity
  8
0
  6
ByBlock
 62
     0
370
    -2
100
AcDbLine
 10
-1.0
 20
0.26794919
 30
0.0
 11
0.0
 21
0.0
 31
0.0
  0
LINE
  5
79
330
77
100
AcDbEntity
  8
0
  6
ByBlock
 62
     0
370
    -2
100
AcDbLine
 10
0.0
 20
0.0
 30
0.0
 11
-1.0
 21
-0.26794919
 31
0.0
  0
LINE
  5
7A
330
77
100
AcDbEntity
  8
0
  6
ByBlock
 62
     0
370
    -2
100
AcDbLine
 10
0.0
 20
0.0
 30
0.0
 11
-1.0
 21
0.0
 31
0.0
  0
ENDBLK
  5
7C
330
77
100
AcDbEntity
  8
0
100
AcDbBlockEnd
  0
BLOCK
  5
85
330
83
100
AcDbEntity
  8
0
100
AcDbBlockBegin
  2
GENAXEH
 70
     0
 10
0.0
 20
0.0
 30
0.0
  3
GENAXEH
  1

  0
LINE
  5
84
330
83
100
AcDbEntity
  8
0
100
AcDbLine
 10
-1.0
 20
0.0
 30
0.0
 11
1.0
 21
0.0
 31
0.0
  0
ENDBLK
  5
86
330
83
100
AcDbEntity
  8
0
100
AcDbBlockEnd
  0
BLOCK
  5
3B8
330
335
100
AcDbEntity
  8
0
100
AcDbBlockBegin
  2
IGS2
 70
     2
 10
0.0
 20
0.0
 30
0.0
  3
IGS2
  1

  0
POINT
  5
336
330
335
100
AcDbEntity
  8
0
 60
     1
100
AcDbPoint
 10
0.0
 20
0.0
 30
0.0
1001
GENIUS_GENODEF_13
1002
{
1000
HIER
1070
     1
1002
}
1002
{
1000
MANEDIT
1070
     0
1002
}
1002
{
1000
NOSEL
1070
     0
1002
}
1002
{
1000
BEHIND
1070
     0
1002
}
1002
{
1000
REACTOR
1002
}
1001
GENIUS_GENTITLE_13
1002
{
1000
SCALE
1000
1:1
1002
}
1002
{
1000
BORDER
1000
IGS-A4
1002
}
1002
{
1000
TITLE
1000
IGS-TITLE
1002
}
1002
{
1000
UNCHG
1002
{
1000
GEN-TITLE-SCA
1000
GEN-TITLE-SIZ
1002
}
1002
}
1002
{
1000
HRA
1005
0
1002
}
1002
{
1000
HTIT
1005
0
1002
}
1002
{
1000
GENIUSID
1005
336
1002
}
1001
GENIUS_GENOBJ-N-TIT_13
1002
{
1000
OWNER
1000
GEN
1002
}
1001
GENIUS_GENOENT_13
1002
{
1000
MYREF
1005
336
1002
}
1002
{
1000
GRP
1005
0
1002
}
1001
GENIUS_GENOLIS_13
1002
{
1000
ENT
1005
0
1005
0
1002
}
  0
LINE
  5
337
330
335
100
AcDbEntity
  8
RAHM3
100
AcDbLine
 10
-148.4080564410193
 20
8.825237325416161
 30
52.0
 11
-145.4319868410194
 21
8.825237325416161
 31
52.0
  0
ARC
  5
338
330
335
100
AcDbEntity
  8
RAHM3
100
AcDbCircle
 10
-141.4638940410194
 20
7.833214125416168
 30
52.0
 40
0.9920232
100
AcDbArc
 50
90.0
 51
180.0
  0
LINE
  5
339
330
335
100
AcDbEntity
  8
RAHM3
100
AcDbLine
 10
-137.6611384410193
 20
8.825237325416161
 30
52.0
 11
-141.4638940410194
 21
8.825237325416161
 31
52.0
  0
ARC
  5
33A
330
335
100
AcDbEntity
  8
RAHM3
100
AcDbCircle
 10
-137.6611384410193
 20
7.833214125416168
 30
52.0
 40
0.9920232
100
AcDbArc
 50
0.0
 51
90.0
  0
ARC
  5
33B
330
335
100
AcDbEntity
  8
RAHM3
100
AcDbCircle
 10
-129.0636040410194
 20
7.833214125416168
 30
52.0
 40
0.9920232
100
AcDbArc
 50
0.0
 51
90.0
  0
LINE
  5
33C
330
335
100
AcDbEntity
  8
RAHM3
100
AcDbLine
 10
-132.7010224410193
 20
8.825237325416161
 30
52.0
 11
-129.0636040410194
 21
8.825237325416161
 31
52.0
  0
ARC
  5
33D
330
335
100
AcDbEntity
  8
RAHM3
100
AcDbCircle
 10
-132.7010224410193
 20
7.833214125416168
 30
52.0
 40
0.9920232
100
AcDbArc
 50
90.0
 51
180.0
  0
LINE
  5
33E
330
335
100
AcDbEntity
  8
RAHM3
100
AcDbLine
 10
-148.4080564410193
 20
8.163888525416165
 30
52.0
 11
-147.5813704410193
 21
8.163888525416165
 31
52.0
  0
LINE
  5
33F
330
335
100
AcDbEntity
  8
RAHM3
100
AcDbLine
 10
-147.5813704410193
 20
8.163888525416165
 30
52.0
 11
-147.5813704410193
 21
3.865121325416145
 31
52.0
  0
LINE
  5
340
330
335
100
AcDbEntity
  8
RAHM3
100
AcDbLine
 10
-146.2586728410194
 20
3.865121325416145
 30
52.0
 11
-146.2586728410194
 21
8.163888525416165
 31
52.0
  0
LINE
  5
341
330
335
100
AcDbEntity
  8
RAHM3
100
AcDbLine
 10
-146.2586728410194
 20
8.163888525416165
 30
52.0
 11
-145.4319868410194
 21
8.163888525416165
 31
52.0
  0
LINE
  5
342
330
335
100
AcDbEntity
  8
RAHM3
100
AcDbLine
 10
-145.4319868410194
 20
8.825237325416161
 30
52.0
 11
-145.4319868410194
 21
8.163888525416165
 31
52.0
  0
LINE
  5
343
330
335
100
AcDbEntity
  8
RAHM3
100
AcDbLine
 10
-148.4080564410193
 20
8.163888525416165
 30
52.0
 11
-148.4080564410193
 21
8.825237325416161
 31
52.0
  0
LINE
  5
344
330
335
100
AcDbEntity
  8
RAHM3
100
AcDbLine
 10
-145.4319868410194
 20
3.203772525416149
 30
52.0
 11
-148.4080564410193
 21
3.203772525416149
 31
52.0
  0
CIRCLE
  5
345
330
335
100
AcDbEntity
  8
RAHM3
100
AcDbCircle
 10
-144.1092892410194
 20
3.865121325416145
 30
52.0
 40
0.6613488000000001
  0
LINE
  5
346
330
335
100
AcDbEntity
  8
RAHM3
100
AcDbLine
 10
-137.9918128410194
 20
3.865121325416145
 30
52.0
 11
-137.9918128410194
 21
3.203772525416149
 31
52.0
  0
LINE
  5
347
330
335
100
AcDbEntity
  8
RAHM3
100
AcDbLine
 10
-137.9918128410194
 20
3.203772525416149
 30
52.0
 11
-136.6691152410193
 21
3.203772525416149
 31
52.0
  0
ARC
  5
348
330
335
100
AcDbEntity
  8
RAHM3
100
AcDbCircle
 10
-141.4638940410194
 20
4.195795725416166
 30
52.0
 40
0.9920232
100
AcDbArc
 50
180.0
 51
270.0
  0
LINE
  5
349
330
335
100
AcDbEntity
  8
RAHM3
100
AcDbLine
 10
-141.4638940410194
 20
3.203772525416149
 30
52.0
 11
-141.1332196410193
 21
3.203772525416149
 31
52.0
  0
LINE
  5
34A
330
335
100
AcDbEntity
  8
RAHM3
100
AcDbLine
 10
-142.4559172410194
 20
4.195795725416166
 30
52.0
 11
-142.4559172410194
 21
7.833214125416168
 31
52.0
  0
CIRCLE
  5
34B
330
335
100
AcDbEntity
  8
RAHM3
100
AcDbCircle
 10
-135.5117548410193
 20
3.865121325416145
 30
52.0
 40
0.6613488000000001
  0
ARC
  5
34C
330
335
100
AcDbEntity
  8
RAHM3
100
AcDbCircle
 10
-132.7010224410193
 20
4.195795725416166
 30
52.0
 40
0.9920232
100
AcDbArc
 50
180.0
 51
270.0
  0
LINE
  5
34D
330
335
100
AcDbEntity
  8
RAHM3
100
AcDbLine
 10
-129.0636040410194
 20
3.203772525416149
 30
52.0
 11
-132.7010224410193
 21
3.203772525416149
 31
52.0
  0
ARC
  5
34E
330
335
100
AcDbEntity
  8
RAHM3
100
AcDbCircle
 10
-129.0636040410194
 20
4.195795725416166
 30
52.0
 40
0.9920232
100
AcDbArc
 50
270.0
 51
0.0
  0
LINE
  5
34F
330
335
100
AcDbEntity
  8
RAHM3
100
AcDbLine
 10
-133.6930456410194
 20
4.195795725416166
 30
52.0
 11
-133.6930456410194
 21
5.022481725416161
 31
52.0
  0
LINE
  5
350
330
335
100
AcDbEntity
  8
RAHM3
100
AcDbLine
 10
-128.0715808410194
 20
7.833214125416168
 30
52.0
 11
-128.0715808410194
 21
7.00652812541615
 31
52.0
  0
CIRCLE
  5
351
330
335
100
AcDbEntity
  8
RAHM3
100
AcDbCircle
 10
-126.9142204410194
 20
3.865121325416145
 30
52.0
 40
0.6613488000000001
  0
LINE
  5
352
330
335
100
AcDbEntity
  8
RAHM3
100
AcDbLine
 10
-136.6691152410193
 20
7.171865325416149
 30
52.0
 11
-137.8264756410194
 21
7.171865325416149
 31
52.0
  0
LINE
  5
353
330
335
100
AcDbEntity
  8
RAHM3
100
AcDbLine
 10
-137.8264756410194
 20
7.171865325416149
 30
52.0
 11
-137.8264756410194
 21
7.667876925416146
 31
52.0
  0
LINE
  5
354
330
335
100
AcDbEntity
  8
RAHM3
100
AcDbLine
 10
-137.8264756410194
 20
7.667876925416146
 30
52.0
 11
-141.2985568410193
 21
7.667876925416146
 31
52.0
  0
LINE
  5
355
330
335
100
AcDbEntity
  8
RAHM3
100
AcDbLine
 10
-141.2985568410193
 20
7.667876925416146
 30
52.0
 11
-141.2985568410193
 21
4.361132925416165
 31
52.0
  0
LINE
  5
356
330
335
100
AcDbEntity
  8
RAHM3
100
AcDbLine
 10
-137.8264756410194
 20
5.518493325416158
 30
52.0
 11
-139.4798476410193
 21
5.518493325416158
 31
52.0
  0
LINE
  5
357
330
335
100
AcDbEntity
  8
RAHM3
100
AcDbLine
 10
-139.4798476410193
 20
5.518493325416158
 30
52.0
 11
-139.4798476410193
 21
6.510516525416153
 31
52.0
  0
LINE
  5
358
330
335
100
AcDbEntity
  8
RAHM3
100
AcDbLine
 10
-136.6691152410193
 20
7.171865325416149
 30
52.0
 11
-136.6691152410193
 21
7.833214125416168
 31
52.0
  0
LINE
  5
359
330
335
100
AcDbEntity
  8
RAHM3
100
AcDbLine
 10
-137.8264756410194
 20
5.022481725416161
 30
52.0
 11
-137.8264756410194
 21
5.518493325416158
 31
52.0
  0
LINE
  5
35A
330
335
100
AcDbEntity
  8
RAHM3
100
AcDbLine
 10
-137.6611384410193
 20
6.510516525416153
 30
52.0
 11
-139.4798476410193
 21
6.510516525416153
 31
52.0
  0
LINE
  5
35B
330
335
100
AcDbEntity
  8
RAHM3
100
AcDbLine
 10
-136.6691152410193
 20
5.518493325416158
 30
52.0
 11
-136.6691152410193
 21
3.203772525416149
 31
52.0
  0
ARC
  5
35C
330
335
100
AcDbEntity
  8
RAHM3
100
AcDbCircle
 10
-137.6611384410193
 20
5.518493325416158
 30
52.0
 40
0.9920232
100
AcDbArc
 50
0.0
 51
90.0
  0
LINE
  5
35D
330
335
100
AcDbEntity
  8
RAHM3
100
AcDbLine
 10
-139.1930809214994
 20
5.022481725416161
 30
52.0
 11
-137.8264756410194
 21
5.022481725416161
 31
52.0
  0
ARC
  5
35E
330
335
100
AcDbEntity
  8
RAHM3
100
AcDbCircle
 10
-139.1930809214994
 20
4.030458525416167
 30
52.0
 40
0.9920232
100
AcDbArc
 50
90.0
 51
119.7448812969
  0
LINE
  5
35F
330
335
100
AcDbEntity
  8
RAHM3
100
AcDbLine
 10
-140.8773334868594
 20
4.361132925416165
 30
52.0
 11
-141.2985568410193
 21
4.361132925416165
 31
52.0
  0
LINE
  5
360
330
335
100
AcDbEntity
  8
RAHM3
100
AcDbLine
 10
-140.3851521495794
 20
4.491838785176161
 30
52.0
 11
-139.6852622587794
 21
4.891775865576152
 31
52.0
  0
ARC
  5
361
330
335
100
AcDbEntity
  8
RAHM3
100
AcDbCircle
 10
-140.8773334868594
 20
5.35315612541616
 30
52.0
 40
0.9920232
100
AcDbArc
 50
270.0
 51
299.7448812969
  0
ARC
  5
362
330
335
100
AcDbEntity
  8
RAHM3
100
AcDbCircle
 10
-138.8857271583794
 20
2.873098125416151
 30
52.0
 40
0.9920232
100
AcDbArc
 50
90.0
 51
119.7448812969
  0
LINE
  5
363
330
335
100
AcDbEntity
  8
RAHM3
100
AcDbLine
 10
-140.5699797237394
 20
3.203772525416149
 30
52.0
 11
-141.4638940410194
 21
3.203772525416149
 31
52.0
  0
ARC
  5
364
330
335
100
AcDbEntity
  8
RAHM3
100
AcDbCircle
 10
-140.5699797237394
 20
4.195795725416166
 30
52.0
 40
0.9920232
100
AcDbArc
 50
270.0
 51
299.7448812969
  0
LINE
  5
365
330
335
100
AcDbEntity
  8
RAHM3
100
AcDbLine
 10
-139.3779084956594
 20
3.734415465576159
 30
52.0
 11
-140.0777983864594
 21
3.334478385176168
 31
52.0
  0
LINE
  5
366
330
335
100
AcDbEntity
  8
RAHM3
100
AcDbLine
 10
-138.8857271583794
 20
3.865121325416145
 30
52.0
 11
-137.9918128410194
 21
3.865121325416145
 31
52.0
  0
LINE
  5
367
330
335
100
AcDbEntity
  8
RAHM3
100
AcDbLine
 10
-147.5813704410193
 20
3.865121325416145
 30
52.0
 11
-148.4080564410193
 21
3.865121325416145
 31
52.0
  0
LINE
  5
368
330
335
100
AcDbEntity
  8
RAHM3
100
AcDbLine
 10
-146.2586728410194
 20
3.865121325416145
 30
52.0
 11
-145.4319868410194
 21
3.865121325416145
 31
52.0
  0
LINE
  5
369
330
335
100
AcDbEntity
  8
RAHM3
100
AcDbLine
 10
-148.4080564410193
 20
3.203772525416149
 30
52.0
 11
-148.4080564410193
 21
3.865121325416145
 31
52.0
  0
LINE
  5
36A
330
335
100
AcDbEntity
  8
RAHM3
100
AcDbLine
 10
-145.4319868410194
 20
3.865121325416145
 30
52.0
 11
-145.4319868410194
 21
3.203772525416149
 31
52.0
  0
LINE
  5
36B
330
335
100
AcDbEntity
  8
RAHM3
100
AcDbLine
 10
-132.5356852410194
 20
7.667876925416146
 30
52.0
 11
-129.2289412410193
 21
7.667876925416146
 31
52.0
  0
LINE
  5
36C
330
335
100
AcDbEntity
  8
RAHM3
100
AcDbLine
 10
-129.2289412410193
 20
7.667876925416146
 30
52.0
 11
-129.2289412410193
 21
7.00652812541615
 31
52.0
  0
LINE
  5
36D
330
335
100
AcDbEntity
  8
RAHM3
100
AcDbLine
 10
-132.5356852410194
 20
5.022481725416161
 30
52.0
 11
-132.5356852410194
 21
4.361132925416165
 31
52.0
  0
LINE
  5
36E
330
335
100
AcDbEntity
  8
RAHM3
100
AcDbLine
 10
-132.5356852410194
 20
4.361132925416165
 30
52.0
 11
-129.2289412410193
 21
4.361132925416165
 31
52.0
  0
LINE
  5
36F
330
335
100
AcDbEntity
  8
RAHM3
100
AcDbLine
 10
-132.5356852410194
 20
5.022481725416161
 30
52.0
 11
-133.6930456410194
 21
5.022481725416161
 31
52.0
  0
LINE
  5
370
330
335
100
AcDbEntity
  8
RAHM3
100
AcDbLine
 10
-128.0715808410194
 20
7.00652812541615
 30
52.0
 11
-129.2289412410193
 21
7.00652812541615
 31
52.0
  0
LINE
  5
371
330
335
100
AcDbEntity
  8
RAHM3
100
AcDbLine
 10
-129.2289412410193
 20
4.361132925416165
 30
52.0
 11
-129.2289412410193
 21
5.518493325416158
 31
52.0
  0
LINE
  5
372
330
335
100
AcDbEntity
  8
RAHM3
100
AcDbLine
 10
-132.5356852410194
 20
6.510516525416153
 30
52.0
 11
-132.5356852410194
 21
7.667876925416146
 31
52.0
  0
LINE
  5
373
330
335
100
AcDbEntity
  8
RAHM3
100
AcDbLine
 10
-128.0715808410194
 20
5.518493325416158
 30
52.0
 11
-128.0715808410194
 21
4.195795725416166
 31
52.0
  0
LINE
  5
374
330
335
100
AcDbEntity
  8
RAHM3
100
AcDbLine
 10
-129.0636040410194
 20
6.510516525416153
 30
52.0
 11
-132.5356852410194
 21
6.510516525416153
 31
52.0
  0
ARC
  5
375
330
335
100
AcDbEntity
  8
RAHM3
100
AcDbCircle
 10
-129.0636040410194
 20
5.518493325416158
 30
52.0
 40
0.9920232
100
AcDbArc
 50
0.0
 51
90.0
  0
LINE
  5
376
330
335
100
AcDbEntity
  8
RAHM3
100
AcDbLine
 10
-132.7010224411794
 20
5.518493325416158
 30
52.0
 11
-129.2289412410193
 21
5.518493325416158
 31
52.0
  0
LINE
  5
377
330
335
100
AcDbEntity
  8
RAHM3
100
AcDbLine
 10
-133.6930456410194
 20
6.510516525416153
 30
52.0
 11
-133.6930456410194
 21
7.833214125416168
 31
52.0
  0
ARC
  5
378
330
335
100
AcDbEntity
  8
RAHM3
100
AcDbCircle
 10
-132.7010224411794
 20
6.510516525416153
 30
52.0
 40
0.9920232
100
AcDbArc
 50
180.0
 51
270.0
  0
POINT
  5
379
330
335
100
AcDbEntity
  8
0
 60
     1
100
AcDbPoint
 10
0.0
 20
0.0
 30
0.0
1001
GENIUS_GENODEF_13
1002
{
1000
HIER
1070
     1
1002
}
1002
{
1000
MANEDIT
1070
     0
1002
}
1002
{
1000
NOSEL
1070
     0
1002
}
1002
{
1000
BEHIND
1070
     0
1002
}
1002
{
1000
REACTOR
1002
}
1001
GENIUS_GENTITLE_13
1002
{
1000
SCALE
1000
1:1
1002
}
1002
{
1000
BORDER
1000
GEN_A4
1002
}
1002
{
1000
TITLE
1000
GENTITUS
1002
}
1002
{
1000
UNCHG
1002
{
1000
GEN-TITLE-SCA
1000
GEN-TITLE-SIZ
1002
}
1002
}
1002
{
1000
HRA
1005
0
1002
}
1002
{
1000
HTIT
1005
0
1002
}
1002
{
1000
GENIUSID
1005
379
1002
}
1001
GENIUS_GENOBJ-N-TIT_13
1002
{
1000
OWNER
1000
GEN
1002
}
1001
GENIUS_GENOENT_13
1002
{
1000
MYREF
1005
379
1002
}
1002
{
1000
GRP
1005
0
1002
}
1001
GENIUS_GENOLIS_13
1002
{
1000
ENT
1005
0
1005
0
1002
}
  0
TEXT
  5
37A
330
335
100
AcDbEntity
  8
0
 60
     1
100
AcDbText
 10
210.0
 20
297.0
 30
0.0
 40
3.5
  1
!GENTITLE-MAX
100
AcDbText
  0
TEXT
  5
37B
330
335
100
AcDbEntity
  8
0
 60
     1
100
AcDbText
 10
205.0
 20
287.0
 30
0.0
 40
3.5
  1
!GENTITLE-RU
100
AcDbText
  0
TEXT
  5
37C
330
335
100
AcDbEntity
  8
0
 60
     1
100
AcDbText
 10
15.0
 20
59.99
 30
0.0
 40
3.5
  1
!GENTITLE-LL
100
AcDbText
  0
TEXT
  5
37D
330
335
100
AcDbEntity
  8
0
 60
     1
100
AcDbText
 10
205.0
 20
5.0
 30
0.0
 40
3.5
  1
!GENTITLE-INSERT
100
AcDbText
  0
LINE
  5
37E
330
335
100
AcDbEntity
  8
RAHM2
100
AcDbLine
 10
-155.0
 20
12.0
 30
0.0
 11
0.0
 21
12.0
 31
0.0
  0
LINE
  5
37F
330
335
100
AcDbEntity
  8
RAHM2
100
AcDbLine
 10
-12.0
 20
12.0
 30
0.0
 11
-12.00000000000727
 21
0.0
 31
0.0
  0
LINE
  5
380
330
335
100
AcDbEntity
  8
RAHM2
100
AcDbLine
 10
-80.0
 20
19.99999999999272
 30
0.0
 11
0.0
 21
20.0
 31
0.0
  0
LINE
  5
381
330
335
100
AcDbEntity
  8
RAHM2
100
AcDbLine
 10
0.0
 20
27.0
 30
0.0
 11
-80.0
 21
27.0
 31
0.0
  0
MTEXT
  5
382
330
335
100
AcDbEntity
  8
RAHM2
100
AcDbMText
 10
-78.39748281353763
 20
37.79972226353243
 30
0.0
 40
2.5
 41
2.458156240282278
 71
     1
 72
     5
  1

 73
     1
 44
1.0
  0
TEXT
  5
383
330
335
100
AcDbEntity
  8
RAHM3
100
AcDbText
 10
-79.00900277736832
 20
36.89804600214973
 30
0.0
 40
2.299999999999999
  1
名称 ＴＩＴＬＥ
 41
0.8
100
AcDbText
  0
LINE
  5
384
330
335
100
AcDbEntity
  8
RAHM2
100
AcDbLine
 10
-80.0
 20
40.00000000000727
 30
0.0
 11
-80.0
 21
0.0
 31
0.0
  0
TEXT
  5
385
330
335
100
AcDbEntity
  8
RAHM3
100
AcDbText
 10
-79.00900277736832
 20
23.89804600216055
 30
0.0
 40
2.299999999999999
  1
符号 
 41
0.8
100
AcDbText
  0
TEXT
  5
386
330
335
100
AcDbEntity
  8
RAHM3
100
AcDbText
 10
-79.00900277736832
 20
16.89804600215146
 30
0.0
 40
2.299999999999999
  1
件名
 41
0.8
100
AcDbText
  0
TEXT
  5
387
330
335
100
AcDbEntity
  8
RAHM3
100
AcDbText
 10
-79.00900277736832
 20
8.898046002160548
 30
0.0
 40
2.299999999999999
  1
図番 ＤＲＡＷＩＮＧ ＮＯ．
 41
0.8
100
AcDbText
  0
CIRCLE
  5
388
330
335
100
AcDbEntity
  8
RAHM2
100
AcDbCircle
 10
-5.0
 20
5.0
 30
0.0
 40
4.5
  0
LINE
  5
389
330
335
100
AcDbEntity
  8
RAHM2
100
AcDbLine
 10
-130.0000000000018
 20
40.00000000000916
 30
0.0
 11
-130.0000000000018
 21
12.0
 31
0.0
  0
LINE
  5
38A
330
335
100
AcDbEntity
  8
RAHM2
100
AcDbLine
 10
-130.0000000000018
 20
26.00000000000458
 30
0.0
 11
-80.0
 21
25.99999999999818
 31
0.0
  0
LINE
  5
38B
330
335
100
AcDbEntity
  8
RAHM2
100
AcDbLine
 10
-105.0000000000018
 20
40.00000000000916
 30
0.0
 11
-105.0000000000018
 21
12.0
 31
0.0
  0
TEXT
  5
38C
330
335
100
AcDbEntity
  8
RAHM3
100
AcDbText
 10
-129.0090027773683
 20
36.89804600215881
 30
0.0
 40
2.299999999999999
  1
承認 ＡＰＰＤ
 41
0.8
100
AcDbText
  0
TEXT
  5
38D
330
335
100
AcDbEntity
  8
RAHM3
100
AcDbText
 10
-104.0090027773683
 20
36.8980460021551
 30
0.0
 40
2.299999999999999
  1
検図 ＣＨＫ
 41
0.8
100
AcDbText
  0
TEXT
  5
38E
330
335
100
AcDbEntity
  8
RAHM3
100
AcDbText
 10
-129.0090027773683
 20
22.89804600215422
 30
0.0
 40
2.299999999999999
  1
設計 ＥＮＧＲ
 41
0.8
100
AcDbText
  0
TEXT
  5
38F
330
335
100
AcDbEntity
  8
RAHM3
100
AcDbText
 10
-104.0090027773683
 20
22.89804600214964
 30
0.0
 40
2.299999999999999
  1
製図 ＤＲ ＤＡＴＥ
 41
0.8
100
AcDbText
  0
LINE
  5
390
330
335
100
AcDbEntity
  8
RAHM2
100
AcDbLine
 10
-155.0
 20
30.60000000000036
 30
0.0
 11
-130.0000000000018
 21
30.60000000000036
 31
0.0
  0
LINE
  5
391
330
335
100
AcDbEntity
  8
RAHM2
100
AcDbLine
 10
-155.0
 20
21.29999999999927
 30
0.0
 11
-130.0000000000018
 21
21.30000000000109
 31
0.0
  0
TEXT
  5
392
330
335
100
AcDbEntity
  8
RAHM3
100
AcDbText
 10
-121.7843516157921
 20
6.885079184961092
 30
0.0
 40
4.0
  1
伊藤鉄工株式会社
100
AcDbText
  0
TEXT
  5
393
330
335
100
AcDbEntity
  8
RAHM3
100
AcDbText
 10
-120.6675998914835
 20
3.578884653066273
 30
0.0
 40
2.0
  1
ITO TEKKO  CO.,LTD.
100
AcDbText
1001
GENIUS_GENTRA_14
1002
{
1070
     1
1000
/
1000
ITO TEKKO  CO.,LTD.
1000
JPN
1070
     0
1040
1.0
1070
     0
1002
}
  0
TEXT
  5
394
330
335
100
AcDbEntity
  8
RAHM3
100
AcDbText
 10
-120.6675998914835
 20
0.9279960228792472
 30
0.0
 40
2.0
  1
KAWAGUCHI  JAPAN
100
AcDbText
  0
TEXT
  5
395
330
335
100
AcDbEntity
  8
RAHM3
100
AcDbText
 10
-11.85206060358336
 20
9.69362381988742
 30
0.0
 40
1.8
  1
ＲＥＶ．ＭＡＲＫ
 41
0.6800000000000001
100
AcDbText
  0
TEXT
  5
396
330
335
100
AcDbEntity
  8
RAHM3
100
AcDbText
 10
-11.57052530051805
 20
7.425435269030799
 30
0.0
 40
1.8
  1
変
100
AcDbText
  0
TEXT
  5
397
330
335
100
AcDbEntity
  8
RAHM3
100
AcDbText
 10
-11.59004395148213
 20
4.996441785248862
 30
0.0
 40
1.8
  1
更
100
AcDbText
  0
TEXT
  5
398
330
335
100
AcDbEntity
  8
RAHM3
100
AcDbText
 10
-11.62938531906752
 20
2.617267270587205
 30
0.0
 40
1.8
  1
回
100
AcDbText
  0
TEXT
  5
399
330
335
100
AcDbEntity
  8
RAHM3
100
AcDbText
 10
-11.56556962136267
 20
0.3551115072955326
 30
0.0
 40
1.8
  1
数
100
AcDbText
  0
TEXT
  5
39A
330
335
100
AcDbEntity
  8
RAHM3
100
AcDbText
 10
-154.0090027773665
 20
36.89804600217056
 30
0.0
 40
2.299999999999999
  1
尺度 ＳＣＡＬＥ
 41
0.8
100
AcDbText
  0
TEXT
  5
39B
330
335
100
AcDbEntity
  8
RAHM3
100
AcDbText
 10
-154.0090027773665
 20
27.49804600215
 30
0.0
 40
2.299999999999999
  1
図面枚数 ＮＯ．  
 41
0.8
100
AcDbText
  0
LINE
  5
39C
330
335
100
AcDbEntity
  8
7A
100
AcDbLine
 10
-151.7551228444401
 20
16.64999999999988
 30
0.0
 11
-149.2551228444401
 21
16.64999999999988
 31
0.0
1001
GENIUS_GENOREF_13
1005
3A0
  0
LINE
  5
39D
330
335
100
AcDbEntity
  8
7A
100
AcDbLine
 10
-151.7551228444401
 20
16.64999999999988
 30
0.0
 11
-151.7551228444401
 21
19.14999999999988
 31
0.0
1001
GENIUS_GENOREF_13
1005
3A0
  0
LINE
  5
39E
330
335
100
AcDbEntity
  8
7A
100
AcDbLine
 10
-151.7551228444401
 20
16.64999999999988
 30
0.0
 11
-154.2551228444401
 21
16.64999999999988
 31
0.0
1001
GENIUS_GENOREF_13
1005
3A0
  0
LINE
  5
39F
330
335
100
AcDbEntity
  8
7A
100
AcDbLine
 10
-151.7551228444401
 20
16.64999999999988
 30
0.0
 11
-151.7551228444401
 21
14.14999999999988
 31
0.0
1001
GENIUS_GENOREF_13
1005
3A0
  0
POINT
  5
3A0
330
335
100
AcDbEntity
  8
0
 60
     1
100
AcDbPoint
 10
0.0
 20
0.0
 30
0.0
1001
GENIUS_GENODEF_13
1002
{
1000
HIER
1070
    10
1002
}
1002
{
1000
MANEDIT
1070
     0
1002
}
1002
{
1000
NOSEL
1070
     0
1002
}
1002
{
1000
BEHIND
1070
     0
1002
}
1002
{
1000
REACTOR
1002
}
1001
GENIUS_GENOBJ-N-CRS_13
1002
{
1000
OWNER
1000
GEN
1002
}
1001
GENIUS_GENOENT_13
1002
{
1000
MYREF
1005
3A0
1002
}
1002
{
1000
GRP
1005
0
1002
}
1001
GENIUS_GENOLIS_13
1002
{
1000
ENT
1005
39F
1005
39E
1005
39D
1005
39C
1002
}
  0
CIRCLE
  5
3A1
330
335
100
AcDbEntity
  8
RAHM3
100
AcDbCircle
 10
-151.7551228444401
 20
16.64999999999988
 30
0.0
 40
2.0
  0
CIRCLE
  5
3A2
330
335
100
AcDbEntity
  8
RAHM3
100
AcDbCircle
 10
-151.7551228444401
 20
16.64999999999952
 30
0.0
 40
1.0
  0
LINE
  5
3A3
330
335
100
AcDbEntity
  8
RAHM3
100
AcDbLine
 10
-147.7659442035316
 20
17.64999999999929
 30
0.0
 11
-147.7659442035316
 21
15.64999999999929
 31
0.0
  0
LINE
  5
3A4
330
335
100
AcDbEntity
  8
RAHM3
100
AcDbLine
 10
-147.7659442035316
 20
15.64999999999929
 30
0.0
 11
-143.7659442035316
 21
14.64999999999928
 31
0.0
  0
LINE
  5
3A5
330
335
100
AcDbEntity
  8
RAHM3
100
AcDbLine
 10
-143.7659442035316
 20
14.64999999999928
 30
0.0
 11
-143.7659442035316
 21
18.64999999999929
 31
0.0
  0
LINE
  5
3A6
330
335
100
AcDbEntity
  8
RAHM3
100
AcDbLine
 10
-143.7659442035316
 20
18.64999999999929
 30
0.0
 11
-147.7659442035316
 21
17.64999999999929
 31
0.0
  0
LINE
  5
3A7
330
335
100
AcDbEntity
  8
7A
100
AcDbLine
 10
-148.6350563849704
 20
16.64999999999929
 30
0.0
 11
-142.8462596443259
 21
16.64999999999929
 31
0.0
1001
GENIUS_GENODEF_13
1002
{
1000
HIER
1070
     0
1002
}
1002
{
1000
MANEDIT
1070
     0
1002
}
1002
{
1000
NOSEL
1070
     0
1002
}
1002
{
1000
BEHIND
1070
     0
1002
}
1002
{
1000
REACTOR
1002
}
1001
GENIUS_GENOBJ-N-CEN_13
1002
{
1000
OWNER
1000
GEN
1002
}
  0
TEXT
  5
3A8
330
335
100
AcDbEntity
  8
RAHM3
100
AcDbText
 10
-141.8454810851357
 20
18.28209750892168
 30
0.0
 40
2.1
  1
単位 ＵＮＩＴ
 41
0.7
100
AcDbText
  0
LINE
  5
3A9
330
335
100
AcDbEntity
  8
RAHM2
100
AcDbLine
 10
-142.5000000000009
 20
21.29999999999927
 30
0.0
 11
-142.5000000000009
 21
12.0
 31
0.0
  0
TEXT
  5
3AA
330
335
100
AcDbEntity
  8
RAHM3
100
AcDbText
 10
-139.6782849929894
 20
13.82826889824218
 30
0.0
 40
4.0
  1
ｍｍ
 41
0.8
100
AcDbText
  0
POLYLINE
  5
3AB
330
335
100
AcDbEntity
  8
RAHM2
100
AcDb2dPolyline
 66
     1
 10
0.0
 20
0.0
 30
0.0
 70
     1
  0
VERTEX
  5
3AC
330
3AB
100
AcDbEntity
  8
RAHM2
100
AcDbVertex
100
AcDb2dVertex
 10
-155.0
 20
-0.000000000001819
 30
0.0
  0
VERTEX
  5
3AD
330
3AB
100
AcDbEntity
  8
RAHM2
100
AcDbVertex
100
AcDb2dVertex
 10
-155.0
 20
40.00000000002091
 30
0.0
  0
VERTEX
  5
3AE
330
3AB
100
AcDbEntity
  8
RAHM2
100
AcDbVertex
100
AcDb2dVertex
 10
0.0
 20
39.99999999999273
 30
0.0
  0
VERTEX
  5
3AF
330
3AB
100
AcDbEntity
  8
RAHM2
100
AcDbVertex
100
AcDb2dVertex
 10
0.0
 20
0.0
 30
0.0
  0
SEQEND
  5
3B0
330
3AB
100
AcDbEntity
  8
RAHM2
  0
ATTDEF
  5
3B1
330
335
100
AcDbEntity
  8
RAHM3
100
AcDbText
 10
-147.2595867131855
 20
31.94728899818607
 30
0.0
 40
4.0
  1

100
AcDbAttributeDefinition
  3
尺度
  2
GEN-TITLE-SCA
 70
     0
  0
ATTDEF
  5
3B2
330
335
100
AcDbEntity
  8
RAHM3
100
AcDbText
 10
-73.09000000000001
 20
29.74
 30
0.0
 40
5.0
  1

100
AcDbAttributeDefinition
  3
名称
  2
ＴＩＴＬＥ
 70
     0
  0
ATTDEF
  5
3B3
330
335
100
AcDbEntity
  8
RAHM3
100
AcDbText
 10
-71.56287815584043
 20
21.80438312711384
 30
0.0
 40
3.0
  1

100
AcDbAttributeDefinition
  3
符号
  2
ｃｏｄｅ
 70
     0
  0
ATTDEF
  5
3B4
330
335
100
AcDbEntity
  8
RAHM3
100
AcDbText
 10
-70.74480649396313
 20
14.80438312710657
 30
0.0
 40
3.0
  1

100
AcDbAttributeDefinition
  3
件名
  2
件名
 70
     0
  0
ATTDEF
  5
3B5
330
335
100
AcDbEntity
  8
RAHM3
100
AcDbText
 10
-73.09000000000001
 20
1.739999999992722
 30
0.0
 40
5.0
  1

100
AcDbAttributeDefinition
  3
図面番号
  2
Ｎｏ．
 70
     0
  0
ATTDEF
  5
3B6
330
335
100
AcDbEntity
  8
RAHM3
100
AcDbText
 10
-100.45
 20
17.40708932112655
 30
0.0
 40
4.0
  1

100
AcDbAttributeDefinition
  3
製図者
  2
ＤＲ
 70
     0
  0
ATTDEF
  5
3B7
330
335
100
AcDbEntity
  8
RAHM3
100
AcDbText
 10
-103.7180853038729
 20
12.76999999999999
 30
0.0
 40
3.0
  1

 41
0.8
100
AcDbAttributeDefinition
  3
日付
  2
ｄａｔｅ
 70
     0
  0
ENDBLK
  5
3B9
330
335
100
AcDbEntity
  8
0
100
AcDbBlockEnd
  0
BLOCK
  5
6BE
330
6A8
100
AcDbEntity
  8
0
100
AcDbBlockBegin
  2
IGS_A3
 70
     0
 10
0.0
 20
0.0
 30
0.0
  3
IGS_A3
  1

  0
LINE
  5
6A9
330
6A8
100
AcDbEntity
  8
AM_BOR
100
AcDbLine
 10
0.0
 20
0.0
 30
0.0
 11
0.0
 21
10.0
 31
0.0
  0
LINE
  5
6AA
330
6A8
100
AcDbEntity
  8
AM_BOR
100
AcDbLine
 10
0.0
 20
297.0
 30
0.0
 11
10.0
 21
297.0
 31
0.0
  0
LINE
  5
6AB
330
6A8
100
AcDbEntity
  8
AM_BOR
100
AcDbLine
 10
420.0
 20
297.0
 30
0.0
 11
420.0
 21
287.0
 31
0.0
  0
LINE
  5
6AC
330
6A8
100
AcDbEntity
  8
AM_BOR
100
AcDbLine
 10
420.0
 20
0.0
 30
0.0
 11
410.0
 21
0.0
 31
0.0
  0
LINE
  5
6AD
330
6A8
100
AcDbEntity
  8
0
100
AcDbLine
 10
25.0
 20
10.0
 30
0.0
 11
25.0
 21
287.0
 31
0.0
  0
LINE
  5
6AE
330
6A8
100
AcDbEntity
  8
0
100
AcDbLine
 10
410.0
 20
10.0
 30
0.0
 11
25.0
 21
10.0
 31
0.0
  0
LINE
  5
6AF
330
6A8
100
AcDbEntity
  8
0
100
AcDbLine
 10
410.0
 20
287.0
 30
0.0
 11
410.0
 21
10.0
 31
0.0
  0
LINE
  5
6B0
330
6A8
100
AcDbEntity
  8
0
100
AcDbLine
 10
25.0
 20
287.0
 30
0.0
 11
410.0
 21
287.0
 31
0.0
  0
LINE
  5
6B1
330
6A8
100
AcDbEntity
  8
AM_BOR
100
AcDbLine
 10
0.0
 20
287.0
 30
0.0
 11
0.0
 21
297.0
 31
0.0
  0
LINE
  5
6B2
330
6A8
100
AcDbEntity
  8
AM_BOR
100
AcDbLine
 10
10.0
 20
0.0
 30
0.0
 11
0.0
 21
0.0
 31
0.0
  0
LINE
  5
6B3
330
6A8
100
AcDbEntity
  8
AM_BOR
100
AcDbLine
 10
420.0
 20
10.0
 30
0.0
 11
420.0
 21
0.0
 31
0.0
  0
LINE
  5
6B4
330
6A8
100
AcDbEntity
  8
AM_BOR
100
AcDbLine
 10
410.0
 20
297.0
 30
0.0
 11
420.0
 21
297.0
 31
0.0
  0
TEXT
  5
6B5
330
6A8
100
AcDbEntity
  8
0
 60
     1
100
AcDbText
 10
410.0
 20
287.0
 30
0.0
 40
3.5
  1
!GENTITLE-RU
  7
ACJISTS
100
AcDbText
  0
TEXT
  5
6B6
330
6A8
100
AcDbEntity
  8
0
 60
     1
100
AcDbText
 10
420.0
 20
297.0
 30
0.0
 40
3.5
  1
!GENTITLE-MAX
  7
ACJISTS
100
AcDbText
  0
TEXT
  5
6B7
330
6A8
100
AcDbEntity
  8
0
 60
     1
100
AcDbText
 10
410.0
 20
10.0
 30
0.0
 40
3.5
  1
!GENTITLE-INSERT
  7
ACJISTS
100
AcDbText
  0
TEXT
  5
6B8
330
6A8
100
AcDbEntity
  8
0
 60
     1
100
AcDbText
 10
25.0
 20
10.0
 30
0.0
 40
3.5
  1
!GENTITLE-LL
  7
ACJISTS
100
AcDbText
  0
LINE
  5
6B9
330
6A8
100
AcDbEntity
  8
AM_BOR
 62
     1
370
    25
100
AcDbLine
 10
0.0
 20
297.0
 30
0.0
 11
420.0
 21
297.0
 31
0.0
  0
LINE
  5
6BA
330
6A8
100
AcDbEntity
  8
AM_BOR
 62
     1
370
    25
100
AcDbLine
 10
420.0
 20
297.0
 30
0.0
 11
420.0
 21
0.0
 31
0.0
  0
LINE
  5
6BB
330
6A8
100
AcDbEntity
  8
AM_BOR
 62
     1
370
    25
100
AcDbLine
 10
420.0
 20
0.0
 30
0.0
 11
0.0
 21
0.0
 31
0.0
  0
LINE
  5
6BC
330
6A8
100
AcDbEntity
  8
AM_BOR
 62
     1
370
    25
100
AcDbLine
 10
0.0
 20
0.0
 30
0.0
 11
0.0
 21
297.0
 31
0.0
  0
TEXT
  5
6BD
330
6A8
100
AcDbEntity
  8
DEFPOINTS
100
AcDbText
 10
19.5941472374451
 20
2.504073349097552
 30
0.0
 40
5.0
  1
A3
100
AcDbText
  0
ENDBLK
  5
6BF
330
6A8
100
AcDbEntity
  8
0
100
AcDbBlockEnd
  0
BLOCK
  5
1055
330
104B
100
AcDbEntity
  8
0
100
AcDbBlockBegin
  2
*D6
 70
     1
 10
0.0
 20
0.0
 30
0.0
  3
*D6
  1

  0
LINE
  5
1776
330
104B
100
AcDbEntity
  8
1
  6
Continuous
 62
     3
100
AcDbLine
 10
3759.241476055708
 20
5034.783721580252
 30
0.0
 11
3905.434377419209
 21
5034.783721580252
 31
0.0
  0
LINE
  5
1777
330
104B
100
AcDbEntity
  8
1
  6
Continuous
 62
     3
100
AcDbLine
 10
3745.941683336909
 20
4335.394606825752
 30
0.0
 11
3905.434377419209
 21
4335.394606825752
 31
0.0
  0
LINE
  5
1778
330
104B
100
AcDbEntity
  8
1
  6
Continuous
 62
     3
100
AcDbLine
 10
3895.434377419209
 20
5009.783721580252
 30
0.0
 11
3895.434377419209
 21
4360.394606825752
 31
0.0
  0
INSERT
  5
1779
330
104B
100
AcDbEntity
  8
1
  6
Continuous
 62
     3
100
AcDbBlockReference
  2
_Open30
 10
3895.434377419209
 20
5034.783721580252
 30
0.0
 41
25.0
 42
25.0
 43
25.0
 50
90.0
  0
INSERT
  5
177A
330
104B
100
AcDbEntity
  8
1
  6
Continuous
 62
     3
100
AcDbBlockReference
  2
_Open30
 10
3895.434377419209
 20
4335.394606825752
 30
0.0
 41
25.0
 42
25.0
 43
25.0
 50
270.0
  0
MTEXT
  5
177B
330
104B
100
AcDbEntity
  8
1
  6
Continuous
 62
     2
100
AcDbMText
 10
3865.434377419209
 20
4685.089164203002
 30
0.0
 40
30.0
 41
0.0
 71
     5
 72
     1
  1
700
 11
0.0000000000000001
 21
1.0
 31
0.0
 73
     1
 44
1.0
  0
POINT
  5
177C
330
104B
100
AcDbEntity
  8
DEFPOINTS
  6
Continuous
 62
     0
100
AcDbPoint
 10
3749.241476055709
 20
5034.783721580252
 30
0.0
  0
POINT
  5
177D
330
104B
100
AcDbEntity
  8
DEFPOINTS
  6
Continuous
 62
     0
100
AcDbPoint
 10
3735.941683336909
 20
4335.394606825752
 30
0.0
  0
POINT
  5
177E
330
104B
100
AcDbEntity
  8
DEFPOINTS
  6
Continuous
 62
     0
100
AcDbPoint
 10
3895.434377419209
 20
4335.394606825752
 30
0.0
  0
ENDBLK
  5
1056
330
104B
100
AcDbEntity
  8
0
100
AcDbBlockEnd
  0
BLOCK
  5
1061
330
1057
100
AcDbEntity
  8
0
100
AcDbBlockBegin
  2
*D7
 70
     1
 10
0.0
 20
0.0
 30
0.0
  3
*D7
  1

  0
LINE
  5
176D
330
1057
100
AcDbEntity
  8
1
  6
Continuous
 62
     3
100
AcDbLine
 10
3261.676182499709
 20
4723.784937653753
 30
0.0
 11
3125.941683336909
 21
4723.784937653753
 31
0.0
  0
LINE
  5
176E
330
1057
100
AcDbEntity
  8
1
  6
Continuous
 62
     3
100
AcDbLine
 10
3225.941683336909
 20
4335.394606825752
 30
0.0
 11
3125.941683336909
 21
4335.394606825752
 31
0.0
  0
LINE
  5
176F
330
1057
100
AcDbEntity
  8
1
  6
Continuous
 62
     3
100
AcDbLine
 10
3135.941683336909
 20
4698.784937653752
 30
0.0
 11
3135.941683336909
 21
4360.394606825752
 31
0.0
  0
INSERT
  5
1770
330
1057
100
AcDbEntity
  8
1
  6
Continuous
 62
     3
100
AcDbBlockReference
  2
_Open30
 10
3135.941683336909
 20
4723.784937653753
 30
0.0
 41
25.0
 42
25.0
 43
25.0
 50
90.0
  0
INSERT
  5
1771
330
1057
100
AcDbEntity
  8
1
  6
Continuous
 62
     3
100
AcDbBlockReference
  2
_Open30
 10
3135.941683336909
 20
4335.394606825752
 30
0.0
 41
25.0
 42
25.0
 43
25.0
 50
270.0
  0
MTEXT
  5
1772
330
1057
100
AcDbEntity
  8
1
  6
Continuous
 62
     2
100
AcDbMText
 10
3105.941683336908
 20
4529.589772239753
 30
0.0
 40
30.0
 41
0.0
 71
     5
 72
     1
  1
380
 11
0.0000000000000001
 21
1.0
 31
0.0
 73
     1
 44
1.0
  0
POINT
  5
1773
330
1057
100
AcDbEntity
  8
DEFPOINTS
  6
Continuous
 62
     0
100
AcDbPoint
 10
3271.676182499709
 20
4723.784937653753
 30
0.0
  0
POINT
  5
1774
330
1057
100
AcDbEntity
  8
DEFPOINTS
  6
Continuous
 62
     0
100
AcDbPoint
 10
3235.941683336909
 20
4335.394606825752
 30
0.0
  0
POINT
  5
1775
330
1057
100
AcDbEntity
  8
DEFPOINTS
  6
Continuous
 62
     0
100
AcDbPoint
 10
3135.941683336909
 20
4335.394606825752
 30
0.0
  0
ENDBLK
  5
1062
330
1057
100
AcDbEntity
  8
0
100
AcDbBlockEnd
  0
BLOCK
  5
106D
330
1063
100
AcDbEntity
  8
0
100
AcDbBlockBegin
  2
*D8
 70
     1
 10
0.0
 20
0.0
 30
0.0
  3
*D8
  1

  0
LINE
  5
1764
330
1063
100
AcDbEntity
  8
1
  6
Continuous
 62
     3
100
AcDbLine
 10
3206.909509136609
 20
4703.120767608552
 30
0.0
 11
3206.909509136609
 21
5144.783721580252
 31
0.0
  0
LINE
  5
1765
330
1063
100
AcDbEntity
  8
1
  6
Continuous
 62
     3
100
AcDbLine
 10
3796.920344308709
 20
5015.529421054953
 30
0.0
 11
3796.920344308709
 21
5144.783721580252
 31
0.0
  0
LINE
  5
1766
330
1063
100
AcDbEntity
  8
1
  6
Continuous
 62
     3
100
AcDbLine
 10
3231.909509136609
 20
5134.783721580252
 30
0.0
 11
3771.920344308709
 21
5134.783721580252
 31
0.0
  0
INSERT
  5
1767
330
1063
100
AcDbEntity
  8
1
  6
Continuous
 62
     3
100
AcDbBlockReference
  2
_Open30
 10
3206.909509136609
 20
5134.783721580252
 30
0.0
 41
25.0
 42
25.0
 43
25.0
 50
180.0
  0
INSERT
  5
1768
330
1063
100
AcDbEntity
  8
1
  6
Continuous
 62
     3
100
AcDbBlockReference
  2
_Open30
 10
3796.920344308709
 20
5134.783721580252
 30
0.0
 41
25.0
 42
25.0
 43
25.0
  0
MTEXT
  5
1769
330
1063
100
AcDbEntity
  8
1
  6
Continuous
 62
     2
100
AcDbMText
 10
3501.914926722659
 20
5164.783721580252
 30
0.0
 40
30.0
 41
0.0
 71
     5
 72
     1
  1
595
 73
     1
 44
1.0
  0
POINT
  5
176A
330
1063
100
AcDbEntity
  8
DEFPOINTS
  6
Continuous
 62
     0
100
AcDbPoint
 10
3206.909509136609
 20
4693.120767608553
 30
0.0
  0
POINT
  5
176B
330
1063
100
AcDbEntity
  8
DEFPOINTS
  6
Continuous
 62
     0
100
AcDbPoint
 10
3796.920344308709
 20
5005.529421054952
 30
0.0
  0
POINT
  5
176C
330
1063
100
AcDbEntity
  8
DEFPOINTS
  6
Continuous
 62
     0
100
AcDbPoint
 10
3796.920344308709
 20
5134.783721580252
 30
0.0
  0
ENDBLK
  5
106E
330
1063
100
AcDbEntity
  8
0
100
AcDbBlockEnd
  0
BLOCK
  5
1079
330
106F
100
AcDbEntity
  8
0
100
AcDbBlockBegin
  2
*D9
 70
     1
 10
0.0
 20
0.0
 30
0.0
  3
*D9
  1

  0
LINE
  5
13BF
330
106F
100
AcDbEntity
  8
1
  6
Continuous
 62
     3
100
AcDbLine
 10
600.0416505043087
 20
4335.394606825752
 30
0.0
 11
510.0416505043086
 21
4335.394606825752
 31
0.0
  0
LINE
  5
13C0
330
106F
100
AcDbEntity
  8
1
  6
Continuous
 62
     3
100
AcDbLine
 10
757.8192276607087
 20
5034.783721580252
 30
0.0
 11
510.0416505043088
 21
5034.783721580252
 31
0.0
  0
LINE
  5
13C1
330
106F
100
AcDbEntity
  8
1
  6
Continuous
 62
     3
100
AcDbLine
 10
520.0416505043087
 20
4360.394606825752
 30
0.0
 11
520.0416505043087
 21
5009.783721580252
 31
0.0
  0
INSERT
  5
13C2
330
106F
100
AcDbEntity
  8
1
  6
Continuous
 62
     3
100
AcDbBlockReference
  2
_Open30
 10
520.0416505043086
 20
4335.394606825752
 30
0.0
 41
25.0
 42
25.0
 43
25.0
 50
270.0
  0
INSERT
  5
13C3
330
106F
100
AcDbEntity
  8
1
  6
Continuous
 62
     3
100
AcDbBlockReference
  2
_Open30
 10
520.0416505043087
 20
5034.783721580252
 30
0.0
 41
25.0
 42
25.0
 43
25.0
 50
90.0
  0
MTEXT
  5
13C4
330
106F
100
AcDbEntity
  8
1
  6
Continuous
 62
     2
100
AcDbMText
 10
490.0416505043079
 20
4685.089164203001
 30
0.0
 40
30.0
 41
0.0
 71
     5
 72
     1
  1
700
 11
0.0000000000000001
 21
1.0
 31
0.0
 73
     1
 44
1.0
  0
POINT
  5
13C5
330
106F
100
AcDbEntity
  8
DEFPOINTS
  6
Continuous
 62
     0
100
AcDbPoint
 10
610.0416505043088
 20
4335.394606825752
 30
0.0
  0
POINT
  5
13C6
330
106F
100
AcDbEntity
  8
DEFPOINTS
  6
Continuous
 62
     0
100
AcDbPoint
 10
767.8192276607087
 20
5034.783721580252
 30
0.0
  0
POINT
  5
13C7
330
106F
100
AcDbEntity
  8
DEFPOINTS
  6
Continuous
 62
     0
100
AcDbPoint
 10
520.0416505043087
 20
5034.783721580252
 30
0.0
  0
ENDBLK
  5
107A
330
106F
100
AcDbEntity
  8
0
100
AcDbBlockEnd
  0
BLOCK
  5
1085
330
107B
100
AcDbEntity
  8
0
100
AcDbBlockBegin
  2
*D10
 70
     1
 10
0.0
 20
0.0
 30
0.0
  3
*D10
  1

  0
LINE
  5
175B
330
107B
100
AcDbEntity
  8
1
  6
Continuous
 62
     3
100
AcDbLine
 10
767.8192276607087
 20
5044.783721580252
 30
0.0
 11
767.8192276607087
 21
5244.783721580252
 31
0.0
  0
LINE
  5
175C
330
107B
100
AcDbEntity
  8
1
  6
Continuous
 62
     3
100
AcDbLine
 10
2567.819227660709
 20
5154.783721580252
 30
0.0
 11
2567.819227660709
 21
5244.783721580252
 31
0.0
  0
LINE
  5
175D
330
107B
100
AcDbEntity
  8
1
  6
Continuous
 62
     3
100
AcDbLine
 10
792.8192276607087
 20
5234.783721580252
 30
0.0
 11
2542.819227660709
 21
5234.783721580252
 31
0.0
  0
INSERT
  5
175E
330
107B
100
AcDbEntity
  8
1
  6
Continuous
 62
     3
100
AcDbBlockReference
  2
_Open30
 10
767.8192276607087
 20
5234.783721580252
 30
0.0
 41
25.0
 42
25.0
 43
25.0
 50
180.0
  0
INSERT
  5
175F
330
107B
100
AcDbEntity
  8
1
  6
Continuous
 62
     3
100
AcDbBlockReference
  2
_Open30
 10
2567.819227660709
 20
5234.783721580252
 30
0.0
 41
25.0
 42
25.0
 43
25.0
  0
MTEXT
  5
1760
330
107B
100
AcDbEntity
  8
1
  6
Continuous
 62
     2
100
AcDbMText
 10
1667.819227660709
 20
5264.783721580251
 30
0.0
 40
30.0
 41
0.0
 71
     5
 72
     1
  1
1800
 73
     1
 44
1.0
  0
POINT
  5
1761
330
107B
100
AcDbEntity
  8
DEFPOINTS
  6
Continuous
 62
     0
100
AcDbPoint
 10
767.8192276607087
 20
5034.783721580252
 30
0.0
  0
POINT
  5
1762
330
107B
100
AcDbEntity
  8
DEFPOINTS
  6
Continuous
 62
     0
100
AcDbPoint
 10
2567.819227660709
 20
5144.783721580252
 30
0.0
  0
POINT
  5
1763
330
107B
100
AcDbEntity
  8
DEFPOINTS
  6
Continuous
 62
     0
100
AcDbPoint
 10
2567.819227660709
 20
5234.783721580252
 30
0.0
  0
ENDBLK
  5
1086
330
107B
100
AcDbEntity
  8
0
100
AcDbBlockEnd
  0
BLOCK
  5
1092
330
1087
100
AcDbEntity
  8
0
100
AcDbBlockBegin
  2
*D11
 70
     1
 10
0.0
 20
0.0
 30
0.0
  3
*D11
  1

  0
LINE
  5
1752
330
1087
100
AcDbEntity
  8
1
  6
Continuous
 62
     3
100
AcDbLine
 10
2432.819227660709
 20
5065.420583029152
 30
0.0
 11
2432.819227660709
 21
5144.783721580252
 31
0.0
  0
LINE
  5
1753
330
1087
100
AcDbEntity
  8
1
  6
Continuous
 62
     3
100
AcDbLine
 10
2567.819227660709
 20
5044.783721580252
 30
0.0
 11
2567.819227660709
 21
5144.783721580252
 31
0.0
  0
LINE
  5
1754
330
1087
100
AcDbEntity
  8
1
  6
Continuous
 62
     3
100
AcDbLine
 10
2457.819227660709
 20
5134.783721580252
 30
0.0
 11
2542.819227660709
 21
5134.783721580252
 31
0.0
  0
INSERT
  5
1755
330
1087
100
AcDbEntity
  8
1
  6
Continuous
 62
     3
100
AcDbBlockReference
  2
_Open30
 10
2432.819227660709
 20
5134.783721580252
 30
0.0
 41
25.0
 42
25.0
 43
25.0
 50
180.0
  0
INSERT
  5
1756
330
1087
100
AcDbEntity
  8
1
  6
Continuous
 62
     3
100
AcDbBlockReference
  2
_Open30
 10
2567.819227660709
 20
5134.783721580252
 30
0.0
 41
25.0
 42
25.0
 43
25.0
  0
MTEXT
  5
1757
330
1087
100
AcDbEntity
  8
1
  6
Continuous
 62
     2
100
AcDbMText
 10
2500.319227660709
 20
5164.783721580252
 30
0.0
 40
30.0
 41
0.0
 71
     5
 72
     1
  1
135
 73
     1
 44
1.0
  0
POINT
  5
1758
330
1087
100
AcDbEntity
  8
DEFPOINTS
  6
Continuous
 62
     0
100
AcDbPoint
 10
2432.819227660709
 20
5055.420583029152
 30
0.0
  0
POINT
  5
1759
330
1087
100
AcDbEntity
  8
DEFPOINTS
  6
Continuous
 62
     0
100
AcDbPoint
 10
2567.819227660709
 20
5034.783721580252
 30
0.0
  0
POINT
  5
175A
330
1087
100
AcDbEntity
  8
DEFPOINTS
  6
Continuous
 62
     0
100
AcDbPoint
 10
2567.819227660709
 20
5134.783721580252
 30
0.0
  0
ENDBLK
  5
1093
330
1087
100
AcDbEntity
  8
0
100
AcDbBlockEnd
  0
BLOCK
  5
109E
330
1094
100
AcDbEntity
  8
0
100
AcDbBlockBegin
  2
*D12
 70
     1
 10
0.0
 20
0.0
 30
0.0
  3
*D12
  1

  0
LINE
  5
17F5
330
1094
100
AcDbEntity
  8
1
  6
Continuous
 62
     3
100
AcDbLine
 10
902.8192276607089
 20
5065.420583029152
 30
0.0
 11
902.8192276607089
 21
5144.783721580252
 31
0.0
  0
LINE
  5
17F6
330
1094
100
AcDbEntity
  8
1
  6
Continuous
 62
     3
100
AcDbLine
 10
1667.819227660709
 20
5065.420583029152
 30
0.0
 11
1667.819227660709
 21
5144.783721580252
 31
0.0
  0
LINE
  5
17F7
330
1094
100
AcDbEntity
  8
1
  6
Continuous
 62
     3
100
AcDbLine
 10
927.8192276607089
 20
5134.783721580252
 30
0.0
 11
1642.819227660709
 21
5134.783721580252
 31
0.0
  0
INSERT
  5
17F8
330
1094
100
AcDbEntity
  8
1
  6
Continuous
 62
     3
100
AcDbBlockReference
  2
_Open30
 10
902.8192276607089
 20
5134.783721580252
 30
0.0
 41
25.0
 42
25.0
 43
25.0
 50
180.0
  0
INSERT
  5
17F9
330
1094
100
AcDbEntity
  8
1
  6
Continuous
 62
     3
100
AcDbBlockReference
  2
_Open30
 10
1667.819227660709
 20
5134.783721580252
 30
0.0
 41
25.0
 42
25.0
 43
25.0
  0
MTEXT
  5
17FA
330
1094
100
AcDbEntity
  8
1
  6
Continuous
 62
     2
100
AcDbMText
 10
1285.319227660709
 20
5164.783721580252
 30
0.0
 40
30.0
 41
0.0
 71
     5
 72
     1
  1
765
 73
     1
 44
1.0
  0
POINT
  5
17FB
330
1094
100
AcDbEntity
  8
DEFPOINTS
  6
Continuous
 62
     0
100
AcDbPoint
 10
902.8192276607089
 20
5055.420583029152
 30
0.0
  0
POINT
  5
17FC
330
1094
100
AcDbEntity
  8
DEFPOINTS
  6
Continuous
 62
     0
100
AcDbPoint
 10
1667.819227660709
 20
5055.420583029152
 30
0.0
  0
POINT
  5
17FD
330
1094
100
AcDbEntity
  8
DEFPOINTS
  6
Continuous
 62
     0
100
AcDbPoint
 10
1667.819227660709
 20
5134.783721580252
 30
0.0
  0
ENDBLK
  5
109F
330
1094
100
AcDbEntity
  8
0
100
AcDbBlockEnd
  0
BLOCK
  5
10AB
330
10A0
100
AcDbEntity
  8
0
100
AcDbBlockBegin
  2
*D13
 70
     1
 10
0.0
 20
0.0
 30
0.0
  3
*D13
  1

  0
LINE
  5
139B
330
10A0
100
AcDbEntity
  8
1
  6
Continuous
 62
     3
100
AcDbLine
 10
767.8192276607087
 20
5044.783721580252
 30
0.0
 11
767.8192276607087
 21
5144.783721580252
 31
0.0
  0
LINE
  5
139C
330
10A0
100
AcDbEntity
  8
1
  6
Continuous
 62
     3
100
AcDbLine
 10
902.8192276607089
 20
5065.420583029152
 30
0.0
 11
902.8192276607089
 21
5144.783721580252
 31
0.0
  0
LINE
  5
139D
330
10A0
100
AcDbEntity
  8
1
  6
Continuous
 62
     3
100
AcDbLine
 10
792.8192276607087
 20
5134.783721580252
 30
0.0
 11
877.8192276607089
 21
5134.783721580252
 31
0.0
  0
INSERT
  5
139E
330
10A0
100
AcDbEntity
  8
1
  6
Continuous
 62
     3
100
AcDbBlockReference
  2
_Open30
 10
767.8192276607087
 20
5134.783721580252
 30
0.0
 41
25.0
 42
25.0
 43
25.0
 50
180.0
  0
INSERT
  5
139F
330
10A0
100
AcDbEntity
  8
1
  6
Continuous
 62
     3
100
AcDbBlockReference
  2
_Open30
 10
902.8192276607089
 20
5134.783721580252
 30
0.0
 41
25.0
 42
25.0
 43
25.0
  0
MTEXT
  5
13A0
330
10A0
100
AcDbEntity
  8
1
  6
Continuous
 62
     2
100
AcDbMText
 10
835.3192276607089
 20
5164.783721580252
 30
0.0
 40
30.0
 41
0.0
 71
     5
 72
     1
  1
135
 73
     1
 44
1.0
  0
POINT
  5
13A1
330
10A0
100
AcDbEntity
  8
DEFPOINTS
  6
Continuous
 62
     0
100
AcDbPoint
 10
767.8192276607087
 20
5034.783721580252
 30
0.0
  0
POINT
  5
13A2
330
10A0
100
AcDbEntity
  8
DEFPOINTS
  6
Continuous
 62
     0
100
AcDbPoint
 10
902.8192276607089
 20
5055.420583029152
 30
0.0
  0
POINT
  5
13A3
330
10A0
100
AcDbEntity
  8
DEFPOINTS
  6
Continuous
 62
     0
100
AcDbPoint
 10
902.8192276607089
 20
5134.783721580252
 30
0.0
  0
ENDBLK
  5
10AC
330
10A0
100
AcDbEntity
  8
0
100
AcDbBlockEnd
  0
BLOCK
  5
10B8
330
10AD
100
AcDbEntity
  8
0
100
AcDbBlockBegin
  2
*D14
 70
     1
 10
0.0
 20
0.0
 30
0.0
  3
*D14
  1

  0
LINE
  5
1740
330
10AD
100
AcDbEntity
  8
40
  6
Continuous
 62
     3
100
AcDbLine
 10
3235.941683336909
 20
4075.394606825752
 30
0.0
 11
3235.941683336909
 21
3875.394606825753
 31
0.0
  0
LINE
  5
1741
330
10AD
100
AcDbEntity
  8
40
  6
Continuous
 62
     3
100
AcDbLine
 10
3735.941683336909
 20
4075.394606825752
 30
0.0
 11
3735.941683336909
 21
3875.394606825753
 31
0.0
  0
LINE
  5
1742
330
10AD
100
AcDbEntity
  8
40
  6
Continuous
 62
     3
100
AcDbLine
 10
3260.941683336909
 20
3885.394606825752
 30
0.0
 11
3710.941683336909
 21
3885.394606825752
 31
0.0
  0
INSERT
  5
1743
330
10AD
100
AcDbEntity
  8
40
  6
Continuous
 62
     3
100
AcDbBlockReference
  2
_Open30
 10
3235.941683336909
 20
3885.394606825752
 30
0.0
 41
25.0
 42
25.0
 43
25.0
 50
180.0
  0
INSERT
  5
1744
330
10AD
100
AcDbEntity
  8
40
  6
Continuous
 62
     3
100
AcDbBlockReference
  2
_Open30
 10
3735.941683336909
 20
3885.394606825752
 30
0.0
 41
25.0
 42
25.0
 43
25.0
  0
MTEXT
  5
1745
330
10AD
100
AcDbEntity
  8
40
  6
Continuous
 62
     2
100
AcDbMText
 10
3485.941683336909
 20
3915.394606825753
 30
0.0
 40
30.0
 41
0.0
 71
     5
 72
     1
  1
500
 73
     1
 44
1.0
  0
POINT
  5
1746
330
10AD
100
AcDbEntity
  8
DEFPOINTS
  6
Continuous
 62
     0
100
AcDbPoint
 10
3235.941683336909
 20
4085.394606825752
 30
0.0
  0
POINT
  5
1747
330
10AD
100
AcDbEntity
  8
DEFPOINTS
  6
Continuous
 62
     0
100
AcDbPoint
 10
3735.941683336909
 20
4085.394606825752
 30
0.0
  0
POINT
  5
1748
330
10AD
100
AcDbEntity
  8
DEFPOINTS
  6
Continuous
 62
     0
100
AcDbPoint
 10
3735.941683336909
 20
3885.394606825752
 30
0.0
  0
ENDBLK
  5
10B9
330
10AD
100
AcDbEntity
  8
0
100
AcDbBlockEnd
  0
BLOCK
  5
10C5
330
10BA
100
AcDbEntity
  8
0
100
AcDbBlockBegin
  2
*D15
 70
     1
 10
0.0
 20
0.0
 30
0.0
  3
*D15
  1

  0
LINE
  5
1737
330
10BA
100
AcDbEntity
  8
40
  6
Continuous
 62
     3
100
AcDbLine
 10
3280.941683336909
 20
4328.394606825752
 30
0.0
 11
3280.941683336909
 21
3975.394606825753
 31
0.0
  0
LINE
  5
1738
330
10BA
100
AcDbEntity
  8
40
  6
Continuous
 62
     3
100
AcDbLine
 10
3690.941683336909
 20
4328.394606825752
 30
0.0
 11
3690.941683336909
 21
3975.394606825753
 31
0.0
  0
LINE
  5
1739
330
10BA
100
AcDbEntity
  8
40
  6
Continuous
 62
     3
100
AcDbLine
 10
3305.941683336909
 20
3985.394606825752
 30
0.0
 11
3665.941683336909
 21
3985.394606825752
 31
0.0
  0
INSERT
  5
173A
330
10BA
100
AcDbEntity
  8
40
  6
Continuous
 62
     3
100
AcDbBlockReference
  2
_Open30
 10
3280.941683336909
 20
3985.394606825752
 30
0.0
 41
25.0
 42
25.0
 43
25.0
 50
180.0
  0
INSERT
  5
173B
330
10BA
100
AcDbEntity
  8
40
  6
Continuous
 62
     3
100
AcDbBlockReference
  2
_Open30
 10
3690.941683336909
 20
3985.394606825752
 30
0.0
 41
25.0
 42
25.0
 43
25.0
  0
MTEXT
  5
173C
330
10BA
100
AcDbEntity
  8
40
  6
Continuous
 62
     2
100
AcDbMText
 10
3485.941683336909
 20
4015.394606825752
 30
0.0
 40
30.0
 41
0.0
 71
     5
 72
     1
  1
410
 73
     1
 44
1.0
  0
POINT
  5
173D
330
10BA
100
AcDbEntity
  8
DEFPOINTS
  6
Continuous
 62
     0
100
AcDbPoint
 10
3280.941683336909
 20
4338.394606825752
 30
0.0
  0
POINT
  5
173E
330
10BA
100
AcDbEntity
  8
DEFPOINTS
  6
Continuous
 62
     0
100
AcDbPoint
 10
3690.941683336909
 20
4338.394606825752
 30
0.0
  0
POINT
  5
173F
330
10BA
100
AcDbEntity
  8
DEFPOINTS
  6
Continuous
 62
     0
100
AcDbPoint
 10
3690.941683336909
 20
3985.394606825752
 30
0.0
  0
ENDBLK
  5
10C6
330
10BA
100
AcDbEntity
  8
0
100
AcDbBlockEnd
  0
BLOCK
  5
10DF
330
10D4
100
AcDbEntity
  8
0
100
AcDbBlockBegin
  2
*D16
 70
     1
 10
0.0
 20
0.0
 30
0.0
  3
*D16
  1

  0
LINE
  5
150B
330
10D4
100
AcDbEntity
  8
40
  6
Continuous
 62
     3
100
AcDbLine
 10
802.8192276607088
 20
4075.394606825752
 30
0.0
 11
802.8192276607088
 21
3975.394606825753
 31
0.0
  0
LINE
  5
150C
330
10D4
100
AcDbEntity
  8
40
  6
Continuous
 62
     3
100
AcDbLine
 10
1002.819227660709
 20
4075.394606825752
 30
0.0
 11
1002.819227660709
 21
3975.394606825753
 31
0.0
  0
LINE
  5
150D
330
10D4
100
AcDbEntity
  8
40
  6
Continuous
 62
     3
100
AcDbLine
 10
827.8192276607088
 20
3985.394606825752
 30
0.0
 11
977.8192276607088
 21
3985.394606825752
 31
0.0
  0
INSERT
  5
150E
330
10D4
100
AcDbEntity
  8
40
  6
Continuous
 62
     3
100
AcDbBlockReference
  2
_Open30
 10
802.8192276607088
 20
3985.394606825752
 30
0.0
 41
25.0
 42
25.0
 43
25.0
 50
180.0
  0
INSERT
  5
150F
330
10D4
100
AcDbEntity
  8
40
  6
Continuous
 62
     3
100
AcDbBlockReference
  2
_Open30
 10
1002.819227660709
 20
3985.394606825752
 30
0.0
 41
25.0
 42
25.0
 43
25.0
  0
MTEXT
  5
1510
330
10D4
100
AcDbEntity
  8
40
  6
Continuous
 62
     2
100
AcDbMText
 10
902.8192276607088
 20
4015.397559581657
 30
0.0
 40
30.0
 41
0.0
 71
     5
 72
     1
  1
200
 73
     1
 44
1.0
  0
POINT
  5
1511
330
10D4
100
AcDbEntity
  8
DEFPOINTS
  6
Continuous
 62
     0
100
AcDbPoint
 10
802.8192276607088
 20
4085.394606825752
 30
0.0
  0
POINT
  5
1512
330
10D4
100
AcDbEntity
  8
DEFPOINTS
  6
Continuous
 62
     0
100
AcDbPoint
 10
1002.819227660709
 20
4085.394606825752
 30
0.0
  0
POINT
  5
1513
330
10D4
100
AcDbEntity
  8
DEFPOINTS
  6
Continuous
 62
     0
100
AcDbPoint
 10
1002.819227660709
 20
3985.394606825752
 30
0.0
  0
ENDBLK
  5
10E0
330
10D4
100
AcDbEntity
  8
0
100
AcDbBlockEnd
  0
BLOCK
  5
10EB
330
10E1
100
AcDbEntity
  8
0
100
AcDbBlockBegin
  2
*D17
 70
     1
 10
0.0
 20
0.0
 30
0.0
  3
*D17
  1

  0
LINE
  5
14DB
330
10E1
100
AcDbEntity
  8
40
  6
Continuous
 62
     3
100
AcDbLine
 10
792.8192276607087
 20
4135.394606825752
 30
0.0
 11
610.0416505043088
 21
4135.394606825752
 31
0.0
  0
LINE
  5
14DC
330
10E1
100
AcDbEntity
  8
40
  6
Continuous
 62
     3
100
AcDbLine
 10
792.8192276607087
 20
4085.394606825752
 30
0.0
 11
610.0416505043088
 21
4085.394606825752
 31
0.0
  0
LINE
  5
14DD
330
10E1
100
AcDbEntity
  8
40
  6
Continuous
 62
     3
100
AcDbLine
 10
620.0416505043087
 20
4160.394606825752
 30
0.0
 11
620.0416505043087
 21
4185.394606825751
 31
0.0
  0
LINE
  5
14DE
330
10E1
100
AcDbEntity
  8
40
  6
Continuous
 62
     3
100
AcDbLine
 10
620.0416505043087
 20
4060.394606825751
 30
0.0
 11
620.0416505043087
 21
3972.370984778509
 31
0.0
  0
LINE
  5
14DF
330
10E1
100
AcDbEntity
  8
40
  6
Continuous
 62
     3
100
AcDbLine
 10
620.0416505043087
 20
4135.394606825752
 30
0.0
 11
620.0416505043087
 21
4085.394606825752
 31
0.0
  0
INSERT
  5
14E0
330
10E1
100
AcDbEntity
  8
40
  6
Continuous
 62
     3
100
AcDbBlockReference
  2
_Open30
 10
620.0416505043087
 20
4135.394606825752
 30
0.0
 41
25.0
 42
25.0
 43
25.0
 50
270.0
  0
INSERT
  5
14E1
330
10E1
100
AcDbEntity
  8
40
  6
Continuous
 62
     3
100
AcDbBlockReference
  2
_Open30
 10
620.0416505043087
 20
4085.394606825752
 30
0.0
 41
25.0
 42
25.0
 43
25.0
 50
90.0
  0
MTEXT
  5
14E2
330
10E1
100
AcDbEntity
  8
40
  6
Continuous
 62
     2
100
AcDbMText
 10
590.0416505043081
 20
4003.882795802129
 30
0.0
 40
30.0
 41
0.0
 71
     5
 72
     1
  1
50
 11
0.0000000000000001
 21
1.0
 31
0.0
 73
     1
 44
1.0
  0
POINT
  5
14E3
330
10E1
100
AcDbEntity
  8
DEFPOINTS
  6
Continuous
 62
     0
100
AcDbPoint
 10
802.8192276607088
 20
4135.394606825752
 30
0.0
  0
POINT
  5
14E4
330
10E1
100
AcDbEntity
  8
DEFPOINTS
  6
Continuous
 62
     0
100
AcDbPoint
 10
802.8192276607088
 20
4085.394606825752
 30
0.0
  0
POINT
  5
14E5
330
10E1
100
AcDbEntity
  8
DEFPOINTS
  6
Continuous
 62
     0
100
AcDbPoint
 10
620.0416505043087
 20
4085.394606825752
 30
0.0
  0
ENDBLK
  5
10EC
330
10E1
100
AcDbEntity
  8
0
100
AcDbBlockEnd
  0
BLOCK
  5
10F7
330
10ED
100
AcDbEntity
  8
0
100
AcDbBlockBegin
  2
*D18
 70
     1
 10
0.0
 20
0.0
 30
0.0
  3
*D18
  1

  0
LINE
  5
14D2
330
10ED
100
AcDbEntity
  8
40
  6
Continuous
 62
     3
100
AcDbLine
 10
710.0416505043088
 20
4335.394606825752
 30
0.0
 11
610.0416505043088
 21
4335.394606825752
 31
0.0
  0
LINE
  5
14D3
330
10ED
100
AcDbEntity
  8
40
  6
Continuous
 62
     3
100
AcDbLine
 10
792.8192276607087
 20
4135.394606825752
 30
0.0
 11
610.0416505043088
 21
4135.394606825752
 31
0.0
  0
LINE
  5
14D4
330
10ED
100
AcDbEntity
  8
40
  6
Continuous
 62
     3
100
AcDbLine
 10
620.0416505043087
 20
4310.394606825751
 30
0.0
 11
620.0416505043087
 21
4160.394606825752
 31
0.0
  0
INSERT
  5
14D5
330
10ED
100
AcDbEntity
  8
40
  6
Continuous
 62
     3
100
AcDbBlockReference
  2
_Open30
 10
620.0416505043087
 20
4335.394606825752
 30
0.0
 41
25.0
 42
25.0
 43
25.0
 50
90.0
  0
INSERT
  5
14D6
330
10ED
100
AcDbEntity
  8
40
  6
Continuous
 62
     3
100
AcDbBlockReference
  2
_Open30
 10
620.0416505043087
 20
4135.394606825752
 30
0.0
 41
25.0
 42
25.0
 43
25.0
 50
270.0
  0
MTEXT
  5
14D7
330
10ED
100
AcDbEntity
  8
40
  6
Continuous
 62
     2
100
AcDbMText
 10
590.0386977484025
 20
4235.394606825752
 30
0.0
 40
30.0
 41
0.0
 71
     5
 72
     1
  1
200
 11
0.0000000000000001
 21
1.0
 31
0.0
 73
     1
 44
1.0
  0
POINT
  5
14D8
330
10ED
100
AcDbEntity
  8
DEFPOINTS
  6
Continuous
 62
     0
100
AcDbPoint
 10
720.0416505043087
 20
4335.394606825752
 30
0.0
  0
POINT
  5
14D9
330
10ED
100
AcDbEntity
  8
DEFPOINTS
  6
Continuous
 62
     0
100
AcDbPoint
 10
802.8192276607088
 20
4135.394606825752
 30
0.0
  0
POINT
  5
14DA
330
10ED
100
AcDbEntity
  8
DEFPOINTS
  6
Continuous
 62
     0
100
AcDbPoint
 10
620.0416505043087
 20
4135.394606825752
 30
0.0
  0
ENDBLK
  5
10F8
330
10ED
100
AcDbEntity
  8
0
100
AcDbBlockEnd
  0
BLOCK
  5
1103
330
10F9
100
AcDbEntity
  8
0
100
AcDbBlockBegin
  2
*D19
 70
     1
 10
0.0
 20
0.0
 30
0.0
  3
*D19
  1

  0
LINE
  5
14E6
330
10F9
100
AcDbEntity
  8
40
  6
Continuous
 62
     3
100
AcDbLine
 10
757.8192276607087
 20
4725.394606825751
 30
0.0
 11
610.0416505043089
 21
4725.394606825751
 31
0.0
  0
LINE
  5
14E7
330
10F9
100
AcDbEntity
  8
40
  6
Continuous
 62
     3
100
AcDbLine
 10
710.0416505043088
 20
4335.394606825752
 30
0.0
 11
610.0416505043088
 21
4335.394606825752
 31
0.0
  0
LINE
  5
14E8
330
10F9
100
AcDbEntity
  8
40
  6
Continuous
 62
     3
100
AcDbLine
 10
620.0416505043088
 20
4700.394606825752
 30
0.0
 11
620.0416505043088
 21
4360.394606825752
 31
0.0
  0
INSERT
  5
14E9
330
10F9
100
AcDbEntity
  8
40
  6
Continuous
 62
     3
100
AcDbBlockReference
  2
_Open30
 10
620.0416505043088
 20
4725.394606825751
 30
0.0
 41
25.0
 42
25.0
 43
25.0
 50
90.0
  0
INSERT
  5
14EA
330
10F9
100
AcDbEntity
  8
40
  6
Continuous
 62
     3
100
AcDbBlockReference
  2
_Open30
 10
620.0416505043087
 20
4335.394606825752
 30
0.0
 41
25.0
 42
25.0
 43
25.0
 50
270.0
  0
MTEXT
  5
14EB
330
10F9
100
AcDbEntity
  8
40
  6
Continuous
 62
     2
100
AcDbMText
 10
590.0416505043081
 20
4530.394606825751
 30
0.0
 40
30.0
 41
0.0
 71
     5
 72
     1
  1
380
 11
0.0000000000000001
 21
1.0
 31
0.0
 73
     1
 44
1.0
  0
POINT
  5
14EC
330
10F9
100
AcDbEntity
  8
DEFPOINTS
  6
Continuous
 62
     0
100
AcDbPoint
 10
767.8192276607087
 20
4725.394606825751
 30
0.0
  0
POINT
  5
14ED
330
10F9
100
AcDbEntity
  8
DEFPOINTS
  6
Continuous
 62
     0
100
AcDbPoint
 10
720.0416505043087
 20
4335.394606825752
 30
0.0
  0
POINT
  5
14EE
330
10F9
100
AcDbEntity
  8
DEFPOINTS
  6
Continuous
 62
     0
100
AcDbPoint
 10
620.0416505043087
 20
4335.394606825752
 30
0.0
  0
ENDBLK
  5
1104
330
10F9
100
AcDbEntity
  8
0
100
AcDbBlockEnd
  0
BLOCK
  5
181B
330
17FF
100
AcDbEntity
  8
0
100
AcDbBlockBegin
  2
*D20
 70
     1
 10
0.0
 20
0.0
 30
0.0
  3
*D20
  1

  0
LINE
  5
1812
330
17FF
100
AcDbEntity
  8
1
  6
Continuous
 62
     3
100
AcDbLine
 10
2432.819227660709
 20
5065.420583029152
 30
0.0
 11
2432.819227660709
 21
5144.783721580252
 31
0.0
  0
LINE
  5
1813
330
17FF
100
AcDbEntity
  8
1
  6
Continuous
 62
     3
100
AcDbLine
 10
1667.819227660709
 20
5065.420583029152
 30
0.0
 11
1667.819227660709
 21
5144.783721580252
 31
0.0
  0
LINE
  5
1814
330
17FF
100
AcDbEntity
  8
1
  6
Continuous
 62
     3
100
AcDbLine
 10
2407.819227660709
 20
5134.783721580252
 30
0.0
 11
1692.819227660709
 21
5134.783721580252
 31
0.0
  0
INSERT
  5
1815
330
17FF
100
AcDbEntity
  8
1
  6
Continuous
 62
     3
100
AcDbBlockReference
  2
_Open30
 10
2432.819227660709
 20
5134.783721580252
 30
0.0
 41
25.0
 42
25.0
 43
25.0
  0
INSERT
  5
1816
330
17FF
100
AcDbEntity
  8
1
  6
Continuous
 62
     3
100
AcDbBlockReference
  2
_Open30
 10
1667.819227660709
 20
5134.783721580252
 30
0.0
 41
25.0
 42
25.0
 43
25.0
 50
180.0
  0
MTEXT
  5
1817
330
17FF
100
AcDbEntity
  8
1
  6
Continuous
 62
     2
100
AcDbMText
 10
2050.319227660709
 20
5164.783721580252
 30
0.0
 40
30.0
 41
0.0
 71
     5
 72
     1
  1
765
 73
     1
 44
1.0
  0
POINT
  5
1818
330
17FF
100
AcDbEntity
  8
DEFPOINTS
  6
Continuous
 62
     0
100
AcDbPoint
 10
2432.819227660709
 20
5055.420583029152
 30
0.0
  0
POINT
  5
1819
330
17FF
100
AcDbEntity
  8
DEFPOINTS
  6
Continuous
 62
     0
100
AcDbPoint
 10
1667.819227660709
 20
5055.420583029152
 30
0.0
  0
POINT
  5
181A
330
17FF
100
AcDbEntity
  8
DEFPOINTS
  6
Continuous
 62
     0
100
AcDbPoint
 10
1667.819227660709
 20
5134.783721580252
 30
0.0
  0
ENDBLK
  5
181C
330
17FF
100
AcDbEntity
  8
0
100
AcDbBlockEnd
  0
BLOCK
  5
18CC
330
18C8
100
AcDbEntity
  8
0
100
AcDbBlockBegin
  2
*S21
 70
     1
 10
0.0
 20
0.0
 30
0.0
  3
*S21
  1

  0
CIRCLE
  5
18C9
330
18C8
100
AcDbEntity
  8
AM_12
 62
     4
100
AcDbCircle
 10
3300.700993230774
 20
4528.472537670335
 30
0.0
 40
15.75
  0
LINE
  5
18CA
330
18C8
100
AcDbEntity
  8
AM_12
 62
     4
100
AcDbLine
 10
3284.950993230774
 20
4512.722537670335
 30
0.0
 11
3316.450993230774
 21
4544.222537670335
 31
0.0
  0
LINE
  5
18CB
330
18C8
100
AcDbEntity
  8
AM_12
 62
     4
100
AcDbLine
 10
3284.950993230774
 20
4544.222537670335
 30
0.0
 11
3316.450993230774
 21
4512.722537670335
 31
0.0
  0
ENDBLK
  5
18CD
330
18C8
100
AcDbEntity
  8
0
100
AcDbBlockEnd
  0
BLOCK
  5
18D4
330
18CF
100
AcDbEntity
  8
0
100
AcDbBlockBegin
  2
*S22
 70
     1
 10
0.0
 20
0.0
 30
0.0
  3
*S22
  1

  0
LINE
  5
18D0
330
18CF
100
AcDbEntity
  8
AM_5
100
AcDbLine
 10
3022.192400789359
 20
4404.303199998418
 30
0.0
 11
3271.922130421454
 21
4514.979567376856
 31
0.0
  0
TRACE
  5
18D1
330
18CF
100
AcDbEntity
  8
AM_5
100
AcDbTrace
 10
3273.602418779623
 20
4511.188171188774
 30
0.0
 11
3270.241842063286
 21
4518.770963564937
 31
0.0
 12
3300.720643738536
 22
4527.742624640922
 32
0.0
 13
3300.720643738536
 23
4527.742624640922
 33
0.0
  0
MTEXT
  5
18D2
330
18CF
100
AcDbEntity
  8
AM_5
 62
     2
100
AcDbMText
 10
2976.594754703978
 20
4384.095025996979
 30
0.0
 40
35.0
 41
0.0
 71
     5
 72
     5
  1
1
  7
ACJISTS
 73
     1
 44
1.0
  0
CIRCLE
  5
18D3
330
18CF
100
AcDbEntity
  8
AM_5
 62
     3
100
AcDbCircle
 10
2976.594754703978
 20
4384.095025996979
 30
0.0
 40
49.875
  0
ENDBLK
  5
18D5
330
18CF
100
AcDbEntity
  8
0
100
AcDbBlockEnd
  0
BLOCK
  5
18DB
330
18D7
100
AcDbEntity
  8
0
100
AcDbBlockBegin
  2
*S23
 70
     1
 10
0.0
 20
0.0
 30
0.0
  3
*S23
  1

  0
CIRCLE
  5
18D8
330
18D7
100
AcDbEntity
  8
AM_12
 62
     4
100
AcDbCircle
 10
3240.969922052467
 20
4717.601891717335
 30
0.0
 40
15.75
  0
LINE
  5
18D9
330
18D7
100
AcDbEntity
  8
AM_12
 62
     4
100
AcDbLine
 10
3225.219922052467
 20
4701.851891717335
 30
0.0
 11
3256.719922052467
 21
4733.351891717335
 31
0.0
  0
LINE
  5
18DA
330
18D7
100
AcDbEntity
  8
AM_12
 62
     4
100
AcDbLine
 10
3225.219922052467
 20
4733.351891717335
 30
0.0
 11
3256.719922052467
 21
4701.851891717335
 31
0.0
  0
ENDBLK
  5
18DC
330
18D7
100
AcDbEntity
  8
0
100
AcDbBlockEnd
  0
BLOCK
  5
18E3
330
18DE
100
AcDbEntity
  8
0
100
AcDbBlockBegin
  2
*S24
 70
     1
 10
0.0
 20
0.0
 30
0.0
  3
*S24
  1

  0
LINE
  5
18DF
330
18DE
100
AcDbEntity
  8
AM_5
100
AcDbLine
 10
3070.835616078833
 20
4884.100389737019
 30
0.0
 11
3219.660283776106
 21
4737.940975199044
 31
0.0
  0
TRACE
  5
18E0
330
18DE
100
AcDbEntity
  8
AM_5
100
AcDbTrace
 10
3216.754487657898
 20
4734.982191168229
 30
0.0
 11
3222.566079894313
 21
4740.89975922986
 31
0.0
 12
3242.134479847109
 22
4715.869262284952
 32
0.0
 13
3242.134479847109
 23
4715.869262284952
 33
0.0
  0
MTEXT
  5
18E1
330
18DE
100
AcDbEntity
  8
AM_5
 62
     2
100
AcDbMText
 10
3035.251472299745
 20
4919.047268517665
 30
0.0
 40
35.0
 41
0.0
 71
     5
 72
     5
  1
2
  7
ACJISTS
 73
     1
 44
1.0
  0
CIRCLE
  5
18E2
330
18DE
100
AcDbEntity
  8
AM_5
 62
     3
100
AcDbCircle
 10
3035.251472299745
 20
4919.047268517665
 30
0.0
 40
49.875
  0
ENDBLK
  5
18E4
330
18DE
100
AcDbEntity
  8
0
100
AcDbBlockEnd
  0
BLOCK
  5
18EA
330
18E6
100
AcDbEntity
  8
0
100
AcDbBlockBegin
  2
*S25
 70
     1
 10
0.0
 20
0.0
 30
0.0
  3
*S25
  1

  0
CIRCLE
  5
18E7
330
18E6
100
AcDbEntity
  8
AM_12
 62
     4
100
AcDbCircle
 10
2415.114102331241
 20
5006.915551326456
 30
0.0
 40
15.75
  0
LINE
  5
18E8
330
18E6
100
AcDbEntity
  8
AM_12
 62
     4
100
AcDbLine
 10
2399.364102331241
 20
4991.165551326457
 30
0.0
 11
2430.864102331241
 21
5022.665551326456
 31
0.0
  0
LINE
  5
18E9
330
18E6
100
AcDbEntity
  8
AM_12
 62
     4
100
AcDbLine
 10
2399.364102331241
 20
5022.665551326456
 30
0.0
 11
2430.864102331241
 21
4991.165551326457
 31
0.0
  0
ENDBLK
  5
18EB
330
18E6
100
AcDbEntity
  8
0
100
AcDbBlockEnd
  0
BLOCK
  5
18F2
330
18ED
100
AcDbEntity
  8
0
100
AcDbBlockBegin
  2
*S26
 70
     1
 10
0.0
 20
0.0
 30
0.0
  3
*S26
  1

  0
LINE
  5
18EE
330
18ED
100
AcDbEntity
  8
AM_5
100
AcDbLine
 10
2642.963597190475
 20
5133.116866728958
 30
0.0
 11
2442.255939502933
 21
5022.555082038855
 31
0.0
  0
TRACE
  5
18EF
330
18ED
100
AcDbEntity
  8
AM_5
100
AcDbTrace
 10
2440.254999163535
 20
5026.18747681087
 30
0.0
 11
2444.25687984233
 21
5018.922687266838
 31
0.0
 12
2414.665161851251
 22
5007.356431158744
 32
0.0
 13
2414.665161851251
 23
5007.356431158744
 33
0.0
  0
MTEXT
  5
18F0
330
18ED
100
AcDbEntity
  8
AM_5
 62
     2
100
AcDbMText
 10
2686.64899513897
 20
5157.181397289132
 30
0.0
 40
35.0
 41
0.0
 71
     5
 72
     5
  1
3
  7
ACJISTS
 73
     1
 44
1.0
  0
CIRCLE
  5
18F1
330
18ED
100
AcDbEntity
  8
AM_5
 62
     3
100
AcDbCircle
 10
2686.64899513897
 20
5157.181397289132
 30
0.0
 40
49.875
  0
ENDBLK
  5
18F3
330
18ED
100
AcDbEntity
  8
0
100
AcDbBlockEnd
  0
BLOCK
  5
18F9
330
18F5
100
AcDbEntity
  8
0
100
AcDbBlockBegin
  2
*S27
 70
     1
 10
0.0
 20
0.0
 30
0.0
  3
*S27
  1

  0
CIRCLE
  5
18F6
330
18F5
100
AcDbEntity
  8
AM_12
 62
     4
100
AcDbCircle
 10
2091.063856571025
 20
4430.216092362363
 30
0.0
 40
15.75
  0
LINE
  5
18F7
330
18F5
100
AcDbEntity
  8
AM_12
 62
     4
100
AcDbLine
 10
2075.313856571025
 20
4414.466092362363
 30
0.0
 11
2106.813856571025
 21
4445.966092362363
 31
0.0
  0
LINE
  5
18F8
330
18F5
100
AcDbEntity
  8
AM_12
 62
     4
100
AcDbLine
 10
2075.313856571025
 20
4445.966092362363
 30
0.0
 11
2106.813856571025
 21
4414.466092362363
 31
0.0
  0
ENDBLK
  5
18FA
330
18F5
100
AcDbEntity
  8
0
100
AcDbBlockEnd
  0
BLOCK
  5
1901
330
18FC
100
AcDbEntity
  8
0
100
AcDbBlockBegin
  2
*S28
 70
     1
 10
0.0
 20
0.0
 30
0.0
  3
*S28
  1

  0
LINE
  5
18FD
330
18FC
100
AcDbEntity
  8
AM_5
100
AcDbLine
 10
2173.818998305392
 20
4278.312048544161
 30
0.0
 11
2106.119790640096
 21
4402.725691969766
 31
0.0
  0
TRACE
  5
18FE
330
18FC
100
AcDbEntity
  8
AM_5
100
AcDbTrace
 10
2109.762472370167
 20
4404.707843284628
 30
0.0
 11
2102.477108910025
 21
4400.743540654906
 31
0.0
 12
2091.063856571025
 22
4430.394606825752
 32
0.0
 13
2091.063856571025
 23
4430.394606825752
 33
0.0
  0
MTEXT
  5
18FF
330
18FC
100
AcDbEntity
  8
AM_5
 62
     2
100
AcDbMText
 10
2197.657560581422
 20
4234.502933355517
 30
0.0
 40
35.0
 41
0.0
 71
     5
 72
     5
  1
4
  7
ACJISTS
 73
     1
 44
1.0
  0
CIRCLE
  5
1900
330
18FC
100
AcDbEntity
  8
AM_5
 62
     3
100
AcDbCircle
 10
2197.657560581422
 20
4234.502933355517
 30
0.0
 40
49.875
  0
ENDBLK
  5
1902
330
18FC
100
AcDbEntity
  8
0
100
AcDbBlockEnd
  0
BLOCK
  5
1908
330
1904
100
AcDbEntity
  8
0
100
AcDbBlockBegin
  2
*S29
 70
     1
 10
0.0
 20
0.0
 30
0.0
  3
*S29
  1

  0
CIRCLE
  5
1905
330
1904
100
AcDbEntity
  8
AM_12
 62
     4
100
AcDbCircle
 10
3477.363854585779
 20
4430.89041678291
 30
0.0
 40
15.75
  0
LINE
  5
1906
330
1904
100
AcDbEntity
  8
AM_12
 62
     4
100
AcDbLine
 10
3461.61385458578
 20
4415.14041678291
 30
0.0
 11
3493.113854585779
 21
4446.640416782909
 31
0.0
  0
LINE
  5
1907
330
1904
100
AcDbEntity
  8
AM_12
 62
     4
100
AcDbLine
 10
3461.61385458578
 20
4446.640416782909
 30
0.0
 11
3493.113854585779
 21
4415.14041678291
 31
0.0
  0
ENDBLK
  5
1909
330
1904
100
AcDbEntity
  8
0
100
AcDbBlockEnd
  0
BLOCK
  5
1910
330
190B
100
AcDbEntity
  8
0
100
AcDbBlockBegin
  2
*S30
 70
     1
 10
0.0
 20
0.0
 30
0.0
  3
*S30
  1

  0
LINE
  5
190C
330
190B
100
AcDbEntity
  8
AM_5
100
AcDbLine
 10
3138.402798584734
 20
4174.896034713835
 30
0.0
 11
3452.066547991439
 21
4411.644744286894
 31
0.0
  0
TRACE
  5
190D
330
190B
100
AcDbEntity
  8
AM_5
100
AcDbTrace
 10
3454.564905301797
 20
4408.334719397053
 30
0.0
 11
3449.56819068108
 21
4414.954769176736
 31
0.0
 12
3477.208683273855
 22
4430.621652186778
 32
0.0
 13
3477.208683273855
 23
4430.621652186778
 33
0.0
  0
MTEXT
  5
190E
330
190B
100
AcDbEntity
  8
AM_5
 62
     2
100
AcDbMText
 10
3098.594417720909
 20
4144.849263872353
 30
0.0
 40
35.0
 41
0.0
 71
     5
 72
     5
  1
5
  7
ACJISTS
 73
     1
 44
1.0
  0
CIRCLE
  5
190F
330
190B
100
AcDbEntity
  8
AM_5
 62
     3
100
AcDbCircle
 10
3098.594417720909
 20
4144.849263872353
 30
0.0
 40
49.875
  0
ENDBLK
  5
1911
330
190B
100
AcDbEntity
  8
0
100
AcDbBlockEnd
  0
BLOCK
  5
1953
330
1913
100
AcDbEntity
  8
0
100
AcDbBlockBegin
  2
*S31
 70
     1
 10
0.0
 20
0.0
 30
0.0
  3
*S31
  1

  0
LINE
  5
1914
330
1913
100
AcDbEntity
  8
1
 62
     1
100
AcDbLine
 10
2781.798164984909
 20
5927.507588112352
 30
0.0
 11
4095.798164984908
 21
5927.507588112352
 31
0.0
  0
LINE
  5
1915
330
1913
100
AcDbEntity
  8
1
 62
     1
100
AcDbLine
 10
2781.798164984909
 20
5853.257588112352
 30
0.0
 11
4095.798164984908
 21
5853.257588112352
 31
0.0
  0
LINE
  5
1916
330
1913
100
AcDbEntity
  8
1
 62
     1
100
AcDbLine
 10
2781.798164984909
 20
5779.007588112352
 30
0.0
 11
4095.798164984908
 21
5779.007588112352
 31
0.0
  0
LINE
  5
1917
330
1913
100
AcDbEntity
  8
1
 62
     1
100
AcDbLine
 10
2781.798164984909
 20
5704.757588112352
 30
0.0
 11
4095.798164984908
 21
5704.757588112352
 31
0.0
  0
MTEXT
  5
1918
330
1913
100
AcDbEntity
  8
1
 62
     7
100
AcDbMText
 10
2840.298164984909
 20
5988.257588112352
 30
0.0
 40
45.0
 41
98.99999999999998
 71
     2
 72
     5
  1
1
  7
ACJISTS
 73
     1
 44
1.0
  0
LINE
  5
1919
330
1913
100
AcDbEntity
  8
1
 62
     1
100
AcDbLine
 10
2898.798164984909
 20
6001.757588112352
 30
0.0
 11
2898.798164984909
 21
5927.507588112352
 31
0.0
  0
MTEXT
  5
191A
330
1913
100
AcDbEntity
  8
1
 62
     7
100
AcDbMText
 10
3123.798164984909
 20
5988.257588112352
 30
0.0
 40
45.0
 41
432.0
 71
     2
 72
     5
  1
脚部
  7
ACJISTS
 73
     1
 44
1.0
  0
LINE
  5
191B
330
1913
100
AcDbEntity
  8
1
 62
     1
100
AcDbLine
 10
3348.798164984909
 20
6001.757588112352
 30
0.0
 11
3348.798164984909
 21
5927.507588112352
 31
0.0
  0
MTEXT
  5
191C
330
1913
100
AcDbEntity
  8
1
 62
     7
100
AcDbMText
 10
3407.298164984909
 20
5988.257588112352
 30
0.0
 40
45.0
 41
99.0
 71
     2
 72
     5
  1
3
  7
ACJISTS
 73
     1
 44
1.0
  0
LINE
  5
191D
330
1913
100
AcDbEntity
  8
1
 62
     1
100
AcDbLine
 10
3465.798164984909
 20
6001.757588112352
 30
0.0
 11
3465.798164984909
 21
5927.507588112352
 31
0.0
  0
MTEXT
  5
191E
330
1913
100
AcDbEntity
  8
1
 62
     7
100
AcDbMText
 10
3580.798164984909
 20
5988.257588112352
 30
0.0
 40
45.0
 41
212.0
 71
     2
 72
     5
  1
FC200
  7
ACJISTS
 73
     1
 44
1.0
  0
LINE
  5
191F
330
1913
100
AcDbEntity
  8
1
 62
     1
100
AcDbLine
 10
3695.798164984909
 20
6001.757588112352
 30
0.0
 11
3695.798164984909
 21
5927.507588112352
 31
0.0
  0
MTEXT
  5
1920
330
1913
100
AcDbEntity
  8
1
 62
     7
100
AcDbMText
 10
3895.79816498491
 20
5988.257588112352
 30
0.0
 40
45.0
 41
382.0
 71
     2
 72
     5
  1
樹脂系塗料塗装
  7
ACJISTS
 73
     1
 44
1.0
  0
MTEXT
  5
1921
330
1913
100
AcDbEntity
  8
1
 62
     7
100
AcDbMText
 10
2840.298164984909
 20
5914.007588112352
 30
0.0
 40
45.0
 41
98.99999999999998
 71
     2
 72
     5
  1
2
  7
ACJISTS
 73
     1
 44
1.0
  0
LINE
  5
1922
330
1913
100
AcDbEntity
  8
1
 62
     1
100
AcDbLine
 10
2898.798164984909
 20
5927.507588112352
 30
0.0
 11
2898.798164984909
 21
5853.257588112352
 31
0.0
  0
MTEXT
  5
1923
330
1913
100
AcDbEntity
  8
1
 62
     7
100
AcDbMText
 10
3123.798164984909
 20
5914.007588112352
 30
0.0
 40
45.0
 41
432.0
 71
     2
 72
     5
  1
座板
  7
ACJISTS
 73
     1
 44
1.0
  0
LINE
  5
1924
330
1913
100
AcDbEntity
  8
1
 62
     1
100
AcDbLine
 10
3348.798164984909
 20
5927.507588112352
 30
0.0
 11
3348.798164984909
 21
5853.257588112352
 31
0.0
  0
MTEXT
  5
1925
330
1913
100
AcDbEntity
  8
1
 62
     7
100
AcDbMText
 10
3407.298164984909
 20
5914.007588112352
 30
0.0
 40
45.0
 41
99.0
 71
     2
 72
     5
  1
9
  7
ACJISTS
 73
     1
 44
1.0
  0
LINE
  5
1926
330
1913
100
AcDbEntity
  8
1
 62
     1
100
AcDbLine
 10
3465.798164984909
 20
5927.507588112352
 30
0.0
 11
3465.798164984909
 21
5853.257588112352
 31
0.0
  0
MTEXT
  5
1927
330
1913
100
AcDbEntity
  8
1
 62
     7
100
AcDbMText
 10
3580.798164984909
 20
5914.007588112352
 30
0.0
 40
45.0
 41
212.0
 71
     2
 72
     5
  1
桧，ひば
  7
ACJISTS
 73
     1
 44
1.0
  0
LINE
  5
1928
330
1913
100
AcDbEntity
  8
1
 62
     1
100
AcDbLine
 10
3695.798164984909
 20
5927.507588112352
 30
0.0
 11
3695.798164984909
 21
5853.257588112352
 31
0.0
  0
MTEXT
  5
1929
330
1913
100
AcDbEntity
  8
1
 62
     7
100
AcDbMText
 10
3895.79816498491
 20
5914.007588112352
 30
0.0
 40
45.0
 41
382.0
 71
     2
 72
     5
  1
-
  7
ACJISTS
 73
     1
 44
1.0
  0
MTEXT
  5
192A
330
1913
100
AcDbEntity
  8
1
 62
     7
100
AcDbMText
 10
2840.298164984909
 20
5839.757588112352
 30
0.0
 40
45.0
 41
98.99999999999998
 71
     2
 72
     5
  1
3
  7
ACJISTS
 73
     1
 44
1.0
  0
LINE
  5
192B
330
1913
100
AcDbEntity
  8
1
 62
     1
100
AcDbLine
 10
2898.798164984909
 20
5853.257588112352
 30
0.0
 11
2898.798164984909
 21
5779.007588112352
 31
0.0
  0
MTEXT
  5
192C
330
1913
100
AcDbEntity
  8
1
 62
     7
100
AcDbMText
 10
3123.798164984909
 20
5839.757588112352
 30
0.0
 40
45.0
 41
432.0
 71
     2
 72
     5
  1
座板止めビス
  7
ACJISTS
 73
     1
 44
1.0
  0
LINE
  5
192D
330
1913
100
AcDbEntity
  8
1
 62
     1
100
AcDbLine
 10
3348.798164984909
 20
5853.257588112352
 30
0.0
 11
3348.798164984909
 21
5779.007588112352
 31
0.0
  0
MTEXT
  5
192E
330
1913
100
AcDbEntity
  8
1
 62
     7
100
AcDbMText
 10
3407.298164984909
 20
5839.757588112352
 30
0.0
 40
45.0
 41
99.0
 71
     2
 72
     5
  1
27
  7
ACJISTS
 73
     1
 44
1.0
  0
LINE
  5
192F
330
1913
100
AcDbEntity
  8
1
 62
     1
100
AcDbLine
 10
3465.798164984909
 20
5853.257588112352
 30
0.0
 11
3465.798164984909
 21
5779.007588112352
 31
0.0
  0
MTEXT
  5
1930
330
1913
100
AcDbEntity
  8
1
 62
     7
100
AcDbMText
 10
3580.798164984909
 20
5839.757588112352
 30
0.0
 40
45.0
 41
212.0
 71
     2
 72
     5
  1
SUS304
  7
ACJISTS
 73
     1
 44
1.0
  0
LINE
  5
1931
330
1913
100
AcDbEntity
  8
1
 62
     1
100
AcDbLine
 10
3695.798164984909
 20
5853.257588112352
 30
0.0
 11
3695.798164984909
 21
5779.007588112352
 31
0.0
  0
MTEXT
  5
1932
330
1913
100
AcDbEntity
  8
1
 62
     7
100
AcDbMText
 10
3895.79816498491
 20
5839.757588112352
 30
0.0
 40
45.0
 41
382.0
 71
     2
 72
     5
  1
M6　皿ビス
  7
ACJISTS
 73
     1
 44
1.0
  0
MTEXT
  5
1933
330
1913
100
AcDbEntity
  8
1
 62
     7
100
AcDbMText
 10
2840.298164984909
 20
5765.507588112352
 30
0.0
 40
45.0
 41
98.99999999999998
 71
     2
 72
     5
  1
4
  7
ACJISTS
 73
     1
 44
1.0
  0
LINE
  5
1934
330
1913
100
AcDbEntity
  8
1
 62
     1
100
AcDbLine
 10
2898.798164984909
 20
5779.007588112352
 30
0.0
 11
2898.798164984909
 21
5704.757588112352
 31
0.0
  0
MTEXT
  5
1935
330
1913
100
AcDbEntity
  8
1
 62
     7
100
AcDbMText
 10
3123.798164984909
 20
5765.507588112352
 30
0.0
 40
45.0
 41
432.0
 71
     2
 72
     5
  1
ガイドパイプ
  7
ACJISTS
 73
     1
 44
1.0
  0
LINE
  5
1936
330
1913
100
AcDbEntity
  8
1
 62
     1
100
AcDbLine
 10
3348.798164984909
 20
5779.007588112352
 30
0.0
 11
3348.798164984909
 21
5704.757588112352
 31
0.0
  0
MTEXT
  5
1937
330
1913
100
AcDbEntity
  8
1
 62
     7
100
AcDbMText
 10
3407.298164984909
 20
5765.507588112352
 30
0.0
 40
45.0
 41
99.0
 71
     2
 72
     5
  1
1
  7
ACJISTS
 73
     1
 44
1.0
  0
LINE
  5
1938
330
1913
100
AcDbEntity
  8
1
 62
     1
100
AcDbLine
 10
3465.798164984909
 20
5779.007588112352
 30
0.0
 11
3465.798164984909
 21
5704.757588112352
 31
0.0
  0
MTEXT
  5
1939
330
1913
100
AcDbEntity
  8
1
 62
     7
100
AcDbMText
 10
3580.798164984909
 20
5765.507588112352
 30
0.0
 40
45.0
 41
212.0
 71
     2
 72
     5
  1
鋼管15A
  7
ACJISTS
 73
     1
 44
1.0
  0
LINE
  5
193A
330
1913
100
AcDbEntity
  8
1
 62
     1
100
AcDbLine
 10
3695.798164984909
 20
5779.007588112352
 30
0.0
 11
3695.798164984909
 21
5704.757588112352
 31
0.0
  0
MTEXT
  5
193B
330
1913
100
AcDbEntity
  8
1
 62
     7
100
AcDbMText
 10
3895.79816498491
 20
5765.507588112352
 30
0.0
 40
45.0
 41
382.0
 71
     2
 72
     5
  1
樹脂系塗料塗装
  7
ACJISTS
 73
     1
 44
1.0
  0
MTEXT
  5
193C
330
1913
100
AcDbEntity
  8
1
 62
     7
100
AcDbMText
 10
2840.298164984909
 20
5691.257588112352
 30
0.0
 40
45.0
 41
98.99999999999998
 71
     2
 72
     5
  1
5
  7
ACJISTS
 73
     1
 44
1.0
  0
LINE
  5
193D
330
1913
100
AcDbEntity
  8
1
 62
     1
100
AcDbLine
 10
2898.798164984909
 20
5704.757588112352
 30
0.0
 11
2898.798164984909
 21
5630.507588112352
 31
0.0
  0
MTEXT
  5
193E
330
1913
100
AcDbEntity
  8
1
 62
     7
100
AcDbMText
 10
3123.798164984909
 20
5691.257588112352
 30
0.0
 40
45.0
 41
432.0
 71
     2
 72
     5
  1
袋ナット
  7
ACJISTS
 73
     1
 44
1.0
  0
LINE
  5
193F
330
1913
100
AcDbEntity
  8
1
 62
     1
100
AcDbLine
 10
3348.798164984909
 20
5704.757588112352
 30
0.0
 11
3348.798164984909
 21
5630.507588112352
 31
0.0
  0
MTEXT
  5
1940
330
1913
100
AcDbEntity
  8
1
 62
     7
100
AcDbMText
 10
3407.298164984909
 20
5691.257588112352
 30
0.0
 40
45.0
 41
99.0
 71
     2
 72
     5
  1
2
  7
ACJISTS
 73
     1
 44
1.0
  0
LINE
  5
1941
330
1913
100
AcDbEntity
  8
1
 62
     1
100
AcDbLine
 10
3465.798164984909
 20
5704.757588112352
 30
0.0
 11
3465.798164984909
 21
5630.507588112352
 31
0.0
  0
MTEXT
  5
1942
330
1913
100
AcDbEntity
  8
1
 62
     7
100
AcDbMText
 10
3580.798164984909
 20
5691.257588112352
 30
0.0
 40
45.0
 41
212.0
 71
     2
 72
     5
  1
SUS304
  7
ACJISTS
 73
     1
 44
1.0
  0
LINE
  5
1943
330
1913
100
AcDbEntity
  8
1
 62
     1
100
AcDbLine
 10
3695.798164984909
 20
5704.757588112352
 30
0.0
 11
3695.798164984909
 21
5630.507588112352
 31
0.0
  0
MTEXT
  5
1944
330
1913
100
AcDbEntity
  8
1
 62
     7
100
AcDbMText
 10
3895.79816498491
 20
5691.257588112352
 30
0.0
 40
45.0
 41
382.0
 71
     2
 72
     5
  1
M10
  7
ACJISTS
 73
     1
 44
1.0
  0
LINE
  5
1945
330
1913
100
AcDbEntity
  8
1
 62
     1
100
AcDbLine
 10
2781.798164984909
 20
6001.757588112352
 30
0.0
 11
4095.798164984908
 21
6001.757588112352
 31
0.0
  0
MTEXT
  5
1946
330
1913
100
AcDbEntity
  8
1
 62
     7
100
AcDbMText
 10
2840.298164984909
 20
6062.507588112352
 30
0.0
 40
45.0
 41
98.99999999999998
 71
     2
 72
     5
  1
部番
  7
ACJISTS
 73
     1
 44
1.0
  0
LINE
  5
1947
330
1913
100
AcDbEntity
  8
1
 62
     1
100
AcDbLine
 10
2898.798164984909
 20
6076.007588112352
 30
0.0
 11
2898.798164984909
 21
6001.757588112352
 31
0.0
  0
MTEXT
  5
1948
330
1913
100
AcDbEntity
  8
1
 62
     7
100
AcDbMText
 10
3123.798164984909
 20
6062.507588112352
 30
0.0
 40
45.0
 41
432.0
 71
     2
 72
     5
  1
部  品  名
  7
ACJISTS
 73
     1
 44
1.0
  0
LINE
  5
1949
330
1913
100
AcDbEntity
  8
1
 62
     1
100
AcDbLine
 10
3348.798164984909
 20
6076.007588112352
 30
0.0
 11
3348.798164984909
 21
6001.757588112352
 31
0.0
  0
MTEXT
  5
194A
330
1913
100
AcDbEntity
  8
1
 62
     7
100
AcDbMText
 10
3407.298164984909
 20
6062.507588112352
 30
0.0
 40
45.0
 41
99.0
 71
     2
 72
     5
  1
数量
  7
ACJISTS
 73
     1
 44
1.0
  0
LINE
  5
194B
330
1913
100
AcDbEntity
  8
1
 62
     1
100
AcDbLine
 10
3465.798164984909
 20
6076.007588112352
 30
0.0
 11
3465.798164984909
 21
6001.757588112352
 31
0.0
  0
MTEXT
  5
194C
330
1913
100
AcDbEntity
  8
1
 62
     7
100
AcDbMText
 10
3580.798164984909
 20
6062.507588112352
 30
0.0
 40
45.0
 41
212.0
 71
     2
 72
     5
  1
材  質
  7
ACJISTS
 73
     1
 44
1.0
  0
LINE
  5
194D
330
1913
100
AcDbEntity
  8
1
 62
     1
100
AcDbLine
 10
3695.798164984909
 20
6076.007588112352
 30
0.0
 11
3695.798164984909
 21
6001.757588112352
 31
0.0
  0
MTEXT
  5
194E
330
1913
100
AcDbEntity
  8
1
 62
     7
100
AcDbMText
 10
3895.79816498491
 20
6062.507588112352
 30
0.0
 40
45.0
 41
382.0
 71
     2
 72
     5
  1
備　　考
  7
ACJISTS
 73
     1
 44
1.0
  0
LINE
  5
194F
330
1913
100
AcDbEntity
  8
1
 62
     7
100
AcDbLine
 10
2781.798164984909
 20
6076.007588112352
 30
0.0
 11
4095.798164984908
 21
6076.007588112352
 31
0.0
  0
LINE
  5
1950
330
1913
100
AcDbEntity
  8
1
 62
     7
100
AcDbLine
 10
4095.798164984908
 20
6076.007588112352
 30
0.0
 11
4095.798164984908
 21
5630.507588112352
 31
0.0
  0
LINE
  5
1951
330
1913
100
AcDbEntity
  8
1
 62
     7
100
AcDbLine
 10
4095.798164984908
 20
5630.507588112352
 30
0.0
 11
2781.798164984909
 21
5630.507588112352
 31
0.0
  0
LINE
  5
1952
330
1913
100
AcDbEntity
  8
1
 62
     7
100
AcDbLine
 10
2781.798164984909
 20
5630.507588112352
 30
0.0
 11
2781.798164984909
 21
6076.007588112352
 31
0.0
  0
ENDBLK
  5
1954
330
1913
100
AcDbEntity
  8
0
100
AcDbBlockEnd
  0
ENDSEC
  0
SECTION
  2
ENTITIES
  0
ARC
  5
DF8
330
1F
100
AcDbEntity
  8
1
  6
Continuous
 62
     7
100
AcDbCircle
 10
2564.819227660709
 20
5031.783721580252
 30
0.0
 40
3.0
100
AcDbArc
 50
0.0
 51
90.0
  0
LINE
  5
DF9
330
1F
100
AcDbEntity
  8
1
  6
Continuous
 62
     7
100
AcDbLine
 10
2567.819227660709
 20
5031.783721580252
 30
0.0
 11
2567.819227660709
 21
4972.249248047852
 31
0.0
  0
LINE
  5
DFA
330
1F
100
AcDbEntity
  8
1
  6
Continuous
 62
     7
100
AcDbLine
 10
2564.819227660709
 20
5034.783721580252
 30
0.0
 11
770.8192276607087
 21
5034.783721580252
 31
0.0
  0
ARC
  5
DFB
330
1F
100
AcDbEntity
  8
1
  6
Continuous
 62
     7
100
AcDbCircle
 10
2564.819227660709
 20
4972.249248047852
 30
0.0
 40
3.0
100
AcDbArc
 50
270.0
 51
0.0
  0
LINE
  5
DFC
330
1F
100
AcDbEntity
  8
1
  6
Continuous
 62
     7
100
AcDbLine
 10
2564.819227660709
 20
4969.249248047852
 30
0.0
 11
770.8192276607087
 21
4969.249248047852
 31
0.0
  0
ARC
  5
DFD
330
1F
100
AcDbEntity
  8
1
  6
Continuous
 62
     7
100
AcDbCircle
 10
2564.819227660709
 20
4956.919562824552
 30
0.0
 40
3.0
100
AcDbArc
 50
0.0
 51
90.0
  0
LINE
  5
DFE
330
1F
100
AcDbEntity
  8
1
  6
Continuous
 62
     7
100
AcDbLine
 10
2567.819227660709
 20
4956.919562824552
 30
0.0
 11
2567.819227660709
 21
4896.347448008453
 31
0.0
  0
LINE
  5
DFF
330
1F
100
AcDbEntity
  8
1
  6
Continuous
 62
     7
100
AcDbLine
 10
2564.819227660709
 20
4959.919562824552
 30
0.0
 11
770.8192276607087
 21
4959.919562824552
 31
0.0
  0
ARC
  5
E00
330
1F
100
AcDbEntity
  8
1
  6
Continuous
 62
     7
100
AcDbCircle
 10
2564.819227660709
 20
4896.347448008453
 30
0.0
 40
3.0
100
AcDbArc
 50
270.0
 51
0.0
  0
LINE
  5
E01
330
1F
100
AcDbEntity
  8
1
  6
Continuous
 62
     7
100
AcDbLine
 10
2564.819227660709
 20
4893.347448008452
 30
0.0
 11
770.8192276607087
 21
4893.347448008452
 31
0.0
  0
ARC
  5
E02
330
1F
100
AcDbEntity
  8
1
  6
Continuous
 62
     7
100
AcDbCircle
 10
2564.819227660709
 20
4880.881692943752
 30
0.0
 40
3.0
100
AcDbArc
 50
0.0
 51
90.0
  0
LINE
  5
E03
330
1F
100
AcDbEntity
  8
1
  6
Continuous
 62
     7
100
AcDbLine
 10
2567.819227660709
 20
4880.881692943752
 30
0.0
 11
2567.819227660709
 21
4819.215693074653
 31
0.0
  0
LINE
  5
E04
330
1F
100
AcDbEntity
  8
1
  6
Continuous
 62
     7
100
AcDbLine
 10
2564.819227660709
 20
4883.881692943752
 30
0.0
 11
770.8192276607087
 21
4883.881692943752
 31
0.0
  0
ARC
  5
E05
330
1F
100
AcDbEntity
  8
1
  6
Continuous
 62
     7
100
AcDbCircle
 10
2564.819227660709
 20
4819.215693074653
 30
0.0
 40
3.0
100
AcDbArc
 50
270.0
 51
0.0
  0
LINE
  5
E06
330
1F
100
AcDbEntity
  8
1
  6
Continuous
 62
     7
100
AcDbLine
 10
2564.819227660709
 20
4816.215693074653
 30
0.0
 11
770.8192276607087
 21
4816.215693074653
 31
0.0
  0
ARC
  5
E07
330
1F
100
AcDbEntity
  8
1
  6
Continuous
 62
     7
100
AcDbCircle
 10
2564.819227660709
 20
4803.645302269653
 30
0.0
 40
3.0
100
AcDbArc
 50
0.0
 51
90.0
  0
LINE
  5
E08
330
1F
100
AcDbEntity
  8
1
  6
Continuous
 62
     7
100
AcDbLine
 10
2567.819227660709
 20
4803.645302269653
 30
0.0
 11
2567.819227660709
 21
4740.835753640452
 31
0.0
  0
LINE
  5
E09
330
1F
100
AcDbEntity
  8
1
  6
Continuous
 62
     7
100
AcDbLine
 10
2564.819227660709
 20
4806.645302269652
 30
0.0
 11
770.8192276607087
 21
4806.645302269652
 31
0.0
  0
ARC
  5
E0A
330
1F
100
AcDbEntity
  8
1
  6
Continuous
 62
     7
100
AcDbCircle
 10
2564.819227660709
 20
4740.835753640452
 30
0.0
 40
3.0
100
AcDbArc
 50
270.0
 51
0.0
  0
LINE
  5
E0B
330
1F
100
AcDbEntity
  8
1
  6
Continuous
 62
     7
100
AcDbLine
 10
2564.819227660709
 20
4737.835753640452
 30
0.0
 11
770.8192276607087
 21
4737.835753640452
 31
0.0
  0
ARC
  5
E0C
330
1F
100
AcDbEntity
  8
1
  6
Continuous
 62
     7
100
AcDbCircle
 10
770.8192276607087
 20
4740.835753640452
 30
0.0
 40
3.0
100
AcDbArc
 50
180.0
 51
270.0
  0
LINE
  5
E0D
330
1F
100
AcDbEntity
  8
1
  6
Continuous
 62
     7
100
AcDbLine
 10
767.8192276607087
 20
4740.835753640452
 30
0.0
 11
767.8192276607087
 21
4803.645302269653
 31
0.0
  0
ARC
  5
E0E
330
1F
100
AcDbEntity
  8
1
  6
Continuous
 62
     7
100
AcDbCircle
 10
770.8192276607087
 20
4803.645302269653
 30
0.0
 40
3.0
100
AcDbArc
 50
90.0
 51
180.0
  0
ARC
  5
E0F
330
1F
100
AcDbEntity
  8
1
  6
Continuous
 62
     7
100
AcDbCircle
 10
770.8192276607087
 20
4819.215693074653
 30
0.0
 40
3.0
100
AcDbArc
 50
180.0
 51
270.0
  0
LINE
  5
E10
330
1F
100
AcDbEntity
  8
1
  6
Continuous
 62
     7
100
AcDbLine
 10
767.8192276607087
 20
4819.215693074653
 30
0.0
 11
767.8192276607087
 21
4880.881692943752
 31
0.0
  0
ARC
  5
E11
330
1F
100
AcDbEntity
  8
1
  6
Continuous
 62
     7
100
AcDbCircle
 10
770.8192276607087
 20
4880.881692943752
 30
0.0
 40
3.0
100
AcDbArc
 50
90.0
 51
180.0
  0
ARC
  5
E12
330
1F
100
AcDbEntity
  8
1
  6
Continuous
 62
     7
100
AcDbCircle
 10
770.8192276607087
 20
4896.347448008453
 30
0.0
 40
3.0
100
AcDbArc
 50
180.0
 51
270.0
  0
LINE
  5
E13
330
1F
100
AcDbEntity
  8
1
  6
Continuous
 62
     7
100
AcDbLine
 10
767.8192276607087
 20
4896.347448008453
 30
0.0
 11
767.8192276607087
 21
4956.919562824552
 31
0.0
  0
ARC
  5
E14
330
1F
100
AcDbEntity
  8
1
  6
Continuous
 62
     7
100
AcDbCircle
 10
770.8192276607087
 20
4956.919562824552
 30
0.0
 40
3.0
100
AcDbArc
 50
90.0
 51
180.0
  0
ARC
  5
E15
330
1F
100
AcDbEntity
  8
1
  6
Continuous
 62
     7
100
AcDbCircle
 10
770.8192276607087
 20
4972.249248047852
 30
0.0
 40
3.0
100
AcDbArc
 50
180.0
 51
270.0
  0
LINE
  5
E16
330
1F
100
AcDbEntity
  8
1
  6
Continuous
 62
     7
100
AcDbLine
 10
767.8192276607087
 20
4972.249248047852
 30
0.0
 11
767.8192276607087
 21
5031.783721580252
 31
0.0
  0
ARC
  5
E17
330
1F
100
AcDbEntity
  8
1
  6
Continuous
 62
     7
100
AcDbCircle
 10
770.8192276607087
 20
5031.783721580252
 30
0.0
 40
3.0
100
AcDbArc
 50
90.0
 51
180.0
  0
DIMENSION
  5
E1B
330
1F
100
AcDbEntity
  8
1
  6
Continuous
 62
     2
100
AcDbDimension
  2
*D6
 10
3895.434377419209
 20
4335.394606825752
 30
0.0
 11
3865.434377419209
 21
4685.089164203002
 31
0.0
 70
    32
  1
700
 71
     5
 42
699.3891147545
  3
IGS
100
AcDbAlignedDimension
 13
3749.241476055709
 23
5034.783721580252
 33
0.0
 14
3735.941683336909
 24
4335.394606825752
 34
0.0
 50
90.0
100
AcDbRotatedDimension
1001
GENIUS_GENDTOL_13
1000

1000
JS7
1000

1040
0.0
1001
ACAD
1000
DSTYLE
1002
{
1070
    40
1040
10.0
1070
   178
1070
     2
1070
   177
1070
     3
1070
   176
1070
     3
1002
}
  0
DIMENSION
  5
E1C
330
1F
100
AcDbEntity
  8
1
  6
Continuous
 62
     2
100
AcDbDimension
  2
*D7
 10
3135.941683336909
 20
4335.394606825752
 30
0.0
 11
3105.941683336908
 21
4529.589772239753
 31
0.0
 70
    32
  1
380
 71
     5
 42
388.3903308280005
  3
IGS
100
AcDbAlignedDimension
 13
3271.676182499709
 23
4723.784937653753
 33
0.0
 14
3235.941683336909
 24
4335.394606825752
 34
0.0
 50
90.0
100
AcDbRotatedDimension
1001
GENIUS_GENDTOL_13
1000

1000
JS7
1000

1040
0.0
1001
ACAD
1000
DSTYLE
1002
{
1070
    40
1040
10.0
1070
   178
1070
     2
1070
   177
1070
     3
1070
   176
1070
     3
1002
}
  0
DIMENSION
  5
E1D
330
1F
100
AcDbEntity
  8
1
  6
Continuous
 62
     2
100
AcDbDimension
  2
*D8
 10
3796.920344308709
 20
5134.783721580252
 30
0.0
 11
3501.914926722659
 21
5164.783721580252
 31
0.0
 70
    32
  1
595
 71
     5
 42
590.0108351721001
  3
IGS
100
AcDbAlignedDimension
 13
3206.909509136609
 23
4693.120767608553
 33
0.0
 14
3796.920344308709
 24
5005.529421054952
 34
0.0
100
AcDbRotatedDimension
1001
GENIUS_GENDTOL_13
1000

1000
JS7
1000

1040
0.0
1001
ACAD
1000
DSTYLE
1002
{
1070
    40
1040
10.0
1070
   178
1070
     2
1070
   177
1070
     3
1070
   176
1070
     3
1002
}
  0
DIMENSION
  5
E1E
330
1F
100
AcDbEntity
  8
1
  6
Continuous
 62
     2
100
AcDbDimension
  2
*D9
 10
520.0416505043087
 20
5034.783721580252
 30
0.0
 11
490.0416505043079
 21
4685.089164203001
 31
0.0
 70
    32
  1
700
 71
     5
 42
699.3891147545
  3
IGS
100
AcDbAlignedDimension
 13
610.0416505043088
 23
4335.394606825752
 33
0.0
 14
767.8192276607087
 24
5034.783721580252
 34
0.0
 50
90.0
100
AcDbRotatedDimension
1001
GENIUS_GENDTOL_13
1000

1000
JS7
1000

1040
0.0
1001
ACAD
1000
DSTYLE
1002
{
1070
    40
1040
10.0
1070
   178
1070
     2
1070
   177
1070
     3
1070
   176
1070
     3
1002
}
  0
DIMENSION
  5
E1F
330
1F
100
AcDbEntity
  8
1
  6
Continuous
 62
     2
100
AcDbDimension
  2
*D10
 10
2567.819227660709
 20
5234.783721580252
 30
0.0
 11
1667.819227660709
 21
5264.783721580251
 31
0.0
 70
    32
  1
<>
 71
     5
 42
1800.0
  3
IGS
100
AcDbAlignedDimension
 13
767.8192276607087
 23
5034.783721580252
 33
0.0
 14
2567.819227660709
 24
5144.783721580252
 34
0.0
100
AcDbRotatedDimension
1001
GENIUS_GENDTOL_13
1000

1000
JS7
1000

1040
0.0
1001
ACAD
1000
DSTYLE
1002
{
1070
    40
1040
10.0
1070
   178
1070
     2
1070
   177
1070
     3
1070
   176
1070
     3
1002
}
  0
DIMENSION
  5
E20
330
1F
100
AcDbEntity
  8
1
  6
Continuous
 62
     2
100
AcDbDimension
  2
*D11
 10
2567.819227660709
 20
5134.783721580252
 30
0.0
 11
2500.319227660709
 21
5164.783721580252
 31
0.0
 70
    32
 71
     5
 42
135.0
  3
IGS
100
AcDbAlignedDimension
 13
2432.819227660709
 23
5055.420583029152
 33
0.0
 14
2567.819227660709
 24
5034.783721580252
 34
0.0
100
AcDbRotatedDimension
1001
ACAD
1000
DSTYLE
1002
{
1070
    40
1040
10.0
1070
   178
1070
     2
1070
   177
1070
     3
1070
   176
1070
     3
1002
}
  0
DIMENSION
  5
E21
330
1F
100
AcDbEntity
  8
1
  6
Continuous
 62
     2
100
AcDbDimension
  2
*D12
 10
1667.819227660709
 20
5134.783721580252
 30
0.0
 11
1285.319227660709
 21
5164.783721580252
 31
0.0
 70
    32
  1
<>
 71
     5
 42
764.9999999999997
  3
IGS
100
AcDbAlignedDimension
 13
902.8192276607089
 23
5055.420583029152
 33
0.0
 14
1667.819227660709
 24
5055.420583029152
 34
0.0
100
AcDbRotatedDimension
1001
GENIUS_GENDTOL_13
1000

1000
JS7
1000

1040
0.0
1001
ACAD
1000
DSTYLE
1002
{
1070
    40
1040
10.0
1070
   178
1070
     2
1070
   177
1070
     3
1070
   176
1070
     3
1002
}
  0
DIMENSION
  5
E22
330
1F
100
AcDbEntity
  8
1
  6
Continuous
 62
     2
100
AcDbDimension
  2
*D13
 10
902.8192276607089
 20
5134.783721580252
 30
0.0
 11
835.3192276607089
 21
5164.783721580252
 31
0.0
 70
    32
 71
     5
 42
135.0000000000002
  3
IGS
100
AcDbAlignedDimension
 13
767.8192276607087
 23
5034.783721580252
 33
0.0
 14
902.8192276607089
 24
5055.420583029152
 34
0.0
100
AcDbRotatedDimension
1001
ACAD
1000
DSTYLE
1002
{
1070
    40
1040
10.0
1070
   178
1070
     2
1070
   177
1070
     3
1070
   176
1070
     3
1002
}
  0
LINE
  5
E23
330
1F
100
AcDbEntity
  8
AM_7
100
AcDbLine
 10
2432.819227660709
 20
5055.420583029152
 30
0.0
 11
2432.819227660709
 21
4320.245253435352
 31
0.0
  0
LINE
  5
E24
330
1F
100
AcDbEntity
  8
AM_7
100
AcDbLine
 10
902.8192276607089
 20
5055.420583029152
 30
0.0
 11
902.8192276607089
 21
4324.551178774653
 31
0.0
  0
LINE
  5
E26
330
1F
100
AcDbEntity
  8
1
  6
HIDDEN
 62
     7
100
AcDbLine
 10
2467.819227660709
 20
4724.561394789052
 30
0.0
 11
2467.819227660709
 21
4673.555114759152
 31
0.0
  0
LINE
  5
E27
330
1F
100
AcDbEntity
  8
1
  6
Continuous
 62
     7
100
AcDbLine
 10
2467.819227660709
 20
4724.561394789052
 30
0.0
 11
2467.819227660709
 21
4737.835753640452
 31
0.0
  0
LINE
  5
E28
330
1F
100
AcDbEntity
  8
1
  6
HIDDEN
 62
     7
100
AcDbLine
 10
2467.819227660709
 20
4806.645302269652
 30
0.0
 11
2467.819227660709
 21
4737.835753640452
 31
0.0
  0
LINE
  5
E29
330
1F
100
AcDbEntity
  8
1
  6
Continuous
 62
     7
100
AcDbLine
 10
2467.819227660709
 20
4806.645302269652
 30
0.0
 11
2467.819227660709
 21
4816.215693074653
 31
0.0
  0
LINE
  5
E2A
330
1F
100
AcDbEntity
  8
1
  6
HIDDEN
 62
     7
100
AcDbLine
 10
2467.819227660709
 20
4883.881692943752
 30
0.0
 11
2467.819227660709
 21
4816.215693074653
 31
0.0
  0
LINE
  5
E2B
330
1F
100
AcDbEntity
  8
1
  6
Continuous
 62
     7
100
AcDbLine
 10
2467.819227660709
 20
4883.881692943752
 30
0.0
 11
2467.819227660709
 21
4893.347448008452
 31
0.0
  0
LINE
  5
E2C
330
1F
100
AcDbEntity
  8
1
  6
HIDDEN
 62
     7
100
AcDbLine
 10
2467.819227660709
 20
4959.919562824552
 30
0.0
 11
2467.819227660709
 21
4893.347448008452
 31
0.0
  0
LINE
  5
E2D
330
1F
100
AcDbEntity
  8
1
  6
Continuous
 62
     7
100
AcDbLine
 10
2467.819227660709
 20
4959.919562824552
 30
0.0
 11
2467.819227660709
 21
4969.249248047852
 31
0.0
  0
LINE
  5
E2E
330
1F
100
AcDbEntity
  8
1
  6
HIDDEN
 62
     7
100
AcDbLine
 10
2467.819227660709
 20
5034.783721580252
 30
0.0
 11
2467.819227660709
 21
4969.249248047852
 31
0.0
  0
LINE
  5
E2F
330
1F
100
AcDbEntity
  8
1
  6
HIDDEN
 62
     7
100
AcDbLine
 10
2397.819227660709
 20
4724.561394789052
 30
0.0
 11
2397.819227660709
 21
4673.555114759152
 31
0.0
  0
LINE
  5
E30
330
1F
100
AcDbEntity
  8
1
  6
Continuous
 62
     7
100
AcDbLine
 10
2397.819227660709
 20
4724.561394789052
 30
0.0
 11
2397.819227660709
 21
4737.835753640452
 31
0.0
  0
LINE
  5
E31
330
1F
100
AcDbEntity
  8
1
  6
HIDDEN
 62
     7
100
AcDbLine
 10
2397.819227660709
 20
4806.645302269652
 30
0.0
 11
2397.819227660709
 21
4737.835753640452
 31
0.0
  0
LINE
  5
E32
330
1F
100
AcDbEntity
  8
1
  6
Continuous
 62
     7
100
AcDbLine
 10
2397.819227660709
 20
4806.645302269652
 30
0.0
 11
2397.819227660709
 21
4816.215693074653
 31
0.0
  0
LINE
  5
E33
330
1F
100
AcDbEntity
  8
1
  6
HIDDEN
 62
     7
100
AcDbLine
 10
2397.819227660709
 20
4883.881692943752
 30
0.0
 11
2397.819227660709
 21
4816.215693074653
 31
0.0
  0
LINE
  5
E34
330
1F
100
AcDbEntity
  8
1
  6
Continuous
 62
     7
100
AcDbLine
 10
2397.819227660709
 20
4883.881692943752
 30
0.0
 11
2397.819227660709
 21
4893.347448008452
 31
0.0
  0
LINE
  5
E35
330
1F
100
AcDbEntity
  8
1
  6
HIDDEN
 62
     7
100
AcDbLine
 10
2397.819227660709
 20
4959.919562824552
 30
0.0
 11
2397.819227660709
 21
4893.347448008452
 31
0.0
  0
LINE
  5
E36
330
1F
100
AcDbEntity
  8
1
  6
Continuous
 62
     7
100
AcDbLine
 10
2397.819227660709
 20
4959.919562824552
 30
0.0
 11
2397.819227660709
 21
4969.249248047852
 31
0.0
  0
LINE
  5
E37
330
1F
100
AcDbEntity
  8
1
  6
HIDDEN
 62
     7
100
AcDbLine
 10
2397.819227660709
 20
5034.783721580252
 30
0.0
 11
2397.819227660709
 21
4969.249248047852
 31
0.0
  0
LINE
  5
E38
330
1F
100
AcDbEntity
  8
1
  6
HIDDEN
 62
     7
100
AcDbLine
 10
937.8192276607089
 20
4724.561394789052
 30
0.0
 11
937.8192276607089
 21
4673.555114759152
 31
0.0
  0
LINE
  5
E39
330
1F
100
AcDbEntity
  8
1
  6
Continuous
 62
     7
100
AcDbLine
 10
937.8192276607089
 20
4724.561394789052
 30
0.0
 11
937.8192276607089
 21
4737.835753640452
 31
0.0
  0
LINE
  5
E3A
330
1F
100
AcDbEntity
  8
1
  6
HIDDEN
 62
     7
100
AcDbLine
 10
937.8192276607089
 20
4806.645302269652
 30
0.0
 11
937.8192276607089
 21
4737.835753640452
 31
0.0
  0
LINE
  5
E3B
330
1F
100
AcDbEntity
  8
1
  6
Continuous
 62
     7
100
AcDbLine
 10
937.8192276607089
 20
4806.645302269652
 30
0.0
 11
937.8192276607089
 21
4816.215693074653
 31
0.0
  0
LINE
  5
E3C
330
1F
100
AcDbEntity
  8
1
  6
HIDDEN
 62
     7
100
AcDbLine
 10
937.8192276607089
 20
4883.881692943752
 30
0.0
 11
937.8192276607089
 21
4816.215693074653
 31
0.0
  0
LINE
  5
E3D
330
1F
100
AcDbEntity
  8
1
  6
Continuous
 62
     7
100
AcDbLine
 10
937.8192276607089
 20
4883.881692943752
 30
0.0
 11
937.8192276607089
 21
4893.347448008452
 31
0.0
  0
LINE
  5
E3E
330
1F
100
AcDbEntity
  8
1
  6
HIDDEN
 62
     7
100
AcDbLine
 10
937.8192276607089
 20
4959.919562824552
 30
0.0
 11
937.8192276607089
 21
4893.347448008452
 31
0.0
  0
LINE
  5
E3F
330
1F
100
AcDbEntity
  8
1
  6
Continuous
 62
     7
100
AcDbLine
 10
937.8192276607089
 20
4959.919562824552
 30
0.0
 11
937.8192276607089
 21
4969.249248047852
 31
0.0
  0
LINE
  5
E40
330
1F
100
AcDbEntity
  8
1
  6
HIDDEN
 62
     7
100
AcDbLine
 10
937.8192276607089
 20
5034.783721580252
 30
0.0
 11
937.8192276607089
 21
4969.249248047852
 31
0.0
  0
LINE
  5
E41
330
1F
100
AcDbEntity
  8
1
  6
Continuous
 62
     7
100
AcDbLine
 10
2397.819227660709
 20
4648.251574584651
 30
0.0
 11
2397.819227660709
 21
4673.555114759152
 31
0.0
  0
LINE
  5
E42
330
1F
100
AcDbEntity
  8
1
  6
Continuous
 62
     7
100
AcDbLine
 10
2467.819227660709
 20
4673.555114759152
 30
0.0
 11
2467.819227660709
 21
4648.251574584651
 31
0.0
  0
LINE
  5
E43
330
1F
100
AcDbEntity
  8
1
  6
Continuous
 62
     7
100
AcDbLine
 10
937.8192276607089
 20
4673.555114759152
 30
0.0
 11
937.8192276607089
 21
4648.251574584651
 31
0.0
  0
LINE
  5
E44
330
1F
100
AcDbEntity
  8
1
  6
HIDDEN
 62
     7
100
AcDbLine
 10
867.819227660709
 20
4724.561394789052
 30
0.0
 11
867.819227660709
 21
4673.555114759152
 31
0.0
  0
LINE
  5
E45
330
1F
100
AcDbEntity
  8
1
  6
Continuous
 62
     7
100
AcDbLine
 10
867.819227660709
 20
4724.561394789052
 30
0.0
 11
867.819227660709
 21
4737.835753640452
 31
0.0
  0
LINE
  5
E46
330
1F
100
AcDbEntity
  8
1
  6
Continuous
 62
     7
100
AcDbLine
 10
867.819227660709
 20
4648.251574584651
 30
0.0
 11
867.819227660709
 21
4673.555114759152
 31
0.0
  0
LINE
  5
E47
330
1F
100
AcDbEntity
  8
1
  6
HIDDEN
 62
     7
100
AcDbLine
 10
867.819227660709
 20
4806.645302269652
 30
0.0
 11
867.819227660709
 21
4737.835753640452
 31
0.0
  0
LINE
  5
E48
330
1F
100
AcDbEntity
  8
1
  6
Continuous
 62
     7
100
AcDbLine
 10
867.819227660709
 20
4806.645302269652
 30
0.0
 11
867.819227660709
 21
4816.215693074653
 31
0.0
  0
LINE
  5
E49
330
1F
100
AcDbEntity
  8
1
  6
HIDDEN
 62
     7
100
AcDbLine
 10
867.819227660709
 20
4883.881692943752
 30
0.0
 11
867.819227660709
 21
4816.215693074653
 31
0.0
  0
LINE
  5
E4A
330
1F
100
AcDbEntity
  8
1
  6
Continuous
 62
     7
100
AcDbLine
 10
867.819227660709
 20
4883.881692943752
 30
0.0
 11
867.819227660709
 21
4893.347448008452
 31
0.0
  0
LINE
  5
E4B
330
1F
100
AcDbEntity
  8
1
  6
HIDDEN
 62
     7
100
AcDbLine
 10
867.819227660709
 20
4959.919562824552
 30
0.0
 11
867.819227660709
 21
4893.347448008452
 31
0.0
  0
LINE
  5
E4C
330
1F
100
AcDbEntity
  8
1
  6
Continuous
 62
     7
100
AcDbLine
 10
867.819227660709
 20
4959.919562824552
 30
0.0
 11
867.819227660709
 21
4969.249248047852
 31
0.0
  0
LINE
  5
E4D
330
1F
100
AcDbEntity
  8
1
  6
HIDDEN
 62
     7
100
AcDbLine
 10
867.819227660709
 20
5034.783721580252
 30
0.0
 11
867.819227660709
 21
4969.249248047852
 31
0.0
  0
LINE
  5
E4E
330
1F
100
AcDbEntity
  8
1
  6
Continuous
 62
     7
100
AcDbLine
 10
1482.819227660709
 20
5034.783721580252
 30
0.0
 11
937.8192276607089
 21
5034.783721580252
 31
0.0
  0
LINE
  5
E4F
330
1F
100
AcDbEntity
  8
1
  6
Continuous
 62
     7
100
AcDbLine
 10
920.6982276607089
 20
4774.361527955052
 30
0.0
 11
924.9402276607089
 21
4770.119527955052
 31
0.0
  0
LINE
  5
E50
330
1F
100
AcDbEntity
  8
1
  6
Continuous
 62
     7
100
AcDbLine
 10
924.9402276607089
 20
4774.361527955052
 30
0.0
 11
920.6982276607089
 21
4770.119527955052
 31
0.0
  0
CIRCLE
  5
E51
330
1F
100
AcDbEntity
  8
1
  6
Continuous
 62
     7
100
AcDbCircle
 10
922.8192276607089
 20
4772.240527955053
 30
0.0
 40
4.8025
  0
CIRCLE
  5
E52
330
1F
100
AcDbEntity
  8
1
  6
Continuous
 62
     7
100
AcDbCircle
 10
922.8192276607089
 20
4772.240527955053
 30
0.0
 40
5.65
  0
LINE
  5
E53
330
1F
100
AcDbEntity
  8
AM_7
100
AcDbLine
 10
934.2906858715089
 20
4772.240527955053
 30
0.0
 11
910.3825141808087
 21
4772.240527955053
 31
0.0
  0
LINE
  5
E54
330
1F
100
AcDbEntity
  8
AM_7
100
AcDbLine
 10
922.8192276607089
 20
4782.588668345051
 30
0.0
 11
922.8192276607089
 21
4763.800762093153
 31
0.0
  0
LINE
  5
E55
330
1F
100
AcDbEntity
  8
1
  6
Continuous
 62
     7
100
AcDbLine
 10
920.6982276607089
 20
4852.169693009153
 30
0.0
 11
924.9402276607089
 21
4847.927693009153
 31
0.0
  0
LINE
  5
E56
330
1F
100
AcDbEntity
  8
1
  6
Continuous
 62
     7
100
AcDbLine
 10
924.9402276607089
 20
4852.169693009153
 30
0.0
 11
920.6982276607089
 21
4847.927693009153
 31
0.0
  0
CIRCLE
  5
E57
330
1F
100
AcDbEntity
  8
1
  6
Continuous
 62
     7
100
AcDbCircle
 10
922.8192276607089
 20
4850.048693009152
 30
0.0
 40
4.8025
  0
CIRCLE
  5
E58
330
1F
100
AcDbEntity
  8
1
  6
Continuous
 62
     7
100
AcDbCircle
 10
922.8192276607089
 20
4850.048693009152
 30
0.0
 40
5.65
  0
LINE
  5
E59
330
1F
100
AcDbEntity
  8
AM_7
100
AcDbLine
 10
934.2906858715089
 20
4850.048693009152
 30
0.0
 11
910.3825141808087
 21
4850.048693009152
 31
0.0
  0
LINE
  5
E5A
330
1F
100
AcDbEntity
  8
AM_7
100
AcDbLine
 10
922.8192276607089
 20
4860.396833399152
 30
0.0
 11
922.8192276607089
 21
4841.608927147352
 31
0.0
  0
LINE
  5
E5B
330
1F
100
AcDbEntity
  8
1
  6
Continuous
 62
     7
100
AcDbLine
 10
920.6982276607089
 20
4928.754505416453
 30
0.0
 11
924.9402276607089
 21
4924.512505416453
 31
0.0
  0
LINE
  5
E5C
330
1F
100
AcDbEntity
  8
1
  6
Continuous
 62
     7
100
AcDbLine
 10
924.9402276607089
 20
4928.754505416453
 30
0.0
 11
920.6982276607089
 21
4924.512505416453
 31
0.0
  0
CIRCLE
  5
E5D
330
1F
100
AcDbEntity
  8
1
  6
Continuous
 62
     7
100
AcDbCircle
 10
922.8192276607089
 20
4926.633505416452
 30
0.0
 40
4.8025
  0
CIRCLE
  5
E5E
330
1F
100
AcDbEntity
  8
1
  6
Continuous
 62
     7
100
AcDbCircle
 10
922.8192276607089
 20
4926.633505416452
 30
0.0
 40
5.65
  0
LINE
  5
E5F
330
1F
100
AcDbEntity
  8
AM_7
100
AcDbLine
 10
934.2906858715089
 20
4926.633505416452
 30
0.0
 11
910.3825141808087
 21
4926.633505416452
 31
0.0
  0
LINE
  5
E60
330
1F
100
AcDbEntity
  8
AM_7
100
AcDbLine
 10
922.8192276607089
 20
4936.981645806453
 30
0.0
 11
922.8192276607089
 21
4918.193739554652
 31
0.0
  0
LINE
  5
E61
330
1F
100
AcDbEntity
  8
1
  6
Continuous
 62
     7
100
AcDbLine
 10
920.6982276607089
 20
5004.137484814052
 30
0.0
 11
924.9402276607089
 21
4999.895484814053
 31
0.0
  0
LINE
  5
E62
330
1F
100
AcDbEntity
  8
1
  6
Continuous
 62
     7
100
AcDbLine
 10
924.9402276607089
 20
5004.137484814052
 30
0.0
 11
920.6982276607089
 21
4999.895484814053
 31
0.0
  0
CIRCLE
  5
E63
330
1F
100
AcDbEntity
  8
1
  6
Continuous
 62
     7
100
AcDbCircle
 10
922.8192276607089
 20
5002.016484814053
 30
0.0
 40
4.8025
  0
CIRCLE
  5
E64
330
1F
100
AcDbEntity
  8
1
  6
Continuous
 62
     7
100
AcDbCircle
 10
922.8192276607089
 20
5002.016484814053
 30
0.0
 40
5.65
  0
LINE
  5
E65
330
1F
100
AcDbEntity
  8
AM_7
100
AcDbLine
 10
934.2906858715089
 20
5002.016484814053
 30
0.0
 11
910.3825141808087
 21
5002.016484814053
 31
0.0
  0
LINE
  5
E66
330
1F
100
AcDbEntity
  8
AM_7
100
AcDbLine
 10
922.8192276607089
 20
5012.364625203953
 30
0.0
 11
922.8192276607089
 21
4993.576718952152
 31
0.0
  0
LINE
  5
E67
330
1F
100
AcDbEntity
  8
1
  6
Continuous
 62
     7
100
AcDbLine
 10
2410.698227660709
 20
4774.361527955052
 30
0.0
 11
2414.940227660709
 21
4770.119527955052
 31
0.0
  0
LINE
  5
E68
330
1F
100
AcDbEntity
  8
1
  6
Continuous
 62
     7
100
AcDbLine
 10
2414.940227660709
 20
4774.361527955052
 30
0.0
 11
2410.698227660709
 21
4770.119527955052
 31
0.0
  0
CIRCLE
  5
E69
330
1F
100
AcDbEntity
  8
1
  6
Continuous
 62
     7
100
AcDbCircle
 10
2412.819227660709
 20
4772.240527955053
 30
0.0
 40
4.8025
  0
CIRCLE
  5
E6A
330
1F
100
AcDbEntity
  8
1
  6
Continuous
 62
     7
100
AcDbCircle
 10
2412.819227660709
 20
4772.240527955053
 30
0.0
 40
5.65
  0
LINE
  5
E6B
330
1F
100
AcDbEntity
  8
AM_7
100
AcDbLine
 10
2424.290685871509
 20
4772.240527955053
 30
0.0
 11
2400.382514180809
 21
4772.240527955053
 31
0.0
  0
LINE
  5
E6C
330
1F
100
AcDbEntity
  8
AM_7
100
AcDbLine
 10
2412.819227660709
 20
4782.588668345051
 30
0.0
 11
2412.819227660709
 21
4763.800762093153
 31
0.0
  0
LINE
  5
E6D
330
1F
100
AcDbEntity
  8
1
  6
Continuous
 62
     7
100
AcDbLine
 10
2410.698227660709
 20
4852.169693009153
 30
0.0
 11
2414.940227660709
 21
4847.927693009153
 31
0.0
  0
LINE
  5
E6E
330
1F
100
AcDbEntity
  8
1
  6
Continuous
 62
     7
100
AcDbLine
 10
2414.940227660709
 20
4852.169693009153
 30
0.0
 11
2410.698227660709
 21
4847.927693009153
 31
0.0
  0
CIRCLE
  5
E6F
330
1F
100
AcDbEntity
  8
1
  6
Continuous
 62
     7
100
AcDbCircle
 10
2412.819227660709
 20
4850.048693009152
 30
0.0
 40
4.8025
  0
CIRCLE
  5
E70
330
1F
100
AcDbEntity
  8
1
  6
Continuous
 62
     7
100
AcDbCircle
 10
2412.819227660709
 20
4850.048693009152
 30
0.0
 40
5.65
  0
LINE
  5
E71
330
1F
100
AcDbEntity
  8
AM_7
100
AcDbLine
 10
2424.290685871509
 20
4850.048693009152
 30
0.0
 11
2400.382514180809
 21
4850.048693009152
 31
0.0
  0
LINE
  5
E72
330
1F
100
AcDbEntity
  8
AM_7
100
AcDbLine
 10
2412.819227660709
 20
4860.396833399152
 30
0.0
 11
2412.819227660709
 21
4841.608927147352
 31
0.0
  0
LINE
  5
E73
330
1F
100
AcDbEntity
  8
1
  6
Continuous
 62
     7
100
AcDbLine
 10
2410.698227660709
 20
4928.754505416453
 30
0.0
 11
2414.940227660709
 21
4924.512505416453
 31
0.0
  0
LINE
  5
E74
330
1F
100
AcDbEntity
  8
1
  6
Continuous
 62
     7
100
AcDbLine
 10
2414.940227660709
 20
4928.754505416453
 30
0.0
 11
2410.698227660709
 21
4924.512505416453
 31
0.0
  0
CIRCLE
  5
E75
330
1F
100
AcDbEntity
  8
1
  6
Continuous
 62
     7
100
AcDbCircle
 10
2412.819227660709
 20
4926.633505416452
 30
0.0
 40
4.8025
  0
CIRCLE
  5
E76
330
1F
100
AcDbEntity
  8
1
  6
Continuous
 62
     7
100
AcDbCircle
 10
2412.819227660709
 20
4926.633505416452
 30
0.0
 40
5.65
  0
LINE
  5
E77
330
1F
100
AcDbEntity
  8
AM_7
100
AcDbLine
 10
2424.290685871509
 20
4926.633505416452
 30
0.0
 11
2400.382514180809
 21
4926.633505416452
 31
0.0
  0
LINE
  5
E78
330
1F
100
AcDbEntity
  8
AM_7
100
AcDbLine
 10
2412.819227660709
 20
4936.981645806453
 30
0.0
 11
2412.819227660709
 21
4918.193739554652
 31
0.0
  0
LINE
  5
E79
330
1F
100
AcDbEntity
  8
1
  6
Continuous
 62
     7
100
AcDbLine
 10
2410.698227660709
 20
5004.137484814052
 30
0.0
 11
2414.940227660709
 21
4999.895484814053
 31
0.0
  0
LINE
  5
E7A
330
1F
100
AcDbEntity
  8
1
  6
Continuous
 62
     7
100
AcDbLine
 10
2414.940227660709
 20
5004.137484814052
 30
0.0
 11
2410.698227660709
 21
4999.895484814053
 31
0.0
  0
CIRCLE
  5
E7B
330
1F
100
AcDbEntity
  8
1
  6
Continuous
 62
     7
100
AcDbCircle
 10
2412.819227660709
 20
5002.016484814053
 30
0.0
 40
4.8025
  0
CIRCLE
  5
E7C
330
1F
100
AcDbEntity
  8
1
  6
Continuous
 62
     7
100
AcDbCircle
 10
2412.819227660709
 20
5002.016484814053
 30
0.0
 40
5.65
  0
LINE
  5
E7D
330
1F
100
AcDbEntity
  8
AM_7
100
AcDbLine
 10
2424.290685871509
 20
5002.016484814053
 30
0.0
 11
2400.382514180809
 21
5002.016484814053
 31
0.0
  0
LINE
  5
E7E
330
1F
100
AcDbEntity
  8
AM_7
100
AcDbLine
 10
2412.819227660709
 20
5012.364625203953
 30
0.0
 11
2412.819227660709
 21
4993.576718952152
 31
0.0
  0
ARC
  5
E7F
330
1F
100
AcDbEntity
  8
1
  6
Continuous
 62
     7
100
AcDbCircle
 10
3719.538655209709
 20
4957.047040749552
 30
0.0
 40
3.0
100
AcDbArc
 50
73.23728047180489
 51
161.8301688910969
  0
LINE
  5
E80
330
1F
100
AcDbEntity
  8
1
  6
Continuous
 62
     7
100
AcDbLine
 10
3716.688246073709
 20
4957.982544761953
 30
0.0
 11
3696.724807158608
 21
4897.155474095753
 31
0.0
  0
LINE
  5
E81
330
1F
100
AcDbEntity
  8
1
  6
Continuous
 62
     7
100
AcDbLine
 10
3720.403881728609
 20
4959.919562824552
 30
0.0
 11
3746.361597380508
 21
4952.100892205152
 31
0.0
  0
ARC
  5
E82
330
1F
100
AcDbEntity
  8
1
  6
Continuous
 62
     7
100
AcDbCircle
 10
5064.971298112109
 20
4481.709079843852
 30
0.0
 40
1370.0
100
AcDbArc
 50
157.9214303339035
 51
173.9269788758975
  0
ARC
  5
E83
330
1F
100
AcDbEntity
  8
1
  6
Continuous
 62
     7
100
AcDbCircle
 10
5064.971298112109
 20
4481.709079843852
 30
0.0
 40
1380.0
100
AcDbArc
 50
157.1965885476983
 51
175.6877972312995
  0
ARC
  5
E84
330
1F
100
AcDbEntity
  8
1
  6
Continuous
 62
     7
100
AcDbCircle
 10
5064.971298112109
 20
4481.709079843852
 30
0.0
 40
1395.0
100
AcDbArc
 50
157.0850272523978
 51
170.566838195697
  0
ARC
  5
E85
330
1F
100
AcDbEntity
  8
1
  6
Continuous
 62
     7
100
AcDbCircle
 10
5064.971298112109
 20
4481.709079843852
 30
0.0
 40
1400.0
100
AcDbArc
 50
157.0823215300973
 51
170.504024616098
  0
LINE
  5
E86
330
1F
100
AcDbEntity
  8
1
  6
Continuous
 62
     7
100
AcDbLine
 10
3784.982579301008
 20
5022.714544637253
 30
0.0
 11
3775.479880220509
 21
5026.880505345953
 31
0.0
  0
ARC
  5
E87
330
1F
100
AcDbEntity
  8
1
  6
Continuous
 62
     7
100
AcDbCircle
 10
3776.952404486709
 20
5004.397440814552
 30
0.0
 40
20.0
100
AcDbArc
 50
337.2863316375023
 51
66.32746891779873
  0
ARC
  5
E88
330
1F
100
AcDbEntity
  8
1
  6
Continuous
 62
     7
100
AcDbCircle
 10
3748.376249536909
 20
5031.911199505252
 30
0.0
 40
3.0
100
AcDbArc
 50
73.23728047180489
 51
158.6189834651035
  0
LINE
  5
E89
330
1F
100
AcDbEntity
  8
1
  6
Continuous
 62
     7
100
AcDbLine
 10
3745.582719565309
 20
5033.004904354853
 30
0.0
 11
3722.174347527809
 21
4973.215474972352
 31
0.0
  0
LINE
  5
E8A
330
1F
100
AcDbEntity
  8
1
  6
Continuous
 62
     7
100
AcDbLine
 10
3749.241476055709
 20
5034.783721580252
 30
0.0
 11
3775.479880220509
 21
5026.880505345953
 31
0.0
  0
ARC
  5
E8B
330
1F
100
AcDbEntity
  8
1
  6
Continuous
 62
     7
100
AcDbCircle
 10
3724.967877499309
 20
4972.121770122752
 30
0.0
 40
3.0
100
AcDbArc
 50
158.6189834651035
 51
253.2372804718049
  0
LINE
  5
E8C
330
1F
100
AcDbEntity
  8
1
  6
Continuous
 62
     7
100
AcDbLine
 10
3724.102650980508
 20
4969.249248047852
 30
0.0
 11
3749.760097835009
 21
4961.521020780752
 31
0.0
  0
ARC
  5
E8D
330
1F
100
AcDbEntity
  8
1
  6
Continuous
 62
     7
100
AcDbCircle
 10
3699.575216294609
 20
4896.219970083353
 30
0.0
 40
3.0
100
AcDbArc
 50
161.8301688910969
 51
253.2372804710976
  0
LINE
  5
E8E
330
1F
100
AcDbEntity
  8
1
  6
Continuous
 62
     7
100
AcDbLine
 10
3698.709989775708
 20
4893.347448008452
 30
0.0
 11
3724.491262377308
 21
4885.581923440252
 31
0.0
  0
ARC
  5
E8F
330
1F
100
AcDbEntity
  8
1
  6
Continuous
 62
     7
100
AcDbCircle
 10
3695.019096096709
 20
4880.983179799252
 30
0.0
 40
3.0
100
AcDbArc
 50
75.05438204639789
 51
165.0543820463983
  0
LINE
  5
E90
330
1F
100
AcDbEntity
  8
1
  6
Continuous
 62
     7
100
AcDbLine
 10
3692.120582952209
 20
4881.756886172052
 30
0.0
 11
3675.605764233509
 21
4819.887912591852
 31
0.0
  0
LINE
  5
E91
330
1F
100
AcDbEntity
  8
1
  6
Continuous
 62
     7
100
AcDbLine
 10
3695.792802469409
 20
4883.881692943752
 30
0.0
 11
3721.909155890909
 21
4876.910398328853
 31
0.0
  0
ARC
  5
E92
330
1F
100
AcDbEntity
  8
1
  6
Continuous
 62
     7
100
AcDbCircle
 10
3678.504277378009
 20
4819.114206219152
 30
0.0
 40
3.0
100
AcDbArc
 50
165.0543820463983
 51
255.0543820463979
  0
LINE
  5
E93
330
1F
100
AcDbEntity
  8
1
  6
Continuous
 62
     7
100
AcDbLine
 10
3677.730571005209
 20
4816.215693074653
 30
0.0
 11
3703.825850328209
 21
4809.250023814353
 31
0.0
  0
ARC
  5
E94
330
1F
100
AcDbEntity
  8
1
  6
Continuous
 62
     7
100
AcDbCircle
 10
3674.846726069909
 20
4803.708175743452
 30
0.0
 40
3.0
100
AcDbArc
 50
78.249072379504
 51
168.2490723793976
  0
LINE
  5
E95
330
1F
100
AcDbEntity
  8
1
  6
Continuous
 62
     7
100
AcDbLine
 10
3671.909599543809
 20
4804.319148549152
 30
0.0
 11
3658.817976226909
 21
4741.383852972353
 31
0.0
  0
LINE
  5
E96
330
1F
100
AcDbEntity
  8
1
  6
Continuous
 62
     7
100
AcDbLine
 10
3675.457698875609
 20
4806.645302269652
 30
0.0
 11
3701.900900449109
 21
4801.144661792452
 31
0.0
  0
ARC
  5
E97
330
1F
100
AcDbEntity
  8
1
  6
Continuous
 62
     7
100
AcDbCircle
 10
3661.755102753109
 20
4740.772880166653
 30
0.0
 40
3.0
100
AcDbArc
 50
168.2490723793976
 51
258.249072379504
  0
LINE
  5
E98
330
1F
100
AcDbEntity
  8
1
  6
Continuous
 62
     7
100
AcDbLine
 10
3661.144129947409
 20
4737.835753640452
 30
0.0
 11
3687.587331520909
 21
4732.335113163353
 31
0.0
  0
ARC
  5
E99
330
1F
100
AcDbEntity
  8
1
  6
Continuous
 62
     7
100
AcDbCircle
 10
3597.679620422109
 20
4694.329750551653
 30
0.0
 40
3.0
100
AcDbArc
 50
359.1310023754978
 51
89.13100237549782
  0
LINE
  5
E9A
330
1F
100
AcDbEntity
  8
1
  6
Continuous
 62
     7
100
AcDbLine
 10
3597.725119286908
 20
4697.329405507453
 30
0.0
 11
3533.494705267309
 21
4698.303654534752
 31
0.0
  0
LINE
  5
E9B
330
1F
100
AcDbEntity
  8
1
  6
Continuous
 62
     7
100
AcDbLine
 10
3600.679275377809
 20
4694.284251686952
 30
0.0
 11
3600.269496063609
 21
4667.268268843752
 31
0.0
  0
ARC
  5
E9C
330
1F
100
AcDbEntity
  8
1
  6
Continuous
 62
     7
100
AcDbCircle
 10
3533.449206402508
 20
4695.303999579052
 30
0.0
 40
3.0
100
AcDbArc
 50
89.13100237549782
 51
179.1310023754978
  0
LINE
  5
E9D
330
1F
100
AcDbEntity
  8
1
  6
Continuous
 62
     7
100
AcDbLine
 10
3530.449551446809
 20
4695.349498443852
 30
0.0
 11
3530.039772132609
 21
4668.333515600752
 31
0.0
  0
ARC
  5
E9E
330
1F
100
AcDbEntity
  8
1
  6
Continuous
 62
     7
100
AcDbCircle
 10
3517.224926308409
 20
4696.220928095452
 30
0.0
 40
3.0
100
AcDbArc
 50
354.4149043867033
 51
84.41490438669665
  0
LINE
  5
E9F
330
1F
100
AcDbEntity
  8
1
  6
Continuous
 62
     7
100
AcDbLine
 10
3517.516898330409
 20
4699.206686347252
 30
0.0
 11
3453.795552267209
 21
4705.437884149152
 31
0.0
  0
LINE
  5
EA0
330
1F
100
AcDbEntity
  8
1
  6
Continuous
 62
     7
100
AcDbLine
 10
3520.210684560309
 20
4695.928956073452
 30
0.0
 11
3517.581122538109
 21
4669.038583317352
 31
0.0
  0
ARC
  5
EA1
330
1F
100
AcDbEntity
  8
1
  6
Continuous
 62
     7
100
AcDbCircle
 10
3453.50358024521
 20
4702.452125897252
 30
0.0
 40
3.0
100
AcDbArc
 50
84.41490438669665
 51
174.4149043867033
  0
LINE
  5
EA2
330
1F
100
AcDbEntity
  8
1
  6
Continuous
 62
     7
100
AcDbLine
 10
3450.517821993408
 20
4702.744097919253
 30
0.0
 11
3447.888794237609
 21
4675.859188666753
 31
0.0
  0
LINE
  5
EA3
330
1F
100
AcDbEntity
  8
1
  6
Continuous
 62
     7
100
AcDbLine
 10
3695.380958379008
 20
4746.751154446552
 30
0.0
 11
3685.886972231309
 21
4606.849854366351
 31
0.0
  0
ARC
  5
EA4
330
1F
100
AcDbEntity
  8
1
  6
Continuous
 62
     7
100
AcDbCircle
 10
3583.766729190309
 20
4643.366201571152
 30
0.0
 40
120.0
100
AcDbArc
 50
325.4983509462026
 51
351.9964783484
  0
LINE
  5
EA5
330
1F
100
AcDbEntity
  8
1
  6
Continuous
 62
     7
100
AcDbLine
 10
3685.254290606208
 20
4671.375161412352
 30
0.0
 11
3680.898445755209
 21
4607.188385897052
 31
0.0
  0
ARC
  5
EA6
330
1F
100
AcDbEntity
  8
1
  6
Continuous
 62
     7
100
AcDbCircle
 10
3675.231396215109
 20
4671.376715072152
 30
0.0
 40
10.0
100
AcDbArc
 50
0.0
 51
130.8535399488027
  0
ARC
  5
EA7
330
1F
100
AcDbEntity
  8
1
  6
Continuous
 62
     7
100
AcDbCircle
 10
3626.171819359008
 20
4728.105525377852
 30
0.0
 40
60.0
100
AcDbArc
 50
270.0
 51
345.1000809729017
  0
ARC
  5
EA8
330
1F
100
AcDbEntity
  8
1
  6
Continuous
 62
     7
100
AcDbCircle
 10
3626.171819359008
 20
4728.105525377852
 30
0.0
 40
65.0
100
AcDbArc
 50
270.0002918153013
 51
343.9434536481985
  0
ARC
  5
EA9
330
1F
100
AcDbEntity
  8
1
  6
Continuous
 62
     7
100
AcDbCircle
 10
3580.311566902809
 20
5667.069089539353
 30
0.0
 40
1005.0
100
AcDbArc
 50
263.1521313709983
 51
272.6077791775988
  0
ARC
  5
EAA
330
1F
100
AcDbEntity
  8
1
  6
Continuous
 62
     7
100
AcDbCircle
 10
3580.311566902809
 20
5667.069089539353
 30
0.0
 40
1000.0
100
AcDbArc
 50
263.1521313709983
 51
272.6215611046941
  0
ARC
  5
EAB
330
1F
100
AcDbEntity
  8
1
  6
Continuous
 62
     7
100
AcDbCircle
 10
3580.311566902809
 20
5667.069089539353
 30
0.0
 40
1005.0
100
AcDbArc
 50
263.1521313709983
 51
271.060761706796
  0
LINE
  5
EAC
330
1F
100
AcDbEntity
  8
40
  6
Continuous
 62
     7
100
AcDbLine
 10
3286.859689379409
 20
4691.392755361952
 30
0.0
 11
3460.440960007709
 21
4669.214789731053
 31
0.0
  0
LINE
  5
EAD
330
1F
100
AcDbEntity
  8
40
  6
Continuous
 62
     7
100
AcDbLine
 10
3286.523692249009
 20
4696.476330556352
 30
0.0
 11
3461.074643899509
 21
4674.174471648852
 31
0.0
  0
LINE
  5
EB0
330
1F
100
AcDbEntity
  8
40
  6
Continuous
 62
     7
100
AcDbLine
 10
2410.319227660709
 20
4430.394606825752
 30
0.0
 11
1690.319227660708
 21
4430.394606825751
 31
0.0
  0
LINE
  5
EB1
330
1F
100
AcDbEntity
  8
40
  6
Continuous
 62
     7
100
AcDbLine
 10
925.3192276607089
 20
4440.394606825751
 30
0.0
 11
1645.319227660708
 21
4440.394606825751
 31
0.0
  0
LINE
  5
EB2
330
1F
100
AcDbEntity
  8
AM_7
100
AcDbLine
 10
2479.249334440309
 20
4435.394606825751
 30
0.0
 11
856.3891208811087
 21
4435.394606825751
 31
0.0
  0
ARC
  5
EB4
330
1F
100
AcDbEntity
  8
40
  6
Continuous
 62
     7
100
AcDbCircle
 10
2457.319227660709
 20
4352.394606825752
 30
0.0
 40
3.0
100
AcDbArc
 50
0.0
 51
90.0
  0
LINE
  5
EB5
330
1F
100
AcDbEntity
  8
40
  6
Continuous
 62
     7
100
AcDbLine
 10
2457.319227660709
 20
4355.394606825751
 30
0.0
 11
2432.819227660709
 21
4355.394606825751
 31
0.0
  0
LINE
  5
EB6
330
1F
100
AcDbEntity
  8
40
  6
Continuous
 62
     7
100
AcDbLine
 10
2460.319227660709
 20
4352.394606825752
 30
0.0
 11
2460.319227660709
 21
4335.394606825752
 31
0.0
  0
ARC
  5
EB7
330
1F
100
AcDbEntity
  8
40
  6
Continuous
 62
     7
100
AcDbCircle
 10
2408.319227660709
 20
4352.394606825752
 30
0.0
 40
3.0
100
AcDbArc
 50
90.0
 51
180.0
  0
LINE
  5
EB8
330
1F
100
AcDbEntity
  8
40
  6
Continuous
 62
     7
100
AcDbLine
 10
2408.319227660709
 20
4355.394606825751
 30
0.0
 11
2432.819227660709
 21
4355.394606825751
 31
0.0
  0
LINE
  5
EB9
330
1F
100
AcDbEntity
  8
40
  6
Continuous
 62
     7
100
AcDbLine
 10
2405.319227660709
 20
4352.394606825752
 30
0.0
 11
2405.319227660709
 21
4335.394606825752
 31
0.0
  0
ARC
  5
EBA
330
1F
100
AcDbEntity
  8
40
  6
Continuous
 62
     7
100
AcDbCircle
 10
927.3192276607089
 20
4352.394606825752
 30
0.0
 40
3.0
100
AcDbArc
 50
0.0
 51
90.0
  0
LINE
  5
EBB
330
1F
100
AcDbEntity
  8
40
  6
Continuous
 62
     7
100
AcDbLine
 10
927.3192276607089
 20
4355.394606825751
 30
0.0
 11
902.8192276607089
 21
4355.394606825751
 31
0.0
  0
LINE
  5
EBC
330
1F
100
AcDbEntity
  8
40
  6
Continuous
 62
     7
100
AcDbLine
 10
930.319227660709
 20
4352.394606825752
 30
0.0
 11
930.319227660709
 21
4335.394606825752
 31
0.0
  0
ARC
  5
EBD
330
1F
100
AcDbEntity
  8
40
  6
Continuous
 62
     7
100
AcDbCircle
 10
878.319227660709
 20
4352.394606825752
 30
0.0
 40
3.0
100
AcDbArc
 50
90.0
 51
180.0
  0
LINE
  5
EBE
330
1F
100
AcDbEntity
  8
40
  6
Continuous
 62
     7
100
AcDbLine
 10
878.319227660709
 20
4355.394606825751
 30
0.0
 11
902.8192276607089
 21
4355.394606825751
 31
0.0
  0
LINE
  5
EBF
330
1F
100
AcDbEntity
  8
40
  6
Continuous
 62
     7
100
AcDbLine
 10
875.3192276607089
 20
4352.394606825752
 30
0.0
 11
875.3192276607089
 21
4335.394606825752
 31
0.0
  0
ARC
  5
EC0
330
1F
100
AcDbEntity
  8
40
  6
Continuous
 62
     7
100
AcDbCircle
 10
770.8192276607087
 20
4676.555114759152
 30
0.0
 40
3.0
100
AcDbArc
 50
180.0
 51
270.0
  0
LINE
  5
EC1
330
1F
100
AcDbEntity
  8
40
  6
Continuous
 62
     7
100
AcDbLine
 10
767.8192276607087
 20
4676.555114759152
 30
0.0
 11
767.8192276607087
 21
4721.561394789052
 31
0.0
  0
LINE
  5
EC2
330
1F
100
AcDbEntity
  8
40
  6
Continuous
 62
     7
100
AcDbLine
 10
770.8192276607087
 20
4673.555114759152
 30
0.0
 11
2564.819227660709
 21
4673.555114759152
 31
0.0
  0
ARC
  5
EC3
330
1F
100
AcDbEntity
  8
40
  6
Continuous
 62
     7
100
AcDbCircle
 10
770.8192276607087
 20
4721.561394789052
 30
0.0
 40
3.0
100
AcDbArc
 50
90.0
 51
180.0
  0
LINE
  5
EC4
330
1F
100
AcDbEntity
  8
40
  6
Continuous
 62
     7
100
AcDbLine
 10
770.8192276607087
 20
4724.561394789052
 30
0.0
 11
2564.819227660709
 21
4724.561394789052
 31
0.0
  0
ARC
  5
EC5
330
1F
100
AcDbEntity
  8
40
  6
Continuous
 62
     7
100
AcDbCircle
 10
2564.819227660709
 20
4676.555114759152
 30
0.0
 40
3.0
100
AcDbArc
 50
270.0
 51
0.0
  0
LINE
  5
EC6
330
1F
100
AcDbEntity
  8
40
  6
Continuous
 62
     7
100
AcDbLine
 10
2567.819227660709
 20
4676.555114759152
 30
0.0
 11
2567.819227660709
 21
4721.561394789052
 31
0.0
  0
ARC
  5
EC7
330
1F
100
AcDbEntity
  8
40
  6
Continuous
 62
     7
100
AcDbCircle
 10
2564.819227660709
 20
4721.561394789052
 30
0.0
 40
3.0
100
AcDbArc
 50
0.0
 51
90.0
  0
ARC
  5
EC8
330
1F
100
AcDbEntity
  8
40
  6
Continuous
 62
     7
100
AcDbCircle
 10
3437.592745503009
 20
4704.802818800152
 30
0.0
 40
3.0
100
AcDbArc
 50
352.8749836511019
 51
82.87498365109538
  0
LINE
  5
EC9
330
1F
100
AcDbEntity
  8
40
  6
Continuous
 62
     7
100
AcDbLine
 10
3437.964849706809
 20
4707.779652430252
 30
0.0
 11
3373.918516967109
 21
4715.785444022753
 31
0.0
  0
LINE
  5
ECA
330
1F
100
AcDbEntity
  8
40
  6
Continuous
 62
     7
100
AcDbLine
 10
3440.569579133209
 20
4704.430714596352
 30
0.0
 11
3437.220641299309
 21
4677.639211925052
 31
0.0
  0
ARC
  5
ECB
330
1F
100
AcDbEntity
  8
40
  6
Continuous
 62
     7
100
AcDbCircle
 10
3373.546412763309
 20
4712.808610392552
 30
0.0
 40
3.0
100
AcDbArc
 50
82.87498365109538
 51
172.8749836511018
  0
LINE
  5
ECC
330
1F
100
AcDbEntity
  8
40
  6
Continuous
 62
     7
100
AcDbLine
 10
3370.569579133209
 20
4713.180714596352
 30
0.0
 11
3367.220641299308
 21
4686.389211925052
 31
0.0
  0
ARC
  5
ECD
330
1F
100
AcDbEntity
  8
40
  6
Continuous
 62
     7
100
AcDbCircle
 10
3357.592745503009
 20
4714.802818800151
 30
0.0
 40
3.0
100
AcDbArc
 50
352.8749836511019
 51
82.87498365109538
  0
LINE
  5
ECE
330
1F
100
AcDbEntity
  8
40
  6
Continuous
 62
     7
100
AcDbLine
 10
3357.964849706809
 20
4717.779652430252
 30
0.0
 11
3293.918516967109
 21
4725.785444022753
 31
0.0
  0
LINE
  5
ECF
330
1F
100
AcDbEntity
  8
40
  6
Continuous
 62
     7
100
AcDbLine
 10
3360.569579133209
 20
4714.430714596352
 30
0.0
 11
3357.220641299309
 21
4687.639211925052
 31
0.0
  0
ARC
  5
ED0
330
1F
100
AcDbEntity
  8
40
  6
Continuous
 62
     7
100
AcDbCircle
 10
3293.546412763309
 20
4722.808610392553
 30
0.0
 40
3.0
100
AcDbArc
 50
82.87498365109538
 51
172.8749836511018
  0
LINE
  5
ED1
330
1F
100
AcDbEntity
  8
40
  6
Continuous
 62
     7
100
AcDbLine
 10
3290.569579133209
 20
4723.180714596352
 30
0.0
 11
3287.220641299309
 21
4696.389211925052
 31
0.0
  0
ARC
  5
ED2
330
1F
100
AcDbEntity
  8
40
  6
Continuous
 62
     7
100
AcDbCircle
 10
3272.452639635009
 20
4720.887160174853
 30
0.0
 40
3.0
100
AcDbArc
 50
15.00000000000158
 51
104.9999999999944
  0
LINE
  5
ED3
330
1F
100
AcDbEntity
  8
40
  6
Continuous
 62
     7
100
AcDbLine
 10
3271.676182499709
 20
4723.784937653753
 30
0.0
 11
3212.592777194509
 21
4707.953586916151
 31
0.0
  0
LINE
  5
ED4
330
1F
100
AcDbEntity
  8
40
  6
Continuous
 62
     7
100
AcDbLine
 10
3275.350417113909
 20
4721.663617310152
 30
0.0
 11
3282.338531331609
 21
4695.583620000352
 31
0.0
  0
ARC
  5
ED5
330
1F
100
AcDbEntity
  8
40
  6
Continuous
 62
     7
100
AcDbCircle
 10
3209.798252112209
 20
4692.311345579351
 30
0.0
 40
3.0
100
AcDbArc
 50
164.3471970331008
 51
195.0000000000016
  0
LINE
  5
ED6
330
1F
100
AcDbEntity
  8
40
  6
Continuous
 62
     7
100
AcDbLine
 10
3206.909509136609
 20
4693.120767608553
 30
0.0
 11
3210.480491354309
 21
4705.865231466452
 31
0.0
  0
LINE
  5
ED7
330
1F
100
AcDbEntity
  8
40
  6
Continuous
 62
     7
100
AcDbLine
 10
3206.900474633309
 20
4691.534888443952
 30
0.0
 11
3211.718140472209
 21
4673.555114759152
 31
0.0
  0
ARC
  5
ED8
330
1F
100
AcDbEntity
  8
40
  6
Continuous
 62
     7
100
AcDbCircle
 10
3213.369234329909
 20
4705.055809437252
 30
0.0
 40
3.0
100
AcDbArc
 50
104.9999999999944
 51
164.3471970331008
  0
LINE
  5
ED9
330
1F
100
AcDbEntity
  8
AM_7
100
AcDbLine
 10
3473.644454224409
 20
4435.394606825751
 30
0.0
 11
3497.969366061809
 21
4435.394606825751
 31
0.0
  0
CIRCLE
  5
EDA
330
1F
100
AcDbEntity
  8
40
  6
Continuous
 62
     7
100
AcDbCircle
 10
3485.941683336909
 20
4435.394606825751
 30
0.0
 40
8.5
  0
LINE
  5
EDB
330
1F
100
AcDbEntity
  8
40
  6
Continuous
 62
     7
100
AcDbLine
 10
3494.441683336909
 20
4430.487129537652
 30
0.0
 11
3494.441683336909
 21
4440.302084113851
 31
0.0
  0
LINE
  5
EDC
330
1F
100
AcDbEntity
  8
40
  6
Continuous
 62
     7
100
AcDbLine
 10
3485.941683336909
 20
4425.579652249552
 30
0.0
 11
3494.441683336909
 21
4430.487129537652
 31
0.0
  0
LINE
  5
EDD
330
1F
100
AcDbEntity
  8
40
  6
Continuous
 62
     7
100
AcDbLine
 10
3477.441683336909
 20
4430.487129537652
 30
0.0
 11
3485.941683336909
 21
4425.579652249552
 31
0.0
  0
LINE
  5
EDE
330
1F
100
AcDbEntity
  8
40
  6
Continuous
 62
     7
100
AcDbLine
 10
3477.441683336909
 20
4440.302084113851
 30
0.0
 11
3477.441683336909
 21
4430.487129537652
 31
0.0
  0
LINE
  5
EDF
330
1F
100
AcDbEntity
  8
40
  6
Continuous
 62
     7
100
AcDbLine
 10
3485.941683336909
 20
4445.209561401952
 30
0.0
 11
3477.441683336909
 21
4440.302084113851
 31
0.0
  0
LINE
  5
EE0
330
1F
100
AcDbEntity
  8
40
  6
Continuous
 62
     7
100
AcDbLine
 10
3494.441683336909
 20
4440.302084113851
 30
0.0
 11
3485.941683336909
 21
4445.209561401952
 31
0.0
  0
CIRCLE
  5
EE1
330
1F
100
AcDbEntity
  8
40
  6
Continuous
 62
     7
100
AcDbCircle
 10
3247.475739404709
 20
4101.169030011752
 30
0.0
 40
5.0
  0
CIRCLE
  5
EE2
330
1F
100
AcDbEntity
  8
40
  6
Continuous
 62
     7
100
AcDbCircle
 10
3277.218425587309
 20
4122.714912915652
 30
0.0
 40
5.0
  0
CIRCLE
  5
EE3
330
1F
100
AcDbEntity
  8
40
  6
Continuous
 62
     7
100
AcDbCircle
 10
3286.352006383508
 20
4096.836433993052
 30
0.0
 40
5.0
  0
CIRCLE
  5
EE4
330
1F
100
AcDbEntity
  8
40
  6
Continuous
 62
     7
100
AcDbCircle
 10
3304.736265165609
 20
4114.166818067952
 30
0.0
 40
5.0
  0
CIRCLE
  5
EE5
330
1F
100
AcDbEntity
  8
40
  6
Continuous
 62
     7
100
AcDbCircle
 10
3329.912160950109
 20
4105.501626030553
 30
0.0
 40
5.0
  0
CIRCLE
  5
EE6
330
1F
100
AcDbEntity
  8
40
  6
Continuous
 62
     7
100
AcDbCircle
 10
3341.270588350509
 20
4127.047508934452
 30
0.0
 40
5.0
  0
CIRCLE
  5
EE7
330
1F
100
AcDbEntity
  8
40
  6
Continuous
 62
     7
100
AcDbCircle
 10
3375.580064931209
 20
4129.155258348951
 30
0.0
 40
5.0
  0
CIRCLE
  5
EE8
330
1F
100
AcDbEntity
  8
40
  6
Continuous
 62
     7
100
AcDbCircle
 10
3371.013274533009
 20
4092.503837974352
 30
0.0
 40
5.0
  0
CIRCLE
  5
EE9
330
1F
100
AcDbEntity
  8
40
  6
Continuous
 62
     7
100
AcDbCircle
 10
3387.055589521309
 20
4103.393876615952
 30
0.0
 40
5.0
  0
CIRCLE
  5
EEA
330
1F
100
AcDbEntity
  8
40
  6
Continuous
 62
     7
100
AcDbCircle
 10
3604.270876405708
 20
4101.169030011752
 30
0.0
 40
5.0
  0
CIRCLE
  5
EEB
330
1F
100
AcDbEntity
  8
40
  6
Continuous
 62
     7
100
AcDbCircle
 10
3613.404457201909
 20
4122.714912915652
 30
0.0
 40
5.0
  0
CIRCLE
  5
EEC
330
1F
100
AcDbEntity
  8
40
  6
Continuous
 62
     7
100
AcDbCircle
 10
3640.922296780209
 20
4099.061280597252
 30
0.0
 40
5.0
  0
CIRCLE
  5
EED
330
1F
100
AcDbEntity
  8
40
  6
Continuous
 62
     7
100
AcDbCircle
 10
3652.280724180709
 20
4114.166818067952
 30
0.0
 40
5.0
  0
CIRCLE
  5
EEE
330
1F
100
AcDbEntity
  8
40
  6
Continuous
 62
     7
100
AcDbCircle
 10
3659.189458372708
 20
4122.714912915652
 30
0.0
 40
5.0
  0
CIRCLE
  5
EEF
330
1F
100
AcDbEntity
  8
40
  6
Continuous
 62
     7
100
AcDbCircle
 10
3686.590200761309
 20
4099.061280597252
 30
0.0
 40
5.0
  0
CIRCLE
  5
EF0
330
1F
100
AcDbEntity
  8
40
  6
Continuous
 62
     7
100
AcDbCircle
 10
3698.065725351409
 20
4122.714912915652
 30
0.0
 40
5.0
  0
CIRCLE
  5
EF1
330
1F
100
AcDbEntity
  8
40
  6
Continuous
 62
     7
100
AcDbCircle
 10
3725.466467740108
 20
4094.728684578552
 30
0.0
 40
5.0
  0
CIRCLE
  5
EF2
330
1F
100
AcDbEntity
  8
40
  6
Continuous
 62
     7
100
AcDbCircle
 10
3723.241621135909
 20
4118.382316896951
 30
0.0
 40
10.0
  0
CIRCLE
  5
EF3
330
1F
100
AcDbEntity
  8
40
  6
Continuous
 62
     7
100
AcDbCircle
 10
3707.199306147709
 20
4101.169030011752
 30
0.0
 40
10.0
  0
CIRCLE
  5
EF4
330
1F
100
AcDbEntity
  8
40
  6
Continuous
 62
     7
100
AcDbCircle
 10
3684.365354157109
 20
4122.714912915652
 30
0.0
 40
10.0
  0
CIRCLE
  5
EF5
330
1F
100
AcDbEntity
  8
40
  6
Continuous
 62
     7
100
AcDbCircle
 10
3656.847514578809
 20
4096.836433993052
 30
0.0
 40
10.0
  0
CIRCLE
  5
EF6
330
1F
100
AcDbEntity
  8
40
  6
Continuous
 62
     7
100
AcDbCircle
 10
3631.788715984009
 20
4122.714912915652
 30
0.0
 40
10.0
  0
CIRCLE
  5
EF7
330
1F
100
AcDbEntity
  8
40
  6
Continuous
 62
     7
100
AcDbCircle
 10
3620.313191393908
 20
4094.728684578552
 30
0.0
 40
10.0
  0
CIRCLE
  5
EF8
330
1F
100
AcDbEntity
  8
40
  6
Continuous
 62
     7
100
AcDbCircle
 10
3595.13729560951
 20
4118.382316896951
 30
0.0
 40
10.0
  0
CIRCLE
  5
EF9
330
1F
100
AcDbEntity
  8
40
  6
Continuous
 62
     7
100
AcDbCircle
 10
3265.859998186809
 20
4101.169030011752
 30
0.0
 40
10.0
  0
CIRCLE
  5
EFA
330
1F
100
AcDbEntity
  8
40
  6
Continuous
 62
     7
100
AcDbCircle
 10
3256.726417390609
 20
4122.714912915652
 30
0.0
 40
10.0
  0
CIRCLE
  5
EFB
330
1F
100
AcDbEntity
  8
40
  6
Continuous
 62
     7
100
AcDbCircle
 10
3290.918796781609
 20
4118.382316896951
 30
0.0
 40
10.0
  0
CIRCLE
  5
EFC
330
1F
100
AcDbEntity
  8
40
  6
Continuous
 62
     7
100
AcDbCircle
 10
3306.961111769809
 20
4096.836433993052
 30
0.0
 40
10.0
  0
CIRCLE
  5
EFD
330
1F
100
AcDbEntity
  8
40
  6
Continuous
 62
     7
100
AcDbCircle
 10
3320.661482964208
 20
4120.607163501152
 30
0.0
 40
10.0
  0
CIRCLE
  5
EFE
330
1F
100
AcDbEntity
  8
40
  6
Continuous
 62
     7
100
AcDbCircle
 10
3345.837378748608
 20
4096.836433993052
 30
0.0
 40
10.0
  0
CIRCLE
  5
EFF
330
1F
100
AcDbEntity
  8
40
  6
Continuous
 62
     7
100
AcDbCircle
 10
3368.788427928809
 20
4111.941971463752
 30
0.0
 40
10.0
  0
CIRCLE
  5
F0F
330
1F
100
AcDbEntity
  8
40
  6
Continuous
 62
     7
100
AcDbCircle
 10
3499.325613237309
 20
4121.250255168052
 30
0.0
 40
5.0
  0
CIRCLE
  5
F10
330
1F
100
AcDbEntity
  8
40
  6
Continuous
 62
     7
100
AcDbCircle
 10
3579.844599858009
 20
4092.661731992953
 30
0.0
 40
5.0
  0
CIRCLE
  5
F11
330
1F
100
AcDbEntity
  8
40
  6
Continuous
 62
     7
100
AcDbCircle
 10
3570.422165253409
 20
4125.211960626852
 30
0.0
 40
5.0
  0
CIRCLE
  5
F12
330
1F
100
AcDbEntity
  8
40
  6
Continuous
 62
     7
100
AcDbCircle
 10
3560.999730648909
 20
4095.659779367053
 30
0.0
 40
5.0
  0
CIRCLE
  5
F13
330
1F
100
AcDbEntity
  8
40
  6
Continuous
 62
     7
100
AcDbCircle
 10
3525.451454640809
 20
4097.587095536252
 30
0.0
 40
5.0
  0
CIRCLE
  5
F14
330
1F
100
AcDbEntity
  8
40
  6
Continuous
 62
     7
100
AcDbCircle
 10
3528.556575135509
 20
4129.173666085551
 30
0.0
 40
5.0
  0
CIRCLE
  5
F15
330
1F
100
AcDbEntity
  8
40
  6
Continuous
 62
     7
100
AcDbCircle
 10
3506.606585431709
 20
4093.678926637752
 30
0.0
 40
5.0
  0
CIRCLE
  5
F16
330
1F
100
AcDbEntity
  8
40
  6
Continuous
 62
     7
100
AcDbCircle
 10
3483.639401083109
 20
4128.156471440752
 30
0.0
 40
5.0
  0
CIRCLE
  5
F17
330
1F
100
AcDbEntity
  8
40
  6
Continuous
 62
     7
100
AcDbCircle
 10
3475.234161123409
 20
4095.659779367053
 30
0.0
 40
5.0
  0
CIRCLE
  5
F18
330
1F
100
AcDbEntity
  8
40
  6
Continuous
 62
     7
100
AcDbCircle
 10
3450.179050924909
 20
4118.305744354151
 30
0.0
 40
5.0
  0
CIRCLE
  5
F19
330
1F
100
AcDbEntity
  8
40
  6
Continuous
 62
     7
100
AcDbCircle
 10
3440.756616320309
 20
4129.173666085551
 30
0.0
 40
5.0
  0
CIRCLE
  5
F1A
330
1F
100
AcDbEntity
  8
40
  6
Continuous
 62
     7
100
AcDbCircle
 10
3433.422107565709
 20
4092.661731992953
 30
0.0
 40
5.0
  0
CIRCLE
  5
F1B
330
1F
100
AcDbEntity
  8
40
  6
Continuous
 62
     7
100
AcDbCircle
 10
3417.735895411509
 20
4102.565995639753
 30
0.0
 40
5.0
  0
CIRCLE
  5
F1C
330
1F
100
AcDbEntity
  8
40
  6
Continuous
 62
     7
100
AcDbCircle
 10
3394.715174502709
 20
4121.250255168052
 30
0.0
 40
5.0
  0
CIRCLE
  5
F1D
330
1F
100
AcDbEntity
  8
40
  6
Continuous
 62
     7
100
AcDbCircle
 10
3570.096930649909
 20
4107.100542293152
 30
0.0
 40
10.0
  0
CIRCLE
  5
F1E
330
1F
100
AcDbEntity
  8
40
  6
Continuous
 62
     7
100
AcDbCircle
 10
3541.909931676609
 20
4100.475392961853
 30
0.0
 40
10.0
  0
CIRCLE
  5
F1F
330
1F
100
AcDbEntity
  8
40
  6
Continuous
 62
     7
100
AcDbCircle
 10
3548.896452789708
 20
4120.471298216453
 30
0.0
 40
10.0
  0
CIRCLE
  5
F20
330
1F
100
AcDbEntity
  8
40
  6
Continuous
 62
     7
100
AcDbCircle
 10
3513.602475442809
 20
4116.014379575352
 30
0.0
 40
10.0
  0
CIRCLE
  5
F21
330
1F
100
AcDbEntity
  8
40
  6
Continuous
 62
     7
100
AcDbCircle
 10
3454.819332284809
 20
4100.475392961853
 30
0.0
 40
10.0
  0
CIRCLE
  5
F22
330
1F
100
AcDbEntity
  8
40
  6
Continuous
 62
     7
100
AcDbCircle
 10
3490.113309631709
 20
4104.932311602953
 30
0.0
 40
10.0
  0
CIRCLE
  5
F23
330
1F
100
AcDbEntity
  8
40
  6
Continuous
 62
     7
100
AcDbCircle
 10
3466.624143820709
 20
4120.471298216453
 30
0.0
 40
10.0
  0
CIRCLE
  5
F24
330
1F
100
AcDbEntity
  8
40
  6
Continuous
 62
     7
100
AcDbCircle
 10
3410.129688613509
 20
4120.471298216453
 30
0.0
 40
10.0
  0
CIRCLE
  5
F25
330
1F
100
AcDbEntity
  8
40
  6
Continuous
 62
     7
100
AcDbCircle
 10
3433.618854424608
 20
4111.557460934252
 30
0.0
 40
10.0
  0
CIRCLE
  5
F26
330
1F
100
AcDbEntity
  8
40
  6
Continuous
 62
     7
100
AcDbCircle
 10
3400.734022289109
 20
4100.475392961853
 30
0.0
 40
10.0
  0
CIRCLE
  5
F27
330
1F
100
AcDbEntity
  8
40
  6
Continuous
 62
     7
100
AcDbCircle
 10
2446.203157561009
 20
4121.250255168052
 30
0.0
 40
5.0
  0
CIRCLE
  5
F28
330
1F
100
AcDbEntity
  8
40
  6
Continuous
 62
     7
100
AcDbCircle
 10
2526.722144181709
 20
4092.661731992953
 30
0.0
 40
5.0
  0
CIRCLE
  5
F29
330
1F
100
AcDbEntity
  8
40
  6
Continuous
 62
     7
100
AcDbCircle
 10
2517.299709577209
 20
4125.211960626852
 30
0.0
 40
5.0
  0
CIRCLE
  5
F2A
330
1F
100
AcDbEntity
  8
40
  6
Continuous
 62
     7
100
AcDbCircle
 10
2507.877274972609
 20
4095.659779367053
 30
0.0
 40
5.0
  0
CIRCLE
  5
F2B
330
1F
100
AcDbEntity
  8
40
  6
Continuous
 62
     7
100
AcDbCircle
 10
2472.328998964508
 20
4097.587095536252
 30
0.0
 40
5.0
  0
CIRCLE
  5
F2C
330
1F
100
AcDbEntity
  8
40
  6
Continuous
 62
     7
100
AcDbCircle
 10
2475.434119459209
 20
4129.173666085551
 30
0.0
 40
5.0
  0
CIRCLE
  5
F2D
330
1F
100
AcDbEntity
  8
40
  6
Continuous
 62
     7
100
AcDbCircle
 10
2453.484129755409
 20
4093.678926637752
 30
0.0
 40
5.0
  0
CIRCLE
  5
F2E
330
1F
100
AcDbEntity
  8
40
  6
Continuous
 62
     7
100
AcDbCircle
 10
2430.516945406809
 20
4128.156471440752
 30
0.0
 40
5.0
  0
CIRCLE
  5
F2F
330
1F
100
AcDbEntity
  8
40
  6
Continuous
 62
     7
100
AcDbCircle
 10
2422.111705447109
 20
4095.659779367053
 30
0.0
 40
5.0
  0
CIRCLE
  5
F30
330
1F
100
AcDbEntity
  8
40
  6
Continuous
 62
     7
100
AcDbCircle
 10
2397.056595248609
 20
4118.305744354151
 30
0.0
 40
5.0
  0
CIRCLE
  5
F31
330
1F
100
AcDbEntity
  8
40
  6
Continuous
 62
     7
100
AcDbCircle
 10
2387.634160644109
 20
4129.173666085551
 30
0.0
 40
5.0
  0
CIRCLE
  5
F32
330
1F
100
AcDbEntity
  8
40
  6
Continuous
 62
     7
100
AcDbCircle
 10
2380.299651889409
 20
4092.661731992953
 30
0.0
 40
5.0
  0
CIRCLE
  5
F33
330
1F
100
AcDbEntity
  8
40
  6
Continuous
 62
     7
100
AcDbCircle
 10
2364.613439735209
 20
4102.565995639753
 30
0.0
 40
5.0
  0
CIRCLE
  5
F34
330
1F
100
AcDbEntity
  8
40
  6
Continuous
 62
     7
100
AcDbCircle
 10
2341.592718826408
 20
4121.250255168052
 30
0.0
 40
5.0
  0
CIRCLE
  5
F35
330
1F
100
AcDbEntity
  8
40
  6
Continuous
 62
     7
100
AcDbCircle
 10
2516.974474973609
 20
4107.100542293152
 30
0.0
 40
10.0
  0
CIRCLE
  5
F36
330
1F
100
AcDbEntity
  8
40
  6
Continuous
 62
     7
100
AcDbCircle
 10
2488.787476000309
 20
4100.475392961853
 30
0.0
 40
10.0
  0
CIRCLE
  5
F37
330
1F
100
AcDbEntity
  8
40
  6
Continuous
 62
     7
100
AcDbCircle
 10
2495.773997113409
 20
4120.471298216453
 30
0.0
 40
10.0
  0
CIRCLE
  5
F38
330
1F
100
AcDbEntity
  8
40
  6
Continuous
 62
     7
100
AcDbCircle
 10
2460.480019766509
 20
4116.014379575352
 30
0.0
 40
10.0
  0
CIRCLE
  5
F39
330
1F
100
AcDbEntity
  8
40
  6
Continuous
 62
     7
100
AcDbCircle
 10
2401.696876608609
 20
4100.475392961853
 30
0.0
 40
10.0
  0
CIRCLE
  5
F3A
330
1F
100
AcDbEntity
  8
40
  6
Continuous
 62
     7
100
AcDbCircle
 10
2436.990853955409
 20
4104.932311602953
 30
0.0
 40
10.0
  0
CIRCLE
  5
F3B
330
1F
100
AcDbEntity
  8
40
  6
Continuous
 62
     7
100
AcDbCircle
 10
2413.501688144409
 20
4120.471298216453
 30
0.0
 40
10.0
  0
CIRCLE
  5
F3C
330
1F
100
AcDbEntity
  8
40
  6
Continuous
 62
     7
100
AcDbCircle
 10
2357.007232937309
 20
4120.471298216453
 30
0.0
 40
10.0
  0
CIRCLE
  5
F3D
330
1F
100
AcDbEntity
  8
40
  6
Continuous
 62
     7
100
AcDbCircle
 10
2380.496398748309
 20
4111.557460934252
 30
0.0
 40
10.0
  0
CIRCLE
  5
F3E
330
1F
100
AcDbEntity
  8
40
  6
Continuous
 62
     7
100
AcDbCircle
 10
2347.611566612809
 20
4100.475392961853
 30
0.0
 40
10.0
  0
CIRCLE
  5
F4B
330
1F
100
AcDbEntity
  8
40
  6
Continuous
 62
     7
100
AcDbCircle
 10
916.2031575610088
 20
4121.250255168052
 30
0.0
 40
5.0
  0
CIRCLE
  5
F4C
330
1F
100
AcDbEntity
  8
40
  6
Continuous
 62
     7
100
AcDbCircle
 10
996.7221441817086
 20
4092.661731992953
 30
0.0
 40
5.0
  0
CIRCLE
  5
F4D
330
1F
100
AcDbEntity
  8
40
  6
Continuous
 62
     7
100
AcDbCircle
 10
987.2997095772088
 20
4125.211960626852
 30
0.0
 40
5.0
  0
CIRCLE
  5
F4E
330
1F
100
AcDbEntity
  8
40
  6
Continuous
 62
     7
100
AcDbCircle
 10
977.8772749726087
 20
4095.659779367053
 30
0.0
 40
5.0
  0
CIRCLE
  5
F4F
330
1F
100
AcDbEntity
  8
40
  6
Continuous
 62
     7
100
AcDbCircle
 10
942.3289989645088
 20
4097.587095536252
 30
0.0
 40
5.0
  0
CIRCLE
  5
F50
330
1F
100
AcDbEntity
  8
40
  6
Continuous
 62
     7
100
AcDbCircle
 10
945.4341194592089
 20
4129.173666085551
 30
0.0
 40
5.0
  0
CIRCLE
  5
F51
330
1F
100
AcDbEntity
  8
40
  6
Continuous
 62
     7
100
AcDbCircle
 10
923.4841297554089
 20
4093.678926637752
 30
0.0
 40
5.0
  0
CIRCLE
  5
F52
330
1F
100
AcDbEntity
  8
40
  6
Continuous
 62
     7
100
AcDbCircle
 10
900.5169454068088
 20
4128.156471440752
 30
0.0
 40
5.0
  0
CIRCLE
  5
F53
330
1F
100
AcDbEntity
  8
40
  6
Continuous
 62
     7
100
AcDbCircle
 10
892.1117054471089
 20
4095.659779367053
 30
0.0
 40
5.0
  0
CIRCLE
  5
F54
330
1F
100
AcDbEntity
  8
40
  6
Continuous
 62
     7
100
AcDbCircle
 10
867.0565952486088
 20
4118.305744354151
 30
0.0
 40
5.0
  0
CIRCLE
  5
F55
330
1F
100
AcDbEntity
  8
40
  6
Continuous
 62
     7
100
AcDbCircle
 10
857.6341606441088
 20
4129.173666085551
 30
0.0
 40
5.0
  0
CIRCLE
  5
F56
330
1F
100
AcDbEntity
  8
40
  6
Continuous
 62
     7
100
AcDbCircle
 10
850.2996518894088
 20
4092.661731992953
 30
0.0
 40
5.0
  0
CIRCLE
  5
F57
330
1F
100
AcDbEntity
  8
40
  6
Continuous
 62
     7
100
AcDbCircle
 10
834.6134397352088
 20
4102.565995639753
 30
0.0
 40
5.0
  0
CIRCLE
  5
F58
330
1F
100
AcDbEntity
  8
40
  6
Continuous
 62
     7
100
AcDbCircle
 10
811.5927188264087
 20
4121.250255168052
 30
0.0
 40
5.0
  0
CIRCLE
  5
F59
330
1F
100
AcDbEntity
  8
40
  6
Continuous
 62
     7
100
AcDbCircle
 10
986.9744749736087
 20
4107.100542293152
 30
0.0
 40
10.0
  0
CIRCLE
  5
F5A
330
1F
100
AcDbEntity
  8
40
  6
Continuous
 62
     7
100
AcDbCircle
 10
958.7874760003087
 20
4100.475392961853
 30
0.0
 40
10.0
  0
CIRCLE
  5
F5B
330
1F
100
AcDbEntity
  8
40
  6
Continuous
 62
     7
100
AcDbCircle
 10
965.7739971134088
 20
4120.471298216453
 30
0.0
 40
10.0
  0
CIRCLE
  5
F5C
330
1F
100
AcDbEntity
  8
40
  6
Continuous
 62
     7
100
AcDbCircle
 10
930.4800197665088
 20
4116.014379575352
 30
0.0
 40
10.0
  0
CIRCLE
  5
F5D
330
1F
100
AcDbEntity
  8
40
  6
Continuous
 62
     7
100
AcDbCircle
 10
871.6968766086088
 20
4100.475392961853
 30
0.0
 40
10.0
  0
CIRCLE
  5
F5E
330
1F
100
AcDbEntity
  8
40
  6
Continuous
 62
     7
100
AcDbCircle
 10
906.990853955409
 20
4104.932311602953
 30
0.0
 40
10.0
  0
CIRCLE
  5
F5F
330
1F
100
AcDbEntity
  8
40
  6
Continuous
 62
     7
100
AcDbCircle
 10
883.5016881444088
 20
4120.471298216453
 30
0.0
 40
10.0
  0
CIRCLE
  5
F60
330
1F
100
AcDbEntity
  8
40
  6
Continuous
 62
     7
100
AcDbCircle
 10
827.0072329373087
 20
4120.471298216453
 30
0.0
 40
10.0
  0
CIRCLE
  5
F61
330
1F
100
AcDbEntity
  8
40
  6
Continuous
 62
     7
100
AcDbCircle
 10
850.4963987483089
 20
4111.557460934252
 30
0.0
 40
10.0
  0
CIRCLE
  5
F62
330
1F
100
AcDbEntity
  8
40
  6
Continuous
 62
     7
100
AcDbCircle
 10
817.6115666128088
 20
4100.475392961853
 30
0.0
 40
10.0
  0
DIMENSION
  5
F6F
330
1F
100
AcDbEntity
  8
40
  6
Continuous
 62
     2
100
AcDbDimension
  2
*D14
 10
3735.941683336909
 20
3885.394606825752
 30
0.0
 11
3485.941683336909
 21
3915.394606825753
 31
0.0
 70
    32
 71
     5
 42
500.0
  3
IGS
100
AcDbAlignedDimension
 13
3235.941683336909
 23
4085.394606825752
 33
0.0
 14
3735.941683336909
 24
4085.394606825752
 34
0.0
100
AcDbRotatedDimension
1001
ACAD
1000
DSTYLE
1002
{
1070
    40
1040
10.0
1070
   177
1070
     3
1070
   176
1070
     3
1002
}
  0
DIMENSION
  5
F70
330
1F
100
AcDbEntity
  8
40
  6
Continuous
 62
     2
100
AcDbDimension
  2
*D15
 10
3690.941683336909
 20
3985.394606825752
 30
0.0
 11
3485.941683336909
 21
4015.394606825752
 31
0.0
 70
    32
 71
     5
 42
410.0
  3
IGS
100
AcDbAlignedDimension
 13
3280.941683336909
 23
4338.394606825752
 33
0.0
 14
3690.941683336909
 24
4338.394606825752
 34
0.0
100
AcDbRotatedDimension
1001
ACAD
1000
DSTYLE
1002
{
1070
    40
1040
10.0
1070
   177
1070
     3
1070
   176
1070
     3
1002
}
  0
LINE
  5
F72
330
1F
100
AcDbEntity
  8
AM_7
100
AcDbLine
 10
3300.941683336909
 20
4377.498600525853
 30
0.0
 11
3300.941683336909
 21
4315.065233767553
 31
0.0
  0
LINE
  5
F73
330
1F
100
AcDbEntity
  8
AM_7
100
AcDbLine
 10
3670.941683336909
 20
4377.498600525853
 30
0.0
 11
3670.941683336909
 21
4315.065233767553
 31
0.0
  0
DIMENSION
  5
F74
330
1F
100
AcDbEntity
  8
40
  6
Continuous
 62
     2
100
AcDbDimension
  2
*D16
 10
1002.819227660709
 20
3985.394606825752
 30
0.0
 11
902.8192276607088
 21
4015.397559581657
 31
0.0
 70
    33
  1
<>
 71
     5
 42
200.0000000000001
  3
IGS
100
AcDbAlignedDimension
 13
802.8192276607088
 23
4085.394606825752
 33
0.0
 14
1002.819227660709
 24
4085.394606825752
 34
0.0
1001
ACAD
1000
DSTYLE
1002
{
1070
    40
1040
10.0
1070
   178
1070
     2
1070
   177
1070
     3
1070
   176
1070
     3
1002
}
  0
DIMENSION
  5
F75
330
1F
100
AcDbEntity
  8
40
  6
Continuous
 62
     2
100
AcDbDimension
  2
*D17
 10
620.0416505043087
 20
4085.394606825752
 30
0.0
 11
590.0416505043081
 21
4003.882795802129
 31
0.0
 70
    32
  1
<>
 71
     5
 42
49.99999999999954
  3
IGS
100
AcDbAlignedDimension
 13
802.8192276607088
 23
4135.394606825752
 33
0.0
 14
802.8192276607088
 24
4085.394606825752
 34
0.0
 50
90.0
100
AcDbRotatedDimension
1001
GENIUS_GENDTOL_13
1000

1000
JS7
1000

1040
0.0
1001
ACAD
1000
DSTYLE
1002
{
1070
    40
1040
10.0
1070
   177
1070
     3
1070
   176
1070
     3
1002
}
  0
DIMENSION
  5
F76
330
1F
100
AcDbEntity
  8
40
  6
Continuous
 62
     2
100
AcDbDimension
  2
*D18
 10
620.0416505043087
 20
4135.394606825752
 30
0.0
 11
590.0386977484025
 21
4235.394606825752
 31
0.0
 70
    32
  1
<>
 71
     5
 42
200.0
  3
IGS
100
AcDbAlignedDimension
 13
720.0416505043087
 23
4335.394606825752
 33
0.0
 14
802.8192276607088
 24
4135.394606825752
 34
0.0
 50
90.0
100
AcDbRotatedDimension
1001
GENIUS_GENDTOL_13
1000

1000
JS7
1000

1040
0.0
1001
ACAD
1000
DSTYLE
1002
{
1070
    40
1040
10.0
1070
   177
1070
     3
1070
   176
1070
     3
1002
}
  0
DIMENSION
  5
F77
330
1F
100
AcDbEntity
  8
40
  6
Continuous
 62
     2
100
AcDbDimension
  2
*D19
 10
620.0416505043087
 20
4335.394606825752
 30
0.0
 11
590.0416505043081
 21
4530.394606825751
 31
0.0
 70
    32
  1
380
 71
     5
 42
390.0
  3
IGS
100
AcDbAlignedDimension
 13
767.8192276607087
 23
4725.394606825751
 33
0.0
 14
720.0416505043087
 24
4335.394606825752
 34
0.0
 50
90.0
100
AcDbRotatedDimension
1001
GENIUS_GENDTOL_13
1000

1000
JS7
1000

1040
0.0
1001
ACAD
1000
DSTYLE
1002
{
1070
    40
1040
10.0
1070
   177
1070
     3
1070
   176
1070
     3
1002
}
  0
LINE
  5
F78
102
{ACAD_REACTORS
330
185B
102
}
330
1F
100
AcDbEntity
  8
40
  6
PHANTOM
 62
     7
100
AcDbLine
 10
930.319227660709
 20
4335.394606825752
 30
0.0
 11
1002.819227660709
 21
4335.394606825752
 31
0.0
  0
LINE
  5
F79
330
1F
100
AcDbEntity
  8
40
  6
PHANTOM
 62
     7
100
AcDbLine
 10
1002.819227660709
 20
4335.394606825752
 30
0.0
 11
2332.819227660709
 21
4335.394606825752
 31
0.0
  0
LINE
  5
F7A
102
{ACAD_REACTORS
330
185B
102
}
330
1F
100
AcDbEntity
  8
40
  6
Continuous
 62
     7
100
AcDbLine
 10
802.8192276607088
 20
4335.394606825752
 30
0.0
 11
875.3192276607089
 21
4335.394606825752
 31
0.0
  0
LINE
  5
F7B
330
1F
100
AcDbEntity
  8
40
  6
PHANTOM
 62
     7
100
AcDbLine
 10
720.0416505043087
 20
4335.394606825752
 30
0.0
 11
802.8192276607088
 21
4335.394606825752
 31
0.0
  0
LINE
  5
F7C
102
{ACAD_REACTORS
330
185B
102
}
330
1F
100
AcDbEntity
  8
40
  6
Continuous
 62
     7
100
AcDbLine
 10
2460.319227660709
 20
4335.394606825752
 30
0.0
 11
2532.819227660709
 21
4335.394606825752
 31
0.0
  0
LINE
  5
F7D
330
1F
100
AcDbEntity
  8
40
  6
PHANTOM
 62
     7
100
AcDbLine
 10
2532.819227660709
 20
4335.394606825752
 30
0.0
 11
2660.500118697209
 21
4335.394606825752
 31
0.0
  0
LINE
  5
F7E
102
{ACAD_REACTORS
330
185B
102
}
330
1F
100
AcDbEntity
  8
40
  6
Continuous
 62
     7
100
AcDbLine
 10
2332.819227660709
 20
4335.394606825752
 30
0.0
 11
2405.319227660709
 21
4335.394606825752
 31
0.0
  0
LINE
  5
F7F
330
1F
100
AcDbEntity
  8
40
  6
Continuous
 62
     7
100
AcDbLine
 10
3687.941683336909
 20
4335.394606825752
 30
0.0
 11
3735.941683336909
 21
4335.394606825752
 31
0.0
  0
LINE
  5
F80
330
1F
100
AcDbEntity
  8
40
  6
PHANTOM
 62
     7
100
AcDbLine
 10
3735.941683336909
 20
4335.394606825752
 30
0.0
 11
3919.368433718908
 21
4335.394606825752
 31
0.0
  0
LINE
  5
F81
330
1F
100
AcDbEntity
  8
40
  6
Continuous
 62
     7
100
AcDbLine
 10
3235.941683336909
 20
4335.394606825752
 30
0.0
 11
3283.941683336909
 21
4335.394606825752
 31
0.0
  0
LINE
  5
F82
330
1F
100
AcDbEntity
  8
40
  6
PHANTOM
 62
     7
100
AcDbLine
 10
3035.285678473409
 20
4335.394606825752
 30
0.0
 11
3235.941683336909
 21
4335.394606825752
 31
0.0
  0
LINE
  5
F83
330
1F
100
AcDbEntity
  8
40
  6
Continuous
 62
     7
100
AcDbLine
 10
3383.599354117709
 20
4335.394606825752
 30
0.0
 11
3588.284012556208
 21
4335.394606825752
 31
0.0
  0
LINE
  5
F84
330
1F
100
AcDbEntity
  8
AM_7
100
AcDbLine
 10
3485.941683336909
 20
4763.883352956653
 30
0.0
 11
3485.941683336909
 21
4306.965811180552
 31
0.0
  0
LINE
  5
F85
330
1F
100
AcDbEntity
  8
40
  6
Continuous
 62
     7
100
AcDbLine
 10
3735.941683336909
 20
4135.394606825752
 30
0.0
 11
3235.941683336909
 21
4135.394606825752
 31
0.0
  0
LINE
  5
F86
330
1F
100
AcDbEntity
  8
40
  6
Continuous
 62
     7
100
AcDbLine
 10
3735.941683336909
 20
4085.394606825752
 30
0.0
 11
3735.941683336909
 21
4335.394606825752
 31
0.0
  0
LINE
  5
F87
330
1F
100
AcDbEntity
  8
40
  6
Continuous
 62
     7
100
AcDbLine
 10
3235.941683336909
 20
4085.394606825752
 30
0.0
 11
3735.941683336909
 21
4085.394606825752
 31
0.0
  0
LINE
  5
F88
330
1F
100
AcDbEntity
  8
40
  6
Continuous
 62
     7
100
AcDbLine
 10
3235.941683336909
 20
4335.394606825752
 30
0.0
 11
3235.941683336909
 21
4085.394606825752
 31
0.0
  0
LINE
  5
F89
102
{ACAD_REACTORS
330
185B
102
}
330
1F
100
AcDbEntity
  8
40
  6
Continuous
 62
     7
100
AcDbLine
 10
2532.819227660709
 20
4135.394606825752
 30
0.0
 11
2332.819227660709
 21
4135.394606825752
 31
0.0
  0
LINE
  5
F8A
102
{ACAD_REACTORS
330
185B
102
}
330
1F
100
AcDbEntity
  8
40
  6
Continuous
 62
     7
100
AcDbLine
 10
2532.819227660709
 20
4085.394606825752
 30
0.0
 11
2532.819227660709
 21
4335.394606825752
 31
0.0
  0
LINE
  5
F8B
330
1F
100
AcDbEntity
  8
40
  6
Continuous
 62
     7
100
AcDbLine
 10
2332.819227660709
 20
4085.394606825752
 30
0.0
 11
2532.819227660709
 21
4085.394606825752
 31
0.0
  0
LINE
  5
F8C
102
{ACAD_REACTORS
330
185B
102
}
330
1F
100
AcDbEntity
  8
40
  6
Continuous
 62
     7
100
AcDbLine
 10
2332.819227660709
 20
4335.394606825752
 30
0.0
 11
2332.819227660709
 21
4085.394606825752
 31
0.0
  0
LINE
  5
F8D
102
{ACAD_REACTORS
330
185B
102
}
330
1F
100
AcDbEntity
  8
40
  6
Continuous
 62
     7
100
AcDbLine
 10
1002.819227660709
 20
4135.394606825752
 30
0.0
 11
802.8192276607088
 21
4135.394606825752
 31
0.0
  0
LINE
  5
F8E
102
{ACAD_REACTORS
330
185B
102
}
330
1F
100
AcDbEntity
  8
40
  6
Continuous
 62
     7
100
AcDbLine
 10
1002.819227660709
 20
4085.394606825752
 30
0.0
 11
1002.819227660709
 21
4335.394606825752
 31
0.0
  0
LINE
  5
F8F
330
1F
100
AcDbEntity
  8
40
  6
Continuous
 62
     7
100
AcDbLine
 10
802.8192276607088
 20
4085.394606825752
 30
0.0
 11
1002.819227660709
 21
4085.394606825752
 31
0.0
  0
LINE
  5
F90
102
{ACAD_REACTORS
330
185B
102
}
330
1F
100
AcDbEntity
  8
40
  6
Continuous
 62
     7
100
AcDbLine
 10
802.8192276607088
 20
4335.394606825752
 30
0.0
 11
802.8192276607088
 21
4085.394606825752
 31
0.0
  0
LINE
  5
F91
330
1F
100
AcDbEntity
  8
40
  6
Continuous
 62
     7
100
AcDbLine
 10
3588.284012556208
 20
4335.394606825752
 30
0.0
 11
3687.941683336909
 21
4335.394606825752
 31
0.0
  0
LINE
  5
F92
330
1F
100
AcDbEntity
  8
40
  6
Continuous
 62
     7
100
AcDbLine
 10
3283.941683336909
 20
4335.394606825752
 30
0.0
 11
3383.599354117709
 21
4335.394606825752
 31
0.0
  0
LINE
  5
F93
102
{ACAD_REACTORS
330
185B
102
}
330
1F
100
AcDbEntity
  8
40
  6
Continuous
 62
     7
100
AcDbLine
 10
2405.319227660709
 20
4335.394606825752
 30
0.0
 11
2460.319227660709
 21
4335.394606825752
 31
0.0
  0
LINE
  5
F94
102
{ACAD_REACTORS
330
185B
102
}
330
1F
100
AcDbEntity
  8
40
  6
Continuous
 62
     7
100
AcDbLine
 10
875.3192276607089
 20
4335.394606825752
 30
0.0
 11
930.319227660709
 21
4335.394606825752
 31
0.0
  0
ARC
  5
F95
330
1F
100
AcDbEntity
  8
40
  6
Continuous
 62
     7
100
AcDbCircle
 10
3286.501429225809
 20
4688.416855685952
 30
0.0
 40
3.0
100
AcDbArc
 50
82.87498365109538
 51
104.9999999999944
  0
LINE
  5
F96
330
1F
100
AcDbEntity
  8
40
  6
Continuous
 62
     7
100
AcDbLine
 10
3285.724972090509
 20
4691.314633164853
 30
0.0
 11
3219.963185172808
 21
4673.693815467451
 31
0.0
  0
ARC
  5
F97
330
1F
100
AcDbEntity
  8
40
  6
Continuous
 62
     7
100
AcDbCircle
 10
3224.363108939509
 20
4657.273076420552
 30
0.0
 40
3.0
100
AcDbArc
 50
195.0000000000016
 51
284.9999999999944
  0
LINE
  5
F98
330
1F
100
AcDbEntity
  8
40
  6
Continuous
 62
     7
100
AcDbLine
 10
3221.465331460608
 20
4656.496619285152
 30
0.0
 11
3217.841864829209
 21
4670.019580853252
 31
0.0
  0
LINE
  5
F99
330
1F
100
AcDbEntity
  8
40
  6
Continuous
 62
     7
100
AcDbLine
 10
3225.139566074809
 20
4654.375298941652
 30
0.0
 11
3228.007548689709
 21
4655.143772567252
 31
0.0
  0
ARC
  5
F9A
330
1F
100
AcDbEntity
  8
40
  6
Continuous
 62
     7
100
AcDbCircle
 10
3220.827575033609
 20
4651.149352063552
 30
0.0
 40
3.0
100
AcDbArc
 50
195.0000000000016
 51
284.9999999999944
  0
LINE
  5
F9B
330
1F
100
AcDbEntity
  8
40
  6
Continuous
 62
     7
100
AcDbLine
 10
3217.929797554709
 20
4650.372894928252
 30
0.0
 11
3211.718140472209
 21
4673.555114759152
 31
0.0
  0
LINE
  5
F9C
330
1F
100
AcDbEntity
  8
40
  6
Continuous
 62
     7
100
AcDbLine
 10
3221.604032168909
 20
4648.251574584651
 30
0.0
 11
3229.301643915209
 21
4650.314143435752
 31
0.0
  0
ARC
  5
F9D
330
1F
100
AcDbEntity
  8
40
  6
Continuous
 62
     7
100
AcDbCircle
 10
3220.739642308109
 20
4670.796037988552
 30
0.0
 40
3.0
100
AcDbArc
 50
104.9999999999944
 51
195.0000000000016
  0
ARC
  5
F9E
330
1F
100
AcDbEntity
  8
40
  6
Continuous
 62
     7
100
AcDbCircle
 10
3214.615917951109
 20
4674.331571894452
 30
0.0
 40
3.0
100
AcDbArc
 50
104.9999999999944
 51
195.0000000000016
  0
LINE
  5
F9F
330
1F
100
AcDbEntity
  8
40
  6
Continuous
 62
     7
100
AcDbLine
 10
3213.839460815809
 20
4677.229349373352
 30
0.0
 11
3285.375130909908
 21
4696.397274405052
 31
0.0
  0
ARC
  5
FA0
330
1F
100
AcDbEntity
  8
40
  6
Continuous
 62
     7
100
AcDbCircle
 10
3286.151588045309
 20
4693.499496926253
 30
0.0
 40
3.0
100
AcDbArc
 50
82.87498365109538
 51
104.9999999999944
  0
ARC
  5
FA1
330
1F
100
AcDbEntity
  8
40
  6
Continuous
 62
     7
100
AcDbCircle
 10
3687.941683336909
 20
4352.394606825752
 30
0.0
 40
3.0
100
AcDbArc
 50
0.0
 51
90.0
  0
LINE
  5
FA2
330
1F
100
AcDbEntity
  8
40
  6
Continuous
 62
     7
100
AcDbLine
 10
3690.941683336909
 20
4352.394606825752
 30
0.0
 11
3690.941683336909
 21
4338.394606825752
 31
0.0
  0
LINE
  5
FA3
330
1F
100
AcDbEntity
  8
40
  6
Continuous
 62
     7
100
AcDbLine
 10
3687.941683336909
 20
4355.394606825751
 30
0.0
 11
3652.637829047609
 21
4355.394606825751
 31
0.0
  0
ARC
  5
FA4
330
1F
100
AcDbEntity
  8
40
  6
Continuous
 62
     7
100
AcDbCircle
 10
3687.941683336909
 20
4338.394606825752
 30
0.0
 40
3.0
100
AcDbArc
 50
270.0
 51
0.0
  0
LINE
  5
FA5
330
1F
100
AcDbEntity
  8
40
  6
Continuous
 62
     7
100
AcDbLine
 10
3687.941683336909
 20
4335.394606825752
 30
0.0
 11
3588.284012556208
 21
4335.394606825752
 31
0.0
  0
ARC
  5
FA6
330
1F
100
AcDbEntity
  8
40
  6
Continuous
 62
     7
100
AcDbCircle
 10
3588.284012556208
 20
4338.394606825752
 30
0.0
 40
3.0
100
AcDbArc
 50
194.036243467902
 51
270.0
  0
LINE
  5
FA7
330
1F
100
AcDbEntity
  8
40
  6
Continuous
 62
     7
100
AcDbLine
 10
3585.373585055709
 20
4337.666999950652
 30
0.0
 11
3573.606980572109
 21
4384.733417885052
 31
0.0
  0
ARC
  5
FA8
330
1F
100
AcDbEntity
  8
40
  6
Continuous
 62
     7
100
AcDbCircle
 10
3383.599354117709
 20
4338.394606825752
 30
0.0
 40
3.0
100
AcDbArc
 50
270.0
 51
345.963756532098
  0
LINE
  5
FA9
330
1F
100
AcDbEntity
  8
40
  6
Continuous
 62
     7
100
AcDbLine
 10
3383.599354117709
 20
4335.394606825752
 30
0.0
 11
3283.941683336909
 21
4335.394606825752
 31
0.0
  0
LINE
  5
FAA
330
1F
100
AcDbEntity
  8
40
  6
Continuous
 62
     7
100
AcDbLine
 10
3386.509781618209
 20
4337.666999950652
 30
0.0
 11
3398.276386101809
 21
4384.733417885052
 31
0.0
  0
ARC
  5
FAB
330
1F
100
AcDbEntity
  8
40
  6
Continuous
 62
     7
100
AcDbCircle
 10
3283.941683336909
 20
4338.394606825752
 30
0.0
 40
3.0
100
AcDbArc
 50
180.0
 51
270.0
  0
LINE
  5
FAC
330
1F
100
AcDbEntity
  8
40
  6
Continuous
 62
     7
100
AcDbLine
 10
3280.941683336909
 20
4338.394606825752
 30
0.0
 11
3280.941683336909
 21
4352.394606825752
 31
0.0
  0
ARC
  5
FAD
330
1F
100
AcDbEntity
  8
40
  6
Continuous
 62
     7
100
AcDbCircle
 10
3283.941683336909
 20
4352.394606825752
 30
0.0
 40
3.0
100
AcDbArc
 50
90.0
 51
180.0
  0
LINE
  5
FAE
330
1F
100
AcDbEntity
  8
40
  6
Continuous
 62
     7
100
AcDbLine
 10
3283.941683336909
 20
4355.394606825751
 30
0.0
 11
3319.245537626309
 21
4355.394606825751
 31
0.0
  0
LINE
  5
FAF
330
1F
100
AcDbEntity
  8
40
  6
Continuous
 62
     7
100
AcDbLine
 10
3350.470527618309
 20
4355.394606825751
 30
0.0
 11
3381.883919272909
 21
4355.394606825751
 31
0.0
  0
ARC
  5
FB0
330
1F
100
AcDbEntity
  8
40
  6
Continuous
 62
     7
100
AcDbCircle
 10
3319.245537626309
 20
4385.394606825752
 30
0.0
 40
35.0
100
AcDbArc
 50
321.3178125465018
 51
336.6685160776029
  0
ARC
  5
FB1
330
1F
100
AcDbEntity
  8
40
  6
Continuous
 62
     7
100
AcDbCircle
 10
3381.883919272909
 20
4360.394606825752
 30
0.0
 40
5.0
100
AcDbArc
 50
270.0
 51
345.963756532098
  0
LINE
  5
FB2
330
1F
100
AcDbEntity
  8
40
  6
Continuous
 62
     7
100
AcDbLine
 10
3386.734631773609
 20
4359.181928700553
 30
0.0
 11
3393.425673601009
 21
4385.946096010252
 31
0.0
  0
ARC
  5
FB3
330
1F
100
AcDbEntity
  8
40
  6
Continuous
 62
     7
100
AcDbCircle
 10
3350.470527618309
 20
4360.394606825752
 30
0.0
 40
5.0
100
AcDbArc
 50
141.3178125465018
 51
270.0
  0
ARC
  5
FB4
330
1F
100
AcDbEntity
  8
40
  6
Continuous
 62
     7
100
AcDbCircle
 10
3485.941683336909
 20
4165.394606825753
 30
0.0
 40
255.0
100
AcDbArc
 50
90.0
 51
105.4374646422004
  0
ARC
  5
FB5
330
1F
100
AcDbEntity
  8
40
  6
Continuous
 62
     7
100
AcDbCircle
 10
3427.380661106109
 20
4377.457349133952
 30
0.0
 40
35.0
100
AcDbArc
 50
105.4374646422004
 51
165.963756532098
  0
ARC
  5
FB6
330
1F
100
AcDbEntity
  8
40
  6
Continuous
 62
     7
100
AcDbCircle
 10
3273.334093066909
 20
4405.197113194252
 30
0.0
 40
85.0
100
AcDbArc
 50
336.6685160776029
 51
38.50122212470225
  0
ARC
  5
FB7
330
1F
100
AcDbEntity
  8
40
  6
Continuous
 62
     7
100
AcDbCircle
 10
3585.628793693409
 20
4621.696581924752
 30
0.0
 40
295.0
100
AcDbArc
 50
182.8366748167025
 51
213.6652619324985
  0
ARC
  5
FB8
330
1F
100
AcDbEntity
  8
40
  6
Continuous
 62
     7
100
AcDbCircle
 10
3240.948500944909
 20
4606.847481252753
 30
0.0
 40
50.0
100
AcDbArc
 50
0.0
 51
104.9999999999944
  0
LINE
  5
FB9
330
1F
100
AcDbEntity
  8
40
  6
Continuous
 62
     7
100
AcDbLine
 10
3621.412839055608
 20
4355.394606825751
 30
0.0
 11
3589.999447401009
 21
4355.394606825751
 31
0.0
  0
ARC
  5
FBA
330
1F
100
AcDbEntity
  8
40
  6
Continuous
 62
     7
100
AcDbCircle
 10
3652.637829047609
 20
4385.394606825752
 30
0.0
 40
35.0
100
AcDbArc
 50
203.3314839223971
 51
218.6821874534981
  0
ARC
  5
FBB
330
1F
100
AcDbEntity
  8
40
  6
Continuous
 62
     7
100
AcDbCircle
 10
3589.999447401009
 20
4360.394606825752
 30
0.0
 40
5.0
100
AcDbArc
 50
194.036243467902
 51
270.0
  0
LINE
  5
FBC
330
1F
100
AcDbEntity
  8
40
  6
Continuous
 62
     7
100
AcDbLine
 10
3585.148734900309
 20
4359.181928700553
 30
0.0
 11
3578.457693072809
 21
4385.946096010252
 31
0.0
  0
ARC
  5
FBD
330
1F
100
AcDbEntity
  8
40
  6
Continuous
 62
     7
100
AcDbCircle
 10
3621.412839055608
 20
4360.394606825752
 30
0.0
 40
5.0
100
AcDbArc
 50
270.0
 51
38.68218745349813
  0
ARC
  5
FBE
330
1F
100
AcDbEntity
  8
40
  6
Continuous
 62
     7
100
AcDbCircle
 10
3485.941683336909
 20
4165.394606825753
 30
0.0
 40
255.0
100
AcDbArc
 50
74.56253535779959
 51
90.0
  0
ARC
  5
FBF
330
1F
100
AcDbEntity
  8
40
  6
Continuous
 62
     7
100
AcDbCircle
 10
3544.502705567809
 20
4377.457349133952
 30
0.0
 40
35.0
100
AcDbArc
 50
14.03624346790199
 51
74.56253535779959
  0
ARC
  5
FC0
330
1F
100
AcDbEntity
  8
40
  6
Continuous
 62
     7
100
AcDbCircle
 10
3698.549273607009
 20
4405.197113194252
 30
0.0
 40
85.0
100
AcDbArc
 50
141.4987778752977
 51
203.3314839223971
  0
ARC
  5
FC1
330
1F
100
AcDbEntity
  8
40
  6
Continuous
 62
     7
100
AcDbCircle
 10
3386.254572980508
 20
4621.696581924752
 30
0.0
 40
295.0
100
AcDbArc
 50
326.3347380675015
 51
357.1633251832974
  0
ARC
  5
FC2
330
1F
100
AcDbEntity
  8
40
  6
Continuous
 62
     7
100
AcDbCircle
 10
3485.941683336909
 20
4395.394606825752
 30
0.0
 40
55.0
100
AcDbArc
 50
90.0
 51
128.0452613146047
  0
ARC
  5
FC3
330
1F
100
AcDbEntity
  8
40
  6
Continuous
 62
     7
100
AcDbCircle
 10
3413.439711294608
 20
4490.998701290751
 30
0.0
 40
65.0
100
AcDbArc
 50
208.8717868043993
 51
306.3049228116039
  0
ARC
  5
FC4
330
1F
100
AcDbEntity
  8
40
  6
Continuous
 62
     7
100
AcDbCircle
 10
3585.628793693409
 20
4611.696581924753
 30
0.0
 40
275.0
100
AcDbArc
 50
181.5046586752002
 51
213.6652619324985
  0
ARC
  5
FC5
330
1F
100
AcDbEntity
  8
40
  6
Continuous
 62
     7
100
AcDbCircle
 10
3345.711547314909
 20
4605.394606825751
 30
0.0
 40
35.0
100
AcDbArc
 50
90.0
 51
181.5046586752002
  0
LINE
  5
FC6
330
1F
100
AcDbEntity
  8
40
  6
Continuous
 62
     7
100
AcDbLine
 10
3345.711547314909
 20
4640.394606825751
 30
0.0
 11
3485.941683336909
 21
4640.394606825751
 31
0.0
  0
ARC
  5
FC7
330
1F
100
AcDbEntity
  8
40
  6
Continuous
 62
     7
100
AcDbCircle
 10
3485.941683336909
 20
4395.394606825752
 30
0.0
 40
55.0
100
AcDbArc
 50
51.9547386853953
 51
90.0
  0
ARC
  5
FC8
330
1F
100
AcDbEntity
  8
40
  6
Continuous
 62
     7
100
AcDbCircle
 10
3558.443655379309
 20
4490.998701290751
 30
0.0
 40
65.0
100
AcDbArc
 50
233.6950771883961
 51
331.1282131956007
  0
ARC
  5
FC9
330
1F
100
AcDbEntity
  8
40
  6
Continuous
 62
     7
100
AcDbCircle
 10
3386.254572980508
 20
4611.696581924753
 30
0.0
 40
275.0
100
AcDbArc
 50
326.3347380675015
 51
358.4953413247997
  0
ARC
  5
FCA
330
1F
100
AcDbEntity
  8
40
  6
Continuous
 62
     7
100
AcDbCircle
 10
3626.171819359008
 20
4605.394606825751
 30
0.0
 40
35.0
100
AcDbArc
 50
358.4953413247997
 51
90.0
  0
LINE
  5
FCB
330
1F
100
AcDbEntity
  8
40
  6
Continuous
 62
     7
100
AcDbLine
 10
3626.171819359008
 20
4640.394606825751
 30
0.0
 11
3485.941683336909
 21
4640.394606825751
 31
0.0
  0
ARC
  5
FCC
330
1F
100
AcDbEntity
  8
40
  6
Continuous
 62
     7
100
AcDbCircle
 10
3345.711547314909
 20
4605.394606825751
 30
0.0
 40
30.0
100
AcDbArc
 50
90.0
 51
181.5046586752002
  0
LINE
  5
FCD
330
1F
100
AcDbEntity
  8
40
  6
Continuous
 62
     7
100
AcDbLine
 10
3345.711547314909
 20
4635.394606825752
 30
0.0
 11
3485.941683336909
 21
4635.394606825752
 31
0.0
  0
ARC
  5
FCE
330
1F
100
AcDbEntity
  8
40
  6
Continuous
 62
     7
100
AcDbCircle
 10
3585.628793693409
 20
4611.696581924753
 30
0.0
 40
270.0
100
AcDbArc
 50
181.5046586752002
 51
213.6652619324985
  0
ARC
  5
FCF
330
1F
100
AcDbEntity
  8
40
  6
Continuous
 62
     7
100
AcDbCircle
 10
3413.439711294608
 20
4490.998701290751
 30
0.0
 40
60.0
100
AcDbArc
 50
208.8717868043993
 51
306.3049228116039
  0
ARC
  5
FD0
330
1F
100
AcDbEntity
  8
40
  6
Continuous
 62
     7
100
AcDbCircle
 10
3485.941683336909
 20
4395.394606825752
 30
0.0
 40
60.0
100
AcDbArc
 50
90.0
 51
128.0452613146047
  0
ARC
  5
FD1
330
1F
100
AcDbEntity
  8
40
  6
Continuous
 62
     7
100
AcDbCircle
 10
3585.628793693409
 20
4621.696581924752
 30
0.0
 40
300.0
100
AcDbArc
 50
182.8366748167025
 51
213.6652619324985
  0
ARC
  5
FD2
330
1F
100
AcDbEntity
  8
40
  6
Continuous
 62
     7
100
AcDbCircle
 10
3319.245537626309
 20
4385.394606825752
 30
0.0
 40
30.0
100
AcDbArc
 50
270.0
 51
336.6685160776029
  0
ARC
  5
FD3
330
1F
100
AcDbEntity
  8
40
  6
Continuous
 62
     7
100
AcDbCircle
 10
3273.334093066909
 20
4405.197113194252
 30
0.0
 40
80.0
100
AcDbArc
 50
336.6685160776029
 51
38.50122212470225
  0
ARC
  5
FD4
330
1F
100
AcDbEntity
  8
40
  6
Continuous
 62
     7
100
AcDbCircle
 10
3427.380661106109
 20
4377.457349133952
 30
0.0
 40
30.0
100
AcDbArc
 50
105.4374646422004
 51
165.963756532098
  0
ARC
  5
FD5
330
1F
100
AcDbEntity
  8
40
  6
Continuous
 62
     7
100
AcDbCircle
 10
3485.941683336909
 20
4165.394606825753
 30
0.0
 40
250.0
100
AcDbArc
 50
90.0
 51
105.4374646422004
  0
ARC
  5
FD6
330
1F
100
AcDbEntity
  8
40
  6
Continuous
 62
     7
100
AcDbCircle
 10
3240.948500944909
 20
4606.847481252753
 30
0.0
 40
45.0
100
AcDbArc
 50
0.0
 51
104.9999999999944
  0
ARC
  5
FD7
330
1F
100
AcDbEntity
  8
40
  6
Continuous
 62
     7
100
AcDbCircle
 10
3626.171819359008
 20
4605.394606825751
 30
0.0
 40
30.0
100
AcDbArc
 50
358.4953413247997
 51
90.0
  0
LINE
  5
FD8
330
1F
100
AcDbEntity
  8
40
  6
Continuous
 62
     7
100
AcDbLine
 10
3626.171819359008
 20
4635.394606825752
 30
0.0
 11
3485.941683336909
 21
4635.394606825752
 31
0.0
  0
ARC
  5
FD9
330
1F
100
AcDbEntity
  8
40
  6
Continuous
 62
     7
100
AcDbCircle
 10
3386.254572980508
 20
4611.696581924753
 30
0.0
 40
270.0
100
AcDbArc
 50
326.3347380675015
 51
358.4953413247997
  0
ARC
  5
FDA
330
1F
100
AcDbEntity
  8
40
  6
Continuous
 62
     7
100
AcDbCircle
 10
3558.443655379309
 20
4490.998701290751
 30
0.0
 40
60.0
100
AcDbArc
 50
233.6950771883961
 51
331.1282131956007
  0
ARC
  5
FDB
330
1F
100
AcDbEntity
  8
40
  6
Continuous
 62
     7
100
AcDbCircle
 10
3485.941683336909
 20
4395.394606825752
 30
0.0
 40
60.0
100
AcDbArc
 50
51.9547386853953
 51
90.0
  0
ARC
  5
FDC
330
1F
100
AcDbEntity
  8
40
  6
Continuous
 62
     7
100
AcDbCircle
 10
3386.254572980508
 20
4621.696581924752
 30
0.0
 40
300.0
100
AcDbArc
 50
326.3347380675015
 51
357.1633251832974
  0
ARC
  5
FDD
330
1F
100
AcDbEntity
  8
40
  6
Continuous
 62
     7
100
AcDbCircle
 10
3652.637829047609
 20
4385.394606825752
 30
0.0
 40
30.0
100
AcDbArc
 50
203.3314839223971
 51
270.0
  0
ARC
  5
FDE
330
1F
100
AcDbEntity
  8
40
  6
Continuous
 62
     7
100
AcDbCircle
 10
3698.549273607009
 20
4405.197113194252
 30
0.0
 40
80.0
100
AcDbArc
 50
141.4987778752977
 51
203.3314839223971
  0
ARC
  5
FDF
330
1F
100
AcDbEntity
  8
40
  6
Continuous
 62
     7
100
AcDbCircle
 10
3544.502705567809
 20
4377.457349133952
 30
0.0
 40
30.0
100
AcDbArc
 50
14.03624346790199
 51
74.56253535779959
  0
ARC
  5
FE0
330
1F
100
AcDbEntity
  8
40
  6
Continuous
 62
     7
100
AcDbCircle
 10
3485.941683336909
 20
4165.394606825753
 30
0.0
 40
250.0
100
AcDbArc
 50
74.56253535779959
 51
90.0
  0
LINE
  5
FE1
330
1F
100
AcDbEntity
  8
40
  6
Continuous
 62
     7
100
AcDbLine
 10
2397.819227660709
 20
4648.251574584651
 30
0.0
 11
2432.819227660709
 21
4648.251574584651
 31
0.0
  0
LINE
  5
FE2
330
1F
100
AcDbEntity
  8
40
  6
Continuous
 62
     7
100
AcDbLine
 10
2410.319227660709
 20
4598.251574584652
 30
0.0
 11
2397.819227660709
 21
4648.251574584651
 31
0.0
  0
LINE
  5
FE3
330
1F
100
AcDbEntity
  8
40
  6
Continuous
 62
     7
100
AcDbLine
 10
2410.319227660709
 20
4355.394606825751
 30
0.0
 11
2410.319227660709
 21
4598.251574584652
 31
0.0
  0
LINE
  5
FE4
330
1F
100
AcDbEntity
  8
40
  6
Continuous
 62
     7
100
AcDbLine
 10
2467.819227660709
 20
4648.251574584651
 30
0.0
 11
2432.819227660709
 21
4648.251574584651
 31
0.0
  0
LINE
  5
FE5
330
1F
100
AcDbEntity
  8
40
  6
Continuous
 62
     7
100
AcDbLine
 10
2455.319227660709
 20
4598.251574584652
 30
0.0
 11
2467.819227660709
 21
4648.251574584651
 31
0.0
  0
LINE
  5
FE6
330
1F
100
AcDbEntity
  8
40
  6
Continuous
 62
     7
100
AcDbLine
 10
2455.319227660709
 20
4355.394606825751
 30
0.0
 11
2455.319227660709
 21
4598.251574584652
 31
0.0
  0
LINE
  5
FE7
330
1F
100
AcDbEntity
  8
40
  6
Continuous
 62
     7
100
AcDbLine
 10
867.819227660709
 20
4648.251574584651
 30
0.0
 11
902.8192276607089
 21
4648.251574584651
 31
0.0
  0
LINE
  5
FE8
330
1F
100
AcDbEntity
  8
40
  6
Continuous
 62
     7
100
AcDbLine
 10
880.319227660709
 20
4598.251574584652
 30
0.0
 11
867.819227660709
 21
4648.251574584651
 31
0.0
  0
LINE
  5
FE9
330
1F
100
AcDbEntity
  8
40
  6
Continuous
 62
     7
100
AcDbLine
 10
880.319227660709
 20
4355.394606825751
 30
0.0
 11
880.319227660709
 21
4598.251574584652
 31
0.0
  0
LINE
  5
FEA
330
1F
100
AcDbEntity
  8
40
  6
Continuous
 62
     7
100
AcDbLine
 10
937.8192276607089
 20
4648.251574584651
 30
0.0
 11
902.8192276607089
 21
4648.251574584651
 31
0.0
  0
LINE
  5
FEB
330
1F
100
AcDbEntity
  8
40
  6
Continuous
 62
     7
100
AcDbLine
 10
925.3192276607089
 20
4598.251574584652
 30
0.0
 11
937.8192276607089
 21
4648.251574584651
 31
0.0
  0
LINE
  5
FEC
330
1F
100
AcDbEntity
  8
40
  6
Continuous
 62
     7
100
AcDbLine
 10
925.3192276607089
 20
4355.394606825751
 30
0.0
 11
925.3192276607089
 21
4598.251574584652
 31
0.0
  0
INSERT
  5
119B
330
1F
100
AcDbEntity
  8
0
370
     0
100
AcDbBlockReference
  2
IGS_A3
 10
-4.201835015091091
 20
3206.007588112353
 30
0.0
 41
10.0
 42
10.0
 43
10.0
1001
GENIUS_GENOREF_13
1005
11A5
1001
GENIUS_GENODEF_13
1002
{
1000
HIER
1070
     0
1002
}
1002
{
1000
MANEDIT
1070
     0
1002
}
1002
{
1000
NOSEL
1070
     0
1002
}
1002
{
1000
BEHIND
1070
     0
1002
}
1002
{
1000
OTHER
1070
     0
1002
}
1002
{
1000
REACTOR
1002
}
1001
GENIUS_GENOBJ-N-SDF_13
1002
{
1000
OWNER
1000
GEN
1002
}
1001
GENIUS_GENSCREG_15
1040
10.0
1040
1.0
1011
-4.201835015091091
1021
3206.007588112353
1031
0.0
1011
4195.798164984909
1021
6176.007588112351
1031
0.0
1070
     3
  0
INSERT
  5
119C
330
1F
100
AcDbEntity
  8
0
370
     0
100
AcDbBlockReference
 66
     1
  2
IGS2
 10
4095.798164984908
 20
3306.007588112353
 30
0.0
 41
10.0
 42
10.0
 43
10.0
1001
GENIUS_GENOREF_13
1005
11A5
  0
ATTRIB
  5
119E
330
119C
100
AcDbEntity
  8
RAHM3
100
AcDbText
 10
2623.202297853054
 20
3625.480478094213
 30
0.0
 40
40.0
  1
1:10
100
AcDbAttribute
  2
GEN-TITLE-SCA
 70
     0
  0
ATTRIB
  5
119F
330
119C
100
AcDbEntity
  8
RAHM3
100
AcDbText
 10
3364.898164984909
 20
3603.407588112352
 30
0.0
 40
50.0
  1
ベンチ（背つきタイプ）
100
AcDbAttribute
  2
ＴＩＴＬＥ
 70
     0
  0
ATTRIB
  5
11A0
330
119C
100
AcDbEntity
  8
RAHM3
100
AcDbText
 10
3380.169383426505
 20
3524.051419383491
 30
0.0
 40
30.0
  1
IB-01
100
AcDbAttribute
  2
ｃｏｄｅ
 70
     0
  0
ATTRIB
  5
11A1
330
119C
100
AcDbEntity
  8
RAHM3
100
AcDbText
 10
3388.350100045278
 20
3454.051419383418
 30
0.0
 40
30.0
  1
L=1800
100
AcDbAttribute
  2
件名
 70
     0
  0
ATTRIB
  5
11A2
330
119C
100
AcDbEntity
  8
RAHM3
100
AcDbText
 10
3364.898164984909
 20
3323.407588112279
 30
0.0
 40
50.0
  1
Ｔ２６Ａ０８００１
100
AcDbAttribute
  2
Ｎｏ．
 70
     0
  0
ATTRIB
  5
11A3
330
119C
100
AcDbEntity
  8
RAHM3
100
AcDbText
 10
3091.298164984909
 20
3480.078481323618
 30
0.0
 40
40.0
  1

100
AcDbAttribute
  2
ＤＲ
 70
     0
  0
ATTRIB
  5
11A4
330
119C
100
AcDbEntity
  8
RAHM3
100
AcDbText
 10
3058.61731194618
 20
3433.707588112352
 30
0.0
 40
30.0
  1

 41
0.8000000000000001
100
AcDbAttribute
  2
ｄａｔｅ
 70
     0
  0
SEQEND
  5
119D
330
119C
100
AcDbEntity
  8
0
370
     0
  0
POINT
  5
11A5
330
1F
100
AcDbEntity
  8
0
 60
     1
100
AcDbPoint
 10
0.0
 20
0.0
 30
0.0
1001
GENIUS_GENOLIS_13
1002
{
1000
ENT
1005
119C
1005
119B
1002
}
1001
GENIUS_GENOENT_13
1002
{
1000
MYREF
1005
11A5
1002
}
1002
{
1000
GRP
1005
0
1002
}
1001
GENIUS_GENOBJ-N-TIT_13
1002
{
1000
OWNER
1000
GEN
1002
}
1001
GENIUS_GENODEF_13
1002
{
1000
HIER
1070
     1
1002
}
1002
{
1000
MANEDIT
1070
     0
1002
}
1002
{
1000
NOSEL
1070
     0
1002
}
1002
{
1000
BEHIND
1070
     0
1002
}
1002
{
1000
OTHER
1070
     0
1002
}
1002
{
1000
REACTOR
1002
}
1001
GENIUS_GENTITLE_13
1002
{
1000
BORDER
1000
C:\WINNT\Profiles\Administrator\Application Data\Autodesk\AutoCAD\Recent\format\igs_a3
1002
}
1002
{
1000
TITLE
1000
C:\WINNT\Profiles\Administrator\Application Data\Autodesk\AutoCAD\Recent\format\IGS2
1002
}
1002
{
1000
SCALE
1000
1:10
1002
}
1002
{
1000
TITLESTD
1000
IGS
1002
}
1002
{
1000
HRA
1005
119B
1002
}
1002
{
1000
HTIT
1005
119C
1002
}
1002
{
1000
UNCHG
1002
{
1000
GEN-TITLE-SIZ
1000
GEN-TITLE-SCA
1002
}
1002
}
1002
{
1000
GENIUSID
1005
11A5
1002
}
  0
HATCH
  5
1531
330
1F
100
AcDbEntity
  8
AM_8
100
AcDbHatch
 10
0.0
 20
0.0
 30
0.0
210
0.0
220
0.0
230
1.0
  2
PLAST
 70
     0
 71
     0
 91
        2
 92
        7
 72
     0
 73
     1
 93
        8
 10
3735.941683336909
 20
4135.394606825752
 10
3735.941683336909
 20
4335.394606825752
 10
3687.941683336909
 20
4335.394606825752
 10
3588.284012556208
 20
4335.394606825752
 10
3383.599354117709
 20
4335.394606825752
 10
3350.975339924609
 20
4335.394606825752
 10
3235.941683336909
 20
4248.545223146892
 10
3235.941683336909
 20
4135.394606825752
 97
        0
 92
       23
 72
     0
 73
     1
 93
        4
 10
3350.975339924609
 20
4335.394606825751
 10
3283.941683336909
 20
4335.394606825752
 10
3235.941683336909
 20
4335.394606825752
 10
3235.941683336909
 20
4248.545223146892
 97
        0
 75
     0
 76
     1
 52
45.0
 41
10.0
 77
     0
 78
     3
 53
45.0
 43
300.0
 44
0.0
 45
-44.90128060534575
 46
44.90128060534576
 79
     0
 53
45.0
 43
294.3873399243318
 44
5.612660075668221
 45
-44.90128060534575
 46
44.90128060534576
 79
     0
 53
45.0
 43
288.7746798486635
 44
11.22532015133644
 45
-44.90128060534575
 46
44.90128060534576
 79
     0
 47
0.8831605229583491
 98
        2
 10
3359.578133998406
 20
4208.566739022979
 10
3256.223796242917
 20
4285.401706738073
  0
INSERT
  5
15FE
102
{ACAD_REACTORS
330
15FB
102
}
330
1F
100
AcDbEntity
  8
AM_12
100
AcDbBlockReference
  2
*S21
 10
0.0
 20
0.0
 30
0.0
1001
ACAD
1000
AcRTDxfName
1000
ACMPARTREF
  0
INSERT
  5
1605
102
{ACAD_REACTORS
330
1604
102
}
330
1F
100
AcDbEntity
  8
AM_5
100
AcDbBlockReference
  2
*S22
 10
0.0
 20
0.0
 30
0.0
1001
ACAD
1000
AcRTDxfName
1000
ACMBALLOON
  0
INSERT
  5
1607
102
{ACAD_REACTORS
330
1606
102
}
330
1F
100
AcDbEntity
  8
AM_12
100
AcDbBlockReference
  2
*S23
 10
0.0
 20
0.0
 30
0.0
1001
ACAD
1000
AcRTDxfName
1000
ACMPARTREF
  0
INSERT
  5
160C
102
{ACAD_REACTORS
330
160B
102
}
330
1F
100
AcDbEntity
  8
AM_5
100
AcDbBlockReference
  2
*S24
 10
0.0
 20
0.0
 30
0.0
1001
ACAD
1000
AcRTDxfName
1000
ACMBALLOON
  0
INSERT
  5
160E
102
{ACAD_REACTORS
330
160D
102
}
330
1F
100
AcDbEntity
  8
AM_12
100
AcDbBlockReference
  2
*S25
 10
0.0
 20
0.0
 30
0.0
1001
ACAD
1000
AcRTDxfName
1000
ACMPARTREF
  0
INSERT
  5
1613
102
{ACAD_REACTORS
330
1612
102
}
330
1F
100
AcDbEntity
  8
AM_5
100
AcDbBlockReference
  2
*S26
 10
0.0
 20
0.0
 30
0.0
1001
ACAD
1000
AcRTDxfName
1000
ACMBALLOON
  0
INSERT
  5
1615
102
{ACAD_REACTORS
330
1614
102
}
330
1F
100
AcDbEntity
  8
AM_12
100
AcDbBlockReference
  2
*S27
 10
0.0
 20
0.0
 30
0.0
1001
ACAD
1000
AcRTDxfName
1000
ACMPARTREF
  0
INSERT
  5
161A
102
{ACAD_REACTORS
330
1619
102
}
330
1F
100
AcDbEntity
  8
AM_5
100
AcDbBlockReference
  2
*S28
 10
0.0
 20
0.0
 30
0.0
1001
ACAD
1000
AcRTDxfName
1000
ACMBALLOON
  0
INSERT
  5
161C
102
{ACAD_REACTORS
330
161B
102
}
330
1F
100
AcDbEntity
  8
AM_12
100
AcDbBlockReference
  2
*S29
 10
0.0
 20
0.0
 30
0.0
1001
ACAD
1000
AcRTDxfName
1000
ACMPARTREF
  0
INSERT
  5
161F
102
{ACAD_REACTORS
330
161E
102
}
330
1F
100
AcDbEntity
  8
AM_5
100
AcDbBlockReference
  2
*S30
 10
0.0
 20
0.0
 30
0.0
1001
ACAD
1000
AcRTDxfName
1000
ACMBALLOON
  0
MTEXT
  5
1624
330
1F
100
AcDbEntity
  8
AM_6
 62
     7
370
    50
100
AcDbMText
 10
725.1013828279683
 20
4391.945675091119
 30
0.0
 40
50.0
 41
1287.14347970864
 71
     1
 72
     5
  1
G.L
 73
     1
 44
1.0
1001
GENIUS_AMGTXT_16
1040
5.0
1040
0.175
  0
MTEXT
  5
1626
330
1F
100
AcDbEntity
  8
AM_6
 62
     7
370
    50
100
AcDbMText
 10
3040.345410797069
 20
4391.945675091119
 30
0.0
 40
50.0
 41
1287.14347970864
 71
     1
 72
     5
  1
G.L
 73
     1
 44
1.0
1001
GENIUS_AMGTXT_16
1040
5.0
1040
0.175
  0
INSERT
  5
1629
102
{ACAD_REACTORS
330
4A6
102
}
330
1F
100
AcDbEntity
  8
1
100
AcDbBlockReference
  2
*S31
 10
0.0
 20
0.0
 30
0.0
1001
ACAD
1000
AcRTDxfName
1000
ACMPARTLIST
  0
TEXT
  5
1668
330
1F
100
AcDbEntity
  8
TEXT
100
AcDbText
 10
3117.316996188466
 20
3472.144072998626
 30
0.0
 40
26.086956516
  1
08.03.17
 41
0.728689138576769
 72
     5
 11
3201.908300517681
 21
3472.144072998626
 31
0.0
100
AcDbText
  0
TEXT
  5
166A
330
1F
100
AcDbEntity
  8
TEXT
100
AcDbText
 10
2863.599486322393
 20
3609.507220181477
 30
0.0
 40
26.086956516
  1
08.03.17
 41
0.7286891385768082
 72
     5
 11
2948.190790651612
 21
3609.507220181477
 31
0.0
100
AcDbText
  0
LINE
  5
166B
330
1F
100
AcDbEntity
  8
0
100
AcDbLine
 10
3205.275307967132
 20
3607.79624691264
 30
0.0
 11
3111.519400801459
 21
3607.79624691264
 31
0.0
  0
LINE
  5
166C
330
1F
100
AcDbEntity
  8
0
100
AcDbLine
 10
3205.275307967132
 20
3642.578855600641
 30
0.0
 11
3111.519400801459
 21
3642.578855600641
 31
0.0
  0
CIRCLE
  5
166D
330
1F
100
AcDbEntity
  8
0
100
AcDbCircle
 10
3158.397354384293
 20
3625.187551256641
 30
0.0
 40
49.99999998900111
  0
TEXT
  5
166E
330
1F
100
AcDbEntity
  8
TEXT
100
AcDbText
 10
3114.718721417999
 20
3612.14407299864
 30
0.0
 40
26.086956516
  1
08.03.17
 41
0.728689138576769
 72
     5
 11
3199.310025747215
 21
3612.14407299864
 31
0.0
100
AcDbText
  0
CIRCLE
  5
166F
330
1F
100
AcDbEntity
  8
0
100
AcDbCircle
 10
2907.278119288691
 20
3622.550698439482
 30
0.0
 40
49.99999998900111
  0
TEXT
  5
1670
330
1F
100
AcDbEntity
  8
0
100
AcDbText
 10
3147.72422118232
 20
3578.627292643746
 30
0.0
 40
25.00000000000055
  1
繁
 72
     4
 11
3159.390887848987
 21
3591.127292643746
 31
0.0
100
AcDbText
  0
LINE
  5
1671
330
1F
100
AcDbEntity
  8
0
100
AcDbLine
 10
2954.156072871525
 20
3639.942002783478
 30
0.0
 11
2860.400165705856
 21
3639.942002783478
 31
0.0
  0
TEXT
  5
1672
330
1F
100
AcDbEntity
  8
0
100
AcDbText
 10
3146.140239382816
 20
3644.950270972995
 30
0.0
 40
25.00000000000055
  1
藤
 72
     4
 11
3157.806906049483
 21
3657.450270972995
 31
0.0
100
AcDbText
  0
TEXT
  5
1673
330
1F
100
AcDbEntity
  8
0
100
AcDbText
 10
2895.021004287213
 20
3642.313418155836
 30
0.0
 40
25.00000000000055
  1
梅
 72
     4
 11
2906.687670953881
 21
3654.813418155836
 31
0.0
100
AcDbText
  0
TEXT
  5
1674
330
1F
100
AcDbEntity
  8
0
100
AcDbText
 10
2896.604986086713
 20
3575.990439826587
 30
0.0
 40
25.00000000000055
  1
村
 72
     4
 11
2908.271652753379
 21
3588.490439826588
 31
0.0
100
AcDbText
  0
LINE
  5
1675
330
1F
100
AcDbEntity
  8
0
100
AcDbLine
 10
2954.156072871525
 20
3605.159394095481
 30
0.0
 11
2860.400165705856
 21
3605.159394095481
 31
0.0
  0
LINE
  5
1676
330
1F
100
AcDbEntity
  8
0
100
AcDbLine
 10
2955.275307967132
 20
3467.796246912627
 30
0.0
 11
2861.519400801459
 21
3467.796246912622
 31
0.0
  0
LINE
  5
1677
330
1F
100
AcDbEntity
  8
0
100
AcDbLine
 10
2955.275307967132
 20
3502.578855600623
 30
0.0
 11
2861.519400801459
 21
3502.578855600623
 31
0.0
  0
CIRCLE
  5
1678
330
1F
100
AcDbEntity
  8
0
100
AcDbCircle
 10
2908.397354384293
 20
3485.187551256622
 30
0.0
 40
49.99999998900111
  0
TEXT
  5
1679
330
1F
100
AcDbEntity
  8
TEXT
100
AcDbText
 10
2864.718721417999
 20
3472.144072998626
 30
0.0
 40
26.086956516
  1
08.03.17
 41
0.728689138576769
 72
     5
 11
2949.310025747215
 21
3472.144072998626
 31
0.0
100
AcDbText
  0
TEXT
  5
167A
330
1F
100
AcDbEntity
  8
0
100
AcDbText
 10
2897.72422118232
 20
3438.627292643732
 30
0.0
 40
25.00000000000055
  1
藤
 72
     4
 11
2909.390887848987
 21
3451.127292643732
 31
0.0
100
AcDbText
  0
TEXT
  5
167B
330
1F
100
AcDbEntity
  8
0
100
AcDbText
 10
2896.140239382816
 20
3504.950270972981
 30
0.0
 40
25.00000000000055
  1
伊
 72
     4
 11
2907.806906049483
 21
3517.450270972982
 31
0.0
100
AcDbText
  0
CIRCLE
  5
167F
330
1F
100
AcDbEntity
  8
0
100
AcDbCircle
 10
3160.99562915476
 20
3485.187551256622
 30
0.0
 40
49.99999998900193
  0
LINE
  5
1680
330
1F
100
AcDbEntity
  8
0
100
AcDbLine
 10
3207.873582737597
 20
3502.578855600623
 30
0.0
 11
3114.117675571924
 21
3502.578855600623
 31
0.0
  0
TEXT
  5
1681
330
1F
100
AcDbEntity
  8
0
100
AcDbText
 10
3148.738514153281
 20
3504.950270972978
 30
0.0
 40
25.00000000000096
  1
松
 72
     4
 11
3160.405180819948
 21
3517.450270972978
 31
0.0
100
AcDbText
  0
TEXT
  5
1682
330
1F
100
AcDbEntity
  8
0
100
AcDbText
 10
3150.322495952784
 20
3438.627292643729
 30
0.0
 40
25.00000000000096
  1
本
 72
     4
 11
3161.98916261945
 21
3451.127292643729
 31
0.0
100
AcDbText
  0
LINE
  5
1683
330
1F
100
AcDbEntity
  8
0
100
AcDbLine
 10
3207.873582737597
 20
3467.796246912622
 30
0.0
 11
3114.117675571924
 21
3467.796246912622
 31
0.0
  0
LINE
  5
1798
330
1F
100
AcDbEntity
  8
40
  6
Continuous
 62
     7
100
AcDbLine
 10
1690.319227660708
 20
4355.394606825751
 30
0.0
 11
1690.319227660708
 21
4598.251574584652
 31
0.0
  0
LINE
  5
1799
330
1F
100
AcDbEntity
  8
40
  6
Continuous
 62
     7
100
AcDbLine
 10
1690.319227660708
 20
4598.251574584652
 30
0.0
 11
1702.819227660708
 21
4648.251574584651
 31
0.0
  0
LINE
  5
179A
330
1F
100
AcDbEntity
  8
40
  6
Continuous
 62
     7
100
AcDbLine
 10
1702.819227660708
 20
4648.251574584651
 30
0.0
 11
1667.819227660709
 21
4648.251574584651
 31
0.0
  0
LINE
  5
179B
330
1F
100
AcDbEntity
  8
40
  6
Continuous
 62
     7
100
AcDbLine
 10
1645.319227660708
 20
4355.394606825751
 30
0.0
 11
1645.319227660708
 21
4598.251574584652
 31
0.0
  0
LINE
  5
179C
330
1F
100
AcDbEntity
  8
40
  6
Continuous
 62
     7
100
AcDbLine
 10
1645.319227660708
 20
4598.251574584652
 30
0.0
 11
1632.819227660708
 21
4648.251574584651
 31
0.0
  0
LINE
  5
179D
330
1F
100
AcDbEntity
  8
40
  6
Continuous
 62
     7
100
AcDbLine
 10
1632.819227660708
 20
4648.251574584651
 30
0.0
 11
1667.819227660709
 21
4648.251574584651
 31
0.0
  0
LINE
  5
179E
102
{ACAD_REACTORS
330
185B
102
}
330
1F
100
AcDbEntity
  8
40
  6
Continuous
 62
     7
100
AcDbLine
 10
1640.319227660708
 20
4335.394606825752
 30
0.0
 11
1695.319227660708
 21
4335.394606825752
 31
0.0
  0
LINE
  5
179F
102
{ACAD_REACTORS
330
185B
102
}
330
1F
100
AcDbEntity
  8
40
  6
Continuous
 62
     7
100
AcDbLine
 10
1567.819227660709
 20
4335.394606825752
 30
0.0
 11
1567.819227660709
 21
4085.394606825752
 31
0.0
  0
LINE
  5
17A0
330
1F
100
AcDbEntity
  8
40
  6
Continuous
 62
     7
100
AcDbLine
 10
1567.819227660709
 20
4085.394606825752
 30
0.0
 11
1767.819227660709
 21
4085.394606825752
 31
0.0
  0
LINE
  5
17A1
102
{ACAD_REACTORS
330
185B
102
}
330
1F
100
AcDbEntity
  8
40
  6
Continuous
 62
     7
100
AcDbLine
 10
1767.819227660709
 20
4085.394606825752
 30
0.0
 11
1767.819227660709
 21
4335.394606825752
 31
0.0
  0
LINE
  5
17A2
102
{ACAD_REACTORS
330
185B
102
}
330
1F
100
AcDbEntity
  8
40
  6
Continuous
 62
     7
100
AcDbLine
 10
1767.819227660709
 20
4135.394606825752
 30
0.0
 11
1567.819227660709
 21
4135.394606825752
 31
0.0
  0
LINE
  5
17A3
102
{ACAD_REACTORS
330
185B
102
}
330
1F
100
AcDbEntity
  8
40
  6
Continuous
 62
     7
100
AcDbLine
 10
1567.819227660709
 20
4335.394606825752
 30
0.0
 11
1640.319227660708
 21
4335.394606825752
 31
0.0
  0
LINE
  5
17A4
102
{ACAD_REACTORS
330
185B
102
}
330
1F
100
AcDbEntity
  8
40
  6
Continuous
 62
     7
100
AcDbLine
 10
1695.319227660708
 20
4335.394606825752
 30
0.0
 11
1767.819227660709
 21
4335.394606825752
 31
0.0
  0
CIRCLE
  5
17A5
330
1F
100
AcDbEntity
  8
40
  6
Continuous
 62
     7
100
AcDbCircle
 10
1582.611566612809
 20
4100.475392961853
 30
0.0
 40
10.0
  0
CIRCLE
  5
17A6
330
1F
100
AcDbEntity
  8
40
  6
Continuous
 62
     7
100
AcDbCircle
 10
1615.496398748309
 20
4111.557460934252
 30
0.0
 40
10.0
  0
CIRCLE
  5
17A7
330
1F
100
AcDbEntity
  8
40
  6
Continuous
 62
     7
100
AcDbCircle
 10
1592.007232937309
 20
4120.471298216453
 30
0.0
 40
10.0
  0
CIRCLE
  5
17A8
330
1F
100
AcDbEntity
  8
40
  6
Continuous
 62
     7
100
AcDbCircle
 10
1648.501688144408
 20
4120.471298216453
 30
0.0
 40
10.0
  0
CIRCLE
  5
17A9
330
1F
100
AcDbEntity
  8
40
  6
Continuous
 62
     7
100
AcDbCircle
 10
1671.990853955408
 20
4104.932311602953
 30
0.0
 40
10.0
  0
CIRCLE
  5
17AA
330
1F
100
AcDbEntity
  8
40
  6
Continuous
 62
     7
100
AcDbCircle
 10
1636.696876608609
 20
4100.475392961853
 30
0.0
 40
10.0
  0
CIRCLE
  5
17AB
330
1F
100
AcDbEntity
  8
40
  6
Continuous
 62
     7
100
AcDbCircle
 10
1695.480019766509
 20
4116.014379575352
 30
0.0
 40
10.0
  0
CIRCLE
  5
17AC
330
1F
100
AcDbEntity
  8
40
  6
Continuous
 62
     7
100
AcDbCircle
 10
1730.773997113409
 20
4120.471298216453
 30
0.0
 40
10.0
  0
CIRCLE
  5
17AD
330
1F
100
AcDbEntity
  8
40
  6
Continuous
 62
     7
100
AcDbCircle
 10
1723.787476000309
 20
4100.475392961853
 30
0.0
 40
10.0
  0
CIRCLE
  5
17AE
330
1F
100
AcDbEntity
  8
40
  6
Continuous
 62
     7
100
AcDbCircle
 10
1751.974474973609
 20
4107.100542293152
 30
0.0
 40
10.0
  0
CIRCLE
  5
17AF
330
1F
100
AcDbEntity
  8
40
  6
Continuous
 62
     7
100
AcDbCircle
 10
1576.592718826409
 20
4121.250255168052
 30
0.0
 40
5.0
  0
CIRCLE
  5
17B0
330
1F
100
AcDbEntity
  8
40
  6
Continuous
 62
     7
100
AcDbCircle
 10
1599.613439735209
 20
4102.565995639753
 30
0.0
 40
5.0
  0
CIRCLE
  5
17B1
330
1F
100
AcDbEntity
  8
40
  6
Continuous
 62
     7
100
AcDbCircle
 10
1615.299651889409
 20
4092.661731992953
 30
0.0
 40
5.0
  0
CIRCLE
  5
17B2
330
1F
100
AcDbEntity
  8
40
  6
Continuous
 62
     7
100
AcDbCircle
 10
1622.634160644109
 20
4129.173666085551
 30
0.0
 40
5.0
  0
CIRCLE
  5
17B3
330
1F
100
AcDbEntity
  8
40
  6
Continuous
 62
     7
100
AcDbCircle
 10
1632.056595248608
 20
4118.305744354151
 30
0.0
 40
5.0
  0
CIRCLE
  5
17B4
330
1F
100
AcDbEntity
  8
40
  6
Continuous
 62
     7
100
AcDbCircle
 10
1657.111705447109
 20
4095.659779367053
 30
0.0
 40
5.0
  0
CIRCLE
  5
17B5
330
1F
100
AcDbEntity
  8
40
  6
Continuous
 62
     7
100
AcDbCircle
 10
1665.516945406809
 20
4128.156471440752
 30
0.0
 40
5.0
  0
CIRCLE
  5
17B6
330
1F
100
AcDbEntity
  8
40
  6
Continuous
 62
     7
100
AcDbCircle
 10
1688.484129755408
 20
4093.678926637752
 30
0.0
 40
5.0
  0
CIRCLE
  5
17B7
330
1F
100
AcDbEntity
  8
40
  6
Continuous
 62
     7
100
AcDbCircle
 10
1710.434119459209
 20
4129.173666085551
 30
0.0
 40
5.0
  0
CIRCLE
  5
17B8
330
1F
100
AcDbEntity
  8
40
  6
Continuous
 62
     7
100
AcDbCircle
 10
1707.328998964509
 20
4097.587095536252
 30
0.0
 40
5.0
  0
CIRCLE
  5
17B9
330
1F
100
AcDbEntity
  8
40
  6
Continuous
 62
     7
100
AcDbCircle
 10
1742.877274972608
 20
4095.659779367053
 30
0.0
 40
5.0
  0
CIRCLE
  5
17BA
330
1F
100
AcDbEntity
  8
40
  6
Continuous
 62
     7
100
AcDbCircle
 10
1752.299709577209
 20
4125.211960626852
 30
0.0
 40
5.0
  0
CIRCLE
  5
17BB
330
1F
100
AcDbEntity
  8
40
  6
Continuous
 62
     7
100
AcDbCircle
 10
1761.722144181709
 20
4092.661731992953
 30
0.0
 40
5.0
  0
CIRCLE
  5
17BC
330
1F
100
AcDbEntity
  8
40
  6
Continuous
 62
     7
100
AcDbCircle
 10
1681.203157561008
 20
4121.250255168052
 30
0.0
 40
5.0
  0
LINE
  5
17BD
330
1F
100
AcDbEntity
  8
40
  6
Continuous
 62
     7
100
AcDbLine
 10
1640.319227660708
 20
4352.394606825752
 30
0.0
 11
1640.319227660708
 21
4335.394606825752
 31
0.0
  0
LINE
  5
17BE
330
1F
100
AcDbEntity
  8
40
  6
Continuous
 62
     7
100
AcDbLine
 10
1643.319227660709
 20
4355.394606825751
 30
0.0
 11
1667.819227660709
 21
4355.394606825751
 31
0.0
  0
ARC
  5
17BF
330
1F
100
AcDbEntity
  8
40
  6
Continuous
 62
     7
100
AcDbCircle
 10
1643.319227660709
 20
4352.394606825752
 30
0.0
 40
3.0
100
AcDbArc
 50
90.0
 51
180.0
  0
LINE
  5
17C0
330
1F
100
AcDbEntity
  8
40
  6
Continuous
 62
     7
100
AcDbLine
 10
1695.319227660708
 20
4352.394606825752
 30
0.0
 11
1695.319227660708
 21
4335.394606825752
 31
0.0
  0
LINE
  5
17C1
330
1F
100
AcDbEntity
  8
40
  6
Continuous
 62
     7
100
AcDbLine
 10
1692.319227660709
 20
4355.394606825751
 30
0.0
 11
1667.819227660709
 21
4355.394606825751
 31
0.0
  0
ARC
  5
17C2
330
1F
100
AcDbEntity
  8
40
  6
Continuous
 62
     7
100
AcDbCircle
 10
1692.319227660709
 20
4352.394606825752
 30
0.0
 40
3.0
100
AcDbArc
 50
0.0
 51
90.0
  0
LINE
  5
17C3
330
1F
100
AcDbEntity
  8
AM_7
100
AcDbLine
 10
1647.819227660709
 20
5012.364625203953
 30
0.0
 11
1647.819227660709
 21
4993.576718952152
 31
0.0
  0
LINE
  5
17C4
330
1F
100
AcDbEntity
  8
AM_7
100
AcDbLine
 10
1659.290685871508
 20
5002.016484814053
 30
0.0
 11
1635.382514180809
 21
5002.016484814053
 31
0.0
  0
CIRCLE
  5
17C5
330
1F
100
AcDbEntity
  8
1
  6
Continuous
 62
     7
100
AcDbCircle
 10
1647.819227660709
 20
5002.016484814053
 30
0.0
 40
5.65
  0
CIRCLE
  5
17C6
330
1F
100
AcDbEntity
  8
1
  6
Continuous
 62
     7
100
AcDbCircle
 10
1647.819227660709
 20
5002.016484814053
 30
0.0
 40
4.8025
  0
LINE
  5
17C7
330
1F
100
AcDbEntity
  8
1
  6
Continuous
 62
     7
100
AcDbLine
 10
1649.940227660709
 20
5004.137484814052
 30
0.0
 11
1645.698227660708
 21
4999.895484814053
 31
0.0
  0
LINE
  5
17C8
330
1F
100
AcDbEntity
  8
1
  6
Continuous
 62
     7
100
AcDbLine
 10
1645.698227660708
 20
5004.137484814052
 30
0.0
 11
1649.940227660709
 21
4999.895484814053
 31
0.0
  0
LINE
  5
17C9
330
1F
100
AcDbEntity
  8
AM_7
100
AcDbLine
 10
1647.819227660709
 20
4936.981645806453
 30
0.0
 11
1647.819227660709
 21
4918.193739554652
 31
0.0
  0
LINE
  5
17CA
330
1F
100
AcDbEntity
  8
AM_7
100
AcDbLine
 10
1659.290685871508
 20
4926.633505416452
 30
0.0
 11
1635.382514180809
 21
4926.633505416452
 31
0.0
  0
CIRCLE
  5
17CB
330
1F
100
AcDbEntity
  8
1
  6
Continuous
 62
     7
100
AcDbCircle
 10
1647.819227660709
 20
4926.633505416452
 30
0.0
 40
5.65
  0
CIRCLE
  5
17CC
330
1F
100
AcDbEntity
  8
1
  6
Continuous
 62
     7
100
AcDbCircle
 10
1647.819227660709
 20
4926.633505416452
 30
0.0
 40
4.8025
  0
LINE
  5
17CD
330
1F
100
AcDbEntity
  8
1
  6
Continuous
 62
     7
100
AcDbLine
 10
1649.940227660709
 20
4928.754505416453
 30
0.0
 11
1645.698227660708
 21
4924.512505416453
 31
0.0
  0
LINE
  5
17CE
330
1F
100
AcDbEntity
  8
1
  6
Continuous
 62
     7
100
AcDbLine
 10
1645.698227660708
 20
4928.754505416453
 30
0.0
 11
1649.940227660709
 21
4924.512505416453
 31
0.0
  0
LINE
  5
17CF
330
1F
100
AcDbEntity
  8
AM_7
100
AcDbLine
 10
1647.819227660709
 20
4860.396833399152
 30
0.0
 11
1647.819227660709
 21
4841.608927147352
 31
0.0
  0
LINE
  5
17D0
330
1F
100
AcDbEntity
  8
AM_7
100
AcDbLine
 10
1659.290685871508
 20
4850.048693009152
 30
0.0
 11
1635.382514180809
 21
4850.048693009152
 31
0.0
  0
CIRCLE
  5
17D1
330
1F
100
AcDbEntity
  8
1
  6
Continuous
 62
     7
100
AcDbCircle
 10
1647.819227660709
 20
4850.048693009152
 30
0.0
 40
5.65
  0
CIRCLE
  5
17D2
330
1F
100
AcDbEntity
  8
1
  6
Continuous
 62
     7
100
AcDbCircle
 10
1647.819227660709
 20
4850.048693009152
 30
0.0
 40
4.8025
  0
LINE
  5
17D3
330
1F
100
AcDbEntity
  8
1
  6
Continuous
 62
     7
100
AcDbLine
 10
1649.940227660709
 20
4852.169693009153
 30
0.0
 11
1645.698227660708
 21
4847.927693009153
 31
0.0
  0
LINE
  5
17D4
330
1F
100
AcDbEntity
  8
1
  6
Continuous
 62
     7
100
AcDbLine
 10
1645.698227660708
 20
4852.169693009153
 30
0.0
 11
1649.940227660709
 21
4847.927693009153
 31
0.0
  0
LINE
  5
17D5
330
1F
100
AcDbEntity
  8
AM_7
100
AcDbLine
 10
1647.819227660709
 20
4782.588668345051
 30
0.0
 11
1647.819227660709
 21
4763.800762093153
 31
0.0
  0
LINE
  5
17D6
330
1F
100
AcDbEntity
  8
AM_7
100
AcDbLine
 10
1659.290685871508
 20
4772.240527955053
 30
0.0
 11
1635.382514180809
 21
4772.240527955053
 31
0.0
  0
CIRCLE
  5
17D7
330
1F
100
AcDbEntity
  8
1
  6
Continuous
 62
     7
100
AcDbCircle
 10
1647.819227660709
 20
4772.240527955053
 30
0.0
 40
5.65
  0
CIRCLE
  5
17D8
330
1F
100
AcDbEntity
  8
1
  6
Continuous
 62
     7
100
AcDbCircle
 10
1647.819227660709
 20
4772.240527955053
 30
0.0
 40
4.8025
  0
LINE
  5
17D9
330
1F
100
AcDbEntity
  8
1
  6
Continuous
 62
     7
100
AcDbLine
 10
1649.940227660709
 20
4774.361527955052
 30
0.0
 11
1645.698227660708
 21
4770.119527955052
 31
0.0
  0
LINE
  5
17DA
330
1F
100
AcDbEntity
  8
1
  6
Continuous
 62
     7
100
AcDbLine
 10
1645.698227660708
 20
4774.361527955052
 30
0.0
 11
1649.940227660709
 21
4770.119527955052
 31
0.0
  0
LINE
  5
17DB
330
1F
100
AcDbEntity
  8
1
  6
Continuous
 62
     7
100
AcDbLine
 10
1702.819227660708
 20
4673.555114759152
 30
0.0
 11
1702.819227660708
 21
4648.251574584651
 31
0.0
  0
LINE
  5
17DC
330
1F
100
AcDbEntity
  8
1
  6
Continuous
 62
     7
100
AcDbLine
 10
1632.819227660708
 20
4648.251574584651
 30
0.0
 11
1632.819227660708
 21
4673.555114759152
 31
0.0
  0
LINE
  5
17DD
330
1F
100
AcDbEntity
  8
1
  6
HIDDEN
 62
     7
100
AcDbLine
 10
1632.819227660708
 20
5034.783721580252
 30
0.0
 11
1632.819227660708
 21
4969.249248047852
 31
0.0
  0
LINE
  5
17DE
330
1F
100
AcDbEntity
  8
1
  6
Continuous
 62
     7
100
AcDbLine
 10
1632.819227660708
 20
4959.919562824552
 30
0.0
 11
1632.819227660708
 21
4969.249248047852
 31
0.0
  0
LINE
  5
17DF
330
1F
100
AcDbEntity
  8
1
  6
HIDDEN
 62
     7
100
AcDbLine
 10
1632.819227660708
 20
4959.919562824552
 30
0.0
 11
1632.819227660708
 21
4893.347448008452
 31
0.0
  0
LINE
  5
17E0
330
1F
100
AcDbEntity
  8
1
  6
Continuous
 62
     7
100
AcDbLine
 10
1632.819227660708
 20
4883.881692943752
 30
0.0
 11
1632.819227660708
 21
4893.347448008452
 31
0.0
  0
LINE
  5
17E1
330
1F
100
AcDbEntity
  8
1
  6
HIDDEN
 62
     7
100
AcDbLine
 10
1632.819227660708
 20
4883.881692943752
 30
0.0
 11
1632.819227660708
 21
4816.215693074653
 31
0.0
  0
LINE
  5
17E2
330
1F
100
AcDbEntity
  8
1
  6
Continuous
 62
     7
100
AcDbLine
 10
1632.819227660708
 20
4806.645302269652
 30
0.0
 11
1632.819227660708
 21
4816.215693074653
 31
0.0
  0
LINE
  5
17E3
330
1F
100
AcDbEntity
  8
1
  6
HIDDEN
 62
     7
100
AcDbLine
 10
1632.819227660708
 20
4806.645302269652
 30
0.0
 11
1632.819227660708
 21
4737.835753640452
 31
0.0
  0
LINE
  5
17E4
330
1F
100
AcDbEntity
  8
1
  6
Continuous
 62
     7
100
AcDbLine
 10
1632.819227660708
 20
4724.561394789052
 30
0.0
 11
1632.819227660708
 21
4737.835753640452
 31
0.0
  0
LINE
  5
17E5
330
1F
100
AcDbEntity
  8
1
  6
HIDDEN
 62
     7
100
AcDbLine
 10
1632.819227660708
 20
4724.561394789052
 30
0.0
 11
1632.819227660708
 21
4673.555114759152
 31
0.0
  0
LINE
  5
17E6
330
1F
100
AcDbEntity
  8
1
  6
HIDDEN
 62
     7
100
AcDbLine
 10
1702.819227660708
 20
5034.783721580252
 30
0.0
 11
1702.819227660708
 21
4969.249248047852
 31
0.0
  0
LINE
  5
17E7
330
1F
100
AcDbEntity
  8
1
  6
Continuous
 62
     7
100
AcDbLine
 10
1702.819227660708
 20
4959.919562824552
 30
0.0
 11
1702.819227660708
 21
4969.249248047852
 31
0.0
  0
LINE
  5
17E8
330
1F
100
AcDbEntity
  8
1
  6
HIDDEN
 62
     7
100
AcDbLine
 10
1702.819227660708
 20
4959.919562824552
 30
0.0
 11
1702.819227660708
 21
4893.347448008452
 31
0.0
  0
LINE
  5
17E9
330
1F
100
AcDbEntity
  8
1
  6
Continuous
 62
     7
100
AcDbLine
 10
1702.819227660708
 20
4883.881692943752
 30
0.0
 11
1702.819227660708
 21
4893.347448008452
 31
0.0
  0
LINE
  5
17EA
330
1F
100
AcDbEntity
  8
1
  6
HIDDEN
 62
     7
100
AcDbLine
 10
1702.819227660708
 20
4883.881692943752
 30
0.0
 11
1702.819227660708
 21
4816.215693074653
 31
0.0
  0
LINE
  5
17EB
330
1F
100
AcDbEntity
  8
1
  6
Continuous
 62
     7
100
AcDbLine
 10
1702.819227660708
 20
4806.645302269652
 30
0.0
 11
1702.819227660708
 21
4816.215693074653
 31
0.0
  0
LINE
  5
17EC
330
1F
100
AcDbEntity
  8
1
  6
HIDDEN
 62
     7
100
AcDbLine
 10
1702.819227660708
 20
4806.645302269652
 30
0.0
 11
1702.819227660708
 21
4737.835753640452
 31
0.0
  0
LINE
  5
17ED
330
1F
100
AcDbEntity
  8
1
  6
Continuous
 62
     7
100
AcDbLine
 10
1702.819227660708
 20
4724.561394789052
 30
0.0
 11
1702.819227660708
 21
4737.835753640452
 31
0.0
  0
LINE
  5
17EE
330
1F
100
AcDbEntity
  8
1
  6
HIDDEN
 62
     7
100
AcDbLine
 10
1702.819227660708
 20
4724.561394789052
 30
0.0
 11
1702.819227660708
 21
4673.555114759152
 31
0.0
  0
LINE
  5
17EF
330
1F
100
AcDbEntity
  8
AM_7
100
AcDbLine
 10
1667.819227660709
 20
5055.420583029152
 30
0.0
 11
1667.819227660709
 21
4320.245253435352
 31
0.0
  0
DIMENSION
  5
17FE
330
1F
100
AcDbEntity
  8
1
  6
Continuous
 62
     2
100
AcDbDimension
  2
*D20
 10
1667.819227660709
 20
5134.783721580252
 30
0.0
 11
2050.319227660709
 21
5164.783721580252
 31
0.0
 70
    32
  1
<>
 71
     5
 42
764.9999999999997
  3
IGS
100
AcDbAlignedDimension
 13
2432.819227660709
 23
5055.420583029152
 33
0.0
 14
1667.819227660709
 24
5055.420583029152
 34
0.0
 50
180.0
100
AcDbRotatedDimension
1001
GENIUS_GENDTOL_13
1000

1000
JS7
1000

1040
0.0
1001
ACAD
1000
DSTYLE
1002
{
1070
    40
1040
10.0
1070
   178
1070
     2
1070
   177
1070
     3
1070
   176
1070
     3
1002
}
  0
LINE
  5
181D
330
1F
100
AcDbEntity
  8
40
  6
Continuous
 62
     7
100
AcDbLine
 10
1690.319227660708
 20
4440.394606825751
 30
0.0
 11
2410.319227660709
 21
4440.394606825751
 31
0.0
  0
LINE
  5
181E
330
1F
100
AcDbEntity
  8
40
  6
Continuous
 62
     7
100
AcDbLine
 10
1645.319227660708
 20
4430.394606825751
 30
0.0
 11
925.3192276607089
 21
4430.394606825752
 31
0.0
  0
HATCH
  5
185B
330
1F
100
AcDbEntity
  8
AM_8
100
AcDbHatch
 10
0.0
 20
0.0
 30
0.0
210
0.0
220
0.0
230
1.0
  2
PLAST
 70
     0
 71
     1
 91
        3
 92
        7
 72
     0
 73
     1
 93
        6
 10
1002.819227660709
 20
4335.394606825753
 10
930.319227660709
 20
4335.394606825752
 10
875.3192276607089
 20
4335.394606825752
 10
802.8192276607088
 20
4335.394606825752
 10
802.8192276607088
 20
4135.394606825752
 10
1002.819227660709
 20
4135.394606825752
 97
        6
330
F78
330
F94
330
F7A
330
F90
330
F8D
330
F8E
 92
        7
 72
     0
 73
     1
 93
        6
 10
1767.819227660709
 20
4335.394606825751
 10
1695.319227660708
 20
4335.394606825752
 10
1640.319227660708
 20
4335.394606825752
 10
1567.819227660708
 20
4335.394606825752
 10
1567.819227660708
 20
4135.394606825752
 10
1767.819227660709
 20
4135.394606825752
 97
        6
330
17A4
330
179E
330
17A3
330
179F
330
17A2
330
17A1
 92
        7
 72
     0
 73
     1
 93
        6
 10
2532.81922766071
 20
4335.394606825753
 10
2460.319227660709
 20
4335.394606825752
 10
2405.319227660709
 20
4335.394606825752
 10
2332.819227660709
 20
4335.394606825752
 10
2332.819227660708
 20
4135.394606825752
 10
2532.819227660709
 20
4135.394606825752
 97
        6
330
F7C
330
F93
330
F7E
330
F8C
330
F89
330
F8A
 75
     0
 76
     1
 52
45.0
 41
10.0
 77
     0
 78
     3
 53
45.0
 43
0.0
 44
0.0
 45
-44.90128060534575
 46
44.90128060534576
 79
     0
 53
45.0
 43
-5.61266007566822
 44
5.612660075668221
 45
-44.90128060534575
 46
44.90128060534576
 79
     0
 53
45.0
 43
-11.22532015133644
 44
11.22532015133644
 45
-44.90128060534575
 46
44.90128060534576
 79
     0
 47
2.31571576458863
 98
        3
 10
921.8039721333953
 20
4224.801619948972
 10
1716.630061780535
 20
4197.013034793821
 10
2411.81323668511
 20
4245.643060809338
  0
MTEXT
  5
1861
330
1F
100
AcDbEntity
  8
1
100
AcDbMText
 10
3716.852891897223
 20
5606.927277154685
 30
0.0
 40
40.0
 41
290.1481018707418
 71
     1
 72
     5
  1
重量：51kg
 73
     1
 44
1.0
  0
ENDSEC
  0
SECTION
  2
OBJECTS
  0
DICTIONARY
  5
C
330
0
100
AcDbDictionary
281
     1
  3
ACAD_COLOR
350
985
  3
ACAD_GROUP
350
D
  3
ACAD_LAYOUT
350
1A
  3
ACAD_MATERIAL
350
984
  3
ACAD_MLINESTYLE
350
17
  3
ACAD_PLOTSETTINGS
350
19
  3
ACAD_PLOTSTYLENAME
350
E
  3
AcDbVariableDictionary
350
43
  3
AcmDictionary
350
55
  3
AMG
350
2B
  3
AMGSNAPSETTINGS
350
A8
  3
ASE_INDEX_DICTIONARY
350
16EB
  0
DICTIONARY
  5
164D
330
2
100
AcDbDictionary
280
     1
281
     1
  3
ACAD_LAYERSTATES
360
164E
  3
AMLAYER_GROUPCOLORS
360
1828
  0
DICTIONARY
  5
B1
330
1F
100
AcDbDictionary
280
     1
281
     1
  3
ACAD_INDEX
360
1863
  0
DICTIONARY
  5
985
102
{ACAD_REACTORS
330
C
102
}
330
C
100
AcDbDictionary
281
     1
  0
DICTIONARY
  5
D
102
{ACAD_REACTORS
330
C
102
}
330
C
100
AcDbDictionary
281
     1
  0
DICTIONARY
  5
1A
102
{ACAD_REACTORS
330
C
102
}
330
C
100
AcDbDictionary
281
     1
  3
Model
350
22
  3
ﾚｲｱｳﾄ1
350
1E
  3
ﾚｲｱｳﾄ2
350
26
  0
DICTIONARY
  5
984
102
{ACAD_REACTORS
330
C
102
}
330
C
100
AcDbDictionary
281
     1
  0
DICTIONARY
  5
17
102
{ACAD_REACTORS
330
C
102
}
330
C
100
AcDbDictionary
281
     1
  3
Standard
350
18
  0
DICTIONARY
  5
19
102
{ACAD_REACTORS
330
C
102
}
330
C
100
AcDbDictionary
281
     1
  0
ACDBDICTIONARYWDFLT
  5
E
102
{ACAD_REACTORS
330
C
102
}
330
C
100
AcDbDictionary
281
     1
  3
Normal
350
F
100
AcDbDictionaryWithDefault
340
F
  0
DICTIONARY
  5
43
102
{ACAD_REACTORS
330
C
102
}
330
C
100
AcDbDictionary
281
     1
  3
DIMASSOC
350
18A6
  3
INDEXCTL
350
44
  3
PROJECTNAME
350
18A7
  3
SORTENTS
350
774
  0
DICTIONARY
  5
55
102
{ACAD_REACTORS
330
C
102
}
330
C
100
AcDbDictionary
281
     1
  3
AcmBOM
350
3D1
  3
AcmStdDictionary
350
59
  3
AMDTSECTSYM_ARROWCOLOR
350
98E
  0
DICTIONARY
  5
2B
102
{ACAD_REACTORS
330
C
102
}
330
C
100
AcDbDictionary
281
     1
  0
DICTIONARY
  5
A8
102
{ACAD_REACTORS
330
C
102
}
330
C
100
AcDbDictionary
281
     1
  0
DICTIONARY
  5
16EB
102
{ACAD_REACTORS
330
C
102
}
330
C
100
AcDbDictionary
281
     1
  3
ASEBlockHierarchyIndexRecord
350
16EC
1001
DCO15
1040
1619190386.953
  0
DICTIONARY
  5
164E
102
{ACAD_REACTORS
330
164D
102
}
330
164D
100
AcDbDictionary
281
     1
  0
DICTIONARY
  5
1828
102
{ACAD_REACTORS
330
164D
102
}
330
164D
100
AcDbDictionary
280
     1
281
     1
  0
DICTIONARY
  5
1863
102
{ACAD_REACTORS
330
B1
102
}
330
B1
100
AcDbDictionary
281
     1
  3
*A1
350
1864
  0
LAYOUT
  5
22
102
{ACAD_REACTORS
330
1A
102
}
330
1A
100
AcDbPlotSettings
  1

  2
\\PC01\CASIO SPEEDIA N4
  4
A3
  6
AM_VIEW1
 40
5.873749732971191
 41
5.958403587341308
 42
5.958404541015625
 43
5.873748779296875
 44
296.9259948730469
 45
419.9466552734374
 46
9.609999999999999
 47
0.0
 48
0.0
 49
0.0
140
0.0
141
0.0
142
1.0
143
3.458210785390119
 70
 11956
 72
     1
 73
     1
 74
     0
  7
monochrome.ctb
 75
     0
147
0.2891668732931762
 76
     0
 77
     2
 78
   300
148
295.8822165187813
149
247.9752015480118
100
AcDbLayout
  1
Model
 70
     1
 71
     0
 10
0.0
 20
0.0
 11
12.0
 21
9.0
 12
0.0
 22
0.0
 32
0.0
 14
0.0
 24
0.0
 34
0.0
 15
0.0
 25
0.0
 35
0.0
146
0.0
 13
0.0
 23
0.0
 33
0.0
 16
1.0
 26
0.0
 36
0.0
 17
0.0
 27
1.0
 37
0.0
 76
     0
330
1F
  0
LAYOUT
  5
1E
102
{ACAD_REACTORS
330
1A
102
}
330
1A
100
AcDbPlotSettings
  1

  2
MUTOH RL-803C(ﾌﾟﾛｯﾀﾓｰﾄﾞ)
  4

  6

 40
0.0
 41
0.0
 42
0.0
 43
0.0
 44
0.0
 45
0.0
 46
0.0
 47
0.0
 48
0.0
 49
0.0
140
0.0
141
0.0
142
1.0
143
1.0
 70
   688
 72
     0
 73
     0
 74
     5
  7
monochrome.ctb
 75
    16
147
1.0
 76
     0
 77
     2
 78
   300
148
0.0
149
0.0
100
AcDbLayout
  1
ﾚｲｱｳﾄ1
 70
     1
 71
     1
 10
0.0
 20
0.0
 11
420.0
 21
297.0
 12
0.0
 22
0.0
 32
0.0
 14
1.000000000000000E+20
 24
1.000000000000000E+20
 34
1.000000000000000E+20
 15
-1.000000000000000E+20
 25
-1.000000000000000E+20
 35
-1.000000000000000E+20
146
0.0
 13
0.0
 23
0.0
 33
0.0
 16
1.0
 26
0.0
 36
0.0
 17
0.0
 27
1.0
 37
0.0
 76
     0
330
1B
  0
LAYOUT
  5
26
102
{ACAD_REACTORS
330
1A
102
}
330
1A
100
AcDbPlotSettings
  1

  2
MUTOH RL-803C(ﾌﾟﾛｯﾀﾓｰﾄﾞ)
  4

  6

 40
0.0
 41
0.0
 42
0.0
 43
0.0
 44
0.0
 45
0.0
 46
0.0
 47
0.0
 48
0.0
 49
0.0
140
0.0
141
0.0
142
1.0
143
1.0
 70
   688
 72
     0
 73
     0
 74
     5
  7
monochrome.ctb
 75
    16
147
1.0
 76
     0
 77
     2
 78
   300
148
0.0
149
0.0
100
AcDbLayout
  1
ﾚｲｱｳﾄ2
 70
     1
 71
     2
 10
0.0
 20
0.0
 11
12.0
 21
9.0
 12
0.0
 22
0.0
 32
0.0
 14
0.0
 24
0.0
 34
0.0
 15
0.0
 25
0.0
 35
0.0
146
0.0
 13
0.0
 23
0.0
 33
0.0
 16
1.0
 26
0.0
 36
0.0
 17
0.0
 27
1.0
 37
0.0
 76
     0
330
23
  0
MLINESTYLE
  5
18
102
{ACAD_REACTORS
330
17
102
}
330
17
100
AcDbMlineStyle
  2
STANDARD
 70
     0
  3

 62
   256
 51
90.0
 52
90.0
 71
     2
 49
0.5
 62
   256
  6
BYLAYER
 49
-0.5
 62
   256
  6
BYLAYER
  0
ACDBPLACEHOLDER
  5
F
102
{ACAD_REACTORS
330
E
102
}
330
E
  0
DICTIONARYVAR
  5
18A6
102
{ACAD_REACTORS
330
43
102
}
330
43
100
DictionaryVariables
280
     0
  1
1
  0
DICTIONARYVAR
  5
44
102
{ACAD_REACTORS
330
43
102
}
330
43
100
DictionaryVariables
280
     0
  1
1
  0
DICTIONARYVAR
  5
18A7
102
{ACAD_REACTORS
330
43
102
}
330
43
100
DictionaryVariables
280
     0
  1

  0
DICTIONARYVAR
  5
774
102
{ACAD_REACTORS
330
43
102
}
330
43
100
DictionaryVariables
280
     0
  1
103
  0
DICTIONARY
  5
3D1
102
{ACAD_REACTORS
330
55
102
}
330
55
100
AcDbDictionary
281
     1
  0
DICTIONARY
  5
59
102
{ACAD_REACTORS
330
55
102
}
330
55
100
AcDbDictionary
281
     1
  0
XRECORD
  5
98E
102
{ACAD_REACTORS
330
55
102
}
330
55
100
AcDbXrecord
280
     1
 90
-1023410169
  0
XRECORD
  5
16EC
102
{ACAD_REACTORS
330
16EB
102
}
330
16EB
100
AcDbXrecord
280
     1
330
119B
330
119C
330
1779
330
177A
330
1770
330
1771
330
1767
330
1768
330
13C2
330
13C3
330
175E
330
175F
330
1755
330
1756
330
17F8
330
17F9
330
139E
330
139F
330
1743
330
1744
330
173A
330
173B
330
150E
330
150F
330
14E0
330
14E1
330
14D5
330
14D6
330
14E9
330
14EA
330
1815
330
1816
  0
LAYER_INDEX
  5
1864
102
{ACAD_REACTORS
330
1863
102
}
330
1863
100
AcDbIndex
 40
2454719.480398761
100
AcDbLayerIndex
  8
0
360
1865
 90
       23
  8
RAHM2
360
1866
 90
        0
  8
AM_BOR
360
1867
 90
        0
  8
RAHM3
360
1868
 90
        0
  8
1
360
1869
 90
      197
  8
DEFPOINTS
360
186A
 90
        0
  8
7A
360
186B
 90
        0
  8
AM_5
360
186C
 90
        5
  8
40
360
186D
 90
      318
  8
AM_7
360
186E
 90
       32
  8
AM_8
360
186F
 90
        2
  8
AM_12
360
1870
 90
        5
  8
AM_PAREF
360
1871
 90
        0
  8
AM_6
360
1872
 90
        2
  8
TEXT
360
1873
 90
        4
  0
IDBUFFER
  5
1865
330
0
100
AcDbIdBuffer
330
119B
330
119C
330
11A5
330
166B
330
166C
330
166D
330
166F
330
1670
330
1671
330
1672
330
1673
330
1674
330
1675
330
1676
330
1677
330
1678
330
167A
330
167B
330
167F
330
1680
330
1681
330
1682
330
1683
  0
IDBUFFER
  5
1866
330
0
100
AcDbIdBuffer
  0
IDBUFFER
  5
1867
330
0
100
AcDbIdBuffer
  0
IDBUFFER
  5
1868
330
0
100
AcDbIdBuffer
  0
IDBUFFER
  5
1869
330
0
100
AcDbIdBuffer
330
DF8
330
DF9
330
DFA
330
DFB
330
DFC
330
DFD
330
DFE
330
DFF
330
E00
330
E01
330
E02
330
E03
330
E04
330
E05
330
E06
330
E07
330
E08
330
E09
330
E0A
330
E0B
330
E0C
330
E0D
330
E0E
330
E0F
330
E10
330
E11
330
E12
330
E13
330
E14
330
E15
330
E16
330
E17
330
E1B
330
E1C
330
E1D
330
E1E
330
E1F
330
E20
330
E21
330
E22
330
E26
330
E27
330
E28
330
E29
330
E2A
330
E2B
330
E2C
330
E2D
330
E2E
330
E2F
330
E30
330
E31
330
E32
330
E33
330
E34
330
E35
330
E36
330
E37
330
E38
330
E39
330
E3A
330
E3B
330
E3C
330
E3D
330
E3E
330
E3F
330
E40
330
E41
330
E42
330
E43
330
E44
330
E45
330
E46
330
E47
330
E48
330
E49
330
E4A
330
E4B
330
E4C
330
E4D
330
E4E
330
E4F
330
E50
330
E51
330
E52
330
E55
330
E56
330
E57
330
E58
330
E5B
330
E5C
330
E5D
330
E5E
330
E61
330
E62
330
E63
330
E64
330
E67
330
E68
330
E69
330
E6A
330
E6D
330
E6E
330
E6F
330
E70
330
E73
330
E74
330
E75
330
E76
330
E79
330
E7A
330
E7B
330
E7C
330
E7F
330
E80
330
E81
330
E82
330
E83
330
E84
330
E85
330
E86
330
E87
330
E88
330
E89
330
E8A
330
E8B
330
E8C
330
E8D
330
E8E
330
E8F
330
E90
330
E91
330
E92
330
E93
330
E94
330
E95
330
E96
330
E97
330
E98
330
E99
330
E9A
330
E9B
330
E9C
330
E9D
330
E9E
330
E9F
330
EA0
330
EA1
330
EA2
330
EA3
330
EA4
330
EA5
330
EA6
330
EA7
330
EA8
330
EA9
330
EAA
330
EAB
330
1629
330
17C5
330
17C6
330
17C7
330
17C8
330
17CB
330
17CC
330
17CD
330
17CE
330
17D1
330
17D2
330
17D3
330
17D4
330
17D7
330
17D8
330
17D9
330
17DA
330
17DB
330
17DC
330
17DD
330
17DE
330
17DF
330
17E0
330
17E1
330
17E2
330
17E3
330
17E4
330
17E5
330
17E6
330
17E7
330
17E8
330
17E9
330
17EA
330
17EB
330
17EC
330
17ED
330
17EE
330
17FE
330
1861
  0
IDBUFFER
  5
186A
330
0
100
AcDbIdBuffer
  0
IDBUFFER
  5
186B
330
0
100
AcDbIdBuffer
  0
IDBUFFER
  5
186C
330
0
100
AcDbIdBuffer
330
1605
330
160C
330
1613
330
161A
330
161F
  0
IDBUFFER
  5
186D
330
0
100
AcDbIdBuffer
330
EAC
330
EAD
330
EB0
330
EB1
330
EB4
330
EB5
330
EB6
330
EB7
330
EB8
330
EB9
330
EBA
330
EBB
330
EBC
330
EBD
330
EBE
330
EBF
330
EC0
330
EC1
330
EC2
330
EC3
330
EC4
330
EC5
330
EC6
330
EC7
330
EC8
330
EC9
330
ECA
330
ECB
330
ECC
330
ECD
330
ECE
330
ECF
330
ED0
330
ED1
330
ED2
330
ED3
330
ED4
330
ED5
330
ED6
330
ED7
330
ED8
330
EDA
330
EDB
330
EDC
330
EDD
330
EDE
330
EDF
330
EE0
330
EE1
330
EE2
330
EE3
330
EE4
330
EE5
330
EE6
330
EE7
330
EE8
330
EE9
330
EEA
330
EEB
330
EEC
330
EED
330
EEE
330
EEF
330
EF0
330
EF1
330
EF2
330
EF3
330
EF4
330
EF5
330
EF6
330
EF7
330
EF8
330
EF9
330
EFA
330
EFB
330
EFC
330
EFD
330
EFE
330
EFF
330
F0F
330
F10
330
F11
330
F12
330
F13
330
F14
330
F15
330
F16
330
F17
330
F18
330
F19
330
F1A
330
F1B
330
F1C
330
F1D
330
F1E
330
F1F
330
F20
330
F21
330
F22
330
F23
330
F24
330
F25
330
F26
330
F27
330
F28
330
F29
330
F2A
330
F2B
330
F2C
330
F2D
330
F2E
330
F2F
330
F30
330
F31
330
F32
330
F33
330
F34
330
F35
330
F36
330
F37
330
F38
330
F39
330
F3A
330
F3B
330
F3C
330
F3D
330
F3E
330
F4B
330
F4C
330
F4D
330
F4E
330
F4F
330
F50
330
F51
330
F52
330
F53
330
F54
330
F55
330
F56
330
F57
330
F58
330
F59
330
F5A
330
F5B
330
F5C
330
F5D
330
F5E
330
F5F
330
F60
330
F61
330
F62
330
F6F
330
F70
330
F74
330
F75
330
F76
330
F77
330
F78
330
F79
330
F7A
330
F7B
330
F7C
330
F7D
330
F7E
330
F7F
330
F80
330
F81
330
F82
330
F83
330
F85
330
F86
330
F87
330
F88
330
F89
330
F8A
330
F8B
330
F8C
330
F8D
330
F8E
330
F8F
330
F90
330
F91
330
F92
330
F93
330
F94
330
F95
330
F96
330
F97
330
F98
330
F99
330
F9A
330
F9B
330
F9C
330
F9D
330
F9E
330
F9F
330
FA0
330
FA1
330
FA2
330
FA3
330
FA4
330
FA5
330
FA6
330
FA7
330
FA8
330
FA9
330
FAA
330
FAB
330
FAC
330
FAD
330
FAE
330
FAF
330
FB0
330
FB1
330
FB2
330
FB3
330
FB4
330
FB5
330
FB6
330
FB7
330
FB8
330
FB9
330
FBA
330
FBB
330
FBC
330
FBD
330
FBE
330
FBF
330
FC0
330
FC1
330
FC2
330
FC3
330
FC4
330
FC5
330
FC6
330
FC7
330
FC8
330
FC9
330
FCA
330
FCB
330
FCC
330
FCD
330
FCE
330
FCF
330
FD0
330
FD1
330
FD2
330
FD3
330
FD4
330
FD5
330
FD6
330
FD7
330
FD8
330
FD9
330
FDA
330
FDB
330
FDC
330
FDD
330
FDE
330
FDF
330
FE0
330
FE1
330
FE2
330
FE3
330
FE4
330
FE5
330
FE6
330
FE7
330
FE8
330
FE9
330
FEA
330
FEB
330
FEC
330
1798
330
1799
330
179A
330
179B
330
179C
330
179D
330
179E
330
179F
330
17A0
330
17A1
330
17A2
330
17A3
330
17A4
330
17A5
330
17A6
330
17A7
330
17A8
330
17A9
330
17AA
330
17AB
330
17AC
330
17AD
330
17AE
330
17AF
330
17B0
330
17B1
330
17B2
330
17B3
330
17B4
330
17B5
330
17B6
330
17B7
330
17B8
330
17B9
330
17BA
330
17BB
330
17BC
330
17BD
330
17BE
330
17BF
330
17C0
330
17C1
330
17C2
330
181D
330
181E
  0
IDBUFFER
  5
186E
330
0
100
AcDbIdBuffer
330
E23
330
E24
330
E53
330
E54
330
E59
330
E5A
330
E5F
330
E60
330
E65
330
E66
330
E6B
330
E6C
330
E71
330
E72
330
E77
330
E78
330
E7D
330
E7E
330
EB2
330
ED9
330
F72
330
F73
330
F84
330
17C3
330
17C4
330
17C9
330
17CA
330
17CF
330
17D0
330
17D5
330
17D6
330
17EF
  0
IDBUFFER
  5
186F
330
0
100
AcDbIdBuffer
330
1531
330
185B
  0
IDBUFFER
  5
1870
330
0
100
AcDbIdBuffer
330
15FE
330
1607
330
160E
330
1615
330
161C
  0
IDBUFFER
  5
1871
330
0
100
AcDbIdBuffer
  0
IDBUFFER
  5
1872
330
0
100
AcDbIdBuffer
330
1624
330
1626
  0
IDBUFFER
  5
1873
330
0
100
AcDbIdBuffer
330
1668
330
166A
330
166E
330
1679
  0
ENDSEC
  0
EOF
