  0
SECTION
  2
HEADER
  9
$ACADVER
  1
AC1018
  9
$ACADMAINTVER
 70
     2
  9
$DWGCODEPAGE
  3
ANSI_932
  9
$TITLE
  1

  9
$SUBJECT
  1

  9
$AUTHOR
  1

  9
$KEYWORDS
  1

  9
$COMMENTS
  1

  9
$LASTSAVEDBY
  1

  9
$REVISIONNUMBER
  1

  9
$CUSTOMPROPERTYTAG
  1
AmdtFileType
  9
$CUSTOMPROPERTY
  1
84
  9
$INSBASE
 10
0.0
 20
0.0
 30
0.0
  9
$EXTMIN
 10
155.6482664838559
 20
3718.607540556322
 30
0.0
  9
$EXTMAX
 10
4355.648266483856
 20
6688.607540556322
 30
520.0
  9
$LIMMIN
 10
405.6482664838559
 20
3818.607540556321
  9
$LIMMAX
 10
4255.648266483856
 20
6588.607540556322
  9
$ORTHOMODE
 70
     0
  9
$REGENMODE
 70
     1
  9
$FILLMODE
 70
     1
  9
$QTEXTMODE
 70
     0
  9
$MIRRTEXT
 70
     1
  9
$LTSCALE
 40
10.0
  9
$ATTMODE
 70
     1
  9
$TEXTSIZE
 40
2.5
  9
$TRACEWID
 40
1.0
  9
$TEXTSTYLE
  7
STANDARD
  9
$CLAYER
  8
40
  9
$CELTYPE
  6
ByLayer
  9
$CECOLOR
 62
   256
  9
$CELTSCALE
 40
1.0
  9
$DISPSILH
 70
     0
  9
$DIMSCALE
 40
1.0
  9
$DIMASZ
 40
2.5
  9
$DIMEXO
 40
1.0
  9
$DIMDLI
 40
10.0
  9
$DIMRND
 40
0.0
  9
$DIMDLE
 40
0.0
  9
$DIMEXE
 40
1.0
  9
$DIMTP
 40
0.1
  9
$DIMTM
 40
0.1
  9
$DIMTXT
 40
3.0
  9
$DIMCEN
 40
0.0
  9
$DIMTSZ
 40
0.0
  9
$DIMTOL
 70
     0
  9
$DIMLIM
 70
     0
  9
$DIMTIH
 70
     0
  9
$DIMTOH
 70
     0
  9
$DIMSE1
 70
     0
  9
$DIMSE2
 70
     0
  9
$DIMTAD
 70
     3
  9
$DIMZIN
 70
     8
  9
$DIMBLK
  1
Open30
  9
$DIMASO
 70
     1
  9
$DIMSHO
 70
     1
  9
$DIMPOST
  1

  9
$DIMAPOST
  1
"
  9
$DIMALT
 70
     0
  9
$DIMALTD
 70
     2
  9
$DIMALTF
 40
0.0393701
  9
$DIMLFAC
 40
1.0
  9
$DIMTOFL
 70
     1
  9
$DIMTVP
 40
0.0
  9
$DIMTIX
 70
     0
  9
$DIMSOXD
 70
     0
  9
$DIMSAH
 70
     0
  9
$DIMBLK1
  1

  9
$DIMBLK2
  1

  9
$DIMSTYLE
  2
IGS
  9
$DIMCLRD
 70
   256
  9
$DIMCLRE
 70
   256
  9
$DIMCLRT
 70
     2
  9
$DIMTFAC
 40
0.71
  9
$DIMGAP
 40
1.5
  9
$DIMJUST
 70
     0
  9
$DIMSD1
 70
     0
  9
$DIMSD2
 70
     0
  9
$DIMTOLJ
 70
     0
  9
$DIMTZIN
 70
     8
  9
$DIMALTZ
 70
     0
  9
$DIMALTTZ
 70
     0
  9
$DIMUPT
 70
     0
  9
$DIMDEC
 70
     2
  9
$DIMTDEC
 70
     2
  9
$DIMALTU
 70
     2
  9
$DIMALTTD
 70
     2
  9
$DIMTXSTY
  7
STANDARD
  9
$DIMAUNIT
 70
     0
  9
$DIMADEC
 70
     0
  9
$DIMALTRND
 40
0.0
  9
$DIMAZIN
 70
     2
  9
$DIMDSEP
 70
    46
  9
$DIMATFIT
 70
     3
  9
$DIMFRAC
 70
     0
  9
$DIMLDRBLK
  1
Open30
  9
$DIMLUNIT
 70
     2
  9
$DIMLWD
 70
    -1
  9
$DIMLWE
 70
    -1
  9
$DIMTMOVE
 70
     0
  9
$LUNITS
 70
     2
  9
$LUPREC
 70
     2
  9
$SKETCHINC
 40
1.0
  9
$FILLETRAD
 40
0.0
  9
$AUNITS
 70
     0
  9
$AUPREC
 70
     0
  9
$MENU
  1
.
  9
$ELEVATION
 40
0.0
  9
$PELEVATION
 40
0.0
  9
$THICKNESS
 40
0.0
  9
$LIMCHECK
 70
     0
  9
$CHAMFERA
 40
25.0
  9
$CHAMFERB
 40
25.0
  9
$CHAMFERC
 40
20.0
  9
$CHAMFERD
 40
0.0
  9
$SKPOLY
 70
     0
  9
$TDCREATE
 40
2454006.357390220
  9
$TDUCREATE
 40
2454005.982390220
  9
$TDUPDATE
 40
2454719.480508716
  9
$TDUUPDATE
 40
2454719.105508715
  9
$TDINDWG
 40
0.0319104514
  9
$TDUSRTIMER
 40
0.0319104514
  9
$USRTIMER
 70
     1
  9
$ANGBASE
 50
0.0
  9
$ANGDIR
 70
     0
  9
$PDMODE
 70
     0
  9
$PDSIZE
 40
0.0
  9
$PLINEWID
 40
0.0
  9
$SPLFRAME
 70
     0
  9
$SPLINETYPE
 70
     6
  9
$SPLINESEGS
 70
     8
  9
$HANDSEED
  5
283B
  9
$SURFTAB1
 70
     6
  9
$SURFTAB2
 70
     6
  9
$SURFTYPE
 70
     6
  9
$SURFU
 70
     6
  9
$SURFV
 70
     6
  9
$UCSBASE
  2

  9
$UCSNAME
  2

  9
$UCSORG
 10
0.0
 20
0.0
 30
0.0
  9
$UCSXDIR
 10
1.0
 20
0.0
 30
0.0
  9
$UCSYDIR
 10
0.0
 20
1.0
 30
0.0
  9
$UCSORTHOREF
  2

  9
$UCSORTHOVIEW
 70
     0
  9
$UCSORGTOP
 10
0.0
 20
0.0
 30
0.0
  9
$UCSORGBOTTOM
 10
0.0
 20
0.0
 30
0.0
  9
$UCSORGLEFT
 10
0.0
 20
0.0
 30
0.0
  9
$UCSORGRIGHT
 10
0.0
 20
0.0
 30
0.0
  9
$UCSORGFRONT
 10
0.0
 20
0.0
 30
0.0
  9
$UCSORGBACK
 10
0.0
 20
0.0
 30
0.0
  9
$PUCSBASE
  2

  9
$PUCSNAME
  2

  9
$PUCSORG
 10
0.0
 20
0.0
 30
0.0
  9
$PUCSXDIR
 10
1.0
 20
0.0
 30
0.0
  9
$PUCSYDIR
 10
0.0
 20
1.0
 30
0.0
  9
$PUCSORTHOREF
  2

  9
$PUCSORTHOVIEW
 70
     0
  9
$PUCSORGTOP
 10
0.0
 20
0.0
 30
0.0
  9
$PUCSORGBOTTOM
 10
0.0
 20
0.0
 30
0.0
  9
$PUCSORGLEFT
 10
0.0
 20
0.0
 30
0.0
  9
$PUCSORGRIGHT
 10
0.0
 20
0.0
 30
0.0
  9
$PUCSORGFRONT
 10
0.0
 20
0.0
 30
0.0
  9
$PUCSORGBACK
 10
0.0
 20
0.0
 30
0.0
  9
$USERI1
 70
     0
  9
$USERI2
 70
     0
  9
$USERI3
 70
     0
  9
$USERI4
 70
     0
  9
$USERI5
 70
     0
  9
$USERR1
 40
0.0
  9
$USERR2
 40
0.0
  9
$USERR3
 40
0.0
  9
$USERR4
 40
0.0
  9
$USERR5
 40
0.0
  9
$WORLDVIEW
 70
     1
  9
$SHADEDGE
 70
     3
  9
$SHADEDIF
 70
    70
  9
$TILEMODE
 70
     1
  9
$MAXACTVP
 70
    64
  9
$PINSBASE
 10
0.0
 20
0.0
 30
0.0
  9
$PLIMCHECK
 70
     0
  9
$PEXTMIN
 10
1.000000000000000E+20
 20
1.000000000000000E+20
 30
1.000000000000000E+20
  9
$PEXTMAX
 10
-1.000000000000000E+20
 20
-1.000000000000000E+20
 30
-1.000000000000000E+20
  9
$PLIMMIN
 10
0.0
 20
0.0
  9
$PLIMMAX
 10
420.0
 20
297.0
  9
$UNITMODE
 70
     0
  9
$VISRETAIN
 70
     1
  9
$PLINEGEN
 70
     0
  9
$PSLTSCALE
 70
     1
  9
$TREEDEPTH
 70
  3020
  9
$CMLSTYLE
  2
Standard
  9
$CMLJUST
 70
     0
  9
$CMLSCALE
 40
20.0
  9
$PROXYGRAPHICS
 70
     1
  9
$MEASUREMENT
 70
     1
  9
$CELWEIGHT
370
    -1
  9
$ENDCAPS
280
     0
  9
$JOINSTYLE
280
     0
  9
$LWDISPLAY
290
     0
  9
$INSUNITS
 70
     4
  9
$HYPERLINKBASE
  1

  9
$STYLESHEET
  1
KY-monochrome.ctb
  9
$XEDIT
290
     1
  9
$CEPSNTYPE
380
     0
  9
$PSTYLEMODE
290
     1
  9
$FINGERPRINTGUID
  2
{A179640A-E7AE-11D4-BDB4-00B0D0A1239A}
  9
$VERSIONGUID
  2
{AA66A0C5-B37E-4343-82A4-696ECDAB20A5}
  9
$EXTNAMES
290
     1
  9
$PSVPSCALE
 40
0.0
  9
$OLESTARTUP
290
     0
  9
$SORTENTS
280
   103
  9
$INDEXCTL
280
     1
  9
$HIDETEXT
280
     0
  9
$XCLIPFRAME
290
     0
  9
$HALOGAP
280
     0
  9
$OBSCOLOR
 70
   257
  9
$OBSLTYPE
280
     0
  9
$INTERSECTIONDISPLAY
280
     0
  9
$INTERSECTIONCOLOR
 70
   257
  9
$DIMASSOC
280
     1
  9
$PROJECTNAME
  1

  0
ENDSEC
  0
SECTION
  2
CLASSES
  0
CLASS
  1
ACDBDICTIONARYWDFLT
  2
AcDbDictionaryWithDefault
  3
ObjectDBX Classes
 90
        0
 91
        1
280
     0
281
     0
  0
CLASS
  1
ACDBPLACEHOLDER
  2
AcDbPlaceHolder
  3
ObjectDBX Classes
 90
        0
 91
        1
280
     0
281
     0
  0
CLASS
  1
LAYOUT
  2
AcDbLayout
  3
ObjectDBX Classes
 90
        0
 91
        3
280
     0
281
     0
  0
CLASS
  1
AMGSETTINGSOBJ
  2
AmgSettingsObj
  3
"AcadM|Product Description: AutoCAD Mechanical 2000|Company: Autodesk"
 90
        0
 91
       12
280
     0
281
     0
  0
CLASS
  1
AMGOBJPROPCFG
  2
AmgObjPropCfg
  3
"AmgLay|Product Description: AutoCAD Mechanical 2000|Company: Autodesk"
 90
        1
 91
        3
280
     0
281
     0
  0
CLASS
  1
ACME_DOCUMENT
  2
AcMeDbDoc
  3
AcMeServices
 90
        0
 91
        2
280
     0
281
     0
  0
CLASS
  1
ACMESCOPE
  2
AcMeScope
  3
AcMeServices
 90
        0
 91
        3
280
     0
281
     0
  0
CLASS
  1
ACMECOMMANDHISTORY
  2
AcMeCommandHistory
  3
AcMeServices
 90
        0
 91
        3
280
     0
281
     0
  0
CLASS
  1
DICTIONARYVAR
  2
AcDbDictionaryVar
  3
ObjectDBX Classes
 90
        0
 91
        4
280
     0
281
     0
  0
CLASS
  1
ACIMSYSVARMAN
  2
AcImSysVarManager
  3
AcMeServices
 90
        0
 91
       15
280
     0
281
     0
  0
CLASS
  1
ACIMREALSYSVAR
  2
AcImRealSysVar
  3
AcMeServices
 90
        0
 91
        9
280
     0
281
     0
  0
CLASS
  1
ACIMINTSYSVAR
  2
AcImIntSysVar
  3
AcMeServices
 90
        0
 91
       78
280
     0
281
     0
  0
CLASS
  1
ACMEDRAWINGMAN
  2
AcMeDrawingMan
  3
AcMeServices
 90
        0
 91
        3
280
     0
281
     0
  0
CLASS
  1
ACMEVIEW
  2
AcMeView
  3
AcMeServices
 90
        0
 91
        3
280
     0
281
     0
  0
CLASS
  1
ACDBENTITYCACHE
  2
AcMeEntityCache
  3
AcMeServices
 90
        0
 91
        1
280
     0
281
     0
  0
CLASS
  1
GSMANAGER
  2
AcMeGSManager
  3
AcMeServices
 90
        0
 91
        1
280
     0
281
     0
  0
CLASS
  1
AMDTINTERNALREACTOR
  2
AmdtInternalReactor
  3
AcMeServices
 90
        0
 91
       12
280
     0
281
     0
  0
CLASS
  1
ACMESTATEMGR
  2
AcMeStateMgr
  3
AcMeServices
 90
        0
 91
        3
280
     0
281
     0
  0
CLASS
  1
ACGREFMASTER
  2
AcGrefMaster
  3
AcAttribServices
 90
        0
 91
        3
280
     0
281
     0
  0
CLASS
  1
ACME_DATABASE
  2
AcMeDbDatabase
  3
AcMeServices
 90
        0
 91
        1
280
     0
281
     0
  0
CLASS
  1
ACRFINSADJUSTERMGR
  2
AcRfInsAdjusterMgr
  3
AcMeServices
 90
        0
 91
        1
280
     0
281
     0
  0
CLASS
  1
ACGREFACADMASTER
  2
AcGrefacadMaster
  3
AcGrefServices
 90
        0
 91
        3
280
     0
281
     0
  0
CLASS
  1
AMIMASTER
  2
AmiMaster
  3
AmiServices
 90
        0
 91
        3
280
     0
281
     0
  0
CLASS
  1
ACMDATADICTIONARY
  2
AcmDataDictionary
  3
"AcmSymBB|Product Description: AutoCAD Mechanical 2004 DX|Company: Autodesk"
 90
        0
 91
        3
280
     0
281
     0
  0
CLASS
  1
ACMDATAENTRYBLOCK
  2
AcmDataEntryBlock
  3
"AcmSymBB|Product Description: AutoCAD Mechanical 2004 DX|Company: Autodesk"
 90
        0
 91
        3
280
     0
281
     0
  0
CLASS
  1
ACMSTANDARDJIS
  2
AcmStandardJIS
  3
"Amdt_StdImp|Product Description: AutoCAD Mechanical 2004 DX|Company: Autodesk"
 90
        0
 91
        3
280
     0
281
     0
  0
CLASS
  1
ACMSURFSTANDARDJIS
  2
AcmSurfTextStdJIS
  3
"Amdt_StdImp|Product Description: AutoCAD Mechanical 2004 DX|Company: Autodesk"
 90
        0
 91
        3
280
     0
281
     0
  0
CLASS
  1
ACMFCFSTANDARDJIS
  2
AcmFCFStdJIS
  3
"Amdt_StdImp|Product Description: AutoCAD Mechanical 2004 DX|Company: Autodesk"
 90
        0
 91
        3
280
     0
281
     0
  0
CLASS
  1
ACMWELDSTANDARDJIS
  2
AcmWeldingStdJIS
  3
"Amdt_StdImp|Product Description: AutoCAD Mechanical 2004 DX|Company: Autodesk"
 90
        0
 91
        3
280
     0
281
     0
  0
CLASS
  1
ACMIDSTANDARDJIS
  2
AcmIdStdJIS
  3
"Amdt_StdImp|Product Description: AutoCAD Mechanical 2004 DX|Company: Autodesk"
 90
        0
 91
        3
280
     0
281
     0
  0
CLASS
  1
ACMDATUMSTANDARDJIS
  2
AcmDatumStdJIS
  3
"Amdt_StdImp|Product Description: AutoCAD Mechanical 2004 DX|Company: Autodesk"
 90
        0
 91
        3
280
     0
281
     0
  0
CLASS
  1
ACMBOMSTANDARDJIS
  2
AcmBOMStdJIS
  3
"Amdt_StdImp|Product Description: AutoCAD Mechanical 2004 DX|Company: Autodesk"
 90
        0
 91
        3
280
     0
281
     0
  0
CLASS
  1
ACMDETAILSTANDARDJIS
  2
AmdtDetailSymStdJIS
  3
"Amdt_StdImp|Product Description: AutoCAD Mechanical 2004 DX|Company: Autodesk"
 90
        0
 91
        3
280
     0
281
     0
  0
CLASS
  1
ACMSECTIONSTANDARDJIS
  2
AmdtSectionSymStdJIS
  3
"Amdt_StdImp|Product Description: AutoCAD Mechanical 2004 DX|Company: Autodesk"
 90
        0
 91
        3
280
     0
281
     0
  0
CLASS
  1
ACMCENTERLINESTANDARDJIS
  2
AmdtCenterLineStdJIS
  3
"Amdt_StdImp|Product Description: AutoCAD Mechanical 2004 DX|Company: Autodesk"
 90
        0
 91
        3
280
     0
281
     0
  0
CLASS
  1
ACAMGLAYSTD
  2
AcAmgLayStd
  3
"AcAmgLayStd|Product Description: AutoCAD Mechanical 2000|Company: Autodesk"
 90
        0
 91
        6
280
     0
281
     0
  0
CLASS
  1
ACAMGDIMSTD
  2
AcAmgDimStd
  3
"AcAmgDimStd|Product Description: AutoCAD Mechanical 2000|Company: Autodesk"
 90
        0
 91
        6
280
     0
281
     0
  0
CLASS
  1
ACAMGTITLESTD
  2
AcAmgTitleStd
  3
"TITLEAPP"
 90
        0
 91
        6
280
     0
281
     0
  0
CLASS
  1
ACMSTANDARDISO
  2
AcmStandardISO
  3
"Amdt_StdImp|Product Description: AutoCAD Mechanical 2004 DX|Company: Autodesk"
 90
        0
 91
        3
280
     0
281
     0
  0
CLASS
  1
AMDTEDGESTANDARDISO
  2
AmdtEdgeStdISO
  3
"Amdt_StdImp|Product Description: AutoCAD Mechanical 2004 DX|Company: Autodesk"
 90
        0
 91
        3
280
     0
281
     0
  0
CLASS
  1
ACMSURFSTANDARDISO
  2
AcmSurfTextStdISO
  3
"Amdt_StdImp|Product Description: AutoCAD Mechanical 2004 DX|Company: Autodesk"
 90
        0
 91
        3
280
     0
281
     0
  0
CLASS
  1
ACMFCFSTANDARDISO
  2
AcmFCFStdISO
  3
"Amdt_StdImp|Product Description: AutoCAD Mechanical 2004 DX|Company: Autodesk"
 90
        0
 91
        3
280
     0
281
     0
  0
CLASS
  1
ACMWELDSTANDARDISO
  2
AcmWeldingStdISO
  3
"Amdt_StdImp|Product Description: AutoCAD Mechanical 2004 DX|Company: Autodesk"
 90
        0
 91
        3
280
     0
281
     0
  0
CLASS
  1
ACMIDSTANDARDISO
  2
AcmIdStdISO
  3
"Amdt_StdImp|Product Description: AutoCAD Mechanical 2004 DX|Company: Autodesk"
 90
        0
 91
        3
280
     0
281
     0
  0
CLASS
  1
ACMDATUMSTANDARDISO
  2
AcmDatumStdISO
  3
"Amdt_StdImp|Product Description: AutoCAD Mechanical 2004 DX|Company: Autodesk"
 90
        0
 91
        3
280
     0
281
     0
  0
CLASS
  1
ACMBOMSTANDARDISO
  2
AcmBOMStdISO
  3
"Amdt_StdImp|Product Description: AutoCAD Mechanical 2004 DX|Company: Autodesk"
 90
        0
 91
        3
280
     0
281
     0
  0
CLASS
  1
ACMDETAILSTANDARDISO
  2
AmdtDetailSymStdISO
  3
"Amdt_StdImp|Product Description: AutoCAD Mechanical 2004 DX|Company: Autodesk"
 90
        0
 91
        3
280
     0
281
     0
  0
CLASS
  1
ACMSECTIONSTANDARDISO
  2
AmdtSectionSymStdISO
  3
"Amdt_StdImp|Product Description: AutoCAD Mechanical 2004 DX|Company: Autodesk"
 90
        0
 91
        3
280
     0
281
     0
  0
CLASS
  1
ACMCENTERLINESTANDARDISO
  2
AmdtCenterLineStdISO
  3
"Amdt_StdImp|Product Description: AutoCAD Mechanical 2004 DX|Company: Autodesk"
 90
        0
 91
        3
280
     0
281
     0
  0
CLASS
  1
ACIMSTRSYSVAR
  2
AcImStrSysVar
  3
AcMeServices
 90
        0
 91
       15
280
     0
281
     0
  0
CLASS
  1
ACAMGFILTERDAT
  2
AcAmgFilterDat
  3
"AcadM|Product Description: AutoCAD Mechanical 2000|Company: Autodesk"
 90
        0
 91
       18
280
     0
281
     0
  0
CLASS
  1
LAYER_INDEX
  2
AcDbLayerIndex
  3
ObjectDBX Classes
 90
        0
 91
        1
280
     0
281
     0
  0
CLASS
  1
IDBUFFER
  2
AcDbIdBuffer
  3
ObjectDBX Classes
 90
        0
 91
       24
280
     0
281
     0
  0
CLASS
  1
AMDTFORMULAUPDATEDISPATCHER
  2
AmdtFormulaUpdateDispatcher
  3
AcMeServices
 90
        0
 91
        3
280
     0
281
     0
  0
CLASS
  1
ACMDATAENTRYPART
  2
AcmDataEntryPart
  3
"AcmSymBB|Product Description: AutoCAD Mechanical 2004 DX|Company: Autodesk"
 90
        0
 91
       18
280
     0
281
     0
  0
CLASS
  1
ACMPARTREF
  2
AcmPartRef
  3
"AcmSymBB|Product Description: AutoCAD Mechanical 2004 DX|Company: Autodesk"
 90
     1023
 91
       18
280
     0
281
     1
  0
CLASS
  1
ACMDATAENTRY
  2
AcmDataEntry
  3
"AcmSymBB|Product Description: AutoCAD Mechanical 2004 DX|Company: Autodesk"
 90
        0
 91
       15
280
     0
281
     0
  0
CLASS
  1
ACMBOM
  2
AcmBom
  3
"AcmSymBB|Product Description: AutoCAD Mechanical 2004 DX|Company: Autodesk"
 90
        0
 91
        6
280
     0
281
     0
  0
CLASS
  1
ACMBOMROW
  2
AcmBomRow
  3
"AcmSymBB|Product Description: AutoCAD Mechanical 2004 DX|Company: Autodesk"
 90
        0
 91
       36
280
     0
281
     0
  0
CLASS
  1
ACMBALLOON
  2
AcmBalloon
  3
"AcmSymBB|Product Description: AutoCAD Mechanical 2004 DX|Company: Autodesk"
 90
     1023
 91
       18
280
     0
281
     1
  0
CLASS
  1
ACMPARTLIST
  2
AcmPartList
  3
"AcmSymBB|Product Description: AutoCAD Mechanical 2004 DX|Company: Autodesk"
 90
     1023
 91
        3
280
     0
281
     1
  0
CLASS
  1
ACDBLINERES
  2
AcDbLineRes
  3
AcGrefServices
 90
        0
 91
       21
280
     0
281
     0
  0
CLASS
  1
ACRFINSADJ
  2
AcRfInsAdjuster
  3
AcMeServices
 90
        0
 91
       15
280
     0
281
     0
  0
CLASS
  1
STDPART2D
  2
AmgStdPart
  3
"AmgStdPart|Product Description: AutoCAD Mechanical 2000|Company: Autodesk"
 90
     1023
 91
        0
280
     0
281
     1
  0
CLASS
  1
ACDBSTDPARTRES_ARC
  2
AcDbStdPartRes_Arc
  3
"AcDbStdPartRes_Arc|Product Description: AutoCAD Mechanical 2000|Company: Autodesk"
 90
        0
 91
        0
280
     0
281
     0
  0
CLASS
  1
ACMPICKOBJ
  2
AcmPickEnt
  3
"AcmSymBB|Product Description: AutoCAD Mechanical 2004 DX|Company: Autodesk"
 90
        0
 91
        0
280
     0
281
     1
  0
CLASS
  1
ACDBSTDPARTRES_LINE
  2
AcDbStdPartRes_Line
  3
"AcDbStdPartRes_Line|Product Description: AutoCAD Mechanical 2000|Company: Autodesk"
 90
        0
 91
        0
280
     0
281
     0
  0
CLASS
  1
AM_DRAWING_MGR
  2
AcDmDwgMgr
  3
AcMechDwgViewMgmt
 90
        0
 91
        3
280
     0
281
     0
  0
CLASS
  1
AM_DWG_DOCUMENT
  2
AcDmDwgDocument
  3
AcMechDwgViewMgmt
 90
        0
 91
        3
280
     0
281
     0
  0
CLASS
  1
AM_DWG_SHEET
  2
AcDmSheet
  3
AcMechDwgViewMgmt
 90
        0
 91
        6
280
     0
281
     0
  0
CLASS
  1
AM_VIEWDIMPARMAP
  2
AcDmViewDimParMap
  3
AcMechDwgViewMgmt
 90
        0
 91
        6
280
     0
281
     0
  0
CLASS
  1
AM_DWGMGR_NAME
  2
AcDmDwgMgrName
  3
AcMechDwgViewMgmt
 90
        0
 91
        3
280
     0
281
     0
  0
CLASS
  1
AMDTMENUSTATEMGR
  2
AmdtMenuStateMgr
  3
McadcomServices
 90
        0
 91
        1
280
     0
281
     0
  0
CLASS
  1
AMDTMCOMMENUSTATE
  2
AmdtMcomMenuState
  3
McadcomServices
 90
        0
 91
        1
280
     0
281
     0
  0
CLASS
  1
MAPIAMMOUDLE
  2
MApiAmModule
  3
MApiAmServices
 90
        0
 91
        3
280
     0
281
     0
  0
CLASS
  1
AMDTADMENUSTATE
  2
AmdtAdMenuState
  3
DesignerServices
 90
        0
 91
        1
280
     0
281
     0
  0
CLASS
  1
ADAPPL
  2
AcAdAppl
  3
DesignerServices
 90
        0
 91
        3
280
     0
281
     0
  0
CLASS
  1
DEPMGR
  2
AcAdDepMgr
  3
DesignerServices
 90
        0
 91
        3
280
     0
281
     0
  0
CLASS
  1
PARAMMGR
  2
AcAdParamMgr
  3
DesignerServices
 90
        0
 91
        3
280
     0
281
     0
  0
CLASS
  1
PARAMSCOPE
  2
AcAdParamScope
  3
DesignerServices
 90
        0
 91
        3
280
     0
281
     0
  0
CLASS
  1
NAMEDAPPL
  2
AcAdNamedAppl
  3
DesignerServices
 90
        0
 91
        3
280
     0
281
     0
  0
CLASS
  1
AMDTDMMENUSTATE
  2
AmdtDmMenuState
  3
AcMechDwgViewMgmt
 90
        0
 91
        1
280
     0
281
     0
  0
CLASS
  1
AMDTAMMENUSTATE
  2
AmdtAmMenuState
  3
DesignerAssemblies
 90
        0
 91
        1
280
     0
281
     0
  0
CLASS
  1
ACAMPROJECT
  2
AcAmProject
  3
DesignerAssemblies
 90
        0
 91
        3
280
     0
281
     0
  0
CLASS
  1
ACAMGRCOMPDEF
  2
AcAmGrCompDef
  3
DesignerAssemblies
 90
        0
 91
        3
280
     0
281
     0
  0
CLASS
  1
ACCMCONTEXT
  2
AcCmContext
  3
DesignerAssemblies
 90
        0
 91
        3
280
     0
281
     0
  0
CLASS
  1
ACAMCOMPDEF
  2
AcAmCompDef
  3
DesignerAssemblies
 90
        0
 91
        3
280
     0
281
     0
  0
CLASS
  1
ACAMCOMPDEFMGR
  2
AcAmCompDefMgr
  3
DesignerAssemblies
 90
        0
 91
        3
280
     0
281
     0
  0
CLASS
  1
AMCONTEXTMGR
  2
AcAmContextMgr
  3
DesignerAssemblies
 90
        0
 91
        3
280
     0
281
     0
  0
CLASS
  1
ACAMCONTEXTMODELER
  2
AcAmContextModeler
  3
DesignerAssemblies
 90
        0
 91
        3
280
     0
281
     0
  0
CLASS
  1
ACMTHREADLINESTANDARDJIS
  2
AmdtThreadLineStdJIS
  3
"Amdt_StdImp|Product Description: AutoCAD Mechanical 2004 DX|Company: Autodesk"
 90
        0
 91
        3
280
     0
281
     0
  0
CLASS
  1
ACMNOTESTANDARDJIS
  2
AmdtNoteStdJIS
  3
"Amdt_StdImp|Product Description: AutoCAD Mechanical 2004 DX|Company: Autodesk"
 90
        0
 91
        3
280
     0
281
     0
  0
CLASS
  1
AMDTNOTETEMPLATEDB
  2
AmdtNoteTemplateDB
  3
AMDT_STDIMP_MODULE_NAME
 90
        0
 91
       24
280
     0
281
     0
  0
CLASS
  1
ACMTHREADLINESTANDARDISO
  2
AmdtThreadLineStdISO
  3
"Amdt_StdImp|Product Description: AutoCAD Mechanical 2004 DX|Company: Autodesk"
 90
        0
 91
        3
280
     0
281
     0
  0
CLASS
  1
ACMNOTESTANDARDISO
  2
AmdtNoteStdISO
  3
"Amdt_StdImp|Product Description: AutoCAD Mechanical 2004 DX|Company: Autodesk"
 90
        0
 91
        3
280
     0
281
     0
  0
CLASS
  1
CATALOGSTATE
  2
AcAmCatalogState
  3
DesignerAssemblies
 90
        0
 91
        3
280
     0
281
     0
  0
CLASS
  1
ACAMGRCOMPDEFSET
  2
AcAmGrCompDefSet
  3
DesignerAssemblies
 90
        0
 91
        1
280
     0
281
     0
  0
CLASS
  1
AMDTBROWSERDBTAB
  2
AmdtBrowserDbTab
  3
McadcomServices
 90
        0
 91
        1
280
     0
281
     0
  0
CLASS
  1
CBROWSERAPPOBJECT
  2
CBrowserAppObject
  3
McadcomServices
 90
        0
 91
        3
280
     0
281
     0
  0
CLASS
  1
DM_PLACEHOLDER
  2
AcDmSelsetPlaceholder
  3
AcMechDwgViewMgmt
 90
        0
 91
        1
280
     0
281
     0
  0
CLASS
  1
AMDTACMWBLOCKBOMENTITY
  2
AmdtAcmWblockBomEntity
  3
"AcmSymBB|Product Description: AutoCAD Mechanical 2004 DX|Company: Autodesk"
 90
     1023
 91
       12
280
     0
281
     1
  0
CLASS
  1
ACDBCIRCARCRES
  2
AcDbCircArcRes
  3
AcGrefServices
 90
        0
 91
        9
280
     0
281
     0
  0
CLASS
  1
AMDTDETAILSYM
  2
AmdtDetailSym
  3
"AcmSymBB|Product Description: AutoCAD Mechanical 2004 DX|Company: Autodesk"
 90
     1023
 91
        0
280
     0
281
     1
  0
CLASS
  1
ACRFATTGENMGR
  2
AcRfAttGeneralMgr
  3
AcAttribServices
 90
        0
 91
        3
280
     0
281
     0
  0
CLASS
  1
ACRFOBJATTMGR
  2
AcRfObjAttGroupMgr
  3
AcAttribServices
 90
        0
 91
        3
280
     0
281
     0
  0
CLASS
  1
ACRFMCADAPIATTHOLDER
  2
AcRfMCADAPIAttHolder
  3
AcAttribServices
 90
        0
 91
        3
280
     0
281
     0
  0
CLASS
  1
AMDTSYSATTR
  2
AmdtSystemAttribute
  3
AcAttribServices
 90
        0
 91
        6
280
     0
281
     0
  0
ENDSEC
  0
SECTION
  2
TABLES
  0
TABLE
  2
VPORT
  5
8
330
0
100
AcDbSymbolTable
 70
     3
  0
VPORT
  5
283A
330
8
100
AcDbSymbolTableRecord
100
AcDbViewportTableRecord
  2
*Active
 70
     0
 10
0.0
 20
0.0
 11
1.0
 21
1.0
 12
2255.59755042903
 22
5203.57204128231
 13
0.0
 23
0.0
 14
25.0
 24
25.0
 15
100.0
 25
100.0
 16
0.0
 26
0.0
 36
1.0
 17
0.0
 27
0.0
 37
0.0
 40
2992.956170793372
 41
1.498730964467005
 42
50.0
 43
0.0
 44
0.0
 50
0.0
 51
0.0
 71
    16
 72
   100
 73
     1
 74
     3
 75
     0
 76
     0
 77
     0
 78
     0
281
     0
 65
     1
110
0.0
120
0.0
130
0.0
111
1.0
121
0.0
131
0.0
112
0.0
122
1.0
132
0.0
 79
     0
146
0.0
  0
ENDTAB
  0
TABLE
  2
LTYPE
  5
5
330
0
100
AcDbSymbolTable
 70
    20
  0
LTYPE
  5
14
330
5
100
AcDbSymbolTableRecord
100
AcDbLinetypeTableRecord
  2
ByBlock
 70
     0
  3

 72
    65
 73
     0
 40
0.0
  0
LTYPE
  5
15
330
5
100
AcDbSymbolTableRecord
100
AcDbLinetypeTableRecord
  2
ByLayer
 70
     0
  3

 72
    65
 73
     0
 40
0.0
  0
LTYPE
  5
16
330
5
100
AcDbSymbolTableRecord
100
AcDbLinetypeTableRecord
  2
Continuous
 70
     0
  3
Solid line
 72
    65
 73
     0
 40
0.0
  0
LTYPE
  5
35
330
5
100
AcDbSymbolTableRecord
100
AcDbLinetypeTableRecord
  2
AM_ISO02W050
 70
     0
  3
__ __ __ __ __ __ __ __ __ __ __ __ __ __ __
 72
    65
 73
     2
 40
7.5
 49
6.0
 74
     0
 49
-1.5
 74
     0
  0
LTYPE
  5
36
330
5
100
AcDbSymbolTableRecord
100
AcDbLinetypeTableRecord
  2
AM_ISO08W050
 70
     0
  3
____ . ____ . ____ . ____ . ____ . ____ . ____
 72
    65
 73
     4
 40
18.0
 49
12.0
 74
     0
 49
-1.5
 74
     0
 49
3.0
 74
     0
 49
-1.5
 74
     0
  0
LTYPE
  5
37
330
5
100
AcDbSymbolTableRecord
100
AcDbLinetypeTableRecord
  2
AM_ISO09W050
 70
     0
  3
_____ . . _____ . . _____ . . ____ .. ____
 72
    65
 73
     6
 40
22.5
 49
12.0
 74
     0
 49
-1.5
 74
     0
 49
3.0
 74
     0
 49
-1.5
 74
     0
 49
3.0
 74
     0
 49
-1.5
 74
     0
  0
LTYPE
  5
38
330
5
100
AcDbSymbolTableRecord
100
AcDbLinetypeTableRecord
  2
Amconstr
 70
     0
  3
_______________________
 72
    65
 73
     2
 40
9999.0
 49
9999.0
 74
     0
 49
0.0
 74
     0
  0
LTYPE
  5
39
330
5
100
AcDbSymbolTableRecord
100
AcDbLinetypeTableRecord
  2
AM_ISO08W050x2
 70
     0
  3
__ . __ . __ . __ . __ . __
 72
    65
 73
     4
 40
9.0
 49
6.0
 74
     0
 49
-0.75
 74
     0
 49
1.5
 74
     0
 49
-0.75
 74
     0
  0
LTYPE
  5
3A
330
5
100
AcDbSymbolTableRecord
100
AcDbLinetypeTableRecord
  2
AM_ISO02W050x2
 70
     0
  3
 _ _ _ _ _ _ _ _ _ _ _ _
 72
    65
 73
     2
 40
3.75
 49
3.0
 74
     0
 49
-0.75
 74
     0
  0
LTYPE
  5
3B
330
5
100
AcDbSymbolTableRecord
100
AcDbLinetypeTableRecord
  2
Amzigzag
 70
     0
  3
/\/-/\/-/\/-/\/-/\/-/\/
 72
    65
 73
     2
 40
11.0001
 49
0.0001
 74
     4
 75
   135
340
3C
 46
0.04
 50
0.0
 44
0.0
 45
0.0
 49
-11.0
 74
     0
  0
LTYPE
  5
64
330
5
100
AcDbSymbolTableRecord
100
AcDbLinetypeTableRecord
  2
ACJISTGB
 70
     0
  3
__ . . __ . .
 72
    65
 73
     6
 40
9.0
 49
4.0
 74
     0
 49
-1.0
 74
     0
 49
1.0
 74
     0
 49
-1.0
 74
     0
 49
1.0
 74
     0
 49
-1.0
 74
     0
  0
LTYPE
  5
65
330
5
100
AcDbSymbolTableRecord
100
AcDbLinetypeTableRecord
  2
ACJISTGL
 70
     0
  3
_ _ _ _ _
 72
    65
 73
     2
 40
3.0
 49
2.0
 74
     0
 49
-1.0
 74
     0
  0
LTYPE
  5
69
330
5
100
AcDbSymbolTableRecord
100
AcDbLinetypeTableRecord
  2
CENTER
 70
     0
  3
__ . __
 72
    65
 73
     4
 40
7.0
 49
4.0
 74
     0
 49
-1.0
 74
     0
 49
1.0
 74
     0
 49
-1.0
 74
     0
  0
LTYPE
  5
8F
330
5
100
AcDbSymbolTableRecord
100
AcDbLinetypeTableRecord
  2
ACISOWELD
 70
     0
  3
_ _ _ _ _
 72
    65
 73
     2
 40
2.0
 49
2.0
 74
     0
 49
-1.0
 74
     0
  0
LTYPE
  5
92
330
5
100
AcDbSymbolTableRecord
100
AcDbLinetypeTableRecord
  2
ACISOTGB
 70
     0
  3
__ . . __ . .
 72
    65
 73
     6
 40
9.0
 49
4.0
 74
     0
 49
-1.0
 74
     0
 49
1.0
 74
     0
 49
-1.0
 74
     0
 49
1.0
 74
     0
 49
-1.0
 74
     0
  0
LTYPE
  5
93
330
5
100
AcDbSymbolTableRecord
100
AcDbLinetypeTableRecord
  2
ACISOTGL
 70
     0
  3
_ _ _ _ _
 72
    65
 73
     2
 40
3.0
 49
2.0
 74
     0
 49
-1.0
 74
     0
  0
LTYPE
  5
309
330
5
100
AcDbSymbolTableRecord
100
AcDbLinetypeTableRecord
  2
HIDDEN
 70
     0
  3
_ _ _ _ _ _ _ _ _ _ _ _ _ _ _ _ _ _ _ _ _ _ _
 72
    65
 73
     2
 40
1.5
 49
1.0
 74
     0
 49
-0.5
 74
     0
  0
LTYPE
  5
30A
330
5
100
AcDbSymbolTableRecord
100
AcDbLinetypeTableRecord
  2
PHANTOM
 70
     0
  3
_____ _ _ _____ _ _ _____ _ _ _____ _ _ ____
 72
    65
 73
     6
 40
27.0
 49
20.0
 74
     0
 49
-1.0
 74
     0
 49
2.0
 74
     0
 49
-1.0
 74
     0
 49
2.0
 74
     0
 49
-1.0
 74
     0
  0
LTYPE
  5
30F
330
5
100
AcDbSymbolTableRecord
100
AcDbLinetypeTableRecord
  2
GEN7A
 70
     0
  3
__ . __ . __
 72
    65
 73
     4
 40
6.875
 49
5.0
 74
     0
 49
-0.625
 74
     0
 49
0.625
 74
     0
 49
-0.625
 74
     0
  0
LTYPE
  5
9B5
330
5
100
AcDbSymbolTableRecord
100
AcDbLinetypeTableRecord
  2
PHANTOM2
 70
     0
  3
Phantom (.5x) ___ _ _ ___ _ _ ___ _ _ ___ _ _
 72
    65
 73
     6
 40
31.75
 49
15.875
 74
     0
 49
-3.174999999999999
 74
     0
 49
3.174999999999999
 74
     0
 49
-3.174999999999999
 74
     0
 49
3.174999999999999
 74
     0
 49
-3.174999999999999
 74
     0
  0
LTYPE
  5
B70
330
5
100
AcDbSymbolTableRecord
100
AcDbLinetypeTableRecord
  2
GEN7
 70
     0
  3
____ . ____ . ____ . ____ . ____ . ____ . ____
 72
    65
 73
     4
 40
13.75
 49
10.0
 74
     0
 49
-1.25
 74
     0
 49
1.25
 74
     0
 49
-1.25
 74
     0
  0
LTYPE
  5
B71
330
5
100
AcDbSymbolTableRecord
100
AcDbLinetypeTableRecord
  2
GEN3
 70
     0
  3
-- -- -- -- -- -- -- -- -- -- -- -- -- -- --
 72
    65
 73
     2
 40
6.25
 49
5.0
 74
     0
 49
-1.25
 74
     0
  0
ENDTAB
  0
TABLE
  2
LAYER
  5
2
102
{ACAD_XDICTIONARY
360
147C
102
}
330
0
100
AcDbSymbolTable
 70
    24
  0
LAYER
  5
10
330
2
100
AcDbSymbolTableRecord
100
AcDbLayerTableRecord
  2
0
 70
     0
 62
     7
  6
Continuous
370
    -3
390
F
  0
LAYER
  5
F5
330
2
100
AcDbSymbolTableRecord
100
AcDbLayerTableRecord
  2
RAHM2
 70
     0
 62
     1
  6
Continuous
370
    -3
390
F
  0
LAYER
  5
1EF
330
2
100
AcDbSymbolTableRecord
100
AcDbLayerTableRecord
  2
AM_BOR
 70
     0
 62
     7
  6
Continuous
370
    50
390
F
  0
LAYER
  5
310
330
2
100
AcDbSymbolTableRecord
100
AcDbLayerTableRecord
  2
RAHM3
 70
     0
 62
     2
  6
Continuous
370
    -3
390
F
  0
LAYER
  5
312
330
2
100
AcDbSymbolTableRecord
100
AcDbLayerTableRecord
  2
1
 70
     0
 62
     7
  6
Continuous
370
    -3
390
F
  0
LAYER
  5
313
330
2
100
AcDbSymbolTableRecord
100
AcDbLayerTableRecord
  2
DEFPOINTS
 70
     0
 62
     7
  6
Continuous
290
     0
370
    -3
390
F
  0
LAYER
  5
316
330
2
100
AcDbSymbolTableRecord
100
AcDbLayerTableRecord
  2
7A
 70
     0
 62
     4
  6
GEN7A
370
    -3
390
F
  0
LAYER
  5
9ED
330
2
100
AcDbSymbolTableRecord
100
AcDbLayerTableRecord
  2
AM_5
 70
     0
 62
     3
  6
Continuous
370
    25
390
F
  0
LAYER
  5
B75
330
2
100
AcDbSymbolTableRecord
100
AcDbLayerTableRecord
  2
40
 70
     0
 62
     7
  6
Continuous
370
    -3
390
F
  0
LAYER
  5
B76
330
2
100
AcDbSymbolTableRecord
100
AcDbLayerTableRecord
  2
5
 70
     0
 62
     3
  6
Continuous
370
    -3
390
F
  0
LAYER
  5
B77
330
2
100
AcDbSymbolTableRecord
100
AcDbLayerTableRecord
  2
7
 70
     0
 62
     4
  6
GEN7
370
    -3
390
F
  0
LAYER
  5
B78
330
2
100
AcDbSymbolTableRecord
100
AcDbLayerTableRecord
  2
3
 70
     0
 62
     6
  6
GEN3
370
    -3
390
F
  0
LAYER
  5
147A
330
2
100
AcDbSymbolTableRecord
100
AcDbLayerTableRecord
  2
AM_0N
 70
     0
 62
     7
  6
Continuous
370
    50
390
F
  0
LAYER
  5
147B
330
2
100
AcDbSymbolTableRecord
100
AcDbLayerTableRecord
  2
AM_0
 70
     0
 62
     7
  6
Continuous
370
    50
390
F
  0
LAYER
  5
169A
330
2
100
AcDbSymbolTableRecord
100
AcDbLayerTableRecord
  2
AM_8
 70
     0
 62
     1
  6
Continuous
370
    25
390
F
  0
LAYER
  5
16A4
330
2
100
AcDbSymbolTableRecord
100
AcDbLayerTableRecord
  2
AM_6
 70
     0
 62
     2
  6
Continuous
370
    35
390
F
  0
LAYER
  5
185D
330
2
100
AcDbSymbolTableRecord
100
AcDbLayerTableRecord
  2
AM_12
 70
     0
 62
     7
  6
Continuous
290
     0
370
    50
390
F
  0
LAYER
  5
185E
330
2
100
AcDbSymbolTableRecord
100
AcDbLayerTableRecord
  2
AM_PAREF
 70
     0
 62
     4
  6
Continuous
290
     0
370
    25
390
F
  0
LAYER
  5
1928
330
2
100
AcDbSymbolTableRecord
100
AcDbLayerTableRecord
  2
外形線１
 70
     0
 62
     7
  6
Continuous
370
    -3
390
F
  0
LAYER
  5
1929
330
2
100
AcDbSymbolTableRecord
100
AcDbLayerTableRecord
  2
AM_7
 70
     0
 62
     4
  6
AM_ISO08W050
370
    25
390
F
  0
LAYER
  5
192A
330
2
100
AcDbSymbolTableRecord
100
AcDbLayerTableRecord
  2
AM_7N
 70
     0
 62
     4
  6
AM_ISO08W050
370
    25
390
F
  0
LAYER
  5
192B
330
2
100
AcDbSymbolTableRecord
100
AcDbLayerTableRecord
  2
AM_4N
 70
     0
 62
     3
  6
Continuous
370
    25
390
F
  0
LAYER
  5
192C
330
2
100
AcDbSymbolTableRecord
100
AcDbLayerTableRecord
  2
AM_3N
 70
     0
 62
     6
  6
AM_ISO02W050
370
    25
390
F
  0
LAYER
  5
23A0
330
2
100
AcDbSymbolTableRecord
100
AcDbLayerTableRecord
  2
TEXT
 70
     0
 62
     7
  6
Continuous
370
    -3
390
F
  0
ENDTAB
  0
TABLE
  2
STYLE
  5
3
330
0
100
AcDbSymbolTable
 70
     6
  0
STYLE
  5
11
330
3
100
AcDbSymbolTableRecord
100
AcDbTextStyleTableRecord
  2
STANDARD
 70
     0
 40
0.0
 41
1.0
 50
0.0
 71
     0
 42
2.5
  3
ISOCP.SHX
  4
EXTFONT.SHX
  0
STYLE
  5
3C
330
3
100
AcDbSymbolTableRecord
100
AcDbTextStyleTableRecord
  2

 70
     1
 40
0.0
 41
1.0
 50
0.0
 71
     0
 42
2.5
  3
ltypeshp.shx
  4

  0
STYLE
  5
5D
330
3
100
AcDbSymbolTableRecord
100
AcDbTextStyleTableRecord
  2
ACJISTS
 70
     0
 40
1.0
 41
1.0
 50
0.0
 71
     0
 42
2.5
  3
isocp.shx
  4
extfont.shx
  0
STYLE
  5
60
330
3
100
AcDbSymbolTableRecord
100
AcDbTextStyleTableRecord
  2
ACJISGDT
 70
     0
 40
0.0
 41
1.0
 50
0.0
 71
     0
 42
2.5
  3
amgdt.shx
  4

  0
STYLE
  5
89
330
3
100
AcDbSymbolTableRecord
100
AcDbTextStyleTableRecord
  2
ACISOTS
 70
     0
 40
1.0
 41
1.0
 50
0.0
 71
     0
 42
2.5
  3
isocp.shx
  4
extfont.shx
  0
STYLE
  5
8D
330
3
100
AcDbSymbolTableRecord
100
AcDbTextStyleTableRecord
  2
ACISOGDT
 70
     0
 40
0.0
 41
1.0
 50
0.0
 71
     0
 42
2.5
  3
amgdt.shx
  4

  0
ENDTAB
  0
TABLE
  2
VIEW
  5
6
330
0
100
AcDbSymbolTable
 70
     6
  0
VIEW
  5
3C5
330
6
100
AcDbSymbolTableRecord
100
AcDbViewTableRecord
  2
AM_VIEW1
 70
     0
 40
1702.64496439471
 10
1205.648266483856
 20
5837.285058358966
 41
2100.0
 11
0.0
 21
0.0
 31
1.0
 12
0.0
 22
0.0
 32
0.0
 42
50.0
 43
0.0
 44
0.0
 50
0.0
 71
    16
281
     0
 72
     0
  0
VIEW
  5
3C6
330
6
100
AcDbSymbolTableRecord
100
AcDbViewTableRecord
  2
AM_VIEW2
 70
     0
 40
1702.64496439471
 10
3305.648266483856
 20
5837.285058358966
 41
2100.0
 11
0.0
 21
0.0
 31
1.0
 12
0.0
 22
0.0
 32
0.0
 42
50.0
 43
0.0
 44
0.0
 50
0.0
 71
    16
281
     0
 72
     0
  0
VIEW
  5
3C7
330
6
100
AcDbSymbolTableRecord
100
AcDbViewTableRecord
  2
AM_VIEW3
 70
     0
 40
1702.64496439471
 10
1205.648266483856
 20
4569.930022753676
 41
2100.0
 11
0.0
 21
0.0
 31
1.0
 12
0.0
 22
0.0
 32
0.0
 42
50.0
 43
0.0
 44
0.0
 50
0.0
 71
    16
281
     0
 72
     0
  0
VIEW
  5
3C8
330
6
100
AcDbSymbolTableRecord
100
AcDbViewTableRecord
  2
AM_VIEW4
 70
     0
 40
1702.64496439471
 10
3305.648266483856
 20
4569.930022753676
 41
2100.0
 11
0.0
 21
0.0
 31
1.0
 12
0.0
 22
0.0
 32
0.0
 42
50.0
 43
0.0
 44
0.0
 50
0.0
 71
    16
281
     0
 72
     0
  0
VIEW
  5
3C9
330
6
100
AcDbSymbolTableRecord
100
AcDbViewTableRecord
  2
AM_VIEW5
 70
     0
 40
1702.644964394711
 10
2255.648266483856
 20
5203.607540556322
 41
2100.0
 11
0.0
 21
0.0
 31
1.0
 12
0.0
 22
0.0
 32
0.0
 42
50.0
 43
0.0
 44
0.0
 50
0.0
 71
    16
281
     0
 72
     0
  0
VIEW
  5
3CA
330
6
100
AcDbSymbolTableRecord
100
AcDbViewTableRecord
  2
AM_VIEW6
 70
     0
 40
3405.255875890133
 10
2255.648266483856
 20
5203.607540556322
 41
4199.958000000001
 11
0.0
 21
0.0
 31
1.0
 12
0.0
 22
0.0
 32
0.0
 42
50.0
 43
0.0
 44
0.0
 50
0.0
 71
    16
281
     0
 72
     0
  0
ENDTAB
  0
TABLE
  2
UCS
  5
7
330
0
100
AcDbSymbolTable
 70
     0
  0
ENDTAB
  0
TABLE
  2
APPID
  5
9
330
0
100
AcDbSymbolTable
 70
    49
  0
APPID
  5
12
330
9
100
AcDbSymbolTableRecord
100
AcDbRegAppTableRecord
  2
ACAD
 70
     0
  0
APPID
  5
2D
330
9
100
AcDbSymbolTableRecord
100
AcDbRegAppTableRecord
  2
MCAD_NO_VIS
 70
     0
  0
APPID
  5
2E
330
9
100
AcDbSymbolTableRecord
100
AcDbRegAppTableRecord
  2
ACAD_TEMP_GRAPHIC
 70
     0
  0
APPID
  5
2F
330
9
100
AcDbSymbolTableRecord
100
AcDbRegAppTableRecord
  2
ACATTRIBSERVICES
 70
     0
  0
APPID
  5
1F0
330
9
100
AcDbSymbolTableRecord
100
AcDbRegAppTableRecord
  2
GENIUS_GENBLLY_14
 70
     0
  0
APPID
  5
321
330
9
100
AcDbSymbolTableRecord
100
AcDbRegAppTableRecord
  2
GENIUS_GENCFG_13
 70
     0
  0
APPID
  5
322
330
9
100
AcDbSymbolTableRecord
100
AcDbRegAppTableRecord
  2
GENIUS_GENOBJ_13
 70
     0
  0
APPID
  5
323
330
9
100
AcDbSymbolTableRecord
100
AcDbRegAppTableRecord
  2
GENIUS_GENODEF_13
 70
     0
  0
APPID
  5
324
330
9
100
AcDbSymbolTableRecord
100
AcDbRegAppTableRecord
  2
GENIUS_GENOENT_13
 70
     0
  0
APPID
  5
325
330
9
100
AcDbSymbolTableRecord
100
AcDbRegAppTableRecord
  2
GENIUS_GENOLIS_13
 70
     0
  0
APPID
  5
326
330
9
100
AcDbSymbolTableRecord
100
AcDbRegAppTableRecord
  2
GENIUS_GENOREF_13
 70
     0
  0
APPID
  5
327
330
9
100
AcDbSymbolTableRecord
100
AcDbRegAppTableRecord
  2
GENIUS_GENOBJ-N-TIT_13
 70
     0
  0
APPID
  5
328
330
9
100
AcDbSymbolTableRecord
100
AcDbRegAppTableRecord
  2
GENIUS_GENTITLE_13
 70
     0
  0
APPID
  5
329
330
9
100
AcDbSymbolTableRecord
100
AcDbRegAppTableRecord
  2
GENIUS_GENZVEED_13
 70
     0
  0
APPID
  5
32A
330
9
100
AcDbSymbolTableRecord
100
AcDbRegAppTableRecord
  2
GENIUS_GENOBJ-N-SDF_13
 70
     0
  0
APPID
  5
32B
330
9
100
AcDbSymbolTableRecord
100
AcDbRegAppTableRecord
  2
GENIUS_GENSCREG_13
 70
     0
  0
APPID
  5
32C
330
9
100
AcDbSymbolTableRecord
100
AcDbRegAppTableRecord
  2
GENIUS_GENCFG0_13
 70
     0
  0
APPID
  5
32D
330
9
100
AcDbSymbolTableRecord
100
AcDbRegAppTableRecord
  2
GENIUS_GENCFG1_13
 70
     0
  0
APPID
  5
32E
330
9
100
AcDbSymbolTableRecord
100
AcDbRegAppTableRecord
  2
GENIUS_GENCFG2_13
 70
     0
  0
APPID
  5
32F
330
9
100
AcDbSymbolTableRecord
100
AcDbRegAppTableRecord
  2
GENIUS_GENCFG3_13
 70
     0
  0
APPID
  5
330
330
9
100
AcDbSymbolTableRecord
100
AcDbRegAppTableRecord
  2
GENIUS_GENCFG4_13
 70
     0
  0
APPID
  5
331
330
9
100
AcDbSymbolTableRecord
100
AcDbRegAppTableRecord
  2
GENIUS_GEVCFG0_13
 70
     0
  0
APPID
  5
332
330
9
100
AcDbSymbolTableRecord
100
AcDbRegAppTableRecord
  2
GENIUS_GENOBJ-N-CRS_13
 70
     0
  0
APPID
  5
333
330
9
100
AcDbSymbolTableRecord
100
AcDbRegAppTableRecord
  2
GENIUS_GENOBJ-N-CEN_13
 70
     0
  0
APPID
  5
334
330
9
100
AcDbSymbolTableRecord
100
AcDbRegAppTableRecord
  2
GENIUS_GEFCFG0_13
 70
     0
  0
APPID
  5
3BA
330
9
100
AcDbSymbolTableRecord
100
AcDbRegAppTableRecord
  2
GENIUS_GENTRA_14
 70
     0
  0
APPID
  5
3CB
330
9
100
AcDbSymbolTableRecord
100
AcDbRegAppTableRecord
  2
GENIUS_GENSCREG_15
 70
     0
  0
APPID
  5
436
330
9
100
AcDbSymbolTableRecord
100
AcDbRegAppTableRecord
  2
GEVID984623613
 70
     0
  0
APPID
  5
437
330
9
100
AcDbSymbolTableRecord
100
AcDbRegAppTableRecord
  2
GEVDC
 70
     0
  0
APPID
  5
438
330
9
100
AcDbSymbolTableRecord
100
AcDbRegAppTableRecord
  2
GEVCON
 70
     0
  0
APPID
  5
43C
330
9
100
AcDbSymbolTableRecord
100
AcDbRegAppTableRecord
  2
GENIUS_GENBH_13
 70
     0
  0
APPID
  5
43E
330
9
100
AcDbSymbolTableRecord
100
AcDbRegAppTableRecord
  2
GENIUS_GENOBJ-NBEHI-BHF_13
 70
     0
  0
APPID
  5
440
330
9
100
AcDbSymbolTableRecord
100
AcDbRegAppTableRecord
  2
GENIUS_GENOBJ-NBEHI-BHB_13
 70
     0
  0
APPID
  5
455
330
9
100
AcDbSymbolTableRecord
100
AcDbRegAppTableRecord
  2
GENIUS_GENOBJ-F-SCPASSM_13
 70
     0
  0
APPID
  5
47B
330
9
100
AcDbSymbolTableRecord
100
AcDbRegAppTableRecord
  2
GEVID984623614
 70
     0
  0
APPID
  5
48B
330
9
100
AcDbSymbolTableRecord
100
AcDbRegAppTableRecord
  2
GEVID984623615
 70
     0
  0
APPID
  5
54A
330
9
100
AcDbSymbolTableRecord
100
AcDbRegAppTableRecord
  2
GENIUS_GENOBJ-N-REV_13
 70
     0
  0
APPID
  5
54B
330
9
100
AcDbSymbolTableRecord
100
AcDbRegAppTableRecord
  2
GENIUS_GENOBJ-N-RSSYM_13
 70
     0
  0
APPID
  5
54C
330
9
100
AcDbSymbolTableRecord
100
AcDbRegAppTableRecord
  2
GENIUS_GENSYMENT_13
 70
     0
  0
APPID
  5
54D
330
9
100
AcDbSymbolTableRecord
100
AcDbRegAppTableRecord
  2
GENIUS_GENSCSYM_13
 70
     0
  0
APPID
  5
943
330
9
100
AcDbSymbolTableRecord
100
AcDbRegAppTableRecord
  2
DCO15
 70
     0
  0
APPID
  5
9B7
330
9
100
AcDbSymbolTableRecord
100
AcDbRegAppTableRecord
  2
AD_DRAW
 70
     0
  0
APPID
  5
9D5
330
9
100
AcDbSymbolTableRecord
100
AcDbRegAppTableRecord
  2
DESIGNERASSEMBLIES
 70
     0
  0
APPID
  5
9E5
330
9
100
AcDbSymbolTableRecord
100
AcDbRegAppTableRecord
  2
ACADM_DIM_EDIT
 70
     0
  0
APPID
  5
9E6
330
9
100
AcDbSymbolTableRecord
100
AcDbRegAppTableRecord
  2
AMDT_DM_ADJ
 70
     0
  0
APPID
  5
B7E
330
9
100
AcDbSymbolTableRecord
100
AcDbRegAppTableRecord
  2
GENIUS_GENDTOL_13
 70
     0
  0
APPID
  5
B7F
330
9
100
AcDbSymbolTableRecord
100
AcDbRegAppTableRecord
  2
GENIUS_GENDREL_13
 70
     0
  0
APPID
  5
144D
330
9
100
AcDbSymbolTableRecord
100
AcDbRegAppTableRecord
  2
GENIUS_GENDIMSH_14
 70
     0
  0
APPID
  5
16A5
330
9
100
AcDbSymbolTableRecord
100
AcDbRegAppTableRecord
  2
GENIUS_AMGTXT_16
 70
     0
  0
ENDTAB
  0
TABLE
  2
DIMSTYLE
  5
A
330
0
100
AcDbSymbolTable
 70
    15
100
AcDbDimStyleTable
 71
     1
340
76
  0
DIMSTYLE
105
76
102
{ACAD_REACTORS
330
E3A
330
E3B
330
E39
330
E38
330
E37
330
E36
330
E35
330
E34
330
E33
330
E5D
330
E5C
330
E31
330
E30
330
1430
330
253F
330
2565
102
}
330
A
100
AcDbSymbolTableRecord
100
AcDbDimStyleTableRecord
  2
IGS
 70
     0
  4
"
 41
2.5
 42
1.0
 43
10.0
 44
1.0
 47
0.1
 48
0.1
 73
     0
 74
     0
 77
     3
 78
     8
 79
     2
140
3.0
141
0.0
143
0.0393701
146
0.71
147
1.5
172
     1
176
   256
177
   256
178
     2
271
     2
272
     2
283
     0
284
     8
340
11
341
77
342
77
371
    -1
372
    -1
  0
DIMSTYLE
105
7D
330
A
100
AcDbSymbolTableRecord
100
AcDbDimStyleTableRecord
  2
IGS$3
 70
     0
  4
"
 41
2.5
 42
1.0
 43
10.0
 44
1.0
 47
0.1
 48
0.1
 73
     0
 77
     3
 78
     8
 79
     2
140
4.0
141
0.0
143
0.0393701
146
0.71
147
1.5
176
   256
177
   256
178
     2
271
     2
272
     2
283
     0
284
     8
288
     1
289
     0
340
11
341
77
342
77
371
    -1
372
    -1
  0
DIMSTYLE
105
7E
330
A
100
AcDbSymbolTableRecord
100
AcDbDimStyleTableRecord
  2
IGS$4
 70
     0
  4
"
 41
2.5
 42
1.0
 43
10.0
 44
1.0
 47
0.1
 48
0.1
 73
     0
 77
     3
 78
     8
 79
     2
140
4.0
141
0.0
143
0.0393701
146
0.71
147
1.5
176
   256
177
   256
178
     2
271
     2
272
     2
283
     0
284
     8
288
     1
289
     0
340
11
341
77
342
77
371
    -1
372
    -1
  0
DIMSTYLE
105
7F
330
A
100
AcDbSymbolTableRecord
100
AcDbDimStyleTableRecord
  2
IGS$6
 70
     0
  4
"
 41
2.5
 42
1.0
 43
10.0
 44
1.0
 47
0.1
 48
0.1
 73
     0
 74
     0
 78
     8
 79
     2
140
4.0
141
0.0
143
0.0393701
146
0.71
147
1.5
172
     1
176
   256
177
   256
178
     2
271
     2
272
     2
283
     0
284
     8
340
11
341
77
342
77
371
    -1
372
    -1
  0
DIMSTYLE
105
80
330
A
100
AcDbSymbolTableRecord
100
AcDbDimStyleTableRecord
  2
IGS$7
 70
     0
  4
"
 41
2.5
 42
1.0
 43
10.0
 44
1.0
 47
0.1
 48
0.1
 73
     0
 74
     0
 77
     3
 78
     8
 79
     2
140
5.0
141
0.0
143
0.0393701
146
0.71
147
1.5
172
     1
176
   256
177
   256
178
     2
271
     2
272
     2
283
     0
284
     8
340
11
341
77
342
77
371
    -1
372
    -1
  0
DIMSTYLE
105
81
330
A
100
AcDbSymbolTableRecord
100
AcDbDimStyleTableRecord
  2
IGS$SF
 70
     0
  4
"
 41
2.5
 42
1.0
 43
10.0
 44
1.0
 47
0.1
 48
0.1
 73
     0
 74
     0
 75
     1
 76
     1
 77
     3
 78
     8
 79
     2
140
3.5
141
0.0
143
0.0393701
146
0.71
147
1.5
172
     1
176
   256
177
   256
178
     2
271
     2
272
     3
274
     4
283
     0
284
     8
340
11
341
77
342
77
343
77
344
77
371
    -1
372
    -1
  0
DIMSTYLE
105
82
330
A
100
AcDbSymbolTableRecord
100
AcDbDimStyleTableRecord
  2
IGS$SH
 70
     0
  4
"
 41
2.5
 42
1.0
 43
10.0
 44
1.0
 47
0.1
 48
0.1
 73
     0
 74
     0
 75
     1
 76
     1
 77
     3
 78
     8
 79
     2
140
3.5
141
0.0
143
0.0393701
144
2.0
146
0.71
147
1.5
172
     1
173
     1
176
   256
177
   256
178
     2
271
     2
272
     3
274
     4
283
     0
284
     8
340
11
341
77
342
77
343
83
344
77
371
    -1
372
    -1
  0
DIMSTYLE
105
9A
330
A
100
AcDbSymbolTableRecord
100
AcDbDimStyleTableRecord
  2
AM_ISO
 70
     0
  4
"
 41
2.5
 42
1.0
 43
10.0
 44
1.0
 47
0.1
 48
0.1
 73
     0
 74
     0
 77
     1
 78
     8
 79
     2
140
3.5
141
0.0
143
0.0393701
146
0.71
147
1.5
172
     1
176
   256
177
   256
178
     2
271
     2
272
     3
274
     4
283
     0
284
     8
340
11
371
    -1
372
    -1
  0
DIMSTYLE
105
9B
330
A
100
AcDbSymbolTableRecord
100
AcDbDimStyleTableRecord
  2
AM_ISO$3
 70
     0
  4
"
 41
2.5
 42
1.0
 43
10.0
 44
1.0
 47
0.1
 48
0.1
 73
     0
 77
     1
 78
     8
 79
     2
140
3.5
141
0.0
143
0.0393701
146
0.71
147
1.5
176
   256
177
   256
178
     2
271
     2
272
     3
274
     4
283
     0
284
     8
288
     1
289
     0
340
11
371
    -1
372
    -1
  0
DIMSTYLE
105
9C
330
A
100
AcDbSymbolTableRecord
100
AcDbDimStyleTableRecord
  2
AM_ISO$4
 70
     0
  4
"
 41
2.5
 42
1.0
 43
10.0
 44
1.0
 47
0.1
 48
0.1
 73
     0
 77
     1
 78
     8
 79
     2
140
3.5
141
0.0
143
0.0393701
146
0.71
147
1.5
176
   256
177
   256
178
     2
271
     2
272
     3
274
     4
283
     0
284
     8
288
     1
289
     0
340
11
371
    -1
372
    -1
  0
DIMSTYLE
105
9D
330
A
100
AcDbSymbolTableRecord
100
AcDbDimStyleTableRecord
  2
AM_ISO$6
 70
     0
  4
"
 41
2.5
 42
1.0
 43
10.0
 44
1.0
 47
0.1
 48
0.1
 73
     0
 74
     0
 78
     8
 79
     2
140
3.5
141
0.0
143
0.0393701
146
0.71
147
1.5
172
     1
176
   256
177
   256
178
     2
271
     2
272
     3
274
     4
283
     0
284
     8
340
11
371
    -1
372
    -1
  0
DIMSTYLE
105
9E
330
A
100
AcDbSymbolTableRecord
100
AcDbDimStyleTableRecord
  2
AM_ISO$7
 70
     0
  4
"
 41
2.5
 42
1.0
 43
10.0
 44
1.0
 47
0.1
 48
0.1
 73
     0
 74
     0
 77
     1
 78
     8
 79
     2
140
5.0
141
0.0
143
0.0393701
146
0.71
147
1.5
172
     1
176
   256
177
   256
178
     2
271
     2
272
     3
274
     4
283
     0
284
     8
340
11
371
    -1
372
    -1
  0
DIMSTYLE
105
9F
330
A
100
AcDbSymbolTableRecord
100
AcDbDimStyleTableRecord
  2
AM_ISO$SF
 70
     0
  4
"
 41
2.5
 42
1.0
 43
10.0
 44
1.0
 47
0.1
 48
0.1
 73
     0
 74
     0
 75
     1
 76
     1
 77
     1
 78
     8
 79
     2
140
3.5
141
0.0
143
0.0393701
146
0.71
147
1.5
172
     1
176
   256
177
   256
178
     2
271
     2
272
     3
274
     4
283
     0
284
     8
340
11
371
    -1
372
    -1
  0
DIMSTYLE
105
A0
330
A
100
AcDbSymbolTableRecord
100
AcDbDimStyleTableRecord
  2
AM_ISO$SH
 70
     0
  4
"
 41
2.5
 42
1.0
 43
10.0
 44
1.0
 47
0.1
 48
0.1
 73
     0
 74
     0
 75
     1
 76
     1
 77
     1
 78
     8
 79
     2
140
3.5
141
0.0
143
0.0393701
144
2.0
146
0.71
147
1.5
172
     1
173
     1
176
   256
177
   256
178
     2
271
     2
272
     3
274
     4
283
     0
284
     8
340
11
343
83
371
    -1
372
    -1
  0
DIMSTYLE
105
317
330
A
100
AcDbSymbolTableRecord
100
AcDbDimStyleTableRecord
  2
STANDARD
 70
     0
340
11
  0
ENDTAB
  0
TABLE
  2
BLOCK_RECORD
  5
1
330
0
100
AcDbSymbolTable
 70
    38
  0
BLOCK_RECORD
  5
1F
102
{ACAD_XDICTIONARY
360
B1
102
}
330
1
100
AcDbSymbolTableRecord
100
AcDbBlockTableRecord
  2
*Model_Space
340
22
  0
BLOCK_RECORD
  5
1B
330
1
100
AcDbSymbolTableRecord
100
AcDbBlockTableRecord
  2
*Paper_Space
340
1E
  0
BLOCK_RECORD
  5
23
330
1
100
AcDbSymbolTableRecord
100
AcDbBlockTableRecord
  2
*Paper_Space0
340
26
  0
BLOCK_RECORD
  5
77
330
1
100
AcDbSymbolTableRecord
100
AcDbBlockTableRecord
  2
_Open30
340
0
310
2800000020000000200000000100080000000000000400000000000000000000000000000000000000000000000080000080000000808000800000008000800080800000C0C0C000C0DCC000F0CAA6000020400000206000002080000020A0000020C0000020E00000400000004020000040400000406000004080000040A0
310
000040C0000040E00000600000006020000060400000606000006080000060A0000060C0000060E00000800000008020000080400000806000008080000080A0000080C0000080E00000A0000000A0200000A0400000A0600000A0800000A0A00000A0C00000A0E00000C0000000C0200000C0400000C0600000C0800000C0
310
A00000C0C00000C0E00000E0000000E0200000E0400000E0600000E0800000E0A00000E0C00000E0E00040000000400020004000400040006000400080004000A0004000C0004000E00040200000402020004020400040206000402080004020A0004020C0004020E000404000004040200040404000404060004040800040
310
40A0004040C0004040E00040600000406020004060400040606000406080004060A0004060C0004060E00040800000408020004080400040806000408080004080A0004080C0004080E00040A0000040A0200040A0400040A0600040A0800040A0A00040A0C00040A0E00040C0000040C0200040C0400040C0600040C08000
310
40C0A00040C0C00040C0E00040E0000040E0200040E0400040E0600040E0800040E0A00040E0C00040E0E00080000000800020008000400080006000800080008000A0008000C0008000E00080200000802020008020400080206000802080008020A0008020C0008020E00080400000804020008040400080406000804080
310
008040A0008040C0008040E00080600000806020008060400080606000806080008060A0008060C0008060E00080800000808020008080400080806000808080008080A0008080C0008080E00080A0000080A0200080A0400080A0600080A0800080A0A00080A0C00080A0E00080C0000080C0200080C0400080C0600080C0
310
800080C0A00080C0C00080C0E00080E0000080E0200080E0400080E0600080E0800080E0A00080E0C00080E0E000C0000000C0002000C0004000C0006000C0008000C000A000C000C000C000E000C0200000C0202000C0204000C0206000C0208000C020A000C020C000C020E000C0400000C0402000C0404000C0406000C0
310
408000C040A000C040C000C040E000C0600000C0602000C0604000C0606000C0608000C060A000C060C000C060E000C0800000C0802000C0804000C0806000C0808000C080A000C080C000C080E000C0A00000C0A02000C0A04000C0A06000C0A08000C0A0A000C0A0C000C0A0E000C0C00000C0C02000C0C04000C0C06000
310
C0C08000C0C0A000F0FBFF00A4A0A000808080000000FF0000FF000000FFFF00FF000000FF00FF00FFFF0000FFFFFF0000000000000000000000000000000000000000000000000000000000000000000000000000000000000000000000000000000000000000000000000000000000000000000000000000000000000000
310
00000000000000000000000000000000000000000000000000000000000000000000000000000000000000000000000000000000000000000000000000000000000000000000000000000000000000000000000000000000000000000000000000000000000000000000000000000000000000000000000000000000000000
310
000000000000000000000000000000000000000000000000000000000000000000000000000000000000000000000000000000FFFF0000000000000000000000000000000000000000000000000000000000000000FFFFFFFF0000000000000000000000000000000000000000000000000000000000000000FFFFFFFF0000
310
000000000000000000000000000000000000000000000000000000000000FFFFFF0000000000000000000000000000000000000000000000000000000000000000FFFFFFFF0000000000000000000000000000000000000000000000000000000000000000FFFFFF0000000000000000000000000000000000000000000000
310
000000000000000000FFFFFFFF0000000000000000000000000000000000000000000000000000000000000000FFFFFFFF00000000FFFFFFFFFFFFFFFFFFFFFFFFFFFFFFFFFFFFFFFFFFFFFFFFFFFFFFFFFFFF00000000000000000000000000000000000000000000000000FFFFFFFF000000000000000000000000000000
310
000000000000000000FFFFFFFF000000000000000000000000000000000000000000000000FFFFFFFF000000000000000000000000000000000000000000000000FFFFFFFF000000000000000000000000000000000000000000000000FFFFFFFF000000000000000000000000000000000000000000000000FFFFFFFF0000
310
0000000000000000000000000000000000000000000000FFFFFF0000000000000000000000000000000000000000000000000000000000000000000000000000000000000000000000000000000000000000000000000000000000000000000000000000000000000000000000000000000000000000000000000000000000
310
00000000000000000000000000000000000000000000000000000000000000000000000000000000000000000000000000000000000000000000000000000000000000000000000000000000000000000000000000000000000000000000000000000000000000000000000000000000000000000000000000000000000000
310
0000000000000000000000000000000000000000000000000000000000000000000000000000000000000000000000000000000000000000
102
{BLKREFS
331
2452
331
2453
331
245B
331
245C
331
246D
331
246E
331
2476
331
2477
331
2481
331
2482
331
248A
331
248B
331
2493
331
2494
331
249C
331
249D
331
24A5
331
24A6
331
24AE
331
24AF
331
24B7
331
24B8
331
24C0
331
24C1
331
24C9
331
24CA
331
24D2
331
24D3
331
257C
331
257D
331
2585
331
2586
102
}
  0
BLOCK_RECORD
  5
83
330
1
100
AcDbSymbolTableRecord
100
AcDbBlockTableRecord
  2
GENAXEH
340
0
310
2800000020000000200000000100080000000000000400000000000000000000000000000000000000000000000080000080000000808000800000008000800080800000C0C0C000C0DCC000F0CAA6000020400000206000002080000020A0000020C0000020E00000400000004020000040400000406000004080000040A0
310
000040C0000040E00000600000006020000060400000606000006080000060A0000060C0000060E00000800000008020000080400000806000008080000080A0000080C0000080E00000A0000000A0200000A0400000A0600000A0800000A0A00000A0C00000A0E00000C0000000C0200000C0400000C0600000C0800000C0
310
A00000C0C00000C0E00000E0000000E0200000E0400000E0600000E0800000E0A00000E0C00000E0E00040000000400020004000400040006000400080004000A0004000C0004000E00040200000402020004020400040206000402080004020A0004020C0004020E000404000004040200040404000404060004040800040
310
40A0004040C0004040E00040600000406020004060400040606000406080004060A0004060C0004060E00040800000408020004080400040806000408080004080A0004080C0004080E00040A0000040A0200040A0400040A0600040A0800040A0A00040A0C00040A0E00040C0000040C0200040C0400040C0600040C08000
310
40C0A00040C0C00040C0E00040E0000040E0200040E0400040E0600040E0800040E0A00040E0C00040E0E00080000000800020008000400080006000800080008000A0008000C0008000E00080200000802020008020400080206000802080008020A0008020C0008020E00080400000804020008040400080406000804080
310
008040A0008040C0008040E00080600000806020008060400080606000806080008060A0008060C0008060E00080800000808020008080400080806000808080008080A0008080C0008080E00080A0000080A0200080A0400080A0600080A0800080A0A00080A0C00080A0E00080C0000080C0200080C0400080C0600080C0
310
800080C0A00080C0C00080C0E00080E0000080E0200080E0400080E0600080E0800080E0A00080E0C00080E0E000C0000000C0002000C0004000C0006000C0008000C000A000C000C000C000E000C0200000C0202000C0204000C0206000C0208000C020A000C020C000C020E000C0400000C0402000C0404000C0406000C0
310
408000C040A000C040C000C040E000C0600000C0602000C0604000C0606000C0608000C060A000C060C000C060E000C0800000C0802000C0804000C0806000C0808000C080A000C080C000C080E000C0A00000C0A02000C0A04000C0A06000C0A08000C0A0A000C0A0C000C0A0E000C0C00000C0C02000C0C04000C0C06000
310
C0C08000C0C0A000F0FBFF00A4A0A000808080000000FF0000FF000000FFFF00FF000000FF00FF00FFFF0000FFFFFF0000000000000000000000000000000000000000000000000000000000000000000000000000000000000000000000000000000000000000000000000000000000000000000000000000000000000000
310
00000000000000000000000000000000000000000000000000000000000000000000000000000000000000000000000000000000000000000000000000000000000000000000000000000000000000000000000000000000000000000000000000000000000000000000000000000000000000000000000000000000000000
310
00000000000000000000000000000000000000000000000000000000000000000000000000000000000000000000000000000000000000000000000000000000000000000000000000000000000000000000000000000000000000000000000000000000000000000000000000000000000000000000000000000000000000
310
00000000000000000000000000000000000000000000000000000000000000000000000000000000000000000000000000000000000000000000000000000000000000000000000000000000000000000000000000000000000000000000000000000000000000000000000000000000000000000000000000000000000000
310
0000000000000000000000000000000000000000000000000000000000000000000000000000000000000000000000000000000000FFFFFFFFFFFFFFFFFFFFFFFFFFFFFFFFFFFFFFFFFFFFFFFFFFFFFFFFFFFF0000000000000000000000000000000000000000000000000000000000000000000000000000000000000000
310
00000000000000000000000000000000000000000000000000000000000000000000000000000000000000000000000000000000000000000000000000000000000000000000000000000000000000000000000000000000000000000000000000000000000000000000000000000000000000000000000000000000000000
310
00000000000000000000000000000000000000000000000000000000000000000000000000000000000000000000000000000000000000000000000000000000000000000000000000000000000000000000000000000000000000000000000000000000000000000000000000000000000000000000000000000000000000
310
00000000000000000000000000000000000000000000000000000000000000000000000000000000000000000000000000000000000000000000000000000000000000000000000000000000000000000000000000000000000000000000000000000000000000000000000000000000000000000000000000000000000000
310
0000000000000000000000000000000000000000000000000000000000000000000000000000000000000000000000000000000000000000
  0
BLOCK_RECORD
  5
335
330
1
100
AcDbSymbolTableRecord
100
AcDbBlockTableRecord
  2
IGS2
340
0
310
2800000020000000200000000100080000000000000400000000000000000000000000000000000000000000000080000080000000808000800000008000800080800000C0C0C000C0DCC000F0CAA6000020400000206000002080000020A0000020C0000020E00000400000004020000040400000406000004080000040A0
310
000040C0000040E00000600000006020000060400000606000006080000060A0000060C0000060E00000800000008020000080400000806000008080000080A0000080C0000080E00000A0000000A0200000A0400000A0600000A0800000A0A00000A0C00000A0E00000C0000000C0200000C0400000C0600000C0800000C0
310
A00000C0C00000C0E00000E0000000E0200000E0400000E0600000E0800000E0A00000E0C00000E0E00040000000400020004000400040006000400080004000A0004000C0004000E00040200000402020004020400040206000402080004020A0004020C0004020E000404000004040200040404000404060004040800040
310
40A0004040C0004040E00040600000406020004060400040606000406080004060A0004060C0004060E00040800000408020004080400040806000408080004080A0004080C0004080E00040A0000040A0200040A0400040A0600040A0800040A0A00040A0C00040A0E00040C0000040C0200040C0400040C0600040C08000
310
40C0A00040C0C00040C0E00040E0000040E0200040E0400040E0600040E0800040E0A00040E0C00040E0E00080000000800020008000400080006000800080008000A0008000C0008000E00080200000802020008020400080206000802080008020A0008020C0008020E00080400000804020008040400080406000804080
310
008040A0008040C0008040E00080600000806020008060400080606000806080008060A0008060C0008060E00080800000808020008080400080806000808080008080A0008080C0008080E00080A0000080A0200080A0400080A0600080A0800080A0A00080A0C00080A0E00080C0000080C0200080C0400080C0600080C0
310
800080C0A00080C0C00080C0E00080E0000080E0200080E0400080E0600080E0800080E0A00080E0C00080E0E000C0000000C0002000C0004000C0006000C0008000C000A000C000C000C000E000C0200000C0202000C0204000C0206000C0208000C020A000C020C000C020E000C0400000C0402000C0404000C0406000C0
310
408000C040A000C040C000C040E000C0600000C0602000C0604000C0606000C0608000C060A000C060C000C060E000C0800000C0802000C0804000C0806000C0808000C080A000C080C000C080E000C0A00000C0A02000C0A04000C0A06000C0A08000C0A0A000C0A0C000C0A0E000C0C00000C0C02000C0C04000C0C06000
310
C0C08000C0C0A000F0FBFF00A4A0A000808080000000FF0000FF000000FFFF00FF000000FF00FF00FFFF0000FFFFFF0000000000000000000000000000000000000000000000000000000000000000000000000000000000000000000000000000000000000000000000000000000000000000000000000000000000000000
310
00000000000000000000000000000000000000000000000000000000000000000000000000000000000000000000000000000000000000000000000000000000000000000000000000000000000000000000F9FBFBF9F9F9FBFBF9F9F9F90000000000000000000000000000000000000000F9F9FBFBFBFBFBFBFBF9F9F900
310
00000000000000000000000000000000000000F9FBFBFBFBFBFBFBFBF9F9F90000000000000000000000000000000000000000F9F9F9F9F9F9F9F9F9F9F9F900000000000000000000000000000000000000000000000000000000000000000000000000000000000000000000000000000000000000000000000000000000
310
00000000000000000000000000000000000000000000000000000000000000000000000000000000000000000000000000000000000000000000000000000000000000000000000000000000000000000000000000000000000000000000000000000000000000000000000000000000000000000000000000000000000000
310
00000000000000000000000000000000000000000000000000000000000000000000000000000000000000000000000000000000000000000000000000000000000000000000000000000000000000000000000000000000000000000000000000000000000000000000000000000000000000000000000000000000000000
310
00000000000000000000000000000000000000000000000000000000000000000000000000000000000000000000000000000000000000000000000000000000000000000000000000000000000000000000000000000000000000000000000000000000000000000000000000000000000000000000000000000000000000
310
00000000000000000000000000000000000000000000000000000000000000000000000000000000000000000000000000000000000000000000000000000000000000000000000000000000000000000000000000000000000000000000000000000000000000000000000000000000000000000000000000000000000000
310
00000000000000000000000000000000000000000000000000000000000000000000000000000000000000000000000000000000000000000000000000000000000000000000000000000000000000000000000000000000000000000000000000000000000000000000000000000000000000000000000000000000000000
310
0000000000000000000000000000000000000000000000000000000000000000000000000000000000000000000000000000000000000000
102
{BLKREFS
331
1208
102
}
  0
BLOCK_RECORD
  5
6A8
330
1
100
AcDbSymbolTableRecord
100
AcDbBlockTableRecord
  2
IGS_A3
340
0
310
2800000020000000200000000100080000000000000400000000000000000000000000000000000000000000000080000080000000808000800000008000800080800000C0C0C000C0DCC000F0CAA6000020400000206000002080000020A0000020C0000020E00000400000004020000040400000406000004080000040A0
310
000040C0000040E00000600000006020000060400000606000006080000060A0000060C0000060E00000800000008020000080400000806000008080000080A0000080C0000080E00000A0000000A0200000A0400000A0600000A0800000A0A00000A0C00000A0E00000C0000000C0200000C0400000C0600000C0800000C0
310
A00000C0C00000C0E00000E0000000E0200000E0400000E0600000E0800000E0A00000E0C00000E0E00040000000400020004000400040006000400080004000A0004000C0004000E00040200000402020004020400040206000402080004020A0004020C0004020E000404000004040200040404000404060004040800040
310
40A0004040C0004040E00040600000406020004060400040606000406080004060A0004060C0004060E00040800000408020004080400040806000408080004080A0004080C0004080E00040A0000040A0200040A0400040A0600040A0800040A0A00040A0C00040A0E00040C0000040C0200040C0400040C0600040C08000
310
40C0A00040C0C00040C0E00040E0000040E0200040E0400040E0600040E0800040E0A00040E0C00040E0E00080000000800020008000400080006000800080008000A0008000C0008000E00080200000802020008020400080206000802080008020A0008020C0008020E00080400000804020008040400080406000804080
310
008040A0008040C0008040E00080600000806020008060400080606000806080008060A0008060C0008060E00080800000808020008080400080806000808080008080A0008080C0008080E00080A0000080A0200080A0400080A0600080A0800080A0A00080A0C00080A0E00080C0000080C0200080C0400080C0600080C0
310
800080C0A00080C0C00080C0E00080E0000080E0200080E0400080E0600080E0800080E0A00080E0C00080E0E000C0000000C0002000C0004000C0006000C0008000C000A000C000C000C000E000C0200000C0202000C0204000C0206000C0208000C020A000C020C000C020E000C0400000C0402000C0404000C0406000C0
310
408000C040A000C040C000C040E000C0600000C0602000C0604000C0606000C0608000C060A000C060C000C060E000C0800000C0802000C0804000C0806000C0808000C080A000C080C000C080E000C0A00000C0A02000C0A04000C0A06000C0A08000C0A0A000C0A0C000C0A0E000C0C00000C0C02000C0C04000C0C06000
310
C0C08000C0C0A000F0FBFF00A4A0A000808080000000FF0000FF000000FFFF00FF000000FF00FF00FFFF0000FFFFFF0000000000000000000000000000000000000000000000000000000000000000000000000000000000000000000000000000000000000000000000000000000000000000000000000000000000000000
310
000000000000000000000000000000000000000000000000000000000000000000000000000000000000000000000000000000000000000000000000000000000000000000000000000000000000000000000000000000000000000000000000000000000000000000000000000000000000F9F9FFF9F9F9F9F9F9F9F9F9F9
310
F9F9F9F9F9F9F9F9F9F9F9F9F9F9F900000000F900FFFFFFFFFFFFFFFFFFFFFFFFFFFFFFFFFFFFFFFFFFFFFFFFFFF900000000F900FF0000000000000000000000000000000000000000000000FFF900000000F900FF0000000000000000000000000000000000000000000000FFF900000000F900FF000000000000000000
310
0000000000000000000000000000FFF900000000F900FF0000000000000000000000000000000000000000000000FFF900000000F900FF0000000000000000000000000000000000000000000000FFF900000000F900FF0000000000000000000000000000000000000000000000FFF900000000F900FF0000000000000000
310
000000000000000000000000000000FFF900000000F900FF0000000000000000000000000000000000000000000000FFF900000000F900FF0000000000000000000000000000000000000000000000FFF900000000F900FF0000000000000000000000000000000000000000000000FFF900000000F900FF00000000000000
310
00000000000000000000000000000000FFF900000000F900FF0000000000000000000000000000000000000000000000FFF900000000F900FF0000000000000000000000000000000000000000000000FFF900000000F900FF0000000000000000000000000000000000000000000000FFF900000000F900FF000000000000
310
0000000000000000000000000000000000FFF900000000F900FF0000000000000000000000000000000000000000000000FFF900000000F900FFFFFFFFFFFFFFFFFFFFFFFFFFFFFFFFFFFFFFFFFFFFFFFFFFF900000000F9F9F9F9F9F9F9F9F9F9F9F9F9F9F9F9F9F9F9F9F9F9F9F9F9F9F9F9000000000000000000000000
310
00000000000000000000000000000000000000000000000000000000000000000000000000000000000000000000000000000000000000000000000000000000000000000000000000000000000000000000000000000000000000000000000000000000000000000000000000000000000000000000000000000000000000
310
0000000000000000000000000000000000000000000000000000000000000000000000000000000000000000000000000000000000000000
102
{BLKREFS
331
1207
102
}
  0
BLOCK_RECORD
  5
10D8
330
1
100
AcDbSymbolTableRecord
100
AcDbBlockTableRecord
  2
*D6
340
0
  0
BLOCK_RECORD
  5
10E4
330
1
100
AcDbSymbolTableRecord
100
AcDbBlockTableRecord
  2
*D7
340
0
  0
BLOCK_RECORD
  5
10FC
330
1
100
AcDbSymbolTableRecord
100
AcDbBlockTableRecord
  2
*D8
340
0
  0
BLOCK_RECORD
  5
1108
330
1
100
AcDbSymbolTableRecord
100
AcDbBlockTableRecord
  2
*D9
340
0
  0
BLOCK_RECORD
  5
1114
330
1
100
AcDbSymbolTableRecord
100
AcDbBlockTableRecord
  2
*D10
340
0
  0
BLOCK_RECORD
  5
1120
330
1
100
AcDbSymbolTableRecord
100
AcDbBlockTableRecord
  2
*D11
340
0
  0
BLOCK_RECORD
  5
112C
330
1
100
AcDbSymbolTableRecord
100
AcDbBlockTableRecord
  2
*D12
340
0
  0
BLOCK_RECORD
  5
1138
330
1
100
AcDbSymbolTableRecord
100
AcDbBlockTableRecord
  2
*D13
340
0
  0
BLOCK_RECORD
  5
1144
330
1
100
AcDbSymbolTableRecord
100
AcDbBlockTableRecord
  2
*D14
340
0
  0
BLOCK_RECORD
  5
1150
330
1
100
AcDbSymbolTableRecord
100
AcDbBlockTableRecord
  2
*D15
340
0
  0
BLOCK_RECORD
  5
115C
330
1
100
AcDbSymbolTableRecord
100
AcDbBlockTableRecord
  2
*D16
340
0
  0
BLOCK_RECORD
  5
1168
330
1
100
AcDbSymbolTableRecord
100
AcDbBlockTableRecord
  2
*D17
340
0
  0
BLOCK_RECORD
  5
1174
330
1
100
AcDbSymbolTableRecord
100
AcDbBlockTableRecord
  2
*D18
340
0
  0
BLOCK_RECORD
  5
1431
330
1
100
AcDbSymbolTableRecord
100
AcDbBlockTableRecord
  2
*D19
340
0
  0
BLOCK_RECORD
  5
1466
102
{ACAD_XDICTIONARY
360
1467
102
}
330
1
100
AcDbSymbolTableRecord
100
AcDbBlockTableRecord
  2
A$C031D521E
340
0
102
{BLKREFS
331
148C
331
148E
331
148F
331
1490
331
1491
331
1492
331
14C8
331
14D1
331
14D3
331
14D4
331
14D5
331
14D6
331
14D0
331
14D2
331
2514
331
2513
331
2512
331
2511
331
2510
331
250F
331
250E
102
}
  0
BLOCK_RECORD
  5
1879
330
1
100
AcDbSymbolTableRecord
100
AcDbBlockTableRecord
  2
GENZOOQ0Z3AP2
340
0
102
{BLKREFS
331
1957
102
}
  0
BLOCK_RECORD
  5
18B9
330
1
100
AcDbSymbolTableRecord
100
AcDbBlockTableRecord
  2
GENZOOVJU7AP2
340
0
102
{BLKREFS
331
195C
102
}
  0
BLOCK_RECORD
  5
2540
330
1
100
AcDbSymbolTableRecord
100
AcDbBlockTableRecord
  2
*D23
340
0
  0
BLOCK_RECORD
  5
2566
330
1
100
AcDbSymbolTableRecord
100
AcDbBlockTableRecord
  2
*D24
340
0
  0
BLOCK_RECORD
  5
2793
330
1
100
AcDbSymbolTableRecord
100
AcDbBlockTableRecord
  2
*S25
340
0
  0
BLOCK_RECORD
  5
279A
330
1
100
AcDbSymbolTableRecord
100
AcDbBlockTableRecord
  2
*S26
340
0
  0
BLOCK_RECORD
  5
27A2
330
1
100
AcDbSymbolTableRecord
100
AcDbBlockTableRecord
  2
*S27
340
0
  0
BLOCK_RECORD
  5
27A9
330
1
100
AcDbSymbolTableRecord
100
AcDbBlockTableRecord
  2
*S28
340
0
  0
BLOCK_RECORD
  5
27B1
330
1
100
AcDbSymbolTableRecord
100
AcDbBlockTableRecord
  2
*S29
340
0
  0
BLOCK_RECORD
  5
27B8
330
1
100
AcDbSymbolTableRecord
100
AcDbBlockTableRecord
  2
*S30
340
0
  0
BLOCK_RECORD
  5
27C0
330
1
100
AcDbSymbolTableRecord
100
AcDbBlockTableRecord
  2
*S31
340
0
  0
BLOCK_RECORD
  5
27C7
330
1
100
AcDbSymbolTableRecord
100
AcDbBlockTableRecord
  2
*S32
340
0
  0
BLOCK_RECORD
  5
27CF
330
1
100
AcDbSymbolTableRecord
100
AcDbBlockTableRecord
  2
*S33
340
0
  0
BLOCK_RECORD
  5
27D6
330
1
100
AcDbSymbolTableRecord
100
AcDbBlockTableRecord
  2
*S34
340
0
  0
BLOCK_RECORD
  5
27DE
330
1
100
AcDbSymbolTableRecord
100
AcDbBlockTableRecord
  2
*S35
340
0
  0
BLOCK_RECORD
  5
27E5
330
1
100
AcDbSymbolTableRecord
100
AcDbBlockTableRecord
  2
*S36
340
0
  0
BLOCK_RECORD
  5
27ED
330
1
100
AcDbSymbolTableRecord
100
AcDbBlockTableRecord
  2
*S37
340
0
  0
ENDTAB
  0
ENDSEC
  0
SECTION
  2
BLOCKS
  0
BLOCK
  5
20
330
1F
100
AcDbEntity
  8
0
100
AcDbBlockBegin
  2
*Model_Space
 70
     0
 10
0.0
 20
0.0
 30
0.0
  3
*Model_Space
  1

  0
ENDBLK
  5
21
330
1F
100
AcDbEntity
  8
0
100
AcDbBlockEnd
  0
BLOCK
  5
1C
330
1B
100
AcDbEntity
 67
     1
  8
0
100
AcDbBlockBegin
  2
*Paper_Space
 70
     0
 10
0.0
 20
0.0
 30
0.0
  3
*Paper_Space
  1

  0
ENDBLK
  5
1D
330
1B
100
AcDbEntity
 67
     1
  8
0
100
AcDbBlockEnd
  0
BLOCK
  5
24
330
23
100
AcDbEntity
  8
0
100
AcDbBlockBegin
  2
*Paper_Space0
 70
     0
 10
0.0
 20
0.0
 30
0.0
  3
*Paper_Space0
  1

  0
ENDBLK
  5
25
330
23
100
AcDbEntity
  8
0
100
AcDbBlockEnd
  0
BLOCK
  5
7B
330
77
100
AcDbEntity
  8
0
100
AcDbBlockBegin
  2
_Open30
 70
     0
 10
0.0
 20
0.0
 30
0.0
  3
_Open30
  1

  0
LINE
  5
78
330
77
100
AcDbEntity
  8
0
  6
ByBlock
 62
     0
370
    -2
100
AcDbLine
 10
-1.0
 20
0.26794919
 30
0.0
 11
0.0
 21
0.0
 31
0.0
  0
LINE
  5
79
330
77
100
AcDbEntity
  8
0
  6
ByBlock
 62
     0
370
    -2
100
AcDbLine
 10
0.0
 20
0.0
 30
0.0
 11
-1.0
 21
-0.26794919
 31
0.0
  0
LINE
  5
7A
330
77
100
AcDbEntity
  8
0
  6
ByBlock
 62
     0
370
    -2
100
AcDbLine
 10
0.0
 20
0.0
 30
0.0
 11
-1.0
 21
0.0
 31
0.0
  0
ENDBLK
  5
7C
330
77
100
AcDbEntity
  8
0
100
AcDbBlockEnd
  0
BLOCK
  5
85
330
83
100
AcDbEntity
  8
0
100
AcDbBlockBegin
  2
GENAXEH
 70
     0
 10
0.0
 20
0.0
 30
0.0
  3
GENAXEH
  1

  0
LINE
  5
84
330
83
100
AcDbEntity
  8
0
100
AcDbLine
 10
-1.0
 20
0.0
 30
0.0
 11
1.0
 21
0.0
 31
0.0
  0
ENDBLK
  5
86
330
83
100
AcDbEntity
  8
0
100
AcDbBlockEnd
  0
BLOCK
  5
3B8
330
335
100
AcDbEntity
  8
0
100
AcDbBlockBegin
  2
IGS2
 70
     2
 10
0.0
 20
0.0
 30
0.0
  3
IGS2
  1

  0
POINT
  5
336
330
335
100
AcDbEntity
  8
0
 60
     1
100
AcDbPoint
 10
0.0
 20
0.0
 30
0.0
1001
GENIUS_GENODEF_13
1002
{
1000
HIER
1070
     1
1002
}
1002
{
1000
MANEDIT
1070
     0
1002
}
1002
{
1000
NOSEL
1070
     0
1002
}
1002
{
1000
BEHIND
1070
     0
1002
}
1002
{
1000
REACTOR
1002
}
1001
GENIUS_GENTITLE_13
1002
{
1000
SCALE
1000
1:1
1002
}
1002
{
1000
BORDER
1000
IGS-A4
1002
}
1002
{
1000
TITLE
1000
IGS-TITLE
1002
}
1002
{
1000
UNCHG
1002
{
1000
GEN-TITLE-SCA
1000
GEN-TITLE-SIZ
1002
}
1002
}
1002
{
1000
HRA
1005
0
1002
}
1002
{
1000
HTIT
1005
0
1002
}
1002
{
1000
GENIUSID
1005
336
1002
}
1001
GENIUS_GENOBJ-N-TIT_13
1002
{
1000
OWNER
1000
GEN
1002
}
1001
GENIUS_GENOENT_13
1002
{
1000
MYREF
1005
336
1002
}
1002
{
1000
GRP
1005
0
1002
}
1001
GENIUS_GENOLIS_13
1002
{
1000
ENT
1005
0
1005
0
1002
}
  0
LINE
  5
337
330
335
100
AcDbEntity
  8
RAHM3
100
AcDbLine
 10
-148.4080564410193
 20
8.825237325416161
 30
52.0
 11
-145.4319868410194
 21
8.825237325416161
 31
52.0
  0
ARC
  5
338
330
335
100
AcDbEntity
  8
RAHM3
100
AcDbCircle
 10
-141.4638940410194
 20
7.833214125416168
 30
52.0
 40
0.9920232
100
AcDbArc
 50
90.0
 51
180.0
  0
LINE
  5
339
330
335
100
AcDbEntity
  8
RAHM3
100
AcDbLine
 10
-137.6611384410193
 20
8.825237325416161
 30
52.0
 11
-141.4638940410194
 21
8.825237325416161
 31
52.0
  0
ARC
  5
33A
330
335
100
AcDbEntity
  8
RAHM3
100
AcDbCircle
 10
-137.6611384410193
 20
7.833214125416168
 30
52.0
 40
0.9920232
100
AcDbArc
 50
0.0
 51
90.0
  0
ARC
  5
33B
330
335
100
AcDbEntity
  8
RAHM3
100
AcDbCircle
 10
-129.0636040410194
 20
7.833214125416168
 30
52.0
 40
0.9920232
100
AcDbArc
 50
0.0
 51
90.0
  0
LINE
  5
33C
330
335
100
AcDbEntity
  8
RAHM3
100
AcDbLine
 10
-132.7010224410193
 20
8.825237325416161
 30
52.0
 11
-129.0636040410194
 21
8.825237325416161
 31
52.0
  0
ARC
  5
33D
330
335
100
AcDbEntity
  8
RAHM3
100
AcDbCircle
 10
-132.7010224410193
 20
7.833214125416168
 30
52.0
 40
0.9920232
100
AcDbArc
 50
90.0
 51
180.0
  0
LINE
  5
33E
330
335
100
AcDbEntity
  8
RAHM3
100
AcDbLine
 10
-148.4080564410193
 20
8.163888525416165
 30
52.0
 11
-147.5813704410193
 21
8.163888525416165
 31
52.0
  0
LINE
  5
33F
330
335
100
AcDbEntity
  8
RAHM3
100
AcDbLine
 10
-147.5813704410193
 20
8.163888525416165
 30
52.0
 11
-147.5813704410193
 21
3.865121325416145
 31
52.0
  0
LINE
  5
340
330
335
100
AcDbEntity
  8
RAHM3
100
AcDbLine
 10
-146.2586728410194
 20
3.865121325416145
 30
52.0
 11
-146.2586728410194
 21
8.163888525416165
 31
52.0
  0
LINE
  5
341
330
335
100
AcDbEntity
  8
RAHM3
100
AcDbLine
 10
-146.2586728410194
 20
8.163888525416165
 30
52.0
 11
-145.4319868410194
 21
8.163888525416165
 31
52.0
  0
LINE
  5
342
330
335
100
AcDbEntity
  8
RAHM3
100
AcDbLine
 10
-145.4319868410194
 20
8.825237325416161
 30
52.0
 11
-145.4319868410194
 21
8.163888525416165
 31
52.0
  0
LINE
  5
343
330
335
100
AcDbEntity
  8
RAHM3
100
AcDbLine
 10
-148.4080564410193
 20
8.163888525416165
 30
52.0
 11
-148.4080564410193
 21
8.825237325416161
 31
52.0
  0
LINE
  5
344
330
335
100
AcDbEntity
  8
RAHM3
100
AcDbLine
 10
-145.4319868410194
 20
3.203772525416149
 30
52.0
 11
-148.4080564410193
 21
3.203772525416149
 31
52.0
  0
CIRCLE
  5
345
330
335
100
AcDbEntity
  8
RAHM3
100
AcDbCircle
 10
-144.1092892410194
 20
3.865121325416145
 30
52.0
 40
0.6613488000000001
  0
LINE
  5
346
330
335
100
AcDbEntity
  8
RAHM3
100
AcDbLine
 10
-137.9918128410194
 20
3.865121325416145
 30
52.0
 11
-137.9918128410194
 21
3.203772525416149
 31
52.0
  0
LINE
  5
347
330
335
100
AcDbEntity
  8
RAHM3
100
AcDbLine
 10
-137.9918128410194
 20
3.203772525416149
 30
52.0
 11
-136.6691152410193
 21
3.203772525416149
 31
52.0
  0
ARC
  5
348
330
335
100
AcDbEntity
  8
RAHM3
100
AcDbCircle
 10
-141.4638940410194
 20
4.195795725416166
 30
52.0
 40
0.9920232
100
AcDbArc
 50
180.0
 51
270.0
  0
LINE
  5
349
330
335
100
AcDbEntity
  8
RAHM3
100
AcDbLine
 10
-141.4638940410194
 20
3.203772525416149
 30
52.0
 11
-141.1332196410193
 21
3.203772525416149
 31
52.0
  0
LINE
  5
34A
330
335
100
AcDbEntity
  8
RAHM3
100
AcDbLine
 10
-142.4559172410194
 20
4.195795725416166
 30
52.0
 11
-142.4559172410194
 21
7.833214125416168
 31
52.0
  0
CIRCLE
  5
34B
330
335
100
AcDbEntity
  8
RAHM3
100
AcDbCircle
 10
-135.5117548410193
 20
3.865121325416145
 30
52.0
 40
0.6613488000000001
  0
ARC
  5
34C
330
335
100
AcDbEntity
  8
RAHM3
100
AcDbCircle
 10
-132.7010224410193
 20
4.195795725416166
 30
52.0
 40
0.9920232
100
AcDbArc
 50
180.0
 51
270.0
  0
LINE
  5
34D
330
335
100
AcDbEntity
  8
RAHM3
100
AcDbLine
 10
-129.0636040410194
 20
3.203772525416149
 30
52.0
 11
-132.7010224410193
 21
3.203772525416149
 31
52.0
  0
ARC
  5
34E
330
335
100
AcDbEntity
  8
RAHM3
100
AcDbCircle
 10
-129.0636040410194
 20
4.195795725416166
 30
52.0
 40
0.9920232
100
AcDbArc
 50
270.0
 51
0.0
  0
LINE
  5
34F
330
335
100
AcDbEntity
  8
RAHM3
100
AcDbLine
 10
-133.6930456410194
 20
4.195795725416166
 30
52.0
 11
-133.6930456410194
 21
5.022481725416161
 31
52.0
  0
LINE
  5
350
330
335
100
AcDbEntity
  8
RAHM3
100
AcDbLine
 10
-128.0715808410194
 20
7.833214125416168
 30
52.0
 11
-128.0715808410194
 21
7.00652812541615
 31
52.0
  0
CIRCLE
  5
351
330
335
100
AcDbEntity
  8
RAHM3
100
AcDbCircle
 10
-126.9142204410194
 20
3.865121325416145
 30
52.0
 40
0.6613488000000001
  0
LINE
  5
352
330
335
100
AcDbEntity
  8
RAHM3
100
AcDbLine
 10
-136.6691152410193
 20
7.171865325416149
 30
52.0
 11
-137.8264756410194
 21
7.171865325416149
 31
52.0
  0
LINE
  5
353
330
335
100
AcDbEntity
  8
RAHM3
100
AcDbLine
 10
-137.8264756410194
 20
7.171865325416149
 30
52.0
 11
-137.8264756410194
 21
7.667876925416146
 31
52.0
  0
LINE
  5
354
330
335
100
AcDbEntity
  8
RAHM3
100
AcDbLine
 10
-137.8264756410194
 20
7.667876925416146
 30
52.0
 11
-141.2985568410193
 21
7.667876925416146
 31
52.0
  0
LINE
  5
355
330
335
100
AcDbEntity
  8
RAHM3
100
AcDbLine
 10
-141.2985568410193
 20
7.667876925416146
 30
52.0
 11
-141.2985568410193
 21
4.361132925416165
 31
52.0
  0
LINE
  5
356
330
335
100
AcDbEntity
  8
RAHM3
100
AcDbLine
 10
-137.8264756410194
 20
5.518493325416158
 30
52.0
 11
-139.4798476410193
 21
5.518493325416158
 31
52.0
  0
LINE
  5
357
330
335
100
AcDbEntity
  8
RAHM3
100
AcDbLine
 10
-139.4798476410193
 20
5.518493325416158
 30
52.0
 11
-139.4798476410193
 21
6.510516525416153
 31
52.0
  0
LINE
  5
358
330
335
100
AcDbEntity
  8
RAHM3
100
AcDbLine
 10
-136.6691152410193
 20
7.171865325416149
 30
52.0
 11
-136.6691152410193
 21
7.833214125416168
 31
52.0
  0
LINE
  5
359
330
335
100
AcDbEntity
  8
RAHM3
100
AcDbLine
 10
-137.8264756410194
 20
5.022481725416161
 30
52.0
 11
-137.8264756410194
 21
5.518493325416158
 31
52.0
  0
LINE
  5
35A
330
335
100
AcDbEntity
  8
RAHM3
100
AcDbLine
 10
-137.6611384410193
 20
6.510516525416153
 30
52.0
 11
-139.4798476410193
 21
6.510516525416153
 31
52.0
  0
LINE
  5
35B
330
335
100
AcDbEntity
  8
RAHM3
100
AcDbLine
 10
-136.6691152410193
 20
5.518493325416158
 30
52.0
 11
-136.6691152410193
 21
3.203772525416149
 31
52.0
  0
ARC
  5
35C
330
335
100
AcDbEntity
  8
RAHM3
100
AcDbCircle
 10
-137.6611384410193
 20
5.518493325416158
 30
52.0
 40
0.9920232
100
AcDbArc
 50
0.0
 51
90.0
  0
LINE
  5
35D
330
335
100
AcDbEntity
  8
RAHM3
100
AcDbLine
 10
-139.1930809214994
 20
5.022481725416161
 30
52.0
 11
-137.8264756410194
 21
5.022481725416161
 31
52.0
  0
ARC
  5
35E
330
335
100
AcDbEntity
  8
RAHM3
100
AcDbCircle
 10
-139.1930809214994
 20
4.030458525416167
 30
52.0
 40
0.9920232
100
AcDbArc
 50
90.0
 51
119.7448812969
  0
LINE
  5
35F
330
335
100
AcDbEntity
  8
RAHM3
100
AcDbLine
 10
-140.8773334868594
 20
4.361132925416165
 30
52.0
 11
-141.2985568410193
 21
4.361132925416165
 31
52.0
  0
LINE
  5
360
330
335
100
AcDbEntity
  8
RAHM3
100
AcDbLine
 10
-140.3851521495794
 20
4.491838785176161
 30
52.0
 11
-139.6852622587794
 21
4.891775865576152
 31
52.0
  0
ARC
  5
361
330
335
100
AcDbEntity
  8
RAHM3
100
AcDbCircle
 10
-140.8773334868594
 20
5.35315612541616
 30
52.0
 40
0.9920232
100
AcDbArc
 50
270.0
 51
299.7448812969
  0
ARC
  5
362
330
335
100
AcDbEntity
  8
RAHM3
100
AcDbCircle
 10
-138.8857271583794
 20
2.873098125416151
 30
52.0
 40
0.9920232
100
AcDbArc
 50
90.0
 51
119.7448812969
  0
LINE
  5
363
330
335
100
AcDbEntity
  8
RAHM3
100
AcDbLine
 10
-140.5699797237394
 20
3.203772525416149
 30
52.0
 11
-141.4638940410194
 21
3.203772525416149
 31
52.0
  0
ARC
  5
364
330
335
100
AcDbEntity
  8
RAHM3
100
AcDbCircle
 10
-140.5699797237394
 20
4.195795725416166
 30
52.0
 40
0.9920232
100
AcDbArc
 50
270.0
 51
299.7448812969
  0
LINE
  5
365
330
335
100
AcDbEntity
  8
RAHM3
100
AcDbLine
 10
-139.3779084956594
 20
3.734415465576159
 30
52.0
 11
-140.0777983864594
 21
3.334478385176168
 31
52.0
  0
LINE
  5
366
330
335
100
AcDbEntity
  8
RAHM3
100
AcDbLine
 10
-138.8857271583794
 20
3.865121325416145
 30
52.0
 11
-137.9918128410194
 21
3.865121325416145
 31
52.0
  0
LINE
  5
367
330
335
100
AcDbEntity
  8
RAHM3
100
AcDbLine
 10
-147.5813704410193
 20
3.865121325416145
 30
52.0
 11
-148.4080564410193
 21
3.865121325416145
 31
52.0
  0
LINE
  5
368
330
335
100
AcDbEntity
  8
RAHM3
100
AcDbLine
 10
-146.2586728410194
 20
3.865121325416145
 30
52.0
 11
-145.4319868410194
 21
3.865121325416145
 31
52.0
  0
LINE
  5
369
330
335
100
AcDbEntity
  8
RAHM3
100
AcDbLine
 10
-148.4080564410193
 20
3.203772525416149
 30
52.0
 11
-148.4080564410193
 21
3.865121325416145
 31
52.0
  0
LINE
  5
36A
330
335
100
AcDbEntity
  8
RAHM3
100
AcDbLine
 10
-145.4319868410194
 20
3.865121325416145
 30
52.0
 11
-145.4319868410194
 21
3.203772525416149
 31
52.0
  0
LINE
  5
36B
330
335
100
AcDbEntity
  8
RAHM3
100
AcDbLine
 10
-132.5356852410194
 20
7.667876925416146
 30
52.0
 11
-129.2289412410193
 21
7.667876925416146
 31
52.0
  0
LINE
  5
36C
330
335
100
AcDbEntity
  8
RAHM3
100
AcDbLine
 10
-129.2289412410193
 20
7.667876925416146
 30
52.0
 11
-129.2289412410193
 21
7.00652812541615
 31
52.0
  0
LINE
  5
36D
330
335
100
AcDbEntity
  8
RAHM3
100
AcDbLine
 10
-132.5356852410194
 20
5.022481725416161
 30
52.0
 11
-132.5356852410194
 21
4.361132925416165
 31
52.0
  0
LINE
  5
36E
330
335
100
AcDbEntity
  8
RAHM3
100
AcDbLine
 10
-132.5356852410194
 20
4.361132925416165
 30
52.0
 11
-129.2289412410193
 21
4.361132925416165
 31
52.0
  0
LINE
  5
36F
330
335
100
AcDbEntity
  8
RAHM3
100
AcDbLine
 10
-132.5356852410194
 20
5.022481725416161
 30
52.0
 11
-133.6930456410194
 21
5.022481725416161
 31
52.0
  0
LINE
  5
370
330
335
100
AcDbEntity
  8
RAHM3
100
AcDbLine
 10
-128.0715808410194
 20
7.00652812541615
 30
52.0
 11
-129.2289412410193
 21
7.00652812541615
 31
52.0
  0
LINE
  5
371
330
335
100
AcDbEntity
  8
RAHM3
100
AcDbLine
 10
-129.2289412410193
 20
4.361132925416165
 30
52.0
 11
-129.2289412410193
 21
5.518493325416158
 31
52.0
  0
LINE
  5
372
330
335
100
AcDbEntity
  8
RAHM3
100
AcDbLine
 10
-132.5356852410194
 20
6.510516525416153
 30
52.0
 11
-132.5356852410194
 21
7.667876925416146
 31
52.0
  0
LINE
  5
373
330
335
100
AcDbEntity
  8
RAHM3
100
AcDbLine
 10
-128.0715808410194
 20
5.518493325416158
 30
52.0
 11
-128.0715808410194
 21
4.195795725416166
 31
52.0
  0
LINE
  5
374
330
335
100
AcDbEntity
  8
RAHM3
100
AcDbLine
 10
-129.0636040410194
 20
6.510516525416153
 30
52.0
 11
-132.5356852410194
 21
6.510516525416153
 31
52.0
  0
ARC
  5
375
330
335
100
AcDbEntity
  8
RAHM3
100
AcDbCircle
 10
-129.0636040410194
 20
5.518493325416158
 30
52.0
 40
0.9920232
100
AcDbArc
 50
0.0
 51
90.0
  0
LINE
  5
376
330
335
100
AcDbEntity
  8
RAHM3
100
AcDbLine
 10
-132.7010224411794
 20
5.518493325416158
 30
52.0
 11
-129.2289412410193
 21
5.518493325416158
 31
52.0
  0
LINE
  5
377
330
335
100
AcDbEntity
  8
RAHM3
100
AcDbLine
 10
-133.6930456410194
 20
6.510516525416153
 30
52.0
 11
-133.6930456410194
 21
7.833214125416168
 31
52.0
  0
ARC
  5
378
330
335
100
AcDbEntity
  8
RAHM3
100
AcDbCircle
 10
-132.7010224411794
 20
6.510516525416153
 30
52.0
 40
0.9920232
100
AcDbArc
 50
180.0
 51
270.0
  0
POINT
  5
379
330
335
100
AcDbEntity
  8
0
 60
     1
100
AcDbPoint
 10
0.0
 20
0.0
 30
0.0
1001
GENIUS_GENODEF_13
1002
{
1000
HIER
1070
     1
1002
}
1002
{
1000
MANEDIT
1070
     0
1002
}
1002
{
1000
NOSEL
1070
     0
1002
}
1002
{
1000
BEHIND
1070
     0
1002
}
1002
{
1000
REACTOR
1002
}
1001
GENIUS_GENTITLE_13
1002
{
1000
SCALE
1000
1:1
1002
}
1002
{
1000
BORDER
1000
GEN_A4
1002
}
1002
{
1000
TITLE
1000
GENTITUS
1002
}
1002
{
1000
UNCHG
1002
{
1000
GEN-TITLE-SCA
1000
GEN-TITLE-SIZ
1002
}
1002
}
1002
{
1000
HRA
1005
0
1002
}
1002
{
1000
HTIT
1005
0
1002
}
1002
{
1000
GENIUSID
1005
379
1002
}
1001
GENIUS_GENOBJ-N-TIT_13
1002
{
1000
OWNER
1000
GEN
1002
}
1001
GENIUS_GENOENT_13
1002
{
1000
MYREF
1005
379
1002
}
1002
{
1000
GRP
1005
0
1002
}
1001
GENIUS_GENOLIS_13
1002
{
1000
ENT
1005
0
1005
0
1002
}
  0
TEXT
  5
37A
330
335
100
AcDbEntity
  8
0
 60
     1
100
AcDbText
 10
210.0
 20
297.0
 30
0.0
 40
3.5
  1
!GENTITLE-MAX
100
AcDbText
  0
TEXT
  5
37B
330
335
100
AcDbEntity
  8
0
 60
     1
100
AcDbText
 10
205.0
 20
287.0
 30
0.0
 40
3.5
  1
!GENTITLE-RU
100
AcDbText
  0
TEXT
  5
37C
330
335
100
AcDbEntity
  8
0
 60
     1
100
AcDbText
 10
15.0
 20
59.99
 30
0.0
 40
3.5
  1
!GENTITLE-LL
100
AcDbText
  0
TEXT
  5
37D
330
335
100
AcDbEntity
  8
0
 60
     1
100
AcDbText
 10
205.0
 20
5.0
 30
0.0
 40
3.5
  1
!GENTITLE-INSERT
100
AcDbText
  0
LINE
  5
37E
330
335
100
AcDbEntity
  8
RAHM2
100
AcDbLine
 10
-155.0
 20
12.0
 30
0.0
 11
0.0
 21
12.0
 31
0.0
  0
LINE
  5
37F
330
335
100
AcDbEntity
  8
RAHM2
100
AcDbLine
 10
-12.0
 20
12.0
 30
0.0
 11
-12.00000000000727
 21
0.0
 31
0.0
  0
LINE
  5
380
330
335
100
AcDbEntity
  8
RAHM2
100
AcDbLine
 10
-80.0
 20
19.99999999999272
 30
0.0
 11
0.0
 21
20.0
 31
0.0
  0
LINE
  5
381
330
335
100
AcDbEntity
  8
RAHM2
100
AcDbLine
 10
0.0
 20
27.0
 30
0.0
 11
-80.0
 21
27.0
 31
0.0
  0
MTEXT
  5
382
330
335
100
AcDbEntity
  8
RAHM2
100
AcDbMText
 10
-78.39748281353763
 20
37.79972226353243
 30
0.0
 40
2.5
 41
2.458156240282278
 71
     1
 72
     5
  1

 73
     1
 44
1.0
  0
TEXT
  5
383
330
335
100
AcDbEntity
  8
RAHM3
100
AcDbText
 10
-79.00900277736832
 20
36.89804600214973
 30
0.0
 40
2.299999999999999
  1
名称 ＴＩＴＬＥ
 41
0.8
100
AcDbText
  0
LINE
  5
384
330
335
100
AcDbEntity
  8
RAHM2
100
AcDbLine
 10
-80.0
 20
40.00000000000727
 30
0.0
 11
-80.0
 21
0.0
 31
0.0
  0
TEXT
  5
385
330
335
100
AcDbEntity
  8
RAHM3
100
AcDbText
 10
-79.00900277736832
 20
23.89804600216055
 30
0.0
 40
2.299999999999999
  1
符号 
 41
0.8
100
AcDbText
  0
TEXT
  5
386
330
335
100
AcDbEntity
  8
RAHM3
100
AcDbText
 10
-79.00900277736832
 20
16.89804600215146
 30
0.0
 40
2.299999999999999
  1
件名
 41
0.8
100
AcDbText
  0
TEXT
  5
387
330
335
100
AcDbEntity
  8
RAHM3
100
AcDbText
 10
-79.00900277736832
 20
8.898046002160548
 30
0.0
 40
2.299999999999999
  1
図番 ＤＲＡＷＩＮＧ ＮＯ．
 41
0.8
100
AcDbText
  0
CIRCLE
  5
388
330
335
100
AcDbEntity
  8
RAHM2
100
AcDbCircle
 10
-5.0
 20
5.0
 30
0.0
 40
4.5
  0
LINE
  5
389
330
335
100
AcDbEntity
  8
RAHM2
100
AcDbLine
 10
-130.0000000000018
 20
40.00000000000916
 30
0.0
 11
-130.0000000000018
 21
12.0
 31
0.0
  0
LINE
  5
38A
330
335
100
AcDbEntity
  8
RAHM2
100
AcDbLine
 10
-130.0000000000018
 20
26.00000000000458
 30
0.0
 11
-80.0
 21
25.99999999999818
 31
0.0
  0
LINE
  5
38B
330
335
100
AcDbEntity
  8
RAHM2
100
AcDbLine
 10
-105.0000000000018
 20
40.00000000000916
 30
0.0
 11
-105.0000000000018
 21
12.0
 31
0.0
  0
TEXT
  5
38C
330
335
100
AcDbEntity
  8
RAHM3
100
AcDbText
 10
-129.0090027773683
 20
36.89804600215881
 30
0.0
 40
2.299999999999999
  1
承認 ＡＰＰＤ
 41
0.8
100
AcDbText
  0
TEXT
  5
38D
330
335
100
AcDbEntity
  8
RAHM3
100
AcDbText
 10
-104.0090027773683
 20
36.8980460021551
 30
0.0
 40
2.299999999999999
  1
検図 ＣＨＫ
 41
0.8
100
AcDbText
  0
TEXT
  5
38E
330
335
100
AcDbEntity
  8
RAHM3
100
AcDbText
 10
-129.0090027773683
 20
22.89804600215422
 30
0.0
 40
2.299999999999999
  1
設計 ＥＮＧＲ
 41
0.8
100
AcDbText
  0
TEXT
  5
38F
330
335
100
AcDbEntity
  8
RAHM3
100
AcDbText
 10
-104.0090027773683
 20
22.89804600214964
 30
0.0
 40
2.299999999999999
  1
製図 ＤＲ ＤＡＴＥ
 41
0.8
100
AcDbText
  0
LINE
  5
390
330
335
100
AcDbEntity
  8
RAHM2
100
AcDbLine
 10
-155.0
 20
30.60000000000036
 30
0.0
 11
-130.0000000000018
 21
30.60000000000036
 31
0.0
  0
LINE
  5
391
330
335
100
AcDbEntity
  8
RAHM2
100
AcDbLine
 10
-155.0
 20
21.29999999999927
 30
0.0
 11
-130.0000000000018
 21
21.30000000000109
 31
0.0
  0
TEXT
  5
392
330
335
100
AcDbEntity
  8
RAHM3
100
AcDbText
 10
-121.7843516157921
 20
6.885079184961092
 30
0.0
 40
4.0
  1
伊藤鉄工株式会社
100
AcDbText
  0
TEXT
  5
393
330
335
100
AcDbEntity
  8
RAHM3
100
AcDbText
 10
-120.6675998914835
 20
3.578884653066273
 30
0.0
 40
2.0
  1
ITO TEKKO  CO.,LTD.
100
AcDbText
1001
GENIUS_GENTRA_14
1002
{
1070
     1
1000
/
1000
ITO TEKKO  CO.,LTD.
1000
JPN
1070
     0
1040
1.0
1070
     0
1002
}
  0
TEXT
  5
394
330
335
100
AcDbEntity
  8
RAHM3
100
AcDbText
 10
-120.6675998914835
 20
0.9279960228792472
 30
0.0
 40
2.0
  1
KAWAGUCHI  JAPAN
100
AcDbText
  0
TEXT
  5
395
330
335
100
AcDbEntity
  8
RAHM3
100
AcDbText
 10
-11.85206060358336
 20
9.69362381988742
 30
0.0
 40
1.8
  1
ＲＥＶ．ＭＡＲＫ
 41
0.6800000000000001
100
AcDbText
  0
TEXT
  5
396
330
335
100
AcDbEntity
  8
RAHM3
100
AcDbText
 10
-11.57052530051805
 20
7.425435269030799
 30
0.0
 40
1.8
  1
変
100
AcDbText
  0
TEXT
  5
397
330
335
100
AcDbEntity
  8
RAHM3
100
AcDbText
 10
-11.59004395148213
 20
4.996441785248862
 30
0.0
 40
1.8
  1
更
100
AcDbText
  0
TEXT
  5
398
330
335
100
AcDbEntity
  8
RAHM3
100
AcDbText
 10
-11.62938531906752
 20
2.617267270587205
 30
0.0
 40
1.8
  1
回
100
AcDbText
  0
TEXT
  5
399
330
335
100
AcDbEntity
  8
RAHM3
100
AcDbText
 10
-11.56556962136267
 20
0.3551115072955326
 30
0.0
 40
1.8
  1
数
100
AcDbText
  0
TEXT
  5
39A
330
335
100
AcDbEntity
  8
RAHM3
100
AcDbText
 10
-154.0090027773665
 20
36.89804600217056
 30
0.0
 40
2.299999999999999
  1
尺度 ＳＣＡＬＥ
 41
0.8
100
AcDbText
  0
TEXT
  5
39B
330
335
100
AcDbEntity
  8
RAHM3
100
AcDbText
 10
-154.0090027773665
 20
27.49804600215
 30
0.0
 40
2.299999999999999
  1
図面枚数 ＮＯ．  
 41
0.8
100
AcDbText
  0
LINE
  5
39C
330
335
100
AcDbEntity
  8
7A
100
AcDbLine
 10
-151.7551228444401
 20
16.64999999999988
 30
0.0
 11
-149.2551228444401
 21
16.64999999999988
 31
0.0
1001
GENIUS_GENOREF_13
1005
3A0
  0
LINE
  5
39D
330
335
100
AcDbEntity
  8
7A
100
AcDbLine
 10
-151.7551228444401
 20
16.64999999999988
 30
0.0
 11
-151.7551228444401
 21
19.14999999999988
 31
0.0
1001
GENIUS_GENOREF_13
1005
3A0
  0
LINE
  5
39E
330
335
100
AcDbEntity
  8
7A
100
AcDbLine
 10
-151.7551228444401
 20
16.64999999999988
 30
0.0
 11
-154.2551228444401
 21
16.64999999999988
 31
0.0
1001
GENIUS_GENOREF_13
1005
3A0
  0
LINE
  5
39F
330
335
100
AcDbEntity
  8
7A
100
AcDbLine
 10
-151.7551228444401
 20
16.64999999999988
 30
0.0
 11
-151.7551228444401
 21
14.14999999999988
 31
0.0
1001
GENIUS_GENOREF_13
1005
3A0
  0
POINT
  5
3A0
330
335
100
AcDbEntity
  8
0
 60
     1
100
AcDbPoint
 10
0.0
 20
0.0
 30
0.0
1001
GENIUS_GENODEF_13
1002
{
1000
HIER
1070
    10
1002
}
1002
{
1000
MANEDIT
1070
     0
1002
}
1002
{
1000
NOSEL
1070
     0
1002
}
1002
{
1000
BEHIND
1070
     0
1002
}
1002
{
1000
REACTOR
1002
}
1001
GENIUS_GENOBJ-N-CRS_13
1002
{
1000
OWNER
1000
GEN
1002
}
1001
GENIUS_GENOENT_13
1002
{
1000
MYREF
1005
3A0
1002
}
1002
{
1000
GRP
1005
0
1002
}
1001
GENIUS_GENOLIS_13
1002
{
1000
ENT
1005
39F
1005
39E
1005
39D
1005
39C
1002
}
  0
CIRCLE
  5
3A1
330
335
100
AcDbEntity
  8
RAHM3
100
AcDbCircle
 10
-151.7551228444401
 20
16.64999999999988
 30
0.0
 40
2.0
  0
CIRCLE
  5
3A2
330
335
100
AcDbEntity
  8
RAHM3
100
AcDbCircle
 10
-151.7551228444401
 20
16.64999999999952
 30
0.0
 40
1.0
  0
LINE
  5
3A3
330
335
100
AcDbEntity
  8
RAHM3
100
AcDbLine
 10
-147.7659442035316
 20
17.64999999999929
 30
0.0
 11
-147.7659442035316
 21
15.64999999999929
 31
0.0
  0
LINE
  5
3A4
330
335
100
AcDbEntity
  8
RAHM3
100
AcDbLine
 10
-147.7659442035316
 20
15.64999999999929
 30
0.0
 11
-143.7659442035316
 21
14.64999999999928
 31
0.0
  0
LINE
  5
3A5
330
335
100
AcDbEntity
  8
RAHM3
100
AcDbLine
 10
-143.7659442035316
 20
14.64999999999928
 30
0.0
 11
-143.7659442035316
 21
18.64999999999929
 31
0.0
  0
LINE
  5
3A6
330
335
100
AcDbEntity
  8
RAHM3
100
AcDbLine
 10
-143.7659442035316
 20
18.64999999999929
 30
0.0
 11
-147.7659442035316
 21
17.64999999999929
 31
0.0
  0
LINE
  5
3A7
330
335
100
AcDbEntity
  8
7A
100
AcDbLine
 10
-148.6350563849704
 20
16.64999999999929
 30
0.0
 11
-142.8462596443259
 21
16.64999999999929
 31
0.0
1001
GENIUS_GENODEF_13
1002
{
1000
HIER
1070
     0
1002
}
1002
{
1000
MANEDIT
1070
     0
1002
}
1002
{
1000
NOSEL
1070
     0
1002
}
1002
{
1000
BEHIND
1070
     0
1002
}
1002
{
1000
REACTOR
1002
}
1001
GENIUS_GENOBJ-N-CEN_13
1002
{
1000
OWNER
1000
GEN
1002
}
  0
TEXT
  5
3A8
330
335
100
AcDbEntity
  8
RAHM3
100
AcDbText
 10
-141.8454810851357
 20
18.28209750892168
 30
0.0
 40
2.1
  1
単位 ＵＮＩＴ
 41
0.7
100
AcDbText
  0
LINE
  5
3A9
330
335
100
AcDbEntity
  8
RAHM2
100
AcDbLine
 10
-142.5000000000009
 20
21.29999999999927
 30
0.0
 11
-142.5000000000009
 21
12.0
 31
0.0
  0
TEXT
  5
3AA
330
335
100
AcDbEntity
  8
RAHM3
100
AcDbText
 10
-139.6782849929894
 20
13.82826889824218
 30
0.0
 40
4.0
  1
ｍｍ
 41
0.8
100
AcDbText
  0
POLYLINE
  5
3AB
330
335
100
AcDbEntity
  8
RAHM2
100
AcDb2dPolyline
 66
     1
 10
0.0
 20
0.0
 30
0.0
 70
     1
  0
VERTEX
  5
3AC
330
3AB
100
AcDbEntity
  8
RAHM2
100
AcDbVertex
100
AcDb2dVertex
 10
-155.0
 20
-0.000000000001819
 30
0.0
  0
VERTEX
  5
3AD
330
3AB
100
AcDbEntity
  8
RAHM2
100
AcDbVertex
100
AcDb2dVertex
 10
-155.0
 20
40.00000000002091
 30
0.0
  0
VERTEX
  5
3AE
330
3AB
100
AcDbEntity
  8
RAHM2
100
AcDbVertex
100
AcDb2dVertex
 10
0.0
 20
39.99999999999273
 30
0.0
  0
VERTEX
  5
3AF
330
3AB
100
AcDbEntity
  8
RAHM2
100
AcDbVertex
100
AcDb2dVertex
 10
0.0
 20
0.0
 30
0.0
  0
SEQEND
  5
3B0
330
3AB
100
AcDbEntity
  8
RAHM2
  0
ATTDEF
  5
3B1
330
335
100
AcDbEntity
  8
RAHM3
100
AcDbText
 10
-147.2595867131855
 20
31.94728899818607
 30
0.0
 40
4.0
  1

100
AcDbAttributeDefinition
  3
尺度
  2
GEN-TITLE-SCA
 70
     0
  0
ATTDEF
  5
3B2
330
335
100
AcDbEntity
  8
RAHM3
100
AcDbText
 10
-73.09000000000001
 20
29.74
 30
0.0
 40
5.0
  1

100
AcDbAttributeDefinition
  3
名称
  2
ＴＩＴＬＥ
 70
     0
  0
ATTDEF
  5
3B3
330
335
100
AcDbEntity
  8
RAHM3
100
AcDbText
 10
-71.56287815584043
 20
21.80438312711384
 30
0.0
 40
3.0
  1

100
AcDbAttributeDefinition
  3
符号
  2
ｃｏｄｅ
 70
     0
  0
ATTDEF
  5
3B4
330
335
100
AcDbEntity
  8
RAHM3
100
AcDbText
 10
-70.74480649396313
 20
14.80438312710657
 30
0.0
 40
3.0
  1

100
AcDbAttributeDefinition
  3
件名
  2
件名
 70
     0
  0
ATTDEF
  5
3B5
330
335
100
AcDbEntity
  8
RAHM3
100
AcDbText
 10
-73.09000000000001
 20
1.739999999992722
 30
0.0
 40
5.0
  1

100
AcDbAttributeDefinition
  3
図面番号
  2
Ｎｏ．
 70
     0
  0
ATTDEF
  5
3B6
330
335
100
AcDbEntity
  8
RAHM3
100
AcDbText
 10
-100.45
 20
17.40708932112655
 30
0.0
 40
4.0
  1

100
AcDbAttributeDefinition
  3
製図者
  2
ＤＲ
 70
     0
  0
ATTDEF
  5
3B7
330
335
100
AcDbEntity
  8
RAHM3
100
AcDbText
 10
-103.7180853038729
 20
12.76999999999999
 30
0.0
 40
3.0
  1

 41
0.8
100
AcDbAttributeDefinition
  3
日付
  2
ｄａｔｅ
 70
     0
  0
ENDBLK
  5
3B9
330
335
100
AcDbEntity
  8
0
100
AcDbBlockEnd
  0
BLOCK
  5
6BE
330
6A8
100
AcDbEntity
  8
0
100
AcDbBlockBegin
  2
IGS_A3
 70
     0
 10
0.0
 20
0.0
 30
0.0
  3
IGS_A3
  1

  0
LINE
  5
6A9
330
6A8
100
AcDbEntity
  8
AM_BOR
100
AcDbLine
 10
0.0
 20
0.0
 30
0.0
 11
0.0
 21
10.0
 31
0.0
  0
LINE
  5
6AA
330
6A8
100
AcDbEntity
  8
AM_BOR
100
AcDbLine
 10
0.0
 20
297.0
 30
0.0
 11
10.0
 21
297.0
 31
0.0
  0
LINE
  5
6AB
330
6A8
100
AcDbEntity
  8
AM_BOR
100
AcDbLine
 10
420.0
 20
297.0
 30
0.0
 11
420.0
 21
287.0
 31
0.0
  0
LINE
  5
6AC
330
6A8
100
AcDbEntity
  8
AM_BOR
100
AcDbLine
 10
420.0
 20
0.0
 30
0.0
 11
410.0
 21
0.0
 31
0.0
  0
LINE
  5
6AD
330
6A8
100
AcDbEntity
  8
0
100
AcDbLine
 10
25.0
 20
10.0
 30
0.0
 11
25.0
 21
287.0
 31
0.0
  0
LINE
  5
6AE
330
6A8
100
AcDbEntity
  8
0
100
AcDbLine
 10
410.0
 20
10.0
 30
0.0
 11
25.0
 21
10.0
 31
0.0
  0
LINE
  5
6AF
330
6A8
100
AcDbEntity
  8
0
100
AcDbLine
 10
410.0
 20
287.0
 30
0.0
 11
410.0
 21
10.0
 31
0.0
  0
LINE
  5
6B0
330
6A8
100
AcDbEntity
  8
0
100
AcDbLine
 10
25.0
 20
287.0
 30
0.0
 11
410.0
 21
287.0
 31
0.0
  0
LINE
  5
6B1
330
6A8
100
AcDbEntity
  8
AM_BOR
100
AcDbLine
 10
0.0
 20
287.0
 30
0.0
 11
0.0
 21
297.0
 31
0.0
  0
LINE
  5
6B2
330
6A8
100
AcDbEntity
  8
AM_BOR
100
AcDbLine
 10
10.0
 20
0.0
 30
0.0
 11
0.0
 21
0.0
 31
0.0
  0
LINE
  5
6B3
330
6A8
100
AcDbEntity
  8
AM_BOR
100
AcDbLine
 10
420.0
 20
10.0
 30
0.0
 11
420.0
 21
0.0
 31
0.0
  0
LINE
  5
6B4
330
6A8
100
AcDbEntity
  8
AM_BOR
100
AcDbLine
 10
410.0
 20
297.0
 30
0.0
 11
420.0
 21
297.0
 31
0.0
  0
TEXT
  5
6B5
330
6A8
100
AcDbEntity
  8
0
 60
     1
100
AcDbText
 10
410.0
 20
287.0
 30
0.0
 40
3.5
  1
!GENTITLE-RU
  7
ACJISTS
100
AcDbText
  0
TEXT
  5
6B6
330
6A8
100
AcDbEntity
  8
0
 60
     1
100
AcDbText
 10
420.0
 20
297.0
 30
0.0
 40
3.5
  1
!GENTITLE-MAX
  7
ACJISTS
100
AcDbText
  0
TEXT
  5
6B7
330
6A8
100
AcDbEntity
  8
0
 60
     1
100
AcDbText
 10
410.0
 20
10.0
 30
0.0
 40
3.5
  1
!GENTITLE-INSERT
  7
ACJISTS
100
AcDbText
  0
TEXT
  5
6B8
330
6A8
100
AcDbEntity
  8
0
 60
     1
100
AcDbText
 10
25.0
 20
10.0
 30
0.0
 40
3.5
  1
!GENTITLE-LL
  7
ACJISTS
100
AcDbText
  0
LINE
  5
6B9
330
6A8
100
AcDbEntity
  8
AM_BOR
 62
     1
370
    25
100
AcDbLine
 10
0.0
 20
297.0
 30
0.0
 11
420.0
 21
297.0
 31
0.0
  0
LINE
  5
6BA
330
6A8
100
AcDbEntity
  8
AM_BOR
 62
     1
370
    25
100
AcDbLine
 10
420.0
 20
297.0
 30
0.0
 11
420.0
 21
0.0
 31
0.0
  0
LINE
  5
6BB
330
6A8
100
AcDbEntity
  8
AM_BOR
 62
     1
370
    25
100
AcDbLine
 10
420.0
 20
0.0
 30
0.0
 11
0.0
 21
0.0
 31
0.0
  0
LINE
  5
6BC
330
6A8
100
AcDbEntity
  8
AM_BOR
 62
     1
370
    25
100
AcDbLine
 10
0.0
 20
0.0
 30
0.0
 11
0.0
 21
297.0
 31
0.0
  0
TEXT
  5
6BD
330
6A8
100
AcDbEntity
  8
DEFPOINTS
100
AcDbText
 10
19.5941472374451
 20
2.504073349097552
 30
0.0
 40
5.0
  1
A3
100
AcDbText
  0
ENDBLK
  5
6BF
330
6A8
100
AcDbEntity
  8
0
100
AcDbBlockEnd
  0
BLOCK
  5
10E2
330
10D8
100
AcDbEntity
  8
0
100
AcDbBlockBegin
  2
*D6
 70
     1
 10
0.0
 20
0.0
 30
0.0
  3
*D6
  1

  0
LINE
  5
24CF
330
10D8
100
AcDbEntity
  8
5
 62
     3
100
AcDbLine
 10
3686.185826900256
 20
4543.738251803859
 30
0.0
 11
3686.185826900256
 21
4318.123463106714
 31
0.0
  0
LINE
  5
24D0
330
10D8
100
AcDbEntity
  8
5
 62
     3
100
AcDbLine
 10
3186.185826900256
 20
4543.738251803859
 30
0.0
 11
3186.185826900256
 21
4318.123463106714
 31
0.0
  0
LINE
  5
24D1
330
10D8
100
AcDbEntity
  8
5
 62
     3
100
AcDbLine
 10
3661.185826900256
 20
4328.123463106714
 30
0.0
 11
3211.185826900256
 21
4328.123463106714
 31
0.0
  0
INSERT
  5
24D2
330
10D8
100
AcDbEntity
  8
5
 62
     3
100
AcDbBlockReference
  2
_Open30
 10
3686.185826900256
 20
4328.123463106714
 30
0.0
 41
25.0
 42
25.0
 43
25.0
  0
INSERT
  5
24D3
330
10D8
100
AcDbEntity
  8
5
 62
     3
100
AcDbBlockReference
  2
_Open30
 10
3186.185826900256
 20
4328.123463106714
 30
0.0
 41
25.0
 42
25.0
 43
25.0
 50
180.0
  0
MTEXT
  5
24D4
330
10D8
100
AcDbEntity
  8
5
 62
     2
100
AcDbMText
 10
3436.185826900256
 20
4358.123463106714
 30
0.0
 40
30.0
 41
0.0
 71
     5
 72
     1
  1
500
 73
     1
 44
1.0
  0
POINT
  5
24D5
330
10D8
100
AcDbEntity
  8
DEFPOINTS
 62
     0
100
AcDbPoint
 10
3686.185826900256
 20
4553.738251803859
 30
0.0
  0
POINT
  5
24D6
330
10D8
100
AcDbEntity
  8
DEFPOINTS
 62
     0
100
AcDbPoint
 10
3186.185826900256
 20
4553.738251803859
 30
0.0
  0
POINT
  5
24D7
330
10D8
100
AcDbEntity
  8
DEFPOINTS
 62
     0
100
AcDbPoint
 10
3186.185826900256
 20
4328.123463106714
 30
0.0
  0
ENDBLK
  5
10E3
330
10D8
100
AcDbEntity
  8
0
100
AcDbBlockEnd
  0
BLOCK
  5
10EE
330
10E4
100
AcDbEntity
  8
0
100
AcDbBlockBegin
  2
*D7
 70
     1
 10
0.0
 20
0.0
 30
0.0
  3
*D7
  1

  0
LINE
  5
24C6
330
10E4
100
AcDbEntity
  8
5
 62
     3
100
AcDbLine
 10
3641.185826900256
 20
4796.738251803854
 30
0.0
 11
3641.185826900256
 21
4383.98163211446
 31
0.0
  0
LINE
  5
24C7
330
10E4
100
AcDbEntity
  8
5
 62
     3
100
AcDbLine
 10
3231.185826900257
 20
4796.738251803854
 30
0.0
 11
3231.185826900257
 21
4383.98163211446
 31
0.0
  0
LINE
  5
24C8
330
10E4
100
AcDbEntity
  8
5
 62
     3
100
AcDbLine
 10
3616.185826900256
 20
4393.981632114459
 30
0.0
 11
3256.185826900257
 21
4393.981632114459
 31
0.0
  0
INSERT
  5
24C9
330
10E4
100
AcDbEntity
  8
5
 62
     3
100
AcDbBlockReference
  2
_Open30
 10
3641.185826900256
 20
4393.981632114459
 30
0.0
 41
25.0
 42
25.0
 43
25.0
  0
INSERT
  5
24CA
330
10E4
100
AcDbEntity
  8
5
 62
     3
100
AcDbBlockReference
  2
_Open30
 10
3231.185826900257
 20
4393.981632114459
 30
0.0
 41
25.0
 42
25.0
 43
25.0
 50
180.0
  0
MTEXT
  5
24CB
330
10E4
100
AcDbEntity
  8
5
 62
     2
100
AcDbMText
 10
3436.185826900256
 20
4423.98163211446
 30
0.0
 40
30.0
 41
0.0
 71
     5
 72
     1
  1
410
 73
     1
 44
1.0
  0
POINT
  5
24CC
330
10E4
100
AcDbEntity
  8
DEFPOINTS
 62
     0
100
AcDbPoint
 10
3641.185826900256
 20
4806.738251803855
 30
0.0
  0
POINT
  5
24CD
330
10E4
100
AcDbEntity
  8
DEFPOINTS
 62
     0
100
AcDbPoint
 10
3231.185826900257
 20
4806.738251803855
 30
0.0
  0
POINT
  5
24CE
330
10E4
100
AcDbEntity
  8
DEFPOINTS
 62
     0
100
AcDbPoint
 10
3231.185826900257
 20
4393.981632114459
 30
0.0
  0
ENDBLK
  5
10EF
330
10E4
100
AcDbEntity
  8
0
100
AcDbBlockEnd
  0
BLOCK
  5
1106
330
10FC
100
AcDbEntity
  8
0
100
AcDbBlockBegin
  2
*D8
 70
     1
 10
0.0
 20
0.0
 30
0.0
  3
*D8
  1

  0
LINE
  5
2487
330
10FC
100
AcDbEntity
  8
5
 62
     3
100
AcDbLine
 10
979.7630718852222
 20
4543.738251803859
 30
0.0
 11
979.7630718852222
 21
4423.738251803859
 31
0.0
  0
LINE
  5
2488
330
10FC
100
AcDbEntity
  8
5
 62
     3
100
AcDbLine
 10
779.7630718852222
 20
4543.738251803859
 30
0.0
 11
779.7630718852222
 21
4423.738251803859
 31
0.0
  0
LINE
  5
2489
330
10FC
100
AcDbEntity
  8
5
 62
     3
100
AcDbLine
 10
954.7630718852222
 20
4433.738251803859
 30
0.0
 11
804.7630718852222
 21
4433.738251803859
 31
0.0
  0
INSERT
  5
248A
330
10FC
100
AcDbEntity
  8
5
 62
     3
100
AcDbBlockReference
  2
_Open30
 10
979.7630718852222
 20
4433.738251803859
 30
0.0
 41
25.0
 42
25.0
 43
25.0
  0
INSERT
  5
248B
330
10FC
100
AcDbEntity
  8
5
 62
     3
100
AcDbBlockReference
  2
_Open30
 10
779.7630718852222
 20
4433.738251803859
 30
0.0
 41
25.0
 42
25.0
 43
25.0
 50
180.0
  0
MTEXT
  5
248C
330
10FC
100
AcDbEntity
  8
5
 62
     2
100
AcDbMText
 10
879.7630718852222
 20
4463.741204559765
 30
0.0
 40
30.0
 41
0.0
 71
     5
 72
     1
  1
200
 73
     1
 44
1.0
  0
POINT
  5
248D
330
10FC
100
AcDbEntity
  8
DEFPOINTS
 62
     0
100
AcDbPoint
 10
979.7630718852222
 20
4553.738251803859
 30
0.0
  0
POINT
  5
248E
330
10FC
100
AcDbEntity
  8
DEFPOINTS
 62
     0
100
AcDbPoint
 10
779.7630718852222
 20
4553.738251803859
 30
0.0
  0
POINT
  5
248F
330
10FC
100
AcDbEntity
  8
DEFPOINTS
 62
     0
100
AcDbPoint
 10
779.7630718852222
 20
4433.738251803859
 30
0.0
  0
ENDBLK
  5
1107
330
10FC
100
AcDbEntity
  8
0
100
AcDbBlockEnd
  0
BLOCK
  5
1112
330
1108
100
AcDbEntity
  8
0
100
AcDbBlockBegin
  2
*D9
 70
     1
 10
0.0
 20
0.0
 30
0.0
  3
*D9
  1

  0
LINE
  5
247C
330
1108
100
AcDbEntity
  8
5
 62
     3
100
AcDbLine
 10
769.7630718852222
 20
4603.73825180386
 30
0.0
 11
566.9854947289223
 21
4603.73825180386
 31
0.0
  0
LINE
  5
247D
330
1108
100
AcDbEntity
  8
5
 62
     3
100
AcDbLine
 10
769.7630718852222
 20
4553.738251803859
 30
0.0
 11
566.9854947289223
 21
4553.738251803859
 31
0.0
  0
LINE
  5
247E
330
1108
100
AcDbEntity
  8
5
 62
     3
100
AcDbLine
 10
576.9854947289222
 20
4628.738251803859
 30
0.0
 11
576.9854947289222
 21
4653.73825180386
 31
0.0
  0
LINE
  5
247F
330
1108
100
AcDbEntity
  8
5
 62
     3
100
AcDbLine
 10
576.9854947289222
 20
4528.73825180386
 30
0.0
 11
576.9854947289222
 21
4440.714629756615
 31
0.0
  0
LINE
  5
2480
330
1108
100
AcDbEntity
  8
5
 62
     3
100
AcDbLine
 10
576.9854947289222
 20
4603.73825180386
 30
0.0
 11
576.9854947289222
 21
4553.738251803859
 31
0.0
  0
INSERT
  5
2481
330
1108
100
AcDbEntity
  8
5
 62
     3
100
AcDbBlockReference
  2
_Open30
 10
576.9854947289222
 20
4603.73825180386
 30
0.0
 41
25.0
 42
25.0
 43
25.0
 50
270.0
  0
INSERT
  5
2482
330
1108
100
AcDbEntity
  8
5
 62
     3
100
AcDbBlockReference
  2
_Open30
 10
576.9854947289222
 20
4553.738251803859
 30
0.0
 41
25.0
 42
25.0
 43
25.0
 50
90.0
  0
MTEXT
  5
2483
330
1108
100
AcDbEntity
  8
5
 62
     2
100
AcDbMText
 10
546.9854947289214
 20
4472.226440780238
 30
0.0
 40
30.0
 41
0.0
 71
     5
 72
     1
  1
50
 11
0.0000000000000001
 21
1.0
 31
0.0
 73
     1
 44
1.0
  0
POINT
  5
2484
330
1108
100
AcDbEntity
  8
DEFPOINTS
 62
     0
100
AcDbPoint
 10
779.7630718852222
 20
4603.73825180386
 30
0.0
  0
POINT
  5
2485
330
1108
100
AcDbEntity
  8
DEFPOINTS
 62
     0
100
AcDbPoint
 10
779.7630718852222
 20
4553.738251803859
 30
0.0
  0
POINT
  5
2486
330
1108
100
AcDbEntity
  8
DEFPOINTS
 62
     0
100
AcDbPoint
 10
576.9854947289222
 20
4553.738251803859
 30
0.0
  0
ENDBLK
  5
1113
330
1108
100
AcDbEntity
  8
0
100
AcDbBlockEnd
  0
BLOCK
  5
111E
330
1114
100
AcDbEntity
  8
0
100
AcDbBlockBegin
  2
*D10
 70
     1
 10
0.0
 20
0.0
 30
0.0
  3
*D10
  1

  0
LINE
  5
2473
330
1114
100
AcDbEntity
  8
5
 62
     3
100
AcDbLine
 10
686.9854947289223
 20
4803.73825180386
 30
0.0
 11
566.9854947289223
 21
4803.73825180386
 31
0.0
  0
LINE
  5
2474
330
1114
100
AcDbEntity
  8
5
 62
     3
100
AcDbLine
 10
769.7630718852222
 20
4603.73825180386
 30
0.0
 11
566.9854947289223
 21
4603.73825180386
 31
0.0
  0
LINE
  5
2475
330
1114
100
AcDbEntity
  8
5
 62
     3
100
AcDbLine
 10
576.9854947289222
 20
4778.73825180386
 30
0.0
 11
576.9854947289222
 21
4628.738251803859
 31
0.0
  0
INSERT
  5
2476
330
1114
100
AcDbEntity
  8
5
 62
     3
100
AcDbBlockReference
  2
_Open30
 10
576.9854947289222
 20
4803.73825180386
 30
0.0
 41
25.0
 42
25.0
 43
25.0
 50
90.0
  0
INSERT
  5
2477
330
1114
100
AcDbEntity
  8
5
 62
     3
100
AcDbBlockReference
  2
_Open30
 10
576.9854947289222
 20
4603.73825180386
 30
0.0
 41
25.0
 42
25.0
 43
25.0
 50
270.0
  0
MTEXT
  5
2478
330
1114
100
AcDbEntity
  8
5
 62
     2
100
AcDbMText
 10
546.9825419730161
 20
4703.738251803859
 30
0.0
 40
30.0
 41
0.0
 71
     5
 72
     1
  1
200
 11
0.0000000000000001
 21
1.0
 31
0.0
 73
     1
 44
1.0
  0
POINT
  5
2479
330
1114
100
AcDbEntity
  8
DEFPOINTS
 62
     0
100
AcDbPoint
 10
696.9854947289222
 20
4803.73825180386
 30
0.0
  0
POINT
  5
247A
330
1114
100
AcDbEntity
  8
DEFPOINTS
 62
     0
100
AcDbPoint
 10
779.7630718852222
 20
4603.73825180386
 30
0.0
  0
POINT
  5
247B
330
1114
100
AcDbEntity
  8
DEFPOINTS
 62
     0
100
AcDbPoint
 10
576.9854947289222
 20
4603.73825180386
 30
0.0
  0
ENDBLK
  5
111F
330
1114
100
AcDbEntity
  8
0
100
AcDbBlockEnd
  0
BLOCK
  5
112A
330
1120
100
AcDbEntity
  8
0
100
AcDbBlockBegin
  2
*D11
 70
     1
 10
0.0
 20
0.0
 30
0.0
  3
*D11
  1

  0
LINE
  5
246A
330
1120
100
AcDbEntity
  8
5
 62
     3
100
AcDbLine
 10
734.7630718852221
 20
5193.73825180386
 30
0.0
 11
566.9854947289223
 21
5193.73825180386
 31
0.0
  0
LINE
  5
246B
330
1120
100
AcDbEntity
  8
5
 62
     3
100
AcDbLine
 10
686.9854947289223
 20
4803.73825180386
 30
0.0
 11
566.9854947289223
 21
4803.73825180386
 31
0.0
  0
LINE
  5
246C
330
1120
100
AcDbEntity
  8
5
 62
     3
100
AcDbLine
 10
576.9854947289224
 20
5168.738251803859
 30
0.0
 11
576.9854947289222
 21
4828.738251803859
 31
0.0
  0
INSERT
  5
246D
330
1120
100
AcDbEntity
  8
5
 62
     3
100
AcDbBlockReference
  2
_Open30
 10
576.9854947289224
 20
5193.73825180386
 30
0.0
 41
25.0
 42
25.0
 43
25.0
 50
90.0
  0
INSERT
  5
246E
330
1120
100
AcDbEntity
  8
5
 62
     3
100
AcDbBlockReference
  2
_Open30
 10
576.9854947289222
 20
4803.73825180386
 30
0.0
 41
25.0
 42
25.0
 43
25.0
 50
270.0
  0
MTEXT
  5
246F
330
1120
100
AcDbEntity
  8
5
 62
     2
100
AcDbMText
 10
546.9854947289215
 20
4998.738251803859
 30
0.0
 40
30.0
 41
0.0
 71
     5
 72
     1
  1
380
 11
0.0000000000000001
 21
1.0
 31
0.0
 73
     1
 44
1.0
  0
POINT
  5
2470
330
1120
100
AcDbEntity
  8
DEFPOINTS
 62
     0
100
AcDbPoint
 10
744.7630718852222
 20
5193.73825180386
 30
0.0
  0
POINT
  5
2471
330
1120
100
AcDbEntity
  8
DEFPOINTS
 62
     0
100
AcDbPoint
 10
696.9854947289222
 20
4803.73825180386
 30
0.0
  0
POINT
  5
2472
330
1120
100
AcDbEntity
  8
DEFPOINTS
 62
     0
100
AcDbPoint
 10
576.9854947289222
 20
4803.73825180386
 30
0.0
  0
ENDBLK
  5
112B
330
1120
100
AcDbEntity
  8
0
100
AcDbBlockEnd
  0
BLOCK
  5
1136
330
112C
100
AcDbEntity
  8
0
100
AcDbBlockBegin
  2
*D12
 70
     1
 10
0.0
 20
0.0
 30
0.0
  3
*D12
  1

  0
LINE
  5
24A2
330
112C
100
AcDbEntity
  8
5
 62
     3
100
AcDbLine
 10
2544.763071885223
 20
5202.905039767037
 30
0.0
 11
2544.763071885223
 21
5461.340095731956
 31
0.0
  0
LINE
  5
24A3
330
112C
100
AcDbEntity
  8
5
 62
     3
100
AcDbLine
 10
744.7630718852222
 20
5203.738251803859
 30
0.0
 11
744.7630718852222
 21
5461.340095731956
 31
0.0
  0
LINE
  5
24A4
330
112C
100
AcDbEntity
  8
5
 62
     3
100
AcDbLine
 10
2519.763071885222
 20
5451.340095731956
 30
0.0
 11
769.7630718852222
 21
5451.340095731956
 31
0.0
  0
INSERT
  5
24A5
330
112C
100
AcDbEntity
  8
5
 62
     3
100
AcDbBlockReference
  2
_Open30
 10
2544.763071885223
 20
5451.340095731956
 30
0.0
 41
25.0
 42
25.0
 43
25.0
  0
INSERT
  5
24A6
330
112C
100
AcDbEntity
  8
5
 62
     3
100
AcDbBlockReference
  2
_Open30
 10
744.7630718852222
 20
5451.340095731956
 30
0.0
 41
25.0
 42
25.0
 43
25.0
 50
180.0
  0
MTEXT
  5
24A7
330
112C
100
AcDbEntity
  8
5
 62
     2
100
AcDbMText
 10
1644.763071885222
 20
5481.340095731956
 30
0.0
 40
30.0
 41
0.0
 71
     5
 72
     1
  1
1800
 73
     1
 44
1.0
  0
POINT
  5
24A8
330
112C
100
AcDbEntity
  8
DEFPOINTS
 62
     0
100
AcDbPoint
 10
2544.763071885223
 20
5192.905039767037
 30
0.0
  0
POINT
  5
24A9
330
112C
100
AcDbEntity
  8
DEFPOINTS
 62
     0
100
AcDbPoint
 10
744.7630718852222
 20
5193.73825180386
 30
0.0
  0
POINT
  5
24AA
330
112C
100
AcDbEntity
  8
DEFPOINTS
 62
     0
100
AcDbPoint
 10
744.7630718852222
 20
5451.340095731956
 30
0.0
  0
ENDBLK
  5
1137
330
112C
100
AcDbEntity
  8
0
100
AcDbBlockEnd
  0
BLOCK
  5
1142
330
1138
100
AcDbEntity
  8
0
100
AcDbBlockBegin
  2
*D13
 70
     1
 10
0.0
 20
0.0
 30
0.0
  3
*D13
  1

  0
LINE
  5
2499
330
1138
100
AcDbEntity
  8
5
 62
     3
100
AcDbLine
 10
2409.763071885223
 20
5235.762884753356
 30
0.0
 11
2409.763071885223
 21
5361.340095731956
 31
0.0
  0
LINE
  5
249A
330
1138
100
AcDbEntity
  8
5
 62
     3
100
AcDbLine
 10
2544.763071885223
 20
5202.905039767037
 30
0.0
 11
2544.763071885223
 21
5361.340095731956
 31
0.0
  0
LINE
  5
249B
330
1138
100
AcDbEntity
  8
5
 62
     3
100
AcDbLine
 10
2434.763071885223
 20
5351.340095731956
 30
0.0
 11
2519.763071885222
 21
5351.340095731956
 31
0.0
  0
INSERT
  5
249C
330
1138
100
AcDbEntity
  8
5
 62
     3
100
AcDbBlockReference
  2
_Open30
 10
2409.763071885223
 20
5351.340095731956
 30
0.0
 41
25.0
 42
25.0
 43
25.0
 50
180.0
  0
INSERT
  5
249D
330
1138
100
AcDbEntity
  8
5
 62
     3
100
AcDbBlockReference
  2
_Open30
 10
2544.763071885223
 20
5351.340095731956
 30
0.0
 41
25.0
 42
25.0
 43
25.0
  0
MTEXT
  5
249E
330
1138
100
AcDbEntity
  8
5
 62
     2
100
AcDbMText
 10
2477.263071885222
 20
5381.340095731957
 30
0.0
 40
30.0
 41
0.0
 71
     5
 72
     1
  1
135
 73
     1
 44
1.0
  0
POINT
  5
249F
330
1138
100
AcDbEntity
  8
DEFPOINTS
 62
     0
100
AcDbPoint
 10
2409.763071885223
 20
5225.762884753356
 30
0.0
  0
POINT
  5
24A0
330
1138
100
AcDbEntity
  8
DEFPOINTS
 62
     0
100
AcDbPoint
 10
2544.763071885223
 20
5192.905039767037
 30
0.0
  0
POINT
  5
24A1
330
1138
100
AcDbEntity
  8
DEFPOINTS
 62
     0
100
AcDbPoint
 10
2544.763071885223
 20
5351.340095731956
 30
0.0
  0
ENDBLK
  5
1143
330
1138
100
AcDbEntity
  8
0
100
AcDbBlockEnd
  0
BLOCK
  5
114E
330
1144
100
AcDbEntity
  8
0
100
AcDbBlockBegin
  2
*D14
 70
     1
 10
0.0
 20
0.0
 30
0.0
  3
*D14
  1

  0
LINE
  5
2458
330
1144
100
AcDbEntity
  8
5
 62
     3
100
AcDbLine
 10
744.7630718852222
 20
5203.738251803859
 30
0.0
 11
744.7630718852222
 21
5361.34009573196
 31
0.0
  0
LINE
  5
2459
330
1144
100
AcDbEntity
  8
5
 62
     3
100
AcDbLine
 10
879.7630718852222
 20
5241.34009573196
 30
0.0
 11
879.7630718852222
 21
5361.34009573196
 31
0.0
  0
LINE
  5
245A
330
1144
100
AcDbEntity
  8
5
 62
     3
100
AcDbLine
 10
769.7630718852222
 20
5351.34009573196
 30
0.0
 11
854.7630718852222
 21
5351.34009573196
 31
0.0
  0
INSERT
  5
245B
330
1144
100
AcDbEntity
  8
5
 62
     3
100
AcDbBlockReference
  2
_Open30
 10
744.7630718852222
 20
5351.34009573196
 30
0.0
 41
25.0
 42
25.0
 43
25.0
 50
180.0
  0
INSERT
  5
245C
330
1144
100
AcDbEntity
  8
5
 62
     3
100
AcDbBlockReference
  2
_Open30
 10
879.7630718852222
 20
5351.34009573196
 30
0.0
 41
25.0
 42
25.0
 43
25.0
  0
MTEXT
  5
245D
330
1144
100
AcDbEntity
  8
5
 62
     2
100
AcDbMText
 10
812.2630718852221
 20
5381.34009573196
 30
0.0
 40
30.0
 41
0.0
 71
     5
 72
     1
  1
135
 73
     1
 44
1.0
  0
POINT
  5
245E
330
1144
100
AcDbEntity
  8
DEFPOINTS
 62
     0
100
AcDbPoint
 10
744.7630718852222
 20
5193.73825180386
 30
0.0
  0
POINT
  5
245F
330
1144
100
AcDbEntity
  8
DEFPOINTS
 62
     0
100
AcDbPoint
 10
879.7630718852222
 20
5231.34009573196
 30
0.0
  0
POINT
  5
2460
330
1144
100
AcDbEntity
  8
DEFPOINTS
 62
     0
100
AcDbPoint
 10
879.7630718852222
 20
5351.34009573196
 30
0.0
  0
ENDBLK
  5
114F
330
1144
100
AcDbEntity
  8
0
100
AcDbBlockEnd
  0
BLOCK
  5
115A
330
1150
100
AcDbEntity
  8
0
100
AcDbBlockBegin
  2
*D15
 70
     1
 10
0.0
 20
0.0
 30
0.0
  3
*D15
  1

  0
LINE
  5
244F
330
1150
100
AcDbEntity
  8
5
 62
     3
100
AcDbLine
 10
734.7630718852221
 20
6257.944877844671
 30
0.0
 11
614.7630718852223
 21
6257.944877844671
 31
0.0
  0
LINE
  5
2450
330
1150
100
AcDbEntity
  8
5
 62
     3
100
AcDbLine
 10
734.7630718851403
 20
5707.944877844615
 30
0.0
 11
614.7630718852221
 21
5707.944877844615
 31
0.0
  0
LINE
  5
2451
330
1150
100
AcDbEntity
  8
5
 62
     3
100
AcDbLine
 10
624.7630718852223
 20
6232.944877844671
 30
0.0
 11
624.7630718852222
 21
5732.944877844615
 31
0.0
  0
INSERT
  5
2452
330
1150
100
AcDbEntity
  8
5
 62
     3
100
AcDbBlockReference
  2
_Open30
 10
624.7630718852223
 20
6257.944877844671
 30
0.0
 41
25.0
 42
25.0
 43
25.0
 50
90.0
  0
INSERT
  5
2453
330
1150
100
AcDbEntity
  8
5
 62
     3
100
AcDbBlockReference
  2
_Open30
 10
624.7630718852222
 20
5707.944877844615
 30
0.0
 41
25.0
 42
25.0
 43
25.0
 50
270.0
  0
MTEXT
  5
2454
330
1150
100
AcDbEntity
  8
5
 62
     2
100
AcDbMText
 10
594.7630718852212
 20
5982.944877844643
 30
0.0
 40
30.0
 41
0.0
 71
     5
 72
     1
  1
550
 11
0.0000000000000001
 21
1.0
 31
0.0
 73
     1
 44
1.0
  0
POINT
  5
2455
330
1150
100
AcDbEntity
  8
DEFPOINTS
 62
     0
100
AcDbPoint
 10
744.7630718852222
 20
6257.944877844671
 30
0.0
  0
POINT
  5
2456
330
1150
100
AcDbEntity
  8
DEFPOINTS
 62
     0
100
AcDbPoint
 10
744.7630718851403
 20
5707.944877844615
 30
0.0
  0
POINT
  5
2457
330
1150
100
AcDbEntity
  8
DEFPOINTS
 62
     0
100
AcDbPoint
 10
624.7630718852222
 20
5707.944877844615
 30
0.0
  0
ENDBLK
  5
115B
330
1150
100
AcDbEntity
  8
0
100
AcDbBlockEnd
  0
BLOCK
  5
1166
330
115C
100
AcDbEntity
  8
0
100
AcDbBlockBegin
  2
*D16
 70
     1
 10
0.0
 20
0.0
 30
0.0
  3
*D16
  1

  0
LINE
  5
2490
330
115C
100
AcDbEntity
  8
5
 62
     3
100
AcDbLine
 10
2544.763071885223
 20
6267.944877844609
 30
0.0
 11
2544.763071885223
 21
6387.944877844668
 31
0.0
  0
LINE
  5
2491
330
115C
100
AcDbEntity
  8
5
 62
     3
100
AcDbLine
 10
744.7630718852222
 20
6267.944877844671
 30
0.0
 11
744.7630718852222
 21
6387.944877844668
 31
0.0
  0
LINE
  5
2492
330
115C
100
AcDbEntity
  8
5
 62
     3
100
AcDbLine
 10
2519.763071885222
 20
6377.944877844668
 30
0.0
 11
769.7630718852222
 21
6377.944877844668
 31
0.0
  0
INSERT
  5
2493
330
115C
100
AcDbEntity
  8
5
 62
     3
100
AcDbBlockReference
  2
_Open30
 10
2544.763071885223
 20
6377.944877844668
 30
0.0
 41
25.0
 42
25.0
 43
25.0
  0
INSERT
  5
2494
330
115C
100
AcDbEntity
  8
5
 62
     3
100
AcDbBlockReference
  2
_Open30
 10
744.7630718852222
 20
6377.944877844668
 30
0.0
 41
25.0
 42
25.0
 43
25.0
 50
180.0
  0
MTEXT
  5
2495
330
115C
100
AcDbEntity
  8
5
 62
     2
100
AcDbMText
 10
1644.763071885222
 20
6407.944877844667
 30
0.0
 40
30.0
 41
0.0
 71
     5
 72
     1
  1
1800
 73
     1
 44
1.0
  0
POINT
  5
2496
330
115C
100
AcDbEntity
  8
DEFPOINTS
 62
     0
100
AcDbPoint
 10
2544.763071885223
 20
6257.944877844609
 30
0.0
  0
POINT
  5
2497
330
115C
100
AcDbEntity
  8
DEFPOINTS
 62
     0
100
AcDbPoint
 10
744.7630718852222
 20
6257.944877844671
 30
0.0
  0
POINT
  5
2498
330
115C
100
AcDbEntity
  8
DEFPOINTS
 62
     0
100
AcDbPoint
 10
744.7630718852222
 20
6377.944877844668
 30
0.0
  0
ENDBLK
  5
1167
330
115C
100
AcDbEntity
  8
0
100
AcDbBlockEnd
  0
BLOCK
  5
1172
330
1168
100
AcDbEntity
  8
0
100
AcDbBlockBegin
  2
*D17
 70
     1
 10
0.0
 20
0.0
 30
0.0
  3
*D17
  1

  0
LINE
  5
24BD
330
1168
100
AcDbEntity
  8
40
  6
Continuous
 62
     3
100
AcDbLine
 10
3157.153652699956
 20
5171.464412586559
 30
0.0
 11
3157.153652699956
 21
5304.12908900076
 31
0.0
  0
LINE
  5
24BE
330
1168
100
AcDbEntity
  8
40
  6
Continuous
 62
     3
100
AcDbLine
 10
3715.218001100556
 20
5171.464412586559
 30
0.0
 11
3715.218001100556
 21
5304.12908900076
 31
0.0
  0
LINE
  5
24BF
330
1168
100
AcDbEntity
  8
40
  6
Continuous
 62
     3
100
AcDbLine
 10
3182.153652699956
 20
5294.129089000759
 30
0.0
 11
3690.218001100556
 21
5294.129089000759
 31
0.0
  0
INSERT
  5
24C0
330
1168
100
AcDbEntity
  8
40
  6
Continuous
 62
     3
100
AcDbBlockReference
  2
_Open30
 10
3157.153652699956
 20
5294.129089000759
 30
0.0
 41
25.0
 42
25.0
 43
25.0
 50
180.0
  0
INSERT
  5
24C1
330
1168
100
AcDbEntity
  8
40
  6
Continuous
 62
     3
100
AcDbBlockReference
  2
_Open30
 10
3715.218001100556
 20
5294.129089000759
 30
0.0
 41
25.0
 42
25.0
 43
25.0
  0
MTEXT
  5
24C2
330
1168
100
AcDbEntity
  8
40
  6
Continuous
 62
     2
100
AcDbMText
 10
3436.185826900256
 20
5324.129089000759
 30
0.0
 40
30.0
 41
0.0
 71
     5
 72
     1
  1
550
 73
     1
 44
1.0
  0
POINT
  5
24C3
330
1168
100
AcDbEntity
  8
DEFPOINTS
  6
Continuous
 62
     0
100
AcDbPoint
 10
3157.153652699956
 20
5161.46441258656
 30
0.0
  0
POINT
  5
24C4
330
1168
100
AcDbEntity
  8
DEFPOINTS
  6
Continuous
 62
     0
100
AcDbPoint
 10
3715.218001100556
 20
5161.46441258656
 30
0.0
  0
POINT
  5
24C5
330
1168
100
AcDbEntity
  8
DEFPOINTS
  6
Continuous
 62
     0
100
AcDbPoint
 10
3715.218001100556
 20
5294.129089000759
 30
0.0
  0
ENDBLK
  5
1173
330
1168
100
AcDbEntity
  8
0
100
AcDbBlockEnd
  0
BLOCK
  5
117E
330
1174
100
AcDbEntity
  8
0
100
AcDbBlockBegin
  2
*D18
 70
     1
 10
0.0
 20
0.0
 30
0.0
  3
*D18
  1

  0
LINE
  5
24B4
330
1174
100
AcDbEntity
  8
40
  6
Continuous
 62
     3
100
AcDbLine
 10
3208.833699170956
 20
5192.920153657859
 30
0.0
 11
3076.185826900257
 21
5192.920153657859
 31
0.0
  0
LINE
  5
24B5
330
1174
100
AcDbEntity
  8
40
  6
Continuous
 62
     3
100
AcDbLine
 10
3176.185826900256
 20
4803.73825180386
 30
0.0
 11
3076.185826900256
 21
4803.73825180386
 31
0.0
  0
LINE
  5
24B6
330
1174
100
AcDbEntity
  8
40
  6
Continuous
 62
     3
100
AcDbLine
 10
3086.185826900257
 20
5167.92015365786
 30
0.0
 11
3086.185826900256
 21
4828.738251803859
 31
0.0
  0
INSERT
  5
24B7
330
1174
100
AcDbEntity
  8
40
  6
Continuous
 62
     3
100
AcDbBlockReference
  2
_Open30
 10
3086.185826900257
 20
5192.920153657859
 30
0.0
 41
25.0
 42
25.0
 43
25.0
 50
90.0
  0
INSERT
  5
24B8
330
1174
100
AcDbEntity
  8
40
  6
Continuous
 62
     3
100
AcDbBlockReference
  2
_Open30
 10
3086.185826900256
 20
4803.73825180386
 30
0.0
 41
25.0
 42
25.0
 43
25.0
 50
270.0
  0
MTEXT
  5
24B9
330
1174
100
AcDbEntity
  8
40
  6
Continuous
 62
     2
100
AcDbMText
 10
3056.185826900256
 20
4998.32920273086
 30
0.0
 40
30.0
 41
0.0
 71
     5
 72
     1
  1
380
 11
0.0000000000000001
 21
1.0
 31
0.0
 73
     1
 44
1.0
  0
POINT
  5
24BA
330
1174
100
AcDbEntity
  8
DEFPOINTS
  6
Continuous
 62
     0
100
AcDbPoint
 10
3218.833699170956
 20
5192.920153657859
 30
0.0
  0
POINT
  5
24BB
330
1174
100
AcDbEntity
  8
DEFPOINTS
  6
Continuous
 62
     0
100
AcDbPoint
 10
3186.185826900256
 20
4803.73825180386
 30
0.0
  0
POINT
  5
24BC
330
1174
100
AcDbEntity
  8
DEFPOINTS
  6
Continuous
 62
     0
100
AcDbPoint
 10
3086.185826900256
 20
4803.73825180386
 30
0.0
  0
ENDBLK
  5
117F
330
1174
100
AcDbEntity
  8
0
100
AcDbBlockEnd
  0
BLOCK
  5
1463
330
1431
100
AcDbEntity
  8
0
100
AcDbBlockBegin
  2
*D19
 70
     1
 10
0.0
 20
0.0
 30
0.0
  3
*D19
  1

  0
LINE
  5
24AB
330
1431
100
AcDbEntity
  8
AM_5
100
AcDbLine
 10
3251.185826900256
 20
4773.408878745659
 30
0.0
 11
3251.185826900256
 21
4462.721827850141
 31
0.0
  0
LINE
  5
24AC
330
1431
100
AcDbEntity
  8
AM_5
100
AcDbLine
 10
3621.185826900256
 20
4773.408878745659
 30
0.0
 11
3621.185826900256
 21
4462.721827850141
 31
0.0
  0
LINE
  5
24AD
330
1431
100
AcDbEntity
  8
AM_5
100
AcDbLine
 10
3276.185826900256
 20
4472.721827850142
 30
0.0
 11
3596.185826900256
 21
4472.721827850142
 31
0.0
  0
INSERT
  5
24AE
330
1431
100
AcDbEntity
  8
AM_5
100
AcDbBlockReference
  2
_Open30
 10
3251.185826900256
 20
4472.721827850142
 30
0.0
 41
25.0
 42
25.0
 43
25.0
 50
180.0
  0
INSERT
  5
24AF
330
1431
100
AcDbEntity
  8
AM_5
100
AcDbBlockReference
  2
_Open30
 10
3621.185826900256
 20
4472.721827850142
 30
0.0
 41
25.0
 42
25.0
 43
25.0
  0
MTEXT
  5
24B0
330
1431
100
AcDbEntity
  8
AM_5
 62
     2
100
AcDbMText
 10
3436.185826900256
 20
4502.721827850141
 30
0.0
 40
30.0
 41
0.0
 71
     5
 72
     1
  1
370
 73
     1
 44
1.0
  0
POINT
  5
24B1
330
1431
100
AcDbEntity
  8
DEFPOINTS
 62
     0
100
AcDbPoint
 10
3251.185826900256
 20
4783.408878745659
 30
0.0
  0
POINT
  5
24B2
330
1431
100
AcDbEntity
  8
DEFPOINTS
 62
     0
100
AcDbPoint
 10
3621.185826900256
 20
4783.408878745659
 30
0.0
  0
POINT
  5
24B3
330
1431
100
AcDbEntity
  8
DEFPOINTS
 62
     0
100
AcDbPoint
 10
3621.185826900256
 20
4472.721827850142
 30
0.0
  0
ENDBLK
  5
1464
330
1431
100
AcDbEntity
  8
0
100
AcDbBlockEnd
  0
BLOCK
  5
1468
330
1466
100
AcDbEntity
  8
0
100
AcDbBlockBegin
  2
A$C031D521E
 70
     0
 10
0.0
 20
0.0
 30
0.0
  3
A$C031D521E
  1

  0
LINE
  5
1469
330
1466
100
AcDbEntity
  8
7
100
AcDbLine
 10
12.5
 20
-0.0000000000009095
 30
0.0
 11
-12.5
 21
0.0
 31
0.0
  0
LINE
  5
146A
330
1466
100
AcDbEntity
  8
7
100
AcDbLine
 10
0.0000000000009095
 20
12.5
 30
0.0
 11
0.0000000000009095
 21
-12.5
 31
0.0
  0
CIRCLE
  5
146B
330
1466
100
AcDbEntity
  8
AM_0N
100
AcDbCircle
 10
0.0000000000020464
 20
-0.000000000003638
 30
0.0
 40
5.65
  0
LINE
  5
146C
330
1466
100
AcDbEntity
  8
AM_0N
100
AcDbLine
 10
0.3910000000021227
 20
3.44999999999618
 30
0.0
 11
0.3910000000021227
 21
0.3909999999959837
 31
0.0
  0
LINE
  5
146D
330
1466
100
AcDbEntity
  8
AM_0N
100
AcDbLine
 10
-0.39099999999803
 20
3.44999999999618
 30
0.0
 11
-0.39099999999803
 21
0.3909999999959837
 31
0.0
  0
LINE
  5
146E
330
1466
100
AcDbEntity
  8
AM_0N
100
AcDbLine
 10
3.450000000002091
 20
0.3909999999959837
 30
0.0
 11
3.450000000002091
 21
-0.3910000000032596
 31
0.0
  0
LINE
  5
146F
330
1466
100
AcDbEntity
  8
AM_0N
100
AcDbLine
 10
-3.449999999997999
 20
-0.3910000000032596
 30
0.0
 11
-0.39099999999803
 21
-0.3910000000032596
 31
0.0
  0
LINE
  5
1470
330
1466
100
AcDbEntity
  8
AM_0N
100
AcDbLine
 10
-3.449999999997999
 20
0.3909999999959837
 30
0.0
 11
-0.39099999999803
 21
0.3909999999959837
 31
0.0
  0
LINE
  5
1471
330
1466
100
AcDbEntity
  8
AM_0N
100
AcDbLine
 10
0.3910000000021227
 20
-0.3910000000032596
 30
0.0
 11
0.3910000000021227
 21
-3.450000000003456
 31
0.0
  0
LINE
  5
1472
330
1466
100
AcDbEntity
  8
AM_0N
100
AcDbLine
 10
-0.39099999999803
 20
-0.3910000000032596
 30
0.0
 11
-0.39099999999803
 21
-3.450000000003456
 31
0.0
  0
LINE
  5
1473
330
1466
100
AcDbEntity
  8
AM_0N
100
AcDbLine
 10
-3.449999999997999
 20
0.3909999999959837
 30
0.0
 11
-3.449999999997999
 21
-0.3910000000032596
 31
0.0
  0
LINE
  5
1474
330
1466
100
AcDbEntity
  8
AM_0N
100
AcDbLine
 10
0.3910000000021227
 20
-3.450000000003456
 30
0.0
 11
-0.39099999999803
 21
-3.450000000003456
 31
0.0
  0
LINE
  5
1475
330
1466
100
AcDbEntity
  8
AM_0N
100
AcDbLine
 10
0.3910000000021227
 20
0.3909999999959837
 30
0.0
 11
3.450000000002091
 21
0.3909999999959837
 31
0.0
  0
LINE
  5
1476
330
1466
100
AcDbEntity
  8
AM_0N
100
AcDbLine
 10
0.3910000000021227
 20
-0.3910000000032596
 30
0.0
 11
3.450000000002091
 21
-0.3910000000032596
 31
0.0
  0
LINE
  5
1477
330
1466
100
AcDbEntity
  8
AM_0N
100
AcDbLine
 10
0.3910000000021227
 20
3.44999999999618
 30
0.0
 11
-0.39099999999803
 21
3.44999999999618
 31
0.0
  0
CIRCLE
  5
1478
330
1466
100
AcDbEntity
  8
AM_0
100
AcDbCircle
 10
0.0000000000020464
 20
-0.000000000003638
 30
0.0
 40
6.299999999999998
  0
ENDBLK
  5
1479
330
1466
100
AcDbEntity
  8
0
100
AcDbBlockEnd
  0
BLOCK
  5
187A
330
1879
100
AcDbEntity
  8
0
100
AcDbBlockBegin
  2
GENZOOQ0Z3AP2
 70
     0
 10
0.0
 20
0.0
 30
0.0
  3
GENZOOQ0Z3AP2
  1

  0
HATCH
  5
187B
330
1879
100
AcDbEntity
  8
AM_8
100
AcDbHatch
 10
0.0
 20
0.0
 30
0.0
210
0.0
220
0.0
230
1.0
  2
LINE
 70
     0
 71
     0
 91
        2
 92
        7
 72
     1
 73
     1
 93
        4
 10
-37.90099533187231
 20
11.37635813921224
 42
0.1055853970895255
 10
-39.62008511246836
 20
8.576358139212061
 42
0.0
 10
7.322963038093803
 20
8.576358139212061
 42
0.0
 10
7.322963038093575
 20
11.37635813921315
 42
0.0
 97
        0
 92
        7
 72
     1
 73
     1
 93
        4
 10
7.322963038093803
 20
-10.32364186078848
 42
0.0
 10
7.322963038093348
 20
-7.523641860788302
 42
0.0
 10
-36.18190555095476
 20
-7.523641860788302
 42
-0.105585397096109
 10
-37.90099533166085
 20
-10.32364186078848
 42
0.0
 97
        0
 75
     0
 76
     1
 52
45.0
 41
1.0
 77
     0
 78
     1
 53
45.0
 43
1746.351724989659
 44
-4405.237067125582
 45
-2.245064030267287
 46
2.245064030267288
 79
     0
 47
0.2234387292792531
 98
        2
 10
-21.40178508491408
 20
10.40590537803291
 10
-20.06082851248175
 20
-9.033274974393862
  0
HATCH
  5
187C
330
1879
100
AcDbEntity
  8
AM_8
100
AcDbHatch
 10
0.0
 20
0.0
 30
0.0
210
0.0
220
0.0
230
1.0
  2
LINE
 70
     0
 71
     0
 91
        2
 92
        1
 93
        7
 72
     1
 10
17.3229630380938
 20
-29.47364186078994
 11
17.3229630380938
 21
-5.473641860790849
 72
     1
 10
17.3229630380938
 20
-5.473641860790849
 11
12.3229630380938
 21
-5.473641860790849
 72
     1
 10
12.32296303809426
 20
-5.473641860790849
 11
7.322963038093803
 21
-5.473641860790849
 72
     1
 10
7.322963038093803
 20
-5.473641860790849
 11
7.322963038093803
 21
-10.32364186078848
 72
     1
 10
7.322963038093803
 20
-10.32364186078848
 11
7.322963038094258
 21
-29.47364186079085
 72
     1
 10
7.322963038094258
 20
-29.47364186079085
 11
12.32296303809426
 21
-29.47364186079176
 72
     1
 10
12.32296303809357
 20
-29.47364186078994
 11
17.3229630380938
 21
-29.47364186078994
 97
        0
 92
        1
 93
        7
 72
     1
 10
17.32296303809016
 20
6.52635813920915
 11
17.32296303809016
 21
11.02635813920915
 72
     1
 10
17.32296303809016
 20
11.02635813920915
 11
17.32296303809403
 21
30.52635813920824
 72
     1
 10
17.32296303809403
 20
30.52635813920824
 11
12.32296303809357
 21
30.52635813920824
 72
     1
 10
12.3229630380938
 20
30.52635813920915
 11
7.32296303809403
 21
30.52635813920824
 72
     1
 10
7.32296303809403
 20
30.52635813920824
 11
7.322963038093803
 21
6.52635813920915
 72
     1
 10
7.322963038093803
 20
6.52635813920915
 11
12.3229630380938
 21
6.52635813920915
 72
     1
 10
12.32296303809357
 20
6.52635813920915
 11
17.32296303809016
 21
6.52635813920915
 97
        0
 75
     0
 76
     1
 52
135.0
 41
1.0
 77
     0
 78
     1
 53
135.0
 43
1746.351724989659
 44
-4405.237067125582
 45
-2.245064030267288
 46
-2.245064030267287
 79
     0
 98
        1
 10
1746.351724989659
 20
-4405.237067125582
  0
LINE
  5
187D
330
1879
100
AcDbEntity
  8
AM_0N
100
AcDbLine
 10
29.82296303809017
 20
9.02635813920915
 30
0.0
 11
29.82296303809017
 21
8.02635813920915
 31
0.0
  0
LINE
  5
187E
330
1879
100
AcDbEntity
  8
AM_0N
100
AcDbLine
 10
29.0623040584328
 20
-9.291141860790958
 30
0.0
 11
29.82296303809017
 21
-7.973641860790849
 31
0.0
  0
LINE
  5
187F
330
1879
100
AcDbEntity
  8
AM_0N
100
AcDbLine
 10
29.0623040584328
 20
10.34385813920926
 30
0.0
 11
29.82296303809017
 21
9.02635813920915
 31
0.0
  0
LINE
  5
1880
330
1879
100
AcDbEntity
  8
AM_0N
100
AcDbLine
 10
32.32296303809017
 20
8.02635813920915
 30
0.0
 11
29.82296303809017
 21
8.02635813920915
 31
0.0
  0
LINE
  5
1881
330
1879
100
AcDbEntity
  8
AM_0N
100
AcDbLine
 10
32.32296303809017
 20
-6.973641860790849
 30
0.0
 11
29.82296303809017
 21
-6.973641860790849
 31
0.0
  0
LINE
  5
1882
330
1879
100
AcDbEntity
  8
AM_0N
100
AcDbLine
 10
29.82296303809017
 20
-6.973641860790849
 30
0.0
 11
29.82296303809017
 21
-7.973641860790849
 31
0.0
  0
LINE
  5
1883
330
1879
100
AcDbEntity
  8
AM_0N
100
AcDbLine
 10
29.82296303809017
 20
8.02635813920915
 30
0.0
 11
29.82296303809017
 21
-6.973641860790849
 31
0.0
  0
ARC
  5
1884
330
1879
100
AcDbEntity
  8
AM_0N
100
AcDbCircle
 10
32.32296303809017
 20
0.526358139209151
 30
0.0
 40
7.5
100
AcDbArc
 50
270.0
 51
90.0
  0
ARC
  5
1885
330
1879
100
AcDbEntity
  8
AM_0N
100
AcDbCircle
 10
25.48293754668498
 20
7.889483139209005
 30
0.0
 40
4.340025491405306
100
AcDbArc
 50
325.5615305952771
 51
25.56153059525208
  0
ARC
  5
1886
330
1879
100
AcDbEntity
  8
AM_0N
100
AcDbCircle
 10
25.48293754668498
 20
-6.836766860790703
 30
0.0
 40
4.340025491405306
100
AcDbArc
 50
334.4384694047479
 51
34.43846940472291
  0
ARC
  5
1887
330
1879
100
AcDbEntity
  8
AM_0N
100
AcDbCircle
 10
13.60384954195501
 20
0.526358139209151
 30
0.0
 40
16.21911349613521
100
AcDbArc
 50
342.3830311596232
 51
17.61696884037677
  0
LINE
  5
1888
330
1879
100
AcDbEntity
  8
AM_0N
100
AcDbLine
 10
21.82296303809017
 20
9.02635813920915
 30
0.0
 11
21.82296303809017
 21
-7.973641860790849
 31
0.0
  0
LINE
  5
1889
330
1879
100
AcDbEntity
  8
AM_0N
100
AcDbLine
 10
22.58362201774753
 20
-9.291141860790958
 30
0.0
 11
21.82296303809017
 21
-7.973641860790849
 31
0.0
  0
LINE
  5
188A
330
1879
100
AcDbEntity
  8
AM_0N
100
AcDbLine
 10
22.58362201774753
 20
10.34385813920926
 30
0.0
 11
21.82296303809017
 21
9.02635813920915
 31
0.0
  0
ARC
  5
188B
330
1879
100
AcDbEntity
  8
AM_0N
100
AcDbCircle
 10
26.16298852949558
 20
7.889483139209005
 30
0.0
 40
4.340025491405308
100
AcDbArc
 50
154.4384694047479
 51
214.4384694047229
  0
ARC
  5
188C
330
1879
100
AcDbEntity
  8
AM_0N
100
AcDbCircle
 10
26.16298852949558
 20
-6.836766860790703
 30
0.0
 40
4.340025491405306
100
AcDbArc
 50
145.561530595277
 51
205.5615305952521
  0
ARC
  5
188D
330
1879
100
AcDbEntity
  8
AM_0N
100
AcDbCircle
 10
38.04207653422532
 20
0.526358139209151
 30
0.0
 40
16.21911349613522
100
AcDbArc
 50
162.3830311596232
 51
197.6169688403767
  0
LINE
  5
188E
330
1879
100
AcDbEntity
  8
AM_7N
  6
AM_ISO08W050x2
100
AcDbLine
 10
-6.117036961909889
 20
0.526358139209151
 30
0.0
 11
49.06566251662844
 21
0.526358139209151
 31
0.0
  0
LINE
  5
188F
330
1879
100
AcDbEntity
  8
AM_0N
100
AcDbLine
 10
22.58362201774753
 20
-9.291141860790958
 30
0.0
 11
29.0623040584328
 21
-9.291141860790958
 31
0.0
  0
LINE
  5
1890
330
1879
100
AcDbEntity
  8
AM_0N
100
AcDbLine
 10
22.58362201774753
 20
-4.382391860790448
 30
0.0
 11
29.0623040584328
 21
-4.382391860790448
 31
0.0
  0
LINE
  5
1891
330
1879
100
AcDbEntity
  8
AM_0N
100
AcDbLine
 10
22.58362201774753
 20
10.34385813920926
 30
0.0
 11
29.0623040584328
 21
10.34385813920926
 31
0.0
  0
LINE
  5
1892
330
1879
100
AcDbEntity
  8
AM_0N
100
AcDbLine
 10
22.58362201774753
 20
5.43510813920875
 30
0.0
 11
29.0623040584328
 21
5.43510813920875
 31
0.0
  0
LINE
  5
1893
330
1879
100
AcDbEntity
  8
AM_0N
100
AcDbLine
 10
19.32296303809016
 20
-8.673641860790667
 30
0.0
 11
21.82296303809017
 21
-8.673641860790667
 31
0.0
  0
LINE
  5
1894
330
1879
100
AcDbEntity
  8
AM_7N
  6
AM_ISO08W050x2
100
AcDbLine
 10
49.06566251662844
 20
0.526358139209151
 30
0.0
 11
-8.617036961909889
 21
0.526358139209151
 31
0.0
  0
LINE
  5
1895
330
1879
100
AcDbEntity
  8
AM_0N
100
AcDbLine
 10
21.82296303809017
 20
1.936283724874556
 30
0.0
 11
21.82296303809017
 21
9.726358139208969
 31
0.0
  0
LINE
  5
1896
330
1879
100
AcDbEntity
  8
AM_0N
100
AcDbLine
 10
19.32296303809016
 20
1.02635813920915
 30
0.0
 11
19.32296303809016
 21
9.726358139208969
 31
0.0
  0
LINE
  5
1897
330
1879
100
AcDbEntity
  8
AM_0N
100
AcDbLine
 10
19.32296303809016
 20
0.026358139209151
 30
0.0
 11
21.82296303809017
 21
0.9362837248745563
 31
0.0
  0
LINE
  5
1898
330
1879
100
AcDbEntity
  8
AM_0N
100
AcDbLine
 10
19.32296303809016
 20
1.02635813920915
 30
0.0
 11
21.82296303809017
 21
1.936283724874556
 31
0.0
  0
LINE
  5
1899
330
1879
100
AcDbEntity
  8
AM_0N
100
AcDbLine
 10
21.82296303809017
 20
9.726358139208969
 30
0.0
 11
19.32296303809016
 21
9.726358139208969
 31
0.0
  0
LINE
  5
189A
330
1879
100
AcDbEntity
  8
AM_0N
100
AcDbLine
 10
19.32296303809016
 20
-8.673641860790667
 30
0.0
 11
19.32296303809016
 21
0.026358139209151
 31
0.0
  0
LINE
  5
189B
330
1879
100
AcDbEntity
  8
AM_0N
100
AcDbLine
 10
21.82296303809017
 20
-8.673641860790667
 30
0.0
 11
21.82296303809017
 21
0.9362837248745563
 31
0.0
  0
LINE
  5
189C
330
1879
100
AcDbEntity
  8
AM_0N
100
AcDbLine
 10
17.32296303809016
 20
-9.973641860790849
 30
0.0
 11
19.32296303809016
 21
-9.973641860790849
 31
0.0
  0
LINE
  5
189D
330
1879
100
AcDbEntity
  8
AM_0N
100
AcDbLine
 10
19.32296303809016
 20
11.02635813920915
 30
0.0
 11
17.32296303809016
 21
11.02635813920915
 31
0.0
  0
LINE
  5
189E
330
1879
100
AcDbEntity
  8
AM_0N
100
AcDbLine
 10
17.32296303809016
 20
11.02635813920915
 30
0.0
 11
17.32296303809016
 21
-9.973641860790849
 31
0.0
  0
LINE
  5
189F
330
1879
100
AcDbEntity
  8
AM_0N
100
AcDbLine
 10
19.32296303809016
 20
-9.973641860790849
 30
0.0
 11
19.32296303809016
 21
11.02635813920915
 31
0.0
  0
LINE
  5
18A0
330
1879
100
AcDbEntity
  8
AM_7N
  6
AM_ISO08W050x2
100
AcDbLine
 10
47.26296303809021
 20
0.526358139209151
 30
0.0
 11
-10.61703696190989
 21
0.526358139209151
 31
0.0
  0
ARC
  5
18A1
330
1879
100
AcDbEntity
  8
40
100
AcDbCircle
 10
-32.20474533172501
 20
5.95135813926754
 30
0.0
 40
7.866250000068491
100
AcDbArc
 50
136.3971810283475
 51
223.6028189727863
  0
ARC
  5
18A2
330
1879
100
AcDbEntity
  8
40
100
AcDbCircle
 10
-43.5972453313343
 20
-4.898641860843781
 30
0.0
 40
7.866249999726059
100
AcDbArc
 50
316.3971810259325
 51
43.60281897516358
  0
ARC
  5
18A3
330
1879
100
AcDbEntity
  8
40
100
AcDbCircle
 10
-32.20474533161814
 20
-4.898641860732823
 30
0.0
 40
7.866250000069354
100
AcDbArc
 50
136.3971810283475
 51
223.6028189727863
  0
ARC
  5
18A4
330
1879
100
AcDbEntity
  8
40
100
AcDbCircle
 10
-30.05203696197009
 20
3.026358139322837
 30
0.0
 40
3.625000000031612
100
AcDbArc
 50
136.3971810285955
 51
223.602818973072
  0
ARC
  5
18A5
330
1879
100
AcDbEntity
  8
40
100
AcDbCircle
 10
-35.30203696176613
 20
-1.973641860753559
 30
0.0
 40
3.624999999873548
100
AcDbArc
 50
316.3971810262182
 51
43.60281897544929
  0
ARC
  5
18A6
330
1879
100
AcDbEntity
  8
40
100
AcDbCircle
 10
-30.0520369618971
 20
-1.973641860677162
 30
0.0
 40
3.625000000031777
100
AcDbArc
 50
136.3971810285955
 51
223.602818973072
  0
LINE
  5
18A7
330
1879
100
AcDbEntity
  8
40
100
AcDbLine
 10
7.322963038093575
 20
-4.473641860789939
 30
0.0
 11
7.322963038093803
 21
-10.32364186078848
 31
0.0
  0
LINE
  5
18A8
330
1879
100
AcDbEntity
  8
40
100
AcDbLine
 10
7.322963038093803
 20
11.37635813921224
 30
0.0
 11
7.322963038093803
 21
5.52635813920915
 31
0.0
  0
LINE
  5
18A9
330
1879
100
AcDbEntity
  8
AM_7
  6
AM_ISO08W050x2
100
AcDbLine
 10
12.3229630380938
 20
43.3185822819978
 30
0.0
 11
12.3229630380938
 21
-43.3185822819978
 31
0.0
1001
GENIUS_GENOBJ-N-CEN_13
1002
{
1000
OWNER
1000
GEN
1002
}
1001
GENIUS_GENODEF_13
1002
{
1000
HIER
1070
     0
1002
}
1002
{
1000
MANEDIT
1070
     0
1002
}
1002
{
1000
NOSEL
1070
     0
1002
}
1002
{
1000
BEHIND
1070
     0
1002
}
1002
{
1000
OTHER
1070
     0
1002
}
1002
{
1000
REACTOR
1002
}
  0
LINE
  5
18AA
330
1879
100
AcDbEntity
  8
AM_7
  6
AM_ISO08W050x2
100
AcDbLine
 10
-49.06566251662844
 20
0.5263581392118795
 30
0.0
 11
49.06566251662844
 21
0.526358139209151
 31
0.0
1001
GENIUS_GENOBJ-N-CEN_13
1002
{
1000
OWNER
1000
GEN
1002
}
1001
GENIUS_GENODEF_13
1002
{
1000
HIER
1070
     0
1002
}
1002
{
1000
MANEDIT
1070
     0
1002
}
1002
{
1000
NOSEL
1070
     0
1002
}
1002
{
1000
BEHIND
1070
     0
1002
}
1002
{
1000
OTHER
1070
     0
1002
}
1002
{
1000
REACTOR
1002
}
  0
LINE
  5
18AB
330
1879
100
AcDbEntity
  8
AM_0
100
AcDbLine
 10
7.322963038093803
 20
5.52635813920915
 30
0.0
 11
7.322963038093803
 21
30.52635813920915
 31
0.0
  0
LINE
  5
18AC
330
1879
100
AcDbEntity
  8
AM_0
100
AcDbLine
 10
17.32296303809016
 20
-5.473641860790849
 30
0.0
 11
7.322963038093803
 21
-5.473641860790849
 31
0.0
  0
LINE
  5
18AD
330
1879
100
AcDbEntity
  8
AM_0
100
AcDbLine
 10
7.322963038093803
 20
6.52635813920915
 30
0.0
 11
17.32296303809016
 21
6.52635813920915
 31
0.0
  0
LINE
  5
18AE
330
1879
100
AcDbEntity
  8
AM_0N
100
AcDbLine
 10
-32.67703696197759
 20
5.526358139211879
 30
0.0
 11
17.32296303809039
 21
5.52635813920915
 31
0.0
  0
LINE
  5
18AF
330
1879
100
AcDbEntity
  8
AM_4N
100
AcDbLine
 10
-33.31467055616281
 20
4.60618313921168
 30
0.0
 11
17.32296303809039
 21
4.606183139208951
 31
0.0
  0
LINE
  5
18B0
330
1879
100
AcDbEntity
  8
AM_4N
100
AcDbLine
 10
-32.03940336781943
 20
-3.553466860787921
 30
0.0
 11
17.32296303809016
 21
-3.553466860790649
 31
0.0
  0
LINE
  5
18B1
330
1879
100
AcDbEntity
  8
AM_0N
100
AcDbLine
 10
-32.67703696197759
 20
-4.47364186078812
 30
0.0
 11
17.32296303809016
 21
-4.473641860790849
 31
0.0
  0
LINE
  5
18B2
330
1879
100
AcDbEntity
  8
AM_0
100
AcDbLine
 10
7.322963038093803
 20
-7.523641860788302
 30
0.0
 11
-36.18190555095452
 21
-7.523641860788302
 31
0.0
  0
LINE
  5
18B3
330
1879
100
AcDbEntity
  8
AM_0
100
AcDbLine
 10
7.322963038093803
 20
8.576358139212061
 30
0.0
 11
-39.62008511246791
 21
8.576358139212061
 31
0.0
  0
LINE
  5
18B4
330
1879
100
AcDbEntity
  8
AM_0
100
AcDbLine
 10
7.322963038093803
 20
-10.32364186078848
 30
0.0
 11
-37.90099533166085
 21
-10.32364186078848
 31
0.0
  0
LINE
  5
18B5
330
1879
100
AcDbEntity
  8
AM_0
100
AcDbLine
 10
7.322963038093803
 20
11.37635813921224
 30
0.0
 11
-37.90099533187231
 21
11.37635813921224
 31
0.0
  0
LINE
  5
18B6
330
1879
100
AcDbEntity
  8
AM_0
100
AcDbLine
 10
7.32296303809403
 20
-29.47364186079085
 30
0.0
 11
7.32296303809403
 21
-4.473641860790849
 31
0.0
  0
LINE
  5
18B7
330
1879
100
AcDbEntity
  8
AM_0
100
AcDbLine
 10
17.3229630380938
 20
-29.47364186079085
 30
0.0
 11
17.3229630380938
 21
30.52635813920915
 31
0.0
  0
ENDBLK
  5
18B8
330
1879
100
AcDbEntity
  8
0
100
AcDbBlockEnd
  0
BLOCK
  5
18BA
330
18B9
100
AcDbEntity
  8
0
100
AcDbBlockBegin
  2
GENZOOVJU7AP2
 70
     0
 10
0.0
 20
0.0
 30
0.0
  3
GENZOOVJU7AP2
  1

  0
HATCH
  5
18BB
330
18B9
100
AcDbEntity
  8
AM_8
100
AcDbHatch
 10
0.0
 20
0.0
 30
0.0
210
0.0
220
0.0
230
1.0
  2
LINE
 70
     0
 71
     0
 91
        2
 92
        1
 93
       14
 72
     1
 10
39.21180907246344
 20
-13.79014887131598
 11
39.21180907246344
 21
-6.872362871315999
 72
     1
 10
39.21180907246344
 20
-6.872362871315999
 11
4.211809072463438
 21
-6.261435671317485
 72
     1
 10
4.211809072463438
 20
-6.261435671317485
 11
-11.78819092754111
 21
-6.498824471316765
 72
     1
 10
-11.78819092754111
 20
-6.498824471316765
 11
-11.7881909275402
 21
-14.10434007131698
 72
     1
 10
-11.7881909275402
 20
-14.10434007131698
 11
-9.538190927532923
 21
-14.10434007131607
 72
     1
 10
-9.538190927532923
 20
-14.10434007131607
 11
-9.538190927532923
 21
-14.18616069631753
 72
     1
 10
-9.538190927532923
 20
-14.18616069631753
 11
-3.788190927536561
 21
-14.26143567131748
 72
     2
 10
-3.788190927535652
 20
-17.26143567131657
 40
2.99999999999909
 50
269.9999999999826
 51
360.0
 73
     0
 72
     1
 10
-0.7881909275365615
 20
-17.26143567131748
 11
-0.788190927535652
 21
-36.2614356713184
 72
     1
 10
-0.788190927535652
 20
-36.2614356713184
 11
4.211809072463438
 21
-36.2614356713184
 72
     1
 10
4.211809072463438
 20
-36.26143567131749
 11
9.211809072463438
 21
-36.26143567131749
 72
     1
 10
9.211809072463438
 20
-36.26143567131749
 11
9.211809072463438
 21
-17.26143567131748
 72
     2
 10
12.21180907246253
 20
-17.26143567131657
 40
2.99999999999909
 50
180.0
 51
270.0000000000173
 73
     0
 72
     1
 10
12.21180907246344
 20
-14.26143567131748
 11
39.21180907246344
 21
-13.79014887131598
 97
        0
 92
        1
 93
        5
 72
     1
 10
-19.78819092754111
 20
-14.04615651576205
 11
-19.7881909275402
 21
-6.617518871315951
 72
     1
 10
-19.7881909275402
 20
-6.617518871315951
 11
-19.92611869201846
 21
-6.619565277973379
 72
     1
 10
-19.92611869201846
 20
-6.619565277973379
 11
-30.78819092753656
 21
-6.872362871317818
 72
     1
 10
-30.78819092753656
 20
-6.872362871317818
 11
-30.78819092753656
 21
-13.79014887131598
 72
     1
 10
-30.78819092753656
 20
-13.79014887131598
 11
-19.78819092754111
 21
-14.04615651576205
 97
        0
 75
     0
 76
     1
 52
135.0
 41
1.0
 77
     0
 78
     1
 53
135.0
 43
4891.774493633009
 44
-5042.208778206477
 45
-2.245064030267288
 46
-2.245064030267287
 79
     0
 98
        1
 10
4891.774493633009
 20
-5042.208778206477
  0
HATCH
  5
18BC
330
18B9
100
AcDbEntity
  8
AM_8
100
AcDbHatch
 10
0.0
 20
0.0
 30
0.0
210
0.0
220
0.0
230
1.0
  2
AR-RROOF
 70
     0
 71
     0
 91
        2
 92
        1
 93
        5
 72
     1
 10
51.35021018565748
 20
-6.261435671317485
 11
51.35021018565748
 21
23.73856432868251
 72
     1
 10
51.35021018565748
 20
23.73856432868251
 11
-8.488190927538198
 21
23.7385643286816
 72
     1
 10
-8.488190927538198
 20
23.7385643286816
 11
-11.78819092754111
 21
20.43856432867869
 72
     1
 10
-11.78819092754111
 20
20.43856432867869
 11
-11.78819092754111
 21
-6.261435671317485
 72
     1
 10
-11.78819092754111
 20
-6.261435671317485
 11
51.35021018565748
 21
-6.261435671317485
 97
        0
 92
        1
 93
        6
 72
     1
 10
-19.78819092754111
 20
-6.261435671318395
 11
-19.7881909275402
 21
20.43856432868688
 72
     1
 10
-19.7881909275402
 20
20.43856432868688
 11
-21.4381909275362
 21
22.08856432868288
 72
     1
 10
-21.4381909275362
 20
22.08856432868288
 11
-23.08819092754129
 21
23.73856432868342
 72
     1
 10
-23.08819092754129
 20
23.73856432868342
 11
-51.35021018565748
 21
23.73856432868251
 72
     1
 10
-51.35021018565748
 20
23.73856432868251
 11
-51.35021018565748
 21
-6.261435671317485
 72
     1
 10
-51.35021018565748
 20
-6.261435671317485
 11
-19.78819092754111
 21
-6.261435671318395
 97
        0
 75
     0
 76
     1
 52
45.0
 41
1.0
 77
     0
 78
     3
 53
45.0
 43
4891.774493633009
 44
-5042.208778206477
 45
21.55261469056598
 46
57.47363917484258
 79
     4
 49
381.0
 49
-50.8
 49
127.0
 49
-25.4
 53
45.0
 43
4906.681718793984
 44
-5009.341040803364
 45
-41.84799352418225
 46
5.926969039905642
 79
     4
 49
76.2
 49
-8.381999999999999
 49
152.4
 49
-19.05
 53
45.0
 43
4885.488314348261
 44
-5017.962086679591
 45
81.36112045688655
 46
105.4282068613518
 79
     4
 49
203.2
 49
-35.56
 49
101.6
 49
-25.4
 98
        1
 10
4891.774493633009
 20
-5042.208778206477
  0
LINE
  5
18BD
330
18B9
100
AcDbEntity
  8
AM_0N
100
AcDbLine
 10
-22.03819092753201
 20
-14.10434007131607
 30
0.0
 11
-22.03819092753201
 21
-15.70434007131644
 31
0.0
  0
LINE
  5
18BE
330
18B9
100
AcDbEntity
  8
AM_0N
100
AcDbLine
 10
-9.538190927532014
 20
-15.70434007131644
 30
0.0
 11
-9.538190927532014
 21
-14.10434007131607
 31
0.0
  0
LINE
  5
18BF
330
18B9
100
AcDbEntity
  8
AM_0N
100
AcDbLine
 10
-9.538190927532014
 20
-14.10434007131607
 30
0.0
 11
-22.03819092753201
 21
-14.10434007131607
 31
0.0
  0
LINE
  5
18C0
330
18B9
100
AcDbEntity
  8
AM_0N
100
AcDbLine
 10
-22.03819092753201
 20
-15.70434007131644
 30
0.0
 11
-9.538190927532014
 21
-15.70434007131644
 31
0.0
  0
LINE
  5
18C1
330
18B9
100
AcDbEntity
  8
AM_7N
  6
AM_ISO08W050x2
100
AcDbLine
 10
-15.78819092753292
 20
-39.85566049646877
 30
0.0
 11
-15.7881909275311
 21
13.83565992868353
 31
0.0
  0
LINE
  5
18C2
330
18B9
100
AcDbEntity
  8
AM_0N
100
AcDbLine
 10
-21.88819092753238
 20
-15.70434007131644
 30
0.0
 11
-21.88819092753238
 21
-17.20434007131643
 31
0.0
  0
LINE
  5
18C3
330
18B9
100
AcDbEntity
  8
AM_7N
  6
AM_ISO08W050x2
100
AcDbLine
 10
-15.78819092753292
 20
-39.85566049646877
 30
0.0
 11
-15.7881909275311
 21
12.23565992868316
 31
0.0
  0
LINE
  5
18C4
330
18B9
100
AcDbEntity
  8
AM_0N
100
AcDbLine
 10
-14.94223557613259
 20
-17.20434007131643
 30
0.0
 11
-9.68819092753165
 21
-17.20434007131643
 31
0.0
  0
LINE
  5
18C5
330
18B9
100
AcDbEntity
  8
AM_0N
100
AcDbLine
 10
-15.48819092753183
 20
-15.70434007131644
 30
0.0
 11
-9.68819092753165
 21
-15.70434007131644
 31
0.0
  0
LINE
  5
18C6
330
18B9
100
AcDbEntity
  8
AM_0N
100
AcDbLine
 10
-16.08819092753219
 20
-15.70434007131644
 30
0.0
 11
-15.54223557613295
 21
-17.20434007131643
 31
0.0
  0
LINE
  5
18C7
330
18B9
100
AcDbEntity
  8
AM_0N
100
AcDbLine
 10
-15.48819092753183
 20
-15.70434007131644
 30
0.0
 11
-14.94223557613259
 21
-17.20434007131643
 31
0.0
  0
LINE
  5
18C8
330
18B9
100
AcDbEntity
  8
AM_0N
100
AcDbLine
 10
-9.68819092753165
 20
-17.20434007131643
 30
0.0
 11
-9.68819092753165
 21
-15.70434007131644
 31
0.0
  0
LINE
  5
18C9
330
18B9
100
AcDbEntity
  8
AM_0N
100
AcDbLine
 10
-21.88819092753238
 20
-15.70434007131644
 30
0.0
 11
-16.08819092753219
 21
-15.70434007131644
 31
0.0
  0
LINE
  5
18CA
330
18B9
100
AcDbEntity
  8
AM_0N
100
AcDbLine
 10
-21.88819092753238
 20
-17.20434007131643
 30
0.0
 11
-15.54223557613295
 21
-17.20434007131643
 31
0.0
  0
LINE
  5
18CB
330
18B9
100
AcDbEntity
  8
AM_0N
100
AcDbLine
 10
-10.01319092753238
 20
-17.65178652993836
 30
0.0
 11
-10.01319092753238
 21
-22.85689361269397
 31
0.0
  0
LINE
  5
18CC
330
18B9
100
AcDbEntity
  8
AM_0N
100
AcDbLine
 10
-10.01319092753238
 20
-17.65178652993836
 30
0.0
 11
-10.78819092753201
 21
-17.20434007131643
 31
0.0
  0
LINE
  5
18CD
330
18B9
100
AcDbEntity
  8
AM_0N
100
AcDbLine
 10
-10.01319092753238
 20
-22.85689361269397
 30
0.0
 11
-10.78819092753201
 21
-23.30434007131589
 31
0.0
  0
LINE
  5
18CE
330
18B9
100
AcDbEntity
  8
AM_0N
100
AcDbLine
 10
-18.67569092753183
 20
-17.65178652993836
 30
0.0
 11
-18.67569092753183
 21
-22.85689361269397
 31
0.0
  0
LINE
  5
18CF
330
18B9
100
AcDbEntity
  8
AM_0N
100
AcDbLine
 10
-21.56319092753165
 20
-17.65178652993836
 30
0.0
 11
-21.56319092753165
 21
-22.85689361269397
 31
0.0
  0
LINE
  5
18D0
330
18B9
100
AcDbEntity
  8
AM_0N
100
AcDbLine
 10
-21.56319092753165
 20
-17.65178652993836
 30
0.0
 11
-20.78819092753201
 21
-17.20434007131643
 31
0.0
  0
LINE
  5
18D1
330
18B9
100
AcDbEntity
  8
AM_0N
100
AcDbLine
 10
-12.90069092753219
 20
-17.65178652993836
 30
0.0
 11
-12.90069092753219
 21
-22.85689361269397
 31
0.0
  0
LINE
  5
18D2
330
18B9
100
AcDbEntity
  8
AM_7N
  6
AM_ISO08W050x2
100
AcDbLine
 10
-15.7881909275311
 20
10.73565992868407
 30
0.0
 11
-15.78819092753292
 21
-39.85566049646877
 31
0.0
  0
LINE
  5
18D3
330
18B9
100
AcDbEntity
  8
AM_0N
100
AcDbLine
 10
-21.56319092753165
 20
-22.85689361269397
 30
0.0
 11
-20.78819092753201
 21
-23.30434007131589
 31
0.0
  0
ARC
  5
18D4
330
18B9
100
AcDbEntity
  8
AM_0N
100
AcDbCircle
 10
-20.11944092753129
 20
-19.75729624272753
 30
0.0
 40
2.552956171411753
100
AcDbArc
 50
55.56153059524149
 51
115.561530595532
  0
ARC
  5
18D5
330
18B9
100
AcDbEntity
  8
AM_0N
100
AcDbCircle
 10
-15.78819092753201
 20
-26.74499506894608
 30
0.0
 40
9.540654997629692
100
AcDbArc
 50
72.38303115946241
 51
107.6169688405376
  0
ARC
  5
18D6
330
18B9
100
AcDbEntity
  8
AM_0N
100
AcDbCircle
 10
-15.78819092753201
 20
-13.76368507368624
 30
0.0
 40
9.540654997629653
100
AcDbArc
 50
252.3830311594624
 51
287.6169688405376
  0
ARC
  5
18D7
330
18B9
100
AcDbEntity
  8
AM_0N
100
AcDbCircle
 10
-20.11944092753219
 20
-20.75138389990116
 30
0.0
 40
2.552956171414893
100
AcDbArc
 50
244.4384694047479
 51
304.4384694047155
  0
LINE
  5
18D8
330
18B9
100
AcDbEntity
  8
AM_0N
100
AcDbLine
 10
-10.78819092753201
 20
-17.20434007131643
 30
0.0
 11
-20.78819092753201
 21
-17.20434007131643
 31
0.0
  0
LINE
  5
18D9
330
18B9
100
AcDbEntity
  8
AM_0N
100
AcDbLine
 10
-10.78819092753201
 20
-23.30434007131589
 30
0.0
 11
-20.78819092753201
 21
-23.30434007131589
 31
0.0
  0
ARC
  5
18DA
330
18B9
100
AcDbEntity
  8
AM_0N
100
AcDbCircle
 10
-11.45694092753183
 20
-19.75729624272753
 30
0.0
 40
2.552956171411753
100
AcDbArc
 50
64.43846940463143
 51
124.4384694047879
  0
ARC
  5
18DB
330
18B9
100
AcDbEntity
  8
AM_0N
100
AcDbCircle
 10
-11.45694092753183
 20
-20.75138389990389
 30
0.0
 40
2.552956171411753
100
AcDbArc
 50
235.561530595212
 51
295.5615305953686
  0
LINE
  5
18DC
330
18B9
100
AcDbEntity
  8
AM_0N
100
AcDbLine
 10
-10.01319092753238
 20
-17.65178652993836
 30
0.0
 11
-10.01319092753238
 21
-22.85689361269397
 31
0.0
  0
LINE
  5
18DD
330
18B9
100
AcDbEntity
  8
AM_0N
100
AcDbLine
 10
-10.01319092753238
 20
-17.65178652993836
 30
0.0
 11
-10.78819092753201
 21
-17.20434007131643
 31
0.0
  0
LINE
  5
18DE
330
18B9
100
AcDbEntity
  8
AM_0N
100
AcDbLine
 10
-10.01319092753238
 20
-22.85689361269397
 30
0.0
 11
-10.78819092753201
 21
-23.30434007131589
 31
0.0
  0
LINE
  5
18DF
330
18B9
100
AcDbEntity
  8
AM_0N
100
AcDbLine
 10
-18.67569092753183
 20
-17.65178652993836
 30
0.0
 11
-18.67569092753183
 21
-22.85689361269397
 31
0.0
  0
LINE
  5
18E0
330
18B9
100
AcDbEntity
  8
AM_0N
100
AcDbLine
 10
-21.56319092753165
 20
-17.65178652993836
 30
0.0
 11
-21.56319092753165
 21
-22.85689361269397
 31
0.0
  0
LINE
  5
18E1
330
18B9
100
AcDbEntity
  8
AM_0N
100
AcDbLine
 10
-21.56319092753165
 20
-17.65178652993836
 30
0.0
 11
-20.78819092753201
 21
-17.20434007131643
 31
0.0
  0
LINE
  5
18E2
330
18B9
100
AcDbEntity
  8
AM_0N
100
AcDbLine
 10
-12.90069092753219
 20
-17.65178652993836
 30
0.0
 11
-12.90069092753219
 21
-22.85689361269397
 31
0.0
  0
LINE
  5
18E3
330
18B9
100
AcDbEntity
  8
AM_0N
100
AcDbLine
 10
-21.56319092753165
 20
-22.85689361269397
 30
0.0
 11
-20.78819092753201
 21
-23.30434007131589
 31
0.0
  0
ARC
  5
18E4
330
18B9
100
AcDbEntity
  8
AM_0N
100
AcDbCircle
 10
-20.11944092753129
 20
-19.75729624272753
 30
0.0
 40
2.552956171411753
100
AcDbArc
 50
55.56153059524149
 51
115.561530595532
  0
ARC
  5
18E5
330
18B9
100
AcDbEntity
  8
AM_0N
100
AcDbCircle
 10
-15.78819092753201
 20
-26.74499506894608
 30
0.0
 40
9.540654997629692
100
AcDbArc
 50
72.38303115946241
 51
107.6169688405376
  0
ARC
  5
18E6
330
18B9
100
AcDbEntity
  8
AM_0N
100
AcDbCircle
 10
-15.78819092753201
 20
-13.76368507368624
 30
0.0
 40
9.540654997629653
100
AcDbArc
 50
252.3830311594624
 51
287.6169688405376
  0
ARC
  5
18E7
330
18B9
100
AcDbEntity
  8
AM_0N
100
AcDbCircle
 10
-20.11944092753219
 20
-20.75138389990116
 30
0.0
 40
2.552956171414893
100
AcDbArc
 50
244.4384694047479
 51
304.4384694047155
  0
LINE
  5
18E8
330
18B9
100
AcDbEntity
  8
AM_0N
100
AcDbLine
 10
-10.78819092753201
 20
-17.20434007131643
 30
0.0
 11
-20.78819092753201
 21
-17.20434007131643
 31
0.0
  0
LINE
  5
18E9
330
18B9
100
AcDbEntity
  8
AM_0N
100
AcDbLine
 10
-10.78819092753201
 20
-23.30434007131589
 30
0.0
 11
-20.78819092753201
 21
-23.30434007131589
 31
0.0
  0
ARC
  5
18EA
330
18B9
100
AcDbEntity
  8
AM_0N
100
AcDbCircle
 10
-11.45694092753183
 20
-19.75729624272753
 30
0.0
 40
2.552956171411753
100
AcDbArc
 50
64.43846940463143
 51
124.4384694047879
  0
ARC
  5
18EB
330
18B9
100
AcDbEntity
  8
AM_0N
100
AcDbCircle
 10
-11.45694092753183
 20
-20.75138389990389
 30
0.0
 40
2.552956171411753
100
AcDbArc
 50
235.561530595212
 51
295.5615305953686
  0
LINE
  5
18EC
330
18B9
100
AcDbEntity
  8
AM_0N
100
AcDbLine
 10
-22.03819092753201
 20
-14.10434007131607
 30
0.0
 11
-22.03819092753201
 21
-15.70434007131644
 31
0.0
  0
LINE
  5
18ED
330
18B9
100
AcDbEntity
  8
AM_0N
100
AcDbLine
 10
-9.538190927532014
 20
-15.70434007131644
 30
0.0
 11
-9.538190927532014
 21
-14.10434007131607
 31
0.0
  0
LINE
  5
18EE
330
18B9
100
AcDbEntity
  8
AM_0N
100
AcDbLine
 10
-9.538190927532014
 20
-14.10434007131607
 30
0.0
 11
-22.03819092753201
 21
-14.10434007131607
 31
0.0
  0
LINE
  5
18EF
330
18B9
100
AcDbEntity
  8
AM_0N
100
AcDbLine
 10
-22.03819092753201
 20
-15.70434007131644
 30
0.0
 11
-9.538190927532014
 21
-15.70434007131644
 31
0.0
  0
LINE
  5
18F0
330
18B9
100
AcDbEntity
  8
AM_0
100
AcDbLine
 10
-19.78819092754111
 20
-6.617518871315041
 30
0.0
 11
-19.78819092754111
 21
-14.04615651576205
 31
0.0
  0
LINE
  5
18F1
330
18B9
100
AcDbEntity
  8
外形線１
 48
50.0
100
AcDbLine
 10
-18.78819092753656
 20
-6.602682071316849
 30
0.0
 11
-19.92611869214033
 21
-6.619565277974288
 31
0.0
  0
LINE
  5
18F2
330
18B9
100
AcDbEntity
  8
外形線１
 48
50.0
100
AcDbLine
 10
-12.78819092753656
 20
-6.261435671317485
 30
0.0
 11
51.35021018565748
 21
-6.261435671317485
 31
0.0
  0
LINE
  5
18F3
330
18B9
100
AcDbEntity
  8
40
100
AcDbLine
 10
-12.78819092753656
 20
17.43856432868233
 30
0.0
 11
-12.78819092753656
 21
-14.10434007131607
 31
0.0
  0
LINE
  5
18F4
330
18B9
100
AcDbEntity
  8
40
100
AcDbLine
 10
-18.78819092753656
 20
17.43856432868233
 30
0.0
 11
-18.78819092753656
 21
-14.10434007131607
 31
0.0
  0
LINE
  5
18F5
330
18B9
100
AcDbEntity
  8
AM_4N
100
AcDbLine
 10
-13.40164092753639
 20
-23.3043400713168
 30
0.0
 11
-13.40164092753639
 21
-26.95471067131712
 31
0.0
  0
LINE
  5
18F6
330
18B9
100
AcDbEntity
  8
AM_4N
100
AcDbLine
 10
-18.17474092753673
 20
-23.30434007131498
 30
0.0
 11
-18.17474092753673
 21
-26.95471067131712
 31
0.0
  0
LINE
  5
18F7
330
18B9
100
AcDbEntity
  8
AM_7
  6
AM_ISO08W050x2
100
AcDbLine
 10
-15.78819092754202
 20
28.51235119049397
 30
0.0
 11
-15.78819092754111
 21
-33.40953169046406
 31
0.0
1001
GENIUS_GENODEF_13
1002
{
1000
HIER
1070
     0
1002
}
1002
{
1000
MANEDIT
1070
     0
1002
}
1002
{
1000
NOSEL
1070
     0
1002
}
1002
{
1000
BEHIND
1070
     0
1002
}
1002
{
1000
OTHER
1070
     0
1002
}
1002
{
1000
REACTOR
1002
}
1001
GENIUS_GENOBJ-N-CEN_13
1002
{
1000
OWNER
1000
GEN
1002
}
  0
LINE
  5
18F8
330
18B9
100
AcDbEntity
  8
AM_0N
100
AcDbLine
 10
-18.17474092753673
 20
-27.26143567131749
 30
0.0
 11
-13.40164092753639
 21
-27.26143567131749
 31
0.0
  0
LINE
  5
18F9
330
18B9
100
AcDbEntity
  8
AM_0N
100
AcDbLine
 10
-13.40164092753639
 20
-27.26143567131749
 30
0.0
 11
-12.78819092753656
 21
-26.95471067131712
 31
0.0
  0
LINE
  5
18FA
330
18B9
100
AcDbEntity
  8
AM_0N
100
AcDbLine
 10
-18.17474092753673
 20
-27.26143567131749
 30
0.0
 11
-18.78819092753656
 21
-26.95471067131712
 31
0.0
  0
LINE
  5
18FB
330
18B9
100
AcDbEntity
  8
AM_0N
100
AcDbLine
 10
-12.78819092753656
 20
-26.95471067131712
 30
0.0
 11
-18.78819092753656
 21
-26.95471067131712
 31
0.0
  0
LINE
  5
18FC
330
18B9
100
AcDbEntity
  8
AM_4N
100
AcDbLine
 10
-13.40169092753695
 20
18.05201432868216
 30
0.0
 11
-13.40164092753639
 21
17.43856432868233
 31
0.0
  0
LINE
  5
18FD
330
18B9
100
AcDbEntity
  8
AM_0N
100
AcDbLine
 10
-12.78819092753656
 20
17.43856432868233
 30
0.0
 11
-13.40169092753695
 21
18.05201432868216
 31
0.0
  0
LINE
  5
18FE
330
18B9
100
AcDbEntity
  8
AM_0N
100
AcDbLine
 10
-18.78819092753656
 20
17.43856432868233
 30
0.0
 11
-18.17469092753617
 21
18.05201432868216
 31
0.0
  0
LINE
  5
18FF
330
18B9
100
AcDbEntity
  8
AM_4N
100
AcDbLine
 10
-18.17469092753617
 20
18.05201432868216
 30
0.0
 11
-18.17474092753673
 21
17.43856432868233
 31
0.0
  0
LINE
  5
1900
330
18B9
100
AcDbEntity
  8
AM_0N
100
AcDbLine
 10
-12.78819092753656
 20
17.43856432868233
 30
0.0
 11
-18.78819092753656
 21
17.43856432868233
 31
0.0
  0
LINE
  5
1901
330
18B9
100
AcDbEntity
  8
AM_0N
100
AcDbLine
 10
-13.40169092753695
 20
18.82506432868285
 30
0.0
 11
-18.17469092753617
 21
18.82506432868285
 31
0.0
  0
LINE
  5
1902
330
18B9
100
AcDbEntity
  8
AM_0N
100
AcDbLine
 10
-18.17469092753617
 20
18.05201432868216
 30
0.0
 11
-18.17469092753617
 21
18.82506432868285
 31
0.0
  0
LINE
  5
1903
330
18B9
100
AcDbEntity
  8
AM_0N
100
AcDbLine
 10
-13.40169092753695
 20
18.05201432868216
 30
0.0
 11
-13.40169092753695
 21
18.82506432868285
 31
0.0
  0
LINE
  5
1904
330
18B9
100
AcDbEntity
  8
AM_0N
100
AcDbLine
 10
-12.78819092753656
 20
-26.95471067131712
 30
0.0
 11
-12.78819092753656
 21
-23.30434007131589
 31
0.0
  0
LINE
  5
1905
330
18B9
100
AcDbEntity
  8
AM_4N
100
AcDbLine
 10
-13.40164092753639
 20
17.43856432868233
 30
0.0
 11
-13.40164092753639
 21
-14.10434007131607
 31
0.0
  0
LINE
  5
1906
330
18B9
100
AcDbEntity
  8
AM_0N
100
AcDbLine
 10
-18.78819092753656
 20
-26.95471067131712
 30
0.0
 11
-18.78819092753656
 21
-23.30434007131589
 31
0.0
  0
LINE
  5
1907
330
18B9
100
AcDbEntity
  8
AM_4N
100
AcDbLine
 10
-18.17474092753673
 20
17.43856432868233
 30
0.0
 11
-18.17474092753673
 21
-14.10434007131607
 31
0.0
  0
LINE
  5
1908
330
18B9
100
AcDbEntity
  8
AM_0N
100
AcDbLine
 10
-10.13819092753692
 20
22.08856432868288
 30
0.0
 11
-10.13819092753692
 21
22.73856432868251
 31
0.0
  0
LINE
  5
1909
330
18B9
100
AcDbEntity
  8
AM_3N
  6
AM_ISO02W050x2
100
AcDbLine
 10
-15.39719092753694
 20
19.23856432868251
 30
0.0
 11
-15.39719092753694
 21
22.73856432868251
 31
0.0
  0
LINE
  5
190A
330
18B9
100
AcDbEntity
  8
AM_3N
  6
AM_ISO02W050x2
100
AcDbLine
 10
-15.39719092753694
 20
19.23856432868251
 30
0.0
 11
-16.17919092753618
 21
19.23856432868251
 31
0.0
  0
LINE
  5
190B
330
18B9
100
AcDbEntity
  8
AM_3N
  6
AM_ISO02W050x2
100
AcDbLine
 10
-16.17919092753618
 20
19.23856432868251
 30
0.0
 11
-16.17919092753618
 21
22.73856432868251
 31
0.0
  0
LINE
  5
190C
330
18B9
100
AcDbEntity
  8
AM_0N
100
AcDbLine
 10
-21.4381909275362
 20
22.73856432868251
 30
0.0
 11
-21.4381909275362
 21
22.08856432868288
 31
0.0
  0
LINE
  5
190D
330
18B9
100
AcDbEntity
  8
AM_0N
100
AcDbLine
 10
-10.13819092753692
 20
22.08856432868288
 30
0.0
 11
-21.4381909275362
 21
22.08856432868288
 31
0.0
  0
LINE
  5
190E
330
18B9
100
AcDbEntity
  8
AM_0N
100
AcDbLine
 10
-10.13819092753692
 20
22.73856432868251
 30
0.0
 11
-21.4381909275362
 21
22.73856432868251
 31
0.0
  0
LINE
  5
190F
330
18B9
100
AcDbEntity
  8
AM_3N
  6
AM_ISO02W050x2
100
AcDbLine
 10
-12.33819092753674
 20
22.73856432868251
 30
0.0
 11
-15.78819092753656
 21
18.79119590763002
 31
0.0
  0
LINE
  5
1910
330
18B9
100
AcDbEntity
  8
AM_3N
  6
AM_ISO02W050x2
100
AcDbLine
 10
-19.23819092753638
 20
22.73856432868251
 30
0.0
 11
-15.78819092753656
 21
18.79119590763002
 31
0.0
  0
LINE
  5
1911
330
18B9
100
AcDbEntity
  8
AM_0N
100
AcDbLine
 10
-21.4381909275362
 20
22.08856432868288
 30
0.0
 11
-18.17469092753617
 21
18.82506432868285
 31
0.0
  0
LINE
  5
1912
330
18B9
100
AcDbEntity
  8
AM_0N
100
AcDbLine
 10
-10.13819092753692
 20
22.08856432868288
 30
0.0
 11
-13.40169092753695
 21
18.82506432868285
 31
0.0
  0
LINE
  5
1913
330
18B9
100
AcDbEntity
  8
AM_0
100
AcDbLine
 10
-11.78819092754111
 20
20.43856432867778
 30
0.0
 11
-11.78819092754111
 21
-6.261435671317485
 31
0.0
  0
LINE
  5
1914
330
18B9
100
AcDbEntity
  8
AM_0
100
AcDbLine
 10
-19.78819092754111
 20
20.43856432868688
 30
0.0
 11
-19.78819092754111
 21
-6.261435671317485
 31
0.0
  0
LINE
  5
1915
330
18B9
100
AcDbEntity
  8
外形線１
100
AcDbLine
 10
-11.78819092754111
 20
-6.498824471316765
 30
0.0
 11
-11.78819092754111
 21
-14.15670527131715
 31
0.0
  0
LINE
  5
1916
330
18B9
100
AcDbEntity
  8
AM_0
100
AcDbLine
 10
-8.488190927540017
 20
23.73856432868251
 30
0.0
 11
-11.78819092754111
 21
20.43856432867778
 31
0.0
  0
LINE
  5
1917
330
18B9
100
AcDbEntity
  8
AM_0
100
AcDbLine
 10
-23.08819092754129
 20
23.73856432868251
 30
0.0
 11
-19.78819092754111
 21
20.43856432868779
 31
0.0
  0
LINE
  5
1918
330
18B9
100
AcDbEntity
  8
AM_7
  6
AM_ISO08W050x2
100
AcDbLine
 10
4.211809072463438
 20
11.60249188741
 30
0.0
 11
4.211809072463438
 21
-39.85566049646877
 31
0.0
1001
GENIUS_GENOBJ-N-CEN_13
1002
{
1000
OWNER
1000
GEN
1002
}
1001
GENIUS_GENODEF_13
1002
{
1000
HIER
1070
     0
1002
}
1002
{
1000
MANEDIT
1070
     0
1002
}
1002
{
1000
NOSEL
1070
     0
1002
}
1002
{
1000
BEHIND
1070
     0
1002
}
1002
{
1000
OTHER
1070
     0
1002
}
1002
{
1000
REACTOR
1002
}
  0
LINE
  5
1919
330
18B9
100
AcDbEntity
  8
外形線１
 48
50.0
100
AcDbLine
 10
-19.21676235619725
 20
-14.0594556141732
 30
0.0
 11
-30.78819092753656
 21
-13.79014887131688
 31
0.0
  0
LINE
  5
191A
330
18B9
100
AcDbEntity
  8
外形線１
 48
50.0
100
AcDbLine
 10
9.211809072463438
 20
-17.26143567131748
 30
0.0
 11
9.211809072463438
 21
-36.26143567131749
 31
0.0
  0
LINE
  5
191B
330
18B9
100
AcDbEntity
  8
外形線１
 48
50.0
100
AcDbLine
 10
-0.7881909275365615
 20
-17.26143567131748
 30
0.0
 11
-0.7881909275365615
 21
-36.26143567131749
 31
0.0
  0
LINE
  5
191C
330
18B9
100
AcDbEntity
  8
外形線１
 48
50.0
100
AcDbLine
 10
-3.788190927536561
 20
-14.26143567131748
 30
0.0
 11
-19.21676235619725
 21
-14.0594556141732
 31
0.0
  0
LINE
  5
191D
330
18B9
100
AcDbEntity
  8
外形線１
 48
50.0
100
AcDbLine
 10
4.211809072463438
 20
-6.261435671317485
 30
0.0
 11
-12.78819092753656
 21
-6.513661271316777
 31
0.0
  0
LINE
  5
191E
330
18B9
100
AcDbEntity
  8
外形線１
 48
50.0
100
AcDbLine
 10
-30.78819092753656
 20
-6.872362871316909
 30
0.0
 11
-30.78819092753656
 21
-13.79014887131688
 31
0.0
  0
LINE
  5
191F
330
18B9
100
AcDbEntity
  8
外形線１
 48
50.0
100
AcDbLine
 10
39.21180907246344
 20
-6.872362871316909
 30
0.0
 11
39.21180907246344
 21
-13.79014887131688
 31
0.0
  0
LINE
  5
1920
330
18B9
100
AcDbEntity
  8
外形線１
 48
50.0
100
AcDbLine
 10
12.21180907246344
 20
-14.26143567131748
 30
0.0
 11
39.21180907246344
 21
-13.79014887131688
 31
0.0
  0
ARC
  5
1921
330
18B9
100
AcDbEntity
  8
外形線１
 48
50.0
100
AcDbCircle
 10
-3.788190927536561
 20
-17.26143567131748
 30
0.0
 40
3.0
100
AcDbArc
 50
0.0
 51
90.0
  0
ARC
  5
1922
330
18B9
100
AcDbEntity
  8
外形線１
 48
50.0
100
AcDbCircle
 10
12.21180907246344
 20
-17.26143567131748
 30
0.0
 40
3.0
100
AcDbArc
 50
90.0
 51
180.0
  0
LINE
  5
1923
330
18B9
100
AcDbEntity
  8
外形線１
 48
50.0
100
AcDbLine
 10
4.211809072463438
 20
-6.261435671317485
 30
0.0
 11
39.21180907246344
 21
-6.872362871316909
 31
0.0
  0
LINE
  5
1924
330
18B9
100
AcDbEntity
  8
外形線１
 48
50.0
100
AcDbLine
 10
-51.35021018565748
 20
23.73856432868251
 30
0.0
 11
51.35021018565748
 21
23.73856432868251
 31
0.0
  0
LINE
  5
1925
330
18B9
100
AcDbEntity
  8
外形線１
 48
50.0
100
AcDbLine
 10
-51.35021018565748
 20
-6.261435671317485
 30
0.0
 11
-18.78819092753656
 21
-6.261435671317485
 31
0.0
  0
LINE
  5
1926
330
18B9
100
AcDbEntity
  8
外形線１
 48
50.0
100
AcDbLine
 10
-19.92611869214033
 20
-6.619565277974288
 30
0.0
 11
-30.78819092753656
 21
-6.872362871316909
 31
0.0
  0
ENDBLK
  5
1927
330
18B9
100
AcDbEntity
  8
0
100
AcDbBlockEnd
  0
BLOCK
  5
258E
330
2540
100
AcDbEntity
  8
0
100
AcDbBlockBegin
  2
*D23
 70
     1
 10
0.0
 20
0.0
 30
0.0
  3
*D23
  1

  0
LINE
  5
2579
330
2540
100
AcDbEntity
  8
AM_5
100
AcDbLine
 10
879.7630718852222
 20
5241.34009573196
 30
0.0
 11
879.7630718852222
 21
5361.34009573196
 31
0.0
  0
LINE
  5
257A
330
2540
100
AcDbEntity
  8
AM_5
100
AcDbLine
 10
1644.763071885222
 20
5235.762884753356
 30
0.0
 11
1644.763071885222
 21
5361.34009573196
 31
0.0
  0
LINE
  5
257B
330
2540
100
AcDbEntity
  8
AM_5
100
AcDbLine
 10
904.7630718852222
 20
5351.34009573196
 30
0.0
 11
1619.763071885222
 21
5351.34009573196
 31
0.0
  0
INSERT
  5
257C
330
2540
100
AcDbEntity
  8
AM_5
100
AcDbBlockReference
  2
_Open30
 10
879.7630718852222
 20
5351.34009573196
 30
0.0
 41
25.0
 42
25.0
 43
25.0
 50
180.0
  0
INSERT
  5
257D
330
2540
100
AcDbEntity
  8
AM_5
100
AcDbBlockReference
  2
_Open30
 10
1644.763071885222
 20
5351.34009573196
 30
0.0
 41
25.0
 42
25.0
 43
25.0
  0
MTEXT
  5
257E
330
2540
100
AcDbEntity
  8
AM_5
 62
     2
100
AcDbMText
 10
1262.263071885222
 20
5381.34009573196
 30
0.0
 40
30.0
 41
0.0
 71
     5
 72
     1
  1
765
 73
     1
 44
1.0
  0
POINT
  5
257F
330
2540
100
AcDbEntity
  8
DEFPOINTS
 62
     0
100
AcDbPoint
 10
879.7630718852222
 20
5231.34009573196
 30
0.0
  0
POINT
  5
2580
330
2540
100
AcDbEntity
  8
DEFPOINTS
 62
     0
100
AcDbPoint
 10
1644.763071885222
 20
5225.762884753356
 30
0.0
  0
POINT
  5
2581
330
2540
100
AcDbEntity
  8
DEFPOINTS
 62
     0
100
AcDbPoint
 10
1644.763071885222
 20
5351.34009573196
 30
0.0
  0
ENDBLK
  5
258F
330
2540
100
AcDbEntity
  8
0
100
AcDbBlockEnd
  0
BLOCK
  5
2590
330
2566
100
AcDbEntity
  8
0
100
AcDbBlockBegin
  2
*D24
 70
     1
 10
0.0
 20
0.0
 30
0.0
  3
*D24
  1

  0
LINE
  5
2582
330
2566
100
AcDbEntity
  8
AM_5
100
AcDbLine
 10
2409.763071885223
 20
5235.762884753356
 30
0.0
 11
2409.763071885223
 21
5361.34009573196
 31
0.0
  0
LINE
  5
2583
330
2566
100
AcDbEntity
  8
AM_5
100
AcDbLine
 10
1644.763071885222
 20
5235.762884753356
 30
0.0
 11
1644.763071885222
 21
5361.34009573196
 31
0.0
  0
LINE
  5
2584
330
2566
100
AcDbEntity
  8
AM_5
100
AcDbLine
 10
2384.763071885223
 20
5351.34009573196
 30
0.0
 11
1669.763071885222
 21
5351.34009573196
 31
0.0
  0
INSERT
  5
2585
330
2566
100
AcDbEntity
  8
AM_5
100
AcDbBlockReference
  2
_Open30
 10
2409.763071885223
 20
5351.34009573196
 30
0.0
 41
25.0
 42
25.0
 43
25.0
  0
INSERT
  5
2586
330
2566
100
AcDbEntity
  8
AM_5
100
AcDbBlockReference
  2
_Open30
 10
1644.763071885222
 20
5351.34009573196
 30
0.0
 41
25.0
 42
25.0
 43
25.0
 50
180.0
  0
MTEXT
  5
2587
330
2566
100
AcDbEntity
  8
AM_5
 62
     2
100
AcDbMText
 10
2027.263071885222
 20
5381.34009573196
 30
0.0
 40
30.0
 41
0.0
 71
     5
 72
     1
  1
765
 73
     1
 44
1.0
  0
POINT
  5
2588
330
2566
100
AcDbEntity
  8
DEFPOINTS
 62
     0
100
AcDbPoint
 10
2409.763071885223
 20
5225.762884753356
 30
0.0
  0
POINT
  5
2589
330
2566
100
AcDbEntity
  8
DEFPOINTS
 62
     0
100
AcDbPoint
 10
1644.763071885222
 20
5225.762884753355
 30
0.0
  0
POINT
  5
258A
330
2566
100
AcDbEntity
  8
DEFPOINTS
 62
     0
100
AcDbPoint
 10
1644.763071885222
 20
5351.34009573196
 30
0.0
  0
ENDBLK
  5
2591
330
2566
100
AcDbEntity
  8
0
100
AcDbBlockEnd
  0
BLOCK
  5
2797
330
2793
100
AcDbEntity
  8
0
100
AcDbBlockBegin
  2
*S25
 70
     1
 10
0.0
 20
0.0
 30
0.0
  3
*S25
  1

  0
CIRCLE
  5
2794
330
2793
100
AcDbEntity
  8
AM_12
 62
     4
100
AcDbCircle
 10
3626.755972441686
 20
5011.877890836103
 30
0.0
 40
15.75
  0
LINE
  5
2795
330
2793
100
AcDbEntity
  8
AM_12
 62
     4
100
AcDbLine
 10
3611.005972441687
 20
4996.127890836103
 30
0.0
 11
3642.505972441686
 21
5027.627890836104
 31
0.0
  0
LINE
  5
2796
330
2793
100
AcDbEntity
  8
AM_12
 62
     4
100
AcDbLine
 10
3611.005972441687
 20
5027.627890836104
 30
0.0
 11
3642.505972441686
 21
4996.127890836103
 31
0.0
  0
ENDBLK
  5
2798
330
2793
100
AcDbEntity
  8
0
100
AcDbBlockEnd
  0
BLOCK
  5
279F
330
279A
100
AcDbEntity
  8
0
100
AcDbBlockBegin
  2
*S26
 70
     1
 10
0.0
 20
0.0
 30
0.0
  3
*S26
  1

  0
LINE
  5
279B
330
279A
100
AcDbEntity
  8
AM_5
100
AcDbLine
 10
3819.647046773879
 20
5096.678330841617
 30
0.0
 11
3655.038184481018
 21
5024.659333553646
 31
0.0
  0
TRACE
  5
279C
330
279A
100
AcDbEntity
  8
AM_5
100
AcDbTrace
 10
3653.375916512742
 20
5028.458664971572
 30
0.0
 11
3656.700452449293
 21
5020.860002135719
 31
0.0
 12
3626.17939710894
 22
5012.03315474083
 32
0.0
 13
3626.17939710894
 23
5012.03315474083
 33
0.0
  0
MTEXT
  5
279D
330
279A
100
AcDbEntity
  8
AM_5
 62
     2
100
AcDbMText
 10
3865.340126779669
 20
5116.669780628575
 30
0.0
 40
35.0
 41
0.0
 71
     5
 72
     5
  1
1
  7
ACJISTS
 73
     1
 44
1.0
  0
CIRCLE
  5
279E
330
279A
100
AcDbEntity
  8
AM_5
 62
     3
100
AcDbCircle
 10
3865.340126779669
 20
5116.669780628575
 30
0.0
 40
49.875
  0
ENDBLK
  5
27A0
330
279A
100
AcDbEntity
  8
0
100
AcDbBlockEnd
  0
BLOCK
  5
27A6
330
27A2
100
AcDbEntity
  8
0
100
AcDbBlockBegin
  2
*S27
 70
     1
 10
0.0
 20
0.0
 30
0.0
  3
*S27
  1

  0
CIRCLE
  5
27A3
330
27A2
100
AcDbEntity
  8
AM_12
 62
     4
100
AcDbCircle
 10
3673.758544469827
 20
5186.962348652343
 30
0.0
 40
15.75
  0
LINE
  5
27A4
330
27A2
100
AcDbEntity
  8
AM_12
 62
     4
100
AcDbLine
 10
3658.008544469827
 20
5171.212348652343
 30
0.0
 11
3689.508544469827
 21
5202.712348652344
 31
0.0
  0
LINE
  5
27A5
330
27A2
100
AcDbEntity
  8
AM_12
 62
     4
100
AcDbLine
 10
3658.008544469827
 20
5202.712348652344
 30
0.0
 11
3689.508544469827
 21
5171.212348652343
 31
0.0
  0
ENDBLK
  5
27A7
330
27A2
100
AcDbEntity
  8
0
100
AcDbBlockEnd
  0
BLOCK
  5
27AE
330
27A9
100
AcDbEntity
  8
0
100
AcDbBlockBegin
  2
*S28
 70
     1
 10
0.0
 20
0.0
 30
0.0
  3
*S28
  1

  0
LINE
  5
27AA
330
27A9
100
AcDbEntity
  8
AM_5
100
AcDbLine
 10
3819.991970675167
 20
5253.030043644326
 30
0.0
 11
3702.129756186948
 21
5199.068544223063
 31
0.0
  0
TRACE
  5
27AB
330
27A9
100
AcDbEntity
  8
AM_5
100
AcDbTrace
 10
3700.403418343864
 20
5202.839195582328
 30
0.0
 11
3703.856094030033
 21
5195.297892863798
 31
0.0
 12
3673.488815489368
 22
5185.955706392994
 32
0.0
 13
3673.488815489368
 23
5185.955706392994
 33
0.0
  0
MTEXT
  5
27AC
330
27A9
100
AcDbEntity
  8
AM_5
 62
     2
100
AcDbMText
 10
3865.340126779669
 20
5273.79203687527
 30
0.0
 40
35.0
 41
0.0
 71
     5
 72
     5
  1
2
  7
ACJISTS
 73
     1
 44
1.0
  0
CIRCLE
  5
27AD
330
27A9
100
AcDbEntity
  8
AM_5
 62
     3
100
AcDbCircle
 10
3865.340126779669
 20
5273.79203687527
 30
0.0
 40
49.875
  0
ENDBLK
  5
27AF
330
27A9
100
AcDbEntity
  8
0
100
AcDbBlockEnd
  0
BLOCK
  5
27B5
330
27B1
100
AcDbEntity
  8
0
100
AcDbBlockBegin
  2
*S29
 70
     1
 10
0.0
 20
0.0
 30
0.0
  3
*S29
  1

  0
CIRCLE
  5
27B2
330
27B1
100
AcDbEntity
  8
AM_12
 62
     4
100
AcDbCircle
 10
2074.163490199433
 20
4246.075523437536
 30
0.0
 40
15.75
  0
LINE
  5
27B3
330
27B1
100
AcDbEntity
  8
AM_12
 62
     4
100
AcDbLine
 10
2058.413490199433
 20
4230.325523437536
 30
0.0
 11
2089.913490199433
 21
4261.825523437536
 31
0.0
  0
LINE
  5
27B4
330
27B1
100
AcDbEntity
  8
AM_12
 62
     4
100
AcDbLine
 10
2058.413490199433
 20
4261.825523437536
 30
0.0
 11
2089.913490199433
 21
4230.325523437536
 31
0.0
  0
ENDBLK
  5
27B6
330
27B1
100
AcDbEntity
  8
0
100
AcDbBlockEnd
  0
BLOCK
  5
27BD
330
27B8
100
AcDbEntity
  8
0
100
AcDbBlockBegin
  2
*S30
 70
     1
 10
0.0
 20
0.0
 30
0.0
  3
*S30
  1

  0
LINE
  5
27B9
330
27B8
100
AcDbEntity
  8
AM_5
100
AcDbLine
 10
2032.03984958302
 20
4376.16946633014
 30
0.0
 11
2064.459973064725
 21
4276.043702481589
 31
0.0
  0
TRACE
  5
27BA
330
27B8
100
AcDbEntity
  8
AM_5
100
AcDbTrace
 10
2060.514587463033
 20
4274.766210221123
 30
0.0
 11
2068.405358666418
 21
4277.321194742056
 31
0.0
 12
2074.163490199433
 22
4246.075523437536
 32
0.0
 13
2074.163490199433
 23
4246.075523437536
 33
0.0
  0
MTEXT
  5
27BB
330
27B8
100
AcDbEntity
  8
AM_5
 62
     2
100
AcDbMText
 10
2016.675947453066
 20
4423.619083149891
 30
0.0
 40
35.0
 41
0.0
 71
     5
 72
     5
  1
3
  7
ACJISTS
 73
     1
 44
1.0
  0
CIRCLE
  5
27BC
330
27B8
100
AcDbEntity
  8
AM_5
 62
     3
100
AcDbCircle
 10
2016.675947453066
 20
4423.619083149891
 30
0.0
 40
49.875
  0
ENDBLK
  5
27BE
330
27B8
100
AcDbEntity
  8
0
100
AcDbBlockEnd
  0
BLOCK
  5
27C4
330
27C0
100
AcDbEntity
  8
0
100
AcDbBlockBegin
  2
*S31
 70
     1
 10
0.0
 20
0.0
 30
0.0
  3
*S31
  1

  0
CIRCLE
  5
27C1
330
27C0
100
AcDbEntity
  8
AM_12
 62
     4
100
AcDbCircle
 10
2219.180958456742
 20
4217.538852464216
 30
0.0
 40
15.75
  0
LINE
  5
27C2
330
27C0
100
AcDbEntity
  8
AM_12
 62
     4
100
AcDbLine
 10
2203.430958456742
 20
4201.788852464217
 30
0.0
 11
2234.930958456742
 21
4233.288852464216
 31
0.0
  0
LINE
  5
27C3
330
27C0
100
AcDbEntity
  8
AM_12
 62
     4
100
AcDbLine
 10
2203.430958456742
 20
4233.288852464216
 30
0.0
 11
2234.930958456742
 21
4201.788852464217
 31
0.0
  0
ENDBLK
  5
27C5
330
27C0
100
AcDbEntity
  8
0
100
AcDbBlockEnd
  0
BLOCK
  5
27CC
330
27C7
100
AcDbEntity
  8
0
100
AcDbBlockBegin
  2
*S32
 70
     1
 10
0.0
 20
0.0
 30
0.0
  3
*S32
  1

  0
LINE
  5
27C8
330
27C7
100
AcDbEntity
  8
AM_5
100
AcDbLine
 10
2161.869115637619
 20
4376.560141072448
 30
0.0
 11
2207.515244514063
 21
4246.546960539069
 31
0.0
  0
TRACE
  5
27C9
330
27C7
100
AcDbEntity
  8
AM_5
100
AcDbTrace
 10
2203.602343105217
 20
4245.173185962858
 30
0.0
 11
2211.42814592291
 21
4247.92073511528
 31
0.0
 12
2217.950098447829
 22
4216.825523437527
 32
0.0
 13
2217.950098447829
 23
4216.825523437527
 33
0.0
  0
MTEXT
  5
27CA
330
27C7
100
AcDbEntity
  8
AM_5
 62
     2
100
AcDbMText
 10
2145.347263575823
 20
4423.619083149891
 30
0.0
 40
35.0
 41
0.0
 71
     5
 72
     5
  1
4
  7
ACJISTS
 73
     1
 44
1.0
  0
CIRCLE
  5
27CB
330
27C7
100
AcDbEntity
  8
AM_5
 62
     3
100
AcDbCircle
 10
2145.347263575823
 20
4423.619083149891
 30
0.0
 40
49.875
  0
ENDBLK
  5
27CD
330
27C7
100
AcDbEntity
  8
0
100
AcDbBlockEnd
  0
BLOCK
  5
27D3
330
27CF
100
AcDbEntity
  8
0
100
AcDbBlockBegin
  2
*S33
 70
     1
 10
0.0
 20
0.0
 30
0.0
  3
*S33
  1

  0
CIRCLE
  5
27D0
330
27CF
100
AcDbEntity
  8
AM_12
 62
     4
100
AcDbCircle
 10
2405.489383329736
 20
4217.165564585992
 30
0.0
 40
15.75
  0
LINE
  5
27D1
330
27CF
100
AcDbEntity
  8
AM_12
 62
     4
100
AcDbLine
 10
2389.739383329736
 20
4201.415564585992
 30
0.0
 11
2421.239383329736
 21
4232.915564585992
 31
0.0
  0
LINE
  5
27D2
330
27CF
100
AcDbEntity
  8
AM_12
 62
     4
100
AcDbLine
 10
2389.739383329736
 20
4232.915564585992
 30
0.0
 11
2421.239383329736
 21
4201.415564585992
 31
0.0
  0
ENDBLK
  5
27D4
330
27CF
100
AcDbEntity
  8
0
100
AcDbBlockEnd
  0
BLOCK
  5
27DB
330
27D6
100
AcDbEntity
  8
0
100
AcDbBlockBegin
  2
*S34
 70
     1
 10
0.0
 20
0.0
 30
0.0
  3
*S34
  1

  0
LINE
  5
27D7
330
27D6
100
AcDbEntity
  8
AM_5
100
AcDbLine
 10
2451.578883076381
 20
4375.688090803834
 30
0.0
 11
2414.868737005406
 21
4248.082172865877
 31
0.0
  0
TRACE
  5
27D8
330
27D6
100
AcDbEntity
  8
AM_5
100
AcDbTrace
 10
2410.883325536324
 20
4249.228710891286
 30
0.0
 11
2418.854148474488
 21
4246.93563484047
 31
0.0
 12
2406.159916044662
 22
4217.809967173631
 32
0.0
 13
2406.159916044662
 23
4217.809967173631
 33
0.0
  0
MTEXT
  5
27D9
330
27D6
100
AcDbEntity
  8
AM_5
 62
     2
100
AcDbMText
 10
2465.367849597559
 20
4423.619083149891
 30
0.0
 40
35.0
 41
0.0
 71
     5
 72
     5
  1
5
  7
ACJISTS
 73
     1
 44
1.0
  0
CIRCLE
  5
27DA
330
27D6
100
AcDbEntity
  8
AM_5
 62
     3
100
AcDbCircle
 10
2465.367849597559
 20
4423.619083149891
 30
0.0
 40
49.875
  0
ENDBLK
  5
27DC
330
27D6
100
AcDbEntity
  8
0
100
AcDbBlockEnd
  0
BLOCK
  5
27E2
330
27DE
100
AcDbEntity
  8
0
100
AcDbBlockBegin
  2
*S35
 70
     1
 10
0.0
 20
0.0
 30
0.0
  3
*S35
  1

  0
CIRCLE
  5
27DF
330
27DE
100
AcDbEntity
  8
AM_12
 62
     4
100
AcDbCircle
 10
1299.653124404016
 20
4291.88703677495
 30
0.0
 40
15.75
  0
LINE
  5
27E0
330
27DE
100
AcDbEntity
  8
AM_12
 62
     4
100
AcDbLine
 10
1283.903124404016
 20
4276.13703677495
 30
0.0
 11
1315.403124404016
 21
4307.637036774949
 31
0.0
  0
LINE
  5
27E1
330
27DE
100
AcDbEntity
  8
AM_12
 62
     4
100
AcDbLine
 10
1283.903124404016
 20
4307.637036774949
 30
0.0
 11
1315.403124404016
 21
4276.13703677495
 31
0.0
  0
ENDBLK
  5
27E3
330
27DE
100
AcDbEntity
  8
0
100
AcDbBlockEnd
  0
BLOCK
  5
27EA
330
27E5
100
AcDbEntity
  8
0
100
AcDbBlockBegin
  2
*S36
 70
     1
 10
0.0
 20
0.0
 30
0.0
  3
*S36
  1

  0
LINE
  5
27E6
330
27E5
100
AcDbEntity
  8
AM_5
100
AcDbLine
 10
1373.466075082568
 20
4384.727166104533
 30
0.0
 11
1319.373507404272
 21
4317.350541894663
 31
0.0
  0
TRACE
  5
27E7
330
27E5
100
AcDbEntity
  8
AM_5
100
AcDbTrace
 10
1316.1396855145
 20
4319.946779558443
 30
0.0
 11
1322.607329294044
 21
4314.754304230882
 31
0.0
 12
1299.653124404016
 22
4292.787225866015
 32
0.0
 13
1299.653124404016
 23
4292.787225866015
 33
0.0
  0
MTEXT
  5
27E8
330
27E5
100
AcDbEntity
  8
AM_5
 62
     2
100
AcDbMText
 10
1404.690014832973
 20
4423.619083149891
 30
0.0
 40
35.0
 41
0.0
 71
     5
 72
     5
  1
6
  7
ACJISTS
 73
     1
 44
1.0
  0
CIRCLE
  5
27E9
330
27E5
100
AcDbEntity
  8
AM_5
 62
     3
100
AcDbCircle
 10
1404.690014832973
 20
4423.619083149891
 30
0.0
 40
49.875
  0
ENDBLK
  5
27EB
330
27E5
100
AcDbEntity
  8
0
100
AcDbBlockEnd
  0
BLOCK
  5
2837
330
27ED
100
AcDbEntity
  8
0
100
AcDbBlockBegin
  2
*S37
 70
     1
 10
0.0
 20
0.0
 30
0.0
  3
*S37
  1

  0
LINE
  5
27EE
330
27ED
100
AcDbEntity
  8
40
 62
     1
100
AcDbLine
 10
2711.648266483856
 20
6440.107540556322
 30
0.0
 11
4255.648266483856
 21
6440.107540556322
 31
0.0
  0
LINE
  5
27EF
330
27ED
100
AcDbEntity
  8
40
 62
     1
100
AcDbLine
 10
2711.648266483856
 20
6365.857540556322
 30
0.0
 11
4255.648266483856
 21
6365.857540556322
 31
0.0
  0
LINE
  5
27F0
330
27ED
100
AcDbEntity
  8
40
 62
     1
100
AcDbLine
 10
2711.648266483856
 20
6291.607540556322
 30
0.0
 11
4255.648266483856
 21
6291.607540556322
 31
0.0
  0
LINE
  5
27F1
330
27ED
100
AcDbEntity
  8
40
 62
     1
100
AcDbLine
 10
2711.648266483856
 20
6217.357540556322
 30
0.0
 11
4255.648266483856
 21
6217.357540556322
 31
0.0
  0
LINE
  5
27F2
330
27ED
100
AcDbEntity
  8
40
 62
     1
100
AcDbLine
 10
2711.648266483856
 20
6143.107540556322
 30
0.0
 11
4255.648266483856
 21
6143.107540556322
 31
0.0
  0
MTEXT
  5
27F3
330
27ED
100
AcDbEntity
  8
40
 62
     7
100
AcDbMText
 10
2770.148266483856
 20
6500.857540556322
 30
0.0
 40
45.0
 41
98.99999999999998
 71
     2
 72
     5
  1
1
  7
ACJISTS
 73
     1
 44
1.0
  0
LINE
  5
27F4
330
27ED
100
AcDbEntity
  8
40
 62
     1
100
AcDbLine
 10
2828.648266483856
 20
6514.357540556321
 30
0.0
 11
2828.648266483856
 21
6440.107540556322
 31
0.0
  0
MTEXT
  5
27F5
330
27ED
100
AcDbEntity
  8
40
 62
     7
100
AcDbMText
 10
3053.648266483856
 20
6500.857540556322
 30
0.0
 40
45.0
 41
432.0
 71
     2
 72
     5
  1
本体
  7
ACJISTS
 73
     1
 44
1.0
  0
LINE
  5
27F6
330
27ED
100
AcDbEntity
  8
40
 62
     1
100
AcDbLine
 10
3278.648266483856
 20
6514.357540556321
 30
0.0
 11
3278.648266483856
 21
6440.107540556322
 31
0.0
  0
MTEXT
  5
27F7
330
27ED
100
AcDbEntity
  8
40
 62
     7
100
AcDbMText
 10
3337.148266483856
 20
6500.857540556322
 30
0.0
 40
45.0
 41
99.0
 71
     2
 72
     5
  1
3
  7
ACJISTS
 73
     1
 44
1.0
  0
LINE
  5
27F8
330
27ED
100
AcDbEntity
  8
40
 62
     1
100
AcDbLine
 10
3395.648266483856
 20
6514.357540556321
 30
0.0
 11
3395.648266483856
 21
6440.107540556322
 31
0.0
  0
MTEXT
  5
27F9
330
27ED
100
AcDbEntity
  8
40
 62
     7
100
AcDbMText
 10
3510.648266483856
 20
6500.857540556322
 30
0.0
 40
45.0
 41
212.0
 71
     2
 72
     5
  1
FC200
  7
ACJISTS
 73
     1
 44
1.0
  0
LINE
  5
27FA
330
27ED
100
AcDbEntity
  8
40
 62
     1
100
AcDbLine
 10
3625.648266483856
 20
6514.357540556321
 30
0.0
 11
3625.648266483856
 21
6440.107540556322
 31
0.0
  0
MTEXT
  5
27FB
330
27ED
100
AcDbEntity
  8
40
 62
     7
100
AcDbMText
 10
3940.648266483857
 20
6500.857540556322
 30
0.0
 40
45.0
 41
612.0
 71
     2
 72
     5
  1
樹脂系塗料塗装
  7
ACJISTS
 73
     1
 44
1.0
  0
MTEXT
  5
27FC
330
27ED
100
AcDbEntity
  8
40
 62
     7
100
AcDbMText
 10
2770.148266483856
 20
6426.607540556322
 30
0.0
 40
45.0
 41
98.99999999999998
 71
     2
 72
     5
  1
2
  7
ACJISTS
 73
     1
 44
1.0
  0
LINE
  5
27FD
330
27ED
100
AcDbEntity
  8
40
 62
     1
100
AcDbLine
 10
2828.648266483856
 20
6440.107540556322
 30
0.0
 11
2828.648266483856
 21
6365.857540556322
 31
0.0
  0
MTEXT
  5
27FE
330
27ED
100
AcDbEntity
  8
40
 62
     7
100
AcDbMText
 10
3053.648266483856
 20
6426.607540556322
 30
0.0
 40
45.0
 41
432.0
 71
     2
 72
     5
  1
座板
  7
ACJISTS
 73
     1
 44
1.0
  0
LINE
  5
27FF
330
27ED
100
AcDbEntity
  8
40
 62
     1
100
AcDbLine
 10
3278.648266483856
 20
6440.107540556322
 30
0.0
 11
3278.648266483856
 21
6365.857540556322
 31
0.0
  0
MTEXT
  5
2800
330
27ED
100
AcDbEntity
  8
40
 62
     7
100
AcDbMText
 10
3337.148266483856
 20
6426.607540556322
 30
0.0
 40
45.0
 41
99.0
 71
     2
 72
     5
  1
7
  7
ACJISTS
 73
     1
 44
1.0
  0
LINE
  5
2801
330
27ED
100
AcDbEntity
  8
40
 62
     1
100
AcDbLine
 10
3395.648266483856
 20
6440.107540556322
 30
0.0
 11
3395.648266483856
 21
6365.857540556322
 31
0.0
  0
MTEXT
  5
2802
330
27ED
100
AcDbEntity
  8
40
 62
     7
100
AcDbMText
 10
3510.648266483856
 20
6426.607540556322
 30
0.0
 40
45.0
 41
212.0
 71
     2
 72
     5
  1
ひば
  7
ACJISTS
 73
     1
 44
1.0
  0
LINE
  5
2803
330
27ED
100
AcDbEntity
  8
40
 62
     1
100
AcDbLine
 10
3625.648266483856
 20
6440.107540556322
 30
0.0
 11
3625.648266483856
 21
6365.857540556322
 31
0.0
  0
MTEXT
  5
2804
330
27ED
100
AcDbEntity
  8
40
 62
     7
100
AcDbMText
 10
3940.648266483857
 20
6426.607540556322
 30
0.0
 40
45.0
 41
612.0
 71
     2
 72
     5
  1
70×30×1500
  7
ACJISTS
 73
     1
 44
1.0
  0
MTEXT
  5
2805
330
27ED
100
AcDbEntity
  8
40
 62
     7
100
AcDbMText
 10
2770.148266483856
 20
6352.357540556321
 30
0.0
 40
45.0
 41
98.99999999999998
 71
     2
 72
     5
  1
3
  7
ACJISTS
 73
     1
 44
1.0
  0
LINE
  5
2806
330
27ED
100
AcDbEntity
  8
40
 62
     1
100
AcDbLine
 10
2828.648266483856
 20
6365.857540556322
 30
0.0
 11
2828.648266483856
 21
6291.607540556322
 31
0.0
  0
MTEXT
  5
2807
330
27ED
100
AcDbEntity
  8
40
 62
     7
100
AcDbMText
 10
3053.648266483856
 20
6352.357540556321
 30
0.0
 40
45.0
 41
432.0
 71
     2
 72
     5
  1
ガイドパイプ
  7
ACJISTS
 73
     1
 44
1.0
  0
LINE
  5
2808
330
27ED
100
AcDbEntity
  8
40
 62
     1
100
AcDbLine
 10
3278.648266483856
 20
6365.857540556322
 30
0.0
 11
3278.648266483856
 21
6291.607540556322
 31
0.0
  0
MTEXT
  5
2809
330
27ED
100
AcDbEntity
  8
40
 62
     7
100
AcDbMText
 10
3337.148266483856
 20
6352.357540556321
 30
0.0
 40
45.0
 41
99.0
 71
     2
 72
     5
  1
1
  7
ACJISTS
 73
     1
 44
1.0
  0
LINE
  5
280A
330
27ED
100
AcDbEntity
  8
40
 62
     1
100
AcDbLine
 10
3395.648266483856
 20
6365.857540556322
 30
0.0
 11
3395.648266483856
 21
6291.607540556322
 31
0.0
  0
MTEXT
  5
280B
330
27ED
100
AcDbEntity
  8
40
 62
     7
100
AcDbMText
 10
3510.648266483856
 20
6352.357540556321
 30
0.0
 40
45.0
 41
212.0
 71
     2
 72
     5
  1
鋼管
  7
ACJISTS
 73
     1
 44
1.0
  0
LINE
  5
280C
330
27ED
100
AcDbEntity
  8
40
 62
     1
100
AcDbLine
 10
3625.648266483856
 20
6365.857540556322
 30
0.0
 11
3625.648266483856
 21
6291.607540556322
 31
0.0
  0
MTEXT
  5
280D
330
27ED
100
AcDbEntity
  8
40
 62
     7
100
AcDbMText
 10
3940.648266483857
 20
6352.357540556321
 30
0.0
 40
45.0
 41
612.0
 71
     2
 72
     5
  1
15A,樹脂系塗料塗装
  7
ACJISTS
 73
     1
 44
1.0
  0
MTEXT
  5
280E
330
27ED
100
AcDbEntity
  8
40
 62
     7
100
AcDbMText
 10
2770.148266483856
 20
6278.107540556321
 30
0.0
 40
45.0
 41
98.99999999999998
 71
     2
 72
     5
  1
4
  7
ACJISTS
 73
     1
 44
1.0
  0
LINE
  5
280F
330
27ED
100
AcDbEntity
  8
40
 62
     1
100
AcDbLine
 10
2828.648266483856
 20
6291.607540556322
 30
0.0
 11
2828.648266483856
 21
6217.357540556322
 31
0.0
  0
MTEXT
  5
2810
330
27ED
100
AcDbEntity
  8
40
 62
     7
100
AcDbMText
 10
3053.648266483856
 20
6278.107540556321
 30
0.0
 40
45.0
 41
432.0
 71
     2
 72
     5
  1
ガイドボルト
  7
ACJISTS
 73
     1
 44
1.0
  0
LINE
  5
2811
330
27ED
100
AcDbEntity
  8
40
 62
     1
100
AcDbLine
 10
3278.648266483856
 20
6291.607540556322
 30
0.0
 11
3278.648266483856
 21
6217.357540556322
 31
0.0
  0
MTEXT
  5
2812
330
27ED
100
AcDbEntity
  8
40
 62
     7
100
AcDbMText
 10
3337.148266483856
 20
6278.107540556321
 30
0.0
 40
45.0
 41
99.0
 71
     2
 72
     5
  1
1
  7
ACJISTS
 73
     1
 44
1.0
  0
LINE
  5
2813
330
27ED
100
AcDbEntity
  8
40
 62
     1
100
AcDbLine
 10
3395.648266483856
 20
6291.607540556322
 30
0.0
 11
3395.648266483856
 21
6217.357540556322
 31
0.0
  0
MTEXT
  5
2814
330
27ED
100
AcDbEntity
  8
40
 62
     7
100
AcDbMText
 10
3510.648266483856
 20
6278.107540556321
 30
0.0
 40
45.0
 41
212.0
 71
     2
 72
     5
  1
SS400
  7
ACJISTS
 73
     1
 44
1.0
  0
LINE
  5
2815
330
27ED
100
AcDbEntity
  8
40
 62
     1
100
AcDbLine
 10
3625.648266483856
 20
6291.607540556322
 30
0.0
 11
3625.648266483856
 21
6217.357540556322
 31
0.0
  0
MTEXT
  5
2816
330
27ED
100
AcDbEntity
  8
40
 62
     7
100
AcDbMText
 10
3940.648266483857
 20
6278.107540556321
 30
0.0
 40
45.0
 41
612.0
 71
     2
 72
     5
  1
M10
  7
ACJISTS
 73
     1
 44
1.0
  0
MTEXT
  5
2817
330
27ED
100
AcDbEntity
  8
40
 62
     7
100
AcDbMText
 10
2770.148266483856
 20
6203.857540556321
 30
0.0
 40
45.0
 41
98.99999999999998
 71
     2
 72
     5
  1
5
  7
ACJISTS
 73
     1
 44
1.0
  0
LINE
  5
2818
330
27ED
100
AcDbEntity
  8
40
 62
     1
100
AcDbLine
 10
2828.648266483856
 20
6217.357540556322
 30
0.0
 11
2828.648266483856
 21
6143.107540556322
 31
0.0
  0
MTEXT
  5
2819
330
27ED
100
AcDbEntity
  8
40
 62
     7
100
AcDbMText
 10
3053.648266483856
 20
6203.857540556321
 30
0.0
 40
45.0
 41
432.0
 71
     2
 72
     5
  1
六角袋ナット
  7
ACJISTS
 73
     1
 44
1.0
  0
LINE
  5
281A
330
27ED
100
AcDbEntity
  8
40
 62
     1
100
AcDbLine
 10
3278.648266483856
 20
6217.357540556322
 30
0.0
 11
3278.648266483856
 21
6143.107540556322
 31
0.0
  0
MTEXT
  5
281B
330
27ED
100
AcDbEntity
  8
40
 62
     7
100
AcDbMText
 10
3337.148266483856
 20
6203.857540556321
 30
0.0
 40
45.0
 41
99.0
 71
     2
 72
     5
  1
2
  7
ACJISTS
 73
     1
 44
1.0
  0
LINE
  5
281C
330
27ED
100
AcDbEntity
  8
40
 62
     1
100
AcDbLine
 10
3395.648266483856
 20
6217.357540556322
 30
0.0
 11
3395.648266483856
 21
6143.107540556322
 31
0.0
  0
MTEXT
  5
281D
330
27ED
100
AcDbEntity
  8
40
 62
     7
100
AcDbMText
 10
3510.648266483856
 20
6203.857540556321
 30
0.0
 40
45.0
 41
212.0
 71
     2
 72
     5
  1
SUS304
  7
ACJISTS
 73
     1
 44
1.0
  0
LINE
  5
281E
330
27ED
100
AcDbEntity
  8
40
 62
     1
100
AcDbLine
 10
3625.648266483856
 20
6217.357540556322
 30
0.0
 11
3625.648266483856
 21
6143.107540556322
 31
0.0
  0
MTEXT
  5
281F
330
27ED
100
AcDbEntity
  8
40
 62
     7
100
AcDbMText
 10
3940.648266483857
 20
6203.857540556321
 30
0.0
 40
45.0
 41
612.0
 71
     2
 72
     5
  1
M10,PW,SW
  7
ACJISTS
 73
     1
 44
1.0
  0
MTEXT
  5
2820
330
27ED
100
AcDbEntity
  8
40
 62
     7
100
AcDbMText
 10
2770.148266483856
 20
6129.607540556321
 30
0.0
 40
45.0
 41
98.99999999999998
 71
     2
 72
     5
  1
6
  7
ACJISTS
 73
     1
 44
1.0
  0
LINE
  5
2821
330
27ED
100
AcDbEntity
  8
40
 62
     1
100
AcDbLine
 10
2828.648266483856
 20
6143.107540556322
 30
0.0
 11
2828.648266483856
 21
6068.857540556321
 31
0.0
  0
MTEXT
  5
2822
330
27ED
100
AcDbEntity
  8
40
 62
     7
100
AcDbMText
 10
3053.648266483856
 20
6129.607540556321
 30
0.0
 40
45.0
 41
432.0
 71
     2
 72
     5
  1
六角穴付皿ネジ
  7
ACJISTS
 73
     1
 44
1.0
  0
LINE
  5
2823
330
27ED
100
AcDbEntity
  8
40
 62
     1
100
AcDbLine
 10
3278.648266483856
 20
6143.107540556322
 30
0.0
 11
3278.648266483856
 21
6068.857540556321
 31
0.0
  0
MTEXT
  5
2824
330
27ED
100
AcDbEntity
  8
40
 62
     7
100
AcDbMText
 10
3337.148266483856
 20
6129.607540556321
 30
0.0
 40
45.0
 41
99.0
 71
     2
 72
     5
  1
21
  7
ACJISTS
 73
     1
 44
1.0
  0
LINE
  5
2825
330
27ED
100
AcDbEntity
  8
40
 62
     1
100
AcDbLine
 10
3395.648266483856
 20
6143.107540556322
 30
0.0
 11
3395.648266483856
 21
6068.857540556321
 31
0.0
  0
MTEXT
  5
2826
330
27ED
100
AcDbEntity
  8
40
 62
     7
100
AcDbMText
 10
3510.648266483856
 20
6129.607540556321
 30
0.0
 40
45.0
 41
212.0
 71
     2
 72
     5
  1
SUS304
  7
ACJISTS
 73
     1
 44
1.0
  0
LINE
  5
2827
330
27ED
100
AcDbEntity
  8
40
 62
     1
100
AcDbLine
 10
3625.648266483856
 20
6143.107540556322
 30
0.0
 11
3625.648266483856
 21
6068.857540556321
 31
0.0
  0
MTEXT
  5
2828
330
27ED
100
AcDbEntity
  8
40
 62
     7
100
AcDbMText
 10
3940.648266483857
 20
6129.607540556321
 30
0.0
 40
45.0
 41
612.0
 71
     2
 72
     5
  1
M6, N,PW,SW
  7
ACJISTS
 73
     1
 44
1.0
  0
LINE
  5
2829
330
27ED
100
AcDbEntity
  8
40
 62
     1
100
AcDbLine
 10
2711.648266483856
 20
6514.357540556321
 30
0.0
 11
4255.648266483856
 21
6514.357540556321
 31
0.0
  0
MTEXT
  5
282A
330
27ED
100
AcDbEntity
  8
40
 62
     7
100
AcDbMText
 10
2770.148266483856
 20
6575.107540556321
 30
0.0
 40
45.0
 41
98.99999999999998
 71
     2
 72
     5
  1
部番
  7
ACJISTS
 73
     1
 44
1.0
  0
LINE
  5
282B
330
27ED
100
AcDbEntity
  8
40
 62
     1
100
AcDbLine
 10
2828.648266483856
 20
6588.607540556322
 30
0.0
 11
2828.648266483856
 21
6514.357540556321
 31
0.0
  0
MTEXT
  5
282C
330
27ED
100
AcDbEntity
  8
40
 62
     7
100
AcDbMText
 10
3053.648266483856
 20
6575.107540556321
 30
0.0
 40
45.0
 41
432.0
 71
     2
 72
     5
  1
部  品  名
  7
ACJISTS
 73
     1
 44
1.0
  0
LINE
  5
282D
330
27ED
100
AcDbEntity
  8
40
 62
     1
100
AcDbLine
 10
3278.648266483856
 20
6588.607540556322
 30
0.0
 11
3278.648266483856
 21
6514.357540556321
 31
0.0
  0
MTEXT
  5
282E
330
27ED
100
AcDbEntity
  8
40
 62
     7
100
AcDbMText
 10
3337.148266483856
 20
6575.107540556321
 30
0.0
 40
45.0
 41
99.0
 71
     2
 72
     5
  1
数量
  7
ACJISTS
 73
     1
 44
1.0
  0
LINE
  5
282F
330
27ED
100
AcDbEntity
  8
40
 62
     1
100
AcDbLine
 10
3395.648266483856
 20
6588.607540556322
 30
0.0
 11
3395.648266483856
 21
6514.357540556321
 31
0.0
  0
MTEXT
  5
2830
330
27ED
100
AcDbEntity
  8
40
 62
     7
100
AcDbMText
 10
3510.648266483856
 20
6575.107540556321
 30
0.0
 40
45.0
 41
212.0
 71
     2
 72
     5
  1
材  質
  7
ACJISTS
 73
     1
 44
1.0
  0
LINE
  5
2831
330
27ED
100
AcDbEntity
  8
40
 62
     1
100
AcDbLine
 10
3625.648266483856
 20
6588.607540556322
 30
0.0
 11
3625.648266483856
 21
6514.357540556321
 31
0.0
  0
MTEXT
  5
2832
330
27ED
100
AcDbEntity
  8
40
 62
     7
100
AcDbMText
 10
3940.648266483857
 20
6575.107540556321
 30
0.0
 40
45.0
 41
612.0
 71
     2
 72
     5
  1
備　　考
  7
ACJISTS
 73
     1
 44
1.0
  0
LINE
  5
2833
330
27ED
100
AcDbEntity
  8
40
 62
     7
100
AcDbLine
 10
2711.648266483856
 20
6588.607540556322
 30
0.0
 11
4255.648266483856
 21
6588.607540556322
 31
0.0
  0
LINE
  5
2834
330
27ED
100
AcDbEntity
  8
40
 62
     7
100
AcDbLine
 10
4255.648266483856
 20
6588.607540556322
 30
0.0
 11
4255.648266483856
 21
6068.857540556321
 31
0.0
  0
LINE
  5
2835
330
27ED
100
AcDbEntity
  8
40
 62
     7
100
AcDbLine
 10
4255.648266483856
 20
6068.857540556321
 30
0.0
 11
2711.648266483856
 21
6068.857540556321
 31
0.0
  0
LINE
  5
2836
330
27ED
100
AcDbEntity
  8
40
 62
     7
100
AcDbLine
 10
2711.648266483856
 20
6068.857540556321
 30
0.0
 11
2711.648266483856
 21
6588.607540556322
 31
0.0
  0
ENDBLK
  5
2838
330
27ED
100
AcDbEntity
  8
0
100
AcDbBlockEnd
  0
ENDSEC
  0
SECTION
  2
ENTITIES
  0
DIMENSION
  5
E30
330
1F
100
AcDbEntity
  8
5
100
AcDbDimension
  2
*D6
 10
3186.185826900256
 20
4328.123463106714
 30
0.0
 11
3436.185826900256
 21
4358.123463106714
 31
0.0
 70
    32
  1
<>
 71
     5
 42
500.0
  3
IGS
100
AcDbAlignedDimension
 13
3686.185826900256
 23
4553.738251803859
 33
0.0
 14
3186.185826900256
 24
4553.738251803859
 34
0.0
100
AcDbRotatedDimension
1001
GENIUS_GENDREL_13
1005
E31
1005
0
1040
10.0
1001
GENIUS_GENDTOL_13
1000

1000
JS7
1000

1040
0.0
1001
ACAD
1000
DSTYLE
1002
{
1070
    40
1040
10.0
1070
   177
1070
     3
1070
   176
1070
     3
1002
}
  0
DIMENSION
  5
E31
330
1F
100
AcDbEntity
  8
5
100
AcDbDimension
  2
*D7
 10
3231.185826900257
 20
4393.981632114459
 30
0.0
 11
3436.185826900256
 21
4423.98163211446
 31
0.0
 70
    32
  1
<>
 71
     5
 42
410.0
  3
IGS
100
AcDbAlignedDimension
 13
3641.185826900256
 23
4806.738251803855
 33
0.0
 14
3231.185826900257
 24
4806.738251803855
 34
0.0
100
AcDbRotatedDimension
1001
GENIUS_GENDREL_13
1005
0
1005
E30
1040
0.0
1001
GENIUS_GENDTOL_13
1000

1000
JS7
1000

1040
0.0
1001
ACAD
1000
DSTYLE
1002
{
1070
    40
1040
10.0
1070
   177
1070
     3
1070
   176
1070
     3
1002
}
  0
DIMENSION
  5
E33
330
1F
100
AcDbEntity
  8
5
100
AcDbDimension
  2
*D8
 10
779.7630718852222
 20
4433.738251803859
 30
0.0
 11
879.7630718852222
 21
4463.741204559765
 31
0.0
 70
    32
  1
<>
 71
     5
 42
200.0
  3
IGS
100
AcDbAlignedDimension
 13
979.7630718852222
 23
4553.738251803859
 33
0.0
 14
779.7630718852222
 24
4553.738251803859
 34
0.0
100
AcDbRotatedDimension
1001
GENIUS_GENDTOL_13
1000

1000
JS7
1000

1040
0.0
1001
ACAD
1000
DSTYLE
1002
{
1070
    40
1040
10.0
1070
   177
1070
     3
1070
   176
1070
     3
1002
}
  0
DIMENSION
  5
E34
330
1F
100
AcDbEntity
  8
5
100
AcDbDimension
  2
*D9
 10
576.9854947289222
 20
4553.738251803859
 30
0.0
 11
546.9854947289214
 21
4472.226440780238
 31
0.0
 70
    32
  1
<>
 71
     5
 42
50.0
  3
IGS
100
AcDbAlignedDimension
 13
779.7630718852222
 23
4603.73825180386
 33
0.0
 14
779.7630718852222
 24
4553.738251803859
 34
0.0
 50
90.0
100
AcDbRotatedDimension
1001
GENIUS_GENDREL_13
1005
E35
1005
0
1040
0.0
1001
GENIUS_GENDTOL_13
1000

1000
JS7
1000

1040
0.0
1001
ACAD
1000
DSTYLE
1002
{
1070
    40
1040
10.0
1070
   177
1070
     3
1070
   176
1070
     3
1002
}
  0
DIMENSION
  5
E35
330
1F
100
AcDbEntity
  8
5
100
AcDbDimension
  2
*D10
 10
576.9854947289222
 20
4603.73825180386
 30
0.0
 11
546.9825419730161
 21
4703.738251803859
 31
0.0
 70
    32
  1
<>
 71
     5
 42
200.0
  3
IGS
100
AcDbAlignedDimension
 13
696.9854947289222
 23
4803.73825180386
 33
0.0
 14
779.7630718852222
 24
4603.73825180386
 34
0.0
 50
90.0
100
AcDbRotatedDimension
1001
GENIUS_GENDREL_13
1005
E36
1005
E34
1040
0.0
1001
GENIUS_GENDTOL_13
1000

1000
JS7
1000

1040
0.0
1001
ACAD
1000
DSTYLE
1002
{
1070
    40
1040
10.0
1070
   177
1070
     3
1070
   176
1070
     3
1002
}
  0
DIMENSION
  5
E36
330
1F
100
AcDbEntity
  8
5
100
AcDbDimension
  2
*D11
 10
576.9854947289222
 20
4803.73825180386
 30
0.0
 11
546.9854947289215
 21
4998.738251803859
 31
0.0
 70
    32
  1
380
 71
     5
 42
390.0
  3
IGS
100
AcDbAlignedDimension
 13
744.7630718852222
 23
5193.73825180386
 33
0.0
 14
696.9854947289222
 24
4803.73825180386
 34
0.0
 50
90.0
100
AcDbRotatedDimension
1001
GENIUS_GENDTOL_13
1000

1000
JS7
1000

1040
0.0
1001
GENIUS_GENDREL_13
1005
0
1005
E35
1040
0.0
1001
ACAD
1000
DSTYLE
1002
{
1070
    40
1040
10.0
1070
   177
1070
     3
1070
   176
1070
     3
1002
}
  0
DIMENSION
  5
E37
330
1F
100
AcDbEntity
  8
5
100
AcDbDimension
  2
*D12
 10
744.7630718852222
 20
5451.340095731956
 30
0.0
 11
1644.763071885222
 21
5481.340095731956
 31
0.0
 70
    32
  1
<>
 71
     5
 42
1800.0
  3
IGS
100
AcDbAlignedDimension
 13
2544.763071885223
 23
5192.905039767037
 33
0.0
 14
744.7630718852222
 24
5193.73825180386
 34
0.0
100
AcDbRotatedDimension
1001
GENIUS_GENDREL_13
1005
0
1005
0
1040
9.999999999999994
1001
GENIUS_GENDTOL_13
1000

1000
JS7
1000

1040
0.0
1001
ACAD
1000
DSTYLE
1002
{
1070
    40
1040
10.0
1070
   177
1070
     3
1070
   176
1070
     3
1002
}
  0
DIMENSION
  5
E38
330
1F
100
AcDbEntity
  8
5
100
AcDbDimension
  2
*D13
 10
2544.763071885223
 20
5351.340095731956
 30
0.0
 11
2477.263071885222
 21
5381.340095731957
 31
0.0
 70
    32
  1
<>
 71
     5
 42
135.0
  3
IGS
100
AcDbAlignedDimension
 13
2409.763071885223
 23
5225.762884753356
 33
0.0
 14
2544.763071885223
 24
5192.905039767037
 34
0.0
100
AcDbRotatedDimension
1001
GENIUS_GENDREL_13
1005
0
1005
0
1040
0.0
1001
GENIUS_GENDTOL_13
1000

1000
JS7
1000

1040
0.0
1001
ACAD
1000
DSTYLE
1002
{
1070
    40
1040
10.0
1070
   177
1070
     3
1070
   176
1070
     3
1002
}
  0
DIMENSION
  5
E39
330
1F
100
AcDbEntity
  8
5
100
AcDbDimension
  2
*D14
 10
879.7630718852222
 20
5351.34009573196
 30
0.0
 11
812.2630718852221
 21
5381.34009573196
 31
0.0
 70
    32
  1
<>
 71
     5
 42
135.0
  3
IGS
100
AcDbAlignedDimension
 13
744.7630718852222
 23
5193.73825180386
 33
0.0
 14
879.7630718852222
 24
5231.34009573196
 34
0.0
100
AcDbRotatedDimension
1001
GENIUS_GENDREL_13
1005
0
1005
0
1040
0.0
1001
GENIUS_GENDTOL_13
1000

1000
JS7
1000

1040
0.0
1001
ACAD
1000
DSTYLE
1002
{
1070
    40
1040
10.0
1070
   177
1070
     3
1070
   176
1070
     3
1002
}
  0
DIMENSION
  5
E3A
330
1F
100
AcDbEntity
  8
5
100
AcDbDimension
  2
*D15
 10
624.7630718852222
 20
5707.944877844615
 30
0.0
 11
594.7630718852212
 21
5982.944877844643
 31
0.0
 70
    33
  1
<>
 71
     5
 42
550.0000000000563
  3
IGS
100
AcDbAlignedDimension
 13
744.7630718852222
 23
6257.944877844671
 33
0.0
 14
744.7630718851403
 24
5707.944877844615
 34
0.0
1001
GENIUS_GENDTOL_13
1000

1000
JS7
1000

1040
0.0
1001
ACAD
1000
DSTYLE
1002
{
1070
    40
1040
10.0
1070
   177
1070
     3
1070
   176
1070
     3
1002
}
  0
DIMENSION
  5
E3B
330
1F
100
AcDbEntity
  8
5
100
AcDbDimension
  2
*D16
 10
744.7630718852222
 20
6377.944877844668
 30
0.0
 11
1644.763071885222
 21
6407.944877844667
 31
0.0
 70
    32
  1
<>
 71
     5
 42
1800.0
  3
IGS
100
AcDbAlignedDimension
 13
2544.763071885223
 23
6257.944877844609
 33
0.0
 14
744.7630718852222
 24
6257.944877844671
 34
0.0
100
AcDbRotatedDimension
1001
GENIUS_GENDTOL_13
1000

1000
JS7
1000

1040
0.0
1001
ACAD
1000
DSTYLE
1002
{
1070
    40
1040
10.0
1070
   177
1070
     3
1070
   176
1070
     3
1002
}
  0
DIMENSION
  5
E5C
330
1F
100
AcDbEntity
  8
40
  6
Continuous
 62
     2
100
AcDbDimension
  2
*D17
 10
3715.218001100556
 20
5294.129089000759
 30
0.0
 11
3436.185826900256
 21
5324.129089000759
 31
0.0
 70
    32
  1
550
 71
     5
 42
558.0643484005995
  3
IGS
100
AcDbAlignedDimension
 13
3157.153652699956
 23
5161.46441258656
 33
0.0
 14
3715.218001100556
 24
5161.46441258656
 34
0.0
100
AcDbRotatedDimension
1001
ACAD
1000
DSTYLE
1002
{
1070
    40
1040
10.0
1070
   177
1070
     3
1070
   176
1070
     3
1002
}
  0
DIMENSION
  5
E5D
330
1F
100
AcDbEntity
  8
40
  6
Continuous
 62
     2
100
AcDbDimension
  2
*D18
 10
3086.185826900256
 20
4803.73825180386
 30
0.0
 11
3056.185826900256
 21
4998.32920273086
 31
0.0
 70
    32
  1
380
 71
     5
 42
389.181901854
  3
IGS
100
AcDbAlignedDimension
 13
3218.833699170956
 23
5192.920153657859
 33
0.0
 14
3186.185826900256
 24
4803.73825180386
 34
0.0
 50
90.0
100
AcDbRotatedDimension
1001
ACAD
1000
DSTYLE
1002
{
1070
    40
1040
10.0
1070
   177
1070
     3
1070
   176
1070
     3
1002
}
  0
TEXT
  5
E5E
330
1F
100
AcDbEntity
  8
40
  6
Continuous
 62
     7
100
AcDbText
 10
3718.575696277256
 20
4817.23284822136
 30
0.0
 40
50.0
  1
ＧＬ
 41
0.9
 72
     5
 11
3808.575696277256
 21
4817.23284822136
 31
0.0
100
AcDbText
  0
TEXT
  5
E5F
330
1F
100
AcDbEntity
  8
40
  6
Continuous
 62
     7
100
AcDbText
 10
684.6596369385222
 20
4810.830731221359
 30
0.0
 40
50.0
  1
ＧＬ
 41
0.9
 72
     5
 11
774.6596369385222
 21
4810.830731221359
 31
0.0
100
AcDbText
  0
LINE
  5
ED3
330
1F
100
AcDbEntity
  8
7
100
AcDbLine
 10
2409.763071885223
 20
5685.836405395512
 30
0.0
 11
2409.763071885223
 21
6282.634602439212
 31
0.0
  0
LINE
  5
ED4
330
1F
100
AcDbEntity
  8
7
100
AcDbLine
 10
879.7630718852222
 20
6282.634602439215
 30
0.0
 11
879.7630718852222
 21
5681.025558665015
 31
0.0
  0
ARC
  5
ED5
330
1F
100
AcDbEntity
  8
40
  6
Continuous
 62
     7
100
AcDbCircle
 10
2541.763071885223
 20
6254.944877844611
 30
0.0
 40
3.0
100
AcDbArc
 50
0.0
 51
90.0
  0
LINE
  5
ED6
330
1F
100
AcDbEntity
  8
40
  6
Continuous
 62
     7
100
AcDbLine
 10
2544.763071885223
 20
6254.944877844611
 30
0.0
 11
2544.763071885223
 21
6190.944877844611
 31
0.0
  0
LINE
  5
ED7
330
1F
100
AcDbEntity
  8
40
  6
Continuous
 62
     7
100
AcDbLine
 10
2541.763071885223
 20
6257.944877844611
 30
0.0
 11
747.7630718852221
 21
6257.944877844614
 31
0.0
  0
ARC
  5
ED8
330
1F
100
AcDbEntity
  8
40
  6
Continuous
 62
     7
100
AcDbCircle
 10
2541.763071885223
 20
6190.944877844611
 30
0.0
 40
3.0
100
AcDbArc
 50
270.0
 51
0.0
  0
LINE
  5
ED9
330
1F
100
AcDbEntity
  8
40
  6
Continuous
 62
     7
100
AcDbLine
 10
2541.763071885223
 20
6187.944877844611
 30
0.0
 11
747.7630718852221
 21
6187.944877844615
 31
0.0
  0
ARC
  5
EDA
330
1F
100
AcDbEntity
  8
40
  6
Continuous
 62
     7
100
AcDbCircle
 10
2541.763071885223
 20
6174.944877844612
 30
0.0
 40
3.0
100
AcDbArc
 50
0.0
 51
90.0
  0
LINE
  5
EDB
330
1F
100
AcDbEntity
  8
40
  6
Continuous
 62
     7
100
AcDbLine
 10
2544.763071885223
 20
6174.944877844612
 30
0.0
 11
2544.763071885223
 21
6110.944877844612
 31
0.0
  0
LINE
  5
EDC
330
1F
100
AcDbEntity
  8
40
  6
Continuous
 62
     7
100
AcDbLine
 10
2541.763071885223
 20
6177.944877844612
 30
0.0
 11
747.7630718852221
 21
6177.944877844615
 31
0.0
  0
ARC
  5
EDD
330
1F
100
AcDbEntity
  8
40
  6
Continuous
 62
     7
100
AcDbCircle
 10
2541.763071885223
 20
6110.944877844612
 30
0.0
 40
3.0
100
AcDbArc
 50
270.0
 51
0.0
  0
LINE
  5
EDE
330
1F
100
AcDbEntity
  8
40
  6
Continuous
 62
     7
100
AcDbLine
 10
2541.763071885223
 20
6107.944877844611
 30
0.0
 11
747.7630718852221
 21
6107.944877844615
 31
0.0
  0
ARC
  5
EDF
330
1F
100
AcDbEntity
  8
40
  6
Continuous
 62
     7
100
AcDbCircle
 10
2541.763071885223
 20
6094.944877844611
 30
0.0
 40
3.0
100
AcDbArc
 50
0.0
 51
90.0
  0
LINE
  5
EE0
330
1F
100
AcDbEntity
  8
40
  6
Continuous
 62
     7
100
AcDbLine
 10
2544.763071885223
 20
6094.944877844611
 30
0.0
 11
2544.763071885223
 21
6030.944877844611
 31
0.0
  0
LINE
  5
EE1
330
1F
100
AcDbEntity
  8
40
  6
Continuous
 62
     7
100
AcDbLine
 10
2541.763071885223
 20
6097.944877844611
 30
0.0
 11
747.7630718852221
 21
6097.944877844614
 31
0.0
  0
ARC
  5
EE2
330
1F
100
AcDbEntity
  8
40
  6
Continuous
 62
     7
100
AcDbCircle
 10
2541.763071885223
 20
6030.944877844611
 30
0.0
 40
3.0
100
AcDbArc
 50
270.0
 51
0.0
  0
LINE
  5
EE3
330
1F
100
AcDbEntity
  8
40
  6
Continuous
 62
     7
100
AcDbLine
 10
2541.763071885223
 20
6027.944877844611
 30
0.0
 11
747.7630718852221
 21
6027.944877844615
 31
0.0
  0
ARC
  5
EE4
330
1F
100
AcDbEntity
  8
40
  6
Continuous
 62
     7
100
AcDbCircle
 10
2541.763071885223
 20
6014.944877844611
 30
0.0
 40
3.0
100
AcDbArc
 50
0.0
 51
90.0
  0
LINE
  5
EE5
330
1F
100
AcDbEntity
  8
40
  6
Continuous
 62
     7
100
AcDbLine
 10
2544.763071885223
 20
6014.944877844611
 30
0.0
 11
2544.763071885223
 21
5950.944877844611
 31
0.0
  0
LINE
  5
EE6
330
1F
100
AcDbEntity
  8
40
  6
Continuous
 62
     7
100
AcDbLine
 10
2541.763071885223
 20
6017.944877844612
 30
0.0
 11
747.7630718852221
 21
6017.944877844615
 31
0.0
  0
ARC
  5
EE7
330
1F
100
AcDbEntity
  8
40
  6
Continuous
 62
     7
100
AcDbCircle
 10
2541.763071885223
 20
5950.944877844611
 30
0.0
 40
3.0
100
AcDbArc
 50
270.0
 51
0.0
  0
LINE
  5
EE8
330
1F
100
AcDbEntity
  8
40
  6
Continuous
 62
     7
100
AcDbLine
 10
2541.763071885223
 20
5947.944877844611
 30
0.0
 11
747.7630718852221
 21
5947.944877844615
 31
0.0
  0
ARC
  5
EE9
330
1F
100
AcDbEntity
  8
40
  6
Continuous
 62
     7
100
AcDbCircle
 10
2541.763071885223
 20
5934.944877844611
 30
0.0
 40
3.0
100
AcDbArc
 50
0.0
 51
90.0
  0
LINE
  5
EEA
330
1F
100
AcDbEntity
  8
40
  6
Continuous
 62
     7
100
AcDbLine
 10
2544.763071885223
 20
5934.944877844611
 30
0.0
 11
2544.763071885223
 21
5870.944877844611
 31
0.0
  0
LINE
  5
EEB
330
1F
100
AcDbEntity
  8
40
  6
Continuous
 62
     7
100
AcDbLine
 10
2541.763071885223
 20
5937.944877844611
 30
0.0
 11
747.7630718852221
 21
5937.944877844614
 31
0.0
  0
ARC
  5
EEC
330
1F
100
AcDbEntity
  8
40
  6
Continuous
 62
     7
100
AcDbCircle
 10
2541.763071885223
 20
5870.944877844611
 30
0.0
 40
3.0
100
AcDbArc
 50
270.0
 51
0.0
  0
LINE
  5
EED
330
1F
100
AcDbEntity
  8
40
  6
Continuous
 62
     7
100
AcDbLine
 10
2541.763071885223
 20
5867.944877844611
 30
0.0
 11
747.7630718852221
 21
5867.944877844615
 31
0.0
  0
ARC
  5
EEE
330
1F
100
AcDbEntity
  8
40
  6
Continuous
 62
     7
100
AcDbCircle
 10
2541.763071885223
 20
5854.944877844611
 30
0.0
 40
3.0
100
AcDbArc
 50
0.0
 51
90.0
  0
LINE
  5
EEF
330
1F
100
AcDbEntity
  8
40
  6
Continuous
 62
     7
100
AcDbLine
 10
2544.763071885223
 20
5854.944877844611
 30
0.0
 11
2544.763071885223
 21
5790.944877844611
 31
0.0
  0
LINE
  5
EF0
330
1F
100
AcDbEntity
  8
40
  6
Continuous
 62
     7
100
AcDbLine
 10
2541.763071885223
 20
5857.944877844611
 30
0.0
 11
747.7630718852221
 21
5857.944877844615
 31
0.0
  0
ARC
  5
EF1
330
1F
100
AcDbEntity
  8
40
  6
Continuous
 62
     7
100
AcDbCircle
 10
2541.763071885223
 20
5790.944877844611
 30
0.0
 40
3.0
100
AcDbArc
 50
270.0
 51
0.0
  0
LINE
  5
EF2
330
1F
100
AcDbEntity
  8
40
  6
Continuous
 62
     7
100
AcDbLine
 10
2541.763071885223
 20
5787.944877844611
 30
0.0
 11
747.7630718852221
 21
5787.944877844615
 31
0.0
  0
ARC
  5
EF3
330
1F
100
AcDbEntity
  8
40
  6
Continuous
 62
     7
100
AcDbCircle
 10
2541.763071885223
 20
5774.944877844611
 30
0.0
 40
3.0
100
AcDbArc
 50
0.0
 51
90.0
  0
LINE
  5
EF4
330
1F
100
AcDbEntity
  8
40
  6
Continuous
 62
     7
100
AcDbLine
 10
2544.763071885223
 20
5774.944877844611
 30
0.0
 11
2544.763071885223
 21
5710.944877844611
 31
0.0
  0
LINE
  5
EF5
330
1F
100
AcDbEntity
  8
40
  6
Continuous
 62
     7
100
AcDbLine
 10
2541.763071885223
 20
5777.944877844611
 30
0.0
 11
747.7630718852221
 21
5777.944877844615
 31
0.0
  0
ARC
  5
EF6
330
1F
100
AcDbEntity
  8
40
  6
Continuous
 62
     7
100
AcDbCircle
 10
2541.763071885223
 20
5710.944877844611
 30
0.0
 40
3.0
100
AcDbArc
 50
270.0
 51
0.0
  0
LINE
  5
EF7
330
1F
100
AcDbEntity
  8
40
  6
Continuous
 62
     7
100
AcDbLine
 10
2541.763071885223
 20
5707.944877844611
 30
0.0
 11
747.7630718852221
 21
5707.944877844615
 31
0.0
  0
ARC
  5
EF8
330
1F
100
AcDbEntity
  8
40
  6
Continuous
 62
     7
100
AcDbCircle
 10
747.7630718852221
 20
5710.944877844615
 30
0.0
 40
3.0
100
AcDbArc
 50
180.0
 51
270.0
  0
LINE
  5
EF9
330
1F
100
AcDbEntity
  8
40
  6
Continuous
 62
     7
100
AcDbLine
 10
744.7630718852222
 20
5710.944877844615
 30
0.0
 11
744.7630718852222
 21
5774.944877844615
 31
0.0
  0
ARC
  5
EFA
330
1F
100
AcDbEntity
  8
40
  6
Continuous
 62
     7
100
AcDbCircle
 10
747.7630718852221
 20
5774.944877844615
 30
0.0
 40
3.0
100
AcDbArc
 50
90.0
 51
180.0
  0
ARC
  5
EFB
330
1F
100
AcDbEntity
  8
40
  6
Continuous
 62
     7
100
AcDbCircle
 10
747.7630718852221
 20
5790.944877844615
 30
0.0
 40
3.0
100
AcDbArc
 50
180.0
 51
270.0
  0
LINE
  5
EFC
330
1F
100
AcDbEntity
  8
40
  6
Continuous
 62
     7
100
AcDbLine
 10
744.7630718852222
 20
5790.944877844615
 30
0.0
 11
744.7630718852222
 21
5854.944877844615
 31
0.0
  0
ARC
  5
EFD
330
1F
100
AcDbEntity
  8
40
  6
Continuous
 62
     7
100
AcDbCircle
 10
747.7630718852221
 20
5854.944877844615
 30
0.0
 40
3.0
100
AcDbArc
 50
90.0
 51
180.0
  0
ARC
  5
EFE
330
1F
100
AcDbEntity
  8
40
  6
Continuous
 62
     7
100
AcDbCircle
 10
747.7630718852221
 20
5870.944877844615
 30
0.0
 40
3.0
100
AcDbArc
 50
180.0
 51
270.0
  0
LINE
  5
EFF
330
1F
100
AcDbEntity
  8
40
  6
Continuous
 62
     7
100
AcDbLine
 10
744.7630718852222
 20
5870.944877844615
 30
0.0
 11
744.7630718852222
 21
5934.944877844615
 31
0.0
  0
ARC
  5
F00
330
1F
100
AcDbEntity
  8
40
  6
Continuous
 62
     7
100
AcDbCircle
 10
747.7630718852221
 20
5934.944877844615
 30
0.0
 40
3.0
100
AcDbArc
 50
90.0
 51
180.0
  0
ARC
  5
F01
330
1F
100
AcDbEntity
  8
40
  6
Continuous
 62
     7
100
AcDbCircle
 10
747.7630718852221
 20
5950.944877844615
 30
0.0
 40
3.0
100
AcDbArc
 50
180.0
 51
270.0
  0
LINE
  5
F02
330
1F
100
AcDbEntity
  8
40
  6
Continuous
 62
     7
100
AcDbLine
 10
744.7630718852222
 20
5950.944877844615
 30
0.0
 11
744.7630718852222
 21
6014.944877844615
 31
0.0
  0
ARC
  5
F03
330
1F
100
AcDbEntity
  8
40
  6
Continuous
 62
     7
100
AcDbCircle
 10
747.7630718852221
 20
6014.944877844615
 30
0.0
 40
3.0
100
AcDbArc
 50
90.0
 51
180.0
  0
ARC
  5
F04
330
1F
100
AcDbEntity
  8
40
  6
Continuous
 62
     7
100
AcDbCircle
 10
747.7630718852221
 20
6030.944877844615
 30
0.0
 40
3.0
100
AcDbArc
 50
180.0
 51
270.0
  0
LINE
  5
F05
330
1F
100
AcDbEntity
  8
40
  6
Continuous
 62
     7
100
AcDbLine
 10
744.7630718852222
 20
6030.944877844615
 30
0.0
 11
744.7630718852222
 21
6094.944877844614
 31
0.0
  0
ARC
  5
F06
330
1F
100
AcDbEntity
  8
40
  6
Continuous
 62
     7
100
AcDbCircle
 10
747.7630718852221
 20
6094.944877844614
 30
0.0
 40
3.0
100
AcDbArc
 50
90.0
 51
180.0
  0
ARC
  5
F07
330
1F
100
AcDbEntity
  8
40
  6
Continuous
 62
     7
100
AcDbCircle
 10
747.7630718852221
 20
6110.944877844615
 30
0.0
 40
3.0
100
AcDbArc
 50
180.0
 51
270.0
  0
LINE
  5
F08
330
1F
100
AcDbEntity
  8
40
  6
Continuous
 62
     7
100
AcDbLine
 10
744.7630718852222
 20
6110.944877844615
 30
0.0
 11
744.7630718852222
 21
6174.944877844615
 31
0.0
  0
ARC
  5
F09
330
1F
100
AcDbEntity
  8
40
  6
Continuous
 62
     7
100
AcDbCircle
 10
747.7630718852221
 20
6174.944877844615
 30
0.0
 40
3.0
100
AcDbArc
 50
90.0
 51
180.0
  0
ARC
  5
F0A
330
1F
100
AcDbEntity
  8
40
  6
Continuous
 62
     7
100
AcDbCircle
 10
747.7630718852221
 20
6190.944877844614
 30
0.0
 40
3.0
100
AcDbArc
 50
180.0
 51
270.0
  0
LINE
  5
F0B
330
1F
100
AcDbEntity
  8
40
  6
Continuous
 62
     7
100
AcDbLine
 10
744.7630718852222
 20
6190.944877844614
 30
0.0
 11
744.7630718852222
 21
6254.944877844614
 31
0.0
  0
ARC
  5
F0C
330
1F
100
AcDbEntity
  8
40
  6
Continuous
 62
     7
100
AcDbCircle
 10
747.7630718852221
 20
6254.944877844614
 30
0.0
 40
3.0
100
AcDbArc
 50
90.0
 51
180.0
  0
LINE
  5
F0F
330
1F
100
AcDbEntity
  8
40
  6
Continuous
 62
     7
100
AcDbLine
 10
2387.263071885223
 20
4892.888251803857
 30
0.0
 11
1667.263071885222
 21
4892.888251803857
 31
0.0
  0
LINE
  5
F10
330
1F
100
AcDbEntity
  8
40
  6
Continuous
 62
     7
100
AcDbLine
 10
902.2630718852221
 20
4914.588251803859
 30
0.0
 11
1622.263071885222
 21
4914.588251803857
 31
0.0
  0
LINE
  5
F11
330
1F
100
AcDbEntity
  8
7
100
AcDbLine
 10
2456.193178664822
 20
4903.738251803855
 30
0.0
 11
833.3329651056224
 21
4903.73825180386
 31
0.0
  0
ARC
  5
F14
330
1F
100
AcDbEntity
  8
40
  6
Continuous
 62
     7
100
AcDbCircle
 10
2434.263071885223
 20
4820.738251803856
 30
0.0
 40
3.0
100
AcDbArc
 50
0.0
 51
90.0
  0
LINE
  5
F15
330
1F
100
AcDbEntity
  8
40
  6
Continuous
 62
     7
100
AcDbLine
 10
2434.263071885223
 20
4823.738251803856
 30
0.0
 11
2409.763071885223
 21
4823.738251803856
 31
0.0
  0
LINE
  5
F16
330
1F
100
AcDbEntity
  8
40
  6
Continuous
 62
     7
100
AcDbLine
 10
2437.263071885223
 20
4820.738251803856
 30
0.0
 11
2437.263071885223
 21
4803.738251803856
 31
0.0
  0
ARC
  5
F17
330
1F
100
AcDbEntity
  8
40
  6
Continuous
 62
     7
100
AcDbCircle
 10
2385.263071885223
 20
4820.738251803856
 30
0.0
 40
3.0
100
AcDbArc
 50
90.0
 51
180.0
  0
LINE
  5
F18
330
1F
100
AcDbEntity
  8
40
  6
Continuous
 62
     7
100
AcDbLine
 10
2385.263071885223
 20
4823.738251803856
 30
0.0
 11
2409.763071885223
 21
4823.738251803856
 31
0.0
  0
LINE
  5
F19
330
1F
100
AcDbEntity
  8
40
  6
Continuous
 62
     7
100
AcDbLine
 10
2382.263071885223
 20
4820.738251803856
 30
0.0
 11
2382.263071885223
 21
4803.738251803856
 31
0.0
  0
ARC
  5
F1A
330
1F
100
AcDbEntity
  8
40
  6
Continuous
 62
     7
100
AcDbCircle
 10
904.2630718852221
 20
4820.738251803859
 30
0.0
 40
3.0
100
AcDbArc
 50
0.0
 51
90.0
  0
LINE
  5
F1B
330
1F
100
AcDbEntity
  8
40
  6
Continuous
 62
     7
100
AcDbLine
 10
904.2630718852221
 20
4823.73825180386
 30
0.0
 11
879.7630718852222
 21
4823.73825180386
 31
0.0
  0
LINE
  5
F1C
330
1F
100
AcDbEntity
  8
40
  6
Continuous
 62
     7
100
AcDbLine
 10
907.2630718852222
 20
4820.738251803859
 30
0.0
 11
907.2630718852222
 21
4803.73825180386
 31
0.0
  0
ARC
  5
F1D
330
1F
100
AcDbEntity
  8
40
  6
Continuous
 62
     7
100
AcDbCircle
 10
855.2630718852222
 20
4820.738251803859
 30
0.0
 40
3.0
100
AcDbArc
 50
90.0
 51
180.0
  0
LINE
  5
F1E
330
1F
100
AcDbEntity
  8
40
  6
Continuous
 62
     7
100
AcDbLine
 10
855.2630718852222
 20
4823.73825180386
 30
0.0
 11
879.7630718852222
 21
4823.73825180386
 31
0.0
  0
LINE
  5
F1F
330
1F
100
AcDbEntity
  8
40
  6
Continuous
 62
     7
100
AcDbLine
 10
852.2630718852221
 20
4820.738251803859
 30
0.0
 11
852.2630718852221
 21
4803.73825180386
 31
0.0
  0
ARC
  5
F20
330
1F
100
AcDbEntity
  8
40
  6
Continuous
 62
     7
100
AcDbCircle
 10
747.7630718852221
 20
5144.89875973726
 30
0.0
 40
3.0
100
AcDbArc
 50
180.0
 51
270.0
  0
LINE
  5
F21
330
1F
100
AcDbEntity
  8
40
  6
Continuous
 62
     7
100
AcDbLine
 10
744.7630718852222
 20
5144.89875973726
 30
0.0
 11
744.7630718852222
 21
5189.905039767059
 31
0.0
  0
LINE
  5
F22
330
1F
100
AcDbEntity
  8
40
  6
Continuous
 62
     7
100
AcDbLine
 10
747.7630718852221
 20
5141.89875973726
 30
0.0
 11
2541.763071885223
 21
5141.898759737256
 31
0.0
  0
ARC
  5
F23
330
1F
100
AcDbEntity
  8
40
  6
Continuous
 62
     7
100
AcDbCircle
 10
747.7630718852221
 20
5189.905039767059
 30
0.0
 40
3.0
100
AcDbArc
 50
90.0
 51
180.0
  0
LINE
  5
F24
330
1F
100
AcDbEntity
  8
40
  6
Continuous
 62
     7
100
AcDbLine
 10
747.7630718852221
 20
5192.905039767059
 30
0.0
 11
2541.763071885223
 21
5192.905039767055
 31
0.0
  0
ARC
  5
F25
330
1F
100
AcDbEntity
  8
40
  6
Continuous
 62
     7
100
AcDbCircle
 10
2541.763071885223
 20
5144.898759737256
 30
0.0
 40
3.0
100
AcDbArc
 50
270.0
 51
0.0
  0
LINE
  5
F26
330
1F
100
AcDbEntity
  8
40
  6
Continuous
 62
     7
100
AcDbLine
 10
2544.763071885223
 20
5144.898759737256
 30
0.0
 11
2544.763071885223
 21
5189.905039767055
 31
0.0
  0
ARC
  5
F27
330
1F
100
AcDbEntity
  8
40
  6
Continuous
 62
     7
100
AcDbCircle
 10
2541.763071885223
 20
5189.905039767055
 30
0.0
 40
3.0
100
AcDbArc
 50
0.0
 51
90.0
  0
ARC
  5
F28
330
1F
100
AcDbEntity
  8
40
  6
Continuous
 62
     7
100
AcDbCircle
 10
3712.329258124956
 20
5160.65499055736
 30
0.0
 40
3.0
100
AcDbArc
 50
344.9999999999989
 51
15.65280296689875
  0
LINE
  5
F29
330
1F
100
AcDbEntity
  8
40
  6
Continuous
 62
     7
100
AcDbLine
 10
3715.218001100556
 20
5161.46441258656
 30
0.0
 11
3711.647018882857
 21
5174.208876444559
 31
0.0
  0
LINE
  5
F2A
330
1F
100
AcDbEntity
  8
40
  6
Continuous
 62
     7
100
AcDbLine
 10
3715.227035603856
 20
5159.87853342206
 30
0.0
 11
3710.409369764956
 21
5141.89875973726
 31
0.0
  0
ARC
  5
F2B
330
1F
100
AcDbEntity
  8
40
  6
Continuous
 62
     7
100
AcDbCircle
 10
3708.758275907356
 20
5173.39945441536
 30
0.0
 40
3.0
100
AcDbArc
 50
15.65280296689875
 51
75.00000000000555
  0
LINE
  5
F2C
330
1F
100
AcDbEntity
  8
40
  6
Continuous
 62
     7
100
AcDbLine
 10
3709.534733042656
 20
5176.29723189416
 30
0.0
 11
3650.451327737457
 21
5192.12858263176
 31
0.0
  0
ARC
  5
F2D
330
1F
100
AcDbEntity
  8
40
  6
Continuous
 62
     7
100
AcDbCircle
 10
3649.674870602157
 20
5189.230805152959
 30
0.0
 40
3.0
100
AcDbArc
 50
75.00000000000555
 51
164.9999999999988
  0
LINE
  5
F2E
330
1F
100
AcDbEntity
  8
40
  6
Continuous
 62
     7
100
AcDbLine
 10
3646.777093123257
 20
5190.007262288259
 30
0.0
 11
3639.788978905556
 21
5163.927264978458
 31
0.0
  0
ARC
  5
F2F
330
1F
100
AcDbEntity
  8
40
  6
Continuous
 62
     7
100
AcDbCircle
 10
3628.581097473856
 20
5191.152255370659
 30
0.0
 40
3.0
100
AcDbArc
 50
7.125016348898162
 51
97.12501634890463
  0
LINE
  5
F30
330
1F
100
AcDbEntity
  8
40
  6
Continuous
 62
     7
100
AcDbLine
 10
3628.208993270056
 20
5194.129089000759
 30
0.0
 11
3564.162660530356
 21
5186.12329740836
 31
0.0
  0
LINE
  5
F31
330
1F
100
AcDbEntity
  8
40
  6
Continuous
 62
     7
100
AcDbLine
 10
3631.557931103956
 20
5191.52435957446
 30
0.0
 11
3634.906868937957
 21
5164.73285690316
 31
0.0
  0
ARC
  5
F32
330
1F
100
AcDbEntity
  8
40
  6
Continuous
 62
     7
100
AcDbCircle
 10
3564.534764734156
 20
5183.14646377816
 30
0.0
 40
3.0
100
AcDbArc
 50
97.12501634890463
 51
187.1250163488982
  0
LINE
  5
F33
330
1F
100
AcDbEntity
  8
40
  6
Continuous
 62
     7
100
AcDbLine
 10
3561.557931103956
 20
5182.77435957446
 30
0.0
 11
3564.906868937956
 21
5155.982856903159
 31
0.0
  0
ARC
  5
F34
330
1F
100
AcDbEntity
  8
40
  6
Continuous
 62
     7
100
AcDbCircle
 10
3548.581097473856
 20
5181.152255370659
 30
0.0
 40
3.0
100
AcDbArc
 50
7.125016348898162
 51
97.12501634890463
  0
LINE
  5
F35
330
1F
100
AcDbEntity
  8
40
  6
Continuous
 62
     7
100
AcDbLine
 10
3548.208993270056
 20
5184.12908900076
 30
0.0
 11
3484.162660530356
 21
5176.123297408359
 31
0.0
  0
LINE
  5
F36
330
1F
100
AcDbEntity
  8
40
  6
Continuous
 62
     7
100
AcDbLine
 10
3551.557931103956
 20
5181.52435957446
 30
0.0
 11
3554.906868937956
 21
5154.73285690316
 31
0.0
  0
ARC
  5
F37
330
1F
100
AcDbEntity
  8
40
  6
Continuous
 62
     7
100
AcDbCircle
 10
3484.534764734156
 20
5173.146463778159
 30
0.0
 40
3.0
100
AcDbArc
 50
97.12501634890463
 51
187.1250163488982
  0
LINE
  5
F38
330
1F
100
AcDbEntity
  8
40
  6
Continuous
 62
     7
100
AcDbLine
 10
3481.557931103957
 20
5172.77435957446
 30
0.0
 11
3484.906868937957
 21
5145.98285690316
 31
0.0
  0
ARC
  5
F39
330
1F
100
AcDbEntity
  8
40
  6
Continuous
 62
     7
100
AcDbCircle
 10
3468.185826900256
 20
5171.501193204559
 30
0.0
 40
3.0
100
AcDbArc
 50
0.0
 51
90.0
  0
LINE
  5
F3A
330
1F
100
AcDbEntity
  8
40
  6
Continuous
 62
     7
100
AcDbLine
 10
3471.185826900256
 20
5171.501193204559
 30
0.0
 11
3471.185826900256
 21
5144.26772664846
 31
0.0
  0
LINE
  5
F3B
330
1F
100
AcDbEntity
  8
40
  6
Continuous
 62
     7
100
AcDbLine
 10
3468.185826900256
 20
5174.501193204559
 30
0.0
 11
3436.185826900256
 21
5174.501193204559
 31
0.0
  0
ARC
  5
F3C
330
1F
100
AcDbEntity
  8
40
  6
Continuous
 62
     7
100
AcDbCircle
 10
3404.185826900256
 20
5171.501193204559
 30
0.0
 40
3.0
100
AcDbArc
 50
90.0
 51
180.0
  0
LINE
  5
F3D
330
1F
100
AcDbEntity
  8
40
  6
Continuous
 62
     7
100
AcDbLine
 10
3401.185826900256
 20
5171.501193204559
 30
0.0
 11
3401.185826900256
 21
5144.26772664846
 31
0.0
  0
LINE
  5
F3E
330
1F
100
AcDbEntity
  8
40
  6
Continuous
 62
     7
100
AcDbLine
 10
3404.185826900256
 20
5174.501193204559
 30
0.0
 11
3436.185826900256
 21
5174.501193204559
 31
0.0
  0
ARC
  5
F3F
330
1F
100
AcDbEntity
  8
40
  6
Continuous
 62
     7
100
AcDbCircle
 10
3387.836889066356
 20
5173.146463778159
 30
0.0
 40
3.0
100
AcDbArc
 50
352.8749836511019
 51
82.87498365109538
  0
LINE
  5
F40
330
1F
100
AcDbEntity
  8
40
  6
Continuous
 62
     7
100
AcDbLine
 10
3388.208993270056
 20
5176.123297408359
 30
0.0
 11
3324.162660530356
 21
5184.12908900076
 31
0.0
  0
LINE
  5
F41
330
1F
100
AcDbEntity
  8
40
  6
Continuous
 62
     7
100
AcDbLine
 10
3390.813722696456
 20
5172.77435957446
 30
0.0
 11
3387.464784862556
 21
5145.98285690316
 31
0.0
  0
ARC
  5
F42
330
1F
100
AcDbEntity
  8
40
  6
Continuous
 62
     7
100
AcDbCircle
 10
3323.790556326556
 20
5181.152255370659
 30
0.0
 40
3.0
100
AcDbArc
 50
82.87498365109538
 51
172.8749836511018
  0
LINE
  5
F43
330
1F
100
AcDbEntity
  8
40
  6
Continuous
 62
     7
100
AcDbLine
 10
3320.813722696456
 20
5181.52435957446
 30
0.0
 11
3317.464784862556
 21
5154.73285690316
 31
0.0
  0
ARC
  5
F44
330
1F
100
AcDbEntity
  8
40
  6
Continuous
 62
     7
100
AcDbCircle
 10
3307.836889066356
 20
5183.14646377816
 30
0.0
 40
3.0
100
AcDbArc
 50
352.8749836511019
 51
82.87498365109538
  0
LINE
  5
F45
330
1F
100
AcDbEntity
  8
40
  6
Continuous
 62
     7
100
AcDbLine
 10
3308.208993270056
 20
5186.12329740836
 30
0.0
 11
3244.162660530356
 21
5194.129089000759
 31
0.0
  0
LINE
  5
F46
330
1F
100
AcDbEntity
  8
40
  6
Continuous
 62
     7
100
AcDbLine
 10
3310.813722696456
 20
5182.77435957446
 30
0.0
 11
3307.464784862556
 21
5155.982856903159
 31
0.0
  0
ARC
  5
F47
330
1F
100
AcDbEntity
  8
40
  6
Continuous
 62
     7
100
AcDbCircle
 10
3243.790556326556
 20
5191.152255370659
 30
0.0
 40
3.0
100
AcDbArc
 50
82.87498365109538
 51
172.8749836511018
  0
LINE
  5
F48
330
1F
100
AcDbEntity
  8
40
  6
Continuous
 62
     7
100
AcDbLine
 10
3240.813722696457
 20
5191.52435957446
 30
0.0
 11
3237.464784862556
 21
5164.73285690316
 31
0.0
  0
ARC
  5
F49
330
1F
100
AcDbEntity
  8
40
  6
Continuous
 62
     7
100
AcDbCircle
 10
3222.696783198256
 20
5189.230805152959
 30
0.0
 40
3.0
100
AcDbArc
 50
15.00000000000116
 51
104.9999999999944
  0
LINE
  5
F4A
330
1F
100
AcDbEntity
  8
40
  6
Continuous
 62
     7
100
AcDbLine
 10
3221.920326062956
 20
5192.12858263176
 30
0.0
 11
3162.836920757856
 21
5176.29723189416
 31
0.0
  0
LINE
  5
F4B
330
1F
100
AcDbEntity
  8
40
  6
Continuous
 62
     7
100
AcDbLine
 10
3225.594560677156
 20
5190.007262288259
 30
0.0
 11
3232.582674894956
 21
5163.927264978458
 31
0.0
  0
ARC
  5
F4C
330
1F
100
AcDbEntity
  8
40
  6
Continuous
 62
     7
100
AcDbCircle
 10
3160.042395675456
 20
5160.65499055736
 30
0.0
 40
3.0
100
AcDbArc
 50
164.3471970331012
 51
195.0000000000011
  0
LINE
  5
F4D
330
1F
100
AcDbEntity
  8
40
  6
Continuous
 62
     7
100
AcDbLine
 10
3157.153652699956
 20
5161.46441258656
 30
0.0
 11
3160.724634917656
 21
5174.208876444559
 31
0.0
  0
LINE
  5
F4E
330
1F
100
AcDbEntity
  8
40
  6
Continuous
 62
     7
100
AcDbLine
 10
3157.144618196556
 20
5159.87853342206
 30
0.0
 11
3161.962284035556
 21
5141.89875973726
 31
0.0
  0
ARC
  5
F4F
330
1F
100
AcDbEntity
  8
40
  6
Continuous
 62
     7
100
AcDbCircle
 10
3163.613377893156
 20
5173.39945441536
 30
0.0
 40
3.0
100
AcDbArc
 50
104.9999999999944
 51
164.3471970331012
  0
LINE
  5
F50
330
1F
100
AcDbEntity
  8
7
100
AcDbLine
 10
3423.888597787656
 20
4903.73825180386
 30
0.0
 11
3448.213509625056
 21
4903.73825180386
 31
0.0
  0
CIRCLE
  5
F51
330
1F
100
AcDbEntity
  8
40
  6
Continuous
 62
     7
100
AcDbCircle
 10
3436.185826900256
 20
4903.73825180386
 30
0.0
 40
8.5
  0
LINE
  5
F52
330
1F
100
AcDbEntity
  8
40
  6
Continuous
 62
     7
100
AcDbLine
 10
3444.685826900256
 20
4898.830774515658
 30
0.0
 11
3444.685826900256
 21
4908.64572909196
 31
0.0
  0
LINE
  5
F53
330
1F
100
AcDbEntity
  8
40
  6
Continuous
 62
     7
100
AcDbLine
 10
3436.185826900256
 20
4893.923297227559
 30
0.0
 11
3444.685826900256
 21
4898.830774515658
 31
0.0
  0
LINE
  5
F54
330
1F
100
AcDbEntity
  8
40
  6
Continuous
 62
     7
100
AcDbLine
 10
3427.685826900256
 20
4898.830774515658
 30
0.0
 11
3436.185826900256
 21
4893.923297227559
 31
0.0
  0
LINE
  5
F55
330
1F
100
AcDbEntity
  8
40
  6
Continuous
 62
     7
100
AcDbLine
 10
3427.685826900256
 20
4908.64572909196
 30
0.0
 11
3427.685826900256
 21
4898.830774515658
 31
0.0
  0
LINE
  5
F56
330
1F
100
AcDbEntity
  8
40
  6
Continuous
 62
     7
100
AcDbLine
 10
3436.185826900256
 20
4913.553206380059
 30
0.0
 11
3427.685826900256
 21
4908.64572909196
 31
0.0
  0
LINE
  5
F57
330
1F
100
AcDbEntity
  8
40
  6
Continuous
 62
     7
100
AcDbLine
 10
3444.685826900256
 20
4908.64572909196
 30
0.0
 11
3436.185826900256
 21
4913.553206380059
 31
0.0
  0
CIRCLE
  5
F59
330
1F
100
AcDbEntity
  8
40
  6
Continuous
 62
     7
100
AcDbCircle
 10
3197.719882967956
 20
4569.512674989859
 30
0.0
 40
5.0
  0
CIRCLE
  5
F5A
330
1F
100
AcDbEntity
  8
40
  6
Continuous
 62
     7
100
AcDbCircle
 10
3227.462569150556
 20
4591.058557893759
 30
0.0
 40
5.0
  0
CIRCLE
  5
F5B
330
1F
100
AcDbEntity
  8
40
  6
Continuous
 62
     7
100
AcDbCircle
 10
3236.596149946756
 20
4565.18007897116
 30
0.0
 40
5.0
  0
CIRCLE
  5
F5C
330
1F
100
AcDbEntity
  8
40
  6
Continuous
 62
     7
100
AcDbCircle
 10
3254.980408728956
 20
4582.510463046059
 30
0.0
 40
5.0
  0
CIRCLE
  5
F5D
330
1F
100
AcDbEntity
  8
40
  6
Continuous
 62
     7
100
AcDbCircle
 10
3280.156304513357
 20
4573.845271008559
 30
0.0
 40
5.0
  0
CIRCLE
  5
F5E
330
1F
100
AcDbEntity
  8
40
  6
Continuous
 62
     7
100
AcDbCircle
 10
3291.514731913756
 20
4595.391153912459
 30
0.0
 40
5.0
  0
CIRCLE
  5
F5F
330
1F
100
AcDbEntity
  8
40
  6
Continuous
 62
     7
100
AcDbCircle
 10
3325.824208494456
 20
4597.498903326959
 30
0.0
 40
5.0
  0
CIRCLE
  5
F60
330
1F
100
AcDbEntity
  8
40
  6
Continuous
 62
     7
100
AcDbCircle
 10
3321.257418096357
 20
4560.84748295246
 30
0.0
 40
5.0
  0
CIRCLE
  5
F61
330
1F
100
AcDbEntity
  8
40
  6
Continuous
 62
     7
100
AcDbCircle
 10
3337.299733084556
 20
4571.737521594059
 30
0.0
 40
5.0
  0
CIRCLE
  5
F62
330
1F
100
AcDbEntity
  8
40
  6
Continuous
 62
     7
100
AcDbCircle
 10
3554.515019968956
 20
4569.512674989859
 30
0.0
 40
5.0
  0
CIRCLE
  5
F63
330
1F
100
AcDbEntity
  8
40
  6
Continuous
 62
     7
100
AcDbCircle
 10
3563.648600765155
 20
4591.058557893759
 30
0.0
 40
5.0
  0
CIRCLE
  5
F64
330
1F
100
AcDbEntity
  8
40
  6
Continuous
 62
     7
100
AcDbCircle
 10
3591.166440343556
 20
4567.40492557536
 30
0.0
 40
5.0
  0
CIRCLE
  5
F65
330
1F
100
AcDbEntity
  8
40
  6
Continuous
 62
     7
100
AcDbCircle
 10
3602.524867743956
 20
4582.510463046059
 30
0.0
 40
5.0
  0
CIRCLE
  5
F66
330
1F
100
AcDbEntity
  8
40
  6
Continuous
 62
     7
100
AcDbCircle
 10
3609.433601935956
 20
4591.058557893759
 30
0.0
 40
5.0
  0
CIRCLE
  5
F67
330
1F
100
AcDbEntity
  8
40
  6
Continuous
 62
     7
100
AcDbCircle
 10
3636.834344324656
 20
4567.40492557536
 30
0.0
 40
5.0
  0
CIRCLE
  5
F68
330
1F
100
AcDbEntity
  8
40
  6
Continuous
 62
     7
100
AcDbCircle
 10
3648.309868914756
 20
4591.058557893759
 30
0.0
 40
5.0
  0
CIRCLE
  5
F69
330
1F
100
AcDbEntity
  8
40
  6
Continuous
 62
     7
100
AcDbCircle
 10
3675.710611303356
 20
4563.07232955666
 30
0.0
 40
5.0
  0
CIRCLE
  5
F6A
330
1F
100
AcDbEntity
  8
40
  6
Continuous
 62
     7
100
AcDbCircle
 10
3673.485764699156
 20
4586.725961875059
 30
0.0
 40
10.0
  0
CIRCLE
  5
F6B
330
1F
100
AcDbEntity
  8
40
  6
Continuous
 62
     7
100
AcDbCircle
 10
3657.443449710956
 20
4569.512674989859
 30
0.0
 40
10.0
  0
CIRCLE
  5
F6C
330
1F
100
AcDbEntity
  8
40
  6
Continuous
 62
     7
100
AcDbCircle
 10
3634.609497720456
 20
4591.058557893759
 30
0.0
 40
10.0
  0
CIRCLE
  5
F6D
330
1F
100
AcDbEntity
  8
40
  6
Continuous
 62
     7
100
AcDbCircle
 10
3607.091658142056
 20
4565.18007897116
 30
0.0
 40
10.0
  0
CIRCLE
  5
F6E
330
1F
100
AcDbEntity
  8
40
  6
Continuous
 62
     7
100
AcDbCircle
 10
3582.032859547356
 20
4591.058557893759
 30
0.0
 40
10.0
  0
CIRCLE
  5
F6F
330
1F
100
AcDbEntity
  8
40
  6
Continuous
 62
     7
100
AcDbCircle
 10
3570.557334957156
 20
4563.07232955666
 30
0.0
 40
10.0
  0
CIRCLE
  5
F70
330
1F
100
AcDbEntity
  8
40
  6
Continuous
 62
     7
100
AcDbCircle
 10
3545.381439172756
 20
4586.725961875059
 30
0.0
 40
10.0
  0
CIRCLE
  5
F71
330
1F
100
AcDbEntity
  8
40
  6
Continuous
 62
     7
100
AcDbCircle
 10
3216.104141750156
 20
4569.512674989859
 30
0.0
 40
10.0
  0
CIRCLE
  5
F72
330
1F
100
AcDbEntity
  8
40
  6
Continuous
 62
     7
100
AcDbCircle
 10
3206.970560953956
 20
4591.058557893759
 30
0.0
 40
10.0
  0
CIRCLE
  5
F73
330
1F
100
AcDbEntity
  8
40
  6
Continuous
 62
     7
100
AcDbCircle
 10
3241.162940344856
 20
4586.725961875059
 30
0.0
 40
10.0
  0
CIRCLE
  5
F74
330
1F
100
AcDbEntity
  8
40
  6
Continuous
 62
     7
100
AcDbCircle
 10
3257.205255333156
 20
4565.18007897116
 30
0.0
 40
10.0
  0
CIRCLE
  5
F75
330
1F
100
AcDbEntity
  8
40
  6
Continuous
 62
     7
100
AcDbCircle
 10
3270.905626527456
 20
4588.95080847926
 30
0.0
 40
10.0
  0
CIRCLE
  5
F76
330
1F
100
AcDbEntity
  8
40
  6
Continuous
 62
     7
100
AcDbCircle
 10
3296.081522311856
 20
4565.18007897116
 30
0.0
 40
10.0
  0
CIRCLE
  5
F77
330
1F
100
AcDbEntity
  8
40
  6
Continuous
 62
     7
100
AcDbCircle
 10
3319.032571492157
 20
4580.28561644186
 30
0.0
 40
10.0
  0
LINE
  5
F87
330
1F
100
AcDbEntity
  8
7
100
AcDbLine
 10
2409.763071885223
 20
5225.762884753356
 30
0.0
 11
2409.763071885223
 21
4788.588898413455
 31
0.0
  0
CIRCLE
  5
F88
330
1F
100
AcDbEntity
  8
40
  6
Continuous
 62
     7
100
AcDbCircle
 10
3449.569756800556
 20
4589.593900146159
 30
0.0
 40
5.0
  0
CIRCLE
  5
F89
330
1F
100
AcDbEntity
  8
40
  6
Continuous
 62
     7
100
AcDbCircle
 10
3530.088743421256
 20
4561.005376970959
 30
0.0
 40
5.0
  0
CIRCLE
  5
F8A
330
1F
100
AcDbEntity
  8
40
  6
Continuous
 62
     7
100
AcDbCircle
 10
3520.666308816756
 20
4593.555605604859
 30
0.0
 40
5.0
  0
CIRCLE
  5
F8B
330
1F
100
AcDbEntity
  8
40
  6
Continuous
 62
     7
100
AcDbCircle
 10
3511.243874212156
 20
4564.003424345159
 30
0.0
 40
5.0
  0
CIRCLE
  5
F8C
330
1F
100
AcDbEntity
  8
40
  6
Continuous
 62
     7
100
AcDbCircle
 10
3475.695598204056
 20
4565.93074051426
 30
0.0
 40
5.0
  0
CIRCLE
  5
F8D
330
1F
100
AcDbEntity
  8
40
  6
Continuous
 62
     7
100
AcDbCircle
 10
3478.800718698757
 20
4597.51731106366
 30
0.0
 40
5.0
  0
CIRCLE
  5
F8E
330
1F
100
AcDbEntity
  8
40
  6
Continuous
 62
     7
100
AcDbCircle
 10
3456.850728994956
 20
4562.022571615758
 30
0.0
 40
5.0
  0
CIRCLE
  5
F8F
330
1F
100
AcDbEntity
  8
40
  6
Continuous
 62
     7
100
AcDbCircle
 10
3433.883544646356
 20
4596.50011641886
 30
0.0
 40
5.0
  0
CIRCLE
  5
F90
330
1F
100
AcDbEntity
  8
40
  6
Continuous
 62
     7
100
AcDbCircle
 10
3425.478304686656
 20
4564.003424345159
 30
0.0
 40
5.0
  0
CIRCLE
  5
F91
330
1F
100
AcDbEntity
  8
40
  6
Continuous
 62
     7
100
AcDbCircle
 10
3400.423194488156
 20
4586.64938933226
 30
0.0
 40
5.0
  0
CIRCLE
  5
F92
330
1F
100
AcDbEntity
  8
40
  6
Continuous
 62
     7
100
AcDbCircle
 10
3391.000759883656
 20
4597.51731106366
 30
0.0
 40
5.0
  0
CIRCLE
  5
F93
330
1F
100
AcDbEntity
  8
40
  6
Continuous
 62
     7
100
AcDbCircle
 10
3383.666251128956
 20
4561.005376970959
 30
0.0
 40
5.0
  0
CIRCLE
  5
F94
330
1F
100
AcDbEntity
  8
40
  6
Continuous
 62
     7
100
AcDbCircle
 10
3367.980038974756
 20
4570.909640617859
 30
0.0
 40
5.0
  0
CIRCLE
  5
F95
330
1F
100
AcDbEntity
  8
40
  6
Continuous
 62
     7
100
AcDbCircle
 10
3344.959318065956
 20
4589.593900146159
 30
0.0
 40
5.0
  0
CIRCLE
  5
F96
330
1F
100
AcDbEntity
  8
40
  6
Continuous
 62
     7
100
AcDbCircle
 10
3520.341074213156
 20
4575.444187271259
 30
0.0
 40
10.0
  0
CIRCLE
  5
F97
330
1F
100
AcDbEntity
  8
40
  6
Continuous
 62
     7
100
AcDbCircle
 10
3492.154075239956
 20
4568.819037939959
 30
0.0
 40
10.0
  0
CIRCLE
  5
F98
330
1F
100
AcDbEntity
  8
40
  6
Continuous
 62
     7
100
AcDbCircle
 10
3499.140596352956
 20
4588.814943194459
 30
0.0
 40
10.0
  0
CIRCLE
  5
F99
330
1F
100
AcDbEntity
  8
40
  6
Continuous
 62
     7
100
AcDbCircle
 10
3463.846619006056
 20
4584.358024553459
 30
0.0
 40
10.0
  0
CIRCLE
  5
F9A
330
1F
100
AcDbEntity
  8
40
  6
Continuous
 62
     7
100
AcDbCircle
 10
3405.063475848156
 20
4568.819037939959
 30
0.0
 40
10.0
  0
CIRCLE
  5
F9B
330
1F
100
AcDbEntity
  8
40
  6
Continuous
 62
     7
100
AcDbCircle
 10
3440.357453195056
 20
4573.275956581059
 30
0.0
 40
10.0
  0
CIRCLE
  5
F9C
330
1F
100
AcDbEntity
  8
40
  6
Continuous
 62
     7
100
AcDbCircle
 10
3416.868287383957
 20
4588.814943194459
 30
0.0
 40
10.0
  0
CIRCLE
  5
F9D
330
1F
100
AcDbEntity
  8
40
  6
Continuous
 62
     7
100
AcDbCircle
 10
3360.373832176856
 20
4588.814943194459
 30
0.0
 40
10.0
  0
CIRCLE
  5
F9E
330
1F
100
AcDbEntity
  8
40
  6
Continuous
 62
     7
100
AcDbCircle
 10
3383.862997987856
 20
4579.901105912359
 30
0.0
 40
10.0
  0
CIRCLE
  5
F9F
330
1F
100
AcDbEntity
  8
40
  6
Continuous
 62
     7
100
AcDbCircle
 10
3350.978165852356
 20
4568.819037939959
 30
0.0
 40
10.0
  0
CIRCLE
  5
FA0
330
1F
100
AcDbEntity
  8
40
  6
Continuous
 62
     7
100
AcDbCircle
 10
2423.147001785522
 20
4589.593900146155
 30
0.0
 40
5.0
  0
CIRCLE
  5
FA1
330
1F
100
AcDbEntity
  8
40
  6
Continuous
 62
     7
100
AcDbCircle
 10
2503.665988406222
 20
4561.005376970956
 30
0.0
 40
5.0
  0
CIRCLE
  5
FA2
330
1F
100
AcDbEntity
  8
40
  6
Continuous
 62
     7
100
AcDbCircle
 10
2494.243553801723
 20
4593.555605604856
 30
0.0
 40
5.0
  0
CIRCLE
  5
FA3
330
1F
100
AcDbEntity
  8
40
  6
Continuous
 62
     7
100
AcDbCircle
 10
2484.821119197123
 20
4564.003424345155
 30
0.0
 40
5.0
  0
CIRCLE
  5
FA4
330
1F
100
AcDbEntity
  8
40
  6
Continuous
 62
     7
100
AcDbCircle
 10
2449.272843189122
 20
4565.930740514256
 30
0.0
 40
5.0
  0
CIRCLE
  5
FA5
330
1F
100
AcDbEntity
  8
40
  6
Continuous
 62
     7
100
AcDbCircle
 10
2452.377963683722
 20
4597.517311063656
 30
0.0
 40
5.0
  0
CIRCLE
  5
FA6
330
1F
100
AcDbEntity
  8
40
  6
Continuous
 62
     7
100
AcDbCircle
 10
2430.427973980022
 20
4562.022571615755
 30
0.0
 40
5.0
  0
CIRCLE
  5
FA7
330
1F
100
AcDbEntity
  8
40
  6
Continuous
 62
     7
100
AcDbCircle
 10
2407.460789631422
 20
4596.500116418856
 30
0.0
 40
5.0
  0
CIRCLE
  5
FA8
330
1F
100
AcDbEntity
  8
40
  6
Continuous
 62
     7
100
AcDbCircle
 10
2399.055549671623
 20
4564.003424345155
 30
0.0
 40
5.0
  0
CIRCLE
  5
FA9
330
1F
100
AcDbEntity
  8
40
  6
Continuous
 62
     7
100
AcDbCircle
 10
2374.000439473222
 20
4586.649389332256
 30
0.0
 40
5.0
  0
CIRCLE
  5
FAA
330
1F
100
AcDbEntity
  8
40
  6
Continuous
 62
     7
100
AcDbCircle
 10
2364.578004868622
 20
4597.517311063656
 30
0.0
 40
5.0
  0
CIRCLE
  5
FAB
330
1F
100
AcDbEntity
  8
40
  6
Continuous
 62
     7
100
AcDbCircle
 10
2357.243496113923
 20
4561.005376970956
 30
0.0
 40
5.0
  0
CIRCLE
  5
FAC
330
1F
100
AcDbEntity
  8
40
  6
Continuous
 62
     7
100
AcDbCircle
 10
2341.557283959822
 20
4570.909640617855
 30
0.0
 40
5.0
  0
CIRCLE
  5
FAD
330
1F
100
AcDbEntity
  8
40
  6
Continuous
 62
     7
100
AcDbCircle
 10
2318.536563050923
 20
4589.593900146155
 30
0.0
 40
5.0
  0
CIRCLE
  5
FAE
330
1F
100
AcDbEntity
  8
40
  6
Continuous
 62
     7
100
AcDbCircle
 10
2493.918319198222
 20
4575.444187271256
 30
0.0
 40
10.0
  0
CIRCLE
  5
FAF
330
1F
100
AcDbEntity
  8
40
  6
Continuous
 62
     7
100
AcDbCircle
 10
2465.731320224922
 20
4568.819037939955
 30
0.0
 40
10.0
  0
CIRCLE
  5
FB0
330
1F
100
AcDbEntity
  8
40
  6
Continuous
 62
     7
100
AcDbCircle
 10
2472.717841337923
 20
4588.814943194456
 30
0.0
 40
10.0
  0
CIRCLE
  5
FB1
330
1F
100
AcDbEntity
  8
40
  6
Continuous
 62
     7
100
AcDbCircle
 10
2437.423863991022
 20
4584.358024553456
 30
0.0
 40
10.0
  0
CIRCLE
  5
FB2
330
1F
100
AcDbEntity
  8
40
  6
Continuous
 62
     7
100
AcDbCircle
 10
2378.640720833122
 20
4568.819037939955
 30
0.0
 40
10.0
  0
CIRCLE
  5
FB3
330
1F
100
AcDbEntity
  8
40
  6
Continuous
 62
     7
100
AcDbCircle
 10
2413.934698180022
 20
4573.275956581055
 30
0.0
 40
10.0
  0
CIRCLE
  5
FB4
330
1F
100
AcDbEntity
  8
40
  6
Continuous
 62
     7
100
AcDbCircle
 10
2390.445532368921
 20
4588.814943194456
 30
0.0
 40
10.0
  0
CIRCLE
  5
FB5
330
1F
100
AcDbEntity
  8
40
  6
Continuous
 62
     7
100
AcDbCircle
 10
2333.951077161822
 20
4588.814943194456
 30
0.0
 40
10.0
  0
CIRCLE
  5
FB6
330
1F
100
AcDbEntity
  8
40
  6
Continuous
 62
     7
100
AcDbCircle
 10
2357.440242972922
 20
4579.901105912355
 30
0.0
 40
10.0
  0
CIRCLE
  5
FB7
330
1F
100
AcDbEntity
  8
40
  6
Continuous
 62
     7
100
AcDbCircle
 10
2324.555410837422
 20
4568.819037939955
 30
0.0
 40
10.0
  0
CIRCLE
  5
FC4
330
1F
100
AcDbEntity
  8
40
  6
Continuous
 62
     7
100
AcDbCircle
 10
893.147001785522
 20
4589.593900146159
 30
0.0
 40
5.0
  0
CIRCLE
  5
FC5
330
1F
100
AcDbEntity
  8
40
  6
Continuous
 62
     7
100
AcDbCircle
 10
973.6659884062222
 20
4561.005376970959
 30
0.0
 40
5.0
  0
CIRCLE
  5
FC6
330
1F
100
AcDbEntity
  8
40
  6
Continuous
 62
     7
100
AcDbCircle
 10
964.2435538017219
 20
4593.555605604859
 30
0.0
 40
5.0
  0
CIRCLE
  5
FC7
330
1F
100
AcDbEntity
  8
40
  6
Continuous
 62
     7
100
AcDbCircle
 10
954.8211191971219
 20
4564.003424345159
 30
0.0
 40
5.0
  0
CIRCLE
  5
FC8
330
1F
100
AcDbEntity
  8
40
  6
Continuous
 62
     7
100
AcDbCircle
 10
919.2728431891222
 20
4565.93074051426
 30
0.0
 40
5.0
  0
CIRCLE
  5
FC9
330
1F
100
AcDbEntity
  8
40
  6
Continuous
 62
     7
100
AcDbCircle
 10
922.3779636837221
 20
4597.51731106366
 30
0.0
 40
5.0
  0
CIRCLE
  5
FCA
330
1F
100
AcDbEntity
  8
40
  6
Continuous
 62
     7
100
AcDbCircle
 10
900.4279739800219
 20
4562.022571615758
 30
0.0
 40
5.0
  0
CIRCLE
  5
FCB
330
1F
100
AcDbEntity
  8
40
  6
Continuous
 62
     7
100
AcDbCircle
 10
877.460789631422
 20
4596.50011641886
 30
0.0
 40
5.0
  0
CIRCLE
  5
FCC
330
1F
100
AcDbEntity
  8
40
  6
Continuous
 62
     7
100
AcDbCircle
 10
869.0555496716219
 20
4564.003424345159
 30
0.0
 40
5.0
  0
CIRCLE
  5
FCD
330
1F
100
AcDbEntity
  8
40
  6
Continuous
 62
     7
100
AcDbCircle
 10
844.000439473222
 20
4586.64938933226
 30
0.0
 40
5.0
  0
CIRCLE
  5
FCE
330
1F
100
AcDbEntity
  8
40
  6
Continuous
 62
     7
100
AcDbCircle
 10
834.5780048686222
 20
4597.51731106366
 30
0.0
 40
5.0
  0
CIRCLE
  5
FCF
330
1F
100
AcDbEntity
  8
40
  6
Continuous
 62
     7
100
AcDbCircle
 10
827.2434961139222
 20
4561.005376970959
 30
0.0
 40
5.0
  0
CIRCLE
  5
FD0
330
1F
100
AcDbEntity
  8
40
  6
Continuous
 62
     7
100
AcDbCircle
 10
811.5572839598222
 20
4570.909640617859
 30
0.0
 40
5.0
  0
CIRCLE
  5
FD1
330
1F
100
AcDbEntity
  8
40
  6
Continuous
 62
     7
100
AcDbCircle
 10
788.5365630509221
 20
4589.593900146159
 30
0.0
 40
5.0
  0
CIRCLE
  5
FD2
330
1F
100
AcDbEntity
  8
40
  6
Continuous
 62
     7
100
AcDbCircle
 10
963.9183191982223
 20
4575.444187271259
 30
0.0
 40
10.0
  0
CIRCLE
  5
FD3
330
1F
100
AcDbEntity
  8
40
  6
Continuous
 62
     7
100
AcDbCircle
 10
935.7313202249219
 20
4568.819037939959
 30
0.0
 40
10.0
  0
CIRCLE
  5
FD4
330
1F
100
AcDbEntity
  8
40
  6
Continuous
 62
     7
100
AcDbCircle
 10
942.7178413379222
 20
4588.814943194459
 30
0.0
 40
10.0
  0
CIRCLE
  5
FD5
330
1F
100
AcDbEntity
  8
40
  6
Continuous
 62
     7
100
AcDbCircle
 10
907.423863991022
 20
4584.358024553459
 30
0.0
 40
10.0
  0
CIRCLE
  5
FD6
330
1F
100
AcDbEntity
  8
40
  6
Continuous
 62
     7
100
AcDbCircle
 10
848.6407208331222
 20
4568.819037939959
 30
0.0
 40
10.0
  0
CIRCLE
  5
FD7
330
1F
100
AcDbEntity
  8
40
  6
Continuous
 62
     7
100
AcDbCircle
 10
883.934698180022
 20
4573.275956581059
 30
0.0
 40
10.0
  0
CIRCLE
  5
FD8
330
1F
100
AcDbEntity
  8
40
  6
Continuous
 62
     7
100
AcDbCircle
 10
860.4455323689219
 20
4588.814943194459
 30
0.0
 40
10.0
  0
CIRCLE
  5
FD9
330
1F
100
AcDbEntity
  8
40
  6
Continuous
 62
     7
100
AcDbCircle
 10
803.9510771618219
 20
4588.814943194459
 30
0.0
 40
10.0
  0
CIRCLE
  5
FDA
330
1F
100
AcDbEntity
  8
40
  6
Continuous
 62
     7
100
AcDbCircle
 10
827.4402429729221
 20
4579.901105912359
 30
0.0
 40
10.0
  0
CIRCLE
  5
FDB
330
1F
100
AcDbEntity
  8
40
  6
Continuous
 62
     7
100
AcDbCircle
 10
794.5554108374222
 20
4568.819037939959
 30
0.0
 40
10.0
  0
LINE
  5
FDC
330
1F
100
AcDbEntity
  8
7
100
AcDbLine
 10
879.7630718852222
 20
5231.34009573196
 30
0.0
 11
879.7630718852222
 21
4792.894823752759
 31
0.0
  0
LINE
  5
FE9
330
1F
100
AcDbEntity
  8
7
100
AcDbLine
 10
3251.185826900256
 20
4845.842245503959
 30
0.0
 11
3251.185826900256
 21
4783.408878745659
 31
0.0
  0
LINE
  5
FEA
330
1F
100
AcDbEntity
  8
7
100
AcDbLine
 10
3621.185826900256
 20
4845.842245503959
 30
0.0
 11
3621.185826900256
 21
4783.408878745659
 31
0.0
  0
LINE
  5
FEB
102
{ACAD_REACTORS
330
26E7
102
}
330
1F
100
AcDbEntity
  8
40
  6
PHANTOM
 62
     7
100
AcDbLine
 10
907.2630718852222
 20
4803.73825180386
 30
0.0
 11
979.7630718852222
 21
4803.73825180386
 31
0.0
  0
LINE
  5
FEC
330
1F
100
AcDbEntity
  8
40
  6
PHANTOM
 62
     7
100
AcDbLine
 10
979.7630718852222
 20
4803.73825180386
 30
0.0
 11
2309.763071885223
 21
4803.738251803856
 31
0.0
  0
LINE
  5
FED
102
{ACAD_REACTORS
330
26E7
102
}
330
1F
100
AcDbEntity
  8
40
  6
Continuous
 62
     7
100
AcDbLine
 10
779.7630718852222
 20
4803.73825180386
 30
0.0
 11
852.2630718852221
 21
4803.73825180386
 31
0.0
  0
LINE
  5
FEE
330
1F
100
AcDbEntity
  8
40
  6
PHANTOM
 62
     7
100
AcDbLine
 10
696.9854947289222
 20
4803.73825180386
 30
0.0
 11
779.7630718852222
 21
4803.73825180386
 31
0.0
  0
LINE
  5
FEF
102
{ACAD_REACTORS
330
26E7
102
}
330
1F
100
AcDbEntity
  8
40
  6
Continuous
 62
     7
100
AcDbLine
 10
2437.263071885223
 20
4803.738251803856
 30
0.0
 11
2509.763071885223
 21
4803.738251803856
 31
0.0
  0
LINE
  5
FF0
330
1F
100
AcDbEntity
  8
40
  6
PHANTOM
 62
     7
100
AcDbLine
 10
2509.763071885223
 20
4803.738251803856
 30
0.0
 11
2637.443962921722
 21
4803.738251803856
 31
0.0
  0
LINE
  5
FF1
102
{ACAD_REACTORS
330
26E7
102
}
330
1F
100
AcDbEntity
  8
40
  6
Continuous
 62
     7
100
AcDbLine
 10
2309.763071885223
 20
4803.738251803856
 30
0.0
 11
2382.263071885223
 21
4803.738251803856
 31
0.0
  0
LINE
  5
FF2
102
{ACAD_REACTORS
330
2342
102
}
330
1F
100
AcDbEntity
  8
40
  6
Continuous
 62
     7
100
AcDbLine
 10
3638.185826900257
 20
4803.73825180386
 30
0.0
 11
3686.185826900256
 21
4803.73825180386
 31
0.0
  0
LINE
  5
FF3
330
1F
100
AcDbEntity
  8
40
  6
PHANTOM
 62
     7
100
AcDbLine
 10
3686.185826900256
 20
4803.73825180386
 30
0.0
 11
3869.612577282256
 21
4803.73825180386
 31
0.0
  0
LINE
  5
FF4
102
{ACAD_REACTORS
330
2342
102
}
330
1F
100
AcDbEntity
  8
40
  6
Continuous
 62
     7
100
AcDbLine
 10
3186.185826900256
 20
4803.73825180386
 30
0.0
 11
3234.185826900256
 21
4803.73825180386
 31
0.0
  0
LINE
  5
FF5
330
1F
100
AcDbEntity
  8
40
  6
PHANTOM
 62
     7
100
AcDbLine
 10
2985.529822036656
 20
4803.73825180386
 30
0.0
 11
3186.185826900256
 21
4803.73825180386
 31
0.0
  0
LINE
  5
FF6
102
{ACAD_REACTORS
330
2342
102
}
330
1F
100
AcDbEntity
  8
40
  6
Continuous
 62
     7
100
AcDbLine
 10
3333.843497681056
 20
4803.73825180386
 30
0.0
 11
3538.528156119456
 21
4803.73825180386
 31
0.0
  0
LINE
  5
FF7
330
1F
100
AcDbEntity
  8
7
100
AcDbLine
 10
3436.185826900256
 20
5232.226997934759
 30
0.0
 11
3436.185826900256
 21
4775.309456158659
 31
0.0
  0
LINE
  5
FF8
102
{ACAD_REACTORS
330
2342
102
}
330
1F
100
AcDbEntity
  8
40
  6
Continuous
 62
     7
100
AcDbLine
 10
3686.185826900256
 20
4603.73825180386
 30
0.0
 11
3186.185826900256
 21
4603.73825180386
 31
0.0
  0
LINE
  5
FF9
102
{ACAD_REACTORS
330
2342
102
}
330
1F
100
AcDbEntity
  8
40
  6
Continuous
 62
     7
100
AcDbLine
 10
3686.185826900256
 20
4553.738251803859
 30
0.0
 11
3686.185826900256
 21
4803.73825180386
 31
0.0
  0
LINE
  5
FFA
330
1F
100
AcDbEntity
  8
40
  6
Continuous
 62
     7
100
AcDbLine
 10
3186.185826900256
 20
4553.738251803859
 30
0.0
 11
3686.185826900256
 21
4553.738251803859
 31
0.0
  0
LINE
  5
FFB
102
{ACAD_REACTORS
330
2342
102
}
330
1F
100
AcDbEntity
  8
40
  6
Continuous
 62
     7
100
AcDbLine
 10
3186.185826900256
 20
4803.73825180386
 30
0.0
 11
3186.185826900256
 21
4553.738251803859
 31
0.0
  0
LINE
  5
FFC
102
{ACAD_REACTORS
330
26E7
102
}
330
1F
100
AcDbEntity
  8
40
  6
Continuous
 62
     7
100
AcDbLine
 10
2509.763071885223
 20
4603.738251803855
 30
0.0
 11
2309.763071885223
 21
4603.738251803855
 31
0.0
  0
LINE
  5
FFD
102
{ACAD_REACTORS
330
26E7
102
}
330
1F
100
AcDbEntity
  8
40
  6
Continuous
 62
     7
100
AcDbLine
 10
2509.763071885223
 20
4553.738251803856
 30
0.0
 11
2509.763071885223
 21
4803.738251803856
 31
0.0
  0
LINE
  5
FFE
330
1F
100
AcDbEntity
  8
40
  6
Continuous
 62
     7
100
AcDbLine
 10
2309.763071885223
 20
4553.738251803856
 30
0.0
 11
2509.763071885223
 21
4553.738251803856
 31
0.0
  0
LINE
  5
FFF
102
{ACAD_REACTORS
330
26E7
102
}
330
1F
100
AcDbEntity
  8
40
  6
Continuous
 62
     7
100
AcDbLine
 10
2309.763071885223
 20
4803.738251803856
 30
0.0
 11
2309.763071885223
 21
4553.738251803856
 31
0.0
  0
LINE
  5
1000
102
{ACAD_REACTORS
330
26E7
102
}
330
1F
100
AcDbEntity
  8
40
  6
Continuous
 62
     7
100
AcDbLine
 10
979.7630718852222
 20
4603.73825180386
 30
0.0
 11
779.7630718852222
 21
4603.73825180386
 31
0.0
  0
LINE
  5
1001
102
{ACAD_REACTORS
330
26E7
102
}
330
1F
100
AcDbEntity
  8
40
  6
Continuous
 62
     7
100
AcDbLine
 10
979.7630718852222
 20
4553.738251803859
 30
0.0
 11
979.7630718852222
 21
4803.73825180386
 31
0.0
  0
LINE
  5
1002
330
1F
100
AcDbEntity
  8
40
  6
Continuous
 62
     7
100
AcDbLine
 10
779.7630718852222
 20
4553.738251803859
 30
0.0
 11
979.7630718852222
 21
4553.738251803859
 31
0.0
  0
LINE
  5
1003
102
{ACAD_REACTORS
330
26E7
102
}
330
1F
100
AcDbEntity
  8
40
  6
Continuous
 62
     7
100
AcDbLine
 10
779.7630718852222
 20
4803.73825180386
 30
0.0
 11
779.7630718852222
 21
4553.738251803859
 31
0.0
  0
LINE
  5
1004
330
1F
100
AcDbEntity
  8
40
  6
Continuous
 62
     7
100
AcDbLine
 10
3538.528156119456
 20
4803.73825180386
 30
0.0
 11
3638.185826900257
 21
4803.73825180386
 31
0.0
  0
LINE
  5
1005
330
1F
100
AcDbEntity
  8
40
  6
Continuous
 62
     7
100
AcDbLine
 10
3234.185826900256
 20
4803.73825180386
 30
0.0
 11
3333.843497681056
 21
4803.73825180386
 31
0.0
  0
LINE
  5
1006
102
{ACAD_REACTORS
330
26E7
102
}
330
1F
100
AcDbEntity
  8
40
  6
Continuous
 62
     7
100
AcDbLine
 10
2382.263071885223
 20
4803.738251803856
 30
0.0
 11
2437.263071885223
 21
4803.738251803856
 31
0.0
  0
LINE
  5
1007
102
{ACAD_REACTORS
330
26E7
102
}
330
1F
100
AcDbEntity
  8
40
  6
Continuous
 62
     7
100
AcDbLine
 10
852.2630718852221
 20
4803.73825180386
 30
0.0
 11
907.2630718852222
 21
4803.73825180386
 31
0.0
  0
ARC
  5
1008
330
1F
100
AcDbEntity
  8
40
  6
Continuous
 62
     7
100
AcDbCircle
 10
3236.745572789056
 20
5156.760500664059
 30
0.0
 40
3.0
100
AcDbArc
 50
82.87498365109538
 51
104.9999999999944
  0
LINE
  5
1009
330
1F
100
AcDbEntity
  8
40
  6
Continuous
 62
     7
100
AcDbLine
 10
3235.969115653756
 20
5159.658278142959
 30
0.0
 11
3170.207328736056
 21
5142.03746044546
 31
0.0
  0
LINE
  5
100A
330
1F
100
AcDbEntity
  8
40
  6
Continuous
 62
     7
100
AcDbLine
 10
3237.117676992856
 20
5159.73733429416
 30
0.0
 11
3410.758706309457
 21
5138.032205629659
 31
0.0
  0
ARC
  5
100B
330
1F
100
AcDbEntity
  8
40
  6
Continuous
 62
     7
100
AcDbCircle
 10
3635.626081011356
 20
5156.760500664059
 30
0.0
 40
3.0
100
AcDbArc
 50
75.00000000000555
 51
97.12501634890463
  0
LINE
  5
100C
330
1F
100
AcDbEntity
  8
40
  6
Continuous
 62
     7
100
AcDbLine
 10
3636.402538146756
 20
5159.658278142959
 30
0.0
 11
3702.164325064356
 21
5142.03746044546
 31
0.0
  0
LINE
  5
100D
330
1F
100
AcDbEntity
  8
40
  6
Continuous
 62
     7
100
AcDbLine
 10
3635.253976807656
 20
5159.73733429416
 30
0.0
 11
3461.612947491056
 21
5138.032205629659
 31
0.0
  0
ARC
  5
100E
330
1F
100
AcDbEntity
  8
40
  6
Continuous
 62
     7
100
AcDbCircle
 10
3174.607252502756
 20
5125.61672139856
 30
0.0
 40
3.0
100
AcDbArc
 50
195.0000000000011
 51
284.9999999999944
  0
LINE
  5
100F
330
1F
100
AcDbEntity
  8
40
  6
Continuous
 62
     7
100
AcDbLine
 10
3171.709475023956
 20
5124.84026426326
 30
0.0
 11
3168.086008392456
 21
5138.36322583136
 31
0.0
  0
LINE
  5
1010
330
1F
100
AcDbEntity
  8
40
  6
Continuous
 62
     7
100
AcDbLine
 10
3175.383709638156
 20
5122.71894391976
 30
0.0
 11
3178.251692253056
 21
5123.487417545259
 31
0.0
  0
ARC
  5
1011
330
1F
100
AcDbEntity
  8
40
  6
Continuous
 62
     7
100
AcDbCircle
 10
3171.071718596856
 20
5119.49299704166
 30
0.0
 40
3.0
100
AcDbArc
 50
195.0000000000011
 51
284.9999999999944
  0
LINE
  5
1012
330
1F
100
AcDbEntity
  8
40
  6
Continuous
 62
     7
100
AcDbLine
 10
3168.173941117956
 20
5118.716539906359
 30
0.0
 11
3161.962284035556
 21
5141.89875973726
 31
0.0
  0
LINE
  5
1013
330
1F
100
AcDbEntity
  8
40
  6
Continuous
 62
     7
100
AcDbLine
 10
3171.848175732157
 20
5116.59521956276
 30
0.0
 11
3179.545787478556
 21
5118.65778841386
 31
0.0
  0
ARC
  5
1014
330
1F
100
AcDbEntity
  8
40
  6
Continuous
 62
     7
100
AcDbCircle
 10
3170.983785871356
 20
5139.139682966661
 30
0.0
 40
3.0
100
AcDbArc
 50
104.9999999999944
 51
195.0000000000011
  0
ARC
  5
1015
330
1F
100
AcDbEntity
  8
40
  6
Continuous
 62
     7
100
AcDbCircle
 10
3164.860061514356
 20
5142.67521687256
 30
0.0
 40
3.0
100
AcDbArc
 50
104.9999999999944
 51
195.0000000000011
  0
LINE
  5
1016
330
1F
100
AcDbEntity
  8
40
  6
Continuous
 62
     7
100
AcDbLine
 10
3164.083604379056
 20
5145.572994351459
 30
0.0
 11
3235.619274473256
 21
5164.740919383159
 31
0.0
  0
ARC
  5
1017
330
1F
100
AcDbEntity
  8
40
  6
Continuous
 62
     7
100
AcDbCircle
 10
3236.395731608556
 20
5161.84314190426
 30
0.0
 40
3.0
100
AcDbArc
 50
82.87498365109538
 51
104.9999999999944
  0
LINE
  5
1018
330
1F
100
AcDbEntity
  8
40
  6
Continuous
 62
     7
100
AcDbLine
 10
3236.767835812356
 20
5164.819975534459
 30
0.0
 11
3411.378879982356
 21
5142.993595013159
 31
0.0
  0
ARC
  5
1019
330
1F
100
AcDbEntity
  8
40
  6
Continuous
 62
     7
100
AcDbCircle
 10
3635.975922191956
 20
5161.84314190426
 30
0.0
 40
3.0
100
AcDbArc
 50
75.00000000000555
 51
97.12501634890463
  0
LINE
  5
101A
330
1F
100
AcDbEntity
  8
40
  6
Continuous
 62
     7
100
AcDbLine
 10
3636.752379327256
 20
5164.740919383159
 30
0.0
 11
3708.288049421356
 21
5145.572994351459
 31
0.0
  0
LINE
  5
101B
330
1F
100
AcDbEntity
  8
40
  6
Continuous
 62
     7
100
AcDbLine
 10
3635.603817988157
 20
5164.819975534459
 30
0.0
 11
3460.992773818056
 21
5142.993595013159
 31
0.0
  0
ARC
  5
101C
330
1F
100
AcDbEntity
  8
40
  6
Continuous
 62
     7
100
AcDbCircle
 10
3697.764401297656
 20
5125.61672139856
 30
0.0
 40
3.0
100
AcDbArc
 50
255.0000000000056
 51
344.9999999999989
  0
LINE
  5
101D
330
1F
100
AcDbEntity
  8
40
  6
Continuous
 62
     7
100
AcDbLine
 10
3700.662178776556
 20
5124.84026426326
 30
0.0
 11
3704.285645407956
 21
5138.36322583136
 31
0.0
  0
LINE
  5
101E
330
1F
100
AcDbEntity
  8
40
  6
Continuous
 62
     7
100
AcDbLine
 10
3696.987944162356
 20
5122.71894391976
 30
0.0
 11
3694.119961547456
 21
5123.487417545259
 31
0.0
  0
ARC
  5
101F
330
1F
100
AcDbEntity
  8
40
  6
Continuous
 62
     7
100
AcDbCircle
 10
3701.387867929056
 20
5139.139682966661
 30
0.0
 40
3.0
100
AcDbArc
 50
344.9999999999989
 51
75.00000000000555
  0
ARC
  5
1020
330
1F
100
AcDbEntity
  8
40
  6
Continuous
 62
     7
100
AcDbCircle
 10
3707.511592286056
 20
5142.67521687256
 30
0.0
 40
3.0
100
AcDbArc
 50
344.9999999999989
 51
75.00000000000555
  0
LINE
  5
1021
330
1F
100
AcDbEntity
  8
40
  6
Continuous
 62
     7
100
AcDbLine
 10
3710.409369764956
 20
5141.89875973726
 30
0.0
 11
3704.197712682456
 21
5118.716539906359
 31
0.0
  0
ARC
  5
1022
330
1F
100
AcDbEntity
  8
40
  6
Continuous
 62
     7
100
AcDbCircle
 10
3701.299935203556
 20
5119.49299704166
 30
0.0
 40
3.0
100
AcDbArc
 50
255.0000000000056
 51
344.9999999999989
  0
LINE
  5
1023
330
1F
100
AcDbEntity
  8
40
  6
Continuous
 62
     7
100
AcDbLine
 10
3700.523478068256
 20
5116.59521956276
 30
0.0
 11
3692.825866321956
 21
5118.65778841386
 31
0.0
  0
ARC
  5
1024
330
1F
100
AcDbEntity
  8
40
  6
Continuous
 62
     7
100
AcDbCircle
 10
3638.185826900257
 20
4820.738251803859
 30
0.0
 40
3.0
100
AcDbArc
 50
0.0
 51
90.0
  0
LINE
  5
1025
330
1F
100
AcDbEntity
  8
40
  6
Continuous
 62
     7
100
AcDbLine
 10
3641.185826900256
 20
4820.738251803859
 30
0.0
 11
3641.185826900256
 21
4806.738251803859
 31
0.0
  0
LINE
  5
1026
330
1F
100
AcDbEntity
  8
40
  6
Continuous
 62
     7
100
AcDbLine
 10
3638.185826900257
 20
4823.73825180386
 30
0.0
 11
3602.881972610856
 21
4823.73825180386
 31
0.0
  0
ARC
  5
1027
330
1F
100
AcDbEntity
  8
40
  6
Continuous
 62
     7
100
AcDbCircle
 10
3638.185826900257
 20
4806.738251803859
 30
0.0
 40
3.0
100
AcDbArc
 50
270.0
 51
0.0
  0
LINE
  5
1028
102
{ACAD_REACTORS
330
2342
102
}
330
1F
100
AcDbEntity
  8
40
  6
Continuous
 62
     7
100
AcDbLine
 10
3638.185826900257
 20
4803.73825180386
 30
0.0
 11
3538.528156119456
 21
4803.73825180386
 31
0.0
  0
ARC
  5
1029
330
1F
100
AcDbEntity
  8
40
  6
Continuous
 62
     7
100
AcDbCircle
 10
3538.528156119456
 20
4806.738251803859
 30
0.0
 40
3.0
100
AcDbArc
 50
194.0362434679015
 51
270.0
  0
LINE
  5
102A
330
1F
100
AcDbEntity
  8
40
  6
Continuous
 62
     7
100
AcDbLine
 10
3535.617728619056
 20
4806.010644928759
 30
0.0
 11
3523.851124135356
 21
4853.077062863159
 31
0.0
  0
ARC
  5
102B
330
1F
100
AcDbEntity
  8
40
  6
Continuous
 62
     7
100
AcDbCircle
 10
3333.843497681056
 20
4806.738251803859
 30
0.0
 40
3.0
100
AcDbArc
 50
270.0
 51
345.9637565320984
  0
LINE
  5
102C
102
{ACAD_REACTORS
330
2342
102
}
330
1F
100
AcDbEntity
  8
40
  6
Continuous
 62
     7
100
AcDbLine
 10
3333.843497681056
 20
4803.73825180386
 30
0.0
 11
3234.185826900256
 21
4803.73825180386
 31
0.0
  0
LINE
  5
102D
330
1F
100
AcDbEntity
  8
40
  6
Continuous
 62
     7
100
AcDbLine
 10
3336.753925181457
 20
4806.010644928759
 30
0.0
 11
3348.520529665055
 21
4853.077062863159
 31
0.0
  0
ARC
  5
102E
330
1F
100
AcDbEntity
  8
40
  6
Continuous
 62
     7
100
AcDbCircle
 10
3234.185826900256
 20
4806.738251803859
 30
0.0
 40
3.0
100
AcDbArc
 50
180.0
 51
270.0
  0
LINE
  5
102F
330
1F
100
AcDbEntity
  8
40
  6
Continuous
 62
     7
100
AcDbLine
 10
3231.185826900257
 20
4806.738251803859
 30
0.0
 11
3231.185826900257
 21
4820.738251803859
 31
0.0
  0
ARC
  5
1030
330
1F
100
AcDbEntity
  8
40
  6
Continuous
 62
     7
100
AcDbCircle
 10
3234.185826900256
 20
4820.738251803859
 30
0.0
 40
3.0
100
AcDbArc
 50
90.0
 51
180.0
  0
LINE
  5
1031
330
1F
100
AcDbEntity
  8
40
  6
Continuous
 62
     7
100
AcDbLine
 10
3234.185826900256
 20
4823.73825180386
 30
0.0
 11
3269.489681189556
 21
4823.73825180386
 31
0.0
  0
ARC
  5
1032
330
1F
100
AcDbEntity
  8
40
  6
Continuous
 62
     7
100
AcDbCircle
 10
3436.185826900256
 20
5341.44917035596
 30
0.0
 40
205.0
100
AcDbArc
 50
262.8749836510954
 51
270.0
  0
LINE
  5
1033
330
1F
100
AcDbEntity
  8
40
  6
Continuous
 62
     7
100
AcDbLine
 10
3300.714671181556
 20
4823.73825180386
 30
0.0
 11
3332.128062836157
 21
4823.73825180386
 31
0.0
  0
ARC
  5
1034
330
1F
100
AcDbEntity
  8
40
  6
Continuous
 62
     7
100
AcDbCircle
 10
3269.489681189556
 20
4853.73825180386
 30
0.0
 40
35.0
100
AcDbArc
 50
321.3178125465018
 51
336.6685160776029
  0
ARC
  5
1035
330
1F
100
AcDbEntity
  8
40
  6
Continuous
 62
     7
100
AcDbCircle
 10
3332.128062836157
 20
4828.738251803859
 30
0.0
 40
5.0
100
AcDbArc
 50
270.0
 51
345.9637565320984
  0
LINE
  5
1036
330
1F
100
AcDbEntity
  8
40
  6
Continuous
 62
     7
100
AcDbLine
 10
3336.978775336956
 20
4827.525573678659
 30
0.0
 11
3343.669817164356
 21
4854.28974098836
 31
0.0
  0
ARC
  5
1037
330
1F
100
AcDbEntity
  8
40
  6
Continuous
 62
     7
100
AcDbCircle
 10
3300.714671181556
 20
4828.738251803859
 30
0.0
 40
5.0
100
AcDbArc
 50
141.3178125465018
 51
270.0
  0
ARC
  5
1038
330
1F
100
AcDbEntity
  8
40
  6
Continuous
 62
     7
100
AcDbCircle
 10
3436.185826900256
 20
4633.738251803859
 30
0.0
 40
255.0
100
AcDbArc
 50
90.0
 51
105.4374646422004
  0
ARC
  5
1039
330
1F
100
AcDbEntity
  8
40
  6
Continuous
 62
     7
100
AcDbCircle
 10
3377.624804669456
 20
4845.800994112059
 30
0.0
 40
35.0
100
AcDbArc
 50
105.4374646422004
 51
165.9637565320984
  0
ARC
  5
103A
330
1F
100
AcDbEntity
  8
40
  6
Continuous
 62
     7
100
AcDbCircle
 10
3223.578236630256
 20
4873.54075817226
 30
0.0
 40
85.0
100
AcDbArc
 50
336.6685160776029
 51
38.50122212470327
  0
ARC
  5
103B
330
1F
100
AcDbEntity
  8
40
  6
Continuous
 62
     7
100
AcDbCircle
 10
3535.872937256656
 20
5090.040226902859
 30
0.0
 40
295.0
100
AcDbArc
 50
182.8366748167024
 51
213.6652619324994
  0
ARC
  5
103C
330
1F
100
AcDbEntity
  8
40
  6
Continuous
 62
     7
100
AcDbCircle
 10
3191.192644508156
 20
5075.191126230859
 30
0.0
 40
50.0
100
AcDbArc
 50
0.0
 51
104.9999999999944
  0
ARC
  5
103D
330
1F
100
AcDbEntity
  8
40
  6
Continuous
 62
     7
100
AcDbCircle
 10
3436.185826900256
 20
5341.44917035596
 30
0.0
 40
205.0
100
AcDbArc
 50
270.0
 51
277.1250163489046
  0
LINE
  5
103E
330
1F
100
AcDbEntity
  8
40
  6
Continuous
 62
     7
100
AcDbLine
 10
3571.656982618856
 20
4823.73825180386
 30
0.0
 11
3540.243590964256
 21
4823.73825180386
 31
0.0
  0
ARC
  5
103F
330
1F
100
AcDbEntity
  8
40
  6
Continuous
 62
     7
100
AcDbCircle
 10
3602.881972610856
 20
4853.73825180386
 30
0.0
 40
35.0
100
AcDbArc
 50
203.3314839223971
 51
218.6821874534981
  0
ARC
  5
1040
330
1F
100
AcDbEntity
  8
40
  6
Continuous
 62
     7
100
AcDbCircle
 10
3540.243590964256
 20
4828.738251803859
 30
0.0
 40
5.0
100
AcDbArc
 50
194.0362434679015
 51
270.0
  0
LINE
  5
1041
330
1F
100
AcDbEntity
  8
40
  6
Continuous
 62
     7
100
AcDbLine
 10
3535.392878463556
 20
4827.525573678659
 30
0.0
 11
3528.701836636156
 21
4854.28974098836
 31
0.0
  0
ARC
  5
1042
330
1F
100
AcDbEntity
  8
40
  6
Continuous
 62
     7
100
AcDbCircle
 10
3571.656982618856
 20
4828.738251803859
 30
0.0
 40
5.0
100
AcDbArc
 50
270.0
 51
38.68218745349813
  0
ARC
  5
1043
330
1F
100
AcDbEntity
  8
40
  6
Continuous
 62
     7
100
AcDbCircle
 10
3436.185826900256
 20
4633.738251803859
 30
0.0
 40
255.0
100
AcDbArc
 50
74.56253535779959
 51
90.0
  0
ARC
  5
1044
330
1F
100
AcDbEntity
  8
40
  6
Continuous
 62
     7
100
AcDbCircle
 10
3494.746849131056
 20
4845.800994112059
 30
0.0
 40
35.0
100
AcDbArc
 50
14.0362434679016
 51
74.56253535779959
  0
ARC
  5
1045
330
1F
100
AcDbEntity
  8
40
  6
Continuous
 62
     7
100
AcDbCircle
 10
3648.793417170256
 20
4873.54075817226
 30
0.0
 40
85.0
100
AcDbArc
 50
141.4987778752967
 51
203.3314839223971
  0
ARC
  5
1046
330
1F
100
AcDbEntity
  8
40
  6
Continuous
 62
     7
100
AcDbCircle
 10
3336.498716543756
 20
5090.040226902859
 30
0.0
 40
295.0
100
AcDbArc
 50
326.3347380675006
 51
357.1633251832975
  0
ARC
  5
1047
330
1F
100
AcDbEntity
  8
40
  6
Continuous
 62
     7
100
AcDbCircle
 10
3681.179009292356
 20
5075.191126230859
 30
0.0
 40
50.0
100
AcDbArc
 50
75.00000000000555
 51
180.0
  0
ARC
  5
1048
330
1F
100
AcDbEntity
  8
40
  6
Continuous
 62
     7
100
AcDbCircle
 10
3436.185826900256
 20
4863.738251803859
 30
0.0
 40
55.0
100
AcDbArc
 50
90.0
 51
128.0452613146034
  0
ARC
  5
1049
330
1F
100
AcDbEntity
  8
40
  6
Continuous
 62
     7
100
AcDbCircle
 10
3363.683854857856
 20
4959.34234626886
 30
0.0
 40
65.0
100
AcDbArc
 50
208.8717868043993
 51
306.3049228116039
  0
ARC
  5
104A
330
1F
100
AcDbEntity
  8
40
  6
Continuous
 62
     7
100
AcDbCircle
 10
3535.872937256656
 20
5080.040226902859
 30
0.0
 40
275.0
100
AcDbArc
 50
181.5046586752002
 51
213.6652619324994
  0
ARC
  5
104B
330
1F
100
AcDbEntity
  8
40
  6
Continuous
 62
     7
100
AcDbCircle
 10
3295.955690878156
 20
5073.73825180386
 30
0.0
 40
35.0
100
AcDbArc
 50
90.0
 51
181.5046586752002
  0
LINE
  5
104C
330
1F
100
AcDbEntity
  8
40
  6
Continuous
 62
     7
100
AcDbLine
 10
3295.955690878156
 20
5108.73825180386
 30
0.0
 11
3436.185826900256
 21
5108.73825180386
 31
0.0
  0
ARC
  5
104D
330
1F
100
AcDbEntity
  8
40
  6
Continuous
 62
     7
100
AcDbCircle
 10
3436.185826900256
 20
4863.738251803859
 30
0.0
 40
55.0
100
AcDbArc
 50
51.95473868539658
 51
90.0
  0
ARC
  5
104E
330
1F
100
AcDbEntity
  8
40
  6
Continuous
 62
     7
100
AcDbCircle
 10
3508.687798942556
 20
4959.34234626886
 30
0.0
 40
65.0
100
AcDbArc
 50
233.6950771883961
 51
331.1282131956007
  0
ARC
  5
104F
330
1F
100
AcDbEntity
  8
40
  6
Continuous
 62
     7
100
AcDbCircle
 10
3336.498716543756
 20
5080.040226902859
 30
0.0
 40
275.0
100
AcDbArc
 50
326.3347380675006
 51
358.4953413247997
  0
ARC
  5
1050
330
1F
100
AcDbEntity
  8
40
  6
Continuous
 62
     7
100
AcDbCircle
 10
3576.415962922256
 20
5073.73825180386
 30
0.0
 40
35.0
100
AcDbArc
 50
358.4953413247997
 51
90.0
  0
LINE
  5
1051
330
1F
100
AcDbEntity
  8
40
  6
Continuous
 62
     7
100
AcDbLine
 10
3576.415962922256
 20
5108.73825180386
 30
0.0
 11
3436.185826900256
 21
5108.73825180386
 31
0.0
  0
ARC
  5
1052
330
1F
100
AcDbEntity
  8
40
  6
Continuous
 62
     7
100
AcDbCircle
 10
3436.185826900256
 20
5341.44917035596
 30
0.0
 40
200.0
100
AcDbArc
 50
262.8749836510954
 51
277.1250163489046
  0
ARC
  5
1053
330
1F
100
AcDbEntity
  8
40
  6
Continuous
 62
     7
100
AcDbCircle
 10
3295.955690878156
 20
5073.73825180386
 30
0.0
 40
30.0
100
AcDbArc
 50
90.0
 51
181.5046586752002
  0
LINE
  5
1054
330
1F
100
AcDbEntity
  8
40
  6
Continuous
 62
     7
100
AcDbLine
 10
3295.955690878156
 20
5103.73825180386
 30
0.0
 11
3436.185826900256
 21
5103.73825180386
 31
0.0
  0
ARC
  5
1055
330
1F
100
AcDbEntity
  8
40
  6
Continuous
 62
     7
100
AcDbCircle
 10
3535.872937256656
 20
5080.040226902859
 30
0.0
 40
270.0
100
AcDbArc
 50
181.5046586752002
 51
213.6652619324994
  0
ARC
  5
1056
330
1F
100
AcDbEntity
  8
40
  6
Continuous
 62
     7
100
AcDbCircle
 10
3363.683854857856
 20
4959.34234626886
 30
0.0
 40
60.0
100
AcDbArc
 50
208.8717868043993
 51
306.3049228116039
  0
ARC
  5
1057
330
1F
100
AcDbEntity
  8
40
  6
Continuous
 62
     7
100
AcDbCircle
 10
3436.185826900256
 20
4863.738251803859
 30
0.0
 40
60.0
100
AcDbArc
 50
90.0
 51
128.0452613146034
  0
ARC
  5
1058
330
1F
100
AcDbEntity
  8
40
  6
Continuous
 62
     7
100
AcDbCircle
 10
3535.872937256656
 20
5090.040226902859
 30
0.0
 40
300.0
100
AcDbArc
 50
182.8366748167024
 51
213.6652619324994
  0
ARC
  5
1059
330
1F
100
AcDbEntity
  8
40
  6
Continuous
 62
     7
100
AcDbCircle
 10
3269.489681189556
 20
4853.73825180386
 30
0.0
 40
30.0
100
AcDbArc
 50
270.0
 51
336.6685160776029
  0
ARC
  5
105A
330
1F
100
AcDbEntity
  8
40
  6
Continuous
 62
     7
100
AcDbCircle
 10
3223.578236630256
 20
4873.54075817226
 30
0.0
 40
80.0
100
AcDbArc
 50
336.6685160776029
 51
38.50122212470327
  0
ARC
  5
105B
330
1F
100
AcDbEntity
  8
40
  6
Continuous
 62
     7
100
AcDbCircle
 10
3377.624804669456
 20
4845.800994112059
 30
0.0
 40
30.0
100
AcDbArc
 50
105.4374646422004
 51
165.9637565320984
  0
ARC
  5
105C
330
1F
100
AcDbEntity
  8
40
  6
Continuous
 62
     7
100
AcDbCircle
 10
3436.185826900256
 20
4633.738251803859
 30
0.0
 40
250.0
100
AcDbArc
 50
90.0
 51
105.4374646422004
  0
ARC
  5
105D
330
1F
100
AcDbEntity
  8
40
  6
Continuous
 62
     7
100
AcDbCircle
 10
3191.192644508156
 20
5075.191126230859
 30
0.0
 40
45.0
100
AcDbArc
 50
0.0
 51
104.9999999999944
  0
ARC
  5
105E
330
1F
100
AcDbEntity
  8
40
  6
Continuous
 62
     7
100
AcDbCircle
 10
3576.415962922256
 20
5073.73825180386
 30
0.0
 40
30.0
100
AcDbArc
 50
358.4953413247997
 51
90.0
  0
LINE
  5
105F
330
1F
100
AcDbEntity
  8
40
  6
Continuous
 62
     7
100
AcDbLine
 10
3576.415962922256
 20
5103.73825180386
 30
0.0
 11
3436.185826900256
 21
5103.73825180386
 31
0.0
  0
ARC
  5
1060
330
1F
100
AcDbEntity
  8
40
  6
Continuous
 62
     7
100
AcDbCircle
 10
3336.498716543756
 20
5080.040226902859
 30
0.0
 40
270.0
100
AcDbArc
 50
326.3347380675006
 51
358.4953413247997
  0
ARC
  5
1061
330
1F
100
AcDbEntity
  8
40
  6
Continuous
 62
     7
100
AcDbCircle
 10
3508.687798942556
 20
4959.34234626886
 30
0.0
 40
60.0
100
AcDbArc
 50
233.6950771883961
 51
331.1282131956007
  0
ARC
  5
1062
330
1F
100
AcDbEntity
  8
40
  6
Continuous
 62
     7
100
AcDbCircle
 10
3436.185826900256
 20
4863.738251803859
 30
0.0
 40
60.0
100
AcDbArc
 50
51.95473868539658
 51
90.0
  0
ARC
  5
1063
330
1F
100
AcDbEntity
  8
40
  6
Continuous
 62
     7
100
AcDbCircle
 10
3336.498716543756
 20
5090.040226902859
 30
0.0
 40
300.0
100
AcDbArc
 50
326.3347380675006
 51
357.1633251832975
  0
ARC
  5
1064
330
1F
100
AcDbEntity
  8
40
  6
Continuous
 62
     7
100
AcDbCircle
 10
3602.881972610856
 20
4853.73825180386
 30
0.0
 40
30.0
100
AcDbArc
 50
203.3314839223971
 51
270.0
  0
ARC
  5
1065
330
1F
100
AcDbEntity
  8
40
  6
Continuous
 62
     7
100
AcDbCircle
 10
3648.793417170256
 20
4873.54075817226
 30
0.0
 40
80.0
100
AcDbArc
 50
141.4987778752967
 51
203.3314839223971
  0
ARC
  5
1066
330
1F
100
AcDbEntity
  8
40
  6
Continuous
 62
     7
100
AcDbCircle
 10
3494.746849131056
 20
4845.800994112059
 30
0.0
 40
30.0
100
AcDbArc
 50
14.0362434679016
 51
74.56253535779959
  0
ARC
  5
1067
330
1F
100
AcDbEntity
  8
40
  6
Continuous
 62
     7
100
AcDbCircle
 10
3436.185826900256
 20
4633.738251803859
 30
0.0
 40
250.0
100
AcDbArc
 50
74.56253535779959
 51
90.0
  0
ARC
  5
1068
330
1F
100
AcDbEntity
  8
40
  6
Continuous
 62
     7
100
AcDbCircle
 10
3681.179009292356
 20
5075.191126230859
 30
0.0
 40
45.0
100
AcDbArc
 50
75.00000000000555
 51
180.0
  0
LINE
  5
1069
330
1F
100
AcDbEntity
  8
40
  6
Continuous
 62
     7
100
AcDbLine
 10
2374.763071885222
 20
5116.595219562756
 30
0.0
 11
2409.763071885223
 21
5116.595219562756
 31
0.0
  0
LINE
  5
106A
330
1F
100
AcDbEntity
  8
40
  6
Continuous
 62
     7
100
AcDbLine
 10
2374.763071885222
 20
5116.595219562756
 30
0.0
 11
2374.763071885222
 21
5141.898759737256
 31
0.0
  0
LINE
  5
106B
330
1F
100
AcDbEntity
  8
40
  6
Continuous
 62
     7
100
AcDbLine
 10
2387.263071885223
 20
5066.595219562756
 30
0.0
 11
2374.763071885222
 21
5116.595219562756
 31
0.0
  0
LINE
  5
106C
330
1F
100
AcDbEntity
  8
40
  6
Continuous
 62
     7
100
AcDbLine
 10
2387.263071885223
 20
4823.738251803856
 30
0.0
 11
2387.263071885223
 21
5066.595219562756
 31
0.0
  0
LINE
  5
106D
330
1F
100
AcDbEntity
  8
40
  6
Continuous
 62
     7
100
AcDbLine
 10
2444.763071885223
 20
5116.595219562756
 30
0.0
 11
2409.763071885223
 21
5116.595219562756
 31
0.0
  0
LINE
  5
106E
330
1F
100
AcDbEntity
  8
40
  6
Continuous
 62
     7
100
AcDbLine
 10
2444.763071885223
 20
5116.595219562756
 30
0.0
 11
2444.763071885223
 21
5141.898759737256
 31
0.0
  0
LINE
  5
106F
330
1F
100
AcDbEntity
  8
40
  6
Continuous
 62
     7
100
AcDbLine
 10
2432.263071885222
 20
5066.595219562756
 30
0.0
 11
2444.763071885223
 21
5116.595219562756
 31
0.0
  0
LINE
  5
1070
330
1F
100
AcDbEntity
  8
40
  6
Continuous
 62
     7
100
AcDbLine
 10
2432.263071885222
 20
4823.738251803856
 30
0.0
 11
2432.263071885222
 21
5066.595219562756
 31
0.0
  0
LINE
  5
1071
330
1F
100
AcDbEntity
  8
40
  6
Continuous
 62
     7
100
AcDbLine
 10
844.7630718852222
 20
5116.59521956276
 30
0.0
 11
879.7630718852222
 21
5116.59521956276
 31
0.0
  0
LINE
  5
1072
330
1F
100
AcDbEntity
  8
40
  6
Continuous
 62
     7
100
AcDbLine
 10
844.7630718852222
 20
5116.59521956276
 30
0.0
 11
844.7630718852222
 21
5141.89875973726
 31
0.0
  0
LINE
  5
1073
330
1F
100
AcDbEntity
  8
40
  6
Continuous
 62
     7
100
AcDbLine
 10
857.2630718852222
 20
5066.59521956276
 30
0.0
 11
844.7630718852222
 21
5116.59521956276
 31
0.0
  0
LINE
  5
1074
330
1F
100
AcDbEntity
  8
40
  6
Continuous
 62
     7
100
AcDbLine
 10
857.2630718852222
 20
4823.73825180386
 30
0.0
 11
857.2630718852222
 21
5066.59521956276
 31
0.0
  0
LINE
  5
1075
330
1F
100
AcDbEntity
  8
40
  6
Continuous
 62
     7
100
AcDbLine
 10
914.7630718852221
 20
5116.59521956276
 30
0.0
 11
879.7630718852222
 21
5116.59521956276
 31
0.0
  0
LINE
  5
1076
330
1F
100
AcDbEntity
  8
40
  6
Continuous
 62
     7
100
AcDbLine
 10
914.7630718852221
 20
5116.59521956276
 30
0.0
 11
914.7630718852221
 21
5141.89875973726
 31
0.0
  0
LINE
  5
1077
330
1F
100
AcDbEntity
  8
40
  6
Continuous
 62
     7
100
AcDbLine
 10
902.2630718852221
 20
5066.59521956276
 30
0.0
 11
914.7630718852221
 21
5116.59521956276
 31
0.0
  0
LINE
  5
1078
330
1F
100
AcDbEntity
  8
40
  6
Continuous
 62
     7
100
AcDbLine
 10
902.2630718852221
 20
4823.73825180386
 30
0.0
 11
902.2630718852221
 21
5066.59521956276
 31
0.0
  0
LINE
  5
1079
330
1F
100
AcDbEntity
  8
40
  6
Continuous
 62
     7
100
AcDbLine
 10
2444.763071885223
 20
6177.944877844612
 30
0.0
 11
2444.763071885223
 21
6187.944877844611
 31
0.0
  0
LINE
  5
107A
330
1F
100
AcDbEntity
  8
40
  6
Continuous
 62
     7
100
AcDbLine
 10
2444.763071885223
 20
6097.944877844611
 30
0.0
 11
2444.763071885223
 21
6107.944877844611
 31
0.0
  0
LINE
  5
107B
330
1F
100
AcDbEntity
  8
40
  6
Continuous
 62
     7
100
AcDbLine
 10
2444.763071885223
 20
6017.944877844612
 30
0.0
 11
2444.763071885223
 21
6027.944877844611
 31
0.0
  0
LINE
  5
107C
330
1F
100
AcDbEntity
  8
40
  6
Continuous
 62
     7
100
AcDbLine
 10
2444.763071885223
 20
5947.944877844611
 30
0.0
 11
2444.763071885223
 21
5937.944877844611
 31
0.0
  0
LINE
  5
107D
330
1F
100
AcDbEntity
  8
40
  6
Continuous
 62
     7
100
AcDbLine
 10
2444.763071885223
 20
5857.944877844611
 30
0.0
 11
2444.763071885223
 21
5867.944877844611
 31
0.0
  0
LINE
  5
107E
330
1F
100
AcDbEntity
  8
40
  6
Continuous
 62
     7
100
AcDbLine
 10
2444.763071885223
 20
5777.944877844611
 30
0.0
 11
2444.763071885223
 21
5787.944877844611
 31
0.0
  0
LINE
  5
107F
330
1F
100
AcDbEntity
  8
3
100
AcDbLine
 10
2444.763071885223
 20
5777.944877844611
 30
0.0
 11
2444.763071885223
 21
5707.944877844611
 31
0.0
  0
LINE
  5
1080
330
1F
100
AcDbEntity
  8
3
100
AcDbLine
 10
2444.763071885223
 20
5857.944877844611
 30
0.0
 11
2444.763071885223
 21
5787.944877844611
 31
0.0
  0
LINE
  5
1081
330
1F
100
AcDbEntity
  8
3
100
AcDbLine
 10
2444.763071885223
 20
5937.944877844611
 30
0.0
 11
2444.763071885223
 21
5867.944877844611
 31
0.0
  0
LINE
  5
1082
330
1F
100
AcDbEntity
  8
3
100
AcDbLine
 10
2444.763071885223
 20
6017.944877844612
 30
0.0
 11
2444.763071885223
 21
5947.944877844611
 31
0.0
  0
LINE
  5
1083
330
1F
100
AcDbEntity
  8
3
100
AcDbLine
 10
2444.763071885223
 20
6097.944877844611
 30
0.0
 11
2444.763071885223
 21
6027.944877844611
 31
0.0
  0
LINE
  5
1084
330
1F
100
AcDbEntity
  8
3
100
AcDbLine
 10
2444.763071885223
 20
6177.944877844612
 30
0.0
 11
2444.763071885223
 21
6107.944877844611
 31
0.0
  0
LINE
  5
1085
330
1F
100
AcDbEntity
  8
3
100
AcDbLine
 10
2444.763071885223
 20
6257.944877844611
 30
0.0
 11
2444.763071885223
 21
6187.944877844611
 31
0.0
  0
LINE
  5
1086
330
1F
100
AcDbEntity
  8
40
  6
Continuous
 62
     7
100
AcDbLine
 10
2374.763071885222
 20
6177.944877844612
 30
0.0
 11
2374.763071885222
 21
6187.944877844611
 31
0.0
  0
LINE
  5
1087
330
1F
100
AcDbEntity
  8
40
  6
Continuous
 62
     7
100
AcDbLine
 10
2374.763071885222
 20
6097.944877844611
 30
0.0
 11
2374.763071885222
 21
6107.944877844611
 31
0.0
  0
LINE
  5
1088
330
1F
100
AcDbEntity
  8
40
  6
Continuous
 62
     7
100
AcDbLine
 10
2374.763071885222
 20
6017.944877844612
 30
0.0
 11
2374.763071885222
 21
6027.944877844611
 31
0.0
  0
LINE
  5
1089
330
1F
100
AcDbEntity
  8
40
  6
Continuous
 62
     7
100
AcDbLine
 10
2374.763071885222
 20
5947.944877844611
 30
0.0
 11
2374.763071885222
 21
5937.944877844611
 31
0.0
  0
LINE
  5
108A
330
1F
100
AcDbEntity
  8
40
  6
Continuous
 62
     7
100
AcDbLine
 10
2374.763071885222
 20
5857.944877844611
 30
0.0
 11
2374.763071885222
 21
5867.944877844611
 31
0.0
  0
LINE
  5
108B
330
1F
100
AcDbEntity
  8
40
  6
Continuous
 62
     7
100
AcDbLine
 10
2374.763071885222
 20
5777.944877844611
 30
0.0
 11
2374.763071885222
 21
5787.944877844611
 31
0.0
  0
LINE
  5
108C
330
1F
100
AcDbEntity
  8
3
100
AcDbLine
 10
2374.763071885222
 20
5777.944877844611
 30
0.0
 11
2374.763071885222
 21
5707.944877844611
 31
0.0
  0
LINE
  5
108D
330
1F
100
AcDbEntity
  8
3
100
AcDbLine
 10
2374.763071885222
 20
5857.944877844611
 30
0.0
 11
2374.763071885222
 21
5787.944877844611
 31
0.0
  0
LINE
  5
108E
330
1F
100
AcDbEntity
  8
3
100
AcDbLine
 10
2374.763071885222
 20
5937.944877844611
 30
0.0
 11
2374.763071885222
 21
5867.944877844611
 31
0.0
  0
LINE
  5
108F
330
1F
100
AcDbEntity
  8
3
100
AcDbLine
 10
2374.763071885222
 20
6017.944877844612
 30
0.0
 11
2374.763071885222
 21
5947.944877844611
 31
0.0
  0
LINE
  5
1090
330
1F
100
AcDbEntity
  8
3
100
AcDbLine
 10
2374.763071885222
 20
6097.944877844611
 30
0.0
 11
2374.763071885222
 21
6027.944877844611
 31
0.0
  0
LINE
  5
1091
330
1F
100
AcDbEntity
  8
3
100
AcDbLine
 10
2374.763071885222
 20
6177.944877844612
 30
0.0
 11
2374.763071885222
 21
6107.944877844611
 31
0.0
  0
LINE
  5
1092
330
1F
100
AcDbEntity
  8
3
100
AcDbLine
 10
2374.763071885222
 20
6257.944877844611
 30
0.0
 11
2374.763071885222
 21
6187.944877844611
 31
0.0
  0
LINE
  5
1093
330
1F
100
AcDbEntity
  8
40
  6
Continuous
 62
     7
100
AcDbLine
 10
914.7630718852221
 20
6177.944877844615
 30
0.0
 11
914.7630718852221
 21
6187.944877844615
 31
0.0
  0
LINE
  5
1094
330
1F
100
AcDbEntity
  8
40
  6
Continuous
 62
     7
100
AcDbLine
 10
914.7630718852221
 20
6097.944877844614
 30
0.0
 11
914.7630718852221
 21
6107.944877844615
 31
0.0
  0
LINE
  5
1095
330
1F
100
AcDbEntity
  8
40
  6
Continuous
 62
     7
100
AcDbLine
 10
914.7630718852221
 20
6017.944877844615
 30
0.0
 11
914.7630718852221
 21
6027.944877844615
 31
0.0
  0
LINE
  5
1096
330
1F
100
AcDbEntity
  8
40
  6
Continuous
 62
     7
100
AcDbLine
 10
914.7630718852221
 20
5947.944877844615
 30
0.0
 11
914.7630718852221
 21
5937.944877844614
 31
0.0
  0
LINE
  5
1097
330
1F
100
AcDbEntity
  8
40
  6
Continuous
 62
     7
100
AcDbLine
 10
914.7630718852221
 20
5857.944877844615
 30
0.0
 11
914.7630718852221
 21
5867.944877844615
 31
0.0
  0
LINE
  5
1098
330
1F
100
AcDbEntity
  8
40
  6
Continuous
 62
     7
100
AcDbLine
 10
914.7630718852221
 20
5777.944877844615
 30
0.0
 11
914.7630718852221
 21
5787.944877844615
 31
0.0
  0
LINE
  5
1099
330
1F
100
AcDbEntity
  8
3
100
AcDbLine
 10
914.7630718852221
 20
5777.944877844615
 30
0.0
 11
914.7630718852221
 21
5707.944877844615
 31
0.0
  0
LINE
  5
109A
330
1F
100
AcDbEntity
  8
3
100
AcDbLine
 10
914.7630718852221
 20
5857.944877844615
 30
0.0
 11
914.7630718852221
 21
5787.944877844615
 31
0.0
  0
LINE
  5
109B
330
1F
100
AcDbEntity
  8
3
100
AcDbLine
 10
914.7630718852221
 20
5937.944877844614
 30
0.0
 11
914.7630718852221
 21
5867.944877844615
 31
0.0
  0
LINE
  5
109C
330
1F
100
AcDbEntity
  8
3
100
AcDbLine
 10
914.7630718852221
 20
6017.944877844615
 30
0.0
 11
914.7630718852221
 21
5947.944877844615
 31
0.0
  0
LINE
  5
109D
330
1F
100
AcDbEntity
  8
3
100
AcDbLine
 10
914.7630718852221
 20
6097.944877844614
 30
0.0
 11
914.7630718852221
 21
6027.944877844615
 31
0.0
  0
LINE
  5
109E
330
1F
100
AcDbEntity
  8
3
100
AcDbLine
 10
914.7630718852221
 20
6177.944877844615
 30
0.0
 11
914.7630718852221
 21
6107.944877844615
 31
0.0
  0
LINE
  5
109F
330
1F
100
AcDbEntity
  8
3
100
AcDbLine
 10
914.7630718852221
 20
6257.944877844614
 30
0.0
 11
914.7630718852221
 21
6187.944877844615
 31
0.0
  0
LINE
  5
10A0
330
1F
100
AcDbEntity
  8
40
  6
Continuous
 62
     7
100
AcDbLine
 10
844.7630718852222
 20
6177.944877844615
 30
0.0
 11
844.7630718852222
 21
6187.944877844615
 31
0.0
  0
LINE
  5
10A1
330
1F
100
AcDbEntity
  8
40
  6
Continuous
 62
     7
100
AcDbLine
 10
844.7630718852222
 20
6097.944877844614
 30
0.0
 11
844.7630718852222
 21
6107.944877844615
 31
0.0
  0
LINE
  5
10A2
330
1F
100
AcDbEntity
  8
40
  6
Continuous
 62
     7
100
AcDbLine
 10
844.7630718852222
 20
6017.944877844615
 30
0.0
 11
844.7630718852222
 21
6027.944877844615
 31
0.0
  0
LINE
  5
10A3
330
1F
100
AcDbEntity
  8
40
  6
Continuous
 62
     7
100
AcDbLine
 10
844.7630718852222
 20
5947.944877844615
 30
0.0
 11
844.7630718852222
 21
5937.944877844614
 31
0.0
  0
LINE
  5
10A4
330
1F
100
AcDbEntity
  8
40
  6
Continuous
 62
     7
100
AcDbLine
 10
844.7630718852222
 20
5857.944877844615
 30
0.0
 11
844.7630718852222
 21
5867.944877844615
 31
0.0
  0
LINE
  5
10A5
330
1F
100
AcDbEntity
  8
40
  6
Continuous
 62
     7
100
AcDbLine
 10
844.7630718852222
 20
5777.944877844615
 30
0.0
 11
844.7630718852222
 21
5787.944877844615
 31
0.0
  0
LINE
  5
10A6
330
1F
100
AcDbEntity
  8
3
100
AcDbLine
 10
844.7630718852222
 20
5777.944877844615
 30
0.0
 11
844.7630718852222
 21
5707.944877844615
 31
0.0
  0
LINE
  5
10A7
330
1F
100
AcDbEntity
  8
3
100
AcDbLine
 10
844.7630718852222
 20
5857.944877844615
 30
0.0
 11
844.7630718852222
 21
5787.944877844615
 31
0.0
  0
LINE
  5
10A8
330
1F
100
AcDbEntity
  8
3
100
AcDbLine
 10
844.7630718852222
 20
5937.944877844614
 30
0.0
 11
844.7630718852222
 21
5867.944877844615
 31
0.0
  0
LINE
  5
10A9
330
1F
100
AcDbEntity
  8
3
100
AcDbLine
 10
844.7630718852222
 20
6017.944877844615
 30
0.0
 11
844.7630718852222
 21
5947.944877844615
 31
0.0
  0
LINE
  5
10AA
330
1F
100
AcDbEntity
  8
3
100
AcDbLine
 10
844.7630718852222
 20
6097.944877844614
 30
0.0
 11
844.7630718852222
 21
6027.944877844615
 31
0.0
  0
LINE
  5
10AB
330
1F
100
AcDbEntity
  8
3
100
AcDbLine
 10
844.7630718852222
 20
6177.944877844615
 30
0.0
 11
844.7630718852222
 21
6107.944877844615
 31
0.0
  0
LINE
  5
10AC
330
1F
100
AcDbEntity
  8
3
100
AcDbLine
 10
844.7630718852222
 20
6257.944877844614
 30
0.0
 11
844.7630718852222
 21
6187.944877844615
 31
0.0
  0
INSERT
  5
1207
330
1F
100
AcDbEntity
  8
0
370
     0
100
AcDbBlockReference
  2
IGS_A3
 10
155.6482664838559
 20
3718.607540556322
 30
0.0
 41
10.0
 42
10.0
 43
10.0
1001
GENIUS_GENOREF_13
1005
1211
1001
GENIUS_GENODEF_13
1002
{
1000
HIER
1070
     0
1002
}
1002
{
1000
MANEDIT
1070
     0
1002
}
1002
{
1000
NOSEL
1070
     0
1002
}
1002
{
1000
BEHIND
1070
     0
1002
}
1002
{
1000
OTHER
1070
     0
1002
}
1002
{
1000
REACTOR
1002
}
1001
GENIUS_GENOBJ-N-SDF_13
1002
{
1000
OWNER
1000
GEN
1002
}
1001
GENIUS_GENSCREG_15
1040
10.0
1040
1.0
1011
155.6482664838559
1021
3718.607540556322
1031
0.0
1011
4355.648266483856
1021
6688.607540556322
1031
0.0
1070
     3
  0
INSERT
  5
1208
330
1F
100
AcDbEntity
  8
0
370
     0
100
AcDbBlockReference
 66
     1
  2
IGS2
 10
4255.648266483856
 20
3818.607540556321
 30
0.0
 41
10.0
 42
10.0
 43
10.0
1001
GENIUS_GENOREF_13
1005
1211
  0
ATTRIB
  5
120A
330
1208
100
AcDbEntity
  8
RAHM3
100
AcDbText
 10
2783.052399352001
 20
4138.080430538183
 30
0.0
 40
40.0
  1
1:10
100
AcDbAttribute
  2
GEN-TITLE-SCA
 70
     0
  0
ATTRIB
  5
120B
330
1208
100
AcDbEntity
  8
RAHM3
100
AcDbText
 10
3524.748266483856
 20
4116.007540556321
 30
0.0
 40
50.0
  1
ベンチ（背なしタイプ）
100
AcDbAttribute
  2
ＴＩＴＬＥ
 70
     0
  0
ATTRIB
  5
120C
330
1208
100
AcDbEntity
  8
RAHM3
100
AcDbText
 10
3540.019484925451
 20
4036.65137182746
 30
0.0
 40
30.0
  1
IB-02
100
AcDbAttribute
  2
ｃｏｄｅ
 70
     0
  0
ATTRIB
  5
120D
330
1208
100
AcDbEntity
  8
RAHM3
100
AcDbText
 10
3548.200201544225
 20
3966.651371827388
 30
0.0
 40
30.0
  1
L=1800
100
AcDbAttribute
  2
件名
 70
     0
  0
ATTRIB
  5
120E
330
1208
100
AcDbEntity
  8
RAHM3
100
AcDbText
 10
3524.748266483856
 20
3836.007540556249
 30
0.0
 40
50.0
  1
Ｔ２６Ａ０８００２
100
AcDbAttribute
  2
Ｎｏ．
 70
     0
  0
ATTRIB
  5
120F
330
1208
100
AcDbEntity
  8
RAHM3
100
AcDbText
 10
3251.148266483856
 20
3992.678433767588
 30
0.0
 40
40.0
  1

100
AcDbAttribute
  2
ＤＲ
 70
     0
  0
ATTRIB
  5
1210
330
1208
100
AcDbEntity
  8
RAHM3
100
AcDbText
 10
3218.467413445127
 20
3946.307540556322
 30
0.0
 40
30.0
  1

 41
0.8000000000000001
100
AcDbAttribute
  2
ｄａｔｅ
 70
     0
  0
SEQEND
  5
1209
330
1208
100
AcDbEntity
  8
0
370
     0
  0
POINT
  5
1211
330
1F
100
AcDbEntity
  8
0
 60
     1
100
AcDbPoint
 10
0.0
 20
0.0
 30
0.0
1001
GENIUS_GENOENT_13
1002
{
1000
MYREF
1005
1211
1002
}
1002
{
1000
GRP
1005
0
1002
}
1001
GENIUS_GENOBJ-N-TIT_13
1002
{
1000
OWNER
1000
GEN
1002
}
1001
GENIUS_GENODEF_13
1002
{
1000
HIER
1070
     1
1002
}
1002
{
1000
MANEDIT
1070
     0
1002
}
1002
{
1000
NOSEL
1070
     0
1002
}
1002
{
1000
BEHIND
1070
     0
1002
}
1002
{
1000
OTHER
1070
     0
1002
}
1002
{
1000
REACTOR
1002
}
1001
GENIUS_GENOLIS_13
1002
{
1000
ENT
1005
1208
1005
1207
1002
}
1001
GENIUS_GENTITLE_13
1002
{
1000
BORDER
1000
C:\WINNT\Profiles\Administrator\Application Data\Autodesk\AutoCAD\Recent\format\igs_a3
1002
}
1002
{
1000
TITLE
1000
C:\WINNT\Profiles\Administrator\Application Data\Autodesk\AutoCAD\Recent\format\IGS2
1002
}
1002
{
1000
SCALE
1000
1:10
1002
}
1002
{
1000
TITLESTD
1000
IGS
1002
}
1002
{
1000
HRA
1005
1207
1002
}
1002
{
1000
HTIT
1005
1208
1002
}
1002
{
1000
UNCHG
1002
{
1000
GEN-TITLE-SIZ
1000
GEN-TITLE-SCA
1002
}
1002
}
1002
{
1000
GENIUSID
1005
1211
1002
}
  0
DIMENSION
  5
1430
330
1F
100
AcDbEntity
  8
AM_5
100
AcDbDimension
  2
*D19
 10
3621.185826900256
 20
4472.721827850142
 30
0.0
 11
3436.185826900256
 21
4502.721827850141
 31
0.0
 70
    32
 71
     5
 42
370.0
  3
IGS
100
AcDbAlignedDimension
 13
3251.185826900256
 23
4783.408878745659
 33
0.0
 14
3621.185826900256
 24
4783.408878745659
 34
0.0
100
AcDbRotatedDimension
1001
ACAD
1000
DSTYLE
1002
{
1070
    40
1040
10.0
1002
}
  0
INSERT
  5
148C
330
1F
100
AcDbEntity
  8
40
100
AcDbBlockReference
  2
A$C031D521E
 10
899.7630718852224
 20
6142.944877844612
 30
0.0
  0
INSERT
  5
148E
330
1F
100
AcDbEntity
  8
40
100
AcDbBlockReference
  2
A$C031D521E
 10
899.7630718852212
 20
5982.944877844615
 30
0.0
  0
INSERT
  5
148F
330
1F
100
AcDbEntity
  8
40
100
AcDbBlockReference
  2
A$C031D521E
 10
899.7630718852208
 20
5902.944877844615
 30
0.0
  0
INSERT
  5
1490
330
1F
100
AcDbEntity
  8
40
100
AcDbBlockReference
  2
A$C031D521E
 10
899.7630718852208
 20
5822.944877844615
 30
0.0
  0
INSERT
  5
1491
330
1F
100
AcDbEntity
  8
40
100
AcDbBlockReference
  2
A$C031D521E
 10
899.7630718852224
 20
5742.944877844615
 30
0.0
  0
INSERT
  5
1492
330
1F
100
AcDbEntity
  8
40
100
AcDbBlockReference
  2
A$C031D521E
 10
899.7630718852256
 20
6222.944877844611
 30
0.0
  0
INSERT
  5
14C8
330
1F
100
AcDbEntity
  8
40
100
AcDbBlockReference
  2
A$C031D521E
 10
899.7630718852221
 20
6062.944877844611
 30
0.0
  0
INSERT
  5
14D0
330
1F
100
AcDbEntity
  8
40
100
AcDbBlockReference
  2
A$C031D521E
 10
2389.763071885219
 20
6222.944877844607
 30
0.0
 41
-1.0
  0
INSERT
  5
14D1
330
1F
100
AcDbEntity
  8
40
100
AcDbBlockReference
  2
A$C031D521E
 10
2389.763071885222
 20
6142.944877844608
 30
0.0
 41
-1.0
  0
INSERT
  5
14D2
330
1F
100
AcDbEntity
  8
40
100
AcDbBlockReference
  2
A$C031D521E
 10
2389.763071885222
 20
6062.944877844607
 30
0.0
 41
-1.0
  0
INSERT
  5
14D3
330
1F
100
AcDbEntity
  8
40
100
AcDbBlockReference
  2
A$C031D521E
 10
2389.763071885223
 20
5982.944877844611
 30
0.0
 41
-1.0
  0
INSERT
  5
14D4
330
1F
100
AcDbEntity
  8
40
100
AcDbBlockReference
  2
A$C031D521E
 10
2389.763071885223
 20
5902.944877844611
 30
0.0
 41
-1.0
  0
INSERT
  5
14D5
330
1F
100
AcDbEntity
  8
40
100
AcDbBlockReference
  2
A$C031D521E
 10
2389.763071885223
 20
5822.944877844611
 30
0.0
 41
-1.0
  0
INSERT
  5
14D6
330
1F
100
AcDbEntity
  8
40
100
AcDbBlockReference
  2
A$C031D521E
 10
2389.763071885222
 20
5742.944877844611
 30
0.0
 41
-1.0
  0
AMDTACMWBLOCKBOMENTITY
  5
16F6
330
1F
100
AcDbEntity
  8
40
 92
        8
310
0800000000000000
1001
ACAD
1000
AcRTDxfName
1000
AMDTACMWBLOCKBOMENTITY
  0
INSERT
  5
185F
102
{ACAD_REACTORS
330
185C
102
}
330
1F
100
AcDbEntity
  8
AM_12
100
AcDbBlockReference
  2
*S25
 10
0.0
 20
0.0
 30
0.0
1001
ACAD
1000
AcRTDxfName
1000
ACMPARTREF
  0
INSERT
  5
1866
102
{ACAD_REACTORS
330
1865
102
}
330
1F
100
AcDbEntity
  8
AM_5
100
AcDbBlockReference
  2
*S26
 10
0.0
 20
0.0
 30
0.0
1001
ACAD
1000
AcRTDxfName
1000
ACMBALLOON
  0
INSERT
  5
1868
102
{ACAD_REACTORS
330
1867
102
}
330
1F
100
AcDbEntity
  8
AM_12
100
AcDbBlockReference
  2
*S27
 10
0.0
 20
0.0
 30
0.0
1001
ACAD
1000
AcRTDxfName
1000
ACMPARTREF
  0
INSERT
  5
186D
102
{ACAD_REACTORS
330
186C
102
}
330
1F
100
AcDbEntity
  8
AM_5
100
AcDbBlockReference
  2
*S28
 10
0.0
 20
0.0
 30
0.0
1001
ACAD
1000
AcRTDxfName
1000
ACMBALLOON
  0
INSERT
  5
1957
330
1F
100
AcDbEntity
  8
AM_0
100
AcDbBlockReference
  2
GENZOOQ0Z3AP2
 10
2217.507003958814
 20
4189.193732741474
 30
0.0
 41
5.0
 42
5.0
 43
5.0
  0
AMDTACMWBLOCKBOMENTITY
  5
195B
330
1F
100
AcDbEntity
  8
AM_5
 92
        8
310
0800000000000000
1001
ACAD
1000
AcRTDxfName
1000
AMDTACMWBLOCKBOMENTITY
  0
INSERT
  5
195C
330
1F
100
AcDbEntity
  8
AM_0
100
AcDbBlockReference
  2
GENZOOVJU7AP2
 10
1368.268624490753
 20
4178.038780636867
 30
0.0
 41
5.0
 42
5.0
 43
5.0
  0
AMDTACMWBLOCKBOMENTITY
  5
1960
330
1F
100
AcDbEntity
  8
AM_5
 92
        8
310
0800000000000000
1001
ACAD
1000
AcRTDxfName
1000
AMDTACMWBLOCKBOMENTITY
  0
MTEXT
  5
1961
330
1F
100
AcDbEntity
  8
AM_6
 62
    30
370
    70
100
AcDbMText
 10
1014.49891053985
 20
3929.719017756859
 30
0.0
 40
70.0
 41
703.9842536944
 71
     1
 72
     5
  1
{\C7;A断面図 S=1/2}
 73
     1
 44
1.0
1001
GENIUS_AMGTXT_16
1040
7.0
1040
0.24
  0
MTEXT
  5
1962
330
1F
100
AcDbEntity
  8
AM_6
 62
    30
370
    70
100
AcDbMText
 10
1954.848156910429
 20
3929.719017756859
 30
0.0
 40
70.0
 41
703.9842536944
 71
     1
 72
     5
  1
{\C7;B断面図 S=1/2}
 73
     1
 44
1.0
1001
GENIUS_AMGTXT_16
1040
7.0
1040
0.24
  0
AMDTACMWBLOCKBOMENTITY
  5
1965
330
1F
100
AcDbEntity
  8
AM_5
 92
        8
310
0800000000000000
1001
ACAD
1000
AcRTDxfName
1000
AMDTACMWBLOCKBOMENTITY
  0
INSERT
  5
1A3D
102
{ACAD_REACTORS
330
1A3C
102
}
330
1F
100
AcDbEntity
  8
AM_12
100
AcDbBlockReference
  2
*S29
 10
0.0
 20
0.0
 30
0.0
1001
ACAD
1000
AcRTDxfName
1000
ACMPARTREF
  0
INSERT
  5
1A44
102
{ACAD_REACTORS
330
1A43
102
}
330
1F
100
AcDbEntity
  8
AM_5
100
AcDbBlockReference
  2
*S30
 10
0.0
 20
0.0
 30
0.0
1001
ACAD
1000
AcRTDxfName
1000
ACMBALLOON
  0
INSERT
  5
1A50
102
{ACAD_REACTORS
330
1A4F
102
}
330
1F
100
AcDbEntity
  8
AM_12
100
AcDbBlockReference
  2
*S31
 10
0.0
 20
0.0
 30
0.0
1001
ACAD
1000
AcRTDxfName
1000
ACMPARTREF
  0
INSERT
  5
1A55
102
{ACAD_REACTORS
330
1A54
102
}
330
1F
100
AcDbEntity
  8
AM_5
100
AcDbBlockReference
  2
*S32
 10
0.0
 20
0.0
 30
0.0
1001
ACAD
1000
AcRTDxfName
1000
ACMBALLOON
  0
INSERT
  5
1A61
102
{ACAD_REACTORS
330
1A60
102
}
330
1F
100
AcDbEntity
  8
AM_12
100
AcDbBlockReference
  2
*S33
 10
0.0
 20
0.0
 30
0.0
1001
ACAD
1000
AcRTDxfName
1000
ACMPARTREF
  0
INSERT
  5
1A66
102
{ACAD_REACTORS
330
1A65
102
}
330
1F
100
AcDbEntity
  8
AM_5
100
AcDbBlockReference
  2
*S34
 10
0.0
 20
0.0
 30
0.0
1001
ACAD
1000
AcRTDxfName
1000
ACMBALLOON
  0
INSERT
  5
1A68
102
{ACAD_REACTORS
330
1A67
102
}
330
1F
100
AcDbEntity
  8
AM_12
100
AcDbBlockReference
  2
*S35
 10
0.0
 20
0.0
 30
0.0
1001
ACAD
1000
AcRTDxfName
1000
ACMPARTREF
  0
INSERT
  5
1A6F
102
{ACAD_REACTORS
330
1A6E
102
}
330
1F
100
AcDbEntity
  8
AM_5
100
AcDbBlockReference
  2
*S36
 10
0.0
 20
0.0
 30
0.0
1001
ACAD
1000
AcRTDxfName
1000
ACMBALLOON
  0
INSERT
  5
1A70
102
{ACAD_REACTORS
330
4A6
102
}
330
1F
100
AcDbEntity
  8
40
100
AcDbBlockReference
  2
*S37
 10
0.0
 20
0.0
 30
0.0
1001
ACAD
1000
AcRTDxfName
1000
ACMPARTLIST
  0
HATCH
  5
2342
330
1F
100
AcDbEntity
  8
AM_8
100
AcDbHatch
 10
0.0
 20
0.0
 30
0.0
210
0.0
220
0.0
230
1.0
  2
PLAST
 70
     0
 71
     1
 91
        1
 92
        7
 72
     0
 73
     1
 93
        8
 10
3333.843497681056
 20
4803.73825180386
 10
3234.185826900256
 20
4803.73825180386
 10
3186.185826900256
 20
4803.73825180386
 10
3186.185826900256
 20
4603.738251803858
 10
3686.185826900255
 20
4603.73825180386
 10
3686.185826900257
 20
4803.73825180386
 10
3638.185826900257
 20
4803.73825180386
 10
3538.528156119456
 20
4803.73825180386
 97
        8
330
FF2
330
1028
330
FF6
330
102C
330
FF4
330
FFB
330
FF8
330
FF9
 75
     0
 76
     1
 52
45.0
 41
8.0
 77
     0
 78
     3
 53
45.0
 43
150.0
 44
0.0
 45
-35.92102448427661
 46
35.92102448427662
 79
     0
 53
45.0
 43
145.5098719394654
 44
4.490128060534576
 45
-35.92102448427661
 46
35.92102448427662
 79
     0
 53
45.0
 43
141.0197438789308
 44
8.980256121069153
 45
-35.92102448427661
 46
35.92102448427662
 79
     0
 47
3.730728814714329
 98
        1
 10
3375.984089591446
 20
4722.757436995673
  0
LINE
  5
23AC
330
1F
100
AcDbEntity
  8
0
100
AcDbLine
 10
3367.723684236541
 20
3980.396199356537
 30
0.0
 11
3273.967777070872
 21
3980.396199356537
 31
0.0
  0
LINE
  5
23AD
330
1F
100
AcDbEntity
  8
0
100
AcDbLine
 10
3367.723684236541
 20
4015.178808044537
 30
0.0
 11
3273.967777070872
 21
4015.178808044537
 31
0.0
  0
CIRCLE
  5
23AE
330
1F
100
AcDbEntity
  8
0
100
AcDbCircle
 10
3320.845730653707
 20
3997.787503700537
 30
0.0
 40
49.99999998900111
  0
TEXT
  5
23AF
330
1F
100
AcDbEntity
  8
TEXT
100
AcDbText
 10
3277.167097687413
 20
3984.744025442537
 30
0.0
 40
26.086956516
  1
08.03.14
 41
0.7126739926739825
 72
     5
 11
3361.758402016628
 21
3984.744025442537
 31
0.0
100
AcDbText
  0
TEXT
  5
23B0
330
1F
100
AcDbEntity
  8
0
100
AcDbText
 10
3310.172597451729
 20
3951.227245087642
 30
0.0
 40
25.00000000000055
  1
本
 72
     4
 11
3321.839264118395
 21
3963.727245087643
 31
0.0
100
AcDbText
  0
TEXT
  5
23B1
330
1F
100
AcDbEntity
  8
0
100
AcDbText
 10
3308.588615652229
 20
4017.550223416891
 30
0.0
 40
25.00000000000055
  1
松
 72
     4
 11
3320.255282318896
 21
4030.050223416892
 31
0.0
100
AcDbText
  0
LINE
  5
24DF
330
1F
100
AcDbEntity
  8
40
  6
Continuous
 62
     7
100
AcDbLine
 10
1667.263071885222
 20
4823.738251803856
 30
0.0
 11
1667.263071885222
 21
5066.595219562756
 31
0.0
  0
LINE
  5
24E0
330
1F
100
AcDbEntity
  8
40
  6
Continuous
 62
     7
100
AcDbLine
 10
1667.263071885222
 20
5066.595219562756
 30
0.0
 11
1679.763071885222
 21
5116.595219562756
 31
0.0
  0
LINE
  5
24E1
330
1F
100
AcDbEntity
  8
40
  6
Continuous
 62
     7
100
AcDbLine
 10
1679.763071885222
 20
5116.595219562756
 30
0.0
 11
1679.763071885222
 21
5141.898759737256
 31
0.0
  0
LINE
  5
24E2
330
1F
100
AcDbEntity
  8
40
  6
Continuous
 62
     7
100
AcDbLine
 10
1679.763071885222
 20
5116.595219562756
 30
0.0
 11
1644.763071885222
 21
5116.595219562756
 31
0.0
  0
LINE
  5
24E3
330
1F
100
AcDbEntity
  8
40
  6
Continuous
 62
     7
100
AcDbLine
 10
1622.263071885222
 20
4823.738251803856
 30
0.0
 11
1622.263071885222
 21
5066.595219562756
 31
0.0
  0
LINE
  5
24E4
330
1F
100
AcDbEntity
  8
40
  6
Continuous
 62
     7
100
AcDbLine
 10
1622.263071885222
 20
5066.595219562756
 30
0.0
 11
1609.763071885222
 21
5116.595219562756
 31
0.0
  0
LINE
  5
24E5
330
1F
100
AcDbEntity
  8
40
  6
Continuous
 62
     7
100
AcDbLine
 10
1609.763071885222
 20
5116.595219562756
 30
0.0
 11
1609.763071885222
 21
5141.898759737256
 31
0.0
  0
LINE
  5
24E6
330
1F
100
AcDbEntity
  8
40
  6
Continuous
 62
     7
100
AcDbLine
 10
1609.763071885222
 20
5116.595219562756
 30
0.0
 11
1644.763071885222
 21
5116.595219562756
 31
0.0
  0
LINE
  5
24E7
102
{ACAD_REACTORS
330
26E7
102
}
330
1F
100
AcDbEntity
  8
40
  6
Continuous
 62
     7
100
AcDbLine
 10
1617.263071885222
 20
4803.738251803856
 30
0.0
 11
1672.263071885222
 21
4803.738251803856
 31
0.0
  0
LINE
  5
24E8
102
{ACAD_REACTORS
330
26E7
102
}
330
1F
100
AcDbEntity
  8
40
  6
Continuous
 62
     7
100
AcDbLine
 10
1544.763071885222
 20
4803.738251803856
 30
0.0
 11
1544.763071885222
 21
4553.738251803856
 31
0.0
  0
LINE
  5
24E9
330
1F
100
AcDbEntity
  8
40
  6
Continuous
 62
     7
100
AcDbLine
 10
1544.763071885222
 20
4553.738251803856
 30
0.0
 11
1744.763071885222
 21
4553.738251803856
 31
0.0
  0
LINE
  5
24EA
102
{ACAD_REACTORS
330
26E7
102
}
330
1F
100
AcDbEntity
  8
40
  6
Continuous
 62
     7
100
AcDbLine
 10
1744.763071885222
 20
4553.738251803856
 30
0.0
 11
1744.763071885222
 21
4803.738251803856
 31
0.0
  0
LINE
  5
24EB
102
{ACAD_REACTORS
330
26E7
102
}
330
1F
100
AcDbEntity
  8
40
  6
Continuous
 62
     7
100
AcDbLine
 10
1744.763071885222
 20
4603.738251803855
 30
0.0
 11
1544.763071885222
 21
4603.738251803855
 31
0.0
  0
LINE
  5
24EC
102
{ACAD_REACTORS
330
26E7
102
}
330
1F
100
AcDbEntity
  8
40
  6
Continuous
 62
     7
100
AcDbLine
 10
1544.763071885222
 20
4803.738251803856
 30
0.0
 11
1617.263071885222
 21
4803.738251803856
 31
0.0
  0
LINE
  5
24ED
102
{ACAD_REACTORS
330
26E7
102
}
330
1F
100
AcDbEntity
  8
40
  6
Continuous
 62
     7
100
AcDbLine
 10
1672.263071885222
 20
4803.738251803856
 30
0.0
 11
1744.763071885222
 21
4803.738251803856
 31
0.0
  0
CIRCLE
  5
24EE
330
1F
100
AcDbEntity
  8
40
  6
Continuous
 62
     7
100
AcDbCircle
 10
1559.555410837422
 20
4568.819037939955
 30
0.0
 40
10.0
  0
CIRCLE
  5
24EF
330
1F
100
AcDbEntity
  8
40
  6
Continuous
 62
     7
100
AcDbCircle
 10
1592.440242972921
 20
4579.901105912355
 30
0.0
 40
10.0
  0
CIRCLE
  5
24F0
330
1F
100
AcDbEntity
  8
40
  6
Continuous
 62
     7
100
AcDbCircle
 10
1568.951077161822
 20
4588.814943194456
 30
0.0
 40
10.0
  0
CIRCLE
  5
24F1
330
1F
100
AcDbEntity
  8
40
  6
Continuous
 62
     7
100
AcDbCircle
 10
1625.445532368922
 20
4588.814943194456
 30
0.0
 40
10.0
  0
CIRCLE
  5
24F2
330
1F
100
AcDbEntity
  8
40
  6
Continuous
 62
     7
100
AcDbCircle
 10
1648.934698180022
 20
4573.275956581055
 30
0.0
 40
10.0
  0
CIRCLE
  5
24F3
330
1F
100
AcDbEntity
  8
40
  6
Continuous
 62
     7
100
AcDbCircle
 10
1613.640720833122
 20
4568.819037939955
 30
0.0
 40
10.0
  0
CIRCLE
  5
24F4
330
1F
100
AcDbEntity
  8
40
  6
Continuous
 62
     7
100
AcDbCircle
 10
1672.423863991022
 20
4584.358024553456
 30
0.0
 40
10.0
  0
CIRCLE
  5
24F5
330
1F
100
AcDbEntity
  8
40
  6
Continuous
 62
     7
100
AcDbCircle
 10
1707.717841337922
 20
4588.814943194456
 30
0.0
 40
10.0
  0
CIRCLE
  5
24F6
330
1F
100
AcDbEntity
  8
40
  6
Continuous
 62
     7
100
AcDbCircle
 10
1700.731320224922
 20
4568.819037939955
 30
0.0
 40
10.0
  0
CIRCLE
  5
24F7
330
1F
100
AcDbEntity
  8
40
  6
Continuous
 62
     7
100
AcDbCircle
 10
1728.918319198222
 20
4575.444187271256
 30
0.0
 40
10.0
  0
CIRCLE
  5
24F8
330
1F
100
AcDbEntity
  8
40
  6
Continuous
 62
     7
100
AcDbCircle
 10
1553.536563050922
 20
4589.593900146155
 30
0.0
 40
5.0
  0
CIRCLE
  5
24F9
330
1F
100
AcDbEntity
  8
40
  6
Continuous
 62
     7
100
AcDbCircle
 10
1576.557283959822
 20
4570.909640617855
 30
0.0
 40
5.0
  0
CIRCLE
  5
24FA
330
1F
100
AcDbEntity
  8
40
  6
Continuous
 62
     7
100
AcDbCircle
 10
1592.243496113922
 20
4561.005376970956
 30
0.0
 40
5.0
  0
CIRCLE
  5
24FB
330
1F
100
AcDbEntity
  8
40
  6
Continuous
 62
     7
100
AcDbCircle
 10
1599.578004868622
 20
4597.517311063656
 30
0.0
 40
5.0
  0
CIRCLE
  5
24FC
330
1F
100
AcDbEntity
  8
40
  6
Continuous
 62
     7
100
AcDbCircle
 10
1609.000439473222
 20
4586.649389332256
 30
0.0
 40
5.0
  0
CIRCLE
  5
24FD
330
1F
100
AcDbEntity
  8
40
  6
Continuous
 62
     7
100
AcDbCircle
 10
1634.055549671622
 20
4564.003424345155
 30
0.0
 40
5.0
  0
CIRCLE
  5
24FE
330
1F
100
AcDbEntity
  8
40
  6
Continuous
 62
     7
100
AcDbCircle
 10
1642.460789631422
 20
4596.500116418856
 30
0.0
 40
5.0
  0
CIRCLE
  5
24FF
330
1F
100
AcDbEntity
  8
40
  6
Continuous
 62
     7
100
AcDbCircle
 10
1665.427973980022
 20
4562.022571615755
 30
0.0
 40
5.0
  0
CIRCLE
  5
2500
330
1F
100
AcDbEntity
  8
40
  6
Continuous
 62
     7
100
AcDbCircle
 10
1687.377963683722
 20
4597.517311063656
 30
0.0
 40
5.0
  0
CIRCLE
  5
2501
330
1F
100
AcDbEntity
  8
40
  6
Continuous
 62
     7
100
AcDbCircle
 10
1684.272843189122
 20
4565.930740514256
 30
0.0
 40
5.0
  0
CIRCLE
  5
2502
330
1F
100
AcDbEntity
  8
40
  6
Continuous
 62
     7
100
AcDbCircle
 10
1719.821119197122
 20
4564.003424345155
 30
0.0
 40
5.0
  0
CIRCLE
  5
2503
330
1F
100
AcDbEntity
  8
40
  6
Continuous
 62
     7
100
AcDbCircle
 10
1729.243553801723
 20
4593.555605604856
 30
0.0
 40
5.0
  0
CIRCLE
  5
2504
330
1F
100
AcDbEntity
  8
40
  6
Continuous
 62
     7
100
AcDbCircle
 10
1738.665988406222
 20
4561.005376970956
 30
0.0
 40
5.0
  0
CIRCLE
  5
2505
330
1F
100
AcDbEntity
  8
40
  6
Continuous
 62
     7
100
AcDbCircle
 10
1658.147001785521
 20
4589.593900146155
 30
0.0
 40
5.0
  0
LINE
  5
2506
330
1F
100
AcDbEntity
  8
7
100
AcDbLine
 10
1644.763071885222
 20
5225.762884753356
 30
0.0
 11
1644.763071885222
 21
4788.588898413455
 31
0.0
  0
LINE
  5
2507
330
1F
100
AcDbEntity
  8
40
  6
Continuous
 62
     7
100
AcDbLine
 10
1617.263071885222
 20
4820.738251803856
 30
0.0
 11
1617.263071885222
 21
4803.738251803856
 31
0.0
  0
LINE
  5
2508
330
1F
100
AcDbEntity
  8
40
  6
Continuous
 62
     7
100
AcDbLine
 10
1620.263071885222
 20
4823.738251803856
 30
0.0
 11
1644.763071885222
 21
4823.738251803856
 31
0.0
  0
ARC
  5
2509
330
1F
100
AcDbEntity
  8
40
  6
Continuous
 62
     7
100
AcDbCircle
 10
1620.263071885222
 20
4820.738251803856
 30
0.0
 40
3.0
100
AcDbArc
 50
90.0
 51
180.0
  0
LINE
  5
250A
330
1F
100
AcDbEntity
  8
40
  6
Continuous
 62
     7
100
AcDbLine
 10
1672.263071885222
 20
4820.738251803856
 30
0.0
 11
1672.263071885222
 21
4803.738251803856
 31
0.0
  0
LINE
  5
250B
330
1F
100
AcDbEntity
  8
40
  6
Continuous
 62
     7
100
AcDbLine
 10
1669.263071885222
 20
4823.738251803856
 30
0.0
 11
1644.763071885222
 21
4823.738251803856
 31
0.0
  0
ARC
  5
250C
330
1F
100
AcDbEntity
  8
40
  6
Continuous
 62
     7
100
AcDbCircle
 10
1669.263071885222
 20
4820.738251803856
 30
0.0
 40
3.0
100
AcDbArc
 50
0.0
 51
90.0
  0
INSERT
  5
250E
330
1F
100
AcDbEntity
  8
40
100
AcDbBlockReference
  2
A$C031D521E
 10
1624.763071885222
 20
5742.944877844611
 30
0.0
 41
-1.0
  0
INSERT
  5
250F
330
1F
100
AcDbEntity
  8
40
100
AcDbBlockReference
  2
A$C031D521E
 10
1624.763071885223
 20
5822.944877844611
 30
0.0
 41
-1.0
  0
INSERT
  5
2510
330
1F
100
AcDbEntity
  8
40
100
AcDbBlockReference
  2
A$C031D521E
 10
1624.763071885223
 20
5902.944877844611
 30
0.0
 41
-1.0
  0
INSERT
  5
2511
330
1F
100
AcDbEntity
  8
40
100
AcDbBlockReference
  2
A$C031D521E
 10
1624.763071885223
 20
5982.944877844611
 30
0.0
 41
-1.0
  0
INSERT
  5
2512
330
1F
100
AcDbEntity
  8
40
100
AcDbBlockReference
  2
A$C031D521E
 10
1624.763071885222
 20
6062.944877844607
 30
0.0
 41
-1.0
  0
INSERT
  5
2513
330
1F
100
AcDbEntity
  8
40
100
AcDbBlockReference
  2
A$C031D521E
 10
1624.763071885222
 20
6142.944877844608
 30
0.0
 41
-1.0
  0
INSERT
  5
2514
330
1F
100
AcDbEntity
  8
40
100
AcDbBlockReference
  2
A$C031D521E
 10
1624.763071885219
 20
6222.944877844607
 30
0.0
 41
-1.0
  0
LINE
  5
2515
330
1F
100
AcDbEntity
  8
3
100
AcDbLine
 10
1609.763071885222
 20
6257.944877844611
 30
0.0
 11
1609.763071885222
 21
6187.944877844611
 31
0.0
  0
LINE
  5
2516
330
1F
100
AcDbEntity
  8
3
100
AcDbLine
 10
1609.763071885222
 20
6177.944877844612
 30
0.0
 11
1609.763071885222
 21
6107.944877844611
 31
0.0
  0
LINE
  5
2517
330
1F
100
AcDbEntity
  8
3
100
AcDbLine
 10
1609.763071885222
 20
6097.944877844611
 30
0.0
 11
1609.763071885222
 21
6027.944877844611
 31
0.0
  0
LINE
  5
2518
330
1F
100
AcDbEntity
  8
3
100
AcDbLine
 10
1609.763071885222
 20
6017.944877844612
 30
0.0
 11
1609.763071885222
 21
5947.944877844611
 31
0.0
  0
LINE
  5
2519
330
1F
100
AcDbEntity
  8
3
100
AcDbLine
 10
1609.763071885222
 20
5937.944877844611
 30
0.0
 11
1609.763071885222
 21
5867.944877844611
 31
0.0
  0
LINE
  5
251A
330
1F
100
AcDbEntity
  8
3
100
AcDbLine
 10
1609.763071885222
 20
5857.944877844611
 30
0.0
 11
1609.763071885222
 21
5787.944877844611
 31
0.0
  0
LINE
  5
251B
330
1F
100
AcDbEntity
  8
3
100
AcDbLine
 10
1609.763071885222
 20
5777.944877844611
 30
0.0
 11
1609.763071885222
 21
5707.944877844611
 31
0.0
  0
LINE
  5
251C
330
1F
100
AcDbEntity
  8
40
  6
Continuous
 62
     7
100
AcDbLine
 10
1609.763071885222
 20
5777.944877844611
 30
0.0
 11
1609.763071885222
 21
5787.944877844611
 31
0.0
  0
LINE
  5
251D
330
1F
100
AcDbEntity
  8
40
  6
Continuous
 62
     7
100
AcDbLine
 10
1609.763071885222
 20
5857.944877844611
 30
0.0
 11
1609.763071885222
 21
5867.944877844611
 31
0.0
  0
LINE
  5
251E
330
1F
100
AcDbEntity
  8
40
  6
Continuous
 62
     7
100
AcDbLine
 10
1609.763071885222
 20
5947.944877844611
 30
0.0
 11
1609.763071885222
 21
5937.944877844611
 31
0.0
  0
LINE
  5
251F
330
1F
100
AcDbEntity
  8
40
  6
Continuous
 62
     7
100
AcDbLine
 10
1609.763071885222
 20
6017.944877844612
 30
0.0
 11
1609.763071885222
 21
6027.944877844611
 31
0.0
  0
LINE
  5
2520
330
1F
100
AcDbEntity
  8
40
  6
Continuous
 62
     7
100
AcDbLine
 10
1609.763071885222
 20
6097.944877844611
 30
0.0
 11
1609.763071885222
 21
6107.944877844611
 31
0.0
  0
LINE
  5
2521
330
1F
100
AcDbEntity
  8
40
  6
Continuous
 62
     7
100
AcDbLine
 10
1609.763071885222
 20
6177.944877844612
 30
0.0
 11
1609.763071885222
 21
6187.944877844611
 31
0.0
  0
LINE
  5
2522
330
1F
100
AcDbEntity
  8
3
100
AcDbLine
 10
1679.763071885222
 20
6257.944877844611
 30
0.0
 11
1679.763071885222
 21
6187.944877844611
 31
0.0
  0
LINE
  5
2523
330
1F
100
AcDbEntity
  8
3
100
AcDbLine
 10
1679.763071885222
 20
6177.944877844612
 30
0.0
 11
1679.763071885222
 21
6107.944877844611
 31
0.0
  0
LINE
  5
2524
330
1F
100
AcDbEntity
  8
3
100
AcDbLine
 10
1679.763071885222
 20
6097.944877844611
 30
0.0
 11
1679.763071885222
 21
6027.944877844611
 31
0.0
  0
LINE
  5
2525
330
1F
100
AcDbEntity
  8
3
100
AcDbLine
 10
1679.763071885222
 20
6017.944877844612
 30
0.0
 11
1679.763071885222
 21
5947.944877844611
 31
0.0
  0
LINE
  5
2526
330
1F
100
AcDbEntity
  8
3
100
AcDbLine
 10
1679.763071885222
 20
5937.944877844611
 30
0.0
 11
1679.763071885222
 21
5867.944877844611
 31
0.0
  0
LINE
  5
2527
330
1F
100
AcDbEntity
  8
3
100
AcDbLine
 10
1679.763071885222
 20
5857.944877844611
 30
0.0
 11
1679.763071885222
 21
5787.944877844611
 31
0.0
  0
LINE
  5
2528
330
1F
100
AcDbEntity
  8
3
100
AcDbLine
 10
1679.763071885222
 20
5777.944877844611
 30
0.0
 11
1679.763071885222
 21
5707.944877844611
 31
0.0
  0
LINE
  5
2529
330
1F
100
AcDbEntity
  8
40
  6
Continuous
 62
     7
100
AcDbLine
 10
1679.763071885222
 20
5777.944877844611
 30
0.0
 11
1679.763071885222
 21
5787.944877844611
 31
0.0
  0
LINE
  5
252A
330
1F
100
AcDbEntity
  8
40
  6
Continuous
 62
     7
100
AcDbLine
 10
1679.763071885222
 20
5857.944877844611
 30
0.0
 11
1679.763071885222
 21
5867.944877844611
 31
0.0
  0
LINE
  5
252B
330
1F
100
AcDbEntity
  8
40
  6
Continuous
 62
     7
100
AcDbLine
 10
1679.763071885222
 20
5947.944877844611
 30
0.0
 11
1679.763071885222
 21
5937.944877844611
 31
0.0
  0
LINE
  5
252C
330
1F
100
AcDbEntity
  8
40
  6
Continuous
 62
     7
100
AcDbLine
 10
1679.763071885222
 20
6017.944877844612
 30
0.0
 11
1679.763071885222
 21
6027.944877844611
 31
0.0
  0
LINE
  5
252D
330
1F
100
AcDbEntity
  8
40
  6
Continuous
 62
     7
100
AcDbLine
 10
1679.763071885222
 20
6097.944877844611
 30
0.0
 11
1679.763071885222
 21
6107.944877844611
 31
0.0
  0
LINE
  5
252E
330
1F
100
AcDbEntity
  8
40
  6
Continuous
 62
     7
100
AcDbLine
 10
1679.763071885222
 20
6177.944877844612
 30
0.0
 11
1679.763071885222
 21
6187.944877844611
 31
0.0
  0
LINE
  5
252F
330
1F
100
AcDbEntity
  8
7
100
AcDbLine
 10
1644.763071885222
 20
5685.836405395512
 30
0.0
 11
1644.763071885222
 21
6282.634602439212
 31
0.0
  0
DIMENSION
  5
253F
330
1F
100
AcDbEntity
  8
AM_5
100
AcDbDimension
  2
*D23
 10
1644.763071885222
 20
5351.34009573196
 30
0.0
 11
1262.263071885222
 21
5381.34009573196
 31
0.0
 70
    32
 71
     5
 42
765.0000000000002
  3
IGS
100
AcDbAlignedDimension
 13
879.7630718852222
 23
5231.34009573196
 33
0.0
 14
1644.763071885222
 24
5225.762884753356
 34
0.0
100
AcDbRotatedDimension
1001
ACAD
1000
DSTYLE
1002
{
1070
    40
1040
10.0
1070
   174
1070
     1
1002
}
  0
DIMENSION
  5
2565
330
1F
100
AcDbEntity
  8
AM_5
100
AcDbDimension
  2
*D24
 10
1644.763071885222
 20
5351.34009573196
 30
0.0
 11
2027.263071885222
 21
5381.34009573196
 31
0.0
 70
    32
 71
     5
 42
765.0
  3
IGS
100
AcDbAlignedDimension
 13
2409.763071885223
 23
5225.762884753356
 33
0.0
 14
1644.763071885222
 24
5225.762884753355
 34
0.0
100
AcDbRotatedDimension
1001
ACAD
1000
DSTYLE
1002
{
1070
   174
1070
     1
1070
    40
1040
10.0
1002
}
  0
LINE
  5
2592
330
1F
100
AcDbEntity
  8
40
  6
Continuous
 62
     7
100
AcDbLine
 10
1667.263071885222
 20
4914.588251803857
 30
0.0
 11
2387.263071885223
 21
4914.588251803856
 31
0.0
  0
LINE
  5
2593
330
1F
100
AcDbEntity
  8
40
  6
Continuous
 62
     7
100
AcDbLine
 10
1622.263071885222
 20
4892.888251803857
 30
0.0
 11
902.2630718852221
 21
4892.88825180386
 31
0.0
  0
HATCH
  5
26E7
330
1F
100
AcDbEntity
  8
AM_8
100
AcDbHatch
 10
0.0
 20
0.0
 30
0.0
210
0.0
220
0.0
230
1.0
  2
PLAST
 70
     0
 71
     1
 91
        3
 92
        7
 72
     0
 73
     1
 93
        6
 10
979.7630718852222
 20
4803.73825180386
 10
907.2630718852222
 20
4803.73825180386
 10
852.2630718852221
 20
4803.73825180386
 10
779.7630718852222
 20
4803.73825180386
 10
779.7630718852222
 20
4603.73825180386
 10
979.7630718852222
 20
4603.73825180386
 97
        6
330
FEB
330
1007
330
FED
330
1003
330
1000
330
1001
 92
        7
 72
     0
 73
     1
 93
        6
 10
1744.763071885222
 20
4803.738251803856
 10
1672.263071885222
 20
4803.738251803856
 10
1617.263071885222
 20
4803.738251803856
 10
1544.763071885222
 20
4803.738251803855
 10
1544.763071885222
 20
4603.738251803855
 10
1744.763071885222
 20
4603.738251803855
 97
        6
330
24ED
330
24E7
330
24EC
330
24E8
330
24EB
330
24EA
 92
        7
 72
     0
 73
     1
 93
        6
 10
2509.763071885223
 20
4803.738251803856
 10
2437.263071885223
 20
4803.738251803856
 10
2382.263071885223
 20
4803.738251803856
 10
2309.763071885223
 20
4803.738251803855
 10
2309.763071885223
 20
4603.738251803855
 10
2509.763071885223
 20
4603.738251803855
 97
        6
330
FEF
330
1006
330
FF1
330
FFF
330
FFC
330
FFD
 75
     0
 76
     1
 52
45.0
 41
10.0
 77
     0
 78
     3
 53
45.0
 43
0.0
 44
0.0
 45
-44.90128060534575
 46
44.90128060534576
 79
     0
 53
45.0
 43
-5.61266007566822
 44
5.612660075668221
 45
-44.90128060534575
 46
44.90128060534576
 79
     0
 53
45.0
 43
-11.22532015133644
 44
11.22532015133644
 45
-44.90128060534575
 46
44.90128060534576
 79
     0
 47
4.183136323087321
 98
        3
 10
911.0501587202907
 20
4687.909302959766
 10
1656.226135186974
 20
4692.092435052483
 10
2359.538286466003
 20
4671.176753688001
  0
MTEXT
  5
26F3
330
1F
100
AcDbEntity
  8
1
100
AcDbMText
 10
3876.70299339617
 20
6045.277229598656
 30
0.0
 40
40.0
 41
290.1481018707418
 71
     1
 72
     5
  1
重量：40kg
 73
     1
 44
1.0
  0
ENDSEC
  0
SECTION
  2
OBJECTS
  0
DICTIONARY
  5
C
330
0
100
AcDbDictionary
281
     1
  3
ACAD_COLOR
350
985
  3
ACAD_GROUP
350
D
  3
ACAD_LAYOUT
350
1A
  3
ACAD_MATERIAL
350
984
  3
ACAD_MLINESTYLE
350
17
  3
ACAD_PLOTSETTINGS
350
19
  3
ACAD_PLOTSTYLENAME
350
E
  3
AcDbVariableDictionary
350
43
  3
AcmDictionary
350
55
  3
AMG
350
2B
  3
AMGSNAPSETTINGS
350
A8
  3
ASE_INDEX_DICTIONARY
350
942
  0
DICTIONARY
  5
147C
330
2
100
AcDbDictionary
280
     1
281
     1
  3
ACAD_LAYERSTATES
360
147D
  0
DICTIONARY
  5
B1
330
1F
100
AcDbDictionary
280
     1
281
     1
  3
ACAD_INDEX
360
271F
  0
DICTIONARY
  5
1467
330
1466
100
AcDbDictionary
280
     1
281
     1
  0
DICTIONARY
  5
985
102
{ACAD_REACTORS
330
C
102
}
330
C
100
AcDbDictionary
281
     1
  0
DICTIONARY
  5
D
102
{ACAD_REACTORS
330
C
102
}
330
C
100
AcDbDictionary
281
     1
  0
DICTIONARY
  5
1A
102
{ACAD_REACTORS
330
C
102
}
330
C
100
AcDbDictionary
281
     1
  3
Model
350
22
  3
ﾚｲｱｳﾄ1
350
1E
  3
ﾚｲｱｳﾄ2
350
26
  0
DICTIONARY
  5
984
102
{ACAD_REACTORS
330
C
102
}
330
C
100
AcDbDictionary
281
     1
  0
DICTIONARY
  5
17
102
{ACAD_REACTORS
330
C
102
}
330
C
100
AcDbDictionary
281
     1
  3
Standard
350
18
  0
DICTIONARY
  5
19
102
{ACAD_REACTORS
330
C
102
}
330
C
100
AcDbDictionary
281
     1
  0
ACDBDICTIONARYWDFLT
  5
E
102
{ACAD_REACTORS
330
C
102
}
330
C
100
AcDbDictionary
281
     1
  3
Normal
350
F
100
AcDbDictionaryWithDefault
340
F
  0
DICTIONARY
  5
43
102
{ACAD_REACTORS
330
C
102
}
330
C
100
AcDbDictionary
281
     1
  3
DIMASSOC
350
276D
  3
INDEXCTL
350
44
  3
PROJECTNAME
350
276E
  3
SORTENTS
350
774
  0
DICTIONARY
  5
55
102
{ACAD_REACTORS
330
C
102
}
330
C
100
AcDbDictionary
281
     1
  3
AcmBOM
350
3D1
  3
AcmStdDictionary
350
59
  3
AMDTSECTSYM_ARROWCOLOR
350
98E
  0
DICTIONARY
  5
2B
102
{ACAD_REACTORS
330
C
102
}
330
C
100
AcDbDictionary
281
     1
  0
DICTIONARY
  5
A8
102
{ACAD_REACTORS
330
C
102
}
330
C
100
AcDbDictionary
281
     1
  0
DICTIONARY
  5
942
102
{ACAD_REACTORS
330
C
102
}
330
C
100
AcDbDictionary
281
     1
  3
ASEBlockHierarchyIndexRecord
350
944
1001
DCO15
1040
1418113613.734
  0
DICTIONARY
  5
147D
102
{ACAD_REACTORS
330
147C
102
}
330
147C
100
AcDbDictionary
281
     1
  0
DICTIONARY
  5
271F
102
{ACAD_REACTORS
330
B1
102
}
330
B1
100
AcDbDictionary
281
     1
  3
*A1
350
2720
  0
LAYOUT
  5
22
102
{ACAD_REACTORS
330
1A
102
}
330
1A
100
AcDbPlotSettings
  1

  2
Kyocera KM-C2520(J) KX
  4
A3
  6
AM_VIEW1
 40
4.984749794006347
 41
5.111746788024902
 42
5.154083251953125
 43
4.9847412109375
 44
297.0106506347656
 45
419.9889831542968
 46
4.94
 47
12.45
 48
0.0
 49
0.0
140
0.0
141
0.0
142
1.0
143
10.0
 70
 11940
 72
     1
 73
     1
 74
     2
  7
KY-monochrome.ctb
 75
     0
147
0.1
 76
     0
 77
     2
 78
   300
148
-405.6482664838559
149
-3818.607540556321
100
AcDbLayout
  1
Model
 70
     1
 71
     0
 10
0.0
 20
0.0
 11
12.0
 21
9.0
 12
0.0
 22
0.0
 32
0.0
 14
0.0
 24
0.0
 34
0.0
 15
0.0
 25
0.0
 35
0.0
146
0.0
 13
0.0
 23
0.0
 33
0.0
 16
1.0
 26
0.0
 36
0.0
 17
0.0
 27
1.0
 37
0.0
 76
     0
330
1F
  0
LAYOUT
  5
1E
102
{ACAD_REACTORS
330
1A
102
}
330
1A
100
AcDbPlotSettings
  1

  2
MUTOH RL-803C(ﾌﾟﾛｯﾀﾓｰﾄﾞ)
  4

  6

 40
0.0
 41
0.0
 42
0.0
 43
0.0
 44
0.0
 45
0.0
 46
0.0
 47
0.0
 48
0.0
 49
0.0
140
0.0
141
0.0
142
1.0
143
1.0
 70
   688
 72
     0
 73
     0
 74
     5
  7
KY-monochrome.ctb
 75
    16
147
1.0
 76
     0
 77
     2
 78
   300
148
0.0
149
0.0
100
AcDbLayout
  1
ﾚｲｱｳﾄ1
 70
     1
 71
     1
 10
0.0
 20
0.0
 11
420.0
 21
297.0
 12
0.0
 22
0.0
 32
0.0
 14
1.000000000000000E+20
 24
1.000000000000000E+20
 34
1.000000000000000E+20
 15
-1.000000000000000E+20
 25
-1.000000000000000E+20
 35
-1.000000000000000E+20
146
0.0
 13
0.0
 23
0.0
 33
0.0
 16
1.0
 26
0.0
 36
0.0
 17
0.0
 27
1.0
 37
0.0
 76
     0
330
1B
  0
LAYOUT
  5
26
102
{ACAD_REACTORS
330
1A
102
}
330
1A
100
AcDbPlotSettings
  1

  2
MUTOH RL-803C(ﾌﾟﾛｯﾀﾓｰﾄﾞ)
  4

  6

 40
0.0
 41
0.0
 42
0.0
 43
0.0
 44
0.0
 45
0.0
 46
0.0
 47
0.0
 48
0.0
 49
0.0
140
0.0
141
0.0
142
1.0
143
1.0
 70
   688
 72
     0
 73
     0
 74
     5
  7
KY-monochrome.ctb
 75
    16
147
1.0
 76
     0
 77
     2
 78
   300
148
0.0
149
0.0
100
AcDbLayout
  1
ﾚｲｱｳﾄ2
 70
     1
 71
     2
 10
0.0
 20
0.0
 11
12.0
 21
9.0
 12
0.0
 22
0.0
 32
0.0
 14
0.0
 24
0.0
 34
0.0
 15
0.0
 25
0.0
 35
0.0
146
0.0
 13
0.0
 23
0.0
 33
0.0
 16
1.0
 26
0.0
 36
0.0
 17
0.0
 27
1.0
 37
0.0
 76
     0
330
23
  0
MLINESTYLE
  5
18
102
{ACAD_REACTORS
330
17
102
}
330
17
100
AcDbMlineStyle
  2
STANDARD
 70
     0
  3

 62
   256
 51
90.0
 52
90.0
 71
     2
 49
0.5
 62
   256
  6
BYLAYER
 49
-0.5
 62
   256
  6
BYLAYER
  0
ACDBPLACEHOLDER
  5
F
102
{ACAD_REACTORS
330
E
102
}
330
E
  0
DICTIONARYVAR
  5
276D
102
{ACAD_REACTORS
330
43
102
}
330
43
100
DictionaryVariables
280
     0
  1
1
  0
DICTIONARYVAR
  5
44
102
{ACAD_REACTORS
330
43
102
}
330
43
100
DictionaryVariables
280
     0
  1
1
  0
DICTIONARYVAR
  5
276E
102
{ACAD_REACTORS
330
43
102
}
330
43
100
DictionaryVariables
280
     0
  1

  0
DICTIONARYVAR
  5
774
102
{ACAD_REACTORS
330
43
102
}
330
43
100
DictionaryVariables
280
     0
  1
103
  0
DICTIONARY
  5
3D1
102
{ACAD_REACTORS
330
55
102
}
330
55
100
AcDbDictionary
281
     1
  0
DICTIONARY
  5
59
102
{ACAD_REACTORS
330
55
102
}
330
55
100
AcDbDictionary
281
     1
  0
XRECORD
  5
98E
102
{ACAD_REACTORS
330
55
102
}
330
55
100
AcDbXrecord
280
     1
 90
-1023410169
  0
XRECORD
  5
944
102
{ACAD_REACTORS
330
942
102
}
330
942
100
AcDbXrecord
280
     1
330
0
330
0
330
0
330
0
  0
LAYER_INDEX
  5
2720
102
{ACAD_REACTORS
330
271F
102
}
330
271F
100
AcDbIndex
 40
2454719.480508716
100
AcDbLayerIndex
  8
0
360
2721
 90
        8
  8
RAHM2
360
2722
 90
        0
  8
AM_BOR
360
2723
 90
        0
  8
RAHM3
360
2724
 90
        0
  8
1
360
2725
 90
        1
  8
DEFPOINTS
360
2726
 90
        0
  8
7A
360
2727
 90
        0
  8
AM_5
360
2728
 90
       12
  8
40
360
2729
 90
      479
  8
5
360
272A
 90
       11
  8
7
360
272B
 90
       11
  8
3
360
272C
 90
       42
  8
AM_0N
360
272D
 90
        0
  8
AM_0
360
272E
 90
        2
  8
AM_8
360
272F
 90
        2
  8
AM_6
360
2730
 90
        2
  8
AM_12
360
2731
 90
        6
  8
AM_PAREF
360
2732
 90
        0
  8
外形線１
360
2733
 90
        0
  8
AM_7
360
2734
 90
        0
  8
AM_7N
360
2735
 90
        0
  8
AM_4N
360
2736
 90
        0
  8
AM_3N
360
2737
 90
        0
  8
TEXT
360
2738
 90
        1
  0
IDBUFFER
  5
2721
330
0
100
AcDbIdBuffer
330
1207
330
1208
330
1211
330
23AC
330
23AD
330
23AE
330
23B0
330
23B1
  0
IDBUFFER
  5
2722
330
0
100
AcDbIdBuffer
  0
IDBUFFER
  5
2723
330
0
100
AcDbIdBuffer
  0
IDBUFFER
  5
2724
330
0
100
AcDbIdBuffer
  0
IDBUFFER
  5
2725
330
0
100
AcDbIdBuffer
330
26F3
  0
IDBUFFER
  5
2726
330
0
100
AcDbIdBuffer
  0
IDBUFFER
  5
2727
330
0
100
AcDbIdBuffer
  0
IDBUFFER
  5
2728
330
0
100
AcDbIdBuffer
330
1430
330
1866
330
186D
330
195B
330
1960
330
1965
330
1A44
330
1A55
330
1A66
330
1A6F
330
253F
330
2565
  0
IDBUFFER
  5
2729
330
0
100
AcDbIdBuffer
330
E5C
330
E5D
330
E5E
330
E5F
330
ED5
330
ED6
330
ED7
330
ED8
330
ED9
330
EDA
330
EDB
330
EDC
330
EDD
330
EDE
330
EDF
330
EE0
330
EE1
330
EE2
330
EE3
330
EE4
330
EE5
330
EE6
330
EE7
330
EE8
330
EE9
330
EEA
330
EEB
330
EEC
330
EED
330
EEE
330
EEF
330
EF0
330
EF1
330
EF2
330
EF3
330
EF4
330
EF5
330
EF6
330
EF7
330
EF8
330
EF9
330
EFA
330
EFB
330
EFC
330
EFD
330
EFE
330
EFF
330
F00
330
F01
330
F02
330
F03
330
F04
330
F05
330
F06
330
F07
330
F08
330
F09
330
F0A
330
F0B
330
F0C
330
F0F
330
F10
330
F14
330
F15
330
F16
330
F17
330
F18
330
F19
330
F1A
330
F1B
330
F1C
330
F1D
330
F1E
330
F1F
330
F20
330
F21
330
F22
330
F23
330
F24
330
F25
330
F26
330
F27
330
F28
330
F29
330
F2A
330
F2B
330
F2C
330
F2D
330
F2E
330
F2F
330
F30
330
F31
330
F32
330
F33
330
F34
330
F35
330
F36
330
F37
330
F38
330
F39
330
F3A
330
F3B
330
F3C
330
F3D
330
F3E
330
F3F
330
F40
330
F41
330
F42
330
F43
330
F44
330
F45
330
F46
330
F47
330
F48
330
F49
330
F4A
330
F4B
330
F4C
330
F4D
330
F4E
330
F4F
330
F51
330
F52
330
F53
330
F54
330
F55
330
F56
330
F57
330
F59
330
F5A
330
F5B
330
F5C
330
F5D
330
F5E
330
F5F
330
F60
330
F61
330
F62
330
F63
330
F64
330
F65
330
F66
330
F67
330
F68
330
F69
330
F6A
330
F6B
330
F6C
330
F6D
330
F6E
330
F6F
330
F70
330
F71
330
F72
330
F73
330
F74
330
F75
330
F76
330
F77
330
F88
330
F89
330
F8A
330
F8B
330
F8C
330
F8D
330
F8E
330
F8F
330
F90
330
F91
330
F92
330
F93
330
F94
330
F95
330
F96
330
F97
330
F98
330
F99
330
F9A
330
F9B
330
F9C
330
F9D
330
F9E
330
F9F
330
FA0
330
FA1
330
FA2
330
FA3
330
FA4
330
FA5
330
FA6
330
FA7
330
FA8
330
FA9
330
FAA
330
FAB
330
FAC
330
FAD
330
FAE
330
FAF
330
FB0
330
FB1
330
FB2
330
FB3
330
FB4
330
FB5
330
FB6
330
FB7
330
FC4
330
FC5
330
FC6
330
FC7
330
FC8
330
FC9
330
FCA
330
FCB
330
FCC
330
FCD
330
FCE
330
FCF
330
FD0
330
FD1
330
FD2
330
FD3
330
FD4
330
FD5
330
FD6
330
FD7
330
FD8
330
FD9
330
FDA
330
FDB
330
FEB
330
FEC
330
FED
330
FEE
330
FEF
330
FF0
330
FF1
330
FF2
330
FF3
330
FF4
330
FF5
330
FF6
330
FF8
330
FF9
330
FFA
330
FFB
330
FFC
330
FFD
330
FFE
330
FFF
330
1000
330
1001
330
1002
330
1003
330
1004
330
1005
330
1006
330
1007
330
1008
330
1009
330
100A
330
100B
330
100C
330
100D
330
100E
330
100F
330
1010
330
1011
330
1012
330
1013
330
1014
330
1015
330
1016
330
1017
330
1018
330
1019
330
101A
330
101B
330
101C
330
101D
330
101E
330
101F
330
1020
330
1021
330
1022
330
1023
330
1024
330
1025
330
1026
330
1027
330
1028
330
1029
330
102A
330
102B
330
102C
330
102D
330
102E
330
102F
330
1030
330
1031
330
1032
330
1033
330
1034
330
1035
330
1036
330
1037
330
1038
330
1039
330
103A
330
103B
330
103C
330
103D
330
103E
330
103F
330
1040
330
1041
330
1042
330
1043
330
1044
330
1045
330
1046
330
1047
330
1048
330
1049
330
104A
330
104B
330
104C
330
104D
330
104E
330
104F
330
1050
330
1051
330
1052
330
1053
330
1054
330
1055
330
1056
330
1057
330
1058
330
1059
330
105A
330
105B
330
105C
330
105D
330
105E
330
105F
330
1060
330
1061
330
1062
330
1063
330
1064
330
1065
330
1066
330
1067
330
1068
330
1069
330
106A
330
106B
330
106C
330
106D
330
106E
330
106F
330
1070
330
1071
330
1072
330
1073
330
1074
330
1075
330
1076
330
1077
330
1078
330
1079
330
107A
330
107B
330
107C
330
107D
330
107E
330
1086
330
1087
330
1088
330
1089
330
108A
330
108B
330
1093
330
1094
330
1095
330
1096
330
1097
330
1098
330
10A0
330
10A1
330
10A2
330
10A3
330
10A4
330
10A5
330
148C
330
148E
330
148F
330
1490
330
1491
330
1492
330
14C8
330
14D0
330
14D1
330
14D2
330
14D3
330
14D4
330
14D5
330
14D6
330
16F6
330
1A70
330
24DF
330
24E0
330
24E1
330
24E2
330
24E3
330
24E4
330
24E5
330
24E6
330
24E7
330
24E8
330
24E9
330
24EA
330
24EB
330
24EC
330
24ED
330
24EE
330
24EF
330
24F0
330
24F1
330
24F2
330
24F3
330
24F4
330
24F5
330
24F6
330
24F7
330
24F8
330
24F9
330
24FA
330
24FB
330
24FC
330
24FD
330
24FE
330
24FF
330
2500
330
2501
330
2502
330
2503
330
2504
330
2505
330
2507
330
2508
330
2509
330
250A
330
250B
330
250C
330
250E
330
250F
330
2510
330
2511
330
2512
330
2513
330
2514
330
251C
330
251D
330
251E
330
251F
330
2520
330
2521
330
2529
330
252A
330
252B
330
252C
330
252D
330
252E
330
2592
330
2593
  0
IDBUFFER
  5
272A
330
0
100
AcDbIdBuffer
330
E30
330
E31
330
E33
330
E34
330
E35
330
E36
330
E37
330
E38
330
E39
330
E3A
330
E3B
  0
IDBUFFER
  5
272B
330
0
100
AcDbIdBuffer
330
ED3
330
ED4
330
F11
330
F50
330
F87
330
FDC
330
FE9
330
FEA
330
FF7
330
2506
330
252F
  0
IDBUFFER
  5
272C
330
0
100
AcDbIdBuffer
330
107F
330
1080
330
1081
330
1082
330
1083
330
1084
330
1085
330
108C
330
108D
330
108E
330
108F
330
1090
330
1091
330
1092
330
1099
330
109A
330
109B
330
109C
330
109D
330
109E
330
109F
330
10A6
330
10A7
330
10A8
330
10A9
330
10AA
330
10AB
330
10AC
330
2515
330
2516
330
2517
330
2518
330
2519
330
251A
330
251B
330
2522
330
2523
330
2524
330
2525
330
2526
330
2527
330
2528
  0
IDBUFFER
  5
272D
330
0
100
AcDbIdBuffer
  0
IDBUFFER
  5
272E
330
0
100
AcDbIdBuffer
330
1957
330
195C
  0
IDBUFFER
  5
272F
330
0
100
AcDbIdBuffer
330
2342
330
26E7
  0
IDBUFFER
  5
2730
330
0
100
AcDbIdBuffer
330
1961
330
1962
  0
IDBUFFER
  5
2731
330
0
100
AcDbIdBuffer
330
185F
330
1868
330
1A3D
330
1A50
330
1A61
330
1A68
  0
IDBUFFER
  5
2732
330
0
100
AcDbIdBuffer
  0
IDBUFFER
  5
2733
330
0
100
AcDbIdBuffer
  0
IDBUFFER
  5
2734
330
0
100
AcDbIdBuffer
  0
IDBUFFER
  5
2735
330
0
100
AcDbIdBuffer
  0
IDBUFFER
  5
2736
330
0
100
AcDbIdBuffer
  0
IDBUFFER
  5
2737
330
0
100
AcDbIdBuffer
  0
IDBUFFER
  5
2738
330
0
100
AcDbIdBuffer
330
23AF
  0
ENDSEC
  0
EOF
