  0
SECTION
  2
HEADER
  9
$ACADVER
  1
AC1018
  9
$ACADMAINTVER
 70
     2
  9
$DWGCODEPAGE
  3
ANSI_932
  9
$CUSTOMPROPERTYTAG
  1
AmdtFileType
  9
$CUSTOMPROPERTY
  1
84
  9
$INSBASE
 10
0.0
 20
0.0
 30
0.0
  9
$EXTMIN
 10
6927.71979065823
 20
2886.974611729262
 30
0.0
  9
$EXTMAX
 10
9897.719790658232
 20
7086.974611729262
 30
520.0
  9
$LIMMIN
 10
5697.719790658232
 20
116.9746117292616
  9
$LIMMAX
 10
9897.719790658232
 20
3086.974611729262
  9
$ORTHOMODE
 70
     1
  9
$REGENMODE
 70
     1
  9
$FILLMODE
 70
     1
  9
$QTEXTMODE
 70
     0
  9
$MIRRTEXT
 70
     1
  9
$LTSCALE
 40
10.0
  9
$ATTMODE
 70
     1
  9
$TEXTSIZE
 40
2.5
  9
$TRACEWID
 40
1.0
  9
$TEXTSTYLE
  7
STANDARD
  9
$CLAYER
  8
0
  9
$CELTYPE
  6
ByLayer
  9
$CECOLOR
 62
   256
  9
$CELTSCALE
 40
1.0
  9
$DISPSILH
 70
     0
  9
$DIMSCALE
 40
10.0
  9
$DIMASZ
 40
2.5
  9
$DIMEXO
 40
1.0
  9
$DIMDLI
 40
10.0
  9
$DIMRND
 40
0.0
  9
$DIMDLE
 40
0.0
  9
$DIMEXE
 40
1.0
  9
$DIMTP
 40
0.1
  9
$DIMTM
 40
0.1
  9
$DIMTXT
 40
4.5
  9
$DIMCEN
 40
0.0
  9
$DIMTSZ
 40
0.0
  9
$DIMTOL
 70
     0
  9
$DIMLIM
 70
     0
  9
$DIMTIH
 70
     0
  9
$DIMTOH
 70
     0
  9
$DIMSE1
 70
     0
  9
$DIMSE2
 70
     0
  9
$DIMTAD
 70
     3
  9
$DIMZIN
 70
     8
  9
$DIMBLK
  1
Open30
  9
$DIMASO
 70
     1
  9
$DIMSHO
 70
     1
  9
$DIMPOST
  1

  9
$DIMAPOST
  1
"
  9
$DIMALT
 70
     0
  9
$DIMALTD
 70
     2
  9
$DIMALTF
 40
0.0393701
  9
$DIMLFAC
 40
1.0
  9
$DIMTOFL
 70
     1
  9
$DIMTVP
 40
0.0
  9
$DIMTIX
 70
     0
  9
$DIMSOXD
 70
     0
  9
$DIMSAH
 70
     0
  9
$DIMBLK1
  1

  9
$DIMBLK2
  1

  9
$DIMSTYLE
  2
IGS
  9
$DIMCLRD
 70
   256
  9
$DIMCLRE
 70
   256
  9
$DIMCLRT
 70
     2
  9
$DIMTFAC
 40
0.71
  9
$DIMGAP
 40
1.5
  9
$DIMJUST
 70
     0
  9
$DIMSD1
 70
     0
  9
$DIMSD2
 70
     0
  9
$DIMTOLJ
 70
     0
  9
$DIMTZIN
 70
     8
  9
$DIMALTZ
 70
     0
  9
$DIMALTTZ
 70
     0
  9
$DIMUPT
 70
     0
  9
$DIMDEC
 70
     2
  9
$DIMTDEC
 70
     2
  9
$DIMALTU
 70
     2
  9
$DIMALTTD
 70
     2
  9
$DIMTXSTY
  7
STANDARD
  9
$DIMAUNIT
 70
     0
  9
$DIMADEC
 70
     0
  9
$DIMALTRND
 40
0.0
  9
$DIMAZIN
 70
     2
  9
$DIMDSEP
 70
    46
  9
$DIMATFIT
 70
     3
  9
$DIMFRAC
 70
     0
  9
$DIMLDRBLK
  1
Open30
  9
$DIMLUNIT
 70
     2
  9
$DIMLWD
 70
    -1
  9
$DIMLWE
 70
    -1
  9
$DIMTMOVE
 70
     0
  9
$LUNITS
 70
     2
  9
$LUPREC
 70
     2
  9
$SKETCHINC
 40
1.0
  9
$FILLETRAD
 40
0.0
  9
$AUNITS
 70
     0
  9
$AUPREC
 70
     0
  9
$MENU
  1
.
  9
$ELEVATION
 40
0.0
  9
$PELEVATION
 40
0.0
  9
$THICKNESS
 40
0.0
  9
$LIMCHECK
 70
     0
  9
$CHAMFERA
 40
25.0
  9
$CHAMFERB
 40
25.0
  9
$CHAMFERC
 40
20.0
  9
$CHAMFERD
 40
0.0
  9
$SKPOLY
 70
     0
  9
$TDCREATE
 40
2453238.369802153
  9
$TDUCREATE
 40
2453237.994802153
  9
$TDUPDATE
 40
2454715.495326424
  9
$TDUUPDATE
 40
2454715.120326424
  9
$TDINDWG
 40
0.0232926389
  9
$TDUSRTIMER
 40
0.0232926389
  9
$USRTIMER
 70
     1
  9
$ANGBASE
 50
0.0
  9
$ANGDIR
 70
     0
  9
$PDMODE
 70
     0
  9
$PDSIZE
 40
0.0
  9
$PLINEWID
 40
0.0
  9
$SPLFRAME
 70
     0
  9
$SPLINETYPE
 70
     6
  9
$SPLINESEGS
 70
     8
  9
$HANDSEED
  5
1479
  9
$SURFTAB1
 70
     6
  9
$SURFTAB2
 70
     6
  9
$SURFTYPE
 70
     6
  9
$SURFU
 70
     6
  9
$SURFV
 70
     6
  9
$UCSBASE
  2

  9
$UCSNAME
  2

  9
$UCSORG
 10
0.0
 20
0.0
 30
0.0
  9
$UCSXDIR
 10
1.0
 20
0.0
 30
0.0
  9
$UCSYDIR
 10
0.0
 20
1.0
 30
0.0
  9
$UCSORTHOREF
  2

  9
$UCSORTHOVIEW
 70
     0
  9
$UCSORGTOP
 10
0.0
 20
0.0
 30
0.0
  9
$UCSORGBOTTOM
 10
0.0
 20
0.0
 30
0.0
  9
$UCSORGLEFT
 10
0.0
 20
0.0
 30
0.0
  9
$UCSORGRIGHT
 10
0.0
 20
0.0
 30
0.0
  9
$UCSORGFRONT
 10
0.0
 20
0.0
 30
0.0
  9
$UCSORGBACK
 10
0.0
 20
0.0
 30
0.0
  9
$PUCSBASE
  2

  9
$PUCSNAME
  2

  9
$PUCSORG
 10
0.0
 20
0.0
 30
0.0
  9
$PUCSXDIR
 10
1.0
 20
0.0
 30
0.0
  9
$PUCSYDIR
 10
0.0
 20
1.0
 30
0.0
  9
$PUCSORTHOREF
  2

  9
$PUCSORTHOVIEW
 70
     0
  9
$PUCSORGTOP
 10
0.0
 20
0.0
 30
0.0
  9
$PUCSORGBOTTOM
 10
0.0
 20
0.0
 30
0.0
  9
$PUCSORGLEFT
 10
0.0
 20
0.0
 30
0.0
  9
$PUCSORGRIGHT
 10
0.0
 20
0.0
 30
0.0
  9
$PUCSORGFRONT
 10
0.0
 20
0.0
 30
0.0
  9
$PUCSORGBACK
 10
0.0
 20
0.0
 30
0.0
  9
$USERI1
 70
     0
  9
$USERI2
 70
     0
  9
$USERI3
 70
     0
  9
$USERI4
 70
     0
  9
$USERI5
 70
     0
  9
$USERR1
 40
0.0
  9
$USERR2
 40
0.0
  9
$USERR3
 40
0.0
  9
$USERR4
 40
0.0
  9
$USERR5
 40
0.0
  9
$WORLDVIEW
 70
     1
  9
$SHADEDGE
 70
     3
  9
$SHADEDIF
 70
    70
  9
$TILEMODE
 70
     1
  9
$MAXACTVP
 70
    64
  9
$PINSBASE
 10
0.0
 20
0.0
 30
0.0
  9
$PLIMCHECK
 70
     0
  9
$PEXTMIN
 10
1.000000000000000E+20
 20
1.000000000000000E+20
 30
1.000000000000000E+20
  9
$PEXTMAX
 10
-1.000000000000000E+20
 20
-1.000000000000000E+20
 30
-1.000000000000000E+20
  9
$PLIMMIN
 10
0.0
 20
0.0
  9
$PLIMMAX
 10
420.0
 20
297.0
  9
$UNITMODE
 70
     0
  9
$VISRETAIN
 70
     1
  9
$PLINEGEN
 70
     0
  9
$PSLTSCALE
 70
     1
  9
$TREEDEPTH
 70
  3020
  9
$CMLSTYLE
  2
Standard
  9
$CMLJUST
 70
     0
  9
$CMLSCALE
 40
20.0
  9
$PROXYGRAPHICS
 70
     1
  9
$MEASUREMENT
 70
     1
  9
$CELWEIGHT
370
    -1
  9
$ENDCAPS
280
     0
  9
$JOINSTYLE
280
     0
  9
$LWDISPLAY
290
     0
  9
$INSUNITS
 70
     4
  9
$HYPERLINKBASE
  1

  9
$STYLESHEET
  1
monochrome.ctb
  9
$XEDIT
290
     1
  9
$CEPSNTYPE
380
     0
  9
$PSTYLEMODE
290
     1
  9
$FINGERPRINTGUID
  2
{A179640A-E7AE-11D4-BDB4-00B0D0A1239A}
  9
$VERSIONGUID
  2
{F027CFF2-3BD9-447B-B80B-33FFEEFC63E3}
  9
$EXTNAMES
290
     1
  9
$PSVPSCALE
 40
0.0
  9
$OLESTARTUP
290
     0
  9
$SORTENTS
280
   103
  9
$INDEXCTL
280
     1
  9
$HIDETEXT
280
     0
  9
$XCLIPFRAME
290
     0
  9
$HALOGAP
280
     0
  9
$OBSCOLOR
 70
   257
  9
$OBSLTYPE
280
     0
  9
$INTERSECTIONDISPLAY
280
     0
  9
$INTERSECTIONCOLOR
 70
   257
  9
$DIMASSOC
280
     1
  9
$PROJECTNAME
  1

  0
ENDSEC
  0
SECTION
  2
CLASSES
  0
CLASS
  1
ACDBDICTIONARYWDFLT
  2
AcDbDictionaryWithDefault
  3
ObjectDBX Classes
 90
        0
 91
        1
280
     0
281
     0
  0
CLASS
  1
AMGSETTINGSOBJ
  2
AmgSettingsObj
  3
"AcadM|Product Description: AutoCAD Mechanical 2000|Company: Autodesk"
 90
        0
 91
        4
280
     0
281
     0
  0
CLASS
  1
AMGOBJPROPCFG
  2
AmgObjPropCfg
  3
"AmgLay|Product Description: AutoCAD Mechanical 2000|Company: Autodesk"
 90
        1
 91
        1
280
     0
281
     0
  0
CLASS
  1
ACME_DOCUMENT
  2
AcMeDbDoc
  3
AcMeServices
 90
        0
 91
        2
280
     0
281
     0
  0
CLASS
  1
ACMESCOPE
  2
AcMeScope
  3
AcMeServices
 90
        0
 91
        1
280
     0
281
     0
  0
CLASS
  1
ACMECOMMANDHISTORY
  2
AcMeCommandHistory
  3
AcMeServices
 90
        0
 91
        1
280
     0
281
     0
  0
CLASS
  1
DICTIONARYVAR
  2
AcDbDictionaryVar
  3
ObjectDBX Classes
 90
        0
 91
        2
280
     0
281
     0
  0
CLASS
  1
ACIMSYSVARMAN
  2
AcImSysVarManager
  3
AcMeServices
 90
        0
 91
        5
280
     0
281
     0
  0
CLASS
  1
ACIMREALSYSVAR
  2
AcImRealSysVar
  3
AcMeServices
 90
        0
 91
        3
280
     0
281
     0
  0
CLASS
  1
ACIMINTSYSVAR
  2
AcImIntSysVar
  3
AcMeServices
 90
        0
 91
       26
280
     0
281
     0
  0
CLASS
  1
ACMEDRAWINGMAN
  2
AcMeDrawingMan
  3
AcMeServices
 90
        0
 91
        1
280
     0
281
     0
  0
CLASS
  1
ACMEVIEW
  2
AcMeView
  3
AcMeServices
 90
        0
 91
        1
280
     0
281
     0
  0
CLASS
  1
ACDBENTITYCACHE
  2
AcMeEntityCache
  3
AcMeServices
 90
        0
 91
        1
280
     0
281
     0
  0
CLASS
  1
GSMANAGER
  2
AcMeGSManager
  3
AcMeServices
 90
        0
 91
        1
280
     0
281
     0
  0
CLASS
  1
AMDTINTERNALREACTOR
  2
AmdtInternalReactor
  3
AcMeServices
 90
        0
 91
        2
280
     0
281
     0
  0
CLASS
  1
ACMESTATEMGR
  2
AcMeStateMgr
  3
AcMeServices
 90
        0
 91
        1
280
     0
281
     0
  0
CLASS
  1
ACGREFMASTER
  2
AcGrefMaster
  3
AcAttribServices
 90
        0
 91
        1
280
     0
281
     0
  0
CLASS
  1
ACME_DATABASE
  2
AcMeDbDatabase
  3
AcMeServices
 90
        0
 91
        1
280
     0
281
     0
  0
CLASS
  1
ACRFINSADJUSTERMGR
  2
AcRfInsAdjusterMgr
  3
AcMeServices
 90
        0
 91
        1
280
     0
281
     0
  0
CLASS
  1
ACGREFACADMASTER
  2
AcGrefacadMaster
  3
AcGrefServices
 90
        0
 91
        1
280
     0
281
     0
  0
CLASS
  1
AMIMASTER
  2
AmiMaster
  3
AmiServices
 90
        0
 91
        1
280
     0
281
     0
  0
CLASS
  1
ACMDATADICTIONARY
  2
AcmDataDictionary
  3
"AcmSymBB|Product Description: AutoCAD Mechanical 2004 DX|Company: Autodesk"
 90
        0
 91
        1
280
     0
281
     0
  0
CLASS
  1
ACMDATAENTRYBLOCK
  2
AcmDataEntryBlock
  3
"AcmSymBB|Product Description: AutoCAD Mechanical 2004 DX|Company: Autodesk"
 90
        0
 91
        1
280
     0
281
     0
  0
CLASS
  1
ACMSTANDARDJIS
  2
AcmStandardJIS
  3
"Amdt_StdImp|Product Description: AutoCAD Mechanical 2004 DX|Company: Autodesk"
 90
        0
 91
        1
280
     0
281
     0
  0
CLASS
  1
ACMSURFSTANDARDJIS
  2
AcmSurfTextStdJIS
  3
"Amdt_StdImp|Product Description: AutoCAD Mechanical 2004 DX|Company: Autodesk"
 90
        0
 91
        1
280
     0
281
     0
  0
CLASS
  1
ACMFCFSTANDARDJIS
  2
AcmFCFStdJIS
  3
"Amdt_StdImp|Product Description: AutoCAD Mechanical 2004 DX|Company: Autodesk"
 90
        0
 91
        1
280
     0
281
     0
  0
CLASS
  1
ACMWELDSTANDARDJIS
  2
AcmWeldingStdJIS
  3
"Amdt_StdImp|Product Description: AutoCAD Mechanical 2004 DX|Company: Autodesk"
 90
        0
 91
        1
280
     0
281
     0
  0
CLASS
  1
ACMIDSTANDARDJIS
  2
AcmIdStdJIS
  3
"Amdt_StdImp|Product Description: AutoCAD Mechanical 2004 DX|Company: Autodesk"
 90
        0
 91
        1
280
     0
281
     0
  0
CLASS
  1
ACMDATUMSTANDARDJIS
  2
AcmDatumStdJIS
  3
"Amdt_StdImp|Product Description: AutoCAD Mechanical 2004 DX|Company: Autodesk"
 90
        0
 91
        1
280
     0
281
     0
  0
CLASS
  1
ACMBOMSTANDARDJIS
  2
AcmBOMStdJIS
  3
"Amdt_StdImp|Product Description: AutoCAD Mechanical 2004 DX|Company: Autodesk"
 90
        0
 91
        1
280
     0
281
     0
  0
CLASS
  1
ACMDETAILSTANDARDJIS
  2
AmdtDetailSymStdJIS
  3
"Amdt_StdImp|Product Description: AutoCAD Mechanical 2004 DX|Company: Autodesk"
 90
        0
 91
        1
280
     0
281
     0
  0
CLASS
  1
ACMSECTIONSTANDARDJIS
  2
AmdtSectionSymStdJIS
  3
"Amdt_StdImp|Product Description: AutoCAD Mechanical 2004 DX|Company: Autodesk"
 90
        0
 91
        1
280
     0
281
     0
  0
CLASS
  1
ACMCENTERLINESTANDARDJIS
  2
AmdtCenterLineStdJIS
  3
"Amdt_StdImp|Product Description: AutoCAD Mechanical 2004 DX|Company: Autodesk"
 90
        0
 91
        1
280
     0
281
     0
  0
CLASS
  1
ACAMGLAYSTD
  2
AcAmgLayStd
  3
"AcAmgLayStd|Product Description: AutoCAD Mechanical 2000|Company: Autodesk"
 90
        0
 91
        3
280
     0
281
     0
  0
CLASS
  1
ACAMGDIMSTD
  2
AcAmgDimStd
  3
"AcAmgDimStd|Product Description: AutoCAD Mechanical 2000|Company: Autodesk"
 90
        0
 91
        3
280
     0
281
     0
  0
CLASS
  1
ACAMGTITLESTD
  2
AcAmgTitleStd
  3
"TITLEAPP"
 90
        0
 91
        3
280
     0
281
     0
  0
CLASS
  1
ACMSTANDARDISO
  2
AcmStandardISO
  3
"Amdt_StdImp|Product Description: AutoCAD Mechanical 2004 DX|Company: Autodesk"
 90
        0
 91
        1
280
     0
281
     0
  0
CLASS
  1
AMDTEDGESTANDARDISO
  2
AmdtEdgeStdISO
  3
"Amdt_StdImp|Product Description: AutoCAD Mechanical 2004 DX|Company: Autodesk"
 90
        0
 91
        1
280
     0
281
     0
  0
CLASS
  1
ACMSURFSTANDARDISO
  2
AcmSurfTextStdISO
  3
"Amdt_StdImp|Product Description: AutoCAD Mechanical 2004 DX|Company: Autodesk"
 90
        0
 91
        1
280
     0
281
     0
  0
CLASS
  1
ACMFCFSTANDARDISO
  2
AcmFCFStdISO
  3
"Amdt_StdImp|Product Description: AutoCAD Mechanical 2004 DX|Company: Autodesk"
 90
        0
 91
        1
280
     0
281
     0
  0
CLASS
  1
ACMWELDSTANDARDISO
  2
AcmWeldingStdISO
  3
"Amdt_StdImp|Product Description: AutoCAD Mechanical 2004 DX|Company: Autodesk"
 90
        0
 91
        1
280
     0
281
     0
  0
CLASS
  1
ACMIDSTANDARDISO
  2
AcmIdStdISO
  3
"Amdt_StdImp|Product Description: AutoCAD Mechanical 2004 DX|Company: Autodesk"
 90
        0
 91
        1
280
     0
281
     0
  0
CLASS
  1
ACMDATUMSTANDARDISO
  2
AcmDatumStdISO
  3
"Amdt_StdImp|Product Description: AutoCAD Mechanical 2004 DX|Company: Autodesk"
 90
        0
 91
        1
280
     0
281
     0
  0
CLASS
  1
ACMBOMSTANDARDISO
  2
AcmBOMStdISO
  3
"Amdt_StdImp|Product Description: AutoCAD Mechanical 2004 DX|Company: Autodesk"
 90
        0
 91
        1
280
     0
281
     0
  0
CLASS
  1
ACMDETAILSTANDARDISO
  2
AmdtDetailSymStdISO
  3
"Amdt_StdImp|Product Description: AutoCAD Mechanical 2004 DX|Company: Autodesk"
 90
        0
 91
        1
280
     0
281
     0
  0
CLASS
  1
ACMSECTIONSTANDARDISO
  2
AmdtSectionSymStdISO
  3
"Amdt_StdImp|Product Description: AutoCAD Mechanical 2004 DX|Company: Autodesk"
 90
        0
 91
        1
280
     0
281
     0
  0
CLASS
  1
ACMCENTERLINESTANDARDISO
  2
AmdtCenterLineStdISO
  3
"Amdt_StdImp|Product Description: AutoCAD Mechanical 2004 DX|Company: Autodesk"
 90
        0
 91
        1
280
     0
281
     0
  0
CLASS
  1
ACIMSTRSYSVAR
  2
AcImStrSysVar
  3
AcMeServices
 90
        0
 91
        5
280
     0
281
     0
  0
CLASS
  1
ACAMGFILTERDAT
  2
AcAmgFilterDat
  3
"AcadM|Product Description: AutoCAD Mechanical 2000|Company: Autodesk"
 90
        0
 91
        6
280
     0
281
     0
  0
CLASS
  1
LAYER_INDEX
  2
AcDbLayerIndex
  3
ObjectDBX Classes
 90
        0
 91
        1
280
     0
281
     0
  0
CLASS
  1
IDBUFFER
  2
AcDbIdBuffer
  3
ObjectDBX Classes
 90
        0
 91
       18
280
     0
281
     0
  0
CLASS
  1
AMDTFORMULAUPDATEDISPATCHER
  2
AmdtFormulaUpdateDispatcher
  3
AcMeServices
 90
        0
 91
        1
280
     0
281
     0
  0
CLASS
  1
ACMDATAENTRYPART
  2
AcmDataEntryPart
  3
"AcmSymBB|Product Description: AutoCAD Mechanical 2004 DX|Company: Autodesk"
 90
        0
 91
        0
280
     0
281
     0
  0
CLASS
  1
ACMPARTREF
  2
AcmPartRef
  3
"AcmSymBB|Product Description: AutoCAD Mechanical 2004 DX|Company: Autodesk"
 90
     1023
 91
        0
280
     0
281
     1
  0
CLASS
  1
ACMDATAENTRY
  2
AcmDataEntry
  3
"AcmSymBB|Product Description: AutoCAD Mechanical 2004 DX|Company: Autodesk"
 90
        0
 91
        5
280
     0
281
     0
  0
CLASS
  1
ACMBOM
  2
AcmBom
  3
"AcmSymBB|Product Description: AutoCAD Mechanical 2004 DX|Company: Autodesk"
 90
        0
 91
        2
280
     0
281
     0
  0
CLASS
  1
ACMBOMROW
  2
AcmBomRow
  3
"AcmSymBB|Product Description: AutoCAD Mechanical 2004 DX|Company: Autodesk"
 90
        0
 91
        0
280
     0
281
     0
  0
CLASS
  1
ACMBALLOON
  2
AcmBalloon
  3
"AcmSymBB|Product Description: AutoCAD Mechanical 2004 DX|Company: Autodesk"
 90
     1023
 91
        0
280
     0
281
     1
  0
CLASS
  1
ACMPARTLIST
  2
AcmPartList
  3
"AcmSymBB|Product Description: AutoCAD Mechanical 2004 DX|Company: Autodesk"
 90
     1023
 91
        0
280
     0
281
     1
  0
CLASS
  1
ACDBLINERES
  2
AcDbLineRes
  3
AcGrefServices
 90
        0
 91
        0
280
     0
281
     0
  0
CLASS
  1
ACRFINSADJ
  2
AcRfInsAdjuster
  3
AcMeServices
 90
        0
 91
        0
280
     0
281
     0
  0
CLASS
  1
STDPART2D
  2
AmgStdPart
  3
"AmgStdPart|Product Description: AutoCAD Mechanical 2000|Company: Autodesk"
 90
     1023
 91
        0
280
     0
281
     1
  0
CLASS
  1
ACDBSTDPARTRES_ARC
  2
AcDbStdPartRes_Arc
  3
"AcDbStdPartRes_Arc|Product Description: AutoCAD Mechanical 2000|Company: Autodesk"
 90
        0
 91
        0
280
     0
281
     0
  0
CLASS
  1
ACMPICKOBJ
  2
AcmPickEnt
  3
"AcmSymBB|Product Description: AutoCAD Mechanical 2004 DX|Company: Autodesk"
 90
        0
 91
        0
280
     0
281
     1
  0
CLASS
  1
ACDBSTDPARTRES_LINE
  2
AcDbStdPartRes_Line
  3
"AcDbStdPartRes_Line|Product Description: AutoCAD Mechanical 2000|Company: Autodesk"
 90
        0
 91
        0
280
     0
281
     0
  0
CLASS
  1
AM_DRAWING_MGR
  2
AcDmDwgMgr
  3
AcMechDwgViewMgmt
 90
        0
 91
        1
280
     0
281
     0
  0
CLASS
  1
AM_DWG_DOCUMENT
  2
AcDmDwgDocument
  3
AcMechDwgViewMgmt
 90
        0
 91
        1
280
     0
281
     0
  0
CLASS
  1
AM_DWG_SHEET
  2
AcDmSheet
  3
AcMechDwgViewMgmt
 90
        0
 91
        2
280
     0
281
     0
  0
CLASS
  1
AM_VIEWDIMPARMAP
  2
AcDmViewDimParMap
  3
AcMechDwgViewMgmt
 90
        0
 91
        2
280
     0
281
     0
  0
CLASS
  1
AM_DWGMGR_NAME
  2
AcDmDwgMgrName
  3
AcMechDwgViewMgmt
 90
        0
 91
        1
280
     0
281
     0
  0
CLASS
  1
AMDTMENUSTATEMGR
  2
AmdtMenuStateMgr
  3
McadcomServices
 90
        0
 91
        1
280
     0
281
     0
  0
CLASS
  1
AMDTMCOMMENUSTATE
  2
AmdtMcomMenuState
  3
McadcomServices
 90
        0
 91
        1
280
     0
281
     0
  0
CLASS
  1
MAPIAMMOUDLE
  2
MApiAmModule
  3
MApiAmServices
 90
        0
 91
        1
280
     0
281
     0
  0
CLASS
  1
AMDTADMENUSTATE
  2
AmdtAdMenuState
  3
DesignerServices
 90
        0
 91
        1
280
     0
281
     0
  0
CLASS
  1
ADAPPL
  2
AcAdAppl
  3
DesignerServices
 90
        0
 91
        1
280
     0
281
     0
  0
CLASS
  1
DEPMGR
  2
AcAdDepMgr
  3
DesignerServices
 90
        0
 91
        1
280
     0
281
     0
  0
CLASS
  1
PARAMMGR
  2
AcAdParamMgr
  3
DesignerServices
 90
        0
 91
        1
280
     0
281
     0
  0
CLASS
  1
PARAMSCOPE
  2
AcAdParamScope
  3
DesignerServices
 90
        0
 91
        1
280
     0
281
     0
  0
CLASS
  1
NAMEDAPPL
  2
AcAdNamedAppl
  3
DesignerServices
 90
        0
 91
        1
280
     0
281
     0
  0
CLASS
  1
AMDTDMMENUSTATE
  2
AmdtDmMenuState
  3
AcMechDwgViewMgmt
 90
        0
 91
        1
280
     0
281
     0
  0
CLASS
  1
AMDTAMMENUSTATE
  2
AmdtAmMenuState
  3
DesignerAssemblies
 90
        0
 91
        1
280
     0
281
     0
  0
CLASS
  1
ACAMPROJECT
  2
AcAmProject
  3
DesignerAssemblies
 90
        0
 91
        1
280
     0
281
     0
  0
CLASS
  1
ACAMGRCOMPDEF
  2
AcAmGrCompDef
  3
DesignerAssemblies
 90
        0
 91
        1
280
     0
281
     0
  0
CLASS
  1
ACCMCONTEXT
  2
AcCmContext
  3
DesignerAssemblies
 90
        0
 91
        1
280
     0
281
     0
  0
CLASS
  1
ACAMCOMPDEF
  2
AcAmCompDef
  3
DesignerAssemblies
 90
        0
 91
        1
280
     0
281
     0
  0
CLASS
  1
ACAMCOMPDEFMGR
  2
AcAmCompDefMgr
  3
DesignerAssemblies
 90
        0
 91
        1
280
     0
281
     0
  0
CLASS
  1
AMCONTEXTMGR
  2
AcAmContextMgr
  3
DesignerAssemblies
 90
        0
 91
        1
280
     0
281
     0
  0
CLASS
  1
ACAMCONTEXTMODELER
  2
AcAmContextModeler
  3
DesignerAssemblies
 90
        0
 91
        1
280
     0
281
     0
  0
CLASS
  1
ACMTHREADLINESTANDARDJIS
  2
AmdtThreadLineStdJIS
  3
"Amdt_StdImp|Product Description: AutoCAD Mechanical 2004 DX|Company: Autodesk"
 90
        0
 91
        1
280
     0
281
     0
  0
CLASS
  1
ACMNOTESTANDARDJIS
  2
AmdtNoteStdJIS
  3
"Amdt_StdImp|Product Description: AutoCAD Mechanical 2004 DX|Company: Autodesk"
 90
        0
 91
        1
280
     0
281
     0
  0
CLASS
  1
AMDTNOTETEMPLATEDB
  2
AmdtNoteTemplateDB
  3
AMDT_STDIMP_MODULE_NAME
 90
        0
 91
       12
280
     0
281
     0
  0
CLASS
  1
ACMTHREADLINESTANDARDISO
  2
AmdtThreadLineStdISO
  3
"Amdt_StdImp|Product Description: AutoCAD Mechanical 2004 DX|Company: Autodesk"
 90
        0
 91
        1
280
     0
281
     0
  0
CLASS
  1
ACMNOTESTANDARDISO
  2
AmdtNoteStdISO
  3
"Amdt_StdImp|Product Description: AutoCAD Mechanical 2004 DX|Company: Autodesk"
 90
        0
 91
        1
280
     0
281
     0
  0
CLASS
  1
CATALOGSTATE
  2
AcAmCatalogState
  3
DesignerAssemblies
 90
        0
 91
        1
280
     0
281
     0
  0
CLASS
  1
ACAMGRCOMPDEFSET
  2
AcAmGrCompDefSet
  3
DesignerAssemblies
 90
        0
 91
        1
280
     0
281
     0
  0
CLASS
  1
AMDTBROWSERDBTAB
  2
AmdtBrowserDbTab
  3
McadcomServices
 90
        0
 91
        1
280
     0
281
     0
  0
CLASS
  1
CBROWSERAPPOBJECT
  2
CBrowserAppObject
  3
McadcomServices
 90
        0
 91
        3
280
     0
281
     0
  0
CLASS
  1
DM_PLACEHOLDER
  2
AcDmSelsetPlaceholder
  3
AcMechDwgViewMgmt
 90
        0
 91
        1
280
     0
281
     0
  0
CLASS
  1
ACDBCIRCARCRES
  2
AcDbCircArcRes
  3
AcGrefServices
 90
        0
 91
        0
280
     0
281
     0
  0
CLASS
  1
AMDTNOTE
  2
AmdtNote
  3
"AcmSymBB|Product Description: AutoCAD Mechanical 2004 DX|Company: Autodesk"
 90
     1023
 91
        0
280
     0
281
     1
  0
CLASS
  1
ACMSTANDARDANSI
  2
AcmStandardANSI
  3
"Amdt_StdImp|Product Description: AutoCAD Mechanical 2004 DX|Company: Autodesk"
 90
        0
 91
        1
280
     0
281
     0
  0
CLASS
  1
ACMSURFSTANDARDANSI
  2
AcmSurfTextStdANSI
  3
"Amdt_StdImp|Product Description: AutoCAD Mechanical 2004 DX|Company: Autodesk"
 90
        0
 91
        1
280
     0
281
     0
  0
CLASS
  1
ACMFCFSTANDARDANSI
  2
AcmFCFStdANSI
  3
"Amdt_StdImp|Product Description: AutoCAD Mechanical 2004 DX|Company: Autodesk"
 90
        0
 91
        1
280
     0
281
     0
  0
CLASS
  1
ACMWELDSTANDARDANSI
  2
AcmWeldingStdANSI
  3
"Amdt_StdImp|Product Description: AutoCAD Mechanical 2004 DX|Company: Autodesk"
 90
        0
 91
        1
280
     0
281
     0
  0
CLASS
  1
ACMIDSTANDARDANSI
  2
AcmIdStdANSI
  3
"Amdt_StdImp|Product Description: AutoCAD Mechanical 2004 DX|Company: Autodesk"
 90
        0
 91
        1
280
     0
281
     0
  0
CLASS
  1
ACMDATUMSTANDARDANSI
  2
AcmDatumStdANSI
  3
"Amdt_StdImp|Product Description: AutoCAD Mechanical 2004 DX|Company: Autodesk"
 90
        0
 91
        1
280
     0
281
     0
  0
CLASS
  1
ACMBOMSTANDARDANSI
  2
AcmBOMStdANSI
  3
"Amdt_StdImp|Product Description: AutoCAD Mechanical 2004 DX|Company: Autodesk"
 90
        0
 91
        1
280
     0
281
     0
  0
CLASS
  1
ACMDETAILSTANDARDANSI
  2
AmdtDetailSymStdANSI
  3
"Amdt_StdImp|Product Description: AutoCAD Mechanical 2004 DX|Company: Autodesk"
 90
        0
 91
        1
280
     0
281
     0
  0
CLASS
  1
ACMSECTIONSTANDARDANSI
  2
AmdtSectionSymStdANSI
  3
"Amdt_StdImp|Product Description: AutoCAD Mechanical 2004 DX|Company: Autodesk"
 90
        0
 91
        1
280
     0
281
     0
  0
CLASS
  1
ACMCENTERLINESTANDARDANSI
  2
AmdtCenterLineStdANSI
  3
"Amdt_StdImp|Product Description: AutoCAD Mechanical 2004 DX|Company: Autodesk"
 90
        0
 91
        1
280
     0
281
     0
  0
CLASS
  1
ACMTHREADLINESTANDARDANSI
  2
AmdtThreadLineStdANSI
  3
"Amdt_StdImp|Product Description: AutoCAD Mechanical 2004 DX|Company: Autodesk"
 90
        0
 91
        1
280
     0
281
     0
  0
CLASS
  1
ACMNOTESTANDARDANSI
  2
AmdtNoteStdANSI
  3
"Amdt_StdImp|Product Description: AutoCAD Mechanical 2004 DX|Company: Autodesk"
 90
        0
 91
        1
280
     0
281
     0
  0
CLASS
  1
ACAMGHOLECHARTSTDANSI
  2
AcAmgHoleChartStdANSI
  3
ACMSYMBB_MODULE_NAME
 90
        0
 91
        1
280
     0
281
     0
  0
ENDSEC
  0
SECTION
  2
TABLES
  0
TABLE
  2
VPORT
  5
8
330
0
100
AcDbSymbolTable
 70
     3
  0
VPORT
  5
1478
330
8
100
AcDbSymbolTableRecord
100
AcDbViewportTableRecord
  2
*Active
 70
     0
 10
0.0
 20
0.0
 11
1.0
 21
1.0
 12
8449.227134697791
 22
4986.966466117756
 13
0.0
 23
0.0
 14
25.0
 24
25.0
 15
100.0
 25
100.0
 16
0.0
 26
0.0
 36
1.0
 17
0.0
 27
0.0
 37
0.0
 40
4231.594582269623
 41
1.498730964467005
 42
50.0
 43
0.0
 44
0.0
 50
0.0
 51
0.0
 71
     0
 72
   100
 73
     1
 74
     3
 75
     0
 76
     0
 77
     0
 78
     0
281
     0
 65
     1
110
0.0
120
0.0
130
0.0
111
1.0
121
0.0
131
0.0
112
0.0
122
1.0
132
0.0
 79
     0
146
0.0
  0
ENDTAB
  0
TABLE
  2
LTYPE
  5
5
330
0
100
AcDbSymbolTable
 70
    33
  0
LTYPE
  5
14
330
5
100
AcDbSymbolTableRecord
100
AcDbLinetypeTableRecord
  2
ByBlock
 70
     0
  3

 72
    65
 73
     0
 40
0.0
  0
LTYPE
  5
15
330
5
100
AcDbSymbolTableRecord
100
AcDbLinetypeTableRecord
  2
ByLayer
 70
     0
  3

 72
    65
 73
     0
 40
0.0
  0
LTYPE
  5
16
330
5
100
AcDbSymbolTableRecord
100
AcDbLinetypeTableRecord
  2
Continuous
 70
     0
  3
Solid line
 72
    65
 73
     0
 40
0.0
  0
LTYPE
  5
35
330
5
100
AcDbSymbolTableRecord
100
AcDbLinetypeTableRecord
  2
AM_ISO02W050
 70
     0
  3
__ __ __ __ __ __ __ __ __ __ __ __ __ __ __
 72
    65
 73
     2
 40
7.5
 49
6.0
 74
     0
 49
-1.5
 74
     0
  0
LTYPE
  5
36
330
5
100
AcDbSymbolTableRecord
100
AcDbLinetypeTableRecord
  2
AM_ISO08W050
 70
     0
  3
____ . ____ . ____ . ____ . ____ . ____ . ____
 72
    65
 73
     4
 40
18.0
 49
12.0
 74
     0
 49
-1.5
 74
     0
 49
3.0
 74
     0
 49
-1.5
 74
     0
  0
LTYPE
  5
37
330
5
100
AcDbSymbolTableRecord
100
AcDbLinetypeTableRecord
  2
AM_ISO09W050
 70
     0
  3
_____ . . _____ . . _____ . . ____ .. ____
 72
    65
 73
     6
 40
22.5
 49
12.0
 74
     0
 49
-1.5
 74
     0
 49
3.0
 74
     0
 49
-1.5
 74
     0
 49
3.0
 74
     0
 49
-1.5
 74
     0
  0
LTYPE
  5
38
330
5
100
AcDbSymbolTableRecord
100
AcDbLinetypeTableRecord
  2
Amconstr
 70
     0
  3
_______________________
 72
    65
 73
     2
 40
9999.0
 49
9999.0
 74
     0
 49
0.0
 74
     0
  0
LTYPE
  5
39
330
5
100
AcDbSymbolTableRecord
100
AcDbLinetypeTableRecord
  2
AM_ISO08W050x2
 70
     0
  3
__ . __ . __ . __ . __ . __
 72
    65
 73
     4
 40
9.0
 49
6.0
 74
     0
 49
-0.75
 74
     0
 49
1.5
 74
     0
 49
-0.75
 74
     0
  0
LTYPE
  5
3A
330
5
100
AcDbSymbolTableRecord
100
AcDbLinetypeTableRecord
  2
AM_ISO02W050x2
 70
     0
  3
 _ _ _ _ _ _ _ _ _ _ _ _
 72
    65
 73
     2
 40
3.75
 49
3.0
 74
     0
 49
-0.75
 74
     0
  0
LTYPE
  5
3B
330
5
100
AcDbSymbolTableRecord
100
AcDbLinetypeTableRecord
  2
Amzigzag
 70
     0
  3
/\/-/\/-/\/-/\/-/\/-/\/
 72
    65
 73
     2
 40
11.0001
 49
0.0001
 74
     4
 75
   135
340
3C
 46
0.04
 50
0.0
 44
0.0
 45
0.0
 49
-11.0
 74
     0
  0
LTYPE
  5
64
330
5
100
AcDbSymbolTableRecord
100
AcDbLinetypeTableRecord
  2
ACJISTGB
 70
     0
  3
__ . . __ . .
 72
    65
 73
     6
 40
9.0
 49
4.0
 74
     0
 49
-1.0
 74
     0
 49
1.0
 74
     0
 49
-1.0
 74
     0
 49
1.0
 74
     0
 49
-1.0
 74
     0
  0
LTYPE
  5
65
330
5
100
AcDbSymbolTableRecord
100
AcDbLinetypeTableRecord
  2
ACJISTGL
 70
     0
  3
_ _ _ _ _
 72
    65
 73
     2
 40
3.0
 49
2.0
 74
     0
 49
-1.0
 74
     0
  0
LTYPE
  5
69
330
5
100
AcDbSymbolTableRecord
100
AcDbLinetypeTableRecord
  2
CENTER
 70
     0
  3
__ . __
 72
    65
 73
     4
 40
7.0
 49
4.0
 74
     0
 49
-1.0
 74
     0
 49
1.0
 74
     0
 49
-1.0
 74
     0
  0
LTYPE
  5
8F
330
5
100
AcDbSymbolTableRecord
100
AcDbLinetypeTableRecord
  2
ACISOWELD
 70
     0
  3
_ _ _ _ _
 72
    65
 73
     2
 40
2.0
 49
2.0
 74
     0
 49
-1.0
 74
     0
  0
LTYPE
  5
92
330
5
100
AcDbSymbolTableRecord
100
AcDbLinetypeTableRecord
  2
ACISOTGB
 70
     0
  3
__ . . __ . .
 72
    65
 73
     6
 40
9.0
 49
4.0
 74
     0
 49
-1.0
 74
     0
 49
1.0
 74
     0
 49
-1.0
 74
     0
 49
1.0
 74
     0
 49
-1.0
 74
     0
  0
LTYPE
  5
93
330
5
100
AcDbSymbolTableRecord
100
AcDbLinetypeTableRecord
  2
ACISOTGL
 70
     0
  3
_ _ _ _ _
 72
    65
 73
     2
 40
3.0
 49
2.0
 74
     0
 49
-1.0
 74
     0
  0
LTYPE
  5
308
330
5
100
AcDbSymbolTableRecord
100
AcDbLinetypeTableRecord
  2
DASHED
 70
     0
  3
__ __ __ __ __ __ __ __ __ __ __ __ __ __ __
 72
    65
 73
     2
 40
3.0
 49
2.0
 74
     0
 49
-1.0
 74
     0
  0
LTYPE
  5
309
330
5
100
AcDbSymbolTableRecord
100
AcDbLinetypeTableRecord
  2
HIDDEN
 70
     0
  3
_ _ _ _ _ _ _ _ _ _ _ _ _ _ _ _ _ _ _ _ _ _ _
 72
    65
 73
     2
 40
1.5
 49
1.0
 74
     0
 49
-0.5
 74
     0
  0
LTYPE
  5
30A
330
5
100
AcDbSymbolTableRecord
100
AcDbLinetypeTableRecord
  2
PHANTOM
 70
     0
  3
_____ _ _ _____ _ _ _____ _ _ _____ _ _ ____
 72
    65
 73
     6
 40
27.0
 49
20.0
 74
     0
 49
-1.0
 74
     0
 49
2.0
 74
     0
 49
-1.0
 74
     0
 49
2.0
 74
     0
 49
-1.0
 74
     0
  0
LTYPE
  5
30B
330
5
100
AcDbSymbolTableRecord
100
AcDbLinetypeTableRecord
  2
DOT
 70
     0
  3
...............................................
 72
    65
 73
     2
 40
1.5
 49
0.5
 74
     0
 49
-1.0
 74
     0
  0
LTYPE
  5
30C
330
5
100
AcDbSymbolTableRecord
100
AcDbLinetypeTableRecord
  2
DASHDOT
 70
     0
  3
__ . __ . __ . __ . __ . __ . __ . __ . __ . __
 72
    65
 73
     4
 40
8.5
 49
6.0
 74
     0
 49
-1.0
 74
     0
 49
0.5
 74
     0
 49
-1.0
 74
     0
  0
LTYPE
  5
30D
330
5
100
AcDbSymbolTableRecord
100
AcDbLinetypeTableRecord
  2
DIVIDE
 70
     0
  3
__ . . __ . . __ . . __ . . __ . . __ . . __
 72
    65
 73
     6
 40
10.0
 49
6.0
 74
     0
 49
-1.0
 74
     0
 49
0.5
 74
     0
 49
-1.0
 74
     0
 49
0.5
 74
     0
 49
-1.0
 74
     0
  0
LTYPE
  5
30E
330
5
100
AcDbSymbolTableRecord
100
AcDbLinetypeTableRecord
  2
BORDER
 70
     0
  3
__ __ . __ __ . __ __ . __ __ . __ __ . __ __
 72
    65
 73
     6
 40
15.5
 49
6.0
 74
     0
 49
-1.0
 74
     0
 49
6.0
 74
     0
 49
-1.0
 74
     0
 49
0.5
 74
     0
 49
-1.0
 74
     0
  0
LTYPE
  5
30F
330
5
100
AcDbSymbolTableRecord
100
AcDbLinetypeTableRecord
  2
GEN7A
 70
     0
  3
__ . __ . __
 72
    65
 73
     4
 40
6.875
 49
5.0
 74
     0
 49
-0.625
 74
     0
 49
0.625
 74
     0
 49
-0.625
 74
     0
  0
LTYPE
  5
9A2
330
5
100
AcDbSymbolTableRecord
100
AcDbLinetypeTableRecord
  2
PHANTOM2
 70
     0
  3
Phantom (.5x) ___ _ _ ___ _ _ ___ _ _ ___ _ _
 72
    65
 73
     6
 40
31.75
 49
15.875
 74
     0
 49
-3.174999999999999
 74
     0
 49
3.174999999999999
 74
     0
 49
-3.174999999999999
 74
     0
 49
3.174999999999999
 74
     0
 49
-3.174999999999999
 74
     0
  0
LTYPE
  5
A6E
330
5
100
AcDbSymbolTableRecord
100
AcDbLinetypeTableRecord
  2
gen3
 70
     0
  3
-- -- -- -- -- -- -- -- -- -- -- -- -- -- --
 72
    65
 73
     2
 40
6.25
 49
4.75
 74
     0
 49
-1.5
 74
     0
  0
LTYPE
  5
A6F
330
5
100
AcDbSymbolTableRecord
100
AcDbLinetypeTableRecord
  2
gen4a
 70
     0
  3
_____ . . _____ . . _____ . . ____ .. ____
 72
    65
 73
     6
 40
16.25
 49
9.75
 74
     0
 49
-1.5
 74
     0
 49
1.0
 74
     0
 49
-1.5
 74
     0
 49
1.0
 74
     0
 49
-1.5
 74
     0
  0
LTYPE
  5
A70
330
5
100
AcDbSymbolTableRecord
100
AcDbLinetypeTableRecord
  2
gen7
 70
     0
  3
____ . ____ . ____ . ____ . ____ . ____ . ____
 72
    65
 73
     4
 40
13.75
 49
9.75
 74
     0
 49
-1.5
 74
     0
 49
1.0
 74
     0
 49
-1.5
 74
     0
  0
LTYPE
  5
A71
330
5
100
AcDbSymbolTableRecord
100
AcDbLinetypeTableRecord
  2
gen3a
 70
     0
  3
 - - - - -
 72
    65
 73
     2
 40
3.125
 49
2.25
 74
     0
 49
-0.875
 74
     0
  0
LTYPE
  5
A72
330
5
100
AcDbSymbolTableRecord
100
AcDbLinetypeTableRecord
  2
genzigzag
 70
     0
  3
/\/-/\/-/\/-/\/-/\/-/\/
 72
    65
 73
     2
 40
12.0001
 49
0.0001
 74
     4
 75
   135
340
A75
 46
2.0
 50
0.0
 44
0.0
 45
0.0
 49
-12.0
 74
     0
  0
LTYPE
  5
131B
330
5
100
AcDbSymbolTableRecord
100
AcDbLinetypeTableRecord
  2
CENTER2
 70
     0
  3
Center (.5x) ___ _ ___ _ ___ _ ___ _ ___ _ ___
 72
    65
 73
     4
 40
1.125
 49
0.75
 74
     0
 49
-0.125
 74
     0
 49
0.125
 74
     0
 49
-0.125
 74
     0
  0
LTYPE
  5
131C
330
5
100
AcDbSymbolTableRecord
100
AcDbLinetypeTableRecord
  2
HIDDEN2
 70
     0
  3
Hidden (.5x) _ _ _ _ _ _ _ _ _ _ _ _ _ _ _ _ _
 72
    65
 73
     2
 40
0.1875
 49
0.125
 74
     0
 49
-0.0625
 74
     0
  0
LTYPE
  5
131D
330
5
100
AcDbSymbolTableRecord
100
AcDbLinetypeTableRecord
  2
Amzigzag2
 70
     0
  3
/\/-/\/-/\/-/\/-/\/-/\/
 72
    65
 73
     2
 40
0.4401
 49
0.0001
 74
     4
 75
   135
340
3C
 46
0.0016
 50
0.0
 44
0.0
 45
0.0
 49
-0.4400000000000001
 74
     0
  0
LTYPE
  5
131E
330
5
100
AcDbSymbolTableRecord
100
AcDbLinetypeTableRecord
  2
ACANSTGB
 70
     0
  3
__ . . __ . .
 72
    65
 73
     6
 40
0.35433070866
 49
0.15748031496
 74
     0
 49
-0.03937007874
 74
     0
 49
0.03937007874
 74
     0
 49
-0.03937007874
 74
     0
 49
0.03937007874
 74
     0
 49
-0.03937007874
 74
     0
  0
LTYPE
  5
131F
330
5
100
AcDbSymbolTableRecord
100
AcDbLinetypeTableRecord
  2
ACANSTGL
 70
     0
  3
_ _ _ _ _
 72
    65
 73
     2
 40
0.11811023622
 49
0.07874015748
 74
     0
 49
-0.03937007874
 74
     0
  0
ENDTAB
  0
TABLE
  2
LAYER
  5
2
102
{ACAD_XDICTIONARY
360
1405
102
}
330
0
100
AcDbSymbolTable
 70
    18
  0
LAYER
  5
10
330
2
100
AcDbSymbolTableRecord
100
AcDbLayerTableRecord
  2
0
 70
     0
 62
     7
  6
Continuous
370
    -3
390
F
  0
LAYER
  5
F5
330
2
100
AcDbSymbolTableRecord
100
AcDbLayerTableRecord
  2
RAHM2
 70
     0
 62
     1
  6
Continuous
370
    -3
390
F
  0
LAYER
  5
1EF
330
2
100
AcDbSymbolTableRecord
100
AcDbLayerTableRecord
  2
AM_BOR
 70
     0
 62
     7
  6
Continuous
370
    50
390
F
  0
LAYER
  5
310
330
2
100
AcDbSymbolTableRecord
100
AcDbLayerTableRecord
  2
RAHM3
 70
     0
 62
     2
  6
Continuous
370
    -3
390
F
  0
LAYER
  5
311
330
2
100
AcDbSymbolTableRecord
100
AcDbLayerTableRecord
  2
RAHM5
 70
     0
 62
     7
  6
Continuous
370
    -3
390
F
  0
LAYER
  5
312
330
2
100
AcDbSymbolTableRecord
100
AcDbLayerTableRecord
  2
1
 70
     0
 62
     7
  6
Continuous
370
    -3
390
F
  0
LAYER
  5
313
330
2
100
AcDbSymbolTableRecord
100
AcDbLayerTableRecord
  2
DEFPOINTS
 70
     0
 62
     7
  6
Continuous
290
     0
370
    -3
390
F
  0
LAYER
  5
316
330
2
100
AcDbSymbolTableRecord
100
AcDbLayerTableRecord
  2
7A
 70
     0
 62
     4
  6
GEN7A
370
    -3
390
F
  0
LAYER
  5
A73
330
2
100
AcDbSymbolTableRecord
100
AcDbLayerTableRecord
  2
7
 70
     0
 62
     4
  6
gen7
370
    -3
390
F
  0
LAYER
  5
A74
330
2
100
AcDbSymbolTableRecord
100
AcDbLayerTableRecord
  2
8
 70
     0
 62
     5
  6
Continuous
370
    -3
390
F
  0
LAYER
  5
C83
330
2
100
AcDbSymbolTableRecord
100
AcDbLayerTableRecord
  2
AM_8
 70
     0
 62
     1
  6
Continuous
370
    25
390
F
  0
LAYER
  5
C85
330
2
100
AcDbSymbolTableRecord
100
AcDbLayerTableRecord
  2
AM_5
 70
     0
 62
     3
  6
Continuous
370
    25
390
F
  0
LAYER
  5
E7F
330
2
100
AcDbSymbolTableRecord
100
AcDbLayerTableRecord
  2
AM_3
 70
     0
 62
     6
  6
AM_ISO02W050
370
    25
390
F
  0
LAYER
  5
EED
330
2
100
AcDbSymbolTableRecord
100
AcDbLayerTableRecord
  2
AM_CL
 70
     0
 62
     1
  6
Amconstr
370
    25
390
F
  0
LAYER
  5
11D0
330
2
100
AcDbSymbolTableRecord
100
AcDbLayerTableRecord
  2
AM_12
 70
     0
 62
     7
  6
Continuous
290
     0
370
    50
390
F
  0
LAYER
  5
11D1
330
2
100
AcDbSymbolTableRecord
100
AcDbLayerTableRecord
  2
AM_PAREF
 70
     0
 62
     4
  6
Continuous
290
     0
370
    25
390
F
  0
LAYER
  5
122A
330
2
100
AcDbSymbolTableRecord
100
AcDbLayerTableRecord
  2
AM_4
 70
     0
 62
     3
  6
Continuous
370
    25
390
F
  0
LAYER
  5
1404
330
2
100
AcDbSymbolTableRecord
100
AcDbLayerTableRecord
  2
TEXT
 70
     0
 62
     7
  6
Continuous
370
    -3
390
F
  0
ENDTAB
  0
TABLE
  2
STYLE
  5
3
330
0
100
AcDbSymbolTable
 70
    12
  0
STYLE
  5
11
330
3
100
AcDbSymbolTableRecord
100
AcDbTextStyleTableRecord
  2
STANDARD
 70
     0
 40
0.0
 41
1.0
 50
0.0
 71
     0
 42
2.5
  3
ISOCP.SHX
  4
EXTFONT.SHX
  0
STYLE
  5
3C
330
3
100
AcDbSymbolTableRecord
100
AcDbTextStyleTableRecord
  2

 70
     1
 40
0.0
 41
1.0
 50
0.0
 71
     0
 42
2.5
  3
ltypeshp.shx
  4

  0
STYLE
  5
5D
330
3
100
AcDbSymbolTableRecord
100
AcDbTextStyleTableRecord
  2
ACJISTS
 70
     0
 40
1.0
 41
1.0
 50
0.0
 71
     0
 42
2.5
  3
isocp.shx
  4
extfont.shx
  0
STYLE
  5
60
330
3
100
AcDbSymbolTableRecord
100
AcDbTextStyleTableRecord
  2
ACJISGDT
 70
     0
 40
0.0
 41
1.0
 50
0.0
 71
     0
 42
2.5
  3
amgdt.shx
  4

  0
STYLE
  5
89
330
3
100
AcDbSymbolTableRecord
100
AcDbTextStyleTableRecord
  2
ACISOTS
 70
     0
 40
1.0
 41
1.0
 50
0.0
 71
     0
 42
2.5
  3
isocp.shx
  4
extfont.shx
  0
STYLE
  5
8D
330
3
100
AcDbSymbolTableRecord
100
AcDbTextStyleTableRecord
  2
ACISOGDT
 70
     0
 40
0.0
 41
1.0
 50
0.0
 71
     0
 42
2.5
  3
amgdt.shx
  4

  0
STYLE
  5
A4
330
3
100
AcDbSymbolTableRecord
100
AcDbTextStyleTableRecord
  2
USER1
 70
     0
 40
0.0
 41
1.0
 50
0.0
 71
     0
 42
2.5
  3
TXT.SHX
  4

  0
STYLE
  5
A5
330
3
100
AcDbSymbolTableRecord
100
AcDbTextStyleTableRecord
  2
USER2
 70
     0
 40
0.0
 41
1.0
 50
0.0
 71
     0
 42
2.5
  3
SIMPLEX.SHX
  4

  0
STYLE
  5
A6
330
3
100
AcDbSymbolTableRecord
100
AcDbTextStyleTableRecord
  2
USER3
 70
     0
 40
0.0
 41
1.0
 50
0.0
 71
     0
 42
2.5
  3
ITALIC.SHX
  4

  0
STYLE
  5
A75
330
3
100
AcDbSymbolTableRecord
100
AcDbTextStyleTableRecord
  2

 70
     1
 40
0.0
 41
1.0
 50
0.0
 71
     0
 42
24.0
  3
genltshp.shx
  4

  0
STYLE
  5
1320
330
3
100
AcDbSymbolTableRecord
100
AcDbTextStyleTableRecord
  2
ACANSTS
 70
     0
 40
1.0
 41
1.0
 50
0.0
 71
     0
 42
24.0
  3
romans.shx
  4
extfont.shx
  0
STYLE
  5
1321
330
3
100
AcDbSymbolTableRecord
100
AcDbTextStyleTableRecord
  2
ACANSGDT
 70
     0
 40
0.0
 41
1.0
 50
0.0
 71
     0
 42
24.0
  3
amgdtans.shx
  4

  0
ENDTAB
  0
TABLE
  2
VIEW
  5
6
330
0
100
AcDbSymbolTable
 70
     6
  0
VIEW
  5
3C5
330
6
100
AcDbSymbolTableRecord
100
AcDbViewTableRecord
  2
AM_VIEW1
 70
     0
 40
1485.0
 10
6833.584809669638
 20
2344.474611729262
 41
2271.730038022814
 11
0.0
 21
0.0
 31
1.0
 12
0.0
 22
0.0
 32
0.0
 42
50.0
 43
0.0
 44
0.0
 50
0.0
 71
     0
281
     0
 72
     0
  0
VIEW
  5
3C6
330
6
100
AcDbSymbolTableRecord
100
AcDbViewTableRecord
  2
AM_VIEW2
 70
     0
 40
1485.0
 10
8761.854771646824
 20
2344.474611729262
 41
2271.730038022814
 11
0.0
 21
0.0
 31
1.0
 12
0.0
 22
0.0
 32
0.0
 42
50.0
 43
0.0
 44
0.0
 50
0.0
 71
     0
281
     0
 72
     0
  0
VIEW
  5
3C7
330
6
100
AcDbSymbolTableRecord
100
AcDbViewTableRecord
  2
AM_VIEW3
 70
     0
 40
1485.0
 10
6833.584809669638
 20
859.4746117292615
 41
2271.730038022814
 11
0.0
 21
0.0
 31
1.0
 12
0.0
 22
0.0
 32
0.0
 42
50.0
 43
0.0
 44
0.0
 50
0.0
 71
     0
281
     0
 72
     0
  0
VIEW
  5
3C8
330
6
100
AcDbSymbolTableRecord
100
AcDbViewTableRecord
  2
AM_VIEW4
 70
     0
 40
1485.0
 10
8761.854771646824
 20
859.4746117292615
 41
2271.730038022814
 11
0.0
 21
0.0
 31
1.0
 12
0.0
 22
0.0
 32
0.0
 42
50.0
 43
0.0
 44
0.0
 50
0.0
 71
     0
281
     0
 72
     0
  0
VIEW
  5
3C9
330
6
100
AcDbSymbolTableRecord
100
AcDbViewTableRecord
  2
AM_VIEW5
 70
     0
 40
1485.0
 10
7797.719790658232
 20
1601.974611729261
 41
2271.730038022814
 11
0.0
 21
0.0
 31
1.0
 12
0.0
 22
0.0
 32
0.0
 42
50.0
 43
0.0
 44
0.0
 50
0.0
 71
     0
281
     0
 72
     0
  0
VIEW
  5
3CA
330
6
100
AcDbSymbolTableRecord
100
AcDbViewTableRecord
  2
AM_VIEW6
 70
     0
 40
2969.9703
 10
7797.719790658232
 20
1601.974611729261
 41
4543.414641444867
 11
0.0
 21
0.0
 31
1.0
 12
0.0
 22
0.0
 32
0.0
 42
50.0
 43
0.0
 44
0.0
 50
0.0
 71
     0
281
     0
 72
     0
  0
ENDTAB
  0
TABLE
  2
UCS
  5
7
330
0
100
AcDbSymbolTable
 70
     0
  0
ENDTAB
  0
TABLE
  2
APPID
  5
9
330
0
100
AcDbSymbolTable
 70
    47
  0
APPID
  5
12
330
9
100
AcDbSymbolTableRecord
100
AcDbRegAppTableRecord
  2
ACAD
 70
     0
  0
APPID
  5
2D
330
9
100
AcDbSymbolTableRecord
100
AcDbRegAppTableRecord
  2
MCAD_NO_VIS
 70
     0
  0
APPID
  5
2E
330
9
100
AcDbSymbolTableRecord
100
AcDbRegAppTableRecord
  2
ACAD_TEMP_GRAPHIC
 70
     0
  0
APPID
  5
2F
330
9
100
AcDbSymbolTableRecord
100
AcDbRegAppTableRecord
  2
ACATTRIBSERVICES
 70
     0
  0
APPID
  5
1F0
330
9
100
AcDbSymbolTableRecord
100
AcDbRegAppTableRecord
  2
GENIUS_GENBLLY_14
 70
     0
  0
APPID
  5
321
330
9
100
AcDbSymbolTableRecord
100
AcDbRegAppTableRecord
  2
GENIUS_GENCFG_13
 70
     0
  0
APPID
  5
322
330
9
100
AcDbSymbolTableRecord
100
AcDbRegAppTableRecord
  2
GENIUS_GENOBJ_13
 70
     0
  0
APPID
  5
323
330
9
100
AcDbSymbolTableRecord
100
AcDbRegAppTableRecord
  2
GENIUS_GENODEF_13
 70
     0
  0
APPID
  5
324
330
9
100
AcDbSymbolTableRecord
100
AcDbRegAppTableRecord
  2
GENIUS_GENOENT_13
 70
     0
  0
APPID
  5
325
330
9
100
AcDbSymbolTableRecord
100
AcDbRegAppTableRecord
  2
GENIUS_GENOLIS_13
 70
     0
  0
APPID
  5
326
330
9
100
AcDbSymbolTableRecord
100
AcDbRegAppTableRecord
  2
GENIUS_GENOREF_13
 70
     0
  0
APPID
  5
327
330
9
100
AcDbSymbolTableRecord
100
AcDbRegAppTableRecord
  2
GENIUS_GENOBJ-N-TIT_13
 70
     0
  0
APPID
  5
328
330
9
100
AcDbSymbolTableRecord
100
AcDbRegAppTableRecord
  2
GENIUS_GENTITLE_13
 70
     0
  0
APPID
  5
329
330
9
100
AcDbSymbolTableRecord
100
AcDbRegAppTableRecord
  2
GENIUS_GENZVEED_13
 70
     0
  0
APPID
  5
32A
330
9
100
AcDbSymbolTableRecord
100
AcDbRegAppTableRecord
  2
GENIUS_GENOBJ-N-SDF_13
 70
     0
  0
APPID
  5
32B
330
9
100
AcDbSymbolTableRecord
100
AcDbRegAppTableRecord
  2
GENIUS_GENSCREG_13
 70
     0
  0
APPID
  5
32C
330
9
100
AcDbSymbolTableRecord
100
AcDbRegAppTableRecord
  2
GENIUS_GENCFG0_13
 70
     0
  0
APPID
  5
32D
330
9
100
AcDbSymbolTableRecord
100
AcDbRegAppTableRecord
  2
GENIUS_GENCFG1_13
 70
     0
  0
APPID
  5
32E
330
9
100
AcDbSymbolTableRecord
100
AcDbRegAppTableRecord
  2
GENIUS_GENCFG2_13
 70
     0
  0
APPID
  5
32F
330
9
100
AcDbSymbolTableRecord
100
AcDbRegAppTableRecord
  2
GENIUS_GENCFG3_13
 70
     0
  0
APPID
  5
330
330
9
100
AcDbSymbolTableRecord
100
AcDbRegAppTableRecord
  2
GENIUS_GENCFG4_13
 70
     0
  0
APPID
  5
331
330
9
100
AcDbSymbolTableRecord
100
AcDbRegAppTableRecord
  2
GENIUS_GEVCFG0_13
 70
     0
  0
APPID
  5
332
330
9
100
AcDbSymbolTableRecord
100
AcDbRegAppTableRecord
  2
GENIUS_GENOBJ-N-CRS_13
 70
     0
  0
APPID
  5
333
330
9
100
AcDbSymbolTableRecord
100
AcDbRegAppTableRecord
  2
GENIUS_GENOBJ-N-CEN_13
 70
     0
  0
APPID
  5
334
330
9
100
AcDbSymbolTableRecord
100
AcDbRegAppTableRecord
  2
GENIUS_GEFCFG0_13
 70
     0
  0
APPID
  5
3BA
330
9
100
AcDbSymbolTableRecord
100
AcDbRegAppTableRecord
  2
GENIUS_GENTRA_14
 70
     0
  0
APPID
  5
3CB
330
9
100
AcDbSymbolTableRecord
100
AcDbRegAppTableRecord
  2
GENIUS_GENSCREG_15
 70
     0
  0
APPID
  5
436
330
9
100
AcDbSymbolTableRecord
100
AcDbRegAppTableRecord
  2
GEVID984623613
 70
     0
  0
APPID
  5
437
330
9
100
AcDbSymbolTableRecord
100
AcDbRegAppTableRecord
  2
GEVDC
 70
     0
  0
APPID
  5
438
330
9
100
AcDbSymbolTableRecord
100
AcDbRegAppTableRecord
  2
GEVCON
 70
     0
  0
APPID
  5
43C
330
9
100
AcDbSymbolTableRecord
100
AcDbRegAppTableRecord
  2
GENIUS_GENBH_13
 70
     0
  0
APPID
  5
43E
330
9
100
AcDbSymbolTableRecord
100
AcDbRegAppTableRecord
  2
GENIUS_GENOBJ-NBEHI-BHF_13
 70
     0
  0
APPID
  5
440
330
9
100
AcDbSymbolTableRecord
100
AcDbRegAppTableRecord
  2
GENIUS_GENOBJ-NBEHI-BHB_13
 70
     0
  0
APPID
  5
455
330
9
100
AcDbSymbolTableRecord
100
AcDbRegAppTableRecord
  2
GENIUS_GENOBJ-F-SCPASSM_13
 70
     0
  0
APPID
  5
47B
330
9
100
AcDbSymbolTableRecord
100
AcDbRegAppTableRecord
  2
GEVID984623614
 70
     0
  0
APPID
  5
48B
330
9
100
AcDbSymbolTableRecord
100
AcDbRegAppTableRecord
  2
GEVID984623615
 70
     0
  0
APPID
  5
54A
330
9
100
AcDbSymbolTableRecord
100
AcDbRegAppTableRecord
  2
GENIUS_GENOBJ-N-REV_13
 70
     0
  0
APPID
  5
54B
330
9
100
AcDbSymbolTableRecord
100
AcDbRegAppTableRecord
  2
GENIUS_GENOBJ-N-RSSYM_13
 70
     0
  0
APPID
  5
54C
330
9
100
AcDbSymbolTableRecord
100
AcDbRegAppTableRecord
  2
GENIUS_GENSYMENT_13
 70
     0
  0
APPID
  5
54D
330
9
100
AcDbSymbolTableRecord
100
AcDbRegAppTableRecord
  2
GENIUS_GENSCSYM_13
 70
     0
  0
APPID
  5
943
330
9
100
AcDbSymbolTableRecord
100
AcDbRegAppTableRecord
  2
DCO15
 70
     0
  0
APPID
  5
9B7
330
9
100
AcDbSymbolTableRecord
100
AcDbRegAppTableRecord
  2
AD_DRAW
 70
     0
  0
APPID
  5
9D5
330
9
100
AcDbSymbolTableRecord
100
AcDbRegAppTableRecord
  2
DESIGNERASSEMBLIES
 70
     0
  0
APPID
  5
9E5
330
9
100
AcDbSymbolTableRecord
100
AcDbRegAppTableRecord
  2
ACADM_DIM_EDIT
 70
     0
  0
APPID
  5
9E6
330
9
100
AcDbSymbolTableRecord
100
AcDbRegAppTableRecord
  2
AMDT_DM_ADJ
 70
     0
  0
APPID
  5
D7B
330
9
100
AcDbSymbolTableRecord
100
AcDbRegAppTableRecord
  2
GENIUS_GENDIMSH_14
 70
     0
  0
APPID
  5
E79
330
9
100
AcDbSymbolTableRecord
100
AcDbRegAppTableRecord
  2
GENIUS_GENOBJ-N-FIL_13
 70
     0
  0
ENDTAB
  0
TABLE
  2
DIMSTYLE
  5
A
330
0
100
AcDbSymbolTable
 70
    31
100
AcDbDimStyleTable
 71
     1
340
76
  0
DIMSTYLE
105
27
330
A
100
AcDbSymbolTableRecord
100
AcDbDimStyleTableRecord
  2
ISO-25
 70
     0
 41
2.5
 42
0.625
 43
3.75
 44
1.25
 73
     0
 74
     0
 77
     1
 78
     8
140
2.5
141
2.5
143
0.03937007874016
147
0.625
171
     3
172
     1
271
     2
272
     2
274
     3
283
     0
284
     8
340
11
  0
DIMSTYLE
105
76
102
{ACAD_REACTORS
330
1074
330
109C
330
10C8
330
112B
330
1157
330
1181
330
11AD
330
12B2
102
}
330
A
100
AcDbSymbolTableRecord
100
AcDbDimStyleTableRecord
  2
IGS
 70
     0
  4
"
 40
10.0
 41
2.5
 42
1.0
 43
10.0
 44
1.0
 47
0.1
 48
0.1
 73
     0
 74
     0
 77
     3
 78
     8
 79
     2
140
4.5
141
0.0
143
0.0393701
146
0.71
147
1.5
172
     1
176
   256
177
   256
178
     2
271
     2
272
     2
283
     0
284
     8
340
11
341
77
342
77
371
    -1
372
    -1
  0
DIMSTYLE
105
7D
102
{ACAD_REACTORS
330
135A
330
13A0
102
}
330
A
100
AcDbSymbolTableRecord
100
AcDbDimStyleTableRecord
  2
IGS$3
 70
     0
  4
"
 40
10.0
 41
2.5
 42
1.0
 43
10.0
 44
1.0
 47
0.1
 48
0.1
 73
     0
 77
     3
 78
     8
 79
     2
140
4.5
141
0.0
143
0.0393701
146
0.71
147
1.5
176
   256
177
   256
178
     2
271
     2
272
     2
283
     0
284
     8
288
     1
289
     0
340
11
341
77
342
77
371
    -1
372
    -1
  0
DIMSTYLE
105
7E
330
A
100
AcDbSymbolTableRecord
100
AcDbDimStyleTableRecord
  2
IGS$4
 70
     0
  4
"
 40
10.0
 41
2.5
 42
1.0
 43
10.0
 44
1.0
 47
0.1
 48
0.1
 73
     0
 77
     3
 78
     8
 79
     2
140
4.5
141
0.0
143
0.0393701
146
0.71
147
1.5
176
   256
177
   256
178
     2
271
     2
272
     2
283
     0
284
     8
288
     1
289
     0
340
11
341
77
342
77
371
    -1
372
    -1
  0
DIMSTYLE
105
7F
330
A
100
AcDbSymbolTableRecord
100
AcDbDimStyleTableRecord
  2
IGS$6
 70
     0
  4
"
 40
10.0
 41
2.5
 42
1.0
 43
10.0
 44
1.0
 47
0.1
 48
0.1
 73
     0
 74
     0
 78
     8
 79
     2
140
4.5
141
0.0
143
0.0393701
146
0.71
147
1.5
172
     1
176
   256
177
   256
178
     2
271
     2
272
     2
283
     0
284
     8
340
11
341
77
342
77
371
    -1
372
    -1
  0
DIMSTYLE
105
80
330
A
100
AcDbSymbolTableRecord
100
AcDbDimStyleTableRecord
  2
IGS$7
 70
     0
  4
"
 40
10.0
 41
2.5
 42
1.0
 43
10.0
 44
1.0
 47
0.1
 48
0.1
 73
     0
 74
     0
 77
     3
 78
     8
 79
     2
140
5.0
141
0.0
143
0.0393701
146
0.71
147
1.5
172
     1
176
   256
177
   256
178
     2
271
     2
272
     2
283
     0
284
     8
340
11
341
77
342
77
371
    -1
372
    -1
  0
DIMSTYLE
105
81
330
A
100
AcDbSymbolTableRecord
100
AcDbDimStyleTableRecord
  2
IGS$SF
 70
     0
  4
"
 40
10.0
 41
2.5
 42
1.0
 43
10.0
 44
1.0
 47
0.1
 48
0.1
 73
     0
 74
     0
 75
     1
 76
     1
 77
     3
 78
     8
 79
     2
140
3.5
141
0.0
143
0.0393701
146
0.71
147
1.5
172
     1
176
   256
177
   256
178
     2
271
     2
272
     3
274
     4
283
     0
284
     8
340
11
341
77
342
77
343
77
344
77
371
    -1
372
    -1
  0
DIMSTYLE
105
82
330
A
100
AcDbSymbolTableRecord
100
AcDbDimStyleTableRecord
  2
IGS$SH
 70
     0
  4
"
 40
10.0
 41
2.5
 42
1.0
 43
10.0
 44
1.0
 47
0.1
 48
0.1
 73
     0
 74
     0
 75
     1
 76
     1
 77
     3
 78
     8
 79
     2
140
3.5
141
0.0
143
0.0393701
144
2.0
146
0.71
147
1.5
172
     1
173
     1
176
   256
177
   256
178
     2
271
     2
272
     3
274
     4
283
     0
284
     8
340
11
341
77
342
77
343
83
344
77
371
    -1
372
    -1
  0
DIMSTYLE
105
9A
330
A
100
AcDbSymbolTableRecord
100
AcDbDimStyleTableRecord
  2
AM_ISO
 70
     0
  4
"
 40
10.0
 41
2.5
 42
1.0
 43
10.0
 44
1.0
 47
0.1
 48
0.1
 73
     0
 74
     0
 77
     1
 78
     8
 79
     2
140
3.5
141
0.0
143
0.0393701
146
0.71
147
1.5
172
     1
176
   256
177
   256
178
     2
271
     2
272
     3
274
     4
283
     0
284
     8
340
11
371
    -1
372
    -1
  0
DIMSTYLE
105
9B
330
A
100
AcDbSymbolTableRecord
100
AcDbDimStyleTableRecord
  2
AM_ISO$3
 70
     0
  4
"
 40
10.0
 41
2.5
 42
1.0
 43
10.0
 44
1.0
 47
0.1
 48
0.1
 73
     0
 77
     1
 78
     8
 79
     2
140
3.5
141
0.0
143
0.0393701
146
0.71
147
1.5
176
   256
177
   256
178
     2
271
     2
272
     3
274
     4
283
     0
284
     8
288
     1
289
     0
340
11
371
    -1
372
    -1
  0
DIMSTYLE
105
9C
330
A
100
AcDbSymbolTableRecord
100
AcDbDimStyleTableRecord
  2
AM_ISO$4
 70
     0
  4
"
 40
10.0
 41
2.5
 42
1.0
 43
10.0
 44
1.0
 47
0.1
 48
0.1
 73
     0
 77
     1
 78
     8
 79
     2
140
3.5
141
0.0
143
0.0393701
146
0.71
147
1.5
176
   256
177
   256
178
     2
271
     2
272
     3
274
     4
283
     0
284
     8
288
     1
289
     0
340
11
371
    -1
372
    -1
  0
DIMSTYLE
105
9D
330
A
100
AcDbSymbolTableRecord
100
AcDbDimStyleTableRecord
  2
AM_ISO$6
 70
     0
  4
"
 40
10.0
 41
2.5
 42
1.0
 43
10.0
 44
1.0
 47
0.1
 48
0.1
 73
     0
 74
     0
 78
     8
 79
     2
140
3.5
141
0.0
143
0.0393701
146
0.71
147
1.5
172
     1
176
   256
177
   256
178
     2
271
     2
272
     3
274
     4
283
     0
284
     8
340
11
371
    -1
372
    -1
  0
DIMSTYLE
105
9E
330
A
100
AcDbSymbolTableRecord
100
AcDbDimStyleTableRecord
  2
AM_ISO$7
 70
     0
  4
"
 40
10.0
 41
2.5
 42
1.0
 43
10.0
 44
1.0
 47
0.1
 48
0.1
 73
     0
 74
     0
 77
     1
 78
     8
 79
     2
140
5.0
141
0.0
143
0.0393701
146
0.71
147
1.5
172
     1
176
   256
177
   256
178
     2
271
     2
272
     3
274
     4
283
     0
284
     8
340
11
371
    -1
372
    -1
  0
DIMSTYLE
105
9F
330
A
100
AcDbSymbolTableRecord
100
AcDbDimStyleTableRecord
  2
AM_ISO$SF
 70
     0
  4
"
 40
10.0
 41
2.5
 42
1.0
 43
10.0
 44
1.0
 47
0.1
 48
0.1
 73
     0
 74
     0
 75
     1
 76
     1
 77
     1
 78
     8
 79
     2
140
3.5
141
0.0
143
0.0393701
146
0.71
147
1.5
172
     1
176
   256
177
   256
178
     2
271
     2
272
     3
274
     4
283
     0
284
     8
340
11
371
    -1
372
    -1
  0
DIMSTYLE
105
A0
330
A
100
AcDbSymbolTableRecord
100
AcDbDimStyleTableRecord
  2
AM_ISO$SH
 70
     0
  4
"
 40
10.0
 41
2.5
 42
1.0
 43
10.0
 44
1.0
 47
0.1
 48
0.1
 73
     0
 74
     0
 75
     1
 76
     1
 77
     1
 78
     8
 79
     2
140
3.5
141
0.0
143
0.0393701
144
2.0
146
0.71
147
1.5
172
     1
173
     1
176
   256
177
   256
178
     2
271
     2
272
     3
274
     4
283
     0
284
     8
340
11
343
83
371
    -1
372
    -1
  0
DIMSTYLE
105
317
330
A
100
AcDbSymbolTableRecord
100
AcDbDimStyleTableRecord
  2
STANDARD
 70
     0
340
11
  0
DIMSTYLE
105
318
330
A
100
AcDbSymbolTableRecord
100
AcDbDimStyleTableRecord
  2
ISO-35
 70
     0
 41
3.5
 42
0.875
 43
5.25
 44
1.75
 74
     0
 77
     1
 78
     8
140
3.5
141
3.5
143
0.0394
145
1.399999999999999
147
0.875
172
     1
340
11
  0
DIMSTYLE
105
319
330
A
100
AcDbSymbolTableRecord
100
AcDbDimStyleTableRecord
  2
ISO-5
 70
     0
 41
5.0
 42
1.25
 43
7.5
 44
2.5
 74
     0
 77
     1
 78
     8
140
5.0
141
5.0
143
0.0394
145
2.0
147
1.25
172
     1
340
11
  0
DIMSTYLE
105
31A
330
A
100
AcDbSymbolTableRecord
100
AcDbDimStyleTableRecord
  2
ISO-7
 70
     0
 41
7.0
 42
1.75
 43
10.5
 44
3.5
 74
     0
 77
     1
 78
     8
140
7.0
141
7.0
143
0.0394
145
2.799999999999999
147
1.75
172
     1
340
11
  0
DIMSTYLE
105
31B
330
A
100
AcDbSymbolTableRecord
100
AcDbDimStyleTableRecord
  2
ISO1
 70
     0
 41
10.0
 42
2.5
 43
15.0
 44
5.0
 74
     0
 77
     1
 78
     8
140
10.0
141
10.0
143
0.0394
145
4.0
147
2.5
172
     1
340
11
  0
DIMSTYLE
105
31C
330
A
100
AcDbSymbolTableRecord
100
AcDbDimStyleTableRecord
  2
ISO1-4
 70
     0
 41
14.0
 42
3.5
 43
21.0
 44
7.0
 74
     0
 77
     1
 78
     8
140
14.0
141
14.0
143
0.0394
145
5.599999999999999
147
3.5
172
     1
340
11
  0
DIMSTYLE
105
31D
330
A
100
AcDbSymbolTableRecord
100
AcDbDimStyleTableRecord
  2
ISO2
 70
     0
 41
20.0
 42
5.0
 43
30.0
 44
10.0
 74
     0
 77
     1
 78
     8
140
20.0
141
20.0
143
0.0394
145
8.0
147
5.0
172
     1
340
11
  0
DIMSTYLE
105
31E
330
A
100
AcDbSymbolTableRecord
100
AcDbDimStyleTableRecord
  2
GEN-ISO$4
 70
     0
  3
<>
 41
2.5
 42
1.0
 43
10.0
 44
1.0
 47
0.1
 48
0.1
 73
     0
 77
     1
 78
     8
140
3.5
141
0.0
143
0.0393701
146
0.71
147
1.5
176
   256
177
   256
178
     2
271
     2
272
     3
274
     4
283
     0
288
     1
289
     0
340
11
  0
DIMSTYLE
105
31F
330
A
100
AcDbSymbolTableRecord
100
AcDbDimStyleTableRecord
  2
GEN-ISO$3
 70
     0
  3
<>
 41
2.5
 42
1.0
 43
10.0
 44
1.0
 47
0.1
 48
0.1
 73
     0
 77
     1
 78
     8
140
3.5
141
0.0
143
0.0393701
146
0.71
147
1.5
176
   256
177
   256
178
     2
271
     2
272
     3
274
     4
283
     0
288
     1
289
     0
340
11
  0
DIMSTYLE
105
320
330
A
100
AcDbSymbolTableRecord
100
AcDbDimStyleTableRecord
  2
GEN-ISO
 70
     0
  3
<>
 41
2.5
 42
1.0
 43
10.0
 44
1.0
 47
0.1
 48
0.1
 73
     0
 74
     0
 77
     1
 78
     8
140
3.5
141
0.0
143
0.0393701
146
0.71
147
1.5
172
     1
176
   256
177
   256
178
     2
271
     2
272
     3
274
     4
283
     0
340
11
  0
DIMSTYLE
105
1322
330
A
100
AcDbSymbolTableRecord
100
AcDbDimStyleTableRecord
  2
AM_ANSI
 70
     0
  4
mm
 41
0.1
 42
0.05
 43
0.5
 44
0.1
 47
0.1
 48
0.1
 78
     7
 79
     2
140
0.12
141
0.0
146
0.71
147
0.06
176
   256
177
   256
178
     2
274
     4
284
     7
340
11
371
    -1
372
    -1
  0
DIMSTYLE
105
1323
330
A
100
AcDbSymbolTableRecord
100
AcDbDimStyleTableRecord
  2
AM_ANSI$3
 70
     0
  4
mm
 41
0.1
 42
0.05
 43
0.5
 44
0.1
 47
0.1
 48
0.1
 78
     7
 79
     2
140
0.12
141
0.0
146
0.71
147
0.06
176
   256
177
   256
178
     2
274
     4
284
     7
288
     1
289
     0
340
11
371
    -1
372
    -1
  0
DIMSTYLE
105
1324
330
A
100
AcDbSymbolTableRecord
100
AcDbDimStyleTableRecord
  2
AM_ANSI$4
 70
     0
  4
mm
 41
0.1
 42
0.05
 43
0.5
 44
0.1
 47
0.1
 48
0.1
 78
     7
 79
     2
140
0.12
141
0.0
146
0.71
147
0.06
176
   256
177
   256
178
     2
274
     4
284
     7
288
     1
289
     0
340
11
371
    -1
372
    -1
  0
DIMSTYLE
105
1325
330
A
100
AcDbSymbolTableRecord
100
AcDbDimStyleTableRecord
  2
AM_ANSI$7
 70
     0
  4
mm
 41
0.1
 42
0.05
 43
0.5
 44
0.1
 47
0.1
 48
0.1
 78
     7
 79
     2
140
0.24
141
0.0
146
0.71
147
0.06
176
   256
177
   256
178
     2
274
     4
284
     7
340
11
371
    -1
372
    -1
  0
DIMSTYLE
105
1326
330
A
100
AcDbSymbolTableRecord
100
AcDbDimStyleTableRecord
  2
AM_ANSI$SF
 70
     0
  4
mm
 41
0.1
 42
0.05
 43
0.5
 44
0.1
 47
0.1
 48
0.1
 75
     1
 76
     1
 78
     7
 79
     2
140
0.12
141
0.0
146
0.71
147
0.06
176
   256
177
   256
178
     2
274
     4
284
     7
340
11
371
    -1
372
    -1
  0
DIMSTYLE
105
1327
330
A
100
AcDbSymbolTableRecord
100
AcDbDimStyleTableRecord
  2
AM_ANSI$SH
 70
     0
  4
mm
 41
0.1
 42
0.05
 43
0.5
 44
0.1
 47
0.1
 48
0.1
 75
     1
 76
     1
 78
     7
 79
     2
140
0.12
141
0.0
146
0.71
147
0.06
173
     1
176
   256
177
   256
178
     2
274
     4
284
     7
340
11
343
83
371
    -1
372
    -1
  0
ENDTAB
  0
TABLE
  2
BLOCK_RECORD
  5
1
330
0
100
AcDbSymbolTable
 70
    32
  0
BLOCK_RECORD
  5
1F
102
{ACAD_XDICTIONARY
360
B1
102
}
330
1
100
AcDbSymbolTableRecord
100
AcDbBlockTableRecord
  2
*Model_Space
340
22
  0
BLOCK_RECORD
  5
1B
330
1
100
AcDbSymbolTableRecord
100
AcDbBlockTableRecord
  2
*Paper_Space
340
1E
  0
BLOCK_RECORD
  5
23
330
1
100
AcDbSymbolTableRecord
100
AcDbBlockTableRecord
  2
*Paper_Space0
340
26
  0
BLOCK_RECORD
  5
77
330
1
100
AcDbSymbolTableRecord
100
AcDbBlockTableRecord
  2
_Open30
340
0
310
2800000020000000200000000100080000000000000400000000000000000000000000000000000000000000000080000080000000808000800000008000800080800000C0C0C000C0DCC000F0CAA6000020400000206000002080000020A0000020C0000020E00000400000004020000040400000406000004080000040A0
310
000040C0000040E00000600000006020000060400000606000006080000060A0000060C0000060E00000800000008020000080400000806000008080000080A0000080C0000080E00000A0000000A0200000A0400000A0600000A0800000A0A00000A0C00000A0E00000C0000000C0200000C0400000C0600000C0800000C0
310
A00000C0C00000C0E00000E0000000E0200000E0400000E0600000E0800000E0A00000E0C00000E0E00040000000400020004000400040006000400080004000A0004000C0004000E00040200000402020004020400040206000402080004020A0004020C0004020E000404000004040200040404000404060004040800040
310
40A0004040C0004040E00040600000406020004060400040606000406080004060A0004060C0004060E00040800000408020004080400040806000408080004080A0004080C0004080E00040A0000040A0200040A0400040A0600040A0800040A0A00040A0C00040A0E00040C0000040C0200040C0400040C0600040C08000
310
40C0A00040C0C00040C0E00040E0000040E0200040E0400040E0600040E0800040E0A00040E0C00040E0E00080000000800020008000400080006000800080008000A0008000C0008000E00080200000802020008020400080206000802080008020A0008020C0008020E00080400000804020008040400080406000804080
310
008040A0008040C0008040E00080600000806020008060400080606000806080008060A0008060C0008060E00080800000808020008080400080806000808080008080A0008080C0008080E00080A0000080A0200080A0400080A0600080A0800080A0A00080A0C00080A0E00080C0000080C0200080C0400080C0600080C0
310
800080C0A00080C0C00080C0E00080E0000080E0200080E0400080E0600080E0800080E0A00080E0C00080E0E000C0000000C0002000C0004000C0006000C0008000C000A000C000C000C000E000C0200000C0202000C0204000C0206000C0208000C020A000C020C000C020E000C0400000C0402000C0404000C0406000C0
310
408000C040A000C040C000C040E000C0600000C0602000C0604000C0606000C0608000C060A000C060C000C060E000C0800000C0802000C0804000C0806000C0808000C080A000C080C000C080E000C0A00000C0A02000C0A04000C0A06000C0A08000C0A0A000C0A0C000C0A0E000C0C00000C0C02000C0C04000C0C06000
310
C0C08000C0C0A000F0FBFF00A4A0A000808080000000FF0000FF000000FFFF00FF000000FF00FF00FFFF0000FFFFFF0000000000000000000000000000000000000000000000000000000000000000000000000000000000000000000000000000000000000000000000000000000000000000000000000000000000000000
310
00000000000000000000000000000000000000000000000000000000000000000000000000000000000000000000000000000000000000000000000000000000000000000000000000000000000000000000000000000000000000000000000000000000000000000000000000000000000000000000000000000000000000
310
000000000000000000000000000000000000000000000000000000000000000000000000000000000000000000000000000000FFFF0000000000000000000000000000000000000000000000000000000000000000FFFFFFFF0000000000000000000000000000000000000000000000000000000000000000FFFFFFFF0000
310
000000000000000000000000000000000000000000000000000000000000FFFFFF0000000000000000000000000000000000000000000000000000000000000000FFFFFFFF0000000000000000000000000000000000000000000000000000000000000000FFFFFF0000000000000000000000000000000000000000000000
310
000000000000000000FFFFFFFF0000000000000000000000000000000000000000000000000000000000000000FFFFFFFF00000000FFFFFFFFFFFFFFFFFFFFFFFFFFFFFFFFFFFFFFFFFFFFFFFFFFFFFFFFFFFF00000000000000000000000000000000000000000000000000FFFFFFFF000000000000000000000000000000
310
000000000000000000FFFFFFFF000000000000000000000000000000000000000000000000FFFFFFFF000000000000000000000000000000000000000000000000FFFFFFFF000000000000000000000000000000000000000000000000FFFFFFFF000000000000000000000000000000000000000000000000FFFFFFFF0000
310
0000000000000000000000000000000000000000000000FFFFFF0000000000000000000000000000000000000000000000000000000000000000000000000000000000000000000000000000000000000000000000000000000000000000000000000000000000000000000000000000000000000000000000000000000000
310
00000000000000000000000000000000000000000000000000000000000000000000000000000000000000000000000000000000000000000000000000000000000000000000000000000000000000000000000000000000000000000000000000000000000000000000000000000000000000000000000000000000000000
310
0000000000000000000000000000000000000000000000000000000000000000000000000000000000000000000000000000000000000000
102
{BLKREFS
331
1193
331
1194
331
11BF
331
11C0
331
11F5
331
11F6
331
1209
331
120A
331
121E
331
121F
331
12D9
331
12DA
331
12E2
331
12E3
331
12F4
331
12F5
331
136D
331
136E
331
13B0
331
13B1
102
}
  0
BLOCK_RECORD
  5
83
330
1
100
AcDbSymbolTableRecord
100
AcDbBlockTableRecord
  2
GENAXEH
340
0
310
2800000020000000200000000100080000000000000400000000000000000000000000000000000000000000000080000080000000808000800000008000800080800000C0C0C000C0DCC000F0CAA6000020400000206000002080000020A0000020C0000020E00000400000004020000040400000406000004080000040A0
310
000040C0000040E00000600000006020000060400000606000006080000060A0000060C0000060E00000800000008020000080400000806000008080000080A0000080C0000080E00000A0000000A0200000A0400000A0600000A0800000A0A00000A0C00000A0E00000C0000000C0200000C0400000C0600000C0800000C0
310
A00000C0C00000C0E00000E0000000E0200000E0400000E0600000E0800000E0A00000E0C00000E0E00040000000400020004000400040006000400080004000A0004000C0004000E00040200000402020004020400040206000402080004020A0004020C0004020E000404000004040200040404000404060004040800040
310
40A0004040C0004040E00040600000406020004060400040606000406080004060A0004060C0004060E00040800000408020004080400040806000408080004080A0004080C0004080E00040A0000040A0200040A0400040A0600040A0800040A0A00040A0C00040A0E00040C0000040C0200040C0400040C0600040C08000
310
40C0A00040C0C00040C0E00040E0000040E0200040E0400040E0600040E0800040E0A00040E0C00040E0E00080000000800020008000400080006000800080008000A0008000C0008000E00080200000802020008020400080206000802080008020A0008020C0008020E00080400000804020008040400080406000804080
310
008040A0008040C0008040E00080600000806020008060400080606000806080008060A0008060C0008060E00080800000808020008080400080806000808080008080A0008080C0008080E00080A0000080A0200080A0400080A0600080A0800080A0A00080A0C00080A0E00080C0000080C0200080C0400080C0600080C0
310
800080C0A00080C0C00080C0E00080E0000080E0200080E0400080E0600080E0800080E0A00080E0C00080E0E000C0000000C0002000C0004000C0006000C0008000C000A000C000C000C000E000C0200000C0202000C0204000C0206000C0208000C020A000C020C000C020E000C0400000C0402000C0404000C0406000C0
310
408000C040A000C040C000C040E000C0600000C0602000C0604000C0606000C0608000C060A000C060C000C060E000C0800000C0802000C0804000C0806000C0808000C080A000C080C000C080E000C0A00000C0A02000C0A04000C0A06000C0A08000C0A0A000C0A0C000C0A0E000C0C00000C0C02000C0C04000C0C06000
310
C0C08000C0C0A000F0FBFF00A4A0A000808080000000FF0000FF000000FFFF00FF000000FF00FF00FFFF0000FFFFFF0000000000000000000000000000000000000000000000000000000000000000000000000000000000000000000000000000000000000000000000000000000000000000000000000000000000000000
310
00000000000000000000000000000000000000000000000000000000000000000000000000000000000000000000000000000000000000000000000000000000000000000000000000000000000000000000000000000000000000000000000000000000000000000000000000000000000000000000000000000000000000
310
00000000000000000000000000000000000000000000000000000000000000000000000000000000000000000000000000000000000000000000000000000000000000000000000000000000000000000000000000000000000000000000000000000000000000000000000000000000000000000000000000000000000000
310
00000000000000000000000000000000000000000000000000000000000000000000000000000000000000000000000000000000000000000000000000000000000000000000000000000000000000000000000000000000000000000000000000000000000000000000000000000000000000000000000000000000000000
310
0000000000000000000000000000000000000000000000000000000000000000000000000000000000000000000000000000000000FFFFFFFFFFFFFFFFFFFFFFFFFFFFFFFFFFFFFFFFFFFFFFFFFFFFFFFFFFFF0000000000000000000000000000000000000000000000000000000000000000000000000000000000000000
310
00000000000000000000000000000000000000000000000000000000000000000000000000000000000000000000000000000000000000000000000000000000000000000000000000000000000000000000000000000000000000000000000000000000000000000000000000000000000000000000000000000000000000
310
00000000000000000000000000000000000000000000000000000000000000000000000000000000000000000000000000000000000000000000000000000000000000000000000000000000000000000000000000000000000000000000000000000000000000000000000000000000000000000000000000000000000000
310
00000000000000000000000000000000000000000000000000000000000000000000000000000000000000000000000000000000000000000000000000000000000000000000000000000000000000000000000000000000000000000000000000000000000000000000000000000000000000000000000000000000000000
310
0000000000000000000000000000000000000000000000000000000000000000000000000000000000000000000000000000000000000000
  0
BLOCK_RECORD
  5
1F1
330
1
100
AcDbSymbolTableRecord
100
AcDbBlockTableRecord
  2
IGS_A2
340
0
310
2800000020000000200000000100080000000000000400000000000000000000000000000000000000000000000080000080000000808000800000008000800080800000C0C0C000C0DCC000F0CAA6000020400000206000002080000020A0000020C0000020E00000400000004020000040400000406000004080000040A0
310
000040C0000040E00000600000006020000060400000606000006080000060A0000060C0000060E00000800000008020000080400000806000008080000080A0000080C0000080E00000A0000000A0200000A0400000A0600000A0800000A0A00000A0C00000A0E00000C0000000C0200000C0400000C0600000C0800000C0
310
A00000C0C00000C0E00000E0000000E0200000E0400000E0600000E0800000E0A00000E0C00000E0E00040000000400020004000400040006000400080004000A0004000C0004000E00040200000402020004020400040206000402080004020A0004020C0004020E000404000004040200040404000404060004040800040
310
40A0004040C0004040E00040600000406020004060400040606000406080004060A0004060C0004060E00040800000408020004080400040806000408080004080A0004080C0004080E00040A0000040A0200040A0400040A0600040A0800040A0A00040A0C00040A0E00040C0000040C0200040C0400040C0600040C08000
310
40C0A00040C0C00040C0E00040E0000040E0200040E0400040E0600040E0800040E0A00040E0C00040E0E00080000000800020008000400080006000800080008000A0008000C0008000E00080200000802020008020400080206000802080008020A0008020C0008020E00080400000804020008040400080406000804080
310
008040A0008040C0008040E00080600000806020008060400080606000806080008060A0008060C0008060E00080800000808020008080400080806000808080008080A0008080C0008080E00080A0000080A0200080A0400080A0600080A0800080A0A00080A0C00080A0E00080C0000080C0200080C0400080C0600080C0
310
800080C0A00080C0C00080C0E00080E0000080E0200080E0400080E0600080E0800080E0A00080E0C00080E0E000C0000000C0002000C0004000C0006000C0008000C000A000C000C000C000E000C0200000C0202000C0204000C0206000C0208000C020A000C020C000C020E000C0400000C0402000C0404000C0406000C0
310
408000C040A000C040C000C040E000C0600000C0602000C0604000C0606000C0608000C060A000C060C000C060E000C0800000C0802000C0804000C0806000C0808000C080A000C080C000C080E000C0A00000C0A02000C0A04000C0A06000C0A08000C0A0A000C0A0C000C0A0E000C0C00000C0C02000C0C04000C0C06000
310
C0C08000C0C0A000F0FBFF00A4A0A000808080000000FF0000FF000000FFFF00FF000000FF00FF00FFFF0000FFFFFF0000000000000000000000000000000000000000000000000000000000000000000000000000000000000000000000000000000000000000000000000000000000000000000000000000000000000000
310
000000000000000000000000000000000000000000000000000000000000000000000000000000000000000000000000000000000000000000000000000000000000000000000000000000000000000000000000000000000000000000000000000000000000000000000000000000000000F9F9F9F9F9F9F9F9F9F9F9F9F9
310
F9F9F9F9F9F9F9F9F9F9F9F9F9F90000000000F9FFFFFFFFFFFFFFFFFFFFFFFFFFFFFFFFFFFFFFFFFFFFFFFFFFF90000000000F9FF0000000000000000000000000000000000000000000000FFF90000000000F9FF0000000000000000000000000000000000000000000000FFF90000000000F9FF00000000000000000000
310
00000000000000000000000000FFF90000000000F9FF0000000000000000000000000000000000000000000000FFF90000000000F9FF0000000000000000000000000000000000000000000000FFF90000000000F9FF0000000000000000000000000000000000000000000000FFF90000000000F9FF000000000000000000
310
0000000000000000000000000000FFF90000000000F9FF0000000000000000000000000000000000000000000000FFF90000000000F9FF0000000000000000000000000000000000000000000000FFF90000000000F9FF0000000000000000000000000000000000000000000000FFF90000000000F9FF0000000000000000
310
000000000000000000000000000000FFF90000000000F9FF0000000000000000000000000000000000000000000000FFF90000000000F9FF0000000000000000000000000000000000000000000000FFF90000000000F9FF0000000000000000000000000000000000000000000000FFF90000000000F9FF00000000000000
310
00000000000000000000000000000000FFF90000000000F9FF0000000000000000000000000000000000000000000000FFF90000000000F9F9F9F9F9F9F9F9F9F9F9F9F9F9F9F9F9F9F9F9F9F9F9F9F9F9F9000000000000000000000000000000000000000000000000000000000000000000000000000000000000000000
310
00000000000000000000000000000000000000000000000000000000000000000000000000000000000000000000000000000000000000000000000000000000000000000000000000000000000000000000000000000000000000000000000000000000000000000000000000000000000000000000000000000000000000
310
0000000000000000000000000000000000000000000000000000000000000000000000000000000000000000000000000000000000000000
  0
BLOCK_RECORD
  5
210
330
1
100
AcDbSymbolTableRecord
100
AcDbBlockTableRecord
  2
GEN_A4
340
0
310
2800000020000000200000000100080000000000000400000000000000000000000000000000000000000000000080000080000000808000800000008000800080800000C0C0C000C0DCC000F0CAA6000020400000206000002080000020A0000020C0000020E00000400000004020000040400000406000004080000040A0
310
000040C0000040E00000600000006020000060400000606000006080000060A0000060C0000060E00000800000008020000080400000806000008080000080A0000080C0000080E00000A0000000A0200000A0400000A0600000A0800000A0A00000A0C00000A0E00000C0000000C0200000C0400000C0600000C0800000C0
310
A00000C0C00000C0E00000E0000000E0200000E0400000E0600000E0800000E0A00000E0C00000E0E00040000000400020004000400040006000400080004000A0004000C0004000E00040200000402020004020400040206000402080004020A0004020C0004020E000404000004040200040404000404060004040800040
310
40A0004040C0004040E00040600000406020004060400040606000406080004060A0004060C0004060E00040800000408020004080400040806000408080004080A0004080C0004080E00040A0000040A0200040A0400040A0600040A0800040A0A00040A0C00040A0E00040C0000040C0200040C0400040C0600040C08000
310
40C0A00040C0C00040C0E00040E0000040E0200040E0400040E0600040E0800040E0A00040E0C00040E0E00080000000800020008000400080006000800080008000A0008000C0008000E00080200000802020008020400080206000802080008020A0008020C0008020E00080400000804020008040400080406000804080
310
008040A0008040C0008040E00080600000806020008060400080606000806080008060A0008060C0008060E00080800000808020008080400080806000808080008080A0008080C0008080E00080A0000080A0200080A0400080A0600080A0800080A0A00080A0C00080A0E00080C0000080C0200080C0400080C0600080C0
310
800080C0A00080C0C00080C0E00080E0000080E0200080E0400080E0600080E0800080E0A00080E0C00080E0E000C0000000C0002000C0004000C0006000C0008000C000A000C000C000C000E000C0200000C0202000C0204000C0206000C0208000C020A000C020C000C020E000C0400000C0402000C0404000C0406000C0
310
408000C040A000C040C000C040E000C0600000C0602000C0604000C0606000C0608000C060A000C060C000C060E000C0800000C0802000C0804000C0806000C0808000C080A000C080C000C080E000C0A00000C0A02000C0A04000C0A06000C0A08000C0A0A000C0A0C000C0A0E000C0C00000C0C02000C0C04000C0C06000
310
C0C08000C0C0A000F0FBFF00A4A0A000808080000000FF0000FF000000FFFF00FF000000FF00FF00FFFF0000FFFFFF00000000000000000000000000000000000000000000000000000000000000000000000000F9F9F9F9F9F9F9F9F9F9F9F9F9F9F9F9F9F9F9F9F90000000000000000000000F900FFFFFFFFFFFFFFFFFF
310
FFFFFFFFFFFFFFFFFFF90000000000000000000000F900FF00000000000000000000000000000000FFF90000000000000000000000F900FF00000000000000000000000000000000FFF90000000000000000000000F900FF00000000000000000000000000000000FFF90000000000000000000000F900FF00000000000000
310
000000000000000000FFF90000000000000000000000F900FF00000000000000000000000000000000FFF90000000000000000000000F900FF00000000000000000000000000000000FFF90000000000000000000000F900FF00000000000000000000000000000000FFF90000000000000000000000F900FF000000000000
310
00000000000000000000FFF90000000000000000000000F9F9F900000000000000000000000000000000FFF90000000000000000000000F9F9FF00000000000000000000000000000000FFF90000000000000000000000F9F9FF00000000000000000000000000000000FFF90000000000000000000000F9F9FF0000000000
310
0000000000000000000000FFF90000000000000000000000F9F9F900000000000000000000000000000000FFF90000000000000000000000F9F9FF00000000000000000000000000000000FFF90000000000000000000000F9F9FF00000000000000000000000000000000FFF90000000000000000000000F9F9FF00000000
310
000000000000000000000000FFF90000000000000000000000F9F9FF00000000000000000000000000000000FFF90000000000000000000000F9F9F900000000000000000000000000000000FFF90000000000000000000000F9F9FF00000000000000000000000000000000FFF90000000000000000000000F9F9FF000000
310
00000000000000000000000000FFF90000000000000000000000F9F9FF00000000000000000000000000000000FFF90000000000000000000000F9F9F900000000000000000000000000000000FFF90000000000000000000000F9F9FF00000000000000000000000000000000FFF90000000000000000000000F9F9FF0000
310
0000000000000000000000000000FFF90000000000000000000000F9F9FF00000000000000000000000000000000FFF90000000000000000000000F9F9FFF9F9F9F9F9F9F9F9F9F9F9F9F9F9F9F9F9F90000000000000000000000F9F9F9FFF9FFF9FFF9FFF9FFFFF9FFF9FFF9FFFFF9000000000000000000000000000000
310
0000000000000000000000000000000000000000000000000000000000000000000000000000000000000000000000000000000000000000
  0
BLOCK_RECORD
  5
232
330
1
100
AcDbSymbolTableRecord
100
AcDbBlockTableRecord
  2
GENTITUS
340
0
310
2800000020000000200000000100080000000000000400000000000000000000000000000000000000000000000080000080000000808000800000008000800080800000C0C0C000C0DCC000F0CAA6000020400000206000002080000020A0000020C0000020E00000400000004020000040400000406000004080000040A0
310
000040C0000040E00000600000006020000060400000606000006080000060A0000060C0000060E00000800000008020000080400000806000008080000080A0000080C0000080E00000A0000000A0200000A0400000A0600000A0800000A0A00000A0C00000A0E00000C0000000C0200000C0400000C0600000C0800000C0
310
A00000C0C00000C0E00000E0000000E0200000E0400000E0600000E0800000E0A00000E0C00000E0E00040000000400020004000400040006000400080004000A0004000C0004000E00040200000402020004020400040206000402080004020A0004020C0004020E000404000004040200040404000404060004040800040
310
40A0004040C0004040E00040600000406020004060400040606000406080004060A0004060C0004060E00040800000408020004080400040806000408080004080A0004080C0004080E00040A0000040A0200040A0400040A0600040A0800040A0A00040A0C00040A0E00040C0000040C0200040C0400040C0600040C08000
310
40C0A00040C0C00040C0E00040E0000040E0200040E0400040E0600040E0800040E0A00040E0C00040E0E00080000000800020008000400080006000800080008000A0008000C0008000E00080200000802020008020400080206000802080008020A0008020C0008020E00080400000804020008040400080406000804080
310
008040A0008040C0008040E00080600000806020008060400080606000806080008060A0008060C0008060E00080800000808020008080400080806000808080008080A0008080C0008080E00080A0000080A0200080A0400080A0600080A0800080A0A00080A0C00080A0E00080C0000080C0200080C0400080C0600080C0
310
800080C0A00080C0C00080C0E00080E0000080E0200080E0400080E0600080E0800080E0A00080E0C00080E0E000C0000000C0002000C0004000C0006000C0008000C000A000C000C000C000E000C0200000C0202000C0204000C0206000C0208000C020A000C020C000C020E000C0400000C0402000C0404000C0406000C0
310
408000C040A000C040C000C040E000C0600000C0602000C0604000C0606000C0608000C060A000C060C000C060E000C0800000C0802000C0804000C0806000C0808000C080A000C080C000C080E000C0A00000C0A02000C0A04000C0A06000C0A08000C0A0A000C0A0C000C0A0E000C0C00000C0C02000C0C04000C0C06000
310
C0C08000C0C0A000F0FBFF00A4A0A000808080000000FF0000FF000000FFFF00FF000000FF00FF00FFFF0000FFFFFF0000000000000000000000000000000000000000000000000000000000000000000000000000000000000000000000000000000000000000000000000000000000000000000000000000000000000000
310
00000000000000000000000000000000000000000000000000000000000000000000000000000000000000000000000000000000000000000000000000000000000000000000000000000000000000000000000000000000000000000000000000000000000000000000000000000000000000000000000000000000000000
310
00000000000000000000000000000000000000000000000000000000000000000000000000000000000000000000000000000000000000000000000000000000000000000000000000000000000000000000000000000000000000000000000000000000000000000000000000000000000000000000000000000000000000
310
0000000000000000000000000000000000000000FFFFFFFFFFFFFFFFFFF9F9FFFFFFFFF9FFFFFFFFFFFFF9F9FFFFFFFFFFFFF900F9F9F9F9F9F9F9F9F9F9F9F9F9F9F9F9F9F9F9F9F9F9F9F9F9F9F9F9F9F9F900FF0000000000000000F9F9F9F9F9F9F9F9F9FFFFFFFFFFFFFFFFFFF9FFFF0000F9F9F9F9F9F9F9F9F9F9FF
310
F9FFFFFFF9FFFFFFFFFFFFFFFFFFFFFFF9FFFF0000F9F9F9F9F9F9F9F9F9F9F9F9F9FBFBFBFBFBFBFBFB0000000000000000FF0000F9F9F9F9F9F9F9F9F9F9F9F9F9FFFFFFFFFFFFFFFFFFFFFF0000000000FF0000F9F9F9F9F9F9F9F9F9F9F9F9F9FFFFFFFFFFFFFFFFFFFFFF0000000000FF0000F9F9F9F9F9F9F9F9F9F9
310
F9F9F9F9F9F9F9F9F9F9F9F9F9F9F9F9F9F9F9FF0000FFF9F9F900F9F9F9F9FFF9F9FBFBFBFBFBFBFBFBFB0000000000000000FF0000F9F9F9F9F9F9F9F9F9F9FFFFFFFFFFFFFFFFFFFFFFFFFFFFFFFFFFFFFFFF00000000000000000000000000000000000000000000000000000000000000000000000000000000000000
310
00000000000000000000000000000000000000000000000000000000000000000000000000000000000000000000000000000000000000000000000000000000000000000000000000000000000000000000000000000000000000000000000000000000000000000000000000000000000000000000000000000000000000
310
00000000000000000000000000000000000000000000000000000000000000000000000000000000000000000000000000000000000000000000000000000000000000000000000000000000000000000000000000000000000000000000000000000000000000000000000000000000000000000000000000000000000000
310
0000000000000000000000000000000000000000000000000000000000000000000000000000000000000000000000000000000000000000
  0
BLOCK_RECORD
  5
26D
330
1
100
AcDbSymbolTableRecord
100
AcDbBlockTableRecord
  2
IGS-A4
340
0
310
2800000020000000200000000100080000000000000400000000000000000000000000000000000000000000000080000080000000808000800000008000800080800000C0C0C000C0DCC000F0CAA6000020400000206000002080000020A0000020C0000020E00000400000004020000040400000406000004080000040A0
310
000040C0000040E00000600000006020000060400000606000006080000060A0000060C0000060E00000800000008020000080400000806000008080000080A0000080C0000080E00000A0000000A0200000A0400000A0600000A0800000A0A00000A0C00000A0E00000C0000000C0200000C0400000C0600000C0800000C0
310
A00000C0C00000C0E00000E0000000E0200000E0400000E0600000E0800000E0A00000E0C00000E0E00040000000400020004000400040006000400080004000A0004000C0004000E00040200000402020004020400040206000402080004020A0004020C0004020E000404000004040200040404000404060004040800040
310
40A0004040C0004040E00040600000406020004060400040606000406080004060A0004060C0004060E00040800000408020004080400040806000408080004080A0004080C0004080E00040A0000040A0200040A0400040A0600040A0800040A0A00040A0C00040A0E00040C0000040C0200040C0400040C0600040C08000
310
40C0A00040C0C00040C0E00040E0000040E0200040E0400040E0600040E0800040E0A00040E0C00040E0E00080000000800020008000400080006000800080008000A0008000C0008000E00080200000802020008020400080206000802080008020A0008020C0008020E00080400000804020008040400080406000804080
310
008040A0008040C0008040E00080600000806020008060400080606000806080008060A0008060C0008060E00080800000808020008080400080806000808080008080A0008080C0008080E00080A0000080A0200080A0400080A0600080A0800080A0A00080A0C00080A0E00080C0000080C0200080C0400080C0600080C0
310
800080C0A00080C0C00080C0E00080E0000080E0200080E0400080E0600080E0800080E0A00080E0C00080E0E000C0000000C0002000C0004000C0006000C0008000C000A000C000C000C000E000C0200000C0202000C0204000C0206000C0208000C020A000C020C000C020E000C0400000C0402000C0404000C0406000C0
310
408000C040A000C040C000C040E000C0600000C0602000C0604000C0606000C0608000C060A000C060C000C060E000C0800000C0802000C0804000C0806000C0808000C080A000C080C000C080E000C0A00000C0A02000C0A04000C0A06000C0A08000C0A0A000C0A0C000C0A0E000C0C00000C0C02000C0C04000C0C06000
310
C0C08000C0C0A000F0FBFF00A4A0A000808080000000FF0000FF000000FFFF00FF000000FF00FF00FFFF0000FFFFFF0000000000000000000000000000000000000000000000000000000000000000000000000000000000000000000000000000000000000000000000000000000000000000000000FFFFFFFFFFFFFFFFFF
310
FFFFFFFFFFFFFFFFFF0000000000000000000000000000FF00000000000000000000000000000000FF0000000000000000000000000000FF00000000000000000000000000000000FF0000000000000000000000000000FF00000000000000000000000000000000FF0000000000000000000000000000FF00000000000000
310
000000000000000000FF0000000000000000000000000000FF00000000000000000000000000000000FF0000000000000000000000000000FF00000000000000000000000000000000FF0000000000000000000000000000FF00000000000000000000000000000000FF0000000000000000000000000000FF000000000000
310
00000000000000000000FF0000000000000000000000000000FF00000000000000000000000000000000FF0000000000000000000000000000FF00000000000000000000000000000000FF0000000000000000000000000000FF00000000000000000000000000000000FF0000000000000000000000000000FF0000000000
310
0000000000000000000000FF0000000000000000000000000000FF00000000000000000000000000000000FF0000000000000000000000000000FF00000000000000000000000000000000FF0000000000000000000000000000FF00000000000000000000000000000000FF0000000000000000000000000000FF00000000
310
000000000000000000000000FF0000000000000000000000000000FF00000000000000000000000000000000FF0000000000000000000000000000FF00000000000000000000000000000000FF0000000000000000000000000000FF00000000000000000000000000000000FF0000000000000000000000000000FF000000
310
00000000000000000000000000FF0000000000000000000000000000FF00000000000000000000000000000000FF0000000000000000000000000000FF00000000000000000000000000000000FF0000000000000000000000000000FF00000000000000000000000000000000FF0000000000000000000000000000FF0000
310
0000000000000000000000000000FF0000000000000000000000000000FF00000000000000000000000000000000FF0000000000000000000000000000FF00000000000000000000000000000000FF0000000000000000000000000000FFFFFFFFFFFFFFFFFFFFFFFFFFFFFFFFFFFF00000000000000000000000000000000
310
0000000000000000000000000000000000000000000000000000000000000000000000000000000000000000000000000000000000000000
  0
BLOCK_RECORD
  5
279
330
1
100
AcDbSymbolTableRecord
100
AcDbBlockTableRecord
  2
CI
340
0
310
2800000020000000200000000100080000000000000400000000000000000000000000000000000000000000000080000080000000808000800000008000800080800000C0C0C000C0DCC000F0CAA6000020400000206000002080000020A0000020C0000020E00000400000004020000040400000406000004080000040A0
310
000040C0000040E00000600000006020000060400000606000006080000060A0000060C0000060E00000800000008020000080400000806000008080000080A0000080C0000080E00000A0000000A0200000A0400000A0600000A0800000A0A00000A0C00000A0E00000C0000000C0200000C0400000C0600000C0800000C0
310
A00000C0C00000C0E00000E0000000E0200000E0400000E0600000E0800000E0A00000E0C00000E0E00040000000400020004000400040006000400080004000A0004000C0004000E00040200000402020004020400040206000402080004020A0004020C0004020E000404000004040200040404000404060004040800040
310
40A0004040C0004040E00040600000406020004060400040606000406080004060A0004060C0004060E00040800000408020004080400040806000408080004080A0004080C0004080E00040A0000040A0200040A0400040A0600040A0800040A0A00040A0C00040A0E00040C0000040C0200040C0400040C0600040C08000
310
40C0A00040C0C00040C0E00040E0000040E0200040E0400040E0600040E0800040E0A00040E0C00040E0E00080000000800020008000400080006000800080008000A0008000C0008000E00080200000802020008020400080206000802080008020A0008020C0008020E00080400000804020008040400080406000804080
310
008040A0008040C0008040E00080600000806020008060400080606000806080008060A0008060C0008060E00080800000808020008080400080806000808080008080A0008080C0008080E00080A0000080A0200080A0400080A0600080A0800080A0A00080A0C00080A0E00080C0000080C0200080C0400080C0600080C0
310
800080C0A00080C0C00080C0E00080E0000080E0200080E0400080E0600080E0800080E0A00080E0C00080E0E000C0000000C0002000C0004000C0006000C0008000C000A000C000C000C000E000C0200000C0202000C0204000C0206000C0208000C020A000C020C000C020E000C0400000C0402000C0404000C0406000C0
310
408000C040A000C040C000C040E000C0600000C0602000C0604000C0606000C0608000C060A000C060C000C060E000C0800000C0802000C0804000C0806000C0808000C080A000C080C000C080E000C0A00000C0A02000C0A04000C0A06000C0A08000C0A0A000C0A0C000C0A0E000C0C00000C0C02000C0C04000C0C06000
310
C0C08000C0C0A000F0FBFF00A4A0A000808080000000FF0000FF000000FFFF00FF000000FF00FF00FFFF0000FFFFFF0000000000000000000000000000000000000000000000000000000000000000000000000000000000000000000000000000000000000000000000000000000000000000000000000000000000FFFFFF
310
00000000000000000000000000000000000000000000000000000000FF000000FFFFFFFFFFFF0000000000000000000000000000000000000000FFFF00000000000000000000FFFFFFFF000000000000000000000000000000FF00000000000000000000000000000000FF00000000000000000000000000FF000000000000
310
0000000000000000000000FF0000000000000000000000FFFF00000000000000000000000000000000000000FF000000000000000000FF000000000000000000000000000000000000000000FF0000000000000000FF0000000000000000000000000000000000000000000000FF00000000000000FF000000000000000000
310
0000000000000000000000000000FF00000000000000FF000000000000000000000000000000000000000000000000FF000000000000FF000000000000000000000000000000000000000000000000FF000000000000FF00000000000000000000000000000000000000000000000000FF0000000000FF0000000000000000
310
0000000000000000000000000000000000FF0000000000FF0000000000000000000000000000000000000000000000000000FF00000000FF0000000000000000000000000000000000000000000000000000FF00000000FF00000000000000000000000000000000000000000000000000FF0000000000FF00000000000000
310
000000000000000000000000000000000000FF0000000000FF000000000000000000000000000000000000000000000000FF000000000000FF000000000000000000000000000000000000000000000000FF000000000000FF0000000000000000000000000000000000000000000000FF00000000000000FF000000000000
310
0000000000000000000000000000000000FF0000000000000000FF000000000000000000000000000000000000000000FF00000000000000000000FFFF00000000000000000000000000000000000000FF000000000000000000000000FF0000000000000000000000000000000000FF0000000000000000000000000000FF
310
00000000000000000000000000000000FF000000000000000000000000000000FFFF0000000000000000000000FFFFFF000000000000000000000000000000000000FF00000000FFFFFFFFFFFF00000000000000000000000000000000000000000000FFFFFFFF000000000000000000000000000000000000000000000000
310
0000000000000000000000000000000000000000000000000000000000000000000000000000000000000000000000000000000000000000
  0
BLOCK_RECORD
  5
27D
330
1
100
AcDbSymbolTableRecord
100
AcDbBlockTableRecord
  2
IGS-TITLE
340
0
310
2800000020000000200000000100080000000000000400000000000000000000000000000000000000000000000080000080000000808000800000008000800080800000C0C0C000C0DCC000F0CAA6000020400000206000002080000020A0000020C0000020E00000400000004020000040400000406000004080000040A0
310
000040C0000040E00000600000006020000060400000606000006080000060A0000060C0000060E00000800000008020000080400000806000008080000080A0000080C0000080E00000A0000000A0200000A0400000A0600000A0800000A0A00000A0C00000A0E00000C0000000C0200000C0400000C0600000C0800000C0
310
A00000C0C00000C0E00000E0000000E0200000E0400000E0600000E0800000E0A00000E0C00000E0E00040000000400020004000400040006000400080004000A0004000C0004000E00040200000402020004020400040206000402080004020A0004020C0004020E000404000004040200040404000404060004040800040
310
40A0004040C0004040E00040600000406020004060400040606000406080004060A0004060C0004060E00040800000408020004080400040806000408080004080A0004080C0004080E00040A0000040A0200040A0400040A0600040A0800040A0A00040A0C00040A0E00040C0000040C0200040C0400040C0600040C08000
310
40C0A00040C0C00040C0E00040E0000040E0200040E0400040E0600040E0800040E0A00040E0C00040E0E00080000000800020008000400080006000800080008000A0008000C0008000E00080200000802020008020400080206000802080008020A0008020C0008020E00080400000804020008040400080406000804080
310
008040A0008040C0008040E00080600000806020008060400080606000806080008060A0008060C0008060E00080800000808020008080400080806000808080008080A0008080C0008080E00080A0000080A0200080A0400080A0600080A0800080A0A00080A0C00080A0E00080C0000080C0200080C0400080C0600080C0
310
800080C0A00080C0C00080C0E00080E0000080E0200080E0400080E0600080E0800080E0A00080E0C00080E0E000C0000000C0002000C0004000C0006000C0008000C000A000C000C000C000E000C0200000C0202000C0204000C0206000C0208000C020A000C020C000C020E000C0400000C0402000C0404000C0406000C0
310
408000C040A000C040C000C040E000C0600000C0602000C0604000C0606000C0608000C060A000C060C000C060E000C0800000C0802000C0804000C0806000C0808000C080A000C080C000C080E000C0A00000C0A02000C0A04000C0A06000C0A08000C0A0A000C0A0C000C0A0E000C0C00000C0C02000C0C04000C0C06000
310
C0C08000C0C0A000F0FBFF00A4A0A000808080000000FF0000FF000000FFFF00FF000000FF00FF00FFFF0000FFFFFF0000000000000000000000000000000000000000000000000000000000000000000000000000000000000000000000000000000000000000000000000000000000000000000000000000000000000000
310
00000000000000000000000000000000000000000000000000000000000000000000000000000000000000000000000000000000000000000000000000000000000000000000000000000000000000000000000000000000000000000000000000000000000000000000000000000000000000000000000000000000000000
310
00000000000000000000000000000000000000000000000000000000000000000000000000000000000000000000000000000000000000000000000000000000000000000000000000000000000000000000000000000000000000000000000000000000000000000000000000000000000000000000000000000000000000
310
0000000000000000000000000000000000000000000000000000000000000000000000000000000000000000000000000000000000000000000000000000000000000000000000000000000000000000000000000000000000000000000000000000000000000000000000000000000000000000FFFFFFFFFFFFFFFFFFFFFF
310
FFFFFFFFFFFFFFFFFFFFFFFFFFFFFFFFFFFFFF0000FFFFFFFFFFFFFFFFFFFFFFFFFFFFFFFFFFFFFFFFFFFFFFFFFFFFFFFFFFFF0000FFFFFFFFFFFFFFFFFFFFFFFFFFFFFFFFFFFF00000000FFFF000000FFFFFF0000FFFFFFFFFFFFFFFFFFFFFFFFFFFFFFFFFFFFFFFFFFFFFFFFFFFFFFFFFFFF000000000000000000000000
310
00000000000000000000000000000000000000000000000000000000000000000000000000000000000000000000000000000000000000000000000000000000000000000000000000000000000000000000000000000000000000000000000000000000000000000000000000000000000000000000000000000000000000
310
00000000000000000000000000000000000000000000000000000000000000000000000000000000000000000000000000000000000000000000000000000000000000000000000000000000000000000000000000000000000000000000000000000000000000000000000000000000000000000000000000000000000000
310
00000000000000000000000000000000000000000000000000000000000000000000000000000000000000000000000000000000000000000000000000000000000000000000000000000000000000000000000000000000000000000000000000000000000000000000000000000000000000000000000000000000000000
310
0000000000000000000000000000000000000000000000000000000000000000000000000000000000000000000000000000000000000000
  0
BLOCK_RECORD
  5
335
330
1
100
AcDbSymbolTableRecord
100
AcDbBlockTableRecord
  2
IGS2
340
0
310
2800000020000000200000000100080000000000000400000000000000000000000000000000000000000000000080000080000000808000800000008000800080800000C0C0C000C0DCC000F0CAA6000020400000206000002080000020A0000020C0000020E00000400000004020000040400000406000004080000040A0
310
000040C0000040E00000600000006020000060400000606000006080000060A0000060C0000060E00000800000008020000080400000806000008080000080A0000080C0000080E00000A0000000A0200000A0400000A0600000A0800000A0A00000A0C00000A0E00000C0000000C0200000C0400000C0600000C0800000C0
310
A00000C0C00000C0E00000E0000000E0200000E0400000E0600000E0800000E0A00000E0C00000E0E00040000000400020004000400040006000400080004000A0004000C0004000E00040200000402020004020400040206000402080004020A0004020C0004020E000404000004040200040404000404060004040800040
310
40A0004040C0004040E00040600000406020004060400040606000406080004060A0004060C0004060E00040800000408020004080400040806000408080004080A0004080C0004080E00040A0000040A0200040A0400040A0600040A0800040A0A00040A0C00040A0E00040C0000040C0200040C0400040C0600040C08000
310
40C0A00040C0C00040C0E00040E0000040E0200040E0400040E0600040E0800040E0A00040E0C00040E0E00080000000800020008000400080006000800080008000A0008000C0008000E00080200000802020008020400080206000802080008020A0008020C0008020E00080400000804020008040400080406000804080
310
008040A0008040C0008040E00080600000806020008060400080606000806080008060A0008060C0008060E00080800000808020008080400080806000808080008080A0008080C0008080E00080A0000080A0200080A0400080A0600080A0800080A0A00080A0C00080A0E00080C0000080C0200080C0400080C0600080C0
310
800080C0A00080C0C00080C0E00080E0000080E0200080E0400080E0600080E0800080E0A00080E0C00080E0E000C0000000C0002000C0004000C0006000C0008000C000A000C000C000C000E000C0200000C0202000C0204000C0206000C0208000C020A000C020C000C020E000C0400000C0402000C0404000C0406000C0
310
408000C040A000C040C000C040E000C0600000C0602000C0604000C0606000C0608000C060A000C060C000C060E000C0800000C0802000C0804000C0806000C0808000C080A000C080C000C080E000C0A00000C0A02000C0A04000C0A06000C0A08000C0A0A000C0A0C000C0A0E000C0C00000C0C02000C0C04000C0C06000
310
C0C08000C0C0A000F0FBFF00A4A0A000808080000000FF0000FF000000FFFF00FF000000FF00FF00FFFF0000FFFFFF0000000000000000000000000000000000000000000000000000000000000000000000000000000000000000000000000000000000000000000000000000000000000000000000000000000000000000
310
00000000000000000000000000000000000000000000000000000000000000000000000000000000000000000000000000000000000000000000000000000000000000000000000000000000000000000000F9FBFBF9F9F9FBFBF9F9F9F90000000000000000000000000000000000000000F9F9FBFBFBFBFBFBFBF9F9F900
310
00000000000000000000000000000000000000F9FBFBFBFBFBFBFBFBF9F9F90000000000000000000000000000000000000000F9F9F9F9F9F9F9F9F9F9F9F900000000000000000000000000000000000000000000000000000000000000000000000000000000000000000000000000000000000000000000000000000000
310
00000000000000000000000000000000000000000000000000000000000000000000000000000000000000000000000000000000000000000000000000000000000000000000000000000000000000000000000000000000000000000000000000000000000000000000000000000000000000000000000000000000000000
310
00000000000000000000000000000000000000000000000000000000000000000000000000000000000000000000000000000000000000000000000000000000000000000000000000000000000000000000000000000000000000000000000000000000000000000000000000000000000000000000000000000000000000
310
00000000000000000000000000000000000000000000000000000000000000000000000000000000000000000000000000000000000000000000000000000000000000000000000000000000000000000000000000000000000000000000000000000000000000000000000000000000000000000000000000000000000000
310
00000000000000000000000000000000000000000000000000000000000000000000000000000000000000000000000000000000000000000000000000000000000000000000000000000000000000000000000000000000000000000000000000000000000000000000000000000000000000000000000000000000000000
310
00000000000000000000000000000000000000000000000000000000000000000000000000000000000000000000000000000000000000000000000000000000000000000000000000000000000000000000000000000000000000000000000000000000000000000000000000000000000000000000000000000000000000
310
0000000000000000000000000000000000000000000000000000000000000000000000000000000000000000000000000000000000000000
102
{BLKREFS
331
FB6
102
}
  0
BLOCK_RECORD
  5
3FC
330
1
100
AcDbSymbolTableRecord
100
AcDbBlockTableRecord
  2
IGS_A1
340
0
310
2800000020000000200000000100080000000000000400000000000000000000000000000000000000000000000080000080000000808000800000008000800080800000C0C0C000C0DCC000F0CAA6000020400000206000002080000020A0000020C0000020E00000400000004020000040400000406000004080000040A0
310
000040C0000040E00000600000006020000060400000606000006080000060A0000060C0000060E00000800000008020000080400000806000008080000080A0000080C0000080E00000A0000000A0200000A0400000A0600000A0800000A0A00000A0C00000A0E00000C0000000C0200000C0400000C0600000C0800000C0
310
A00000C0C00000C0E00000E0000000E0200000E0400000E0600000E0800000E0A00000E0C00000E0E00040000000400020004000400040006000400080004000A0004000C0004000E00040200000402020004020400040206000402080004020A0004020C0004020E000404000004040200040404000404060004040800040
310
40A0004040C0004040E00040600000406020004060400040606000406080004060A0004060C0004060E00040800000408020004080400040806000408080004080A0004080C0004080E00040A0000040A0200040A0400040A0600040A0800040A0A00040A0C00040A0E00040C0000040C0200040C0400040C0600040C08000
310
40C0A00040C0C00040C0E00040E0000040E0200040E0400040E0600040E0800040E0A00040E0C00040E0E00080000000800020008000400080006000800080008000A0008000C0008000E00080200000802020008020400080206000802080008020A0008020C0008020E00080400000804020008040400080406000804080
310
008040A0008040C0008040E00080600000806020008060400080606000806080008060A0008060C0008060E00080800000808020008080400080806000808080008080A0008080C0008080E00080A0000080A0200080A0400080A0600080A0800080A0A00080A0C00080A0E00080C0000080C0200080C0400080C0600080C0
310
800080C0A00080C0C00080C0E00080E0000080E0200080E0400080E0600080E0800080E0A00080E0C00080E0E000C0000000C0002000C0004000C0006000C0008000C000A000C000C000C000E000C0200000C0202000C0204000C0206000C0208000C020A000C020C000C020E000C0400000C0402000C0404000C0406000C0
310
408000C040A000C040C000C040E000C0600000C0602000C0604000C0606000C0608000C060A000C060C000C060E000C0800000C0802000C0804000C0806000C0808000C080A000C080C000C080E000C0A00000C0A02000C0A04000C0A06000C0A08000C0A0A000C0A0C000C0A0E000C0C00000C0C02000C0C04000C0C06000
310
C0C08000C0C0A000F0FBFF00A4A0A000808080000000FF0000FF000000FFFF00FF000000FF00FF00FFFF0000FFFFFF0000000000000000000000000000000000000000000000000000000000000000000000000000000000000000000000000000000000000000000000000000000000000000000000000000000000000000
310
00000000000000000000000000000000000000000000000000000000000000000000000000000000000000000000000000000000000000000000000000000000000000000000000000000000000000000000000000000000000000000000000000000000000000000000000000000000000000000000000000000000000000
310
00000000000000000000000000000000000000F9F9F9F9F9F9F9F9F9F9F9F9F9F9F9F9F9F9F9F9F9F9F9F9F9F9000000000000F9FF0000000000000000000000000000000000000000000000F9000000000000F9FF0000000000000000000000000000000000000000000000F9000000000000F9FF00000000000000000000
310
00000000000000000000000000F9000000000000F9FF0000000000000000000000000000000000000000000000F9000000000000F9FF0000000000000000000000000000000000000000000000F9000000000000F9FF0000000000000000000000000000000000000000000000F9000000000000F9FF000000000000000000
310
0000000000000000000000000000F9000000000000F9FF0000000000000000000000000000000000000000000000F9000000000000F9FF0000000000000000000000000000000000000000000000F9000000000000F9FF0000000000000000000000000000000000000000000000F9000000000000F9FF0000000000000000
310
000000000000000000000000000000F9000000000000F9FF0000000000000000000000000000000000000000000000F9000000000000F9FF0000000000000000000000000000000000000000000000F9000000000000F9FF0000000000000000000000000000000000000000000000F9000000000000F9FF00000000000000
310
00000000000000000000000000000000F9000000000000F9FF0000000000000000000000000000000000000000000000F9000000000000F9F9F9F9F9F9F9F9F9F9F9F9F9F9F9F9F9F9F9F9F9F9F9F9F9F900000000000000000000000000000000000000000000000000000000000000000000000000000000000000000000
310
00000000000000000000000000000000000000000000000000000000000000000000000000000000000000000000000000000000000000000000000000000000000000000000000000000000000000000000000000000000000000000000000000000000000000000000000000000000000000000000000000000000000000
310
0000000000000000000000000000000000000000000000000000000000000000000000000000000000000000000000000000000000000000
  0
BLOCK_RECORD
  5
50A
330
1
100
AcDbSymbolTableRecord
100
AcDbBlockTableRecord
  2
jis_bl_revisionlist1
340
0
310
2800000020000000200000000100080000000000000400000000000000000000000000000000000000000000000080000080000000808000800000008000800080800000C0C0C000C0DCC000F0CAA6000020400000206000002080000020A0000020C0000020E00000400000004020000040400000406000004080000040A0
310
000040C0000040E00000600000006020000060400000606000006080000060A0000060C0000060E00000800000008020000080400000806000008080000080A0000080C0000080E00000A0000000A0200000A0400000A0600000A0800000A0A00000A0C00000A0E00000C0000000C0200000C0400000C0600000C0800000C0
310
A00000C0C00000C0E00000E0000000E0200000E0400000E0600000E0800000E0A00000E0C00000E0E00040000000400020004000400040006000400080004000A0004000C0004000E00040200000402020004020400040206000402080004020A0004020C0004020E000404000004040200040404000404060004040800040
310
40A0004040C0004040E00040600000406020004060400040606000406080004060A0004060C0004060E00040800000408020004080400040806000408080004080A0004080C0004080E00040A0000040A0200040A0400040A0600040A0800040A0A00040A0C00040A0E00040C0000040C0200040C0400040C0600040C08000
310
40C0A00040C0C00040C0E00040E0000040E0200040E0400040E0600040E0800040E0A00040E0C00040E0E00080000000800020008000400080006000800080008000A0008000C0008000E00080200000802020008020400080206000802080008020A0008020C0008020E00080400000804020008040400080406000804080
310
008040A0008040C0008040E00080600000806020008060400080606000806080008060A0008060C0008060E00080800000808020008080400080806000808080008080A0008080C0008080E00080A0000080A0200080A0400080A0600080A0800080A0A00080A0C00080A0E00080C0000080C0200080C0400080C0600080C0
310
800080C0A00080C0C00080C0E00080E0000080E0200080E0400080E0600080E0800080E0A00080E0C00080E0E000C0000000C0002000C0004000C0006000C0008000C000A000C000C000C000E000C0200000C0202000C0204000C0206000C0208000C020A000C020C000C020E000C0400000C0402000C0404000C0406000C0
310
408000C040A000C040C000C040E000C0600000C0602000C0604000C0606000C0608000C060A000C060C000C060E000C0800000C0802000C0804000C0806000C0808000C080A000C080C000C080E000C0A00000C0A02000C0A04000C0A06000C0A08000C0A0A000C0A0C000C0A0E000C0C00000C0C02000C0C04000C0C06000
310
C0C08000C0C0A000F0FBFF00A4A0A000808080000000FF0000FF000000FFFF00FF000000FF00FF00FFFF0000FFFFFF0000000000000000000000000000000000000000000000000000000000000000000000000000000000000000000000000000000000000000000000000000000000000000000000000000000000000000
310
00000000000000000000000000000000000000000000000000000000000000000000000000000000000000000000000000000000000000000000000000000000000000000000000000000000000000000000000000000000000000000000000000000000000000000000000000000000000000000000000000000000000000
310
00000000000000000000000000000000000000000000000000000000000000000000000000000000000000000000000000000000000000000000000000000000000000000000000000000000000000000000000000000000000000000000000000000000000000000000000000000000000000000000000000000000000000
310
00000000000000000000000000000000000000000000000000000000000000000000000000000000000000000000000000000000000000000000000000000000000000000000000000000000000000000000000000000000000000000000000000000000000000000000000000000000000000000000000000000000000000
310
000000000000000000000000000000000000000000FFFFFFFFFFFFFFFFFFFFFFFFFFFFFFFFFFFFFFFFFFFFFFFFFFFFFFFF00000000FFFFFFFFFFFFFFFFFFFFFFFFFFFFFFFFFFFFFFFFFFFFFFFFFFFFFFFFFFFF0000000000000000000000000000000000000000000000000000000000000000000000000000000000000000
310
00000000000000000000000000000000000000000000000000000000000000000000000000000000000000000000000000000000000000000000000000000000000000000000000000000000000000000000000000000000000000000000000000000000000000000000000000000000000000000000000000000000000000
310
00000000000000000000000000000000000000000000000000000000000000000000000000000000000000000000000000000000000000000000000000000000000000000000000000000000000000000000000000000000000000000000000000000000000000000000000000000000000000000000000000000000000000
310
00000000000000000000000000000000000000000000000000000000000000000000000000000000000000000000000000000000000000000000000000000000000000000000000000000000000000000000000000000000000000000000000000000000000000000000000000000000000000000000000000000000000000
310
0000000000000000000000000000000000000000000000000000000000000000000000000000000000000000000000000000000000000000
102
{BLKREFS
331
52F
102
}
1001
ACAD
1000
DesignCenter Data
1002
{
1070
     1
1070
     1
1002
}
  0
BLOCK_RECORD
  5
520
330
1
100
AcDbSymbolTableRecord
100
AcDbBlockTableRecord
  2
jis_bl_revisionlist0
340
0
310
2800000020000000200000000100080000000000000400000000000000000000000000000000000000000000000080000080000000808000800000008000800080800000C0C0C000C0DCC000F0CAA6000020400000206000002080000020A0000020C0000020E00000400000004020000040400000406000004080000040A0
310
000040C0000040E00000600000006020000060400000606000006080000060A0000060C0000060E00000800000008020000080400000806000008080000080A0000080C0000080E00000A0000000A0200000A0400000A0600000A0800000A0A00000A0C00000A0E00000C0000000C0200000C0400000C0600000C0800000C0
310
A00000C0C00000C0E00000E0000000E0200000E0400000E0600000E0800000E0A00000E0C00000E0E00040000000400020004000400040006000400080004000A0004000C0004000E00040200000402020004020400040206000402080004020A0004020C0004020E000404000004040200040404000404060004040800040
310
40A0004040C0004040E00040600000406020004060400040606000406080004060A0004060C0004060E00040800000408020004080400040806000408080004080A0004080C0004080E00040A0000040A0200040A0400040A0600040A0800040A0A00040A0C00040A0E00040C0000040C0200040C0400040C0600040C08000
310
40C0A00040C0C00040C0E00040E0000040E0200040E0400040E0600040E0800040E0A00040E0C00040E0E00080000000800020008000400080006000800080008000A0008000C0008000E00080200000802020008020400080206000802080008020A0008020C0008020E00080400000804020008040400080406000804080
310
008040A0008040C0008040E00080600000806020008060400080606000806080008060A0008060C0008060E00080800000808020008080400080806000808080008080A0008080C0008080E00080A0000080A0200080A0400080A0600080A0800080A0A00080A0C00080A0E00080C0000080C0200080C0400080C0600080C0
310
800080C0A00080C0C00080C0E00080E0000080E0200080E0400080E0600080E0800080E0A00080E0C00080E0E000C0000000C0002000C0004000C0006000C0008000C000A000C000C000C000E000C0200000C0202000C0204000C0206000C0208000C020A000C020C000C020E000C0400000C0402000C0404000C0406000C0
310
408000C040A000C040C000C040E000C0600000C0602000C0604000C0606000C0608000C060A000C060C000C060E000C0800000C0802000C0804000C0806000C0808000C080A000C080C000C080E000C0A00000C0A02000C0A04000C0A06000C0A08000C0A0A000C0A0C000C0A0E000C0C00000C0C02000C0C04000C0C06000
310
C0C08000C0C0A000F0FBFF00A4A0A000808080000000FF0000FF000000FFFF00FF000000FF00FF00FFFF0000FFFFFF0000000000000000000000000000000000000000000000000000000000000000000000000000000000000000000000000000000000000000000000000000000000000000000000000000000000000000
310
00000000000000000000000000000000000000000000000000000000000000000000000000000000000000000000000000000000000000000000000000000000000000000000000000000000000000000000000000000000000000000000000000000000000000000000000000000000000000000000000000000000000000
310
00000000000000000000000000000000000000000000000000000000000000000000000000000000000000000000000000000000000000000000000000000000000000000000000000000000000000000000000000000000000000000000000000000000000000000000000000000000000000000000000000000000000000
310
00000000000000000000000000000000000000000000000000000000000000000000000000000000000000000000000000000000000000000000000000000000000000000000000000000000000000000000000000000000000000000000000000000000000000000000000000000000000000000000000000000000000000
310
000000000000000000000000000000000000000000FFFFFFFFFFFFFFFFFFFFFFFFFFFFFFFFFFFFFFFFFFFFFFFFFFFFFFFFFFFF0000FFFFFFFFFFFFFFFFFFFFFFFFFFFFFFFFFFFFFFFFFFFFFFFFFFFFFFFFFFFF0000000000000000000000000000000000000000000000000000000000000000000000000000000000000000
310
00000000000000000000000000000000000000000000000000000000000000000000000000000000000000000000000000000000000000000000000000000000000000000000000000000000000000000000000000000000000000000000000000000000000000000000000000000000000000000000000000000000000000
310
00000000000000000000000000000000000000000000000000000000000000000000000000000000000000000000000000000000000000000000000000000000000000000000000000000000000000000000000000000000000000000000000000000000000000000000000000000000000000000000000000000000000000
310
00000000000000000000000000000000000000000000000000000000000000000000000000000000000000000000000000000000000000000000000000000000000000000000000000000000000000000000000000000000000000000000000000000000000000000000000000000000000000000000000000000000000000
310
0000000000000000000000000000000000000000000000000000000000000000000000000000000000000000000000000000000000000000
102
{BLKREFS
331
537
102
}
1001
ACAD
1000
DesignCenter Data
1002
{
1070
     1
1070
     1
1002
}
  0
BLOCK_RECORD
  5
52E
330
1
100
AcDbSymbolTableRecord
100
AcDbBlockTableRecord
  2
jis_bl_revisionlist
340
0
310
2800000020000000200000000100080000000000000400000000000000000000000000000000000000000000000080000080000000808000800000008000800080800000C0C0C000C0DCC000F0CAA6000020400000206000002080000020A0000020C0000020E00000400000004020000040400000406000004080000040A0
310
000040C0000040E00000600000006020000060400000606000006080000060A0000060C0000060E00000800000008020000080400000806000008080000080A0000080C0000080E00000A0000000A0200000A0400000A0600000A0800000A0A00000A0C00000A0E00000C0000000C0200000C0400000C0600000C0800000C0
310
A00000C0C00000C0E00000E0000000E0200000E0400000E0600000E0800000E0A00000E0C00000E0E00040000000400020004000400040006000400080004000A0004000C0004000E00040200000402020004020400040206000402080004020A0004020C0004020E000404000004040200040404000404060004040800040
310
40A0004040C0004040E00040600000406020004060400040606000406080004060A0004060C0004060E00040800000408020004080400040806000408080004080A0004080C0004080E00040A0000040A0200040A0400040A0600040A0800040A0A00040A0C00040A0E00040C0000040C0200040C0400040C0600040C08000
310
40C0A00040C0C00040C0E00040E0000040E0200040E0400040E0600040E0800040E0A00040E0C00040E0E00080000000800020008000400080006000800080008000A0008000C0008000E00080200000802020008020400080206000802080008020A0008020C0008020E00080400000804020008040400080406000804080
310
008040A0008040C0008040E00080600000806020008060400080606000806080008060A0008060C0008060E00080800000808020008080400080806000808080008080A0008080C0008080E00080A0000080A0200080A0400080A0600080A0800080A0A00080A0C00080A0E00080C0000080C0200080C0400080C0600080C0
310
800080C0A00080C0C00080C0E00080E0000080E0200080E0400080E0600080E0800080E0A00080E0C00080E0E000C0000000C0002000C0004000C0006000C0008000C000A000C000C000C000E000C0200000C0202000C0204000C0206000C0208000C020A000C020C000C020E000C0400000C0402000C0404000C0406000C0
310
408000C040A000C040C000C040E000C0600000C0602000C0604000C0606000C0608000C060A000C060C000C060E000C0800000C0802000C0804000C0806000C0808000C080A000C080C000C080E000C0A00000C0A02000C0A04000C0A06000C0A08000C0A0A000C0A0C000C0A0E000C0C00000C0C02000C0C04000C0C06000
310
C0C08000C0C0A000F0FBFF00A4A0A000808080000000FF0000FF000000FFFF00FF000000FF00FF00FFFF0000FFFFFF0000000000000000000000000000000000000000000000000000000000000000000000000000000000000000000000000000000000000000000000000000000000000000000000000000000000000000
310
00000000000000000000000000000000000000000000000000000000000000000000000000000000000000000000000000000000000000000000000000000000000000000000000000000000000000000000000000000000000000000000000000000000000000000000000000000000000000000000000000000000000000
310
00000000000000000000000000000000000000000000000000000000000000000000000000000000000000000000000000000000000000000000000000000000000000000000000000000000000000000000000000000000000000000000000000000000000000000000000000000000000000000000000000000000000000
310
00000000000000000000000000000000000000000000000000000000000000000000000000000000000000000000000000000000000000000000000000000000000000000000000000000000000000000000000000000000000000000000000000000000000000000000000000000000000000000000000000000000000000
310
000000000000000000000000000000000000000000FFF9F9F9FFF9F9FFFFFFFFFFFFFFFFFFFFFFFFFFFFFFFFFFFFF9F9FFFFFF0000FFFFF9FFFFF9FFFFFFFFFFFFFFFFFFFFFFFFFFFFFFFFFFFFFFF9FFFFFFFF0000000000000000000000000000000000000000000000000000000000000000000000000000000000000000
310
00000000000000000000000000000000000000000000000000000000000000000000000000000000000000000000000000000000000000000000000000000000000000000000000000000000000000000000000000000000000000000000000000000000000000000000000000000000000000000000000000000000000000
310
00000000000000000000000000000000000000000000000000000000000000000000000000000000000000000000000000000000000000000000000000000000000000000000000000000000000000000000000000000000000000000000000000000000000000000000000000000000000000000000000000000000000000
310
00000000000000000000000000000000000000000000000000000000000000000000000000000000000000000000000000000000000000000000000000000000000000000000000000000000000000000000000000000000000000000000000000000000000000000000000000000000000000000000000000000000000000
310
0000000000000000000000000000000000000000000000000000000000000000000000000000000000000000000000000000000000000000
  0
BLOCK_RECORD
  5
5D6
330
1
100
AcDbSymbolTableRecord
100
AcDbBlockTableRecord
  2
jis_br_revisionlist0
340
0
310
2800000020000000200000000100080000000000000400000000000000000000000000000000000000000000000080000080000000808000800000008000800080800000C0C0C000C0DCC000F0CAA6000020400000206000002080000020A0000020C0000020E00000400000004020000040400000406000004080000040A0
310
000040C0000040E00000600000006020000060400000606000006080000060A0000060C0000060E00000800000008020000080400000806000008080000080A0000080C0000080E00000A0000000A0200000A0400000A0600000A0800000A0A00000A0C00000A0E00000C0000000C0200000C0400000C0600000C0800000C0
310
A00000C0C00000C0E00000E0000000E0200000E0400000E0600000E0800000E0A00000E0C00000E0E00040000000400020004000400040006000400080004000A0004000C0004000E00040200000402020004020400040206000402080004020A0004020C0004020E000404000004040200040404000404060004040800040
310
40A0004040C0004040E00040600000406020004060400040606000406080004060A0004060C0004060E00040800000408020004080400040806000408080004080A0004080C0004080E00040A0000040A0200040A0400040A0600040A0800040A0A00040A0C00040A0E00040C0000040C0200040C0400040C0600040C08000
310
40C0A00040C0C00040C0E00040E0000040E0200040E0400040E0600040E0800040E0A00040E0C00040E0E00080000000800020008000400080006000800080008000A0008000C0008000E00080200000802020008020400080206000802080008020A0008020C0008020E00080400000804020008040400080406000804080
310
008040A0008040C0008040E00080600000806020008060400080606000806080008060A0008060C0008060E00080800000808020008080400080806000808080008080A0008080C0008080E00080A0000080A0200080A0400080A0600080A0800080A0A00080A0C00080A0E00080C0000080C0200080C0400080C0600080C0
310
800080C0A00080C0C00080C0E00080E0000080E0200080E0400080E0600080E0800080E0A00080E0C00080E0E000C0000000C0002000C0004000C0006000C0008000C000A000C000C000C000E000C0200000C0202000C0204000C0206000C0208000C020A000C020C000C020E000C0400000C0402000C0404000C0406000C0
310
408000C040A000C040C000C040E000C0600000C0602000C0604000C0606000C0608000C060A000C060C000C060E000C0800000C0802000C0804000C0806000C0808000C080A000C080C000C080E000C0A00000C0A02000C0A04000C0A06000C0A08000C0A0A000C0A0C000C0A0E000C0C00000C0C02000C0C04000C0C06000
310
C0C08000C0C0A000F0FBFF00A4A0A000808080000000FF0000FF000000FFFF00FF000000FF00FF00FFFF0000FFFFFF0000000000000000000000000000000000000000000000000000000000000000000000000000000000000000000000000000000000000000000000000000000000000000000000000000000000000000
310
00000000000000000000000000000000000000000000000000000000000000000000000000000000000000000000000000000000000000000000000000000000000000000000000000000000000000000000000000000000000000000000000000000000000000000000000000000000000000000000000000000000000000
310
00000000000000000000000000000000000000000000000000000000000000000000000000000000000000000000000000000000000000000000000000000000000000000000000000000000000000000000000000000000000000000000000000000000000000000000000000000000000000000000000000000000000000
310
00000000000000000000000000000000000000000000000000000000000000000000000000000000000000000000000000000000000000000000000000000000000000000000000000000000000000000000000000000000000000000000000000000000000000000000000000000000000000000000000000000000000000
310
000000000000000000000000000000000000000000FFFFFFFFFFFFFFFFFFFFFFFFFFFFFFFFFFFFFFFFFFFFFFFFFFFFFFFFFFFF0000FFFFFFFFFFFFFFFFFFFFFFFFFFFFFFFFFFFFFFFFFFFFFFFFFFFFFFFFFFFF0000000000000000000000000000000000000000000000000000000000000000000000000000000000000000
310
00000000000000000000000000000000000000000000000000000000000000000000000000000000000000000000000000000000000000000000000000000000000000000000000000000000000000000000000000000000000000000000000000000000000000000000000000000000000000000000000000000000000000
310
00000000000000000000000000000000000000000000000000000000000000000000000000000000000000000000000000000000000000000000000000000000000000000000000000000000000000000000000000000000000000000000000000000000000000000000000000000000000000000000000000000000000000
310
00000000000000000000000000000000000000000000000000000000000000000000000000000000000000000000000000000000000000000000000000000000000000000000000000000000000000000000000000000000000000000000000000000000000000000000000000000000000000000000000000000000000000
310
0000000000000000000000000000000000000000000000000000000000000000000000000000000000000000000000000000000000000000
102
{BLKREFS
331
603
102
}
1001
ACAD
1000
DesignCenter Data
1002
{
1070
     1
1070
     1
1002
}
  0
BLOCK_RECORD
  5
5E4
330
1
100
AcDbSymbolTableRecord
100
AcDbBlockTableRecord
  2
jis_br_revisionlist1
340
0
310
2800000020000000200000000100080000000000000400000000000000000000000000000000000000000000000080000080000000808000800000008000800080800000C0C0C000C0DCC000F0CAA6000020400000206000002080000020A0000020C0000020E00000400000004020000040400000406000004080000040A0
310
000040C0000040E00000600000006020000060400000606000006080000060A0000060C0000060E00000800000008020000080400000806000008080000080A0000080C0000080E00000A0000000A0200000A0400000A0600000A0800000A0A00000A0C00000A0E00000C0000000C0200000C0400000C0600000C0800000C0
310
A00000C0C00000C0E00000E0000000E0200000E0400000E0600000E0800000E0A00000E0C00000E0E00040000000400020004000400040006000400080004000A0004000C0004000E00040200000402020004020400040206000402080004020A0004020C0004020E000404000004040200040404000404060004040800040
310
40A0004040C0004040E00040600000406020004060400040606000406080004060A0004060C0004060E00040800000408020004080400040806000408080004080A0004080C0004080E00040A0000040A0200040A0400040A0600040A0800040A0A00040A0C00040A0E00040C0000040C0200040C0400040C0600040C08000
310
40C0A00040C0C00040C0E00040E0000040E0200040E0400040E0600040E0800040E0A00040E0C00040E0E00080000000800020008000400080006000800080008000A0008000C0008000E00080200000802020008020400080206000802080008020A0008020C0008020E00080400000804020008040400080406000804080
310
008040A0008040C0008040E00080600000806020008060400080606000806080008060A0008060C0008060E00080800000808020008080400080806000808080008080A0008080C0008080E00080A0000080A0200080A0400080A0600080A0800080A0A00080A0C00080A0E00080C0000080C0200080C0400080C0600080C0
310
800080C0A00080C0C00080C0E00080E0000080E0200080E0400080E0600080E0800080E0A00080E0C00080E0E000C0000000C0002000C0004000C0006000C0008000C000A000C000C000C000E000C0200000C0202000C0204000C0206000C0208000C020A000C020C000C020E000C0400000C0402000C0404000C0406000C0
310
408000C040A000C040C000C040E000C0600000C0602000C0604000C0606000C0608000C060A000C060C000C060E000C0800000C0802000C0804000C0806000C0808000C080A000C080C000C080E000C0A00000C0A02000C0A04000C0A06000C0A08000C0A0A000C0A0C000C0A0E000C0C00000C0C02000C0C04000C0C06000
310
C0C08000C0C0A000F0FBFF00A4A0A000808080000000FF0000FF000000FFFF00FF000000FF00FF00FFFF0000FFFFFF0000000000000000000000000000000000000000000000000000000000000000000000000000000000000000000000000000000000000000000000000000000000000000000000000000000000000000
310
00000000000000000000000000000000000000000000000000000000000000000000000000000000000000000000000000000000000000000000000000000000000000000000000000000000000000000000000000000000000000000000000000000000000000000000000000000000000000000000000000000000000000
310
00000000000000000000000000000000000000000000000000000000000000000000000000000000000000000000000000000000000000000000000000000000000000000000000000000000000000000000000000000000000000000000000000000000000000000000000000000000000000000000000000000000000000
310
00000000000000000000000000000000000000000000000000000000000000000000000000000000000000000000000000000000000000000000000000000000000000000000000000000000000000000000000000000000000000000000000000000000000000000000000000000000000000000000000000000000000000
310
000000000000000000000000000000000000000000FFFFFFFFFFFFFFFFFFFFFFFFFFFFFFFFFFFFFFFFFFFFFFFFFFFFFFFF00000000FFFFFFFFFFFFFFFFFFFFFFFFFFFFFFFFFFFFFFFFFFFFFFFFFFFFFFFFFFFF0000000000000000000000000000000000000000000000000000000000000000000000000000000000000000
310
00000000000000000000000000000000000000000000000000000000000000000000000000000000000000000000000000000000000000000000000000000000000000000000000000000000000000000000000000000000000000000000000000000000000000000000000000000000000000000000000000000000000000
310
00000000000000000000000000000000000000000000000000000000000000000000000000000000000000000000000000000000000000000000000000000000000000000000000000000000000000000000000000000000000000000000000000000000000000000000000000000000000000000000000000000000000000
310
00000000000000000000000000000000000000000000000000000000000000000000000000000000000000000000000000000000000000000000000000000000000000000000000000000000000000000000000000000000000000000000000000000000000000000000000000000000000000000000000000000000000000
310
0000000000000000000000000000000000000000000000000000000000000000000000000000000000000000000000000000000000000000
102
{BLKREFS
331
5FB
102
}
1001
ACAD
1000
DesignCenter Data
1002
{
1070
     1
1070
     1
1002
}
  0
BLOCK_RECORD
  5
5FA
330
1
100
AcDbSymbolTableRecord
100
AcDbBlockTableRecord
  2
jis_br_revisionlist
340
0
310
2800000020000000200000000100080000000000000400000000000000000000000000000000000000000000000080000080000000808000800000008000800080800000C0C0C000C0DCC000F0CAA6000020400000206000002080000020A0000020C0000020E00000400000004020000040400000406000004080000040A0
310
000040C0000040E00000600000006020000060400000606000006080000060A0000060C0000060E00000800000008020000080400000806000008080000080A0000080C0000080E00000A0000000A0200000A0400000A0600000A0800000A0A00000A0C00000A0E00000C0000000C0200000C0400000C0600000C0800000C0
310
A00000C0C00000C0E00000E0000000E0200000E0400000E0600000E0800000E0A00000E0C00000E0E00040000000400020004000400040006000400080004000A0004000C0004000E00040200000402020004020400040206000402080004020A0004020C0004020E000404000004040200040404000404060004040800040
310
40A0004040C0004040E00040600000406020004060400040606000406080004060A0004060C0004060E00040800000408020004080400040806000408080004080A0004080C0004080E00040A0000040A0200040A0400040A0600040A0800040A0A00040A0C00040A0E00040C0000040C0200040C0400040C0600040C08000
310
40C0A00040C0C00040C0E00040E0000040E0200040E0400040E0600040E0800040E0A00040E0C00040E0E00080000000800020008000400080006000800080008000A0008000C0008000E00080200000802020008020400080206000802080008020A0008020C0008020E00080400000804020008040400080406000804080
310
008040A0008040C0008040E00080600000806020008060400080606000806080008060A0008060C0008060E00080800000808020008080400080806000808080008080A0008080C0008080E00080A0000080A0200080A0400080A0600080A0800080A0A00080A0C00080A0E00080C0000080C0200080C0400080C0600080C0
310
800080C0A00080C0C00080C0E00080E0000080E0200080E0400080E0600080E0800080E0A00080E0C00080E0E000C0000000C0002000C0004000C0006000C0008000C000A000C000C000C000E000C0200000C0202000C0204000C0206000C0208000C020A000C020C000C020E000C0400000C0402000C0404000C0406000C0
310
408000C040A000C040C000C040E000C0600000C0602000C0604000C0606000C0608000C060A000C060C000C060E000C0800000C0802000C0804000C0806000C0808000C080A000C080C000C080E000C0A00000C0A02000C0A04000C0A06000C0A08000C0A0A000C0A0C000C0A0E000C0C00000C0C02000C0C04000C0C06000
310
C0C08000C0C0A000F0FBFF00A4A0A000808080000000FF0000FF000000FFFF00FF000000FF00FF00FFFF0000FFFFFF0000000000000000000000000000000000000000000000000000000000000000000000000000000000000000000000000000000000000000000000000000000000000000000000000000000000000000
310
00000000000000000000000000000000000000000000000000000000000000000000000000000000000000000000000000000000000000000000000000000000000000000000000000000000000000000000000000000000000000000000000000000000000000000000000000000000000000000000000000000000000000
310
00000000000000000000000000000000000000000000000000000000000000000000000000000000000000000000000000000000000000000000000000000000000000000000000000000000000000000000000000000000000000000000000000000000000000000000000000000000000000000000000000000000000000
310
0000000000000000000000000000000000000000000000000000000000000000000000000000000000000000000000000000000000000000000000000000000000000000000000000000000000000000000000000000000000000000000000000000000000000000000000000000000000000000FFFFF9FFFFF9FFFFFFFFFF
310
FFFFFFFFFFFFFFFFFFFFFFFFFFFFF9FFFFFFFF0000FFF9F9F9FFF9FFFFFFFFFFFFFFFFFFFFFFFFFFFFFFFFFFFFFFF9FFFFFFFF0000FF00FF0000F9F9F9F9F9F9F9F9F9F9F9F9F9F9F9F9F9F9F9F9F9000000FF0000FFFFFFFFFFFFFFFFFFFFFFFFFFFFFFFFFFFFFFFFFFFFFFFFFFFFFFFFFFFF000000000000000000000000
310
00000000000000000000000000000000000000000000000000000000000000000000000000000000000000000000000000000000000000000000000000000000000000000000000000000000000000000000000000000000000000000000000000000000000000000000000000000000000000000000000000000000000000
310
00000000000000000000000000000000000000000000000000000000000000000000000000000000000000000000000000000000000000000000000000000000000000000000000000000000000000000000000000000000000000000000000000000000000000000000000000000000000000000000000000000000000000
310
00000000000000000000000000000000000000000000000000000000000000000000000000000000000000000000000000000000000000000000000000000000000000000000000000000000000000000000000000000000000000000000000000000000000000000000000000000000000000000000000000000000000000
310
0000000000000000000000000000000000000000000000000000000000000000000000000000000000000000000000000000000000000000
  0
BLOCK_RECORD
  5
6A8
330
1
100
AcDbSymbolTableRecord
100
AcDbBlockTableRecord
  2
IGS_A3
340
0
310
2800000020000000200000000100080000000000000400000000000000000000000000000000000000000000000080000080000000808000800000008000800080800000C0C0C000C0DCC000F0CAA6000020400000206000002080000020A0000020C0000020E00000400000004020000040400000406000004080000040A0
310
000040C0000040E00000600000006020000060400000606000006080000060A0000060C0000060E00000800000008020000080400000806000008080000080A0000080C0000080E00000A0000000A0200000A0400000A0600000A0800000A0A00000A0C00000A0E00000C0000000C0200000C0400000C0600000C0800000C0
310
A00000C0C00000C0E00000E0000000E0200000E0400000E0600000E0800000E0A00000E0C00000E0E00040000000400020004000400040006000400080004000A0004000C0004000E00040200000402020004020400040206000402080004020A0004020C0004020E000404000004040200040404000404060004040800040
310
40A0004040C0004040E00040600000406020004060400040606000406080004060A0004060C0004060E00040800000408020004080400040806000408080004080A0004080C0004080E00040A0000040A0200040A0400040A0600040A0800040A0A00040A0C00040A0E00040C0000040C0200040C0400040C0600040C08000
310
40C0A00040C0C00040C0E00040E0000040E0200040E0400040E0600040E0800040E0A00040E0C00040E0E00080000000800020008000400080006000800080008000A0008000C0008000E00080200000802020008020400080206000802080008020A0008020C0008020E00080400000804020008040400080406000804080
310
008040A0008040C0008040E00080600000806020008060400080606000806080008060A0008060C0008060E00080800000808020008080400080806000808080008080A0008080C0008080E00080A0000080A0200080A0400080A0600080A0800080A0A00080A0C00080A0E00080C0000080C0200080C0400080C0600080C0
310
800080C0A00080C0C00080C0E00080E0000080E0200080E0400080E0600080E0800080E0A00080E0C00080E0E000C0000000C0002000C0004000C0006000C0008000C000A000C000C000C000E000C0200000C0202000C0204000C0206000C0208000C020A000C020C000C020E000C0400000C0402000C0404000C0406000C0
310
408000C040A000C040C000C040E000C0600000C0602000C0604000C0606000C0608000C060A000C060C000C060E000C0800000C0802000C0804000C0806000C0808000C080A000C080C000C080E000C0A00000C0A02000C0A04000C0A06000C0A08000C0A0A000C0A0C000C0A0E000C0C00000C0C02000C0C04000C0C06000
310
C0C08000C0C0A000F0FBFF00A4A0A000808080000000FF0000FF000000FFFF00FF000000FF00FF00FFFF0000FFFFFF0000000000000000000000000000000000000000000000000000000000000000000000000000000000000000000000000000000000000000000000000000000000000000000000000000000000000000
310
000000000000000000000000000000000000000000000000000000000000000000000000000000000000000000000000000000000000000000000000000000000000000000000000000000000000000000000000000000000000000000000000000000000000000000000000000000000000F9F9FFF9F9F9F9F9F9F9F9F9F9
310
F9F9F9F9F9F9F9F9F9F9F9F9F9F9F900000000F900FFFFFFFFFFFFFFFFFFFFFFFFFFFFFFFFFFFFFFFFFFFFFFFFFFF900000000F900FF0000000000000000000000000000000000000000000000FFF900000000F900FF0000000000000000000000000000000000000000000000FFF900000000F900FF000000000000000000
310
0000000000000000000000000000FFF900000000F900FF0000000000000000000000000000000000000000000000FFF900000000F900FF0000000000000000000000000000000000000000000000FFF900000000F900FF0000000000000000000000000000000000000000000000FFF900000000F900FF0000000000000000
310
000000000000000000000000000000FFF900000000F900FF0000000000000000000000000000000000000000000000FFF900000000F900FF0000000000000000000000000000000000000000000000FFF900000000F900FF0000000000000000000000000000000000000000000000FFF900000000F900FF00000000000000
310
00000000000000000000000000000000FFF900000000F900FF0000000000000000000000000000000000000000000000FFF900000000F900FF0000000000000000000000000000000000000000000000FFF900000000F900FF0000000000000000000000000000000000000000000000FFF900000000F900FF000000000000
310
0000000000000000000000000000000000FFF900000000F900FF0000000000000000000000000000000000000000000000FFF900000000F900FFFFFFFFFFFFFFFFFFFFFFFFFFFFFFFFFFFFFFFFFFFFFFFFFFF900000000F9F9F9F9F9F9F9F9F9F9F9F9F9F9F9F9F9F9F9F9F9F9F9F9F9F9F9F9000000000000000000000000
310
00000000000000000000000000000000000000000000000000000000000000000000000000000000000000000000000000000000000000000000000000000000000000000000000000000000000000000000000000000000000000000000000000000000000000000000000000000000000000000000000000000000000000
310
0000000000000000000000000000000000000000000000000000000000000000000000000000000000000000000000000000000000000000
102
{BLKREFS
331
FB5
102
}
  0
BLOCK_RECORD
  5
A11
330
1
100
AcDbSymbolTableRecord
100
AcDbBlockTableRecord
  2
LTEX0
340
0
102
{BLKREFS
331
1345
102
}
  0
BLOCK_RECORD
  5
A64
330
1
100
AcDbSymbolTableRecord
100
AcDbBlockTableRecord
  2
MAKR0
340
0
102
{BLKREFS
331
1344
102
}
  0
BLOCK_RECORD
  5
A69
330
1
100
AcDbSymbolTableRecord
100
AcDbBlockTableRecord
  2
MAKR1
340
0
102
{BLKREFS
331
B1E
102
}
  0
BLOCK_RECORD
  5
1075
330
1
100
AcDbSymbolTableRecord
100
AcDbBlockTableRecord
  2
*D22
340
0
  0
BLOCK_RECORD
  5
109D
330
1
100
AcDbSymbolTableRecord
100
AcDbBlockTableRecord
  2
*D23
340
0
  0
BLOCK_RECORD
  5
10C9
330
1
100
AcDbSymbolTableRecord
100
AcDbBlockTableRecord
  2
*D24
340
0
  0
BLOCK_RECORD
  5
112C
330
1
100
AcDbSymbolTableRecord
100
AcDbBlockTableRecord
  2
*D25
340
0
  0
BLOCK_RECORD
  5
1158
330
1
100
AcDbSymbolTableRecord
100
AcDbBlockTableRecord
  2
*D26
340
0
  0
BLOCK_RECORD
  5
1182
330
1
100
AcDbSymbolTableRecord
100
AcDbBlockTableRecord
  2
*D27
340
0
  0
BLOCK_RECORD
  5
11AE
330
1
100
AcDbSymbolTableRecord
100
AcDbBlockTableRecord
  2
*D28
340
0
  0
BLOCK_RECORD
  5
12B3
330
1
100
AcDbSymbolTableRecord
100
AcDbBlockTableRecord
  2
*D29
340
0
  0
BLOCK_RECORD
  5
135B
330
1
100
AcDbSymbolTableRecord
100
AcDbBlockTableRecord
  2
*D30
340
0
  0
BLOCK_RECORD
  5
13A1
330
1
100
AcDbSymbolTableRecord
100
AcDbBlockTableRecord
  2
*D31
340
0
  0
ENDTAB
  0
ENDSEC
  0
SECTION
  2
BLOCKS
  0
BLOCK
  5
20
330
1F
100
AcDbEntity
  8
0
100
AcDbBlockBegin
  2
*Model_Space
 70
     0
 10
0.0
 20
0.0
 30
0.0
  3
*Model_Space
  1

  0
ENDBLK
  5
21
330
1F
100
AcDbEntity
  8
0
100
AcDbBlockEnd
  0
BLOCK
  5
1C
330
1B
100
AcDbEntity
 67
     1
  8
0
100
AcDbBlockBegin
  2
*Paper_Space
 70
     0
 10
0.0
 20
0.0
 30
0.0
  3
*Paper_Space
  1

  0
ENDBLK
  5
1D
330
1B
100
AcDbEntity
 67
     1
  8
0
100
AcDbBlockEnd
  0
BLOCK
  5
24
330
23
100
AcDbEntity
  8
0
100
AcDbBlockBegin
  2
*Paper_Space0
 70
     0
 10
0.0
 20
0.0
 30
0.0
  3
*Paper_Space0
  1

  0
ENDBLK
  5
25
330
23
100
AcDbEntity
  8
0
100
AcDbBlockEnd
  0
BLOCK
  5
7B
330
77
100
AcDbEntity
  8
0
100
AcDbBlockBegin
  2
_Open30
 70
     0
 10
0.0
 20
0.0
 30
0.0
  3
_Open30
  1

  0
LINE
  5
78
330
77
100
AcDbEntity
  8
0
  6
ByBlock
 62
     0
370
    -2
100
AcDbLine
 10
-1.0
 20
0.26794919
 30
0.0
 11
0.0
 21
0.0
 31
0.0
  0
LINE
  5
79
330
77
100
AcDbEntity
  8
0
  6
ByBlock
 62
     0
370
    -2
100
AcDbLine
 10
0.0
 20
0.0
 30
0.0
 11
-1.0
 21
-0.26794919
 31
0.0
  0
LINE
  5
7A
330
77
100
AcDbEntity
  8
0
  6
ByBlock
 62
     0
370
    -2
100
AcDbLine
 10
0.0
 20
0.0
 30
0.0
 11
-1.0
 21
0.0
 31
0.0
  0
ENDBLK
  5
7C
330
77
100
AcDbEntity
  8
0
100
AcDbBlockEnd
  0
BLOCK
  5
85
330
83
100
AcDbEntity
  8
0
100
AcDbBlockBegin
  2
GENAXEH
 70
     0
 10
0.0
 20
0.0
 30
0.0
  3
GENAXEH
  1

  0
LINE
  5
84
330
83
100
AcDbEntity
  8
0
100
AcDbLine
 10
-1.0
 20
0.0
 30
0.0
 11
1.0
 21
0.0
 31
0.0
  0
ENDBLK
  5
86
330
83
100
AcDbEntity
  8
0
100
AcDbBlockEnd
  0
BLOCK
  5
206
330
1F1
100
AcDbEntity
  8
0
100
AcDbBlockBegin
  2
IGS_A2
 70
     0
 10
0.0
 20
0.0
 30
0.0
  3
IGS_A2
  1

  0
LINE
  5
1F2
330
1F1
100
AcDbEntity
  8
AM_BOR
100
AcDbLine
 10
0.0
 20
0.0
 30
0.0
 11
0.0
 21
10.0
 31
0.0
  0
LINE
  5
1F3
330
1F1
100
AcDbEntity
  8
AM_BOR
100
AcDbLine
 10
0.0
 20
420.0
 30
0.0
 11
10.0
 21
420.0
 31
0.0
  0
LINE
  5
1F4
330
1F1
100
AcDbEntity
  8
AM_BOR
100
AcDbLine
 10
594.0
 20
420.0
 30
0.0
 11
594.0
 21
410.0
 31
0.0
  0
LINE
  5
1F5
330
1F1
100
AcDbEntity
  8
AM_BOR
100
AcDbLine
 10
594.0
 20
0.0
 30
0.0
 11
584.0
 21
0.0
 31
0.0
  0
LINE
  5
1F6
330
1F1
100
AcDbEntity
  8
0
100
AcDbLine
 10
20.0
 20
10.0
 30
0.0
 11
20.0
 21
410.0
 31
0.0
  0
LINE
  5
1F7
330
1F1
100
AcDbEntity
  8
0
100
AcDbLine
 10
574.0
 20
10.0
 30
0.0
 11
20.0
 21
10.0
 31
0.0
  0
LINE
  5
1F8
330
1F1
100
AcDbEntity
  8
0
100
AcDbLine
 10
574.0
 20
410.0
 30
0.0
 11
574.0
 21
10.0
 31
0.0
  0
LINE
  5
1F9
330
1F1
100
AcDbEntity
  8
0
100
AcDbLine
 10
20.0
 20
410.0
 30
0.0
 11
574.0
 21
410.0
 31
0.0
  0
LINE
  5
1FA
330
1F1
100
AcDbEntity
  8
AM_BOR
100
AcDbLine
 10
10.0
 20
0.0
 30
0.0
 11
0.0
 21
0.0
 31
0.0
  0
LINE
  5
1FB
330
1F1
100
AcDbEntity
  8
AM_BOR
100
AcDbLine
 10
0.0
 20
410.0
 30
0.0
 11
0.0
 21
420.0
 31
0.0
  0
LINE
  5
1FC
330
1F1
100
AcDbEntity
  8
AM_BOR
100
AcDbLine
 10
594.0
 20
10.0
 30
0.0
 11
594.0
 21
0.0
 31
0.0
  0
LINE
  5
1FD
330
1F1
100
AcDbEntity
  8
AM_BOR
100
AcDbLine
 10
584.0
 20
420.0
 30
0.0
 11
594.0
 21
420.0
 31
0.0
  0
TEXT
  5
1FE
330
1F1
100
AcDbEntity
  8
0
 60
     1
100
AcDbText
 10
574.0
 20
410.0
 30
0.0
 40
6.0
  1
!GENTITLE-RU
  7
ACJISTS
100
AcDbText
  0
TEXT
  5
1FF
330
1F1
100
AcDbEntity
  8
0
 60
     1
100
AcDbText
 10
594.0
 20
420.0
 30
0.0
 40
6.0
  1
!GENTITLE-MAX
  7
ACJISTS
100
AcDbText
  0
TEXT
  5
200
330
1F1
100
AcDbEntity
  8
0
 60
     1
100
AcDbText
 10
574.0
 20
10.0
 30
0.0
 40
6.0
  1
!GENTITLE-INSERT
  7
ACJISTS
100
AcDbText
  0
TEXT
  5
201
330
1F1
100
AcDbEntity
  8
0
 60
     1
100
AcDbText
 10
20.0
 20
10.0
 30
0.0
 40
6.0
  1
!GENTITLE-LL
  7
ACJISTS
100
AcDbText
  0
LINE
  5
202
330
1F1
100
AcDbEntity
  8
AM_BOR
 62
     1
370
    25
100
AcDbLine
 10
0.0
 20
420.0
 30
0.0
 11
594.0
 21
420.0
 31
0.0
  0
LINE
  5
203
330
1F1
100
AcDbEntity
  8
AM_BOR
 62
     1
370
    25
100
AcDbLine
 10
594.0
 20
420.0
 30
0.0
 11
594.0
 21
0.0
 31
0.0
  0
LINE
  5
204
330
1F1
100
AcDbEntity
  8
AM_BOR
 62
     1
370
    25
100
AcDbLine
 10
594.0
 20
0.0
 30
0.0
 11
0.0
 21
0.0
 31
0.0
  0
LINE
  5
205
330
1F1
100
AcDbEntity
  8
AM_BOR
 62
     1
370
    25
100
AcDbLine
 10
0.0
 20
0.0
 30
0.0
 11
0.0
 21
420.0
 31
0.0
  0
ENDBLK
  5
207
330
1F1
100
AcDbEntity
  8
0
100
AcDbBlockEnd
  0
BLOCK
  5
230
330
210
100
AcDbEntity
  8
0
100
AcDbBlockBegin
  2
GEN_A4
 70
     0
 10
0.0
 20
0.0
 30
0.0
  3
GEN_A4
  1

  0
LINE
  5
211
330
210
100
AcDbEntity
  8
RAHM2
100
AcDbLine
 10
0.0
 20
0.0
 30
0.0
 11
210.0
 21
0.0
 31
0.0
  0
LINE
  5
212
330
210
100
AcDbEntity
  8
RAHM2
100
AcDbLine
 10
210.0
 20
0.0
 30
0.0
 11
210.0
 21
297.0
 31
0.0
  0
LINE
  5
213
330
210
100
AcDbEntity
  8
RAHM2
100
AcDbLine
 10
210.0
 20
297.0
 30
0.0
 11
0.0
 21
297.0
 31
0.0
  0
LINE
  5
214
330
210
100
AcDbEntity
  8
RAHM2
100
AcDbLine
 10
0.0
 20
297.0
 30
0.0
 11
0.0
 21
0.0
 31
0.0
  0
LINE
  5
215
330
210
100
AcDbEntity
  8
0
100
AcDbLine
 10
15.0
 20
5.0
 30
0.0
 11
205.0
 21
5.0
 31
0.0
  0
LINE
  5
216
330
210
100
AcDbEntity
  8
0
100
AcDbLine
 10
205.0
 20
5.0
 30
0.0
 11
205.0
 21
292.0
 31
0.0
  0
LINE
  5
217
330
210
100
AcDbEntity
  8
0
100
AcDbLine
 10
205.0
 20
292.0
 30
0.0
 11
15.0
 21
292.0
 31
0.0
  0
LINE
  5
218
330
210
100
AcDbEntity
  8
0
100
AcDbLine
 10
15.0
 20
292.0
 30
0.0
 11
15.0
 21
287.0
 31
0.0
  0
LINE
  5
219
330
210
100
AcDbEntity
  8
RAHM2
100
AcDbLine
 10
62.5
 20
292.0
 30
0.0
 11
62.5
 21
287.0
 31
0.0
  0
TEXT
  5
21A
330
210
100
AcDbEntity
  8
RAHM2
100
AcDbText
 10
37.4
 20
287.5
 30
0.0
 40
4.0
  1
4
100
AcDbText
  0
TEXT
  5
21B
330
210
100
AcDbEntity
  8
RAHM2
100
AcDbText
 10
84.9
 20
287.5
 30
0.0
 40
4.0
  1
3
100
AcDbText
  0
LINE
  5
21C
330
210
100
AcDbEntity
  8
RAHM2
100
AcDbLine
 10
110.0
 20
292.0
 30
0.0
 11
110.0
 21
287.0
 31
0.0
  0
TEXT
  5
21D
330
210
100
AcDbEntity
  8
RAHM2
100
AcDbText
 10
132.4
 20
287.5
 30
0.0
 40
4.0
  1
2
100
AcDbText
  0
LINE
  5
21E
330
210
100
AcDbEntity
  8
RAHM2
100
AcDbLine
 10
157.5
 20
292.0
 30
0.0
 11
157.5
 21
287.0
 31
0.0
  0
TEXT
  5
21F
330
210
100
AcDbEntity
  8
RAHM2
100
AcDbText
 10
179.9
 20
287.5
 30
0.0
 40
4.0
  1
1
100
AcDbText
  0
LINE
  5
220
330
210
100
AcDbEntity
  8
RAHM2
100
AcDbLine
 10
15.0
 20
292.0
 30
0.0
 11
10.0
 21
292.0
 31
0.0
  0
LINE
  5
221
330
210
100
AcDbEntity
  8
RAHM2
100
AcDbLine
 10
15.0
 20
287.0
 30
0.0
 11
205.0
 21
287.0
 31
0.0
  0
LINE
  5
222
330
210
100
AcDbEntity
  8
0
100
AcDbLine
 10
15.0
 20
287.0
 30
0.0
 11
15.0
 21
5.0
 31
0.0
  0
TEXT
  5
223
330
210
100
AcDbEntity
  8
RAHM2
100
AcDbText
 10
11.15
 20
120.5
 30
0.0
 40
4.0
  1
A
100
AcDbText
  0
LINE
  5
224
330
210
100
AcDbEntity
  8
RAHM2
100
AcDbLine
 10
10.0
 20
146.0
 30
0.0
 11
15.0
 21
146.0
 31
0.0
  0
TEXT
  5
225
330
210
100
AcDbEntity
  8
RAHM2
100
AcDbText
 10
11.15
 20
167.5
 30
0.0
 40
4.0
  1
B
100
AcDbText
  0
LINE
  5
226
330
210
100
AcDbEntity
  8
RAHM2
100
AcDbLine
 10
10.0
 20
193.0
 30
0.0
 11
15.0
 21
193.0
 31
0.0
  0
TEXT
  5
227
330
210
100
AcDbEntity
  8
RAHM2
100
AcDbText
 10
11.15
 20
214.5
 30
0.0
 40
4.0
  1
C
100
AcDbText
  0
LINE
  5
228
330
210
100
AcDbEntity
  8
RAHM2
100
AcDbLine
 10
10.0
 20
240.0
 30
0.0
 11
15.0
 21
240.0
 31
0.0
  0
TEXT
  5
229
330
210
100
AcDbEntity
  8
RAHM2
100
AcDbText
 10
11.15
 20
261.5
 30
0.0
 40
4.0
  1
D
100
AcDbText
  0
LINE
  5
22A
330
210
100
AcDbEntity
  8
RAHM2
100
AcDbLine
 10
10.0
 20
99.0
 30
0.0
 11
15.0
 21
99.0
 31
0.0
  0
LINE
  5
22B
330
210
100
AcDbEntity
  8
RAHM2
100
AcDbLine
 10
10.0
 20
99.0
 30
0.0
 11
10.0
 21
292.0
 31
0.0
  0
TEXT
  5
22C
330
210
100
AcDbEntity
  8
0
 60
     1
100
AcDbText
 10
210.0
 20
297.0
 30
0.0
 40
3.5
  1
!GENTITLE-MAX
100
AcDbText
  0
TEXT
  5
22D
330
210
100
AcDbEntity
  8
0
 60
     1
100
AcDbText
 10
205.0
 20
287.0
 30
0.0
 40
3.5
  1
!GENTITLE-RU
100
AcDbText
  0
TEXT
  5
22E
330
210
100
AcDbEntity
  8
0
 60
     1
100
AcDbText
 10
15.0
 20
59.99
 30
0.0
 40
3.5
  1
!GENTITLE-LL
100
AcDbText
  0
TEXT
  5
22F
330
210
100
AcDbEntity
  8
0
 60
     1
100
AcDbText
 10
205.0
 20
5.0
 30
0.0
 40
3.5
  1
!GENTITLE-INSERT
100
AcDbText
  0
ENDBLK
  5
231
330
210
100
AcDbEntity
  8
0
100
AcDbBlockEnd
  0
BLOCK
  5
26B
330
232
100
AcDbEntity
  8
0
100
AcDbBlockBegin
  2
GENTITUS
 70
     2
 10
0.0
 20
0.0
 30
0.0
  3
GENTITUS
  1

  0
ATTDEF
  5
233
330
232
100
AcDbEntity
  8
RAHM2
100
AcDbText
 10
-161.2719926438011
 20
59.77949705640509
 30
0.0
 40
3.047999999999999
  1

100
AcDbAttributeDefinition
  3
File Name
  2
GEN-TITLE-DWG{10.58}
 70
     0
  0
ATTDEF
  5
234
330
232
100
AcDbEntity
  8
RAHM2
100
AcDbText
 10
-113.0375060754025
 20
1.655316229755442
 30
0.0
 40
3.047999999999999
  1

100
AcDbAttributeDefinition
  3
Scale
  2
GEN-TITLE-SCA{7.49}
 70
     0
  0
ATTDEF
  5
235
330
232
100
AcDbEntity
  8
RAHM2
100
AcDbText
 10
-170.5791365852594
 20
44.08298086452544
 30
0.0
 40
3.047999999999999
  1

100
AcDbAttributeDefinition
  3
Draft Date
  2
GEN-TITLE-DAT{6.03}
 70
     0
  0
ATTDEF
  5
236
330
232
100
AcDbEntity
  8
RAHM2
100
AcDbText
 10
-148.8439999999988
 20
44.06900000000002
 30
0.0
 40
3.047999999999999
  1

100
AcDbAttributeDefinition
  3
Drawn by
  2
GEN-TITLE-NAME{6.72}
 70
     0
  0
ATTDEF
  5
237
330
232
100
AcDbEntity
  8
RAHM5
100
AcDbText
 10
-121.9520790451008
 20
36.30136743197994
 30
0.0
 40
6.349999999999999
  1

100
AcDbAttributeDefinition
  3
Drawing Title
  2
GEN-TITLE-DES1{18.22}
 70
     0
  0
ATTDEF
  5
238
330
232
100
AcDbEntity
  8
RAHM3
100
AcDbText
 10
-121.9520790451008
 20
26.25984032860009
 30
0.0
 40
4.571999999999999
  1

100
AcDbAttributeDefinition
  3
Drawing Subtitle
  2
GEN-TITLE-DES2{26.26}
 70
     0
  0
ATTDEF
  5
239
330
232
100
AcDbEntity
  8
RAHM5
100
AcDbText
 10
-74.05731360850683
 20
9.398000000000024
 30
0.0
 40
6.349999999999999
  1
-
100
AcDbAttributeDefinition
  3
Drawing Number
  2
GEN-TITLE-NR{8.40}
 70
     0
  0
ATTDEF
  5
23A
330
232
100
AcDbEntity
  8
RAHM3
100
AcDbText
 10
-122.5443157926048
 20
49.65700000000004
 30
0.0
 40
4.571999999999999
  1

100
AcDbAttributeDefinition
  3
Design Activity
  2
GEN-TITLE-DACT{25.89}
 70
     0
  0
ATTDEF
  5
23B
330
232
100
AcDbEntity
  8
RAHM2
100
AcDbText
 10
-115.3186639642027
 20
9.398000000000024
 30
0.0
 40
3.047999999999999
  1
-
100
AcDbAttributeDefinition
  3
FSCM Number
  2
GEN-TITLE-FSCM{8.01}
 70
     0
  0
ATTDEF
  5
23C
330
232
100
AcDbEntity
  8
RAHM2
100
AcDbText
 10
-148.8439999999988
 20
28.82900000000001
 30
0.0
 40
3.047999999999999
  1

100
AcDbAttributeDefinition
  3
Approved by
  2
GEN-TITLE-APPM{6.72}
 70
     0
  0
ATTDEF
  5
23D
330
232
100
AcDbEntity
  8
RAHM2
100
AcDbText
 10
-170.7495891837786
 20
28.76581702429371
 30
0.0
 40
3.047999999999999
  1

100
AcDbAttributeDefinition
  3
Approval Date
  2
GEN-TITLE-APPD{6.08}
 70
     0
  0
ATTDEF
  5
23E
330
232
100
AcDbEntity
  8
RAHM2
100
AcDbText
 10
-148.8439999999989
 20
21.20900000000003
 30
0.0
 40
3.047999999999999
  1

100
AcDbAttributeDefinition
  3
Issued by
  2
GEN-TITLE-ISSM{6.72}
 70
     0
  0
ATTDEF
  5
23F
330
232
100
AcDbEntity
  8
RAHM2
100
AcDbText
 10
-170.5791365852594
 20
21.27742535250911
 30
0.0
 40
3.047999999999999
  1

100
AcDbAttributeDefinition
  3
Issue Date
  2
GEN-TITLE-ISSD{6.03}
 70
     0
  0
ATTDEF
  5
240
330
232
100
AcDbEntity
  8
RAHM2
100
AcDbText
 10
-122.025627714063
 20
9.007830168911709
 30
0.0
 40
3.047999999999999
  1

 72
     1
 11
-122.025627714063
 21
9.007830168911709
 31
0.0
100
AcDbAttributeDefinition
  3
Size
  2
GEN-TITLE-SIZ{2.46}
 70
     0
  0
ATTDEF
  5
241
330
232
100
AcDbEntity
  8
RAHM2
100
AcDbText
 10
-148.8439999999988
 20
36.44900000000004
 30
0.0
 40
3.047999999999999
  1

100
AcDbAttributeDefinition
  3
Checked by
  2
GEN-TITLE-CHKM{6.72}
 70
     0
  0
ATTDEF
  5
242
330
232
100
AcDbEntity
  8
RAHM2
100
AcDbText
 10
-155.7496724495927
 20
51.74156347614825
 30
0.0
 40
3.047999999999999
  1
-
100
AcDbAttributeDefinition
  3
Contract Number
  2
GEN-TITLE-CTRN{9.04}
 70
     0
  0
ATTDEF
  5
243
330
232
100
AcDbEntity
  8
RAHM2
100
AcDbText
 10
-170.7495891837786
 20
36.42439894440952
 30
0.0
 40
3.047999999999999
  1

100
AcDbAttributeDefinition
  3
Check Date
  2
GEN-TITLE-CHKD{6.16}
 70
     0
  0
ATTDEF
  5
244
330
232
100
AcDbEntity
  8
RAHM2
100
AcDbText
 10
-26.47195988711838
 20
1.564076906827722
 30
0.0
 40
3.047999999999999
  1

100
AcDbAttributeDefinition
  3
Sheet Number
  2
GEN-TITLE-SHEET{10.30}
 70
     0
  0
ATTDEF
  5
245
330
232
100
AcDbEntity
  8
RAHM2
100
AcDbText
 10
-6.220641135027562
 20
8.879862113045646
 30
0.0
 40
3.047999999999999
  1

 72
     1
 11
-6.220641135027562
 21
8.879862113045646
 31
0.0
100
AcDbAttributeDefinition
  3
Revision
  2
GEN-TITLE-REV{3.27}
 70
     0
  0
ATTDEF
  5
246
330
232
100
AcDbEntity
  8
RAHM2
100
AcDbText
 10
-69.95172301045787
 20
1.65100000000001
 30
0.0
 40
3.047999999999999
  1

100
AcDbAttributeDefinition
  3
Weight
  2
GEN-TITLE-WT{7.43}
 70
     0
  0
LINE
  5
247
330
232
100
AcDbEntity
  8
RAHM2
100
AcDbLine
 10
0.0
 20
47.49800000000004
 30
0.0
 11
-127.0
 21
47.49800000000004
 31
0.0
  0
TEXT
  5
248
330
232
100
AcDbEntity
  8
RAHM2
100
AcDbText
 10
-87.88400000000001
 20
16.00200000000004
 30
0.0
 40
2.032
  1
DWG NO
100
AcDbText
  0
TEXT
  5
249
330
232
100
AcDbEntity
  8
RAHM2
100
AcDbText
 10
-88.25401012743839
 20
1.705415101054569
 30
0.0
 40
2.032
  1
WEIGHT
100
AcDbText
  0
POLYLINE
  5
24A
330
232
100
AcDbEntity
  8
RAHM5
100
AcDb2dPolyline
 66
     1
 10
0.0
 20
0.0
 30
0.0
 70
     1
  0
VERTEX
  5
24B
330
24A
100
AcDbEntity
  8
RAHM5
100
AcDbVertex
100
AcDb2dVertex
 10
0.0
 20
63.50000000000003
 30
0.0
  0
VERTEX
  5
24C
330
24A
100
AcDbEntity
  8
RAHM5
100
AcDbVertex
100
AcDb2dVertex
 10
-182.8799999999977
 20
63.50000000000003
 30
0.0
  0
VERTEX
  5
24D
330
24A
100
AcDbEntity
  8
RAHM5
100
AcDbVertex
100
AcDb2dVertex
 10
-182.8799999999977
 20
0.0000000000000284
 30
0.0
  0
VERTEX
  5
24E
330
24A
100
AcDbEntity
  8
RAHM5
100
AcDbVertex
100
AcDb2dVertex
 10
0.0
 20
0.0
 30
0.0
  0
SEQEND
  5
24F
330
24A
100
AcDbEntity
  8
RAHM5
  0
LINE
  5
250
330
232
100
AcDbEntity
  8
RAHM5
100
AcDbLine
 10
0.0
 20
19.05000000000004
 30
0.0
 11
-127.0
 21
19.05000000000004
 31
0.0
  0
LINE
  5
251
330
232
100
AcDbEntity
  8
RAHM2
100
AcDbLine
 10
0.0
 20
6.350000000000036
 30
0.0
 11
-127.0
 21
6.350000000000036
 31
0.0
  0
LINE
  5
252
330
232
100
AcDbEntity
  8
RAHM5
100
AcDbLine
 10
-127.0
 20
0.0000000000000284
 30
0.0
 11
-127.0
 21
63.50000000000003
 31
0.0
  0
LINE
  5
253
330
232
100
AcDbEntity
  8
RAHM2
100
AcDbLine
 10
-127.0
 20
19.05000000000004
 30
0.0
 11
-182.8799999999977
 21
19.05000000000004
 31
0.0
  0
LINE
  5
254
330
232
100
AcDbEntity
  8
RAHM2
100
AcDbLine
 10
-127.0
 20
9.525000000000034
 30
0.0
 11
-182.8799999999977
 21
9.525000000000034
 31
0.0
  0
LINE
  5
255
330
232
100
AcDbEntity
  8
RAHM2
100
AcDbLine
 10
-127.0
 20
26.67000000000003
 30
0.0
 11
-182.8799999999977
 21
26.67000000000003
 31
0.0
  0
TEXT
  5
256
330
232
100
AcDbEntity
  8
RAHM2
100
AcDbText
 10
-182.0827700595082
 20
28.82900000000003
 30
0.0
 40
2.032
  1
APPR.
 11
-182.0827700595082
 21
29.84500000000003
 31
0.0
100
AcDbText
 73
     2
  0
TEXT
  5
257
330
232
100
AcDbEntity
  8
RAHM2
100
AcDbText
 10
-182.0827700595081
 20
21.20900000000004
 30
0.0
 40
2.032
  1
ISSUED
 11
-182.0827700595081
 21
22.22500000000004
 31
0.0
100
AcDbText
 73
     2
  0
LINE
  5
258
330
232
100
AcDbEntity
  8
0
100
AcDbLine
 10
-182.8799999999911
 20
0.0000000000001137
 30
0.0
 11
-182.8799999999911
 21
4.230000000000075
 31
0.0
  0
LINE
  5
259
330
232
100
AcDbEntity
  8
RAHM2
100
AcDbLine
 10
-117.348
 20
19.05000000000004
 30
0.0
 11
-117.348
 21
6.350000000000036
 31
0.0
  0
LINE
  5
25A
330
232
100
AcDbEntity
  8
RAHM2
100
AcDbLine
 10
-88.89999999999998
 20
19.05000000000004
 30
0.0
 11
-88.89999999999998
 21
6.350000000000036
 31
0.0
  0
TEXT
  5
25B
330
232
100
AcDbEntity
  8
RAHM2
100
AcDbText
 10
-125.984
 20
1.651000000000015
 30
0.0
 40
2.032
  1
SCALE
 11
-125.984
 21
2.667000000000015
 31
0.0
100
AcDbText
 73
     2
  0
LINE
  5
25C
330
232
100
AcDbEntity
  8
RAHM2
100
AcDbLine
 10
-88.89999999999998
 20
0.0000000000000142
 30
0.0
 11
-88.89999999999998
 21
6.350000000000036
 31
0.0
  0
TEXT
  5
25D
330
232
100
AcDbEntity
  8
RAHM2
100
AcDbText
 10
-116.332
 20
16.00200000000004
 30
0.0
 40
2.032
  1
FSCM NO
100
AcDbText
  0
TEXT
  5
25E
330
232
100
AcDbEntity
  8
RAHM2
100
AcDbText
 10
-125.984
 20
16.00200000000004
 30
0.0
 40
2.032
  1
SIZE
100
AcDbText
  0
LINE
  5
25F
330
232
100
AcDbEntity
  8
RAHM2
100
AcDbLine
 10
-182.8799999999977
 20
58.92800000000005
 30
0.0
 11
-127.0
 21
58.92800000000005
 31
0.0
  0
LINE
  5
260
330
232
100
AcDbEntity
  8
RAHM2
100
AcDbLine
 10
-127.0
 20
34.29000000000002
 30
0.0
 11
-182.8799999999977
 21
34.29000000000002
 31
0.0
  0
LINE
  5
261
330
232
100
AcDbEntity
  8
RAHM2
100
AcDbLine
 10
-127.0
 20
41.91000000000005
 30
0.0
 11
-182.8799999999977
 21
41.91000000000005
 31
0.0
  0
LINE
  5
262
330
232
100
AcDbEntity
  8
RAHM2
100
AcDbLine
 10
-127.0
 20
49.53000000000002
 30
0.0
 11
-182.8799999999977
 21
49.53000000000002
 31
0.0
  0
TEXT
  5
263
330
232
100
AcDbEntity
  8
RAHM2
100
AcDbText
 10
-180.3172639642003
 20
51.68900000000002
 30
0.0
 40
2.032
  1
CONTRACT NO
100
AcDbText
  0
TEXT
  5
264
330
232
100
AcDbEntity
  8
RAHM2
100
AcDbText
 10
-182.0827700595081
 20
44.06900000000002
 30
0.0
 40
2.032
  1
DRAWN
100
AcDbText
  0
TEXT
  5
265
330
232
100
AcDbEntity
  8
RAHM2
100
AcDbText
 10
-182.0827700595081
 20
36.44900000000003
 30
0.0
 40
2.032
  1
CHECK
 11
-182.0827700595081
 21
37.46500000000003
 31
0.0
100
AcDbText
 73
     2
  0
TEXT
  5
266
330
232
100
AcDbEntity
  8
RAHM2
100
AcDbText
 10
-180.3172639642003
 20
59.817
 30
0.0
 40
2.032
  1
FILE NAME
100
AcDbText
  0
TEXT
  5
267
330
232
100
AcDbEntity
  8
RAHM2
100
AcDbText
 10
-43.43400000000002
 20
1.651000000000015
 30
0.0
 40
2.032
  1
SHEET
 11
-43.43400000000002
 21
2.667000000000015
 31
0.0
100
AcDbText
 73
     2
  0
LINE
  5
268
330
232
100
AcDbEntity
  8
RAHM2
100
AcDbLine
 10
-44.44999999999999
 20
0.0
 30
0.0
 11
-44.44999999999999
 21
6.350000000000036
 31
0.0
  0
LINE
  5
269
330
232
100
AcDbEntity
  8
RAHM2
100
AcDbLine
 10
-12.69999999999999
 20
19.05000000000004
 30
0.0
 11
-12.69999999999999
 21
6.350000000000036
 31
0.0
  0
TEXT
  5
26A
330
232
100
AcDbEntity
  8
RAHM2
100
AcDbText
 10
-11.68400000000002
 20
16.00200000000004
 30
0.0
 40
2.032
  1
REV
100
AcDbText
  0
ENDBLK
  5
26C
330
232
100
AcDbEntity
  8
0
100
AcDbBlockEnd
  0
BLOCK
  5
277
330
26D
100
AcDbEntity
  8
0
100
AcDbBlockBegin
  2
IGS-A4
 70
     0
 10
0.0
 20
0.0
 30
0.0
  3
IGS-A4
  1

  0
POINT
  5
26E
330
26D
100
AcDbEntity
  8
0
 60
     1
100
AcDbPoint
 10
0.0
 20
0.0
 30
0.0
1001
GENIUS_GENODEF_13
1002
{
1000
HIER
1070
     1
1002
}
1002
{
1000
MANEDIT
1070
     0
1002
}
1002
{
1000
NOSEL
1070
     0
1002
}
1002
{
1000
BEHIND
1070
     0
1002
}
1002
{
1000
REACTOR
1002
}
1001
GENIUS_GENTITLE_13
1002
{
1000
SCALE
1000
1:1
1002
}
1002
{
1000
BORDER
1000
GEN_A4
1002
}
1002
{
1000
TITLE
1000
GENTITUS
1002
}
1002
{
1000
UNCHG
1002
{
1000
GEN-TITLE-SCA
1000
GEN-TITLE-SIZ
1002
}
1002
}
1002
{
1000
HRA
1005
0
1002
}
1002
{
1000
HTIT
1005
0
1002
}
1002
{
1000
GENIUSID
1005
26E
1002
}
1001
GENIUS_GENOBJ-N-TIT_13
1002
{
1000
OWNER
1000
GEN
1002
}
1001
GENIUS_GENOENT_13
1002
{
1000
MYREF
1005
26E
1002
}
1002
{
1000
GRP
1005
0
1002
}
1001
GENIUS_GENOLIS_13
1002
{
1000
ENT
1005
0
1005
0
1002
}
  0
LINE
  5
26F
330
26D
100
AcDbEntity
  8
0
100
AcDbLine
 10
15.0
 20
5.0
 30
0.0
 11
205.0
 21
5.0
 31
0.0
  0
LINE
  5
270
330
26D
100
AcDbEntity
  8
0
100
AcDbLine
 10
205.0
 20
5.0
 30
0.0
 11
205.0
 21
292.0
 31
0.0
  0
LINE
  5
271
330
26D
100
AcDbEntity
  8
0
100
AcDbLine
 10
205.0
 20
292.0
 30
0.0
 11
15.0
 21
292.0
 31
0.0
  0
LINE
  5
272
330
26D
100
AcDbEntity
  8
0
100
AcDbLine
 10
15.0
 20
292.0
 30
0.0
 11
15.0
 21
5.0
 31
0.0
  0
TEXT
  5
273
330
26D
100
AcDbEntity
  8
0
 60
     1
100
AcDbText
 10
210.0
 20
297.0
 30
0.0
 40
3.5
  1
!GENTITLE-MAX
100
AcDbText
  0
TEXT
  5
274
330
26D
100
AcDbEntity
  8
0
 60
     1
100
AcDbText
 10
205.0
 20
287.0
 30
0.0
 40
3.5
  1
!GENTITLE-RU
100
AcDbText
  0
TEXT
  5
275
330
26D
100
AcDbEntity
  8
0
 60
     1
100
AcDbText
 10
15.0
 20
59.99
 30
0.0
 40
3.5
  1
!GENTITLE-LL
100
AcDbText
  0
TEXT
  5
276
330
26D
100
AcDbEntity
  8
0
 60
     1
100
AcDbText
 10
205.0
 20
5.0
 30
0.0
 40
3.5
  1
!GENTITLE-INSERT
100
AcDbText
  0
ENDBLK
  5
278
330
26D
100
AcDbEntity
  8
0
100
AcDbBlockEnd
  0
BLOCK
  5
27B
330
279
100
AcDbEntity
  8
0
100
AcDbBlockBegin
  2
CI
 70
     0
 10
0.0
 20
0.0
 30
0.0
  3
CI
  1

  0
CIRCLE
  5
27A
330
279
100
AcDbEntity
  8
0
 62
     0
100
AcDbCircle
 10
0.0
 20
0.0
 30
0.0
 40
0.1666666666
  0
ENDBLK
  5
27C
330
279
100
AcDbEntity
  8
0
100
AcDbBlockEnd
  0
BLOCK
  5
306
330
27D
100
AcDbEntity
  8
0
100
AcDbBlockBegin
  2
IGS-TITLE
 70
     0
 10
0.0
 20
0.0
 30
0.0
  3
IGS-TITLE
  1

  0
LINE
  5
27E
330
27D
100
AcDbEntity
  8
1
  6
Continuous
 62
     7
100
AcDbLine
 10
-187.9990322581
 20
30.99983870970002
 30
65.0
 11
-187.9990322581
 21
-0.0001612902999852
 31
65.0
  0
LINE
  5
27F
330
27D
100
AcDbEntity
  8
1
  6
Continuous
 62
     7
100
AcDbLine
 10
-162.9990322581
 20
30.99983870970002
 30
65.0
 11
-162.9990322581
 21
-0.0001612902999852
 31
65.0
  0
LINE
  5
280
330
27D
100
AcDbEntity
  8
1
  6
Continuous
 62
     7
100
AcDbLine
 10
-127.9990322581
 20
30.99983870970002
 30
65.0
 11
-127.9990322581
 21
-0.0001612902999852
 31
65.0
  0
TEXT
  5
281
330
27D
100
AcDbEntity
  8
1
  6
Continuous
 62
     7
100
AcDbText
 10
-123.7222235162
 20
4.473885419400033
 30
65.0
 40
3.5
  1
ＲＥＶＩＳＩＯＮＳ
 50
90.0
 41
0.5824175824175821
 72
     5
 11
-123.7222235162
 21
25.67388541940002
 31
65.0
100
AcDbText
  0
TEXT
  5
282
330
27D
100
AcDbEntity
  8
1
  6
Continuous
 62
     7
100
AcDbText
 10
-152.9468905162
 20
26.24983841940002
 30
65.0
 40
3.5
  1
ＲＥＶ．ＭＡＲＫ
 41
0.583850931677019
 72
     5
 11
-134.1468905162
 21
26.24983841940002
 31
65.0
100
AcDbText
  0
TEXT
  5
283
330
27D
100
AcDbEntity
  8
1
  6
Continuous
 62
     7
100
AcDbText
 10
-152.9366495162
 20
20.24983841940002
 30
65.0
 40
3.5
  1
ＤＡＴＥ
 41
0.5974025974025966
 72
     5
 11
-143.7366495162
 21
20.24983841940002
 31
65.0
100
AcDbText
  0
TEXT
  5
284
330
27D
100
AcDbEntity
  8
1
  6
Continuous
 62
     7
100
AcDbText
 10
-152.9768155162
 20
14.24983841940002
 30
65.0
 40
3.5
  1
ＲＥＶＩＳＥＤ　ＢＹ
 41
0.5812807881773391
 72
     5
 11
-129.3768155162
 21
14.24983841940002
 31
65.0
100
AcDbText
  0
TEXT
  5
285
330
27D
100
AcDbEntity
  8
1
  6
Continuous
 62
     7
100
AcDbText
 10
-152.8294145162
 20
4.74983841940002
 30
65.0
 40
3.5
  1
ＣＯＮＴＥＮＴＳ
 41
0.5838509316770175
 72
     5
 11
-134.0294145162
 21
4.74983841940002
 31
65.0
100
AcDbText
  0
TEXT
  5
286
330
27D
100
AcDbEntity
  8
1
  6
Continuous
 62
     7
100
AcDbText
 10
-161.2490325162
 20
26.24983841940002
 30
65.0
 40
3.5
  1
変更
 41
0.8705357142857142
 72
     5
 11
-154.7490325162
 21
26.24983841940002
 31
65.0
100
AcDbText
  0
TEXT
  5
287
330
27D
100
AcDbEntity
  8
1
  6
Continuous
 62
     7
100
AcDbText
 10
-161.3990325162
 20
20.24983841940002
 30
65.0
 40
3.5
  1
年月日
 41
0.6071428571428532
 72
     5
 11
-154.5990325162
 21
20.24983841940002
 31
65.0
100
AcDbText
  0
TEXT
  5
288
330
27D
100
AcDbEntity
  8
1
  6
Continuous
 62
     7
100
AcDbText
 10
-161.3990325162
 20
14.24983841940002
 30
65.0
 40
3.5
  1
変更者
 41
0.582857142857139
 72
     5
 11
-154.5990325162
 21
14.24983841940002
 31
65.0
100
AcDbText
  0
TEXT
  5
289
330
27D
100
AcDbEntity
  8
1
  6
Continuous
 62
     7
100
AcDbText
 10
-161.2490325162
 20
4.74983841940002
 30
65.0
 40
3.5
  1
記事
 41
0.8705357142857144
 72
     5
 11
-154.7490325162
 21
4.74983841940002
 31
65.0
100
AcDbText
  0
LINE
  5
28A
330
27D
100
AcDbEntity
  8
1
  6
Continuous
 62
     7
100
AcDbLine
 10
-212.9990322581
 20
30.99983870970002
 30
65.0
 11
-212.9990322581
 21
-0.0001612902999852
 31
65.0
  0
LINE
  5
28B
330
27D
100
AcDbEntity
  8
1
  6
Continuous
 62
     7
100
AcDbLine
 10
-237.9990322581
 20
30.99983870970002
 30
65.0
 11
-237.9990322581
 21
-0.0001612902999852
 31
65.0
  0
LINE
  5
28C
330
27D
100
AcDbEntity
  8
1
  6
Continuous
 62
     7
100
AcDbLine
 10
-262.9990322581
 20
30.99983870970002
 30
65.0
 11
-262.9990322581
 21
-0.0001612902999852
 31
65.0
  0
LINE
  5
28D
330
27D
100
AcDbEntity
  8
1
  6
Continuous
 62
     7
100
AcDbLine
 10
-287.9990322581
 20
30.99983870970002
 30
65.0
 11
-287.9990322581
 21
-0.0001612902999852
 31
65.0
  0
LINE
  5
28E
330
27D
100
AcDbEntity
  8
1
  6
Continuous
 62
     7
100
AcDbLine
 10
-122.9990322581
 20
30.99983870970002
 30
65.0
 11
-287.9990322581
 21
30.99983870970002
 31
65.0
  0
LINE
  5
28F
330
27D
100
AcDbEntity
  8
1
  6
Continuous
 62
     7
100
AcDbLine
 10
-287.9990322581
 20
24.99983870970002
 30
65.0
 11
-127.9990322581
 21
24.99983870970002
 31
65.0
  0
LINE
  5
290
330
27D
100
AcDbEntity
  8
1
  6
Continuous
 62
     7
100
AcDbLine
 10
-287.9990322581
 20
18.99983870970001
 30
65.0
 11
-127.9990322581
 21
18.99983870970001
 31
65.0
  0
LINE
  5
291
330
27D
100
AcDbEntity
  8
1
  6
Continuous
 62
     7
100
AcDbLine
 10
-287.9990322581
 20
12.99983870970001
 30
65.0
 11
-127.9990322581
 21
12.99983870970001
 31
65.0
  0
LINE
  5
292
330
27D
100
AcDbEntity
  8
1
  6
Continuous
 62
     7
100
AcDbLine
 10
-54.99903225810003
 20
30.99983870970002
 30
65.0
 11
-54.99903225810003
 21
-0.0001612902999852
 31
65.0
  0
LINE
  5
293
330
27D
100
AcDbEntity
  8
1
  6
Continuous
 62
     7
100
AcDbLine
 10
-59.99903225810003
 20
-0.0001612902999852
 30
65.0
 11
-59.99903225810003
 21
30.99983870970002
 31
65.0
  0
LINE
  5
294
330
27D
100
AcDbEntity
  8
1
  6
Continuous
 62
     7
100
AcDbLine
 10
-75.99903225810002
 20
19.99983870970001
 30
65.0
 11
-75.99903225810002
 21
9.999838709700014
 31
65.0
  0
LINE
  5
295
330
27D
100
AcDbEntity
  8
1
  6
Continuous
 62
     7
100
AcDbLine
 10
-80.99903225810002
 20
9.999838709700014
 30
65.0
 11
-80.99903225810002
 21
19.99983870970001
 31
65.0
  0
LINE
  5
296
330
27D
100
AcDbEntity
  8
1
  6
Continuous
 62
     7
100
AcDbLine
 10
-96.99903225810006
 20
19.99983870970001
 30
65.0
 11
-96.99903225810006
 21
9.999838709700014
 31
65.0
  0
LINE
  5
297
330
27D
100
AcDbEntity
  8
1
  6
Continuous
 62
     7
100
AcDbLine
 10
-101.9990322581
 20
9.999838709700014
 30
65.0
 11
-101.9990322581
 21
19.99983870970001
 31
65.0
  0
LINE
  5
298
330
27D
100
AcDbEntity
  8
1
  6
Continuous
 62
     7
100
AcDbLine
 10
-117.9990322581
 20
30.99983870970002
 30
65.0
 11
-117.9990322581
 21
9.999838709700014
 31
65.0
  0
LINE
  5
299
330
27D
100
AcDbEntity
  8
1
  6
Continuous
 62
     7
100
AcDbLine
 10
-4.999032258100001
 20
30.99983870970002
 30
65.0
 11
-4.999032258100001
 21
19.99983870970001
 31
65.0
  0
LINE
  5
29A
330
27D
100
AcDbEntity
  8
1
  6
Continuous
 62
     7
100
AcDbLine
 10
-9.999032258100001
 20
30.99983870970002
 30
65.0
 11
-9.999032258100001
 21
19.99983870970001
 31
65.0
  0
LINE
  5
29B
330
27D
100
AcDbEntity
  8
1
  6
Continuous
 62
     7
100
AcDbLine
 10
-4.999032258100001
 20
9.999838709700014
 30
65.0
 11
-4.999032258100001
 21
-0.0001612902999852
 31
65.0
  0
LINE
  5
29C
330
27D
100
AcDbEntity
  8
1
  6
Continuous
 62
     7
100
AcDbLine
 10
-9.999032258100001
 20
9.999838709700014
 30
65.0
 11
-9.999032258100001
 21
-0.0001612902999852
 31
65.0
  0
LINE
  5
29D
330
27D
100
AcDbEntity
  8
1
  6
Continuous
 62
     7
100
AcDbLine
 10
-18.99903225810003
 20
9.999838709700014
 30
65.0
 11
-18.99903225810003
 21
-0.0001612902999852
 31
65.0
  0
LINE
  5
29E
330
27D
100
AcDbEntity
  8
1
  6
Continuous
 62
     7
100
AcDbLine
 10
-117.9990322581
 20
15.99983870970001
 30
65.0
 11
-101.9990322581
 21
15.99983870970001
 31
65.0
  0
LINE
  5
29F
330
27D
100
AcDbEntity
  8
1
  6
Continuous
 62
     7
100
AcDbLine
 10
-122.9990322581
 20
9.999838709700014
 30
65.0
 11
5.000967741899998
 21
9.999838709700014
 31
65.0
  0
LINE
  5
2A0
330
27D
100
AcDbEntity
  8
1
  6
Continuous
 62
     7
100
AcDbLine
 10
5.000967741899998
 20
19.99983870970001
 30
65.0
 11
-122.9990322581
 21
19.99983870970001
 31
65.0
  0
LINE
  5
2A1
330
27D
100
AcDbEntity
  8
1
  6
Continuous
 62
     7
100
AcDbLine
 10
-122.9990322581
 20
30.99983870970002
 30
65.0
 11
5.000967741899998
 21
30.99983870970002
 31
65.0
  0
LINE
  5
2A2
330
27D
100
AcDbEntity
  8
1
  6
Continuous
 62
     7
100
AcDbLine
 10
-122.9990322581
 20
30.99983870970002
 30
65.0
 11
-122.9990322581
 21
-0.0001612902999852
 31
65.0
  0
LINE
  5
2A3
330
27D
100
AcDbEntity
  8
1
  6
Continuous
 62
     7
100
AcDbLine
 10
-117.9990322581
 20
30.99983870970002
 30
65.0
 11
-117.9990322581
 21
9.999838709700014
 31
65.0
  0
TEXT
  5
2A4
330
27D
100
AcDbEntity
  8
1
  6
Continuous
 62
     7
100
AcDbText
 10
-122.2490325162
 20
25.74983841940002
 30
65.0
 40
3.5
  1
図
 41
1.153846153846153
 72
     5
 11
-118.7490325162
 21
25.74983841940002
 31
65.0
100
AcDbText
  0
TEXT
  5
2A5
330
27D
100
AcDbEntity
  8
1
  6
Continuous
 62
     7
100
AcDbText
 10
-101.2490325162
 20
10.74983841940002
 30
65.0
 40
3.5
  1
図
 41
1.153846153846153
 72
     5
 11
-97.74903251620004
 21
10.74983841940002
 31
65.0
100
AcDbText
  0
TEXT
  5
2A6
330
27D
100
AcDbEntity
  8
1
  6
Continuous
 62
     7
100
AcDbText
 10
-80.24903251620004
 20
10.74983841940002
 30
65.0
 40
3.5
  1
図
 41
1.153846153846153
 72
     5
 11
-76.74903251620005
 21
10.74983841940002
 31
65.0
100
AcDbText
  0
TEXT
  5
2A7
330
27D
100
AcDbEntity
  8
1
  6
Continuous
 62
     7
100
AcDbText
 10
-59.24903251620005
 20
4.74983841940002
 30
65.0
 40
3.5
  1
図
 41
1.153846153846153
 72
     5
 11
-55.74903251620004
 21
4.74983841940002
 31
65.0
100
AcDbText
  0
TEXT
  5
2A8
330
27D
100
AcDbEntity
  8
1
  6
Continuous
 62
     7
100
AcDbText
 10
-122.2490325162
 20
21.74983841940002
 30
65.0
 40
3.5
  1
名
 41
1.153846153846153
 72
     5
 11
-118.7490325162
 21
21.74983841940002
 31
65.0
100
AcDbText
  0
TEXT
  5
2A9
330
27D
100
AcDbEntity
  8
1
  6
Continuous
 62
     7
100
AcDbText
 10
-80.24903251620004
 20
14.74983841940002
 30
65.0
 40
3.5
  1
検
 41
1.071428571428571
 72
     5
 11
-76.74903251620005
 21
14.74983841940002
 31
65.0
100
AcDbText
  0
TEXT
  5
2AA
330
27D
100
AcDbEntity
  8
1
  6
Continuous
 62
     7
100
AcDbText
 10
-59.24903251620005
 20
0.749838419400021
 30
65.0
 40
3.5
  1
番
 41
1.071428571428571
 72
     5
 11
-55.74903251620004
 21
0.749838419400021
 31
65.0
100
AcDbText
  0
TEXT
  5
2AB
330
27D
100
AcDbEntity
  8
1
  6
Continuous
 62
     7
100
AcDbText
 10
-122.2490325162
 20
14.74983841940002
 30
65.0
 40
3.5
  1
設
 41
1.071428571428571
 72
     5
 11
-118.7490325162
 21
14.74983841940002
 31
65.0
100
AcDbText
  0
TEXT
  5
2AC
330
27D
100
AcDbEntity
  8
1
  6
Continuous
 62
     7
100
AcDbText
 10
-122.2490325162
 20
10.74983841940002
 30
65.0
 40
3.5
  1
計
 41
1.071428571428571
 72
     5
 11
-118.7490325162
 21
10.74983841940002
 31
65.0
100
AcDbText
  0
TEXT
  5
2AD
330
27D
100
AcDbEntity
  8
1
  6
Continuous
 62
     7
100
AcDbText
 10
-59.24903251620005
 20
14.74983841940002
 30
65.0
 40
3.5
  1
記
 41
1.071428571428571
 72
     5
 11
-55.74903251620004
 21
14.74983841940002
 31
65.0
100
AcDbText
  0
TEXT
  5
2AE
330
27D
100
AcDbEntity
  8
1
  6
Continuous
 62
     7
100
AcDbText
 10
-59.24903251620005
 20
10.74983841940002
 30
65.0
 40
3.5
  1
事
 41
1.071428571428571
 72
     5
 11
-55.74903251620004
 21
10.74983841940002
 31
65.0
100
AcDbText
  0
TEXT
  5
2AF
330
27D
100
AcDbEntity
  8
1
  6
Continuous
 62
     7
100
AcDbText
 10
-9.249032516200045
 20
25.74983841940002
 30
65.0
 40
3.5
  1
縮
 41
1.071428571428571
 72
     5
 11
-5.749032516200045
 21
25.74983841940002
 31
65.0
100
AcDbText
  0
TEXT
  5
2B0
330
27D
100
AcDbEntity
  8
1
  6
Continuous
 62
     7
100
AcDbText
 10
-9.249032516200045
 20
21.74983841940002
 30
65.0
 40
3.5
  1
尺
 41
1.071428571428571
 72
     5
 11
-5.749032516200045
 21
21.74983841940002
 31
65.0
100
AcDbText
  0
TEXT
  5
2B1
330
27D
100
AcDbEntity
  8
1
  6
Continuous
 62
     7
100
AcDbText
 10
-119.7490325162
 20
2.74983841940002
 30
65.0
 40
4.5
  1
伊藤鉄工株式会社
 41
1.369047619047618
 72
     5
 11
-62.24903251620005
 21
2.74983841940002
 31
65.0
100
AcDbText
  0
TEXT
  5
2B2
330
27D
100
AcDbEntity
  8
1
  6
Continuous
 62
     7
100
AcDbText
 10
-9.249032516200045
 20
5.99983841940002
 30
65.0
 40
3.0
  1
葉
 41
1.25
 72
     5
 11
-5.749032516200045
 21
5.99983841940002
 31
65.0
100
AcDbText
  0
TEXT
  5
2B3
330
27D
100
AcDbEntity
  8
1
  6
Continuous
 62
     7
100
AcDbText
 10
-9.249032516200045
 20
3.49983841940002
 30
65.0
 40
3.0
  1
ノ
 41
1.59090909090909
 72
     5
 11
-5.749032516200045
 21
3.49983841940002
 31
65.0
100
AcDbText
  0
TEXT
  5
2B4
330
27D
100
AcDbEntity
  8
1
  6
Continuous
 62
     7
100
AcDbText
 10
-9.249032516200045
 20
0.9998384194000209
 30
65.0
 40
3.0
  1
内
 41
1.346153846153846
 72
     5
 11
-5.749032516200045
 21
0.9998384194000209
 31
65.0
100
AcDbText
  0
LINE
  5
2B5
330
27D
100
AcDbEntity
  8
1
  6
Continuous
 62
     7
100
AcDbLine
 10
-122.9990322581
 20
30.99983870970002
 30
65.0
 11
-122.9990322581
 21
-0.0001612902999852
 31
65.0
  0
TEXT
  5
2B6
330
27D
100
AcDbEntity
  8
1
  6
Continuous
 62
     7
100
AcDbText
 10
-101.2490325162
 20
14.74983841940002
 30
65.0
 40
3.5
  1
製
 41
1.071428571428571
 72
     5
 11
-97.74903251620004
 21
14.74983841940002
 31
65.0
100
AcDbText
  0
LINE
  5
2B7
330
27D
100
AcDbEntity
  8
1
  6
Continuous
 62
     7
100
AcDbLine
 10
-69.62582009380001
 20
41.15905988960003
 30
65.0
 11
-65.90573309380004
 21
41.15905988960003
 31
65.0
  0
ARC
  5
2B8
330
27D
100
AcDbEntity
  8
1
  6
Continuous
 62
     7
100
AcDbCircle
 10
-60.94561709380004
 20
39.91903088960004
 30
65.0
 40
1.240029
100
AcDbArc
 50
90.0
 51
180.0
  0
LINE
  5
2B9
330
27D
100
AcDbEntity
  8
1
  6
Continuous
 62
     7
100
AcDbLine
 10
-56.19217259380004
 20
41.15905988960003
 30
65.0
 11
-60.94561709380004
 21
41.15905988960003
 31
65.0
  0
ARC
  5
2BA
330
27D
100
AcDbEntity
  8
1
  6
Continuous
 62
     7
100
AcDbCircle
 10
-56.19217259380004
 20
39.91903088960004
 30
65.0
 40
1.240029
100
AcDbArc
 50
0.0
 51
90.0
  0
ARC
  5
2BB
330
27D
100
AcDbEntity
  8
1
  6
Continuous
 62
     7
100
AcDbCircle
 10
-45.44525459380001
 20
39.91903088960004
 30
65.0
 40
1.240029
100
AcDbArc
 50
0.0
 51
90.0
  0
LINE
  5
2BC
330
27D
100
AcDbEntity
  8
1
  6
Continuous
 62
     7
100
AcDbLine
 10
-49.99202759380001
 20
41.15905988960003
 30
65.0
 11
-45.44525459380001
 21
41.15905988960003
 31
65.0
  0
ARC
  5
2BD
330
27D
100
AcDbEntity
  8
1
  6
Continuous
 62
     7
100
AcDbCircle
 10
-49.99202759380001
 20
39.91903088960004
 30
65.0
 40
1.240029
100
AcDbArc
 50
90.0
 51
180.0
  0
LINE
  5
2BE
330
27D
100
AcDbEntity
  8
1
  6
Continuous
 62
     7
100
AcDbLine
 10
-69.62582009380001
 20
40.33237388960003
 30
65.0
 11
-68.59246259380002
 21
40.33237388960003
 31
65.0
  0
LINE
  5
2BF
330
27D
100
AcDbEntity
  8
1
  6
Continuous
 62
     7
100
AcDbLine
 10
-68.59246259380002
 20
40.33237388960003
 30
65.0
 11
-68.59246259380002
 21
34.95891488960001
 31
65.0
  0
LINE
  5
2C0
330
27D
100
AcDbEntity
  8
1
  6
Continuous
 62
     7
100
AcDbLine
 10
-66.93909059380003
 20
34.95891488960001
 30
65.0
 11
-66.93909059380003
 21
40.33237388960003
 31
65.0
  0
LINE
  5
2C1
330
27D
100
AcDbEntity
  8
1
  6
Continuous
 62
     7
100
AcDbLine
 10
-66.93909059380003
 20
40.33237388960003
 30
65.0
 11
-65.90573309380004
 21
40.33237388960003
 31
65.0
  0
LINE
  5
2C2
330
27D
100
AcDbEntity
  8
1
  6
Continuous
 62
     7
100
AcDbLine
 10
-65.90573309380004
 20
41.15905988960003
 30
65.0
 11
-65.90573309380004
 21
40.33237388960003
 31
65.0
  0
LINE
  5
2C3
330
27D
100
AcDbEntity
  8
1
  6
Continuous
 62
     7
100
AcDbLine
 10
-69.62582009380001
 20
40.33237388960003
 30
65.0
 11
-69.62582009380001
 21
41.15905988960003
 31
65.0
  0
LINE
  5
2C4
330
27D
100
AcDbEntity
  8
1
  6
Continuous
 62
     7
100
AcDbLine
 10
-96.99903225810006
 20
15.99983870970001
 30
65.0
 11
-80.99903225810002
 21
15.99983870970001
 31
65.0
  0
LINE
  5
2C5
330
27D
100
AcDbEntity
  8
1
  6
Continuous
 62
     7
100
AcDbLine
 10
-75.99903225810002
 20
15.99983870970001
 30
65.0
 11
-59.99903225810003
 21
15.99983870970001
 31
65.0
  0
TEXT
  5
2C6
330
27D
100
AcDbEntity
  8
1
  6
Continuous
 62
     7
100
AcDbText
 10
-59.24903251620005
 20
25.74983841940002
 30
65.0
 40
3.5
  1
符
 41
1.071428571428571
 72
     5
 11
-55.74903251620004
 21
25.74983841940002
 31
65.0
100
AcDbText
  0
TEXT
  5
2C7
330
27D
100
AcDbEntity
  8
1
  6
Continuous
 62
     7
100
AcDbText
 10
-59.24903251620005
 20
21.74983841940002
 30
65.0
 40
3.5
  1
号
 41
1.071428571428571
 72
     5
 11
-55.74903251620004
 21
21.74983841940002
 31
65.0
100
AcDbText
  0
LINE
  5
2C8
330
27D
100
AcDbEntity
  8
1
  6
Continuous
 62
     7
100
AcDbLine
 10
-65.90573309380004
 20
34.13222888960002
 30
65.0
 11
-69.62582009380001
 21
34.13222888960002
 31
65.0
  0
CIRCLE
  5
2C9
330
27D
100
AcDbEntity
  8
1
  6
Continuous
 62
     7
100
AcDbCircle
 10
-64.25236109380001
 20
34.95891488960001
 30
65.0
 40
0.8266860000000001
  0
LINE
  5
2CA
330
27D
100
AcDbEntity
  8
1
  6
Continuous
 62
     7
100
AcDbLine
 10
-56.60551559380003
 20
34.95891488960001
 30
65.0
 11
-56.60551559380003
 21
34.13222888960002
 31
65.0
  0
LINE
  5
2CB
330
27D
100
AcDbEntity
  8
1
  6
Continuous
 62
     7
100
AcDbLine
 10
-56.60551559380003
 20
34.13222888960002
 30
65.0
 11
-54.95214359380002
 21
34.13222888960002
 31
65.0
  0
ARC
  5
2CC
330
27D
100
AcDbEntity
  8
1
  6
Continuous
 62
     7
100
AcDbCircle
 10
-60.94561709380004
 20
35.37225788960004
 30
65.0
 40
1.240029
100
AcDbArc
 50
180.0
 51
270.0
  0
LINE
  5
2CD
330
27D
100
AcDbEntity
  8
1
  6
Continuous
 62
     7
100
AcDbLine
 10
-60.94561709380004
 20
34.13222888960002
 30
65.0
 11
-60.53227409380001
 21
34.13222888960002
 31
65.0
  0
LINE
  5
2CE
330
27D
100
AcDbEntity
  8
1
  6
Continuous
 62
     7
100
AcDbLine
 10
-62.18564609380003
 20
35.37225788960004
 30
65.0
 11
-62.18564609380003
 21
39.91903088960004
 31
65.0
  0
CIRCLE
  5
2CF
330
27D
100
AcDbEntity
  8
1
  6
Continuous
 62
     7
100
AcDbCircle
 10
-53.50544309380002
 20
34.95891488960001
 30
65.0
 40
0.8266860000000001
  0
ARC
  5
2D0
330
27D
100
AcDbEntity
  8
1
  6
Continuous
 62
     7
100
AcDbCircle
 10
-49.99202759380001
 20
35.37225788960004
 30
65.0
 40
1.240029
100
AcDbArc
 50
180.0
 51
270.0
  0
LINE
  5
2D1
330
27D
100
AcDbEntity
  8
1
  6
Continuous
 62
     7
100
AcDbLine
 10
-45.44525459380001
 20
34.13222888960002
 30
65.0
 11
-49.99202759380001
 21
34.13222888960002
 31
65.0
  0
ARC
  5
2D2
330
27D
100
AcDbEntity
  8
1
  6
Continuous
 62
     7
100
AcDbCircle
 10
-45.44525459380001
 20
35.37225788960004
 30
65.0
 40
1.240029
100
AcDbArc
 50
270.0
 51
0.0
  0
LINE
  5
2D3
330
27D
100
AcDbEntity
  8
1
  6
Continuous
 62
     7
100
AcDbLine
 10
-51.23205659380004
 20
35.37225788960004
 30
65.0
 11
-51.23205659380004
 21
36.40561538960003
 31
65.0
  0
LINE
  5
2D4
330
27D
100
AcDbEntity
  8
1
  6
Continuous
 62
     7
100
AcDbLine
 10
-44.20522559380002
 20
39.91903088960004
 30
65.0
 11
-44.20522559380002
 21
38.88567338960001
 31
65.0
  0
CIRCLE
  5
2D5
330
27D
100
AcDbEntity
  8
1
  6
Continuous
 62
     7
100
AcDbCircle
 10
-42.75852509380003
 20
34.95891488960001
 30
65.0
 40
0.8266860000000001
  0
LINE
  5
2D6
330
27D
100
AcDbEntity
  8
1
  6
Continuous
 62
     7
100
AcDbLine
 10
-54.95214359380002
 20
39.09234488960001
 30
65.0
 11
-56.39884409380004
 21
39.09234488960001
 31
65.0
  0
LINE
  5
2D7
330
27D
100
AcDbEntity
  8
1
  6
Continuous
 62
     7
100
AcDbLine
 10
-56.39884409380004
 20
39.09234488960001
 30
65.0
 11
-56.39884409380004
 21
39.71235938960001
 31
65.0
  0
LINE
  5
2D8
330
27D
100
AcDbEntity
  8
1
  6
Continuous
 62
     7
100
AcDbLine
 10
-56.39884409380004
 20
39.71235938960001
 30
65.0
 11
-60.73894559380001
 21
39.71235938960001
 31
65.0
  0
LINE
  5
2D9
330
27D
100
AcDbEntity
  8
1
  6
Continuous
 62
     7
100
AcDbLine
 10
-60.73894559380001
 20
39.71235938960001
 30
65.0
 11
-60.73894559380001
 21
35.57892938960004
 31
65.0
  0
LINE
  5
2DA
330
27D
100
AcDbEntity
  8
1
  6
Continuous
 62
     7
100
AcDbLine
 10
-56.39884409380004
 20
37.02562988960003
 30
65.0
 11
-58.46555909380002
 21
37.02562988960003
 31
65.0
  0
LINE
  5
2DB
330
27D
100
AcDbEntity
  8
1
  6
Continuous
 62
     7
100
AcDbLine
 10
-58.46555909380002
 20
37.02562988960003
 30
65.0
 11
-58.46555909380002
 21
38.26565888960002
 31
65.0
  0
LINE
  5
2DC
330
27D
100
AcDbEntity
  8
1
  6
Continuous
 62
     7
100
AcDbLine
 10
-54.95214359380002
 20
39.09234488960001
 30
65.0
 11
-54.95214359380002
 21
39.91903088960004
 31
65.0
  0
LINE
  5
2DD
330
27D
100
AcDbEntity
  8
1
  6
Continuous
 62
     7
100
AcDbLine
 10
-56.39884409380004
 20
36.40561538960003
 30
65.0
 11
-56.39884409380004
 21
37.02562988960003
 31
65.0
  0
LINE
  5
2DE
330
27D
100
AcDbEntity
  8
1
  6
Continuous
 62
     7
100
AcDbLine
 10
-56.19217259380004
 20
38.26565888960002
 30
65.0
 11
-58.46555909380002
 21
38.26565888960002
 31
65.0
  0
LINE
  5
2DF
330
27D
100
AcDbEntity
  8
1
  6
Continuous
 62
     7
100
AcDbLine
 10
-54.95214359380002
 20
37.02562988960003
 30
65.0
 11
-54.95214359380002
 21
34.13222888960002
 31
65.0
  0
ARC
  5
2E0
330
27D
100
AcDbEntity
  8
1
  6
Continuous
 62
     7
100
AcDbCircle
 10
-56.19217259380004
 20
37.02562988960003
 30
65.0
 40
1.240029
100
AcDbArc
 50
0.0
 51
90.0
  0
LINE
  5
2E1
330
27D
100
AcDbEntity
  8
1
  6
Continuous
 62
     7
100
AcDbLine
 10
-58.10710069440005
 20
36.40561538960003
 30
65.0
 11
-56.39884409380004
 21
36.40561538960003
 31
65.0
  0
ARC
  5
2E2
330
27D
100
AcDbEntity
  8
1
  6
Continuous
 62
     7
100
AcDbCircle
 10
-58.10710069440005
 20
35.16558638960004
 30
65.0
 40
1.240029
100
AcDbArc
 50
90.0
 51
119.7448812969
  0
LINE
  5
2E3
330
27D
100
AcDbEntity
  8
1
  6
Continuous
 62
     7
100
AcDbLine
 10
-60.21241640110007
 20
35.57892938960004
 30
65.0
 11
-60.73894559380001
 21
35.57892938960004
 31
65.0
  0
LINE
  5
2E4
330
27D
100
AcDbEntity
  8
1
  6
Continuous
 62
     7
100
AcDbLine
 10
-59.59718972950007
 20
35.74231171430003
 30
65.0
 11
-58.72232736600004
 21
36.24223306480002
 31
65.0
  0
ARC
  5
2E5
330
27D
100
AcDbEntity
  8
1
  6
Continuous
 62
     7
100
AcDbCircle
 10
-60.21241640110007
 20
36.81895838960003
 30
65.0
 40
1.240029
100
AcDbArc
 50
270.0
 51
299.7448812969
  0
ARC
  5
2E6
330
27D
100
AcDbEntity
  8
1
  6
Continuous
 62
     7
100
AcDbCircle
 10
-57.72290849050005
 20
33.71888588960002
 30
65.0
 40
1.240029
100
AcDbArc
 50
90.0
 51
119.7448812969
  0
LINE
  5
2E7
330
27D
100
AcDbEntity
  8
1
  6
Continuous
 62
     7
100
AcDbLine
 10
-59.82822419720001
 20
34.13222888960002
 30
65.0
 11
-60.94561709380004
 21
34.13222888960002
 31
65.0
  0
ARC
  5
2E8
330
27D
100
AcDbEntity
  8
1
  6
Continuous
 62
     7
100
AcDbCircle
 10
-59.82822419720001
 20
35.37225788960004
 30
65.0
 40
1.240029
100
AcDbArc
 50
270.0
 51
299.7448812969
  0
LINE
  5
2E9
330
27D
100
AcDbEntity
  8
1
  6
Continuous
 62
     7
100
AcDbLine
 10
-58.33813516210004
 20
34.79553256480003
 30
65.0
 11
-59.21299752560002
 21
34.29561121430004
 31
65.0
  0
LINE
  5
2EA
330
27D
100
AcDbEntity
  8
1
  6
Continuous
 62
     7
100
AcDbLine
 10
-57.72290849050005
 20
34.95891488960001
 30
65.0
 11
-56.60551559380003
 21
34.95891488960001
 31
65.0
  0
LINE
  5
2EB
330
27D
100
AcDbEntity
  8
1
  6
Continuous
 62
     7
100
AcDbLine
 10
-68.59246259380002
 20
34.95891488960001
 30
65.0
 11
-69.62582009380001
 21
34.95891488960001
 31
65.0
  0
LINE
  5
2EC
330
27D
100
AcDbEntity
  8
1
  6
Continuous
 62
     7
100
AcDbLine
 10
-66.93909059380003
 20
34.95891488960001
 30
65.0
 11
-65.90573309380004
 21
34.95891488960001
 31
65.0
  0
LINE
  5
2ED
330
27D
100
AcDbEntity
  8
1
  6
Continuous
 62
     7
100
AcDbLine
 10
-69.62582009380001
 20
34.13222888960002
 30
65.0
 11
-69.62582009380001
 21
34.95891488960001
 31
65.0
  0
LINE
  5
2EE
330
27D
100
AcDbEntity
  8
1
  6
Continuous
 62
     7
100
AcDbLine
 10
-65.90573309380004
 20
34.95891488960001
 30
65.0
 11
-65.90573309380004
 21
34.13222888960002
 31
65.0
  0
LINE
  5
2EF
330
27D
100
AcDbEntity
  8
1
  6
Continuous
 62
     7
100
AcDbLine
 10
-49.78535609380002
 20
39.71235938960001
 30
65.0
 11
-45.65192609380001
 21
39.71235938960001
 31
65.0
  0
LINE
  5
2F0
330
27D
100
AcDbEntity
  8
1
  6
Continuous
 62
     7
100
AcDbLine
 10
-45.65192609380001
 20
39.71235938960001
 30
65.0
 11
-45.65192609380001
 21
38.88567338960001
 31
65.0
  0
LINE
  5
2F1
330
27D
100
AcDbEntity
  8
1
  6
Continuous
 62
     7
100
AcDbLine
 10
-49.78535609380002
 20
36.40561538960003
 30
65.0
 11
-49.78535609380002
 21
35.57892938960004
 31
65.0
  0
LINE
  5
2F2
330
27D
100
AcDbEntity
  8
1
  6
Continuous
 62
     7
100
AcDbLine
 10
-49.78535609380002
 20
35.57892938960004
 30
65.0
 11
-45.65192609380001
 21
35.57892938960004
 31
65.0
  0
LINE
  5
2F3
330
27D
100
AcDbEntity
  8
1
  6
Continuous
 62
     7
100
AcDbLine
 10
-49.78535609380002
 20
36.40561538960003
 30
65.0
 11
-51.23205659380004
 21
36.40561538960003
 31
65.0
  0
LINE
  5
2F4
330
27D
100
AcDbEntity
  8
1
  6
Continuous
 62
     7
100
AcDbLine
 10
-44.20522559380002
 20
38.88567338960001
 30
65.0
 11
-45.65192609380001
 21
38.88567338960001
 31
65.0
  0
LINE
  5
2F5
330
27D
100
AcDbEntity
  8
1
  6
Continuous
 62
     7
100
AcDbLine
 10
-45.65192609380001
 20
35.57892938960004
 30
65.0
 11
-45.65192609380001
 21
37.02562988960003
 31
65.0
  0
LINE
  5
2F6
330
27D
100
AcDbEntity
  8
1
  6
Continuous
 62
     7
100
AcDbLine
 10
-49.78535609380002
 20
38.26565888960002
 30
65.0
 11
-49.78535609380002
 21
39.71235938960001
 31
65.0
  0
LINE
  5
2F7
330
27D
100
AcDbEntity
  8
1
  6
Continuous
 62
     7
100
AcDbLine
 10
-44.20522559380002
 20
37.02562988960003
 30
65.0
 11
-44.20522559380002
 21
35.37225788960004
 31
65.0
  0
LINE
  5
2F8
330
27D
100
AcDbEntity
  8
1
  6
Continuous
 62
     7
100
AcDbLine
 10
-45.44525459380001
 20
38.26565888960002
 30
65.0
 11
-49.78535609380002
 21
38.26565888960002
 31
65.0
  0
ARC
  5
2F9
330
27D
100
AcDbEntity
  8
1
  6
Continuous
 62
     7
100
AcDbCircle
 10
-45.44525459380001
 20
37.02562988960003
 30
65.0
 40
1.240029
100
AcDbArc
 50
0.0
 51
90.0
  0
LINE
  5
2FA
330
27D
100
AcDbEntity
  8
1
  6
Continuous
 62
     7
100
AcDbLine
 10
-49.99202759400002
 20
37.02562988960003
 30
65.0
 11
-45.65192609380001
 21
37.02562988960003
 31
65.0
  0
LINE
  5
2FB
330
27D
100
AcDbEntity
  8
1
  6
Continuous
 62
     7
100
AcDbLine
 10
-51.23205659380004
 20
38.26565888960002
 30
65.0
 11
-51.23205659380004
 21
39.91903088960004
 31
65.0
  0
ARC
  5
2FC
330
27D
100
AcDbEntity
  8
1
  6
Continuous
 62
     7
100
AcDbCircle
 10
-49.99202759400002
 20
38.26565888960002
 30
65.0
 40
1.240029
100
AcDbArc
 50
180.0
 51
270.0
  0
LINE
  5
2FD
330
27D
100
AcDbEntity
  8
1
  6
Continuous
 62
     7
100
AcDbLine
 10
-4.999032258100001
 20
-0.0001612902999852
 30
65.0
 11
5.000967741899998
 21
9.999838709700014
 31
65.0
  0
LINE
  5
2FE
330
27D
100
AcDbEntity
  8
1
  6
Continuous
 62
     7
100
AcDbLine
 10
-4.999032258100001
 20
19.99983870970001
 30
65.0
 11
5.000967741899998
 21
30.99983870970002
 31
65.0
  0
TEXT
  5
2FF
330
27D
100
AcDbEntity
  8
1
  6
Continuous
 62
     7
100
AcDbText
 10
-179.7089845162
 20
23.95225941940004
 30
65.0
 40
8.0
  1
△
 41
1.153846153846153
 72
     5
 11
-171.7089845162
 21
23.95225941940004
 31
65.0
100
AcDbText
  0
TEXT
  5
300
330
27D
100
AcDbEntity
  8
1
  6
Continuous
 62
     7
100
AcDbText
 10
-204.7089845162
 20
23.95225941940004
 30
65.0
 40
8.0
  1
△
 41
1.153846153846153
 72
     5
 11
-196.7089845162
 21
23.95225941940004
 31
65.0
100
AcDbText
  0
TEXT
  5
301
330
27D
100
AcDbEntity
  8
1
  6
Continuous
 62
     7
100
AcDbText
 10
-229.7089845162
 20
23.95225941940004
 30
65.0
 40
8.0
  1
△
 41
1.153846153846153
 72
     5
 11
-221.7089845162
 21
23.95225941940004
 31
65.0
100
AcDbText
  0
TEXT
  5
302
330
27D
100
AcDbEntity
  8
1
  6
Continuous
 62
     7
100
AcDbText
 10
-254.7089845162
 20
23.95225941940004
 30
65.0
 40
8.0
  1
△
 41
1.153846153846153
 72
     5
 11
-246.7089845162
 21
23.95225941940004
 31
65.0
100
AcDbText
  0
TEXT
  5
303
330
27D
100
AcDbEntity
  8
1
  6
Continuous
 62
     7
100
AcDbText
 10
-279.7089845162
 20
23.95225941940004
 30
65.0
 40
8.0
  1
△
 41
1.153846153846153
 72
     5
 11
-271.7089845162
 21
23.95225941940004
 31
65.0
100
AcDbText
  0
LINE
  5
304
330
27D
100
AcDbEntity
  8
0
100
AcDbLine
 10
-287.9990322581
 20
-0.0001612902999852
 30
65.0
 11
5.000967741899998
 21
-0.0001612902999852
 31
65.0
  0
LINE
  5
305
330
27D
100
AcDbEntity
  8
0
100
AcDbLine
 10
5.000967741899998
 20
-0.0001612902999852
 30
65.0
 11
5.000967741899998
 21
30.99983870970002
 31
65.0
  0
ENDBLK
  5
307
330
27D
100
AcDbEntity
  8
0
100
AcDbBlockEnd
  0
BLOCK
  5
3B8
330
335
100
AcDbEntity
  8
0
100
AcDbBlockBegin
  2
IGS2
 70
     2
 10
0.0
 20
0.0
 30
0.0
  3
IGS2
  1

  0
POINT
  5
336
330
335
100
AcDbEntity
  8
0
 60
     1
100
AcDbPoint
 10
0.0
 20
0.0
 30
0.0
1001
GENIUS_GENODEF_13
1002
{
1000
HIER
1070
     1
1002
}
1002
{
1000
MANEDIT
1070
     0
1002
}
1002
{
1000
NOSEL
1070
     0
1002
}
1002
{
1000
BEHIND
1070
     0
1002
}
1002
{
1000
REACTOR
1002
}
1001
GENIUS_GENTITLE_13
1002
{
1000
SCALE
1000
1:1
1002
}
1002
{
1000
BORDER
1000
IGS-A4
1002
}
1002
{
1000
TITLE
1000
IGS-TITLE
1002
}
1002
{
1000
UNCHG
1002
{
1000
GEN-TITLE-SCA
1000
GEN-TITLE-SIZ
1002
}
1002
}
1002
{
1000
HRA
1005
0
1002
}
1002
{
1000
HTIT
1005
0
1002
}
1002
{
1000
GENIUSID
1005
336
1002
}
1001
GENIUS_GENOBJ-N-TIT_13
1002
{
1000
OWNER
1000
GEN
1002
}
1001
GENIUS_GENOENT_13
1002
{
1000
MYREF
1005
336
1002
}
1002
{
1000
GRP
1005
0
1002
}
1001
GENIUS_GENOLIS_13
1002
{
1000
ENT
1005
0
1005
0
1002
}
  0
LINE
  5
337
330
335
100
AcDbEntity
  8
RAHM3
100
AcDbLine
 10
-148.4080564410193
 20
8.825237325416161
 30
52.0
 11
-145.4319868410194
 21
8.825237325416161
 31
52.0
  0
ARC
  5
338
330
335
100
AcDbEntity
  8
RAHM3
100
AcDbCircle
 10
-141.4638940410194
 20
7.833214125416168
 30
52.0
 40
0.9920232
100
AcDbArc
 50
90.0
 51
180.0
  0
LINE
  5
339
330
335
100
AcDbEntity
  8
RAHM3
100
AcDbLine
 10
-137.6611384410193
 20
8.825237325416161
 30
52.0
 11
-141.4638940410194
 21
8.825237325416161
 31
52.0
  0
ARC
  5
33A
330
335
100
AcDbEntity
  8
RAHM3
100
AcDbCircle
 10
-137.6611384410193
 20
7.833214125416168
 30
52.0
 40
0.9920232
100
AcDbArc
 50
0.0
 51
90.0
  0
ARC
  5
33B
330
335
100
AcDbEntity
  8
RAHM3
100
AcDbCircle
 10
-129.0636040410194
 20
7.833214125416168
 30
52.0
 40
0.9920232
100
AcDbArc
 50
0.0
 51
90.0
  0
LINE
  5
33C
330
335
100
AcDbEntity
  8
RAHM3
100
AcDbLine
 10
-132.7010224410193
 20
8.825237325416161
 30
52.0
 11
-129.0636040410194
 21
8.825237325416161
 31
52.0
  0
ARC
  5
33D
330
335
100
AcDbEntity
  8
RAHM3
100
AcDbCircle
 10
-132.7010224410193
 20
7.833214125416168
 30
52.0
 40
0.9920232
100
AcDbArc
 50
90.0
 51
180.0
  0
LINE
  5
33E
330
335
100
AcDbEntity
  8
RAHM3
100
AcDbLine
 10
-148.4080564410193
 20
8.163888525416165
 30
52.0
 11
-147.5813704410193
 21
8.163888525416165
 31
52.0
  0
LINE
  5
33F
330
335
100
AcDbEntity
  8
RAHM3
100
AcDbLine
 10
-147.5813704410193
 20
8.163888525416165
 30
52.0
 11
-147.5813704410193
 21
3.865121325416145
 31
52.0
  0
LINE
  5
340
330
335
100
AcDbEntity
  8
RAHM3
100
AcDbLine
 10
-146.2586728410194
 20
3.865121325416145
 30
52.0
 11
-146.2586728410194
 21
8.163888525416165
 31
52.0
  0
LINE
  5
341
330
335
100
AcDbEntity
  8
RAHM3
100
AcDbLine
 10
-146.2586728410194
 20
8.163888525416165
 30
52.0
 11
-145.4319868410194
 21
8.163888525416165
 31
52.0
  0
LINE
  5
342
330
335
100
AcDbEntity
  8
RAHM3
100
AcDbLine
 10
-145.4319868410194
 20
8.825237325416161
 30
52.0
 11
-145.4319868410194
 21
8.163888525416165
 31
52.0
  0
LINE
  5
343
330
335
100
AcDbEntity
  8
RAHM3
100
AcDbLine
 10
-148.4080564410193
 20
8.163888525416165
 30
52.0
 11
-148.4080564410193
 21
8.825237325416161
 31
52.0
  0
LINE
  5
344
330
335
100
AcDbEntity
  8
RAHM3
100
AcDbLine
 10
-145.4319868410194
 20
3.203772525416149
 30
52.0
 11
-148.4080564410193
 21
3.203772525416149
 31
52.0
  0
CIRCLE
  5
345
330
335
100
AcDbEntity
  8
RAHM3
100
AcDbCircle
 10
-144.1092892410194
 20
3.865121325416145
 30
52.0
 40
0.6613488000000001
  0
LINE
  5
346
330
335
100
AcDbEntity
  8
RAHM3
100
AcDbLine
 10
-137.9918128410194
 20
3.865121325416145
 30
52.0
 11
-137.9918128410194
 21
3.203772525416149
 31
52.0
  0
LINE
  5
347
330
335
100
AcDbEntity
  8
RAHM3
100
AcDbLine
 10
-137.9918128410194
 20
3.203772525416149
 30
52.0
 11
-136.6691152410193
 21
3.203772525416149
 31
52.0
  0
ARC
  5
348
330
335
100
AcDbEntity
  8
RAHM3
100
AcDbCircle
 10
-141.4638940410194
 20
4.195795725416166
 30
52.0
 40
0.9920232
100
AcDbArc
 50
180.0
 51
270.0
  0
LINE
  5
349
330
335
100
AcDbEntity
  8
RAHM3
100
AcDbLine
 10
-141.4638940410194
 20
3.203772525416149
 30
52.0
 11
-141.1332196410193
 21
3.203772525416149
 31
52.0
  0
LINE
  5
34A
330
335
100
AcDbEntity
  8
RAHM3
100
AcDbLine
 10
-142.4559172410194
 20
4.195795725416166
 30
52.0
 11
-142.4559172410194
 21
7.833214125416168
 31
52.0
  0
CIRCLE
  5
34B
330
335
100
AcDbEntity
  8
RAHM3
100
AcDbCircle
 10
-135.5117548410193
 20
3.865121325416145
 30
52.0
 40
0.6613488000000001
  0
ARC
  5
34C
330
335
100
AcDbEntity
  8
RAHM3
100
AcDbCircle
 10
-132.7010224410193
 20
4.195795725416166
 30
52.0
 40
0.9920232
100
AcDbArc
 50
180.0
 51
270.0
  0
LINE
  5
34D
330
335
100
AcDbEntity
  8
RAHM3
100
AcDbLine
 10
-129.0636040410194
 20
3.203772525416149
 30
52.0
 11
-132.7010224410193
 21
3.203772525416149
 31
52.0
  0
ARC
  5
34E
330
335
100
AcDbEntity
  8
RAHM3
100
AcDbCircle
 10
-129.0636040410194
 20
4.195795725416166
 30
52.0
 40
0.9920232
100
AcDbArc
 50
270.0
 51
0.0
  0
LINE
  5
34F
330
335
100
AcDbEntity
  8
RAHM3
100
AcDbLine
 10
-133.6930456410194
 20
4.195795725416166
 30
52.0
 11
-133.6930456410194
 21
5.022481725416161
 31
52.0
  0
LINE
  5
350
330
335
100
AcDbEntity
  8
RAHM3
100
AcDbLine
 10
-128.0715808410194
 20
7.833214125416168
 30
52.0
 11
-128.0715808410194
 21
7.00652812541615
 31
52.0
  0
CIRCLE
  5
351
330
335
100
AcDbEntity
  8
RAHM3
100
AcDbCircle
 10
-126.9142204410194
 20
3.865121325416145
 30
52.0
 40
0.6613488000000001
  0
LINE
  5
352
330
335
100
AcDbEntity
  8
RAHM3
100
AcDbLine
 10
-136.6691152410193
 20
7.171865325416149
 30
52.0
 11
-137.8264756410194
 21
7.171865325416149
 31
52.0
  0
LINE
  5
353
330
335
100
AcDbEntity
  8
RAHM3
100
AcDbLine
 10
-137.8264756410194
 20
7.171865325416149
 30
52.0
 11
-137.8264756410194
 21
7.667876925416146
 31
52.0
  0
LINE
  5
354
330
335
100
AcDbEntity
  8
RAHM3
100
AcDbLine
 10
-137.8264756410194
 20
7.667876925416146
 30
52.0
 11
-141.2985568410193
 21
7.667876925416146
 31
52.0
  0
LINE
  5
355
330
335
100
AcDbEntity
  8
RAHM3
100
AcDbLine
 10
-141.2985568410193
 20
7.667876925416146
 30
52.0
 11
-141.2985568410193
 21
4.361132925416165
 31
52.0
  0
LINE
  5
356
330
335
100
AcDbEntity
  8
RAHM3
100
AcDbLine
 10
-137.8264756410194
 20
5.518493325416158
 30
52.0
 11
-139.4798476410193
 21
5.518493325416158
 31
52.0
  0
LINE
  5
357
330
335
100
AcDbEntity
  8
RAHM3
100
AcDbLine
 10
-139.4798476410193
 20
5.518493325416158
 30
52.0
 11
-139.4798476410193
 21
6.510516525416153
 31
52.0
  0
LINE
  5
358
330
335
100
AcDbEntity
  8
RAHM3
100
AcDbLine
 10
-136.6691152410193
 20
7.171865325416149
 30
52.0
 11
-136.6691152410193
 21
7.833214125416168
 31
52.0
  0
LINE
  5
359
330
335
100
AcDbEntity
  8
RAHM3
100
AcDbLine
 10
-137.8264756410194
 20
5.022481725416161
 30
52.0
 11
-137.8264756410194
 21
5.518493325416158
 31
52.0
  0
LINE
  5
35A
330
335
100
AcDbEntity
  8
RAHM3
100
AcDbLine
 10
-137.6611384410193
 20
6.510516525416153
 30
52.0
 11
-139.4798476410193
 21
6.510516525416153
 31
52.0
  0
LINE
  5
35B
330
335
100
AcDbEntity
  8
RAHM3
100
AcDbLine
 10
-136.6691152410193
 20
5.518493325416158
 30
52.0
 11
-136.6691152410193
 21
3.203772525416149
 31
52.0
  0
ARC
  5
35C
330
335
100
AcDbEntity
  8
RAHM3
100
AcDbCircle
 10
-137.6611384410193
 20
5.518493325416158
 30
52.0
 40
0.9920232
100
AcDbArc
 50
0.0
 51
90.0
  0
LINE
  5
35D
330
335
100
AcDbEntity
  8
RAHM3
100
AcDbLine
 10
-139.1930809214994
 20
5.022481725416161
 30
52.0
 11
-137.8264756410194
 21
5.022481725416161
 31
52.0
  0
ARC
  5
35E
330
335
100
AcDbEntity
  8
RAHM3
100
AcDbCircle
 10
-139.1930809214994
 20
4.030458525416167
 30
52.0
 40
0.9920232
100
AcDbArc
 50
90.0
 51
119.7448812969
  0
LINE
  5
35F
330
335
100
AcDbEntity
  8
RAHM3
100
AcDbLine
 10
-140.8773334868594
 20
4.361132925416165
 30
52.0
 11
-141.2985568410193
 21
4.361132925416165
 31
52.0
  0
LINE
  5
360
330
335
100
AcDbEntity
  8
RAHM3
100
AcDbLine
 10
-140.3851521495794
 20
4.491838785176161
 30
52.0
 11
-139.6852622587794
 21
4.891775865576152
 31
52.0
  0
ARC
  5
361
330
335
100
AcDbEntity
  8
RAHM3
100
AcDbCircle
 10
-140.8773334868594
 20
5.35315612541616
 30
52.0
 40
0.9920232
100
AcDbArc
 50
270.0
 51
299.7448812969
  0
ARC
  5
362
330
335
100
AcDbEntity
  8
RAHM3
100
AcDbCircle
 10
-138.8857271583794
 20
2.873098125416151
 30
52.0
 40
0.9920232
100
AcDbArc
 50
90.0
 51
119.7448812969
  0
LINE
  5
363
330
335
100
AcDbEntity
  8
RAHM3
100
AcDbLine
 10
-140.5699797237394
 20
3.203772525416149
 30
52.0
 11
-141.4638940410194
 21
3.203772525416149
 31
52.0
  0
ARC
  5
364
330
335
100
AcDbEntity
  8
RAHM3
100
AcDbCircle
 10
-140.5699797237394
 20
4.195795725416166
 30
52.0
 40
0.9920232
100
AcDbArc
 50
270.0
 51
299.7448812969
  0
LINE
  5
365
330
335
100
AcDbEntity
  8
RAHM3
100
AcDbLine
 10
-139.3779084956594
 20
3.734415465576159
 30
52.0
 11
-140.0777983864594
 21
3.334478385176168
 31
52.0
  0
LINE
  5
366
330
335
100
AcDbEntity
  8
RAHM3
100
AcDbLine
 10
-138.8857271583794
 20
3.865121325416145
 30
52.0
 11
-137.9918128410194
 21
3.865121325416145
 31
52.0
  0
LINE
  5
367
330
335
100
AcDbEntity
  8
RAHM3
100
AcDbLine
 10
-147.5813704410193
 20
3.865121325416145
 30
52.0
 11
-148.4080564410193
 21
3.865121325416145
 31
52.0
  0
LINE
  5
368
330
335
100
AcDbEntity
  8
RAHM3
100
AcDbLine
 10
-146.2586728410194
 20
3.865121325416145
 30
52.0
 11
-145.4319868410194
 21
3.865121325416145
 31
52.0
  0
LINE
  5
369
330
335
100
AcDbEntity
  8
RAHM3
100
AcDbLine
 10
-148.4080564410193
 20
3.203772525416149
 30
52.0
 11
-148.4080564410193
 21
3.865121325416145
 31
52.0
  0
LINE
  5
36A
330
335
100
AcDbEntity
  8
RAHM3
100
AcDbLine
 10
-145.4319868410194
 20
3.865121325416145
 30
52.0
 11
-145.4319868410194
 21
3.203772525416149
 31
52.0
  0
LINE
  5
36B
330
335
100
AcDbEntity
  8
RAHM3
100
AcDbLine
 10
-132.5356852410194
 20
7.667876925416146
 30
52.0
 11
-129.2289412410193
 21
7.667876925416146
 31
52.0
  0
LINE
  5
36C
330
335
100
AcDbEntity
  8
RAHM3
100
AcDbLine
 10
-129.2289412410193
 20
7.667876925416146
 30
52.0
 11
-129.2289412410193
 21
7.00652812541615
 31
52.0
  0
LINE
  5
36D
330
335
100
AcDbEntity
  8
RAHM3
100
AcDbLine
 10
-132.5356852410194
 20
5.022481725416161
 30
52.0
 11
-132.5356852410194
 21
4.361132925416165
 31
52.0
  0
LINE
  5
36E
330
335
100
AcDbEntity
  8
RAHM3
100
AcDbLine
 10
-132.5356852410194
 20
4.361132925416165
 30
52.0
 11
-129.2289412410193
 21
4.361132925416165
 31
52.0
  0
LINE
  5
36F
330
335
100
AcDbEntity
  8
RAHM3
100
AcDbLine
 10
-132.5356852410194
 20
5.022481725416161
 30
52.0
 11
-133.6930456410194
 21
5.022481725416161
 31
52.0
  0
LINE
  5
370
330
335
100
AcDbEntity
  8
RAHM3
100
AcDbLine
 10
-128.0715808410194
 20
7.00652812541615
 30
52.0
 11
-129.2289412410193
 21
7.00652812541615
 31
52.0
  0
LINE
  5
371
330
335
100
AcDbEntity
  8
RAHM3
100
AcDbLine
 10
-129.2289412410193
 20
4.361132925416165
 30
52.0
 11
-129.2289412410193
 21
5.518493325416158
 31
52.0
  0
LINE
  5
372
330
335
100
AcDbEntity
  8
RAHM3
100
AcDbLine
 10
-132.5356852410194
 20
6.510516525416153
 30
52.0
 11
-132.5356852410194
 21
7.667876925416146
 31
52.0
  0
LINE
  5
373
330
335
100
AcDbEntity
  8
RAHM3
100
AcDbLine
 10
-128.0715808410194
 20
5.518493325416158
 30
52.0
 11
-128.0715808410194
 21
4.195795725416166
 31
52.0
  0
LINE
  5
374
330
335
100
AcDbEntity
  8
RAHM3
100
AcDbLine
 10
-129.0636040410194
 20
6.510516525416153
 30
52.0
 11
-132.5356852410194
 21
6.510516525416153
 31
52.0
  0
ARC
  5
375
330
335
100
AcDbEntity
  8
RAHM3
100
AcDbCircle
 10
-129.0636040410194
 20
5.518493325416158
 30
52.0
 40
0.9920232
100
AcDbArc
 50
0.0
 51
90.0
  0
LINE
  5
376
330
335
100
AcDbEntity
  8
RAHM3
100
AcDbLine
 10
-132.7010224411794
 20
5.518493325416158
 30
52.0
 11
-129.2289412410193
 21
5.518493325416158
 31
52.0
  0
LINE
  5
377
330
335
100
AcDbEntity
  8
RAHM3
100
AcDbLine
 10
-133.6930456410194
 20
6.510516525416153
 30
52.0
 11
-133.6930456410194
 21
7.833214125416168
 31
52.0
  0
ARC
  5
378
330
335
100
AcDbEntity
  8
RAHM3
100
AcDbCircle
 10
-132.7010224411794
 20
6.510516525416153
 30
52.0
 40
0.9920232
100
AcDbArc
 50
180.0
 51
270.0
  0
POINT
  5
379
330
335
100
AcDbEntity
  8
0
 60
     1
100
AcDbPoint
 10
0.0
 20
0.0
 30
0.0
1001
GENIUS_GENODEF_13
1002
{
1000
HIER
1070
     1
1002
}
1002
{
1000
MANEDIT
1070
     0
1002
}
1002
{
1000
NOSEL
1070
     0
1002
}
1002
{
1000
BEHIND
1070
     0
1002
}
1002
{
1000
REACTOR
1002
}
1001
GENIUS_GENTITLE_13
1002
{
1000
SCALE
1000
1:1
1002
}
1002
{
1000
BORDER
1000
GEN_A4
1002
}
1002
{
1000
TITLE
1000
GENTITUS
1002
}
1002
{
1000
UNCHG
1002
{
1000
GEN-TITLE-SCA
1000
GEN-TITLE-SIZ
1002
}
1002
}
1002
{
1000
HRA
1005
0
1002
}
1002
{
1000
HTIT
1005
0
1002
}
1002
{
1000
GENIUSID
1005
379
1002
}
1001
GENIUS_GENOBJ-N-TIT_13
1002
{
1000
OWNER
1000
GEN
1002
}
1001
GENIUS_GENOENT_13
1002
{
1000
MYREF
1005
379
1002
}
1002
{
1000
GRP
1005
0
1002
}
1001
GENIUS_GENOLIS_13
1002
{
1000
ENT
1005
0
1005
0
1002
}
  0
TEXT
  5
37A
330
335
100
AcDbEntity
  8
0
 60
     1
100
AcDbText
 10
210.0
 20
297.0
 30
0.0
 40
3.5
  1
!GENTITLE-MAX
100
AcDbText
  0
TEXT
  5
37B
330
335
100
AcDbEntity
  8
0
 60
     1
100
AcDbText
 10
205.0
 20
287.0
 30
0.0
 40
3.5
  1
!GENTITLE-RU
100
AcDbText
  0
TEXT
  5
37C
330
335
100
AcDbEntity
  8
0
 60
     1
100
AcDbText
 10
15.0
 20
59.99
 30
0.0
 40
3.5
  1
!GENTITLE-LL
100
AcDbText
  0
TEXT
  5
37D
330
335
100
AcDbEntity
  8
0
 60
     1
100
AcDbText
 10
205.0
 20
5.0
 30
0.0
 40
3.5
  1
!GENTITLE-INSERT
100
AcDbText
  0
LINE
  5
37E
330
335
100
AcDbEntity
  8
RAHM2
100
AcDbLine
 10
-155.0
 20
12.0
 30
0.0
 11
0.0
 21
12.0
 31
0.0
  0
LINE
  5
37F
330
335
100
AcDbEntity
  8
RAHM2
100
AcDbLine
 10
-12.0
 20
12.0
 30
0.0
 11
-12.00000000000727
 21
0.0
 31
0.0
  0
LINE
  5
380
330
335
100
AcDbEntity
  8
RAHM2
100
AcDbLine
 10
-80.0
 20
19.99999999999272
 30
0.0
 11
0.0
 21
20.0
 31
0.0
  0
LINE
  5
381
330
335
100
AcDbEntity
  8
RAHM2
100
AcDbLine
 10
0.0
 20
27.0
 30
0.0
 11
-80.0
 21
27.0
 31
0.0
  0
MTEXT
  5
382
330
335
100
AcDbEntity
  8
RAHM2
100
AcDbMText
 10
-78.39748281353763
 20
37.79972226353243
 30
0.0
 40
2.5
 41
2.458156240282278
 71
     1
 72
     5
  1

 73
     1
 44
1.0
  0
TEXT
  5
383
330
335
100
AcDbEntity
  8
RAHM3
100
AcDbText
 10
-79.00900277736832
 20
36.89804600214973
 30
0.0
 40
2.299999999999999
  1
名称 ＴＩＴＬＥ
 41
0.8
100
AcDbText
  0
LINE
  5
384
330
335
100
AcDbEntity
  8
RAHM2
100
AcDbLine
 10
-80.0
 20
40.00000000000727
 30
0.0
 11
-80.0
 21
0.0
 31
0.0
  0
TEXT
  5
385
330
335
100
AcDbEntity
  8
RAHM3
100
AcDbText
 10
-79.00900277736832
 20
23.89804600216055
 30
0.0
 40
2.299999999999999
  1
符号 
 41
0.8
100
AcDbText
  0
TEXT
  5
386
330
335
100
AcDbEntity
  8
RAHM3
100
AcDbText
 10
-79.00900277736832
 20
16.89804600215146
 30
0.0
 40
2.299999999999999
  1
件名
 41
0.8
100
AcDbText
  0
TEXT
  5
387
330
335
100
AcDbEntity
  8
RAHM3
100
AcDbText
 10
-79.00900277736832
 20
8.898046002160548
 30
0.0
 40
2.299999999999999
  1
図番 ＤＲＡＷＩＮＧ ＮＯ．
 41
0.8
100
AcDbText
  0
CIRCLE
  5
388
330
335
100
AcDbEntity
  8
RAHM2
100
AcDbCircle
 10
-5.0
 20
5.0
 30
0.0
 40
4.5
  0
LINE
  5
389
330
335
100
AcDbEntity
  8
RAHM2
100
AcDbLine
 10
-130.0000000000018
 20
40.00000000000916
 30
0.0
 11
-130.0000000000018
 21
12.0
 31
0.0
  0
LINE
  5
38A
330
335
100
AcDbEntity
  8
RAHM2
100
AcDbLine
 10
-130.0000000000018
 20
26.00000000000458
 30
0.0
 11
-80.0
 21
25.99999999999818
 31
0.0
  0
LINE
  5
38B
330
335
100
AcDbEntity
  8
RAHM2
100
AcDbLine
 10
-105.0000000000018
 20
40.00000000000916
 30
0.0
 11
-105.0000000000018
 21
12.0
 31
0.0
  0
TEXT
  5
38C
330
335
100
AcDbEntity
  8
RAHM3
100
AcDbText
 10
-129.0090027773683
 20
36.89804600215881
 30
0.0
 40
2.299999999999999
  1
承認 ＡＰＰＤ
 41
0.8
100
AcDbText
  0
TEXT
  5
38D
330
335
100
AcDbEntity
  8
RAHM3
100
AcDbText
 10
-104.0090027773683
 20
36.8980460021551
 30
0.0
 40
2.299999999999999
  1
検図 ＣＨＫ
 41
0.8
100
AcDbText
  0
TEXT
  5
38E
330
335
100
AcDbEntity
  8
RAHM3
100
AcDbText
 10
-129.0090027773683
 20
22.89804600215422
 30
0.0
 40
2.299999999999999
  1
設計 ＥＮＧＲ
 41
0.8
100
AcDbText
  0
TEXT
  5
38F
330
335
100
AcDbEntity
  8
RAHM3
100
AcDbText
 10
-104.0090027773683
 20
22.89804600214964
 30
0.0
 40
2.299999999999999
  1
製図 ＤＲ ＤＡＴＥ
 41
0.8
100
AcDbText
  0
LINE
  5
390
330
335
100
AcDbEntity
  8
RAHM2
100
AcDbLine
 10
-155.0
 20
30.60000000000036
 30
0.0
 11
-130.0000000000018
 21
30.60000000000036
 31
0.0
  0
LINE
  5
391
330
335
100
AcDbEntity
  8
RAHM2
100
AcDbLine
 10
-155.0
 20
21.29999999999927
 30
0.0
 11
-130.0000000000018
 21
21.30000000000109
 31
0.0
  0
TEXT
  5
392
330
335
100
AcDbEntity
  8
RAHM3
100
AcDbText
 10
-121.7843516157921
 20
6.885079184961092
 30
0.0
 40
4.0
  1
伊藤鉄工株式会社
100
AcDbText
  0
TEXT
  5
393
330
335
100
AcDbEntity
  8
RAHM3
100
AcDbText
 10
-120.6675998914835
 20
3.578884653066273
 30
0.0
 40
2.0
  1
ITO TEKKO  CO.,LTD.
100
AcDbText
1001
GENIUS_GENTRA_14
1002
{
1070
     1
1000
/
1000
ITO TEKKO  CO.,LTD.
1000
JPN
1070
     0
1040
1.0
1070
     0
1002
}
  0
TEXT
  5
394
330
335
100
AcDbEntity
  8
RAHM3
100
AcDbText
 10
-120.6675998914835
 20
0.9279960228792472
 30
0.0
 40
2.0
  1
KAWAGUCHI  JAPAN
100
AcDbText
  0
TEXT
  5
395
330
335
100
AcDbEntity
  8
RAHM3
100
AcDbText
 10
-11.85206060358336
 20
9.69362381988742
 30
0.0
 40
1.8
  1
ＲＥＶ．ＭＡＲＫ
 41
0.6800000000000001
100
AcDbText
  0
TEXT
  5
396
330
335
100
AcDbEntity
  8
RAHM3
100
AcDbText
 10
-11.57052530051805
 20
7.425435269030799
 30
0.0
 40
1.8
  1
変
100
AcDbText
  0
TEXT
  5
397
330
335
100
AcDbEntity
  8
RAHM3
100
AcDbText
 10
-11.59004395148213
 20
4.996441785248862
 30
0.0
 40
1.8
  1
更
100
AcDbText
  0
TEXT
  5
398
330
335
100
AcDbEntity
  8
RAHM3
100
AcDbText
 10
-11.62938531906752
 20
2.617267270587205
 30
0.0
 40
1.8
  1
回
100
AcDbText
  0
TEXT
  5
399
330
335
100
AcDbEntity
  8
RAHM3
100
AcDbText
 10
-11.56556962136267
 20
0.3551115072955326
 30
0.0
 40
1.8
  1
数
100
AcDbText
  0
TEXT
  5
39A
330
335
100
AcDbEntity
  8
RAHM3
100
AcDbText
 10
-154.0090027773665
 20
36.89804600217056
 30
0.0
 40
2.299999999999999
  1
尺度 ＳＣＡＬＥ
 41
0.8
100
AcDbText
  0
TEXT
  5
39B
330
335
100
AcDbEntity
  8
RAHM3
100
AcDbText
 10
-154.0090027773665
 20
27.49804600215
 30
0.0
 40
2.299999999999999
  1
図面枚数 ＮＯ．  
 41
0.8
100
AcDbText
  0
LINE
  5
39C
330
335
100
AcDbEntity
  8
7A
100
AcDbLine
 10
-151.7551228444401
 20
16.64999999999988
 30
0.0
 11
-149.2551228444401
 21
16.64999999999988
 31
0.0
1001
GENIUS_GENOREF_13
1005
3A0
  0
LINE
  5
39D
330
335
100
AcDbEntity
  8
7A
100
AcDbLine
 10
-151.7551228444401
 20
16.64999999999988
 30
0.0
 11
-151.7551228444401
 21
19.14999999999988
 31
0.0
1001
GENIUS_GENOREF_13
1005
3A0
  0
LINE
  5
39E
330
335
100
AcDbEntity
  8
7A
100
AcDbLine
 10
-151.7551228444401
 20
16.64999999999988
 30
0.0
 11
-154.2551228444401
 21
16.64999999999988
 31
0.0
1001
GENIUS_GENOREF_13
1005
3A0
  0
LINE
  5
39F
330
335
100
AcDbEntity
  8
7A
100
AcDbLine
 10
-151.7551228444401
 20
16.64999999999988
 30
0.0
 11
-151.7551228444401
 21
14.14999999999988
 31
0.0
1001
GENIUS_GENOREF_13
1005
3A0
  0
POINT
  5
3A0
330
335
100
AcDbEntity
  8
0
 60
     1
100
AcDbPoint
 10
0.0
 20
0.0
 30
0.0
1001
GENIUS_GENODEF_13
1002
{
1000
HIER
1070
    10
1002
}
1002
{
1000
MANEDIT
1070
     0
1002
}
1002
{
1000
NOSEL
1070
     0
1002
}
1002
{
1000
BEHIND
1070
     0
1002
}
1002
{
1000
REACTOR
1002
}
1001
GENIUS_GENOBJ-N-CRS_13
1002
{
1000
OWNER
1000
GEN
1002
}
1001
GENIUS_GENOENT_13
1002
{
1000
MYREF
1005
3A0
1002
}
1002
{
1000
GRP
1005
0
1002
}
1001
GENIUS_GENOLIS_13
1002
{
1000
ENT
1005
39F
1005
39E
1005
39D
1005
39C
1002
}
  0
CIRCLE
  5
3A1
330
335
100
AcDbEntity
  8
RAHM3
100
AcDbCircle
 10
-151.7551228444401
 20
16.64999999999988
 30
0.0
 40
2.0
  0
CIRCLE
  5
3A2
330
335
100
AcDbEntity
  8
RAHM3
100
AcDbCircle
 10
-151.7551228444401
 20
16.64999999999952
 30
0.0
 40
1.0
  0
LINE
  5
3A3
330
335
100
AcDbEntity
  8
RAHM3
100
AcDbLine
 10
-147.7659442035316
 20
17.64999999999929
 30
0.0
 11
-147.7659442035316
 21
15.64999999999929
 31
0.0
  0
LINE
  5
3A4
330
335
100
AcDbEntity
  8
RAHM3
100
AcDbLine
 10
-147.7659442035316
 20
15.64999999999929
 30
0.0
 11
-143.7659442035316
 21
14.64999999999928
 31
0.0
  0
LINE
  5
3A5
330
335
100
AcDbEntity
  8
RAHM3
100
AcDbLine
 10
-143.7659442035316
 20
14.64999999999928
 30
0.0
 11
-143.7659442035316
 21
18.64999999999929
 31
0.0
  0
LINE
  5
3A6
330
335
100
AcDbEntity
  8
RAHM3
100
AcDbLine
 10
-143.7659442035316
 20
18.64999999999929
 30
0.0
 11
-147.7659442035316
 21
17.64999999999929
 31
0.0
  0
LINE
  5
3A7
330
335
100
AcDbEntity
  8
7A
100
AcDbLine
 10
-148.6350563849704
 20
16.64999999999929
 30
0.0
 11
-142.8462596443259
 21
16.64999999999929
 31
0.0
1001
GENIUS_GENODEF_13
1002
{
1000
HIER
1070
     0
1002
}
1002
{
1000
MANEDIT
1070
     0
1002
}
1002
{
1000
NOSEL
1070
     0
1002
}
1002
{
1000
BEHIND
1070
     0
1002
}
1002
{
1000
REACTOR
1002
}
1001
GENIUS_GENOBJ-N-CEN_13
1002
{
1000
OWNER
1000
GEN
1002
}
  0
TEXT
  5
3A8
330
335
100
AcDbEntity
  8
RAHM3
100
AcDbText
 10
-141.8454810851357
 20
18.28209750892168
 30
0.0
 40
2.1
  1
単位 ＵＮＩＴ
 41
0.7
100
AcDbText
  0
LINE
  5
3A9
330
335
100
AcDbEntity
  8
RAHM2
100
AcDbLine
 10
-142.5000000000009
 20
21.29999999999927
 30
0.0
 11
-142.5000000000009
 21
12.0
 31
0.0
  0
TEXT
  5
3AA
330
335
100
AcDbEntity
  8
RAHM3
100
AcDbText
 10
-139.6782849929894
 20
13.82826889824218
 30
0.0
 40
4.0
  1
ｍｍ
 41
0.8
100
AcDbText
  0
POLYLINE
  5
3AB
330
335
100
AcDbEntity
  8
RAHM2
100
AcDb2dPolyline
 66
     1
 10
0.0
 20
0.0
 30
0.0
 70
     1
  0
VERTEX
  5
3AC
330
3AB
100
AcDbEntity
  8
RAHM2
100
AcDbVertex
100
AcDb2dVertex
 10
-155.0
 20
-0.000000000001819
 30
0.0
  0
VERTEX
  5
3AD
330
3AB
100
AcDbEntity
  8
RAHM2
100
AcDbVertex
100
AcDb2dVertex
 10
-155.0
 20
40.00000000002091
 30
0.0
  0
VERTEX
  5
3AE
330
3AB
100
AcDbEntity
  8
RAHM2
100
AcDbVertex
100
AcDb2dVertex
 10
0.0
 20
39.99999999999273
 30
0.0
  0
VERTEX
  5
3AF
330
3AB
100
AcDbEntity
  8
RAHM2
100
AcDbVertex
100
AcDb2dVertex
 10
0.0
 20
0.0
 30
0.0
  0
SEQEND
  5
3B0
330
3AB
100
AcDbEntity
  8
RAHM2
  0
ATTDEF
  5
3B1
330
335
100
AcDbEntity
  8
RAHM3
100
AcDbText
 10
-147.2595867131855
 20
31.94728899818607
 30
0.0
 40
4.0
  1

100
AcDbAttributeDefinition
  3
尺度
  2
GEN-TITLE-SCA
 70
     0
  0
ATTDEF
  5
3B2
330
335
100
AcDbEntity
  8
RAHM3
100
AcDbText
 10
-73.09000000000001
 20
29.74
 30
0.0
 40
5.0
  1

100
AcDbAttributeDefinition
  3
名称
  2
ＴＩＴＬＥ
 70
     0
  0
ATTDEF
  5
3B3
330
335
100
AcDbEntity
  8
RAHM3
100
AcDbText
 10
-71.56287815584043
 20
21.80438312711384
 30
0.0
 40
3.0
  1

100
AcDbAttributeDefinition
  3
符号
  2
ｃｏｄｅ
 70
     0
  0
ATTDEF
  5
3B4
330
335
100
AcDbEntity
  8
RAHM3
100
AcDbText
 10
-70.74480649396313
 20
14.80438312710657
 30
0.0
 40
3.0
  1

100
AcDbAttributeDefinition
  3
件名
  2
件名
 70
     0
  0
ATTDEF
  5
3B5
330
335
100
AcDbEntity
  8
RAHM3
100
AcDbText
 10
-73.09000000000001
 20
1.739999999992722
 30
0.0
 40
5.0
  1

100
AcDbAttributeDefinition
  3
図面番号
  2
Ｎｏ．
 70
     0
  0
ATTDEF
  5
3B6
330
335
100
AcDbEntity
  8
RAHM3
100
AcDbText
 10
-100.45
 20
17.40708932112655
 30
0.0
 40
4.0
  1

100
AcDbAttributeDefinition
  3
製図者
  2
ＤＲ
 70
     0
  0
ATTDEF
  5
3B7
330
335
100
AcDbEntity
  8
RAHM3
100
AcDbText
 10
-103.7180853038729
 20
12.76999999999999
 30
0.0
 40
3.0
  1

 41
0.8
100
AcDbAttributeDefinition
  3
日付
  2
ｄａｔｅ
 70
     0
  0
ENDBLK
  5
3B9
330
335
100
AcDbEntity
  8
0
100
AcDbBlockEnd
  0
BLOCK
  5
411
330
3FC
100
AcDbEntity
  8
0
100
AcDbBlockBegin
  2
IGS_A1
 70
     0
 10
0.0
 20
0.0
 30
0.0
  3
IGS_A1
  1

  0
LINE
  5
3FD
330
3FC
100
AcDbEntity
  8
AM_BOR
100
AcDbLine
 10
0.0
 20
0.0
 30
0.0
 11
0.0
 21
15.0
 31
0.0
  0
LINE
  5
3FE
330
3FC
100
AcDbEntity
  8
AM_BOR
100
AcDbLine
 10
0.0
 20
594.0
 30
0.0
 11
15.0
 21
594.0
 31
0.0
  0
LINE
  5
3FF
330
3FC
100
AcDbEntity
  8
AM_BOR
100
AcDbLine
 10
841.0
 20
594.0
 30
0.0
 11
841.0
 21
579.0
 31
0.0
  0
LINE
  5
400
330
3FC
100
AcDbEntity
  8
AM_BOR
100
AcDbLine
 10
841.0
 20
0.0
 30
0.0
 11
826.0
 21
0.0
 31
0.0
  0
LINE
  5
401
330
3FC
100
AcDbEntity
  8
0
100
AcDbLine
 10
25.0
 20
20.0
 30
0.0
 11
25.0
 21
574.0
 31
0.0
  0
LINE
  5
402
330
3FC
100
AcDbEntity
  8
0
100
AcDbLine
 10
821.0
 20
20.0
 30
0.0
 11
25.0
 21
20.0
 31
0.0
  0
LINE
  5
403
330
3FC
100
AcDbEntity
  8
0
100
AcDbLine
 10
821.0
 20
574.0
 30
0.0
 11
821.0
 21
20.0
 31
0.0
  0
LINE
  5
404
330
3FC
100
AcDbEntity
  8
0
100
AcDbLine
 10
25.0
 20
574.0
 30
0.0
 11
821.0
 21
574.0
 31
0.0
  0
LINE
  5
405
330
3FC
100
AcDbEntity
  8
AM_BOR
100
AcDbLine
 10
15.0
 20
0.0
 30
0.0
 11
0.0
 21
0.0
 31
0.0
  0
LINE
  5
406
330
3FC
100
AcDbEntity
  8
AM_BOR
100
AcDbLine
 10
841.0
 20
15.0
 30
0.0
 11
841.0
 21
0.0
 31
0.0
  0
LINE
  5
407
330
3FC
100
AcDbEntity
  8
AM_BOR
100
AcDbLine
 10
826.0
 20
594.0
 30
0.0
 11
841.0
 21
594.0
 31
0.0
  0
LINE
  5
408
330
3FC
100
AcDbEntity
  8
AM_BOR
100
AcDbLine
 10
0.0
 20
579.0
 30
0.0
 11
0.0
 21
594.0
 31
0.0
  0
TEXT
  5
409
330
3FC
100
AcDbEntity
  8
0
 60
     1
100
AcDbText
 10
25.0
 20
20.0
 30
0.0
 40
12.0
  1
!GENTITLE-LL
  7
ACJISTS
100
AcDbText
  0
TEXT
  5
40A
330
3FC
100
AcDbEntity
  8
0
 60
     1
100
AcDbText
 10
841.0
 20
594.0
 30
0.0
 40
12.0
  1
!GENTITLE-MAX
  7
ACJISTS
100
AcDbText
  0
TEXT
  5
40B
330
3FC
100
AcDbEntity
  8
0
 60
     1
100
AcDbText
 10
821.0
 20
574.0
 30
0.0
 40
12.0
  1
!GENTITLE-RU
  7
ACJISTS
100
AcDbText
  0
TEXT
  5
40C
330
3FC
100
AcDbEntity
  8
0
 60
     1
100
AcDbText
 10
821.0
 20
20.0
 30
0.0
 40
12.0
  1
!GENTITLE-INSERT
  7
ACJISTS
100
AcDbText
  0
LINE
  5
40D
330
3FC
100
AcDbEntity
  8
AM_BOR
 62
     1
370
    25
100
AcDbLine
 10
0.0
 20
594.0
 30
0.0
 11
841.0
 21
594.0
 31
0.0
  0
LINE
  5
40E
330
3FC
100
AcDbEntity
  8
AM_BOR
 62
     1
370
    25
100
AcDbLine
 10
841.0
 20
594.0
 30
0.0
 11
841.0
 21
0.0
 31
0.0
  0
LINE
  5
40F
330
3FC
100
AcDbEntity
  8
AM_BOR
 62
     1
370
    25
100
AcDbLine
 10
841.0
 20
0.0
 30
0.0
 11
0.0
 21
0.0
 31
0.0
  0
LINE
  5
410
330
3FC
100
AcDbEntity
  8
AM_BOR
 62
     1
370
    25
100
AcDbLine
 10
0.0
 20
0.0
 30
0.0
 11
0.0
 21
594.0
 31
0.0
  0
ENDBLK
  5
412
330
3FC
100
AcDbEntity
  8
0
100
AcDbBlockEnd
  0
BLOCK
  5
51E
330
50A
100
AcDbEntity
  8
0
100
AcDbBlockBegin
  2
jis_bl_revisionlist1
 70
     2
 10
0.0
 20
0.0
 30
0.0
  3
jis_bl_revisionlist1
  1

  0
LINE
  5
680
330
50A
100
AcDbEntity
  8
0
100
AcDbLine
 10
0.0
 20
-4.999999963957748
 30
0.0
 11
182.8800000000001
 21
-4.999999963957748
 31
0.0
  0
LINE
  5
681
330
50A
100
AcDbEntity
  8
AM_BOR
 62
     1
370
    25
100
AcDbLine
 10
28.88000000000011
 20
-9.999999963957748
 30
0.0
 11
159.8800000000001
 21
-9.999999963957748
 31
0.0
  0
LINE
  5
682
330
50A
100
AcDbEntity
  8
0
100
AcDbLine
 10
0.0000000675292995
 20
-9.999999963957804
 30
0.0
 11
182.8800000675292
 21
-9.999999963957804
 31
0.0
  0
LINE
  5
683
330
50A
100
AcDbEntity
  8
0
100
AcDbLine
 10
8.880000000000109
 20
-9.999999963957804
 30
0.0
 11
8.880000000000109
 21
-4.999999963957748
 31
0.0
  0
LINE
  5
684
330
50A
100
AcDbEntity
  8
0
100
AcDbLine
 10
0.0
 20
-9.999999963957748
 30
0.0
 11
0.0
 21
-10.0
 31
0.0
  0
LINE
  5
685
330
50A
100
AcDbEntity
  8
AM_BOR
 62
     1
370
    25
100
AcDbLine
 10
8.880000000000109
 20
-10.0
 30
0.0
 11
8.880000000000109
 21
-4.999999963957748
 31
0.0
  0
LINE
  5
686
330
50A
100
AcDbEntity
  8
AM_BOR
 62
     1
370
    25
100
AcDbLine
 10
28.88000000000011
 20
-10.0
 30
0.0
 11
28.88000000000011
 21
-9.999999963957748
 31
0.0
  0
LINE
  5
687
330
50A
100
AcDbEntity
  8
0
100
AcDbLine
 10
0.0
 20
-4.999999963957748
 30
0.0
 11
0.0
 21
-9.999999963957748
 31
0.0
  0
LINE
  5
688
330
50A
100
AcDbEntity
  8
AM_BOR
 62
     1
370
    25
100
AcDbLine
 10
28.88000000000011
 20
-9.999999963957748
 30
0.0
 11
28.88000000000011
 21
-4.999999963957748
 31
0.0
  0
LINE
  5
689
330
50A
100
AcDbEntity
  8
AM_BOR
 62
     1
370
    25
100
AcDbLine
 10
159.8800000000001
 20
-10.0
 30
0.0
 11
159.8800000000001
 21
-9.999999963957748
 31
0.0
  0
LINE
  5
68A
330
50A
100
AcDbEntity
  8
0
100
AcDbLine
 10
182.8800000000001
 20
-10.0
 30
0.0
 11
182.8800000000001
 21
-9.999999963957748
 31
0.0
  0
LINE
  5
68B
330
50A
100
AcDbEntity
  8
AM_BOR
 62
     1
370
    25
100
AcDbLine
 10
159.8800000000001
 20
-9.999999963957748
 30
0.0
 11
159.8800000000001
 21
-4.999999963957748
 31
0.0
  0
LINE
  5
68C
330
50A
100
AcDbEntity
  8
0
100
AcDbLine
 10
182.8800000000001
 20
-9.999999963957748
 30
0.0
 11
182.8800000000001
 21
-4.999999963957748
 31
0.0
  0
ATTDEF
  5
68D
330
50A
100
AcDbEntity
  8
AM_BOR
 62
     1
370
    25
100
AcDbText
 10
9.880000000000109
 20
-8.999999999999658
 30
0.0
 40
3.0
  1

  7
ACJISTS
100
AcDbAttributeDefinition
  3
図面名
  2
GEN-REV-BLK{6}
 70
     0
1001
GENIUS_GENTRA_14
1002
{
1070
     3
1000
GENTRAPR,%s,(GENMSG gendwg 93)
1000
図面名
1000
JPN
1070
     0
1070
     0
1002
}
  0
ATTDEF
  5
68E
330
50A
100
AcDbEntity
  8
AM_BOR
 62
     1
370
    25
100
AcDbText
 10
29.88000000000011
 20
-9.000000000001477
 30
0.0
 40
3.0
  1

  7
ACJISTS
100
AcDbAttributeDefinition
  3
履歴 2 行目
  2
GEN-REV-TEXT2{43}
 70
     0
1001
GENIUS_GENTRA_14
1002
{
1070
     3
1000
GENTRAPR,%s,(GENMSG gendwg 92)
1000
履歴 2 行目
1000
JPN
1070
     0
1070
     0
1002
}
  0
ATTDEF
  5
68F
330
50A
100
AcDbEntity
  8
AM_BOR
 62
     1
370
    25
100
AcDbText
 10
0.9326324110411405
 20
-8.999999963957748
 30
0.0
 40
3.0
  1

  7
ACJISTS
100
AcDbAttributeDefinition
  3
番号
  2
GEN-REV-NR{2}
 70
     0
1001
GENIUS_GENTRA_14
1002
{
1070
     3
1000
GENTRAPR,%s,(GENMSG gendwg 98)
1000
番号
1000
JPN
1070
     0
1070
     0
1002
}
  0
ATTDEF
  5
690
330
50A
100
AcDbEntity
  8
AM_BOR
 62
     1
370
    25
100
AcDbText
 10
9.880000000000109
 20
-8.999999963957407
 30
0.0
 40
3.0
  1

  7
ACJISTS
100
AcDbAttributeDefinition
  3
日付
  2
GEN-REV-DAT{6}
 70
     0
1001
GENIUS_GENTRA_14
1002
{
1070
     3
1000
GENTRAPR,%s,(GENMSG gendwg 95)
1000
日付
1000
JPN
1070
     0
1070
     0
1002
}
  0
ATTDEF
  5
691
330
50A
100
AcDbEntity
  8
AM_BOR
 62
     1
370
    25
100
AcDbText
 10
160.8800000000001
 20
-8.713127708901765
 30
0.0
 40
3.0
  1

  7
ACJISTS
100
AcDbAttributeDefinition
  3
名前
  2
GEN-REV-NAME{7}
 70
     0
1001
GENIUS_GENTRA_14
1002
{
1070
     3
1000
GENTRAPR,%s,(GENMSG gendwg 97)
1000
名前
1000
JPN
1070
     0
1070
     0
1002
}
  0
ENDBLK
  5
51F
330
50A
100
AcDbEntity
  8
0
100
AcDbBlockEnd
  0
BLOCK
  5
52C
330
520
100
AcDbEntity
  8
0
100
AcDbBlockBegin
  2
jis_bl_revisionlist0
 70
     0
 10
0.0
 20
0.0
 30
0.0
  3
jis_bl_revisionlist0
  1

  0
LINE
  5
521
330
520
100
AcDbEntity
  8
0
100
AcDbLine
 10
182.88
 20
-5.347300637836838
 30
0.0
 11
0.0
 21
-5.347300637836809
 31
0.0
  0
LINE
  5
522
330
520
100
AcDbEntity
  8
0
100
AcDbLine
 10
0.0
 20
0.0
 30
0.0
 11
182.88
 21
0.0
 31
0.0
  0
TEXT
  5
523
330
520
100
AcDbEntity
  8
AM_BOR
 62
     1
370
    25
100
AcDbText
 10
9.879999999999995
 20
-4.105772405495713
 30
0.0
 40
3.0
  1
日付
  7
ACJISTS
100
AcDbText
1001
GENIUS_GENTRA_14
1002
{
1070
     1
1000
GENTRATX{6},%s,(GENMSG gendwg 95)
1000
日付
1000
JPN
1070
     0
1040
1.0
1070
     0
1002
}
  0
TEXT
  5
524
330
520
100
AcDbEntity
  8
AM_BOR
 62
     1
370
    25
100
AcDbText
 10
1.0
 20
-4.105772405495713
 30
0.0
 40
3.0
  1
番号
 41
0.9374999999999998
  7
ACJISTS
100
AcDbText
1001
GENIUS_GENTRA_14
1002
{
1070
     1
1000
GENTRATX{2},%s,(GENMSG gendwg 98)
1000
番号
1000
JPN
1070
     0
1040
1.0
1070
     0
1002
}
  0
TEXT
  5
525
330
520
100
AcDbEntity
  8
AM_BOR
 62
     1
370
    25
100
AcDbText
 10
29.87999999999999
 20
-4.10577240549685
 30
0.0
 40
3.0
  1
履歴
  7
ACJISTS
100
AcDbText
1001
GENIUS_GENTRA_14
1002
{
1070
     1
1000
GENTRATX{43},%s,(GENMSG gendwg 96)
1000
履歴
1000
JPN
1070
     0
1040
1.0
1070
     0
1002
}
  0
LINE
  5
526
330
520
100
AcDbEntity
  8
0
100
AcDbLine
 10
0.0
 20
-5.347300637836809
 30
0.0
 11
0.0
 21
0.0
 31
0.0
  0
LINE
  5
527
330
520
100
AcDbEntity
  8
AM_BOR
 62
     1
370
    25
100
AcDbLine
 10
8.879999999999995
 20
-5.347300637836809
 30
0.0
 11
8.879999999999995
 21
0.0
 31
0.0
  0
LINE
  5
528
330
520
100
AcDbEntity
  8
AM_BOR
 62
     1
370
    25
100
AcDbLine
 10
28.88
 20
0.0
 30
0.0
 11
28.88
 21
-5.347300637836809
 31
0.0
  0
TEXT
  5
529
330
520
100
AcDbEntity
  8
AM_BOR
 62
     1
370
    25
100
AcDbText
 10
160.8542175266192
 20
-4.105772405495201
 30
0.0
 40
3.0
  1
名前
  7
ACJISTS
100
AcDbText
1001
GENIUS_GENTRA_14
1002
{
1070
     1
1000
GENTRATX{7},%s,(GENMSG gendwg 97)
1000
名前
1000
JPN
1070
     0
1040
1.0
1070
     0
1002
}
  0
LINE
  5
52A
330
520
100
AcDbEntity
  8
AM_BOR
 62
     1
370
    25
100
AcDbLine
 10
159.88
 20
0.0
 30
0.0
 11
159.88
 21
-5.347300637836838
 31
0.0
  0
LINE
  5
52B
330
520
100
AcDbEntity
  8
0
100
AcDbLine
 10
182.88
 20
0.0
 30
0.0
 11
182.88
 21
-5.347300637836838
 31
0.0
  0
ENDBLK
  5
52D
330
520
100
AcDbEntity
  8
0
100
AcDbBlockEnd
  0
BLOCK
  5
538
330
52E
100
AcDbEntity
  8
0
100
AcDbBlockBegin
  2
jis_bl_revisionlist
 70
     0
 10
0.0
 20
0.0
 30
0.0
  3
jis_bl_revisionlist
  1

  0
INSERT
  5
52F
330
52E
100
AcDbEntity
  8
0
100
AcDbBlockReference
 66
     1
  2
jis_bl_revisionlist1
 10
0.0
 20
15.34730060179461
 30
0.0
  0
ATTRIB
  5
530
330
52F
100
AcDbEntity
  8
AM_BOR
 62
     1
370
    25
100
AcDbText
 10
9.879999999999995
 20
6.347300601794955
 30
0.0
 40
3.0
  1

  7
ACJISTS
100
AcDbAttribute
  2
GEN-REV-BLK{6}
 70
     0
1001
GENIUS_GENBLLY_14
1000
BOR2
  0
ATTRIB
  5
531
330
52F
100
AcDbEntity
  8
AM_BOR
 62
     1
370
    25
100
AcDbText
 10
29.87999999999999
 20
6.347300601793136
 30
0.0
 40
3.0
  1

  7
ACJISTS
100
AcDbAttribute
  2
GEN-REV-TEXT2{43}
 70
     0
1001
GENIUS_GENBLLY_14
1000
BOR2
  0
ATTRIB
  5
532
330
52F
100
AcDbEntity
  8
AM_BOR
 62
     1
370
    25
100
AcDbText
 10
0.9326324110412542
 20
11.34730060179461
 30
0.0
 40
3.0
  1

  7
ACJISTS
100
AcDbAttribute
  2
GEN-REV-NR{2}
 70
     0
1001
GENIUS_GENBLLY_14
1000
BOR2
  0
ATTRIB
  5
533
330
52F
100
AcDbEntity
  8
AM_BOR
 62
     1
370
    25
100
AcDbText
 10
9.879999999999995
 20
11.34730060179495
 30
0.0
 40
3.0
  1

  7
ACJISTS
100
AcDbAttribute
  2
GEN-REV-DAT{6}
 70
     0
1001
GENIUS_GENBLLY_14
1000
BOR2
  0
ATTRIB
  5
534
330
52F
100
AcDbEntity
  8
AM_BOR
 62
     1
370
    25
100
AcDbText
 10
29.87999999999999
 20
11.34730060179313
 30
0.0
 40
3.0
  1

  7
ACJISTS
100
AcDbAttribute
  2
GEN-REV-TEXT1{43}
 70
     0
1001
GENIUS_GENBLLY_14
1000
BOR2
  0
ATTRIB
  5
535
330
52F
100
AcDbEntity
  8
AM_BOR
 62
     1
370
    25
100
AcDbText
 10
160.88
 20
11.63417285685059
 30
0.0
 40
3.0
  1

  7
ACJISTS
100
AcDbAttribute
  2
GEN-REV-NAME{7}
 70
     0
1001
GENIUS_GENBLLY_14
1000
BOR2
  0
SEQEND
  5
536
330
52F
100
AcDbEntity
  8
0
  0
INSERT
  5
537
330
52E
100
AcDbEntity
  8
0
100
AcDbBlockReference
  2
jis_bl_revisionlist0
 10
0.0
 20
5.347300637836809
 30
0.0
  0
ENDBLK
  5
539
330
52E
100
AcDbEntity
  8
0
100
AcDbBlockEnd
  0
BLOCK
  5
5E2
330
5D6
100
AcDbEntity
  8
0
100
AcDbBlockBegin
  2
jis_br_revisionlist0
 70
     0
 10
0.0
 20
0.0
 30
0.0
  3
jis_br_revisionlist0
  1

  0
TEXT
  5
5D7
330
5D6
100
AcDbEntity
  8
AM_BOR
 62
     1
370
    25
100
AcDbText
 10
-22.02578247338079
 20
-4.105772405495201
 30
0.0
 40
3.0
  1
名前
  7
ACJISTS
100
AcDbText
1001
GENIUS_GENBLLY_14
1000
BOR2
1001
GENIUS_GENTRA_14
1002
{
1070
     1
1000
GENTRATX{7},%s,(GENMSG gendwg 97)
1000
名前
1000
JPN
1070
     0
1040
1.0
1070
     0
1002
}
  0
TEXT
  5
5D8
330
5D6
100
AcDbEntity
  8
AM_BOR
 62
     1
370
    25
100
AcDbText
 10
-153.0
 20
-4.10577240549685
 30
0.0
 40
3.0
  1
履歴
  7
ACJISTS
100
AcDbText
1001
GENIUS_GENBLLY_14
1000
BOR2
1001
GENIUS_GENTRA_14
1002
{
1070
     1
1000
GENTRATX{43},%s,(GENMSG gendwg 96)
1000
履歴
1000
JPN
1070
     0
1040
1.0
1070
     0
1002
}
  0
LINE
  5
5D9
330
5D6
100
AcDbEntity
  8
0
100
AcDbLine
 10
0.0
 20
-5.347300637836838
 30
0.0
 11
-182.88
 21
-5.347300637836809
 31
0.0
  0
LINE
  5
5DA
330
5D6
100
AcDbEntity
  8
0
100
AcDbLine
 10
-182.88
 20
0.0
 30
0.0
 11
0.0
 21
0.0
 31
0.0
  0
TEXT
  5
5DB
330
5D6
100
AcDbEntity
  8
AM_BOR
 62
     1
370
    25
100
AcDbText
 10
-173.0
 20
-4.105772405495713
 30
0.0
 40
3.0
  1
日付
  7
ACJISTS
100
AcDbText
1001
GENIUS_GENBLLY_14
1000
BOR2
1001
GENIUS_GENTRA_14
1002
{
1070
     1
1000
GENTRATX{6},%s,(GENMSG gendwg 95)
1000
日付
1000
JPN
1070
     0
1040
1.0
1070
     0
1002
}
  0
TEXT
  5
5DC
330
5D6
100
AcDbEntity
  8
AM_BOR
 62
     1
370
    25
100
AcDbText
 10
-181.88
 20
-4.105772405495713
 30
0.0
 40
3.0
  1
番号
 41
0.9374999999999998
  7
ACJISTS
100
AcDbText
1001
GENIUS_GENBLLY_14
1000
BOR2
1001
GENIUS_GENTRA_14
1002
{
1070
     1
1000
GENTRATX{2},%s,(GENMSG gendwg 98)
1000
番号
1000
JPN
1070
     0
1040
1.0
1070
     0
1002
}
  0
LINE
  5
5DD
330
5D6
100
AcDbEntity
  8
0
100
AcDbLine
 10
-182.88
 20
-5.347300637836809
 30
0.0
 11
-182.88
 21
0.0
 31
0.0
  0
LINE
  5
5DE
330
5D6
100
AcDbEntity
  8
AM_BOR
 62
     1
370
    25
100
AcDbLine
 10
-174.0
 20
-5.347300637836809
 30
0.0
 11
-174.0
 21
0.0
 31
0.0
1001
GENIUS_GENBLLY_14
1000
BOR2
  0
LINE
  5
5DF
330
5D6
100
AcDbEntity
  8
AM_BOR
 62
     1
370
    25
100
AcDbLine
 10
-154.0
 20
0.0
 30
0.0
 11
-154.0
 21
-5.347300637836809
 31
0.0
1001
GENIUS_GENBLLY_14
1000
BOR2
  0
LINE
  5
5E0
330
5D6
100
AcDbEntity
  8
AM_BOR
 62
     1
370
    25
100
AcDbLine
 10
-23.0
 20
0.0
 30
0.0
 11
-23.0
 21
-5.347300637836838
 31
0.0
1001
GENIUS_GENBLLY_14
1000
BOR2
  0
LINE
  5
5E1
330
5D6
100
AcDbEntity
  8
0
100
AcDbLine
 10
0.0
 20
0.0
 30
0.0
 11
0.0
 21
-5.347300637836838
 31
0.0
  0
ENDBLK
  5
5E3
330
5D6
100
AcDbEntity
  8
0
100
AcDbBlockEnd
  0
BLOCK
  5
5F8
330
5E4
100
AcDbEntity
  8
0
100
AcDbBlockBegin
  2
jis_br_revisionlist1
 70
     2
 10
0.0
 20
0.0
 30
0.0
  3
jis_br_revisionlist1
  1

  0
LINE
  5
5E5
330
5E4
100
AcDbEntity
  8
0
100
AcDbLine
 10
0.0
 20
-5.0
 30
0.0
 11
0.0
 21
0.0
 31
0.0
  0
LINE
  5
5E6
330
5E4
100
AcDbEntity
  8
AM_BOR
 62
     1
370
    25
100
AcDbLine
 10
-23.0
 20
-5.0
 30
0.0
 11
-23.0
 21
0.0
 31
0.0
1001
GENIUS_GENBLLY_14
1000
BOR2
  0
ATTDEF
  5
5E7
330
5E4
100
AcDbEntity
  8
AM_BOR
 62
     1
370
    25
100
AcDbText
 10
-22.0
 20
-3.713127744944017
 30
0.0
 40
3.0
  1

  7
ACJISTS
100
AcDbAttributeDefinition
  3
名前
  2
GEN-REV-NAME{7}
 70
     0
1001
GENIUS_GENBLLY_14
1000
BOR2
1001
GENIUS_GENTRA_14
1002
{
1070
     3
1000
GENTRAPR,%s,(GENMSG gendwg 97)
1000
名前
1000
JPN
1070
     0
1070
     0
1002
}
  0
LINE
  5
5E8
330
5E4
100
AcDbEntity
  8
0
100
AcDbLine
 10
0.0
 20
-10.0
 30
0.0
 11
0.0
 21
-5.0
 31
0.0
  0
LINE
  5
5E9
330
5E4
100
AcDbEntity
  8
AM_BOR
 62
     1
370
    25
100
AcDbLine
 10
-23.0
 20
-10.0
 30
0.0
 11
-23.0
 21
-5.0
 31
0.0
1001
GENIUS_GENBLLY_14
1000
BOR2
  0
LINE
  5
5EA
330
5E4
100
AcDbEntity
  8
AM_BOR
 62
     1
370
    25
100
AcDbLine
 10
-154.0
 20
-5.0
 30
0.0
 11
-154.0
 21
0.0
 31
0.0
1001
GENIUS_GENBLLY_14
1000
BOR2
  0
LINE
  5
5EB
330
5E4
100
AcDbEntity
  8
AM_BOR
 62
     1
370
    25
100
AcDbLine
 10
-154.0
 20
-10.0
 30
0.0
 11
-154.0
 21
-5.0
 31
0.0
1001
GENIUS_GENBLLY_14
1000
BOR2
  0
ATTDEF
  5
5EC
330
5E4
100
AcDbEntity
  8
AM_BOR
 62
     1
370
    25
100
AcDbText
 10
-153.0
 20
-4.000000000001477
 30
0.0
 40
3.0
  1

  7
ACJISTS
100
AcDbAttributeDefinition
  3
履歴 1 行目
  2
GEN-REV-TEXT1{43}
 70
     0
1001
GENIUS_GENBLLY_14
1000
BOR2
1001
GENIUS_GENTRA_14
1002
{
1070
     3
1000
GENTRAPR,%s,(GENMSG gendwg 94)
1000
履歴 1 行目
1000
JPN
1070
     0
1070
     0
1002
}
  0
ATTDEF
  5
5ED
330
5E4
100
AcDbEntity
  8
AM_BOR
 62
     1
370
    25
100
AcDbText
 10
-153.0
 20
-9.000000000001477
 30
0.0
 40
3.0
  1

  7
ACJISTS
100
AcDbAttributeDefinition
  3
履歴 2 行目
  2
GEN-REV-TEXT2{43}
 70
     0
1001
GENIUS_GENBLLY_14
1000
BOR2
1001
GENIUS_GENTRA_14
1002
{
1070
     3
1000
GENTRAPR,%s,(GENMSG gendwg 92)
1000
履歴 2 行目
1000
JPN
1070
     0
1070
     0
1002
}
  0
LINE
  5
5EE
330
5E4
100
AcDbEntity
  8
0
100
AcDbLine
 10
-182.88
 20
0.0
 30
0.0
 11
-182.88
 21
-5.0
 31
0.0
  0
LINE
  5
5EF
330
5E4
100
AcDbEntity
  8
AM_BOR
 62
     1
370
    25
100
AcDbLine
 10
-174.0
 20
-10.0
 30
0.0
 11
-174.0
 21
0.0
 31
0.0
1001
GENIUS_GENBLLY_14
1000
BOR2
  0
LINE
  5
5F0
330
5E4
100
AcDbEntity
  8
0
100
AcDbLine
 10
-182.88
 20
-5.0
 30
0.0
 11
-182.88
 21
-10.0
 31
0.0
  0
LINE
  5
5F1
330
5E4
100
AcDbEntity
  8
0
100
AcDbLine
 10
-174.0
 20
-9.999999963957804
 30
0.0
 11
-174.0
 21
0.0
 31
0.0
  0
ATTDEF
  5
5F2
330
5E4
100
AcDbEntity
  8
AM_BOR
 62
     1
370
    25
100
AcDbText
 10
-173.0
 20
-8.999999999999658
 30
0.0
 40
3.0
  1

  7
ACJISTS
100
AcDbAttributeDefinition
  3
図面名
  2
GEN-REV-BLK{6}
 70
     0
1001
GENIUS_GENBLLY_14
1000
BOR2
1001
GENIUS_GENTRA_14
1002
{
1070
     3
1000
GENTRAPR,%s,(GENMSG gendwg 93)
1000
図面名
1000
JPN
1070
     0
1070
     0
1002
}
  0
ATTDEF
  5
5F3
330
5E4
100
AcDbEntity
  8
AM_BOR
 62
     1
370
    25
100
AcDbText
 10
-173.0
 20
-3.999999999999658
 30
0.0
 40
3.0
  1

  7
ACJISTS
100
AcDbAttributeDefinition
  3
日付
  2
GEN-REV-DAT{6}
 70
     0
1001
GENIUS_GENBLLY_14
1000
BOR2
1001
GENIUS_GENTRA_14
1002
{
1070
     3
1000
GENTRAPR,%s,(GENMSG gendwg 95)
1000
日付
1000
JPN
1070
     0
1070
     0
1002
}
  0
ATTDEF
  5
5F4
330
5E4
100
AcDbEntity
  8
AM_BOR
 62
     1
370
    25
100
AcDbText
 10
-181.9473675889587
 20
-4.0
 30
0.0
 40
3.0
  1

  7
ACJISTS
100
AcDbAttributeDefinition
  3
番号
  2
GEN-REV-NR{2}
 70
     0
1001
GENIUS_GENBLLY_14
1000
BOR2
1001
GENIUS_GENTRA_14
1002
{
1070
     3
1000
GENTRAPR,%s,(GENMSG gendwg 98)
1000
番号
1000
JPN
1070
     0
1070
     0
1002
}
  0
LINE
  5
5F5
330
5E4
100
AcDbEntity
  8
0
100
AcDbLine
 10
-182.8799999324707
 20
-9.999999963957804
 30
0.0
 11
0.0000000675292426
 21
-9.999999963957804
 31
0.0
  0
LINE
  5
5F6
330
5E4
100
AcDbEntity
  8
AM_BOR
 62
     1
370
    25
100
AcDbLine
 10
-154.0
 20
-5.0
 30
0.0
 11
-23.0
 21
-5.0
 31
0.0
1001
GENIUS_GENBLLY_14
1000
BOR2
  0
LINE
  5
5F7
330
5E4
100
AcDbEntity
  8
0
100
AcDbLine
 10
-182.88
 20
0.0
 30
0.0
 11
0.0
 21
0.0
 31
0.0
  0
ENDBLK
  5
5F9
330
5E4
100
AcDbEntity
  8
0
100
AcDbBlockEnd
  0
BLOCK
  5
604
330
5FA
100
AcDbEntity
  8
0
100
AcDbBlockBegin
  2
jis_br_revisionlist
 70
     0
 10
0.0
 20
0.0
 30
0.0
  3
jis_br_revisionlist
  1

  0
INSERT
  5
5FB
330
5FA
100
AcDbEntity
  8
0
100
AcDbBlockReference
 66
     1
  2
jis_br_revisionlist1
 10
0.0
 20
15.34730060179464
 30
0.0
  0
ATTRIB
  5
5FC
330
5FB
100
AcDbEntity
  8
AM_BOR
 62
     1
370
    25
100
AcDbText
 10
-22.0
 20
11.63417285685062
 30
0.0
 40
3.0
  1

  7
ACJISTS
100
AcDbAttribute
  2
GEN-REV-NAME{7}
 70
     0
1001
GENIUS_GENBLLY_14
1000
BOR2
  0
ATTRIB
  5
5FD
330
5FB
100
AcDbEntity
  8
AM_BOR
 62
     1
370
    25
100
AcDbText
 10
-153.0
 20
11.34730060179316
 30
0.0
 40
3.0
  1

  7
ACJISTS
100
AcDbAttribute
  2
GEN-REV-TEXT1{43}
 70
     0
1001
GENIUS_GENBLLY_14
1000
BOR2
  0
ATTRIB
  5
5FE
330
5FB
100
AcDbEntity
  8
AM_BOR
 62
     1
370
    25
100
AcDbText
 10
-153.0
 20
6.347300601793168
 30
0.0
 40
3.0
  1

  7
ACJISTS
100
AcDbAttribute
  2
GEN-REV-TEXT2{43}
 70
     0
1001
GENIUS_GENBLLY_14
1000
BOR2
  0
ATTRIB
  5
5FF
330
5FB
100
AcDbEntity
  8
AM_BOR
 62
     1
370
    25
100
AcDbText
 10
-173.0
 20
6.347300601794987
 30
0.0
 40
3.0
  1

  7
ACJISTS
100
AcDbAttribute
  2
GEN-REV-BLK{6}
 70
     0
1001
GENIUS_GENBLLY_14
1000
BOR2
  0
ATTRIB
  5
600
330
5FB
100
AcDbEntity
  8
AM_BOR
 62
     1
370
    25
100
AcDbText
 10
-173.0
 20
11.34730060179498
 30
0.0
 40
3.0
  1

  7
ACJISTS
100
AcDbAttribute
  2
GEN-REV-DAT{6}
 70
     0
1001
GENIUS_GENBLLY_14
1000
BOR2
  0
ATTRIB
  5
601
330
5FB
100
AcDbEntity
  8
AM_BOR
 62
     1
370
    25
100
AcDbText
 10
-181.9473675889587
 20
11.34730060179464
 30
0.0
 40
3.0
  1

  7
ACJISTS
100
AcDbAttribute
  2
GEN-REV-NR{2}
 70
     0
1001
GENIUS_GENBLLY_14
1000
BOR2
  0
SEQEND
  5
602
330
5FB
100
AcDbEntity
  8
0
  0
INSERT
  5
603
330
5FA
100
AcDbEntity
  8
0
100
AcDbBlockReference
  2
jis_br_revisionlist0
 10
0.0
 20
5.347300637836838
 30
0.0
  0
ENDBLK
  5
605
330
5FA
100
AcDbEntity
  8
0
100
AcDbBlockEnd
  0
BLOCK
  5
6BE
330
6A8
100
AcDbEntity
  8
0
100
AcDbBlockBegin
  2
IGS_A3
 70
     0
 10
0.0
 20
0.0
 30
0.0
  3
IGS_A3
  1

  0
LINE
  5
6A9
330
6A8
100
AcDbEntity
  8
AM_BOR
100
AcDbLine
 10
0.0
 20
0.0
 30
0.0
 11
0.0
 21
10.0
 31
0.0
  0
LINE
  5
6AA
330
6A8
100
AcDbEntity
  8
AM_BOR
100
AcDbLine
 10
0.0
 20
297.0
 30
0.0
 11
10.0
 21
297.0
 31
0.0
  0
LINE
  5
6AB
330
6A8
100
AcDbEntity
  8
AM_BOR
100
AcDbLine
 10
420.0
 20
297.0
 30
0.0
 11
420.0
 21
287.0
 31
0.0
  0
LINE
  5
6AC
330
6A8
100
AcDbEntity
  8
AM_BOR
100
AcDbLine
 10
420.0
 20
0.0
 30
0.0
 11
410.0
 21
0.0
 31
0.0
  0
LINE
  5
6AD
330
6A8
100
AcDbEntity
  8
0
100
AcDbLine
 10
25.0
 20
10.0
 30
0.0
 11
25.0
 21
287.0
 31
0.0
  0
LINE
  5
6AE
330
6A8
100
AcDbEntity
  8
0
100
AcDbLine
 10
410.0
 20
10.0
 30
0.0
 11
25.0
 21
10.0
 31
0.0
  0
LINE
  5
6AF
330
6A8
100
AcDbEntity
  8
0
100
AcDbLine
 10
410.0
 20
287.0
 30
0.0
 11
410.0
 21
10.0
 31
0.0
  0
LINE
  5
6B0
330
6A8
100
AcDbEntity
  8
0
100
AcDbLine
 10
25.0
 20
287.0
 30
0.0
 11
410.0
 21
287.0
 31
0.0
  0
LINE
  5
6B1
330
6A8
100
AcDbEntity
  8
AM_BOR
100
AcDbLine
 10
0.0
 20
287.0
 30
0.0
 11
0.0
 21
297.0
 31
0.0
  0
LINE
  5
6B2
330
6A8
100
AcDbEntity
  8
AM_BOR
100
AcDbLine
 10
10.0
 20
0.0
 30
0.0
 11
0.0
 21
0.0
 31
0.0
  0
LINE
  5
6B3
330
6A8
100
AcDbEntity
  8
AM_BOR
100
AcDbLine
 10
420.0
 20
10.0
 30
0.0
 11
420.0
 21
0.0
 31
0.0
  0
LINE
  5
6B4
330
6A8
100
AcDbEntity
  8
AM_BOR
100
AcDbLine
 10
410.0
 20
297.0
 30
0.0
 11
420.0
 21
297.0
 31
0.0
  0
TEXT
  5
6B5
330
6A8
100
AcDbEntity
  8
0
 60
     1
100
AcDbText
 10
410.0
 20
287.0
 30
0.0
 40
3.5
  1
!GENTITLE-RU
  7
ACJISTS
100
AcDbText
  0
TEXT
  5
6B6
330
6A8
100
AcDbEntity
  8
0
 60
     1
100
AcDbText
 10
420.0
 20
297.0
 30
0.0
 40
3.5
  1
!GENTITLE-MAX
  7
ACJISTS
100
AcDbText
  0
TEXT
  5
6B7
330
6A8
100
AcDbEntity
  8
0
 60
     1
100
AcDbText
 10
410.0
 20
10.0
 30
0.0
 40
3.5
  1
!GENTITLE-INSERT
  7
ACJISTS
100
AcDbText
  0
TEXT
  5
6B8
330
6A8
100
AcDbEntity
  8
0
 60
     1
100
AcDbText
 10
25.0
 20
10.0
 30
0.0
 40
3.5
  1
!GENTITLE-LL
  7
ACJISTS
100
AcDbText
  0
LINE
  5
6B9
330
6A8
100
AcDbEntity
  8
AM_BOR
 62
     1
370
    25
100
AcDbLine
 10
0.0
 20
297.0
 30
0.0
 11
420.0
 21
297.0
 31
0.0
  0
LINE
  5
6BA
330
6A8
100
AcDbEntity
  8
AM_BOR
 62
     1
370
    25
100
AcDbLine
 10
420.0
 20
297.0
 30
0.0
 11
420.0
 21
0.0
 31
0.0
  0
LINE
  5
6BB
330
6A8
100
AcDbEntity
  8
AM_BOR
 62
     1
370
    25
100
AcDbLine
 10
420.0
 20
0.0
 30
0.0
 11
0.0
 21
0.0
 31
0.0
  0
LINE
  5
6BC
330
6A8
100
AcDbEntity
  8
AM_BOR
 62
     1
370
    25
100
AcDbLine
 10
0.0
 20
0.0
 30
0.0
 11
0.0
 21
297.0
 31
0.0
  0
TEXT
  5
6BD
330
6A8
100
AcDbEntity
  8
DEFPOINTS
100
AcDbText
 10
19.5941472374451
 20
2.504073349097552
 30
0.0
 40
5.0
  1
A3
100
AcDbText
  0
ENDBLK
  5
6BF
330
6A8
100
AcDbEntity
  8
0
100
AcDbBlockEnd
  0
BLOCK
  5
A12
330
A11
100
AcDbEntity
  8
0
100
AcDbBlockBegin
  2
LTEX0
 70
     0
 10
521.8609001471
 20
673.9056582000999
 30
0.0
  3
LTEX0
  1

  0
SOLID
  5
A13
330
A11
100
AcDbEntity
  8
1
  6
Continuous
 62
     7
100
AcDbTrace
 10
531.5437178905
 20
666.8174256594999
 30
0.0
 11
526.7023500228999
 21
662.9256598803
 31
0.0
 12
521.8609001471
 22
673.9056582000999
 32
0.0
 13
521.8609001471
 23
673.9056582000999
 33
0.0
  0
TEXT
  5
A14
330
A11
100
AcDbEntity
  8
1
  6
Continuous
 62
     7
100
AcDbText
 10
592.840743
 20
591.606528
 30
0.0
 40
24.0
  1
ＩＲＢ－１２ｘ６ケ
 41
0.7644230769230767
 72
     5
 11
783.6407429999999
 21
591.606528
 31
0.0
100
AcDbText
  0
LINE
  5
A15
330
A11
100
AcDbEntity
  8
1
  6
ByBlock
 62
     7
100
AcDbLine
 10
521.8609001471
 20
673.9056582000999
 30
0.0
 11
592.8407432333
 21
585.6065284307
 31
0.0
  0
LINE
  5
A16
330
A11
100
AcDbEntity
  8
1
  6
ByBlock
 62
     7
100
AcDbLine
 10
592.8407432333
 20
585.6065284307
 30
0.0
 11
783.6407432332999
 21
585.6065284307
 31
0.0
  0
ENDBLK
  5
A17
330
A11
100
AcDbEntity
  8
0
100
AcDbBlockEnd
  0
BLOCK
  5
A65
330
A64
100
AcDbEntity
  8
0
100
AcDbBlockBegin
  2
MAKR0
 70
     0
 10
680.6695868732999
 20
550.2807548265
 30
0.0
  3
MAKR0
  1

  0
CIRCLE
  5
A66
330
A64
100
AcDbEntity
  8
1
  6
ByBlock
 62
     3
100
AcDbCircle
 10
680.6695868732999
 20
550.2807548265
 30
0.0
 40
30.0
  0
TEXT
  5
A67
330
A64
100
AcDbEntity
  8
1
  6
Continuous
 62
     7
100
AcDbText
 10
668.669587
 20
535.280755
 30
0.0
 40
30.0
  1
１
 41
1.333333333333333
 72
     5
 11
692.6695869999999
 21
535.280755
 31
0.0
100
AcDbText
  0
ENDBLK
  5
A68
330
A64
100
AcDbEntity
  8
0
100
AcDbBlockEnd
  0
BLOCK
  5
A6A
330
A69
100
AcDbEntity
  8
0
100
AcDbBlockBegin
  2
MAKR1
 70
     0
 10
-52.62219165729999
 20
2023.1202780706
 30
0.0
  3
MAKR1
  1

  0
CIRCLE
  5
A6B
330
A69
100
AcDbEntity
  8
1
  6
ByBlock
 62
     7
100
AcDbCircle
 10
-52.62219165729999
 20
2023.1202780706
 30
0.0
 40
18.0
  0
TEXT
  5
A6C
330
A69
100
AcDbEntity
  8
1
  6
Continuous
 62
     7
100
AcDbText
 10
-61.622192
 20
2011.120278
 30
0.0
 40
24.0
  1
１
 41
1.25
 72
     5
 11
-43.622192
 21
2011.120278
 31
0.0
100
AcDbText
  0
ENDBLK
  5
A6D
330
A69
100
AcDbEntity
  8
0
100
AcDbBlockEnd
  0
BLOCK
  5
108B
330
1075
100
AcDbEntity
  8
0
100
AcDbBlockBegin
  2
*D22
 70
     1
 10
0.0
 20
0.0
 30
0.0
  3
*D22
  1

  0
LINE
  5
11F2
330
1075
100
AcDbEntity
  8
AM_5
100
AcDbLine
 10
7825.240218139716
 20
4080.372000674379
 30
0.0
 11
7825.240218139716
 21
4200.37200067438
 31
0.0
  0
LINE
  5
11F3
330
1075
100
AcDbEntity
  8
AM_5
100
AcDbLine
 10
9035.240218139716
 20
4080.372000674379
 30
0.0
 11
9035.240218139716
 21
4200.37200067438
 31
0.0
  0
LINE
  5
11F4
330
1075
100
AcDbEntity
  8
AM_5
100
AcDbLine
 10
7850.240218139716
 20
4190.372000674379
 30
0.0
 11
9010.240218139715
 21
4190.372000674379
 31
0.0
  0
INSERT
  5
11F5
330
1075
100
AcDbEntity
  8
AM_5
100
AcDbBlockReference
  2
_Open30
 10
7825.240218139716
 20
4190.372000674379
 30
0.0
 41
25.0
 42
25.0
 43
25.0
 50
180.0
  0
INSERT
  5
11F6
330
1075
100
AcDbEntity
  8
AM_5
100
AcDbBlockReference
  2
_Open30
 10
9035.240218139716
 20
4190.372000674379
 30
0.0
 41
25.0
 42
25.0
 43
25.0
  0
MTEXT
  5
11F7
330
1075
100
AcDbEntity
  8
AM_5
 62
     2
100
AcDbMText
 10
8430.240218139715
 20
4227.876429808238
 30
0.0
 40
45.0
 41
0.0
 71
     5
 72
     1
  1
%%c1210
 73
     1
 44
1.0
  0
POINT
  5
11F8
330
1075
100
AcDbEntity
  8
DEFPOINTS
 62
     0
100
AcDbPoint
 10
7825.240218139716
 20
4070.372000674378
 30
0.0
  0
POINT
  5
11F9
330
1075
100
AcDbEntity
  8
DEFPOINTS
 62
     0
100
AcDbPoint
 10
9035.240218139716
 20
4070.372000674378
 30
0.0
  0
POINT
  5
11FA
330
1075
100
AcDbEntity
  8
DEFPOINTS
 62
     0
100
AcDbPoint
 10
9035.240218139716
 20
4190.372000674379
 30
0.0
  0
ENDBLK
  5
108C
330
1075
100
AcDbEntity
  8
0
100
AcDbBlockEnd
  0
BLOCK
  5
10B3
330
109D
100
AcDbEntity
  8
0
100
AcDbBlockBegin
  2
*D23
 70
     1
 10
0.0
 20
0.0
 30
0.0
  3
*D23
  1

  0
LINE
  5
12DF
330
109D
100
AcDbEntity
  8
AM_5
100
AcDbLine
 10
7755.240218139715
 20
4080.372000674379
 30
0.0
 11
7755.240218139715
 21
4400.602800254768
 31
0.0
  0
LINE
  5
12E0
330
109D
100
AcDbEntity
  8
AM_5
100
AcDbLine
 10
9105.240218139716
 20
4080.372000674379
 30
0.0
 11
9105.240218139716
 21
4400.602800254768
 31
0.0
  0
LINE
  5
12E1
330
109D
100
AcDbEntity
  8
AM_5
100
AcDbLine
 10
7780.240218139716
 20
4390.602800254768
 30
0.0
 11
9080.240218139715
 21
4390.602800254768
 31
0.0
  0
INSERT
  5
12E2
330
109D
100
AcDbEntity
  8
AM_5
100
AcDbBlockReference
  2
_Open30
 10
7755.240218139715
 20
4390.602800254768
 30
0.0
 41
25.0
 42
25.0
 43
25.0
 50
180.0
  0
INSERT
  5
12E3
330
109D
100
AcDbEntity
  8
AM_5
100
AcDbBlockReference
  2
_Open30
 10
9105.240218139716
 20
4390.602800254768
 30
0.0
 41
25.0
 42
25.0
 43
25.0
  0
MTEXT
  5
12E4
330
109D
100
AcDbEntity
  8
AM_5
 62
     2
100
AcDbMText
 10
8430.240218139715
 20
4428.102800254769
 30
0.0
 40
45.0
 41
0.0
 71
     5
 72
     1
  1
%%c1350
 73
     1
 44
1.0
  0
POINT
  5
12E5
330
109D
100
AcDbEntity
  8
DEFPOINTS
 62
     0
100
AcDbPoint
 10
7755.240218139715
 20
4070.372000674378
 30
0.0
  0
POINT
  5
12E6
330
109D
100
AcDbEntity
  8
DEFPOINTS
 62
     0
100
AcDbPoint
 10
9105.240218139716
 20
4070.372000674378
 30
0.0
  0
POINT
  5
12E7
330
109D
100
AcDbEntity
  8
DEFPOINTS
 62
     0
100
AcDbPoint
 10
9105.240218139716
 20
4390.602800254768
 30
0.0
  0
ENDBLK
  5
10B4
330
109D
100
AcDbEntity
  8
0
100
AcDbBlockEnd
  0
BLOCK
  5
10F7
330
10C9
100
AcDbEntity
  8
0
100
AcDbBlockBegin
  2
*D24
 70
     1
 10
0.0
 20
0.0
 30
0.0
  3
*D24
  1

  0
LINE
  5
1219
330
10C9
100
AcDbEntity
  8
AM_5
100
AcDbLine
 10
9105.240218139716
 20
4080.372000674379
 30
0.0
 11
9105.240218139716
 21
4200.37200067438
 31
0.0
  0
LINE
  5
121A
330
10C9
100
AcDbEntity
  8
AM_5
100
AcDbLine
 10
9035.240218139716
 20
4080.372000674379
 30
0.0
 11
9035.240218139716
 21
4200.37200067438
 31
0.0
  0
LINE
  5
121B
330
10C9
100
AcDbEntity
  8
AM_5
100
AcDbLine
 10
9130.240218139716
 20
4190.372000674379
 30
0.0
 11
9155.240218139715
 21
4190.372000674379
 31
0.0
  0
LINE
  5
121C
330
10C9
100
AcDbEntity
  8
AM_5
100
AcDbLine
 10
9010.240218139715
 20
4190.372000674379
 30
0.0
 11
8985.240218139715
 21
4190.372000674379
 31
0.0
  0
LINE
  5
121D
330
10C9
100
AcDbEntity
  8
AM_5
100
AcDbLine
 10
9105.240218139716
 20
4190.372000674379
 30
0.0
 11
9035.240218139716
 21
4190.372000674379
 31
0.0
  0
INSERT
  5
121E
330
10C9
100
AcDbEntity
  8
AM_5
100
AcDbBlockReference
  2
_Open30
 10
9105.240218139716
 20
4190.372000674379
 30
0.0
 41
25.0
 42
25.0
 43
25.0
 50
180.0
  0
INSERT
  5
121F
330
10C9
100
AcDbEntity
  8
AM_5
100
AcDbBlockReference
  2
_Open30
 10
9035.240218139716
 20
4190.372000674379
 30
0.0
 41
25.0
 42
25.0
 43
25.0
  0
MTEXT
  5
1220
330
10C9
100
AcDbEntity
  8
AM_5
 62
     2
100
AcDbMText
 10
9070.240218139716
 20
4227.87200067438
 30
0.0
 40
45.0
 41
0.0
 71
     5
 72
     1
  1
70
 73
     1
 44
1.0
  0
POINT
  5
1221
330
10C9
100
AcDbEntity
  8
DEFPOINTS
 62
     0
100
AcDbPoint
 10
9105.240218139716
 20
4070.372000674378
 30
0.0
  0
POINT
  5
1222
330
10C9
100
AcDbEntity
  8
DEFPOINTS
 62
     0
100
AcDbPoint
 10
9035.240218139716
 20
4070.372000674378
 30
0.0
  0
POINT
  5
1223
330
10C9
100
AcDbEntity
  8
DEFPOINTS
 62
     0
100
AcDbPoint
 10
9035.240218139716
 20
4190.372000674379
 30
0.0
  0
ENDBLK
  5
10F8
330
10C9
100
AcDbEntity
  8
0
100
AcDbBlockEnd
  0
BLOCK
  5
1146
330
112C
100
AcDbEntity
  8
0
100
AcDbBlockBegin
  2
*D25
 70
     1
 10
0.0
 20
0.0
 30
0.0
  3
*D25
  1

  0
LINE
  5
1204
330
112C
100
AcDbEntity
  8
AM_5
100
AcDbLine
 10
7825.240218139716
 20
4080.372000674378
 30
0.0
 11
7825.240218139716
 21
4200.372000674377
 31
0.0
  0
LINE
  5
1205
330
112C
100
AcDbEntity
  8
AM_5
100
AcDbLine
 10
7755.240218139715
 20
4080.372000674378
 30
0.0
 11
7755.240218139715
 21
4200.372000674377
 31
0.0
  0
LINE
  5
1206
330
112C
100
AcDbEntity
  8
AM_5
100
AcDbLine
 10
7850.240218139716
 20
4190.372000674378
 30
0.0
 11
7875.240218139715
 21
4190.372000674378
 31
0.0
  0
LINE
  5
1207
330
112C
100
AcDbEntity
  8
AM_5
100
AcDbLine
 10
7730.240218139716
 20
4190.372000674378
 30
0.0
 11
7705.240218139715
 21
4190.372000674378
 31
0.0
  0
LINE
  5
1208
330
112C
100
AcDbEntity
  8
AM_5
100
AcDbLine
 10
7825.240218139716
 20
4190.372000674378
 30
0.0
 11
7755.240218139715
 21
4190.372000674378
 31
0.0
  0
INSERT
  5
1209
330
112C
100
AcDbEntity
  8
AM_5
100
AcDbBlockReference
  2
_Open30
 10
7825.240218139716
 20
4190.372000674378
 30
0.0
 41
25.0
 42
25.0
 43
25.0
 50
180.0
  0
INSERT
  5
120A
330
112C
100
AcDbEntity
  8
AM_5
100
AcDbBlockReference
  2
_Open30
 10
7755.240218139715
 20
4190.372000674378
 30
0.0
 41
25.0
 42
25.0
 43
25.0
  0
MTEXT
  5
120B
330
112C
100
AcDbEntity
  8
AM_5
 62
     2
100
AcDbMText
 10
7790.240218139716
 20
4227.872000674378
 30
0.0
 40
45.0
 41
0.0
 71
     5
 72
     1
  1
70
 73
     1
 44
1.0
  0
POINT
  5
120C
330
112C
100
AcDbEntity
  8
DEFPOINTS
 62
     0
100
AcDbPoint
 10
7825.240218139716
 20
4070.372000674377
 30
0.0
  0
POINT
  5
120D
330
112C
100
AcDbEntity
  8
DEFPOINTS
 62
     0
100
AcDbPoint
 10
7755.240218139715
 20
4070.372000674377
 30
0.0
  0
POINT
  5
120E
330
112C
100
AcDbEntity
  8
DEFPOINTS
 62
     0
100
AcDbPoint
 10
7755.240218139715
 20
4190.372000674378
 30
0.0
  0
ENDBLK
  5
1147
330
112C
100
AcDbEntity
  8
0
100
AcDbBlockEnd
  0
BLOCK
  5
1170
330
1158
100
AcDbEntity
  8
0
100
AcDbBlockBegin
  2
*D26
 70
     1
 10
0.0
 20
0.0
 30
0.0
  3
*D26
  1

  0
LINE
  5
12F1
330
1158
100
AcDbEntity
  8
AM_5
100
AcDbLine
 10
7745.240218139716
 20
4070.372000674378
 30
0.0
 11
7670.962850717817
 21
4070.372000674378
 31
0.0
  0
LINE
  5
12F2
330
1158
100
AcDbEntity
  8
AM_5
100
AcDbLine
 10
7745.240218139716
 20
3970.372000674379
 30
0.0
 11
7670.962850717817
 21
3970.372000674379
 31
0.0
  0
LINE
  5
12F3
330
1158
100
AcDbEntity
  8
AM_5
100
AcDbLine
 10
7680.962850717818
 20
4045.372000674379
 30
0.0
 11
7680.962850717818
 21
3995.372000674379
 31
0.0
  0
INSERT
  5
12F4
330
1158
100
AcDbEntity
  8
AM_5
100
AcDbBlockReference
  2
_Open30
 10
7680.962850717818
 20
4070.372000674378
 30
0.0
 41
25.0
 42
25.0
 43
25.0
 50
90.0
  0
INSERT
  5
12F5
330
1158
100
AcDbEntity
  8
AM_5
100
AcDbBlockReference
  2
_Open30
 10
7680.962850717818
 20
3970.372000674379
 30
0.0
 41
25.0
 42
25.0
 43
25.0
 50
270.0
  0
MTEXT
  5
12F6
330
1158
100
AcDbEntity
  8
AM_5
 62
     2
100
AcDbMText
 10
7643.462850717816
 20
4013.742642254026
 30
0.0
 40
45.0
 41
0.0
 71
     5
 72
     1
  1
100
 11
0.0000000000000001
 21
1.0
 31
0.0
 73
     1
 44
1.0
  0
POINT
  5
12F7
330
1158
100
AcDbEntity
  8
DEFPOINTS
 62
     0
100
AcDbPoint
 10
7755.240218139715
 20
4070.372000674378
 30
0.0
  0
POINT
  5
12F8
330
1158
100
AcDbEntity
  8
DEFPOINTS
 62
     0
100
AcDbPoint
 10
7755.240218139715
 20
3970.372000674379
 30
0.0
  0
POINT
  5
12F9
330
1158
100
AcDbEntity
  8
DEFPOINTS
 62
     0
100
AcDbPoint
 10
7680.962850717818
 20
3970.372000674379
 30
0.0
  0
ENDBLK
  5
1171
330
1158
100
AcDbEntity
  8
0
100
AcDbBlockEnd
  0
BLOCK
  5
119C
330
1182
100
AcDbEntity
  8
0
100
AcDbBlockBegin
  2
*D27
 70
     1
 10
0.0
 20
0.0
 30
0.0
  3
*D27
  1

  0
LINE
  5
118E
330
1182
100
AcDbEntity
  8
AM_5
100
AcDbLine
 10
7834.528854274927
 20
4992.557220401686
 30
0.0
 11
7778.335688048888
 21
4960.114080754522
 31
0.0
  0
LINE
  5
118F
330
1182
100
AcDbEntity
  8
AM_5
100
AcDbLine
 10
7839.528854274867
 20
4983.896966363928
 30
0.0
 11
7783.335688048828
 21
4951.453826716765
 31
0.0
  0
LINE
  5
1190
330
1182
100
AcDbEntity
  8
AM_5
100
AcDbLine
 10
7774.495942086751
 20
4986.764715849134
 30
0.0
 11
7761.995942086769
 21
5008.415350943755
 31
0.0
  0
LINE
  5
1191
330
1182
100
AcDbEntity
  8
AM_5
100
AcDbLine
 10
7804.49594208666
 20
4934.803191622137
 30
0.0
 11
7852.26365862203
 21
4852.067079621182
 31
0.0
  0
LINE
  5
1192
330
1182
100
AcDbEntity
  8
AM_5
100
AcDbLine
 10
7786.995942086736
 20
4965.114080754514
 30
0.0
 11
7791.995942086676
 21
4956.453826716757
 31
0.0
  0
INSERT
  5
1193
330
1182
100
AcDbEntity
  8
AM_5
100
AcDbBlockReference
  2
_Open30
 10
7786.995942086736
 20
4965.114080754514
 30
0.0
 41
25.0
 42
25.0
 43
25.0
 50
299.9999999999567
  0
INSERT
  5
1194
330
1182
100
AcDbEntity
  8
AM_5
100
AcDbBlockReference
  2
_Open30
 10
7791.995942086676
 20
4956.453826716757
 30
0.0
 41
25.0
 42
25.0
 43
25.0
 50
119.9999999999567
  0
MTEXT
  5
1195
330
1182
100
AcDbEntity
  8
AM_5
 62
     2
100
AcDbMText
 10
7867.105752996268
 20
4901.359818074325
 30
0.0
 40
45.0
 41
0.0
 71
     5
 72
     1
  1
10
 11
0.4999999999993462
 21
-0.8660254037848162
 31
0.0
 73
     1
 44
1.0
  0
POINT
  5
1196
330
1182
100
AcDbEntity
  8
DEFPOINTS
 62
     0
100
AcDbPoint
 10
7843.189108312775
 20
4997.55722040168
 30
0.0
  0
POINT
  5
1197
330
1182
100
AcDbEntity
  8
DEFPOINTS
 62
     0
100
AcDbPoint
 10
7848.189108312715
 20
4988.896966363923
 30
0.0
  0
POINT
  5
1198
330
1182
100
AcDbEntity
  8
DEFPOINTS
 62
     0
100
AcDbPoint
 10
7791.995942086676
 20
4956.453826716757
 30
0.0
  0
ENDBLK
  5
119D
330
1182
100
AcDbEntity
  8
0
100
AcDbBlockEnd
  0
BLOCK
  5
11C8
330
11AE
100
AcDbEntity
  8
0
100
AcDbBlockBegin
  2
*D28
 70
     1
 10
0.0
 20
0.0
 30
0.0
  3
*D28
  1

  0
LINE
  5
11BA
330
11AE
100
AcDbEntity
  8
AM_5
100
AcDbLine
 10
7834.528854274814
 20
5668.878447591356
 30
0.0
 11
7759.906254410494
 21
5711.961825710619
 31
0.0
  0
LINE
  5
11BB
330
11AE
100
AcDbEntity
  8
AM_5
100
AcDbLine
 10
7839.528854274721
 20
5677.538701629047
 30
0.0
 11
7764.906254410401
 21
5720.62207974831
 31
0.0
  0
LINE
  5
11BC
330
11AE
100
AcDbEntity
  8
AM_5
100
AcDbLine
 10
7756.066508448346
 20
5685.311190616006
 30
0.0
 11
7743.566508448353
 21
5663.660555521391
 31
0.0
  0
LINE
  5
11BD
330
11AE
100
AcDbEntity
  8
AM_5
100
AcDbLine
 10
7786.06650844824
 20
5737.272714842927
 30
0.0
 11
7833.834224983649
 21
5820.008826843861
 31
0.0
  0
LINE
  5
11BE
330
11AE
100
AcDbEntity
  8
AM_5
100
AcDbLine
 10
7768.566508448339
 20
5706.961825710621
 30
0.0
 11
7773.566508448247
 21
5715.622079748313
 31
0.0
  0
INSERT
  5
11BF
330
11AE
100
AcDbEntity
  8
AM_5
100
AcDbBlockReference
  2
_Open30
 10
7768.566508448339
 20
5706.961825710621
 30
0.0
 41
25.0
 42
25.0
 43
25.0
 50
60.00000000001818
  0
INSERT
  5
11C0
330
11AE
100
AcDbEntity
  8
AM_5
100
AcDbBlockReference
  2
_Open30
 10
7773.566508448247
 20
5715.622079748313
 30
0.0
 41
25.0
 42
25.0
 43
25.0
 50
240.0000000000182
  0
MTEXT
  5
11C1
330
11AE
100
AcDbEntity
  8
AM_5
 62
     2
100
AcDbMText
 10
7783.724414074018
 20
5808.216088390691
 30
0.0
 40
45.0
 41
0.0
 71
     5
 72
     1
  1
10
 11
0.4999999999997251
 21
0.8660254037845973
 31
0.0
 73
     1
 44
1.0
  0
POINT
  5
11C2
330
11AE
100
AcDbEntity
  8
DEFPOINTS
 62
     0
100
AcDbPoint
 10
7843.18910831266
 20
5663.878447591358
 30
0.0
  0
POINT
  5
11C3
330
11AE
100
AcDbEntity
  8
DEFPOINTS
 62
     0
100
AcDbPoint
 10
7848.189108312567
 20
5672.53870162905
 30
0.0
  0
POINT
  5
11C4
330
11AE
100
AcDbEntity
  8
DEFPOINTS
 62
     0
100
AcDbPoint
 10
7773.566508448247
 20
5715.622079748313
 30
0.0
  0
ENDBLK
  5
11C9
330
11AE
100
AcDbEntity
  8
0
100
AcDbBlockEnd
  0
BLOCK
  5
12CB
330
12B3
100
AcDbEntity
  8
0
100
AcDbBlockBegin
  2
*D29
 70
     1
 10
0.0
 20
0.0
 30
0.0
  3
*D29
  1

  0
LINE
  5
12D6
330
12B3
100
AcDbEntity
  8
AM_5
100
AcDbLine
 10
7855.240218139716
 20
4048.372000674379
 30
0.0
 11
7855.240218139716
 21
4297.711622417147
 31
0.0
  0
LINE
  5
12D7
330
12B3
100
AcDbEntity
  8
AM_5
100
AcDbLine
 10
7755.240218139715
 20
4080.372000674379
 30
0.0
 11
7755.240218139715
 21
4297.711622417147
 31
0.0
  0
LINE
  5
12D8
330
12B3
100
AcDbEntity
  8
AM_5
100
AcDbLine
 10
7830.240218139715
 20
4287.711622417147
 30
0.0
 11
7780.240218139716
 21
4287.711622417147
 31
0.0
  0
INSERT
  5
12D9
330
12B3
100
AcDbEntity
  8
AM_5
100
AcDbBlockReference
  2
_Open30
 10
7855.240218139716
 20
4287.711622417147
 30
0.0
 41
25.0
 42
25.0
 43
25.0
  0
INSERT
  5
12DA
330
12B3
100
AcDbEntity
  8
AM_5
100
AcDbBlockReference
  2
_Open30
 10
7755.240218139715
 20
4287.711622417147
 30
0.0
 41
25.0
 42
25.0
 43
25.0
 50
180.0
  0
MTEXT
  5
12DB
330
12B3
100
AcDbEntity
  8
AM_5
 62
     2
100
AcDbMText
 10
7806.97418868354
 20
4325.211622417148
 30
0.0
 40
45.0
 41
0.0
 71
     5
 72
     1
  1
100
 73
     1
 44
1.0
  0
POINT
  5
12DC
330
12B3
100
AcDbEntity
  8
DEFPOINTS
 62
     0
100
AcDbPoint
 10
7855.240218139716
 20
4038.372000674378
 30
0.0
  0
POINT
  5
12DD
330
12B3
100
AcDbEntity
  8
DEFPOINTS
 62
     0
100
AcDbPoint
 10
7755.240218139715
 20
4070.372000674378
 30
0.0
  0
POINT
  5
12DE
330
12B3
100
AcDbEntity
  8
DEFPOINTS
 62
     0
100
AcDbPoint
 10
7755.240218139715
 20
4287.711622417147
 30
0.0
  0
ENDBLK
  5
12CC
330
12B3
100
AcDbEntity
  8
0
100
AcDbBlockEnd
  0
BLOCK
  5
1376
330
135B
100
AcDbEntity
  8
0
100
AcDbBlockBegin
  2
*D30
 70
     1
 10
0.0
 20
0.0
 30
0.0
  3
*D30
  1

  0
LINE
  5
136C
330
135B
100
AcDbEntity
  8
AM_5
100
AcDbLine
 10
8774.208378954577
 20
4779.187323194505
 30
0.0
 11
8086.272057324853
 21
5882.248344798735
 31
0.0
  0
INSERT
  5
136D
330
135B
100
AcDbEntity
  8
AM_5
100
AcDbBlockReference
  2
_Open30
 10
8787.437923601302
 20
4757.974611240578
 30
0.0
 41
25.0
 42
25.0
 43
25.0
 50
301.9501880506334
  0
INSERT
  5
136E
330
135B
100
AcDbEntity
  8
AM_5
100
AcDbBlockReference
  2
_Open30
 10
8073.042512678126
 20
5903.461056752661
 30
0.0
 41
25.0
 42
25.0
 43
25.0
 50
121.9501880506334
  0
MTEXT
  5
136F
330
135B
100
AcDbEntity
  8
AM_5
 62
     2
100
AcDbMText
 10
8355.027490200695
 20
5522.180654575748
 30
0.0
 40
45.0
 41
0.0
 71
     5
 72
     1
  1
\U+22051350
 11
0.5291817858690199
 21
-0.8485084781570982
 31
0.0
 73
     1
 44
1.0
  0
POINT
  5
1370
330
135B
100
AcDbEntity
  8
DEFPOINTS
 62
     0
100
AcDbPoint
 10
8073.042512678126
 20
5903.461056752661
 30
0.0
  0
POINT
  5
1371
330
135B
100
AcDbEntity
  8
DEFPOINTS
 62
     0
100
AcDbPoint
 10
8787.437923601302
 20
4757.974611240578
 30
0.0
  0
ENDBLK
  5
1377
330
135B
100
AcDbEntity
  8
0
100
AcDbBlockEnd
  0
BLOCK
  5
13BF
330
13A1
100
AcDbEntity
  8
0
100
AcDbBlockBegin
  2
*D31
 70
     1
 10
0.0
 20
0.0
 30
0.0
  3
*D31
  1

  0
LINE
  5
13AF
330
13A1
100
AcDbEntity
  8
AM_5
100
AcDbLine
 10
8838.344690923364
 20
5742.847351616969
 30
0.0
 11
8022.135745356065
 21
4918.588316376276
 31
0.0
  0
INSERT
  5
13B0
330
13A1
100
AcDbEntity
  8
AM_5
100
AcDbBlockReference
  2
_Open30
 10
8855.935400957143
 20
5760.611554962673
 30
0.0
 41
25.0
 42
25.0
 43
25.0
 50
45.28115907543906
  0
INSERT
  5
13B1
330
13A1
100
AcDbEntity
  8
AM_5
100
AcDbBlockReference
  2
_Open30
 10
8004.545035322289
 20
4900.824113030573
 30
0.0
 41
25.0
 42
25.0
 43
25.0
 50
225.2811590754391
  0
MTEXT
  5
13B2
330
13A1
100
AcDbEntity
  8
AM_5
 62
     2
100
AcDbMText
 10
8188.030903661609
 20
5139.421133647136
 30
0.0
 40
45.0
 41
0.0
 71
     5
 72
     1
  1
\U+22051210
 11
0.7036284013511203
 21
0.7105681338281832
 31
0.0
 73
     1
 44
1.0
  0
POINT
  5
13B3
330
13A1
100
AcDbEntity
  8
DEFPOINTS
 62
     0
100
AcDbPoint
 10
8004.545035322289
 20
4900.824113030573
 30
0.0
  0
POINT
  5
13B4
330
13A1
100
AcDbEntity
  8
DEFPOINTS
 62
     0
100
AcDbPoint
 10
8855.935400957143
 20
5760.611554962673
 30
0.0
  0
ENDBLK
  5
13C0
330
13A1
100
AcDbEntity
  8
0
100
AcDbBlockEnd
  0
ENDSEC
  0
SECTION
  2
ENTITIES
  0
TEXT
  5
B0D
330
1F
100
AcDbEntity
  8
1
  6
Continuous
 62
     7
100
AcDbText
 10
8711.887360087231
 20
6711.974611611594
 30
0.0
 40
40.0
  1
ＩＲＢ－１２
 41
0.7797029702970299
 72
     5
 11
8921.887360087232
 21
6711.974611611594
 31
0.0
100
AcDbText
  0
TEXT
  5
B0E
330
1F
100
AcDbEntity
  8
1
  6
Continuous
 62
     7
100
AcDbText
 10
9267.211556753897
 20
6711.974611611594
 30
0.0
 40
40.0
  1
１３５０
 41
0.7961538461538461
 72
     5
 11
9405.211556753895
 21
6711.974611611594
 31
0.0
100
AcDbText
  0
TEXT
  5
B0F
330
1F
100
AcDbEntity
  8
1
  6
Continuous
 62
     7
100
AcDbText
 10
9218.053123420563
 20
6781.974611611595
 30
0.0
 40
40.0
  1
外径寸法（Ｄ）
 41
0.8163716814159354
 72
     5
 11
9464.053123420566
 21
6781.974611611595
 31
0.0
100
AcDbText
  0
TEXT
  5
B10
330
1F
100
AcDbEntity
  8
1
  6
Continuous
 62
     7
100
AcDbText
 10
9069.386456753898
 20
6711.974611611594
 30
0.0
 40
40.0
  1
６
 41
1.022727272727272
 72
     5
 11
9099.386456753899
 21
6711.974611611594
 31
0.0
100
AcDbText
  0
TEXT
  5
B11
330
1F
100
AcDbEntity
  8
1
  6
Continuous
 62
     7
100
AcDbText
 10
8737.719790087231
 20
6781.974611611595
 30
0.0
 40
40.0
  1
符号
 41
1.875
 72
     5
 11
8897.719790087231
 21
6781.974611611595
 31
0.0
100
AcDbText
  0
LINE
  5
B12
330
1F
100
AcDbEntity
  8
1
  6
Continuous
 62
     7
100
AcDbLine
 10
9531.053123991732
 20
6836.974611729262
 30
0.0
 11
9531.053123991567
 21
6696.974611729261
 31
0.0
  0
LINE
  5
B13
330
1F
100
AcDbEntity
  8
1
  6
Continuous
 62
     7
100
AcDbLine
 10
9151.053123991564
 20
6836.974611729262
 30
0.0
 11
9151.053123991564
 21
6696.974611729261
 31
0.0
  0
LINE
  5
B14
330
1F
100
AcDbEntity
  8
1
  6
Continuous
 62
     7
100
AcDbLine
 10
9017.719790658397
 20
6836.974611729262
 30
0.0
 11
9017.719790658231
 21
6696.974611729261
 31
0.0
  0
LINE
  5
B15
330
1F
100
AcDbEntity
  8
1
  6
Continuous
 62
     7
100
AcDbLine
 10
8617.719790658396
 20
6836.974611729262
 30
0.0
 11
8617.719790658396
 21
6696.974611729261
 31
0.0
  0
LINE
  5
B16
330
1F
100
AcDbEntity
  8
1
  6
Continuous
 62
     7
100
AcDbLine
 10
8217.719790658398
 20
6696.974611729261
 30
0.0
 11
8217.719790658398
 21
6836.974611729262
 31
0.0
  0
LINE
  5
B17
330
1F
100
AcDbEntity
  8
1
  6
Continuous
 62
     7
100
AcDbLine
 10
8117.719790659398
 20
6696.974611729261
 30
0.0
 11
8117.719790658233
 21
6836.974611729262
 31
0.0
  0
TEXT
  5
B18
330
1F
100
AcDbEntity
  8
1
  6
Continuous
 62
     7
100
AcDbText
 10
9631.386456753899
 20
6711.974611611594
 30
0.0
 40
40.0
  1
７８
 41
0.8534482758620686
 72
     5
 11
9697.386456753898
 21
6711.974611611594
 31
0.0
100
AcDbText
  0
TEXT
  5
B19
330
1F
100
AcDbEntity
  8
1
  6
Continuous
 62
     7
100
AcDbText
 10
8237.693888420563
 20
6717.974611611595
 30
0.0
 40
28.00000000000001
  1
コンクリ－トブロック受枠
 41
0.924865229110512
 72
     5
 11
8603.693888420565
 21
6717.974611611595
 31
0.0
100
AcDbText
  0
LINE
  5
B1A
330
1F
100
AcDbEntity
  8
1
  6
Continuous
 62
     7
100
AcDbLine
 10
8117.719790660563
 20
6766.974611729262
 30
0.0
 11
9797.719790658232
 21
6766.974611729262
 31
0.0
  0
LINE
  5
B1B
330
1F
100
AcDbEntity
  8
1
  6
Continuous
 62
     7
100
AcDbLine
 10
8117.719790660563
 20
6696.974611729261
 30
0.0
 11
9797.719790658232
 21
6696.974611729261
 31
0.0
  0
TEXT
  5
B1C
330
1F
100
AcDbEntity
  8
1
  6
Continuous
 62
     7
100
AcDbText
 10
9558.227730087232
 20
6781.974611611595
 30
0.0
 40
40.0
  1
重量（ｋｇ）
 41
0.8289473684210532
 72
     5
 11
9768.227730087232
 21
6781.974611611595
 31
0.0
100
AcDbText
  0
TEXT
  5
B1D
330
1F
100
AcDbEntity
  8
1
  6
Continuous
 62
     7
100
AcDbText
 10
9051.386456753899
 20
6781.974611611595
 30
0.0
 40
40.0
  1
数量
 41
0.7734375
 72
     5
 11
9117.386456753898
 21
6781.974611611595
 31
0.0
100
AcDbText
  0
INSERT
  5
B1E
330
1F
100
AcDbEntity
  8
1
  6
Continuous
 62
     7
100
AcDbBlockReference
  2
MAKR1
 10
8167.719790658399
 20
6731.974611729262
 30
0.0
 41
1.666666666666666
 42
1.666666666666666
 43
1.666666666666666
  0
TEXT
  5
B1F
330
1F
100
AcDbEntity
  8
1
  6
Continuous
 62
     7
100
AcDbText
 10
8272.719790087231
 20
6781.974611611595
 30
0.0
 40
40.0
  1
部品名
 41
2.21938775510204
 72
     5
 11
8562.71979008723
 21
6781.974611611595
 31
0.0
100
AcDbText
  0
TEXT
  5
B20
330
1F
100
AcDbEntity
  8
1
  6
Continuous
 62
     7
100
AcDbText
 10
8134.719790087231
 20
6781.974611611595
 30
0.0
 40
40.0
  1
部番
 41
0.7734374999999894
 72
     5
 11
8200.719790087232
 21
6781.974611611595
 31
0.0
100
AcDbText
  0
LINE
  5
B29
330
1F
100
AcDbEntity
  8
7
100
AcDbLine
 10
8430.240218139715
 20
6058.556674327723
 30
0.0
 11
8430.240218139715
 21
4599.690742148923
 31
0.0
  0
LINE
  5
B2A
330
1F
100
AcDbEntity
  8
7
100
AcDbLine
 10
7702.428006593816
 20
5330.717833996623
 30
0.0
 11
9177.755129491314
 21
5330.717833996623
 31
0.0
  0
LINE
  5
B2B
330
1F
100
AcDbEntity
  8
1
  6
Continuous
 62
     7
100
AcDbLine
 10
7848.189108312715
 20
5672.538701629224
 30
0.0
 11
7934.794437958782
 21
5622.537091244845
 31
0.0
  0
LINE
  5
B2C
330
1F
100
AcDbEntity
  8
1
  6
Continuous
 62
     7
100
AcDbLine
 10
8425.240218139716
 20
5905.696094455225
 30
0.0
 11
8425.240218139716
 21
6005.699315224023
 31
0.0
  0
ARC
  5
B2D
330
1F
100
AcDbEntity
  8
1
  6
Continuous
 62
     7
100
AcDbCircle
 10
8430.240218139715
 20
5330.717833996623
 30
0.0
 40
575.0
100
AcDbArc
 50
90.49823044871015
 51
149.5017695512899
  0
LINE
  5
B2E
330
1F
100
AcDbEntity
  8
1
  6
Continuous
 62
     7
100
AcDbLine
 10
8435.240218139716
 20
6005.699315224023
 30
0.0
 11
8435.240218139716
 21
5905.696094455225
 31
0.0
  0
LINE
  5
B2F
330
1F
100
AcDbEntity
  8
1
  6
Continuous
 62
     7
100
AcDbLine
 10
8925.685998320652
 20
5622.537091244845
 30
0.0
 11
9012.291327966716
 21
5672.538701629224
 31
0.0
  0
ARC
  5
B30
330
1F
100
AcDbEntity
  8
1
  6
Continuous
 62
     7
100
AcDbCircle
 10
8430.240218139715
 20
5330.717833996623
 30
0.0
 40
575.0
100
AcDbArc
 50
30.49823044870981
 51
89.50176955128986
  0
LINE
  5
B31
330
1F
100
AcDbEntity
  8
1
  6
Continuous
 62
     7
100
AcDbLine
 10
9017.291327966715
 20
5663.878447591423
 30
0.0
 11
8930.685998320678
 21
5613.876837206959
 31
0.0
  0
LINE
  5
B32
330
1F
100
AcDbEntity
  8
1
  6
Continuous
 62
     7
100
AcDbLine
 10
8930.685998320658
 20
5047.558830786257
 30
0.0
 11
9017.291327966814
 21
4997.557220401823
 31
0.0
  0
ARC
  5
B33
330
1F
100
AcDbEntity
  8
1
  6
Continuous
 62
     7
100
AcDbCircle
 10
8430.240218139715
 20
5330.717833996623
 30
0.0
 40
575.0
100
AcDbArc
 50
330.4982304487117
 51
29.50176955128473
  0
LINE
  5
B34
330
1F
100
AcDbEntity
  8
1
  6
Continuous
 62
     7
100
AcDbLine
 10
9012.291327966716
 20
4988.896966363923
 30
0.0
 11
8925.685998320634
 21
5038.898576748371
 31
0.0
  0
LINE
  5
B35
330
1F
100
AcDbEntity
  8
1
  6
Continuous
 62
     7
100
AcDbLine
 10
8435.240218139716
 20
4755.73957353802
 30
0.0
 11
8435.240218139815
 21
4655.736352769123
 31
0.0
  0
ARC
  5
B36
330
1F
100
AcDbEntity
  8
1
  6
Continuous
 62
     7
100
AcDbCircle
 10
8430.240218139715
 20
5330.717833996623
 30
0.0
 40
575.0
100
AcDbArc
 50
270.4982304487101
 51
329.5017695512864
  0
LINE
  5
B37
330
1F
100
AcDbEntity
  8
1
  6
Continuous
 62
     7
100
AcDbLine
 10
8425.240218139716
 20
4655.736352769123
 30
0.0
 11
8425.240218139716
 21
4755.739573538021
 31
0.0
  0
LINE
  5
B38
330
1F
100
AcDbEntity
  8
1
  6
Continuous
 62
     7
100
AcDbLine
 10
7934.794437958825
 20
5038.898576748327
 30
0.0
 11
7848.189108312715
 21
4988.896966363923
 31
0.0
  0
ARC
  5
B39
330
1F
100
AcDbEntity
  8
1
  6
Continuous
 62
     7
100
AcDbCircle
 10
8430.240218139715
 20
5330.717833996623
 30
0.0
 40
575.0
100
AcDbArc
 50
210.4982304487185
 51
269.5017695512898
  0
LINE
  5
B3A
330
1F
100
AcDbEntity
  8
1
  6
Continuous
 62
     7
100
AcDbLine
 10
7843.189108312715
 20
4997.557220401823
 30
0.0
 11
7929.794437958799
 21
5047.558830786214
 31
0.0
  0
LINE
  5
B3B
330
1F
100
AcDbEntity
  8
1
  6
Continuous
 62
     7
100
AcDbLine
 10
7929.794437958754
 20
5613.876837206959
 30
0.0
 11
7843.189108312715
 21
5663.878447591323
 31
0.0
  0
ARC
  5
B3C
330
1F
100
AcDbEntity
  8
1
  6
Continuous
 62
     7
100
AcDbCircle
 10
8430.240218139715
 20
5330.717833996623
 30
0.0
 40
575.0
100
AcDbArc
 50
150.4982304487152
 51
209.5017695512934
  0
ARC
  5
B3D
330
1F
100
AcDbEntity
  8
1
  6
Continuous
 62
     7
100
AcDbCircle
 10
8430.240218139715
 20
5330.717833996623
 30
0.0
 40
605.0
100
AcDbArc
 50
330.4735242295011
 51
29.52647577059224
  0
ARC
  5
B3E
330
1F
100
AcDbEntity
  8
1
  6
Continuous
 62
     7
100
AcDbCircle
 10
8430.240218139715
 20
5330.717833996623
 30
0.0
 40
675.0
100
AcDbArc
 50
330.4244170628967
 51
29.57558293710329
  0
ARC
  5
B3F
330
1F
100
AcDbEntity
  8
1
  6
Continuous
 62
     7
100
AcDbCircle
 10
8430.240218139715
 20
5330.717833996623
 30
0.0
 40
605.0
100
AcDbArc
 50
270.4735242295004
 51
329.5264757705936
  0
ARC
  5
B40
330
1F
100
AcDbEntity
  8
1
  6
Continuous
 62
     7
100
AcDbCircle
 10
8430.240218139715
 20
5330.717833996623
 30
0.0
 40
675.0
100
AcDbArc
 50
270.4244170628978
 51
329.5755829371112
  0
ARC
  5
B41
330
1F
100
AcDbEntity
  8
1
  6
Continuous
 62
     7
100
AcDbCircle
 10
8430.240218139715
 20
5330.717833996623
 30
0.0
 40
605.0
100
AcDbArc
 50
210.4735242295014
 51
269.5264757705973
  0
ARC
  5
B42
330
1F
100
AcDbEntity
  8
1
  6
Continuous
 62
     7
100
AcDbCircle
 10
8430.240218139715
 20
5330.717833996623
 30
0.0
 40
675.0
100
AcDbArc
 50
210.4244170628887
 51
269.5755829371023
  0
ARC
  5
B43
330
1F
100
AcDbEntity
  8
1
  6
Continuous
 62
     7
100
AcDbCircle
 10
8430.240218139715
 20
5330.717833996623
 30
0.0
 40
605.0
100
AcDbArc
 50
150.4735242295011
 51
209.5264757705922
  0
ARC
  5
B44
330
1F
100
AcDbEntity
  8
1
  6
Continuous
 62
     7
100
AcDbCircle
 10
8430.240218139715
 20
5330.717833996623
 30
0.0
 40
675.0
100
AcDbArc
 50
150.4244170628967
 51
209.5755829371033
  0
ARC
  5
B45
330
1F
100
AcDbEntity
  8
1
  6
Continuous
 62
     7
100
AcDbCircle
 10
8430.240218139715
 20
5330.717833996623
 30
0.0
 40
605.0
100
AcDbArc
 50
90.47352422950039
 51
149.5264757705936
  0
ARC
  5
B46
330
1F
100
AcDbEntity
  8
1
  6
Continuous
 62
     7
100
AcDbCircle
 10
8430.240218139715
 20
5330.717833996623
 30
0.0
 40
675.0
100
AcDbArc
 50
90.42441706289777
 51
149.5755829371112
  0
ARC
  5
B47
330
1F
100
AcDbEntity
  8
1
  6
Continuous
 62
     7
100
AcDbCircle
 10
8430.240218139715
 20
5330.717833996623
 30
0.0
 40
605.0
100
AcDbArc
 50
30.47352422950138
 51
89.52647577059734
  0
ARC
  5
B48
330
1F
100
AcDbEntity
  8
1
  6
Continuous
 62
     7
100
AcDbCircle
 10
8430.240218139715
 20
5330.717833996623
 30
0.0
 40
675.0
100
AcDbArc
 50
30.42441706288875
 51
89.57558293710224
  0
LINE
  5
B4C
330
1F
100
AcDbEntity
  8
AM_3
100
AcDbLine
 10
9005.240218139716
 20
3970.372000674379
 30
0.0
 11
9005.240218139716
 21
4038.372000674378
 31
0.0
  0
LINE
  5
B4D
330
1F
100
AcDbEntity
  8
AM_3
100
AcDbLine
 10
8951.667694036915
 20
4038.372000674378
 30
0.0
 11
8435.240218139716
 21
4038.372000674378
 31
0.0
  0
LINE
  5
B4E
330
1F
100
AcDbEntity
  8
AM_3
100
AcDbLine
 10
9030.740218139715
 20
4038.372000674378
 30
0.0
 11
8956.667694036914
 21
4038.372000674378
 31
0.0
  0
LINE
  5
B4F
330
1F
100
AcDbEntity
  8
AM_3
100
AcDbLine
 10
8951.667694036915
 20
3970.372000674379
 30
0.0
 11
8951.667694036915
 21
4070.372000674378
 31
0.0
  0
LINE
  5
B50
330
1F
100
AcDbEntity
  8
AM_3
100
AcDbLine
 10
8956.667694036914
 20
4070.372000674378
 30
0.0
 11
8956.667694036914
 21
3970.372000674379
 31
0.0
  0
LINE
  5
B51
330
1F
100
AcDbEntity
  8
AM_3
100
AcDbLine
 10
9035.240218139716
 20
4070.372000674378
 30
0.0
 11
9035.240218139716
 21
4042.872000674378
 31
0.0
  0
LINE
  5
B52
330
1F
100
AcDbEntity
  8
7
100
AcDbLine
 10
8430.240218139715
 20
4103.280493895778
 30
0.0
 11
8430.240218139715
 21
3930.611385851278
 31
0.0
  0
LINE
  5
B53
330
1F
100
AcDbEntity
  8
1
  6
Continuous
 62
     7
100
AcDbLine
 10
7908.812742242615
 20
4038.372000674378
 30
0.0
 11
8425.240218139816
 21
4038.372000674378
 31
0.0
  0
LINE
  5
B54
102
{ACAD_REACTORS
330
C7D
102
}
330
1F
100
AcDbEntity
  8
1
  6
Continuous
 62
     7
100
AcDbLine
 10
7829.740218139716
 20
4038.372000674378
 30
0.0
 11
7903.812742242514
 21
4038.372000674378
 31
0.0
  0
LINE
  5
B55
330
1F
100
AcDbEntity
  8
1
  6
Continuous
 62
     7
100
AcDbLine
 10
7908.812742242615
 20
4070.372000674378
 30
0.0
 11
8425.240218139816
 21
4070.372000674378
 31
0.0
  0
LINE
  5
B56
330
1F
100
AcDbEntity
  8
1
  6
Continuous
 62
     7
100
AcDbLine
 10
7908.812742242615
 20
3970.372000674379
 30
0.0
 11
7908.812742242615
 21
4070.372000674378
 31
0.0
  0
LINE
  5
B57
330
1F
100
AcDbEntity
  8
1
  6
Continuous
 62
     7
100
AcDbLine
 10
7903.812742242514
 20
4070.372000674378
 30
0.0
 11
7903.812742242514
 21
3970.372000674379
 31
0.0
  0
LINE
  5
B58
102
{ACAD_REACTORS
330
C7D
102
}
330
1F
100
AcDbEntity
  8
1
  6
Continuous
 62
     7
100
AcDbLine
 10
7903.812742242514
 20
4070.372000674378
 30
0.0
 11
7755.240218139715
 21
4070.372000674378
 31
0.0
  0
LINE
  5
B59
330
1F
100
AcDbEntity
  8
1
  6
Continuous
 62
     7
100
AcDbLine
 10
7908.812742242615
 20
3970.372000674379
 30
0.0
 11
8425.240218139816
 21
3970.372000674379
 31
0.0
  0
LINE
  5
B5A
102
{ACAD_REACTORS
330
C7D
102
}
330
1F
100
AcDbEntity
  8
1
  6
Continuous
 62
     7
100
AcDbLine
 10
7755.240218139715
 20
3970.372000674379
 30
0.0
 11
7903.812742242514
 21
3970.372000674379
 31
0.0
  0
LINE
  5
B5B
330
1F
100
AcDbEntity
  8
1
  6
Continuous
 62
     7
100
AcDbLine
 10
8425.240218139816
 20
3970.372000674379
 30
0.0
 11
8425.240218139816
 21
4070.372000674378
 31
0.0
  0
LINE
  5
B5C
330
1F
100
AcDbEntity
  8
1
  6
Continuous
 62
     7
100
AcDbLine
 10
8435.240218139815
 20
4070.372000674378
 30
0.0
 11
8435.240218139815
 21
3970.372000674379
 31
0.0
  0
LINE
  5
B5D
330
1F
100
AcDbEntity
  8
1
  6
Continuous
 62
     7
100
AcDbLine
 10
8435.240218139815
 20
3970.372000674379
 30
0.0
 11
9105.240218139716
 21
3970.372000674379
 31
0.0
  0
LINE
  5
B5E
330
1F
100
AcDbEntity
  8
1
  6
Continuous
 62
     7
100
AcDbLine
 10
8435.240218139815
 20
4070.372000674378
 30
0.0
 11
9105.240218139716
 21
4070.372000674378
 31
0.0
  0
LINE
  5
B60
102
{ACAD_REACTORS
330
C7D
102
}
330
1F
100
AcDbEntity
  8
1
  6
Continuous
 62
     7
100
AcDbLine
 10
7855.240218139716
 20
3970.372000674379
 30
0.0
 11
7855.240218139716
 21
4038.372000674378
 31
0.0
  0
LINE
  5
B61
102
{ACAD_REACTORS
330
C7D
102
}
330
1F
100
AcDbEntity
  8
1
  6
Continuous
 62
     7
100
AcDbLine
 10
7755.240218139715
 20
4070.372000674378
 30
0.0
 11
7755.240218139715
 21
3970.372000674379
 31
0.0
  0
ARC
  5
B62
102
{ACAD_REACTORS
330
C7D
102
}
330
1F
100
AcDbEntity
  8
1
  6
Continuous
 62
     7
100
AcDbCircle
 10
7829.740218139716
 20
4042.872000674378
 30
0.0
 40
4.5
100
AcDbArc
 50
180.0
 51
270.0
  0
LINE
  5
B63
102
{ACAD_REACTORS
330
C7D
102
}
330
1F
100
AcDbEntity
  8
1
  6
Continuous
 62
     7
100
AcDbLine
 10
7825.240218139716
 20
4070.372000674378
 30
0.0
 11
7825.240218139716
 21
4042.872000674378
 31
0.0
  0
LINE
  5
B64
330
1F
100
AcDbEntity
  8
1
  6
Continuous
 62
     7
100
AcDbLine
 10
9012.291327966716
 20
3970.372000674379
 30
0.0
 11
9012.291327966716
 21
4070.372000674378
 31
0.0
  0
LINE
  5
B65
330
1F
100
AcDbEntity
  8
1
  6
Continuous
 62
     7
100
AcDbLine
 10
9017.291327966814
 20
4070.372000674378
 30
0.0
 11
9017.291327966814
 21
3970.372000674379
 31
0.0
  0
LINE
  5
B66
330
1F
100
AcDbEntity
  8
1
  6
Continuous
 62
     7
100
AcDbLine
 10
9105.240218139716
 20
4070.372000674378
 30
0.0
 11
9105.240218139716
 21
3970.372000674379
 31
0.0
  0
HATCH
  5
C7D
330
1F
100
AcDbEntity
  8
AM_8
100
AcDbHatch
 10
0.0
 20
0.0
 30
0.0
210
0.0
220
0.0
230
1.0
  2
PLAST
 70
     0
 71
     1
 91
        1
 92
        7
 72
     1
 73
     1
 93
        7
 10
7855.240218139716
 20
3970.372000674379
 42
0.0
 10
7855.240218139714
 20
4038.372000674378
 42
0.0
 10
7829.740218139716
 20
4038.372000674378
 42
-0.4142135623730951
 10
7825.240218139716
 20
4042.872000674378
 42
0.0
 10
7825.240218139717
 20
4070.372000674379
 42
0.0
 10
7755.240218139715
 20
4070.372000674378
 42
0.0
 10
7755.240218139715
 20
3970.372000674379
 42
0.0
 97
        7
330
B54
330
B62
330
B63
330
B58
330
B61
330
B5A
330
B60
 75
     0
 76
     1
 52
45.0
 41
10.0
 77
     0
 78
     3
 53
45.0
 43
7375.215599540751
 44
5763.148883580727
 45
-44.90128060534575
 46
44.90128060534576
 79
     0
 53
45.0
 43
7369.602939465083
 44
5768.761543656395
 45
-44.90128060534575
 46
44.90128060534576
 79
     0
 53
45.0
 43
7363.990279389415
 44
5774.374203732064
 45
-44.90128060534575
 46
44.90128060534576
 79
     0
 47
0.6059211828199274
 98
        1
 10
7801.767936534685
 20
4002.752865191179
  0
ARC
  5
E78
330
1F
100
AcDbEntity
  8
AM_3
100
AcDbCircle
 10
9030.740218139715
 20
4042.872000674378
 30
0.0
 40
4.5
100
AcDbArc
 50
270.0
 51
0.0
1001
GENIUS_GENOBJ-N-FIL_13
1002
{
1000
OWNER
1000
GEN
1002
}
1001
GENIUS_GENODEF_13
1002
{
1000
HIER
1070
     0
1002
}
1002
{
1000
MANEDIT
1070
     0
1002
}
1002
{
1000
NOSEL
1070
     0
1002
}
1002
{
1000
BEHIND
1070
     0
1002
}
1002
{
1000
OTHER
1070
     0
1002
}
1002
{
1000
REACTOR
1002
}
  0
INSERT
  5
FB5
330
1F
100
AcDbEntity
  8
0
370
     0
100
AcDbBlockReference
  2
IGS_A3
 10
6927.719790658231
 20
7086.974611729262
 30
0.0
 41
10.0
 42
10.0
 43
10.0
 50
270.0
1001
GENIUS_GENOREF_13
1005
FBF
1001
GENIUS_GENODEF_13
1002
{
1000
HIER
1070
     0
1002
}
1002
{
1000
MANEDIT
1070
     0
1002
}
1002
{
1000
NOSEL
1070
     0
1002
}
1002
{
1000
BEHIND
1070
     0
1002
}
1002
{
1000
OTHER
1070
     0
1002
}
1002
{
1000
REACTOR
1002
}
1001
GENIUS_GENOBJ-N-SDF_13
1002
{
1000
OWNER
1000
GEN
1002
}
1001
GENIUS_GENSCREG_15
1040
10.0
1040
1.0
1011
6927.719790658233
1021
7086.974611729262
1031
0.0
1011
9897.719790658232
1021
2886.974611729262
1031
0.0
1070
     3
  0
INSERT
  5
FB6
330
1F
100
AcDbEntity
  8
0
370
     0
100
AcDbBlockReference
 66
     1
  2
IGS2
 10
9797.719790658232
 20
2986.974611729262
 30
0.0
 41
10.0
 42
10.0
 43
10.0
1001
GENIUS_GENOREF_13
1005
FBF
  0
ATTRIB
  5
FB8
330
FB6
100
AcDbEntity
  8
RAHM3
100
AcDbText
 10
8325.123923526376
 20
3306.447501711122
 30
0.0
 40
40.0
  1
1:10
100
AcDbAttribute
  2
GEN-TITLE-SCA
 70
     0
  0
ATTRIB
  5
FB9
330
FB6
100
AcDbEntity
  8
RAHM3
100
AcDbText
 10
9066.819790658232
 20
3284.374611729262
 30
0.0
 40
50.0
  1
コンクリート受枠
100
AcDbAttribute
  2
ＴＩＴＬＥ
 70
     0
  0
ATTRIB
  5
FBA
330
FB6
100
AcDbEntity
  8
RAHM3
100
AcDbText
 10
9082.091009099828
 20
3205.0184430004
 30
0.0
 40
30.0
  1
ICR-12
100
AcDbAttribute
  2
ｃｏｄｅ
 70
     0
  0
ATTRIB
  5
FBB
330
FB6
100
AcDbEntity
  8
RAHM3
100
AcDbText
 10
9090.271725718599
 20
3135.018443000328
 30
0.0
 40
30.0
  1

100
AcDbAttribute
  2
件名
 70
     0
  0
ATTRIB
  5
FBC
330
FB6
100
AcDbEntity
  8
RAHM3
100
AcDbText
 10
9066.819790658232
 20
3004.374611729189
 30
0.0
 40
50.0
  1
Ｔ２２Ａ００３５１
100
AcDbAttribute
  2
Ｎｏ．
 70
     0
  0
ATTRIB
  5
FBD
330
FB6
100
AcDbEntity
  8
RAHM3
100
AcDbText
 10
8793.219790658232
 20
3161.045504940528
 30
0.0
 40
40.0
  1

100
AcDbAttribute
  2
ＤＲ
 70
     0
  0
ATTRIB
  5
FBE
330
FB6
100
AcDbEntity
  8
RAHM3
100
AcDbText
 10
8760.538937619502
 20
3114.674611729262
 30
0.0
 40
30.0
  1

 41
0.8000000000000001
100
AcDbAttribute
  2
ｄａｔｅ
 70
     0
  0
SEQEND
  5
FB7
330
FB6
100
AcDbEntity
  8
0
370
     0
  0
POINT
  5
FBF
330
1F
100
AcDbEntity
  8
0
 60
     1
100
AcDbPoint
 10
0.0
 20
0.0
 30
0.0
1001
GENIUS_GENODEF_13
1002
{
1000
HIER
1070
     1
1002
}
1002
{
1000
MANEDIT
1070
     0
1002
}
1002
{
1000
NOSEL
1070
     0
1002
}
1002
{
1000
BEHIND
1070
     0
1002
}
1002
{
1000
OTHER
1070
     0
1002
}
1002
{
1000
REACTOR
1002
}
1001
GENIUS_GENOLIS_13
1002
{
1000
ENT
1005
FB6
1005
FB5
1002
}
1001
GENIUS_GENOENT_13
1002
{
1000
MYREF
1005
FBF
1002
}
1002
{
1000
GRP
1005
0
1002
}
1001
GENIUS_GENOBJ-N-TIT_13
1002
{
1000
OWNER
1000
GEN
1002
}
1001
GENIUS_GENTITLE_13
1002
{
1000
BORDER
1000
C:\WINNT\Profiles\Administrator\Application Data\Autodesk\AutoCAD\Recent\format\igs_a3
1002
}
1002
{
1000
TITLE
1000
C:\WINNT\Profiles\Administrator\Application Data\Autodesk\AutoCAD\Recent\format\IGS2
1002
}
1002
{
1000
SCALE
1000
1:10
1002
}
1002
{
1000
TITLESTD
1000
IGS
1002
}
1002
{
1000
HRA
1005
FB5
1002
}
1002
{
1000
HTIT
1005
FB6
1002
}
1002
{
1000
UNCHG
1002
{
1000
GEN-TITLE-SIZ
1000
GEN-TITLE-SCA
1002
}
1002
}
1002
{
1000
GENIUSID
1005
FBF
1002
}
  0
DIMENSION
  5
1074
330
1F
100
AcDbEntity
  8
AM_5
100
AcDbDimension
  2
*D22
 10
9035.240218139716
 20
4190.372000674379
 30
0.0
 11
8430.240218139715
 21
4227.876429808238
 31
0.0
 70
    32
  1
%%c<>
 71
     5
 42
1210.0
  3
IGS
100
AcDbAlignedDimension
 13
7825.240218139716
 23
4070.372000674378
 33
0.0
 14
9035.240218139716
 24
4070.372000674378
 34
0.0
100
AcDbRotatedDimension
1001
ACAD
1000
DSTYLE
1002
{
1070
   174
1070
     1
1002
}
  0
DIMENSION
  5
109C
330
1F
100
AcDbEntity
  8
AM_5
100
AcDbDimension
  2
*D23
 10
9105.240218139716
 20
4390.602800254768
 30
0.0
 11
8430.240218139715
 21
4428.102800254769
 31
0.0
 70
    32
  1
%%c<>
 71
     5
 42
1350.0
  3
IGS
100
AcDbAlignedDimension
 13
7755.240218139715
 23
4070.372000674378
 33
0.0
 14
9105.240218139716
 24
4070.372000674378
 34
0.0
100
AcDbRotatedDimension
  0
DIMENSION
  5
10C8
330
1F
100
AcDbEntity
  8
AM_5
100
AcDbDimension
  2
*D24
 10
9035.240218139716
 20
4190.372000674379
 30
0.0
 11
9070.240218139716
 21
4227.87200067438
 31
0.0
 70
    32
 71
     5
 42
70.0
  3
IGS
100
AcDbAlignedDimension
 13
9105.240218139716
 23
4070.372000674378
 33
0.0
 14
9035.240218139716
 24
4070.372000674378
 34
0.0
100
AcDbRotatedDimension
1001
ACAD
1000
DSTYLE
1002
{
1070
   174
1070
     1
1002
}
  0
DIMENSION
  5
112B
330
1F
100
AcDbEntity
  8
AM_5
100
AcDbDimension
  2
*D25
 10
7755.240218139715
 20
4190.372000674378
 30
0.0
 11
7790.240218139716
 21
4227.872000674378
 31
0.0
 70
    32
 71
     5
 42
70.0
  3
IGS
100
AcDbAlignedDimension
 13
7825.240218139716
 23
4070.372000674377
 33
0.0
 14
7755.240218139715
 24
4070.372000674377
 34
0.0
100
AcDbRotatedDimension
1001
ACAD
1000
DSTYLE
1002
{
1070
   174
1070
     1
1002
}
  0
DIMENSION
  5
1157
330
1F
100
AcDbEntity
  8
AM_5
100
AcDbDimension
  2
*D26
 10
7680.962850717818
 20
3970.372000674379
 30
0.0
 11
7680.962850717816
 21
4013.742642254026
 31
0.0
 70
   160
 71
     5
 42
100.0
  3
IGS
100
AcDbAlignedDimension
 13
7755.240218139715
 23
4070.372000674378
 33
0.0
 14
7755.240218139715
 24
3970.372000674379
 34
0.0
 50
90.00000000000003
100
AcDbRotatedDimension
  0
DIMENSION
  5
1181
330
1F
100
AcDbEntity
  8
AM_5
100
AcDbDimension
  2
*D27
 10
7791.995942086676
 20
4956.453826716757
 30
0.0
 11
7867.105752996268
 21
4901.359818074325
 31
0.0
 70
    33
 71
     5
 42
9.999999999894953
  3
IGS
100
AcDbAlignedDimension
 13
7843.189108312775
 23
4997.55722040168
 33
0.0
 14
7848.189108312716
 24
4988.896966363923
 34
0.0
  0
DIMENSION
  5
11AD
330
1F
100
AcDbEntity
  8
AM_5
100
AcDbDimension
  2
*D28
 10
7773.566508448247
 20
5715.622079748313
 30
0.0
 11
7783.724414074018
 21
5808.216088390691
 31
0.0
 70
    33
 71
     5
 42
9.999999999821739
  3
IGS
100
AcDbAlignedDimension
 13
7843.18910831266
 23
5663.878447591358
 33
0.0
 14
7848.189108312567
 24
5672.53870162905
 34
0.0
  0
DIMENSION
  5
12B2
330
1F
100
AcDbEntity
  8
AM_5
100
AcDbDimension
  2
*D29
 10
7755.240218139715
 20
4287.711622417147
 30
0.0
 11
7806.97418868354
 21
4287.711622417147
 31
0.0
 70
   160
 71
     5
 42
100.0
  3
IGS
100
AcDbAlignedDimension
 13
7855.240218139716
 23
4038.372000674378
 33
0.0
 14
7755.240218139715
 24
4070.372000674378
 34
0.0
 50
0.0000000000000114
100
AcDbRotatedDimension
  0
INSERT
  5
1344
330
1F
100
AcDbEntity
  8
1
  6
Continuous
 62
     3
100
AcDbBlockReference
  2
MAKR0
 10
9021.00243650065
 20
4688.401166172996
 30
0.0
  0
INSERT
  5
1345
330
1F
100
AcDbEntity
  8
1
  6
Continuous
 62
     7
100
AcDbBlockReference
  2
LTEX0
 10
8862.19374977445
 20
4812.026069546598
 30
0.0
  0
DIMENSION
  5
135A
330
1F
100
AcDbEntity
  8
AM_5
100
AcDbDimension
  2
*D30
 10
8787.437923601302
 20
4757.974611240578
 30
0.0
 11
8323.208422269804
 21
5502.336337605662
 31
0.0
 70
   163
 71
     5
 42
1350.000000000001
  3
IGS$3
100
AcDbDiametricDimension
 15
8073.042512678126
 25
5903.461056752661
 35
0.0
 40
0.0
  0
DIMENSION
  5
13A0
330
1F
100
AcDbEntity
  8
AM_5
100
AcDbDimension
  2
*D31
 10
8855.935400957143
 20
5760.611554962673
 30
0.0
 11
8214.680355881545
 21
5113.031952132093
 31
0.0
 70
   163
 71
     5
 42
1210.0
  3
IGS$3
100
AcDbDiametricDimension
 15
8004.545035322289
 25
4900.824113030573
 35
0.0
 40
0.0
  0
LINE
  5
1426
330
1F
100
AcDbEntity
  8
0
100
AcDbLine
 10
8657.196933640451
 20
3148.763270529534
 30
0.0
 11
8563.44102647478
 21
3148.763270529534
 31
0.0
  0
LINE
  5
1427
330
1F
100
AcDbEntity
  8
0
100
AcDbLine
 10
8657.196933640451
 20
3183.545879217535
 30
0.0
 11
8563.44102647478
 21
3183.545879217535
 31
0.0
  0
CIRCLE
  5
1428
330
1F
100
AcDbEntity
  8
0
100
AcDbCircle
 10
8610.318980057616
 20
3166.154574873534
 30
0.0
 40
49.99999998900111
  0
TEXT
  5
1429
330
1F
100
AcDbEntity
  8
TEXT
100
AcDbText
 10
8566.640347091322
 20
3153.111096615534
 30
0.0
 40
26.08695651600001
  1
98.02.01
 41
0.7281173896333803
 72
     5
 11
8651.231651420536
 21
3153.111096615534
 31
0.0
100
AcDbText
  0
TEXT
  5
142A
330
1F
100
AcDbEntity
  8
0
100
AcDbText
 10
8599.64584685564
 20
3119.59431626064
 30
0.0
 40
25.00000000000056
  1
本
 72
     4
 11
8611.312513522305
 21
3132.094316260641
 31
0.0
100
AcDbText
  0
TEXT
  5
142B
330
1F
100
AcDbEntity
  8
0
100
AcDbText
 10
8598.06186505614
 20
3185.917294589889
 30
0.0
 40
25.00000000000056
  1
松
 72
     4
 11
8609.728531722806
 21
3198.417294589889
 31
0.0
100
AcDbText
  0
TEXT
  5
142C
330
1F
100
AcDbEntity
  8
0
100
AcDbText
 10
8848.06186505614
 20
3325.917294589903
 30
0.0
 40
25.00000000000056
  1
鈴
 72
     4
 11
8859.728531722806
 21
3338.417294589903
 31
0.0
100
AcDbText
  0
TEXT
  5
142D
330
1F
100
AcDbEntity
  8
0
100
AcDbText
 10
8849.64584685564
 20
3259.594316260654
 30
0.0
 40
25.00000000000056
  1
木
 72
     4
 11
8861.312513522305
 21
3272.094316260655
 31
0.0
100
AcDbText
  0
CIRCLE
  5
142E
330
1F
100
AcDbEntity
  8
0
100
AcDbCircle
 10
8860.318980057616
 20
3306.154574873548
 30
0.0
 40
49.99999998900111
  0
LINE
  5
142F
330
1F
100
AcDbEntity
  8
0
100
AcDbLine
 10
8907.196933640451
 20
3323.545879217549
 30
0.0
 11
8813.44102647478
 21
3323.545879217549
 31
0.0
  0
LINE
  5
1430
330
1F
100
AcDbEntity
  8
0
100
AcDbLine
 10
8907.196933640451
 20
3288.763270529548
 30
0.0
 11
8813.44102647478
 21
3288.763270529547
 31
0.0
  0
TEXT
  5
1431
330
1F
100
AcDbEntity
  8
0
100
AcDbText
 10
8848.06186505614
 20
3185.917294589889
 30
0.0
 40
25.00000000000056
  1
松
 72
     4
 11
8859.728531722806
 21
3198.417294589889
 31
0.0
100
AcDbText
  0
TEXT
  5
1432
330
1F
100
AcDbEntity
  8
0
100
AcDbText
 10
8849.64584685564
 20
3119.59431626064
 30
0.0
 40
25.00000000000056
  1
本
 72
     4
 11
8861.312513522305
 21
3132.094316260641
 31
0.0
100
AcDbText
  0
CIRCLE
  5
1434
330
1F
100
AcDbEntity
  8
0
100
AcDbCircle
 10
8860.318980057616
 20
3166.154574873534
 30
0.0
 40
49.99999998900111
  0
LINE
  5
1435
330
1F
100
AcDbEntity
  8
0
100
AcDbLine
 10
8907.196933640451
 20
3183.545879217535
 30
0.0
 11
8813.44102647478
 21
3183.545879217535
 31
0.0
  0
LINE
  5
1436
330
1F
100
AcDbEntity
  8
0
100
AcDbLine
 10
8907.196933640451
 20
3148.763270529534
 30
0.0
 11
8813.44102647478
 21
3148.763270529534
 31
0.0
  0
LINE
  5
1437
330
1F
100
AcDbEntity
  8
0
100
AcDbLine
 10
8656.077698544848
 20
3286.126417712389
 30
0.0
 11
8562.321791379179
 21
3286.126417712388
 31
0.0
  0
TEXT
  5
1438
330
1F
100
AcDbEntity
  8
0
100
AcDbText
 10
8598.526611760037
 20
3256.957463443495
 30
0.0
 40
25.00000000000056
  1
崎
 72
     4
 11
8610.193278426704
 21
3269.457463443496
 31
0.0
100
AcDbText
  0
TEXT
  5
1439
330
1F
100
AcDbEntity
  8
0
100
AcDbText
 10
8596.942629960537
 20
3323.280441772744
 30
0.0
 40
25.00000000000056
  1
篠
 72
     4
 11
8608.609296627204
 21
3335.780441772744
 31
0.0
100
AcDbText
  0
LINE
  5
143A
330
1F
100
AcDbEntity
  8
0
100
AcDbLine
 10
8656.077698544848
 20
3320.90902640039
 30
0.0
 11
8562.321791379179
 21
3320.90902640039
 31
0.0
  0
CIRCLE
  5
143B
330
1F
100
AcDbEntity
  8
0
100
AcDbCircle
 10
8609.199744962012
 20
3303.517722056389
 30
0.0
 40
49.99999998900111
  0
TEXT
  5
143F
330
1F
100
AcDbEntity
  8
TEXT
100
AcDbText
 10
8565.521111995719
 20
3290.474243798389
 30
0.0
 40
26.08695651600001
  1
98.02.01
 41
0.7281173896333809
 72
     5
 11
8650.112416324931
 21
3290.474243798389
 31
0.0
100
AcDbText
  0
TEXT
  5
1440
330
1F
100
AcDbEntity
  8
TEXT
100
AcDbText
 10
8816.640347091322
 20
3293.111096615547
 30
0.0
 40
26.08695651600001
  1
98.02.01
 41
0.7281173896333809
 72
     5
 11
8901.231651420536
 21
3293.111096615547
 31
0.0
100
AcDbText
  0
TEXT
  5
1441
330
1F
100
AcDbEntity
  8
TEXT
100
AcDbText
 10
8816.640347091322
 20
3153.111096615534
 30
0.0
 40
26.08695651600001
  1
98.02.01
 41
0.7281173896333809
 72
     5
 11
8901.231651420536
 21
3153.111096615534
 31
0.0
100
AcDbText
  0
ENDSEC
  0
SECTION
  2
OBJECTS
  0
DICTIONARY
  5
C
330
0
100
AcDbDictionary
281
     1
  3
ACAD_COLOR
350
985
  3
ACAD_GROUP
350
D
  3
ACAD_LAYOUT
350
1A
  3
ACAD_MATERIAL
350
984
  3
ACAD_MLINESTYLE
350
17
  3
ACAD_PLOTSETTINGS
350
19
  3
ACAD_PLOTSTYLENAME
350
E
  3
AcDbVariableDictionary
350
43
  3
AcmDictionary
350
55
  3
AMG
350
2B
  3
AMGSNAPSETTINGS
350
A8
  3
ASE_INDEX_DICTIONARY
350
942
  0
DICTIONARY
  5
1405
330
2
100
AcDbDictionary
280
     1
281
     1
  3
ACAD_LAYERSTATES
360
1406
  0
DICTIONARY
  5
B1
330
1F
100
AcDbDictionary
280
     1
281
     1
  3
ACAD_INDEX
360
1443
  0
DICTIONARY
  5
985
102
{ACAD_REACTORS
330
C
102
}
330
C
100
AcDbDictionary
281
     1
  0
DICTIONARY
  5
D
102
{ACAD_REACTORS
330
C
102
}
330
C
100
AcDbDictionary
281
     1
  0
DICTIONARY
  5
1A
102
{ACAD_REACTORS
330
C
102
}
330
C
100
AcDbDictionary
281
     1
  3
Model
350
22
  3
ﾚｲｱｳﾄ1
350
1E
  3
ﾚｲｱｳﾄ2
350
26
  0
DICTIONARY
  5
984
102
{ACAD_REACTORS
330
C
102
}
330
C
100
AcDbDictionary
281
     1
  0
DICTIONARY
  5
17
102
{ACAD_REACTORS
330
C
102
}
330
C
100
AcDbDictionary
281
     1
  3
Standard
350
18
  0
DICTIONARY
  5
19
102
{ACAD_REACTORS
330
C
102
}
330
C
100
AcDbDictionary
281
     1
  0
ACDBDICTIONARYWDFLT
  5
E
102
{ACAD_REACTORS
330
C
102
}
330
C
100
AcDbDictionary
281
     1
  3
Normal
350
F
100
AcDbDictionaryWithDefault
340
F
  0
DICTIONARY
  5
43
102
{ACAD_REACTORS
330
C
102
}
330
C
100
AcDbDictionary
281
     1
  3
INDEXCTL
350
44
  3
SORTENTS
350
774
  0
DICTIONARY
  5
55
102
{ACAD_REACTORS
330
C
102
}
330
C
100
AcDbDictionary
281
     1
  3
AcmBOM
350
3D1
  3
AcmStdDictionary
350
59
  3
AMDTSECTSYM_ARROWCOLOR
350
98E
  0
DICTIONARY
  5
2B
102
{ACAD_REACTORS
330
C
102
}
330
C
100
AcDbDictionary
281
     1
  0
DICTIONARY
  5
A8
102
{ACAD_REACTORS
330
C
102
}
330
C
100
AcDbDictionary
281
     1
  0
DICTIONARY
  5
942
102
{ACAD_REACTORS
330
C
102
}
330
C
100
AcDbDictionary
281
     1
  3
ASEBlockHierarchyIndexRecord
350
944
1001
DCO15
1040
1418113613.734
  0
DICTIONARY
  5
1406
102
{ACAD_REACTORS
330
1405
102
}
330
1405
100
AcDbDictionary
281
     1
  0
DICTIONARY
  5
1443
102
{ACAD_REACTORS
330
B1
102
}
330
B1
100
AcDbDictionary
281
     1
  3
*A1
350
1444
  0
LAYOUT
  5
22
102
{ACAD_REACTORS
330
1A
102
}
330
1A
100
AcDbPlotSettings
  1

  2
\\PC01\CASIO SPEEDIA N4
  4
A3
  6
AM_VIEW1
 40
5.873749732971191
 41
5.958403587341308
 42
5.958404541015625
 43
5.873748779296875
 44
296.9259948730469
 45
419.9466552734374
 46
9.609999999999999
 47
0.0
 48
0.0
 49
0.0
140
0.0
141
0.0
142
1.0
143
3.458210785390119
 70
 11956
 72
     1
 73
     1
 74
     0
  7
monochrome.ctb
 75
     0
147
0.2891668732931762
 76
     0
 77
     2
 78
   300
148
295.8822165187813
149
247.9752015480118
100
AcDbLayout
  1
Model
 70
     1
 71
     0
 10
0.0
 20
0.0
 11
12.0
 21
9.0
 12
0.0
 22
0.0
 32
0.0
 14
0.0
 24
0.0
 34
0.0
 15
0.0
 25
0.0
 35
0.0
146
0.0
 13
0.0
 23
0.0
 33
0.0
 16
1.0
 26
0.0
 36
0.0
 17
0.0
 27
1.0
 37
0.0
 76
     0
330
1F
  0
LAYOUT
  5
1E
102
{ACAD_REACTORS
330
1A
102
}
330
1A
100
AcDbPlotSettings
  1

  2
MUTOH RL-803C(ﾌﾟﾛｯﾀﾓｰﾄﾞ)
  4

  6

 40
0.0
 41
0.0
 42
0.0
 43
0.0
 44
0.0
 45
0.0
 46
0.0
 47
0.0
 48
0.0
 49
0.0
140
0.0
141
0.0
142
1.0
143
1.0
 70
   688
 72
     0
 73
     0
 74
     5
  7
monochrome.ctb
 75
    16
147
1.0
 76
     0
 77
     2
 78
   300
148
0.0
149
0.0
100
AcDbLayout
  1
ﾚｲｱｳﾄ1
 70
     1
 71
     1
 10
0.0
 20
0.0
 11
420.0
 21
297.0
 12
0.0
 22
0.0
 32
0.0
 14
1.000000000000000E+20
 24
1.000000000000000E+20
 34
1.000000000000000E+20
 15
-1.000000000000000E+20
 25
-1.000000000000000E+20
 35
-1.000000000000000E+20
146
0.0
 13
0.0
 23
0.0
 33
0.0
 16
1.0
 26
0.0
 36
0.0
 17
0.0
 27
1.0
 37
0.0
 76
     0
330
1B
  0
LAYOUT
  5
26
102
{ACAD_REACTORS
330
1A
102
}
330
1A
100
AcDbPlotSettings
  1

  2
MUTOH RL-803C(ﾌﾟﾛｯﾀﾓｰﾄﾞ)
  4

  6

 40
0.0
 41
0.0
 42
0.0
 43
0.0
 44
0.0
 45
0.0
 46
0.0
 47
0.0
 48
0.0
 49
0.0
140
0.0
141
0.0
142
1.0
143
1.0
 70
   688
 72
     0
 73
     0
 74
     5
  7
monochrome.ctb
 75
    16
147
1.0
 76
     0
 77
     2
 78
   300
148
0.0
149
0.0
100
AcDbLayout
  1
ﾚｲｱｳﾄ2
 70
     1
 71
     2
 10
0.0
 20
0.0
 11
12.0
 21
9.0
 12
0.0
 22
0.0
 32
0.0
 14
0.0
 24
0.0
 34
0.0
 15
0.0
 25
0.0
 35
0.0
146
0.0
 13
0.0
 23
0.0
 33
0.0
 16
1.0
 26
0.0
 36
0.0
 17
0.0
 27
1.0
 37
0.0
 76
     0
330
23
  0
MLINESTYLE
  5
18
102
{ACAD_REACTORS
330
17
102
}
330
17
100
AcDbMlineStyle
  2
STANDARD
 70
     0
  3

 62
   256
 51
90.0
 52
90.0
 71
     2
 49
0.5
 62
   256
  6
BYLAYER
 49
-0.5
 62
   256
  6
BYLAYER
  0
ACDBPLACEHOLDER
  5
F
102
{ACAD_REACTORS
330
E
102
}
330
E
  0
DICTIONARYVAR
  5
44
102
{ACAD_REACTORS
330
43
102
}
330
43
100
DictionaryVariables
280
     0
  1
1
  0
DICTIONARYVAR
  5
774
102
{ACAD_REACTORS
330
43
102
}
330
43
100
DictionaryVariables
280
     0
  1
96
  0
DICTIONARY
  5
3D1
102
{ACAD_REACTORS
330
55
102
}
330
55
100
AcDbDictionary
281
     1
  0
DICTIONARY
  5
59
102
{ACAD_REACTORS
330
55
102
}
330
55
100
AcDbDictionary
281
     1
  0
XRECORD
  5
98E
102
{ACAD_REACTORS
330
55
102
}
330
55
100
AcDbXrecord
280
     1
 90
-1023410169
  0
XRECORD
  5
944
102
{ACAD_REACTORS
330
942
102
}
330
942
100
AcDbXrecord
280
     1
330
52F
330
537
330
5FB
330
603
  0
LAYER_INDEX
  5
1444
102
{ACAD_REACTORS
330
1443
102
}
330
1443
100
AcDbIndex
 40
2454715.495326424
100
AcDbLayerIndex
  8
0
360
1445
 90
       23
  8
RAHM2
360
1446
 90
        0
  8
AM_BOR
360
1447
 90
        0
  8
RAHM3
360
1448
 90
        0
  8
RAHM5
360
1449
 90
        0
  8
1
360
144A
 90
       71
  8
DEFPOINTS
360
144B
 90
        0
  8
7A
360
144C
 90
        0
  8
7
360
144D
 90
        3
  8
8
360
144E
 90
        0
  8
AM_8
360
144F
 90
        1
  8
AM_5
360
1450
 90
       10
  8
AM_3
360
1451
 90
        7
  8
AM_CL
360
1452
 90
        0
  8
AM_12
360
1453
 90
        0
  8
AM_PAREF
360
1454
 90
        0
  8
AM_4
360
1455
 90
        0
  8
TEXT
360
1456
 90
        4
  0
IDBUFFER
  5
1445
330
0
100
AcDbIdBuffer
330
FB5
330
FB6
330
FBF
330
1426
330
1427
330
1428
330
142A
330
142B
330
142C
330
142D
330
142E
330
142F
330
1430
330
1431
330
1432
330
1434
330
1435
330
1436
330
1437
330
1438
330
1439
330
143A
330
143B
  0
IDBUFFER
  5
1446
330
0
100
AcDbIdBuffer
  0
IDBUFFER
  5
1447
330
0
100
AcDbIdBuffer
  0
IDBUFFER
  5
1448
330
0
100
AcDbIdBuffer
  0
IDBUFFER
  5
1449
330
0
100
AcDbIdBuffer
  0
IDBUFFER
  5
144A
330
0
100
AcDbIdBuffer
330
B0D
330
B0E
330
B0F
330
B10
330
B11
330
B12
330
B13
330
B14
330
B15
330
B16
330
B17
330
B18
330
B19
330
B1A
330
B1B
330
B1C
330
B1D
330
B1E
330
B1F
330
B20
330
B2B
330
B2C
330
B2D
330
B2E
330
B2F
330
B30
330
B31
330
B32
330
B33
330
B34
330
B35
330
B36
330
B37
330
B38
330
B39
330
B3A
330
B3B
330
B3C
330
B3D
330
B3E
330
B3F
330
B40
330
B41
330
B42
330
B43
330
B44
330
B45
330
B46
330
B47
330
B48
330
B53
330
B54
330
B55
330
B56
330
B57
330
B58
330
B59
330
B5A
330
B5B
330
B5C
330
B5D
330
B5E
330
B60
330
B61
330
B62
330
B63
330
B64
330
B65
330
B66
330
1344
330
1345
  0
IDBUFFER
  5
144B
330
0
100
AcDbIdBuffer
  0
IDBUFFER
  5
144C
330
0
100
AcDbIdBuffer
  0
IDBUFFER
  5
144D
330
0
100
AcDbIdBuffer
330
B29
330
B2A
330
B52
  0
IDBUFFER
  5
144E
330
0
100
AcDbIdBuffer
  0
IDBUFFER
  5
144F
330
0
100
AcDbIdBuffer
330
C7D
  0
IDBUFFER
  5
1450
330
0
100
AcDbIdBuffer
330
1074
330
109C
330
10C8
330
112B
330
1157
330
1181
330
11AD
330
12B2
330
135A
330
13A0
  0
IDBUFFER
  5
1451
330
0
100
AcDbIdBuffer
330
B4C
330
B4D
330
B4E
330
B4F
330
B50
330
B51
330
E78
  0
IDBUFFER
  5
1452
330
0
100
AcDbIdBuffer
  0
IDBUFFER
  5
1453
330
0
100
AcDbIdBuffer
  0
IDBUFFER
  5
1454
330
0
100
AcDbIdBuffer
  0
IDBUFFER
  5
1455
330
0
100
AcDbIdBuffer
  0
IDBUFFER
  5
1456
330
0
100
AcDbIdBuffer
330
1429
330
143F
330
1440
330
1441
  0
ENDSEC
  0
EOF
