  0
SECTION
  2
HEADER
  9
$ACADVER
  1
AC1018
  9
$ACADMAINTVER
 70
     2
  9
$DWGCODEPAGE
  3
ANSI_932
  9
$TITLE
  1

  9
$SUBJECT
  1

  9
$AUTHOR
  1

  9
$KEYWORDS
  1

  9
$COMMENTS
  1

  9
$LASTSAVEDBY
  1

  9
$REVISIONNUMBER
  1

  9
$CUSTOMPROPERTYTAG
  1
AmdtFileType
  9
$CUSTOMPROPERTY
  1
84
  9
$INSBASE
 10
0.0
 20
0.0
 30
0.0
  9
$EXTMIN
 10
0.0
 20
0.0
 30
0.0
  9
$EXTMAX
 10
4200.0
 20
2970.0
 30
520.0
  9
$LIMMIN
 10
4491.351437313247
 20
-1.208025935595287
  9
$LIMMAX
 10
8691.351437313247
 20
2968.791974064405
  9
$ORTHOMODE
 70
     0
  9
$REGENMODE
 70
     1
  9
$FILLMODE
 70
     1
  9
$QTEXTMODE
 70
     0
  9
$MIRRTEXT
 70
     1
  9
$LTSCALE
 40
10.0
  9
$ATTMODE
 70
     1
  9
$TEXTSIZE
 40
2.5
  9
$TRACEWID
 40
1.0
  9
$TEXTSTYLE
  7
STANDARD
  9
$CLAYER
  8
0
  9
$CELTYPE
  6
ByLayer
  9
$CECOLOR
 62
   256
  9
$CELTSCALE
 40
1.0
  9
$DISPSILH
 70
     0
  9
$DIMSCALE
 40
10.0
  9
$DIMASZ
 40
2.5
  9
$DIMEXO
 40
1.0
  9
$DIMDLI
 40
10.0
  9
$DIMRND
 40
0.0
  9
$DIMDLE
 40
0.0
  9
$DIMEXE
 40
1.0
  9
$DIMTP
 40
0.1
  9
$DIMTM
 40
0.1
  9
$DIMTXT
 40
4.5
  9
$DIMCEN
 40
0.0
  9
$DIMTSZ
 40
0.0
  9
$DIMTOL
 70
     0
  9
$DIMLIM
 70
     0
  9
$DIMTIH
 70
     0
  9
$DIMTOH
 70
     0
  9
$DIMSE1
 70
     0
  9
$DIMSE2
 70
     0
  9
$DIMTAD
 70
     3
  9
$DIMZIN
 70
     8
  9
$DIMBLK
  1
Open30
  9
$DIMASO
 70
     1
  9
$DIMSHO
 70
     1
  9
$DIMPOST
  1

  9
$DIMAPOST
  1
"
  9
$DIMALT
 70
     0
  9
$DIMALTD
 70
     2
  9
$DIMALTF
 40
0.0393701
  9
$DIMLFAC
 40
1.0
  9
$DIMTOFL
 70
     1
  9
$DIMTVP
 40
0.0
  9
$DIMTIX
 70
     0
  9
$DIMSOXD
 70
     0
  9
$DIMSAH
 70
     0
  9
$DIMBLK1
  1

  9
$DIMBLK2
  1

  9
$DIMSTYLE
  2
IGS
  9
$DIMCLRD
 70
   256
  9
$DIMCLRE
 70
   256
  9
$DIMCLRT
 70
     2
  9
$DIMTFAC
 40
0.71
  9
$DIMGAP
 40
1.5
  9
$DIMJUST
 70
     0
  9
$DIMSD1
 70
     0
  9
$DIMSD2
 70
     0
  9
$DIMTOLJ
 70
     0
  9
$DIMTZIN
 70
     8
  9
$DIMALTZ
 70
     0
  9
$DIMALTTZ
 70
     0
  9
$DIMUPT
 70
     0
  9
$DIMDEC
 70
     2
  9
$DIMTDEC
 70
     2
  9
$DIMALTU
 70
     2
  9
$DIMALTTD
 70
     2
  9
$DIMTXSTY
  7
STANDARD
  9
$DIMAUNIT
 70
     0
  9
$DIMADEC
 70
     0
  9
$DIMALTRND
 40
0.0
  9
$DIMAZIN
 70
     2
  9
$DIMDSEP
 70
    46
  9
$DIMATFIT
 70
     3
  9
$DIMFRAC
 70
     0
  9
$DIMLDRBLK
  1
Open30
  9
$DIMLUNIT
 70
     2
  9
$DIMLWD
 70
    -1
  9
$DIMLWE
 70
    -1
  9
$DIMTMOVE
 70
     0
  9
$LUNITS
 70
     2
  9
$LUPREC
 70
     2
  9
$SKETCHINC
 40
1.0
  9
$FILLETRAD
 40
0.0
  9
$AUNITS
 70
     0
  9
$AUPREC
 70
     0
  9
$MENU
  1
.
  9
$ELEVATION
 40
0.0
  9
$PELEVATION
 40
0.0
  9
$THICKNESS
 40
0.0
  9
$LIMCHECK
 70
     0
  9
$CHAMFERA
 40
25.0
  9
$CHAMFERB
 40
25.0
  9
$CHAMFERC
 40
20.0
  9
$CHAMFERD
 40
0.0
  9
$SKPOLY
 70
     0
  9
$TDCREATE
 40
2453572.421023577
  9
$TDUCREATE
 40
2453572.046023577
  9
$TDUPDATE
 40
2454718.704828010
  9
$TDUUPDATE
 40
2454718.329828009
  9
$TDINDWG
 40
0.0189961343
  9
$TDUSRTIMER
 40
0.0189961343
  9
$USRTIMER
 70
     1
  9
$ANGBASE
 50
0.0
  9
$ANGDIR
 70
     0
  9
$PDMODE
 70
     0
  9
$PDSIZE
 40
0.0
  9
$PLINEWID
 40
0.0
  9
$SPLFRAME
 70
     0
  9
$SPLINETYPE
 70
     6
  9
$SPLINESEGS
 70
     8
  9
$HANDSEED
  5
181B
  9
$SURFTAB1
 70
     6
  9
$SURFTAB2
 70
     6
  9
$SURFTYPE
 70
     6
  9
$SURFU
 70
     6
  9
$SURFV
 70
     6
  9
$UCSBASE
  2

  9
$UCSNAME
  2

  9
$UCSORG
 10
0.0
 20
0.0
 30
0.0
  9
$UCSXDIR
 10
1.0
 20
0.0
 30
0.0
  9
$UCSYDIR
 10
0.0
 20
1.0
 30
0.0
  9
$UCSORTHOREF
  2

  9
$UCSORTHOVIEW
 70
     0
  9
$UCSORGTOP
 10
0.0
 20
0.0
 30
0.0
  9
$UCSORGBOTTOM
 10
0.0
 20
0.0
 30
0.0
  9
$UCSORGLEFT
 10
0.0
 20
0.0
 30
0.0
  9
$UCSORGRIGHT
 10
0.0
 20
0.0
 30
0.0
  9
$UCSORGFRONT
 10
0.0
 20
0.0
 30
0.0
  9
$UCSORGBACK
 10
0.0
 20
0.0
 30
0.0
  9
$PUCSBASE
  2

  9
$PUCSNAME
  2

  9
$PUCSORG
 10
0.0
 20
0.0
 30
0.0
  9
$PUCSXDIR
 10
1.0
 20
0.0
 30
0.0
  9
$PUCSYDIR
 10
0.0
 20
1.0
 30
0.0
  9
$PUCSORTHOREF
  2

  9
$PUCSORTHOVIEW
 70
     0
  9
$PUCSORGTOP
 10
0.0
 20
0.0
 30
0.0
  9
$PUCSORGBOTTOM
 10
0.0
 20
0.0
 30
0.0
  9
$PUCSORGLEFT
 10
0.0
 20
0.0
 30
0.0
  9
$PUCSORGRIGHT
 10
0.0
 20
0.0
 30
0.0
  9
$PUCSORGFRONT
 10
0.0
 20
0.0
 30
0.0
  9
$PUCSORGBACK
 10
0.0
 20
0.0
 30
0.0
  9
$USERI1
 70
     0
  9
$USERI2
 70
     0
  9
$USERI3
 70
     0
  9
$USERI4
 70
     0
  9
$USERI5
 70
     0
  9
$USERR1
 40
0.0
  9
$USERR2
 40
0.0
  9
$USERR3
 40
0.0
  9
$USERR4
 40
0.0
  9
$USERR5
 40
0.0
  9
$WORLDVIEW
 70
     1
  9
$SHADEDGE
 70
     3
  9
$SHADEDIF
 70
    70
  9
$TILEMODE
 70
     1
  9
$MAXACTVP
 70
    64
  9
$PINSBASE
 10
0.0
 20
0.0
 30
0.0
  9
$PLIMCHECK
 70
     0
  9
$PEXTMIN
 10
1.000000000000000E+20
 20
1.000000000000000E+20
 30
1.000000000000000E+20
  9
$PEXTMAX
 10
-1.000000000000000E+20
 20
-1.000000000000000E+20
 30
-1.000000000000000E+20
  9
$PLIMMIN
 10
0.0
 20
0.0
  9
$PLIMMAX
 10
420.0
 20
297.0
  9
$UNITMODE
 70
     0
  9
$VISRETAIN
 70
     1
  9
$PLINEGEN
 70
     0
  9
$PSLTSCALE
 70
     1
  9
$TREEDEPTH
 70
  3020
  9
$CMLSTYLE
  2
Standard
  9
$CMLJUST
 70
     0
  9
$CMLSCALE
 40
20.0
  9
$PROXYGRAPHICS
 70
     1
  9
$MEASUREMENT
 70
     1
  9
$CELWEIGHT
370
    -1
  9
$ENDCAPS
280
     0
  9
$JOINSTYLE
280
     0
  9
$LWDISPLAY
290
     0
  9
$INSUNITS
 70
     4
  9
$HYPERLINKBASE
  1

  9
$STYLESHEET
  1
monochrome.ctb
  9
$XEDIT
290
     1
  9
$CEPSNTYPE
380
     0
  9
$PSTYLEMODE
290
     1
  9
$FINGERPRINTGUID
  2
{A179640A-E7AE-11D4-BDB4-00B0D0A1239A}
  9
$VERSIONGUID
  2
{DB9A1FEC-31CE-4FD5-9502-AA6067027950}
  9
$EXTNAMES
290
     1
  9
$PSVPSCALE
 40
0.0
  9
$OLESTARTUP
290
     0
  9
$SORTENTS
280
   103
  9
$INDEXCTL
280
     1
  9
$HIDETEXT
280
     0
  9
$XCLIPFRAME
290
     0
  9
$HALOGAP
280
     0
  9
$OBSCOLOR
 70
   257
  9
$OBSLTYPE
280
     0
  9
$INTERSECTIONDISPLAY
280
     0
  9
$INTERSECTIONCOLOR
 70
   257
  9
$DIMASSOC
280
     1
  9
$PROJECTNAME
  1

  0
ENDSEC
  0
SECTION
  2
CLASSES
  0
CLASS
  1
ACDBDICTIONARYWDFLT
  2
AcDbDictionaryWithDefault
  3
ObjectDBX Classes
 90
        0
 91
        1
280
     0
281
     0
  0
CLASS
  1
ACDBPLACEHOLDER
  2
AcDbPlaceHolder
  3
ObjectDBX Classes
 90
        0
 91
        1
280
     0
281
     0
  0
CLASS
  1
LAYOUT
  2
AcDbLayout
  3
ObjectDBX Classes
 90
        0
 91
        3
280
     0
281
     0
  0
CLASS
  1
AMGSETTINGSOBJ
  2
AmgSettingsObj
  3
"AcadM|Product Description: AutoCAD Mechanical 2000|Company: Autodesk"
 90
        0
 91
       12
280
     0
281
     0
  0
CLASS
  1
AMGOBJPROPCFG
  2
AmgObjPropCfg
  3
"AmgLay|Product Description: AutoCAD Mechanical 2000|Company: Autodesk"
 90
        1
 91
        3
280
     0
281
     0
  0
CLASS
  1
ACME_DOCUMENT
  2
AcMeDbDoc
  3
AcMeServices
 90
        0
 91
        2
280
     0
281
     0
  0
CLASS
  1
ACMESCOPE
  2
AcMeScope
  3
AcMeServices
 90
        0
 91
        3
280
     0
281
     0
  0
CLASS
  1
ACMECOMMANDHISTORY
  2
AcMeCommandHistory
  3
AcMeServices
 90
        0
 91
        3
280
     0
281
     0
  0
CLASS
  1
DICTIONARYVAR
  2
AcDbDictionaryVar
  3
ObjectDBX Classes
 90
        0
 91
        4
280
     0
281
     0
  0
CLASS
  1
ACIMSYSVARMAN
  2
AcImSysVarManager
  3
AcMeServices
 90
        0
 91
       15
280
     0
281
     0
  0
CLASS
  1
ACIMREALSYSVAR
  2
AcImRealSysVar
  3
AcMeServices
 90
        0
 91
        9
280
     0
281
     0
  0
CLASS
  1
ACIMINTSYSVAR
  2
AcImIntSysVar
  3
AcMeServices
 90
        0
 91
       81
280
     0
281
     0
  0
CLASS
  1
ACMEDRAWINGMAN
  2
AcMeDrawingMan
  3
AcMeServices
 90
        0
 91
        3
280
     0
281
     0
  0
CLASS
  1
ACMEVIEW
  2
AcMeView
  3
AcMeServices
 90
        0
 91
        3
280
     0
281
     0
  0
CLASS
  1
ACDBENTITYCACHE
  2
AcMeEntityCache
  3
AcMeServices
 90
        0
 91
        1
280
     0
281
     0
  0
CLASS
  1
GSMANAGER
  2
AcMeGSManager
  3
AcMeServices
 90
        0
 91
        1
280
     0
281
     0
  0
CLASS
  1
AMDTINTERNALREACTOR
  2
AmdtInternalReactor
  3
AcMeServices
 90
        0
 91
        4
280
     0
281
     0
  0
CLASS
  1
ACMESTATEMGR
  2
AcMeStateMgr
  3
AcMeServices
 90
        0
 91
        3
280
     0
281
     0
  0
CLASS
  1
ACGREFMASTER
  2
AcGrefMaster
  3
AcAttribServices
 90
        0
 91
        3
280
     0
281
     0
  0
CLASS
  1
ACME_DATABASE
  2
AcMeDbDatabase
  3
AcMeServices
 90
        0
 91
        1
280
     0
281
     0
  0
CLASS
  1
ACRFINSADJUSTERMGR
  2
AcRfInsAdjusterMgr
  3
AcMeServices
 90
        0
 91
        1
280
     0
281
     0
  0
CLASS
  1
ACGREFACADMASTER
  2
AcGrefacadMaster
  3
AcGrefServices
 90
        0
 91
        3
280
     0
281
     0
  0
CLASS
  1
AMIMASTER
  2
AmiMaster
  3
AmiServices
 90
        0
 91
        3
280
     0
281
     0
  0
CLASS
  1
ACMDATADICTIONARY
  2
AcmDataDictionary
  3
"AcmSymBB|Product Description: AutoCAD Mechanical 2004 DX|Company: Autodesk"
 90
        0
 91
        3
280
     0
281
     0
  0
CLASS
  1
ACMDATAENTRYBLOCK
  2
AcmDataEntryBlock
  3
"AcmSymBB|Product Description: AutoCAD Mechanical 2004 DX|Company: Autodesk"
 90
        0
 91
        3
280
     0
281
     0
  0
CLASS
  1
ACMSTANDARDJIS
  2
AcmStandardJIS
  3
"Amdt_StdImp|Product Description: AutoCAD Mechanical 2004 DX|Company: Autodesk"
 90
        0
 91
        3
280
     0
281
     0
  0
CLASS
  1
ACMSURFSTANDARDJIS
  2
AcmSurfTextStdJIS
  3
"Amdt_StdImp|Product Description: AutoCAD Mechanical 2004 DX|Company: Autodesk"
 90
        0
 91
        3
280
     0
281
     0
  0
CLASS
  1
ACMFCFSTANDARDJIS
  2
AcmFCFStdJIS
  3
"Amdt_StdImp|Product Description: AutoCAD Mechanical 2004 DX|Company: Autodesk"
 90
        0
 91
        3
280
     0
281
     0
  0
CLASS
  1
ACMWELDSTANDARDJIS
  2
AcmWeldingStdJIS
  3
"Amdt_StdImp|Product Description: AutoCAD Mechanical 2004 DX|Company: Autodesk"
 90
        0
 91
        3
280
     0
281
     0
  0
CLASS
  1
ACMIDSTANDARDJIS
  2
AcmIdStdJIS
  3
"Amdt_StdImp|Product Description: AutoCAD Mechanical 2004 DX|Company: Autodesk"
 90
        0
 91
        3
280
     0
281
     0
  0
CLASS
  1
ACMDATUMSTANDARDJIS
  2
AcmDatumStdJIS
  3
"Amdt_StdImp|Product Description: AutoCAD Mechanical 2004 DX|Company: Autodesk"
 90
        0
 91
        3
280
     0
281
     0
  0
CLASS
  1
ACMBOMSTANDARDJIS
  2
AcmBOMStdJIS
  3
"Amdt_StdImp|Product Description: AutoCAD Mechanical 2004 DX|Company: Autodesk"
 90
        0
 91
        3
280
     0
281
     0
  0
CLASS
  1
ACMDETAILSTANDARDJIS
  2
AmdtDetailSymStdJIS
  3
"Amdt_StdImp|Product Description: AutoCAD Mechanical 2004 DX|Company: Autodesk"
 90
        0
 91
        3
280
     0
281
     0
  0
CLASS
  1
ACMSECTIONSTANDARDJIS
  2
AmdtSectionSymStdJIS
  3
"Amdt_StdImp|Product Description: AutoCAD Mechanical 2004 DX|Company: Autodesk"
 90
        0
 91
        3
280
     0
281
     0
  0
CLASS
  1
ACMCENTERLINESTANDARDJIS
  2
AmdtCenterLineStdJIS
  3
"Amdt_StdImp|Product Description: AutoCAD Mechanical 2004 DX|Company: Autodesk"
 90
        0
 91
        3
280
     0
281
     0
  0
CLASS
  1
ACAMGLAYSTD
  2
AcAmgLayStd
  3
"AcAmgLayStd|Product Description: AutoCAD Mechanical 2000|Company: Autodesk"
 90
        0
 91
        9
280
     0
281
     0
  0
CLASS
  1
ACAMGDIMSTD
  2
AcAmgDimStd
  3
"AcAmgDimStd|Product Description: AutoCAD Mechanical 2000|Company: Autodesk"
 90
        0
 91
        9
280
     0
281
     0
  0
CLASS
  1
ACAMGTITLESTD
  2
AcAmgTitleStd
  3
"TITLEAPP"
 90
        0
 91
        9
280
     0
281
     0
  0
CLASS
  1
ACMSTANDARDISO
  2
AcmStandardISO
  3
"Amdt_StdImp|Product Description: AutoCAD Mechanical 2004 DX|Company: Autodesk"
 90
        0
 91
        3
280
     0
281
     0
  0
CLASS
  1
AMDTEDGESTANDARDISO
  2
AmdtEdgeStdISO
  3
"Amdt_StdImp|Product Description: AutoCAD Mechanical 2004 DX|Company: Autodesk"
 90
        0
 91
        3
280
     0
281
     0
  0
CLASS
  1
ACMSURFSTANDARDISO
  2
AcmSurfTextStdISO
  3
"Amdt_StdImp|Product Description: AutoCAD Mechanical 2004 DX|Company: Autodesk"
 90
        0
 91
        3
280
     0
281
     0
  0
CLASS
  1
ACMFCFSTANDARDISO
  2
AcmFCFStdISO
  3
"Amdt_StdImp|Product Description: AutoCAD Mechanical 2004 DX|Company: Autodesk"
 90
        0
 91
        3
280
     0
281
     0
  0
CLASS
  1
ACMWELDSTANDARDISO
  2
AcmWeldingStdISO
  3
"Amdt_StdImp|Product Description: AutoCAD Mechanical 2004 DX|Company: Autodesk"
 90
        0
 91
        3
280
     0
281
     0
  0
CLASS
  1
ACMIDSTANDARDISO
  2
AcmIdStdISO
  3
"Amdt_StdImp|Product Description: AutoCAD Mechanical 2004 DX|Company: Autodesk"
 90
        0
 91
        3
280
     0
281
     0
  0
CLASS
  1
ACMDATUMSTANDARDISO
  2
AcmDatumStdISO
  3
"Amdt_StdImp|Product Description: AutoCAD Mechanical 2004 DX|Company: Autodesk"
 90
        0
 91
        3
280
     0
281
     0
  0
CLASS
  1
ACMBOMSTANDARDISO
  2
AcmBOMStdISO
  3
"Amdt_StdImp|Product Description: AutoCAD Mechanical 2004 DX|Company: Autodesk"
 90
        0
 91
        3
280
     0
281
     0
  0
CLASS
  1
ACMDETAILSTANDARDISO
  2
AmdtDetailSymStdISO
  3
"Amdt_StdImp|Product Description: AutoCAD Mechanical 2004 DX|Company: Autodesk"
 90
        0
 91
        3
280
     0
281
     0
  0
CLASS
  1
ACMSECTIONSTANDARDISO
  2
AmdtSectionSymStdISO
  3
"Amdt_StdImp|Product Description: AutoCAD Mechanical 2004 DX|Company: Autodesk"
 90
        0
 91
        3
280
     0
281
     0
  0
CLASS
  1
ACMCENTERLINESTANDARDISO
  2
AmdtCenterLineStdISO
  3
"Amdt_StdImp|Product Description: AutoCAD Mechanical 2004 DX|Company: Autodesk"
 90
        0
 91
        3
280
     0
281
     0
  0
CLASS
  1
ACIMSTRSYSVAR
  2
AcImStrSysVar
  3
AcMeServices
 90
        0
 91
       15
280
     0
281
     0
  0
CLASS
  1
ACAMGFILTERDAT
  2
AcAmgFilterDat
  3
"AcadM|Product Description: AutoCAD Mechanical 2000|Company: Autodesk"
 90
        0
 91
       18
280
     0
281
     0
  0
CLASS
  1
LAYER_INDEX
  2
AcDbLayerIndex
  3
ObjectDBX Classes
 90
        0
 91
        1
280
     0
281
     0
  0
CLASS
  1
IDBUFFER
  2
AcDbIdBuffer
  3
ObjectDBX Classes
 90
        0
 91
       16
280
     0
281
     0
  0
CLASS
  1
AMDTFORMULAUPDATEDISPATCHER
  2
AmdtFormulaUpdateDispatcher
  3
AcMeServices
 90
        0
 91
        3
280
     0
281
     0
  0
CLASS
  1
ACMDATAENTRYPART
  2
AcmDataEntryPart
  3
"AcmSymBB|Product Description: AutoCAD Mechanical 2004 DX|Company: Autodesk"
 90
        0
 91
        3
280
     0
281
     0
  0
CLASS
  1
ACMPARTREF
  2
AcmPartRef
  3
"AcmSymBB|Product Description: AutoCAD Mechanical 2004 DX|Company: Autodesk"
 90
     1023
 91
        3
280
     0
281
     1
  0
CLASS
  1
ACMDATAENTRY
  2
AcmDataEntry
  3
"AcmSymBB|Product Description: AutoCAD Mechanical 2004 DX|Company: Autodesk"
 90
        0
 91
       15
280
     0
281
     0
  0
CLASS
  1
ACMBOM
  2
AcmBom
  3
"AcmSymBB|Product Description: AutoCAD Mechanical 2004 DX|Company: Autodesk"
 90
        0
 91
        6
280
     0
281
     0
  0
CLASS
  1
ACMBOMROW
  2
AcmBomRow
  3
"AcmSymBB|Product Description: AutoCAD Mechanical 2004 DX|Company: Autodesk"
 90
        0
 91
        6
280
     0
281
     0
  0
CLASS
  1
ACMBALLOON
  2
AcmBalloon
  3
"AcmSymBB|Product Description: AutoCAD Mechanical 2004 DX|Company: Autodesk"
 90
     1023
 91
        3
280
     0
281
     1
  0
CLASS
  1
ACMPARTLIST
  2
AcmPartList
  3
"AcmSymBB|Product Description: AutoCAD Mechanical 2004 DX|Company: Autodesk"
 90
     1023
 91
        3
280
     0
281
     1
  0
CLASS
  1
ACDBLINERES
  2
AcDbLineRes
  3
AcGrefServices
 90
        0
 91
        3
280
     0
281
     0
  0
CLASS
  1
ACRFINSADJ
  2
AcRfInsAdjuster
  3
AcMeServices
 90
        0
 91
        3
280
     0
281
     0
  0
CLASS
  1
STDPART2D
  2
AmgStdPart
  3
"AmgStdPart|Product Description: AutoCAD Mechanical 2000|Company: Autodesk"
 90
     1023
 91
        0
280
     0
281
     1
  0
CLASS
  1
ACDBSTDPARTRES_ARC
  2
AcDbStdPartRes_Arc
  3
"AcDbStdPartRes_Arc|Product Description: AutoCAD Mechanical 2000|Company: Autodesk"
 90
        0
 91
        0
280
     0
281
     0
  0
CLASS
  1
ACMPICKOBJ
  2
AcmPickEnt
  3
"AcmSymBB|Product Description: AutoCAD Mechanical 2004 DX|Company: Autodesk"
 90
        0
 91
        0
280
     0
281
     1
  0
CLASS
  1
ACDBSTDPARTRES_LINE
  2
AcDbStdPartRes_Line
  3
"AcDbStdPartRes_Line|Product Description: AutoCAD Mechanical 2000|Company: Autodesk"
 90
        0
 91
        0
280
     0
281
     0
  0
CLASS
  1
AM_DRAWING_MGR
  2
AcDmDwgMgr
  3
AcMechDwgViewMgmt
 90
        0
 91
        3
280
     0
281
     0
  0
CLASS
  1
AM_DWG_DOCUMENT
  2
AcDmDwgDocument
  3
AcMechDwgViewMgmt
 90
        0
 91
        3
280
     0
281
     0
  0
CLASS
  1
AM_DWG_SHEET
  2
AcDmSheet
  3
AcMechDwgViewMgmt
 90
        0
 91
        6
280
     0
281
     0
  0
CLASS
  1
AM_VIEWDIMPARMAP
  2
AcDmViewDimParMap
  3
AcMechDwgViewMgmt
 90
        0
 91
        6
280
     0
281
     0
  0
CLASS
  1
AM_DWGMGR_NAME
  2
AcDmDwgMgrName
  3
AcMechDwgViewMgmt
 90
        0
 91
        3
280
     0
281
     0
  0
CLASS
  1
AMDTMENUSTATEMGR
  2
AmdtMenuStateMgr
  3
McadcomServices
 90
        0
 91
        1
280
     0
281
     0
  0
CLASS
  1
AMDTMCOMMENUSTATE
  2
AmdtMcomMenuState
  3
McadcomServices
 90
        0
 91
        1
280
     0
281
     0
  0
CLASS
  1
MAPIAMMOUDLE
  2
MApiAmModule
  3
MApiAmServices
 90
        0
 91
        3
280
     0
281
     0
  0
CLASS
  1
AMDTADMENUSTATE
  2
AmdtAdMenuState
  3
DesignerServices
 90
        0
 91
        1
280
     0
281
     0
  0
CLASS
  1
ADAPPL
  2
AcAdAppl
  3
DesignerServices
 90
        0
 91
        3
280
     0
281
     0
  0
CLASS
  1
DEPMGR
  2
AcAdDepMgr
  3
DesignerServices
 90
        0
 91
        3
280
     0
281
     0
  0
CLASS
  1
PARAMMGR
  2
AcAdParamMgr
  3
DesignerServices
 90
        0
 91
        3
280
     0
281
     0
  0
CLASS
  1
PARAMSCOPE
  2
AcAdParamScope
  3
DesignerServices
 90
        0
 91
        3
280
     0
281
     0
  0
CLASS
  1
NAMEDAPPL
  2
AcAdNamedAppl
  3
DesignerServices
 90
        0
 91
        3
280
     0
281
     0
  0
CLASS
  1
AMDTDMMENUSTATE
  2
AmdtDmMenuState
  3
AcMechDwgViewMgmt
 90
        0
 91
        1
280
     0
281
     0
  0
CLASS
  1
AMDTAMMENUSTATE
  2
AmdtAmMenuState
  3
DesignerAssemblies
 90
        0
 91
        1
280
     0
281
     0
  0
CLASS
  1
ACAMPROJECT
  2
AcAmProject
  3
DesignerAssemblies
 90
        0
 91
        3
280
     0
281
     0
  0
CLASS
  1
ACAMGRCOMPDEF
  2
AcAmGrCompDef
  3
DesignerAssemblies
 90
        0
 91
        3
280
     0
281
     0
  0
CLASS
  1
ACCMCONTEXT
  2
AcCmContext
  3
DesignerAssemblies
 90
        0
 91
        3
280
     0
281
     0
  0
CLASS
  1
ACAMCOMPDEF
  2
AcAmCompDef
  3
DesignerAssemblies
 90
        0
 91
        3
280
     0
281
     0
  0
CLASS
  1
ACAMCOMPDEFMGR
  2
AcAmCompDefMgr
  3
DesignerAssemblies
 90
        0
 91
        3
280
     0
281
     0
  0
CLASS
  1
AMCONTEXTMGR
  2
AcAmContextMgr
  3
DesignerAssemblies
 90
        0
 91
        3
280
     0
281
     0
  0
CLASS
  1
ACAMCONTEXTMODELER
  2
AcAmContextModeler
  3
DesignerAssemblies
 90
        0
 91
        3
280
     0
281
     0
  0
CLASS
  1
ACMTHREADLINESTANDARDJIS
  2
AmdtThreadLineStdJIS
  3
"Amdt_StdImp|Product Description: AutoCAD Mechanical 2004 DX|Company: Autodesk"
 90
        0
 91
        3
280
     0
281
     0
  0
CLASS
  1
ACMNOTESTANDARDJIS
  2
AmdtNoteStdJIS
  3
"Amdt_StdImp|Product Description: AutoCAD Mechanical 2004 DX|Company: Autodesk"
 90
        0
 91
        3
280
     0
281
     0
  0
CLASS
  1
AMDTNOTETEMPLATEDB
  2
AmdtNoteTemplateDB
  3
AMDT_STDIMP_MODULE_NAME
 90
        0
 91
       36
280
     0
281
     0
  0
CLASS
  1
ACMTHREADLINESTANDARDISO
  2
AmdtThreadLineStdISO
  3
"Amdt_StdImp|Product Description: AutoCAD Mechanical 2004 DX|Company: Autodesk"
 90
        0
 91
        3
280
     0
281
     0
  0
CLASS
  1
ACMNOTESTANDARDISO
  2
AmdtNoteStdISO
  3
"Amdt_StdImp|Product Description: AutoCAD Mechanical 2004 DX|Company: Autodesk"
 90
        0
 91
        3
280
     0
281
     0
  0
CLASS
  1
CATALOGSTATE
  2
AcAmCatalogState
  3
DesignerAssemblies
 90
        0
 91
        3
280
     0
281
     0
  0
CLASS
  1
ACAMGRCOMPDEFSET
  2
AcAmGrCompDefSet
  3
DesignerAssemblies
 90
        0
 91
        1
280
     0
281
     0
  0
CLASS
  1
AMDTBROWSERDBTAB
  2
AmdtBrowserDbTab
  3
McadcomServices
 90
        0
 91
        1
280
     0
281
     0
  0
CLASS
  1
CBROWSERAPPOBJECT
  2
CBrowserAppObject
  3
McadcomServices
 90
        0
 91
        3
280
     0
281
     0
  0
CLASS
  1
DM_PLACEHOLDER
  2
AcDmSelsetPlaceholder
  3
AcMechDwgViewMgmt
 90
        0
 91
        1
280
     0
281
     0
  0
CLASS
  1
ACMSTANDARDANSI
  2
AcmStandardANSI
  3
"Amdt_StdImp|Product Description: AutoCAD Mechanical 2004 DX|Company: Autodesk"
 90
        0
 91
        3
280
     0
281
     0
  0
CLASS
  1
ACMSURFSTANDARDANSI
  2
AcmSurfTextStdANSI
  3
"Amdt_StdImp|Product Description: AutoCAD Mechanical 2004 DX|Company: Autodesk"
 90
        0
 91
        3
280
     0
281
     0
  0
CLASS
  1
ACMFCFSTANDARDANSI
  2
AcmFCFStdANSI
  3
"Amdt_StdImp|Product Description: AutoCAD Mechanical 2004 DX|Company: Autodesk"
 90
        0
 91
        3
280
     0
281
     0
  0
CLASS
  1
ACMWELDSTANDARDANSI
  2
AcmWeldingStdANSI
  3
"Amdt_StdImp|Product Description: AutoCAD Mechanical 2004 DX|Company: Autodesk"
 90
        0
 91
        3
280
     0
281
     0
  0
CLASS
  1
ACMIDSTANDARDANSI
  2
AcmIdStdANSI
  3
"Amdt_StdImp|Product Description: AutoCAD Mechanical 2004 DX|Company: Autodesk"
 90
        0
 91
        3
280
     0
281
     0
  0
CLASS
  1
ACMDATUMSTANDARDANSI
  2
AcmDatumStdANSI
  3
"Amdt_StdImp|Product Description: AutoCAD Mechanical 2004 DX|Company: Autodesk"
 90
        0
 91
        3
280
     0
281
     0
  0
CLASS
  1
ACMBOMSTANDARDANSI
  2
AcmBOMStdANSI
  3
"Amdt_StdImp|Product Description: AutoCAD Mechanical 2004 DX|Company: Autodesk"
 90
        0
 91
        3
280
     0
281
     0
  0
CLASS
  1
ACMDETAILSTANDARDANSI
  2
AmdtDetailSymStdANSI
  3
"Amdt_StdImp|Product Description: AutoCAD Mechanical 2004 DX|Company: Autodesk"
 90
        0
 91
        3
280
     0
281
     0
  0
CLASS
  1
ACMSECTIONSTANDARDANSI
  2
AmdtSectionSymStdANSI
  3
"Amdt_StdImp|Product Description: AutoCAD Mechanical 2004 DX|Company: Autodesk"
 90
        0
 91
        3
280
     0
281
     0
  0
CLASS
  1
ACMCENTERLINESTANDARDANSI
  2
AmdtCenterLineStdANSI
  3
"Amdt_StdImp|Product Description: AutoCAD Mechanical 2004 DX|Company: Autodesk"
 90
        0
 91
        3
280
     0
281
     0
  0
CLASS
  1
ACMTHREADLINESTANDARDANSI
  2
AmdtThreadLineStdANSI
  3
"Amdt_StdImp|Product Description: AutoCAD Mechanical 2004 DX|Company: Autodesk"
 90
        0
 91
        3
280
     0
281
     0
  0
CLASS
  1
ACMNOTESTANDARDANSI
  2
AmdtNoteStdANSI
  3
"Amdt_StdImp|Product Description: AutoCAD Mechanical 2004 DX|Company: Autodesk"
 90
        0
 91
        3
280
     0
281
     0
  0
ENDSEC
  0
SECTION
  2
TABLES
  0
TABLE
  2
VPORT
  5
8
330
0
100
AcDbSymbolTable
 70
     3
  0
VPORT
  5
181A
330
8
100
AcDbSymbolTableRecord
100
AcDbViewportTableRecord
  2
*Active
 70
     0
 10
0.0
 20
0.0
 11
1.0
 21
1.0
 12
2125.878710307565
 22
1485.008064699112
 13
0.0
 23
0.0
 14
25.0
 24
25.0
 15
100.0
 25
100.0
 16
0.0
 26
0.0
 36
1.0
 17
0.0
 27
0.0
 37
0.0
 40
2992.376364749571
 41
1.498730964467005
 42
50.0
 43
0.0
 44
0.0
 50
0.0
 51
0.0
 71
    16
 72
   100
 73
     1
 74
     3
 75
     0
 76
     0
 77
     0
 78
     0
281
     0
 65
     1
110
0.0
120
0.0
130
0.0
111
1.0
121
0.0
131
0.0
112
0.0
122
1.0
132
0.0
 79
     0
146
0.0
  0
ENDTAB
  0
TABLE
  2
LTYPE
  5
5
330
0
100
AcDbSymbolTable
 70
    19
  0
LTYPE
  5
14
330
5
100
AcDbSymbolTableRecord
100
AcDbLinetypeTableRecord
  2
ByBlock
 70
     0
  3

 72
    65
 73
     0
 40
0.0
  0
LTYPE
  5
15
330
5
100
AcDbSymbolTableRecord
100
AcDbLinetypeTableRecord
  2
ByLayer
 70
     0
  3

 72
    65
 73
     0
 40
0.0
  0
LTYPE
  5
16
330
5
100
AcDbSymbolTableRecord
100
AcDbLinetypeTableRecord
  2
Continuous
 70
     0
  3
Solid line
 72
    65
 73
     0
 40
0.0
  0
LTYPE
  5
35
330
5
100
AcDbSymbolTableRecord
100
AcDbLinetypeTableRecord
  2
AM_ISO02W050
 70
     0
  3
__ __ __ __ __ __ __ __ __ __ __ __ __ __ __
 72
    65
 73
     2
 40
7.5
 49
6.0
 74
     0
 49
-1.5
 74
     0
  0
LTYPE
  5
36
330
5
100
AcDbSymbolTableRecord
100
AcDbLinetypeTableRecord
  2
AM_ISO08W050
 70
     0
  3
____ . ____ . ____ . ____ . ____ . ____ . ____
 72
    65
 73
     4
 40
18.0
 49
12.0
 74
     0
 49
-1.5
 74
     0
 49
3.0
 74
     0
 49
-1.5
 74
     0
  0
LTYPE
  5
37
330
5
100
AcDbSymbolTableRecord
100
AcDbLinetypeTableRecord
  2
AM_ISO09W050
 70
     0
  3
_____ . . _____ . . _____ . . ____ .. ____
 72
    65
 73
     6
 40
22.5
 49
12.0
 74
     0
 49
-1.5
 74
     0
 49
3.0
 74
     0
 49
-1.5
 74
     0
 49
3.0
 74
     0
 49
-1.5
 74
     0
  0
LTYPE
  5
38
330
5
100
AcDbSymbolTableRecord
100
AcDbLinetypeTableRecord
  2
Amconstr
 70
     0
  3
_______________________
 72
    65
 73
     2
 40
9999.0
 49
9999.0
 74
     0
 49
0.0
 74
     0
  0
LTYPE
  5
39
330
5
100
AcDbSymbolTableRecord
100
AcDbLinetypeTableRecord
  2
AM_ISO08W050x2
 70
     0
  3
__ . __ . __ . __ . __ . __
 72
    65
 73
     4
 40
9.0
 49
6.0
 74
     0
 49
-0.75
 74
     0
 49
1.5
 74
     0
 49
-0.75
 74
     0
  0
LTYPE
  5
3A
330
5
100
AcDbSymbolTableRecord
100
AcDbLinetypeTableRecord
  2
AM_ISO02W050x2
 70
     0
  3
 _ _ _ _ _ _ _ _ _ _ _ _
 72
    65
 73
     2
 40
3.75
 49
3.0
 74
     0
 49
-0.75
 74
     0
  0
LTYPE
  5
3B
330
5
100
AcDbSymbolTableRecord
100
AcDbLinetypeTableRecord
  2
Amzigzag
 70
     0
  3
/\/-/\/-/\/-/\/-/\/-/\/
 72
    65
 73
     2
 40
11.0001
 49
0.0001
 74
     4
 75
   135
340
3C
 46
0.04
 50
0.0
 44
0.0
 45
0.0
 49
-11.0
 74
     0
  0
LTYPE
  5
64
330
5
100
AcDbSymbolTableRecord
100
AcDbLinetypeTableRecord
  2
ACJISTGB
 70
     0
  3
__ . . __ . .
 72
    65
 73
     6
 40
9.0
 49
4.0
 74
     0
 49
-1.0
 74
     0
 49
1.0
 74
     0
 49
-1.0
 74
     0
 49
1.0
 74
     0
 49
-1.0
 74
     0
  0
LTYPE
  5
65
330
5
100
AcDbSymbolTableRecord
100
AcDbLinetypeTableRecord
  2
ACJISTGL
 70
     0
  3
_ _ _ _ _
 72
    65
 73
     2
 40
3.0
 49
2.0
 74
     0
 49
-1.0
 74
     0
  0
LTYPE
  5
69
330
5
100
AcDbSymbolTableRecord
100
AcDbLinetypeTableRecord
  2
CENTER
 70
     0
  3
__ . __
 72
    65
 73
     4
 40
7.0
 49
4.0
 74
     0
 49
-1.0
 74
     0
 49
1.0
 74
     0
 49
-1.0
 74
     0
  0
LTYPE
  5
8F
330
5
100
AcDbSymbolTableRecord
100
AcDbLinetypeTableRecord
  2
ACISOWELD
 70
     0
  3
_ _ _ _ _
 72
    65
 73
     2
 40
2.0
 49
2.0
 74
     0
 49
-1.0
 74
     0
  0
LTYPE
  5
92
330
5
100
AcDbSymbolTableRecord
100
AcDbLinetypeTableRecord
  2
ACISOTGB
 70
     0
  3
__ . . __ . .
 72
    65
 73
     6
 40
9.0
 49
4.0
 74
     0
 49
-1.0
 74
     0
 49
1.0
 74
     0
 49
-1.0
 74
     0
 49
1.0
 74
     0
 49
-1.0
 74
     0
  0
LTYPE
  5
93
330
5
100
AcDbSymbolTableRecord
100
AcDbLinetypeTableRecord
  2
ACISOTGL
 70
     0
  3
_ _ _ _ _
 72
    65
 73
     2
 40
3.0
 49
2.0
 74
     0
 49
-1.0
 74
     0
  0
LTYPE
  5
309
330
5
100
AcDbSymbolTableRecord
100
AcDbLinetypeTableRecord
  2
HIDDEN
 70
     0
  3
_ _ _ _ _ _ _ _ _ _ _ _ _ _ _ _ _ _ _ _ _ _ _
 72
    65
 73
     2
 40
1.5
 49
1.0
 74
     0
 49
-0.5
 74
     0
  0
LTYPE
  5
30F
330
5
100
AcDbSymbolTableRecord
100
AcDbLinetypeTableRecord
  2
GEN7A
 70
     0
  3
__ . __ . __
 72
    65
 73
     4
 40
6.875
 49
5.0
 74
     0
 49
-0.625
 74
     0
 49
0.625
 74
     0
 49
-0.625
 74
     0
  0
LTYPE
  5
9B5
330
5
100
AcDbSymbolTableRecord
100
AcDbLinetypeTableRecord
  2
PHANTOM2
 70
     0
  3
Phantom (.5x) ___ _ _ ___ _ _ ___ _ _ ___ _ _
 72
    65
 73
     6
 40
31.75
 49
15.875
 74
     0
 49
-3.174999999999999
 74
     0
 49
3.174999999999999
 74
     0
 49
-3.174999999999999
 74
     0
 49
3.174999999999999
 74
     0
 49
-3.174999999999999
 74
     0
  0
LTYPE
  5
AEB
330
5
100
AcDbSymbolTableRecord
100
AcDbLinetypeTableRecord
  2
ACANSTGB
 70
     0
  3
__ . . __ . .
 72
    65
 73
     6
 40
0.35433070866
 49
0.15748031496
 74
     0
 49
-0.03937007874
 74
     0
 49
0.03937007874
 74
     0
 49
-0.03937007874
 74
     0
 49
0.03937007874
 74
     0
 49
-0.03937007874
 74
     0
  0
LTYPE
  5
AEC
330
5
100
AcDbSymbolTableRecord
100
AcDbLinetypeTableRecord
  2
ACANSTGL
 70
     0
  3
_ _ _ _ _
 72
    65
 73
     2
 40
0.11811023622
 49
0.07874015748
 74
     0
 49
-0.03937007874
 74
     0
  0
ENDTAB
  0
TABLE
  2
LAYER
  5
2
102
{ACAD_XDICTIONARY
360
13EB
102
}
330
0
100
AcDbSymbolTable
 70
    16
  0
LAYER
  5
10
330
2
100
AcDbSymbolTableRecord
100
AcDbLayerTableRecord
  2
0
 70
     0
 62
     7
  6
Continuous
370
    -3
390
F
  0
LAYER
  5
F5
330
2
100
AcDbSymbolTableRecord
100
AcDbLayerTableRecord
  2
RAHM2
 70
     0
 62
     1
  6
Continuous
370
    -3
390
F
  0
LAYER
  5
1EF
330
2
100
AcDbSymbolTableRecord
100
AcDbLayerTableRecord
  2
AM_BOR
 70
     0
 62
     7
  6
Continuous
370
    50
390
F
  0
LAYER
  5
310
330
2
100
AcDbSymbolTableRecord
100
AcDbLayerTableRecord
  2
RAHM3
 70
     0
 62
     2
  6
Continuous
370
    -3
390
F
  0
LAYER
  5
312
330
2
100
AcDbSymbolTableRecord
100
AcDbLayerTableRecord
  2
1
 70
     0
 62
     7
  6
Continuous
370
    -3
390
F
  0
LAYER
  5
313
330
2
100
AcDbSymbolTableRecord
100
AcDbLayerTableRecord
  2
DEFPOINTS
 70
     0
 62
     7
  6
Continuous
290
     0
370
    -3
390
F
  0
LAYER
  5
316
330
2
100
AcDbSymbolTableRecord
100
AcDbLayerTableRecord
  2
7A
 70
     0
 62
     4
  6
GEN7A
370
    -3
390
F
  0
LAYER
  5
EF8
330
2
100
AcDbSymbolTableRecord
100
AcDbLayerTableRecord
  2
AM_5
 70
     0
 62
     3
  6
Continuous
370
    25
390
F
  0
LAYER
  5
1230
330
2
100
AcDbSymbolTableRecord
100
AcDbLayerTableRecord
  2
AM_7
 70
     0
 62
     4
  6
AM_ISO08W050
370
    25
390
F
  0
LAYER
  5
126A
330
2
100
AcDbSymbolTableRecord
100
AcDbLayerTableRecord
  2
AM_3
 70
     0
 62
     6
  6
AM_ISO02W050
370
    25
390
F
  0
LAYER
  5
13DB
330
2
100
AcDbSymbolTableRecord
100
AcDbLayerTableRecord
  2
AM_12
 70
     0
 62
     7
  6
Continuous
290
     0
370
    50
390
F
  0
LAYER
  5
13DC
330
2
100
AcDbSymbolTableRecord
100
AcDbLayerTableRecord
  2
AM_PAREF
 70
     0
 62
     4
  6
Continuous
290
     0
370
    25
390
F
  0
LAYER
  5
13E9
330
2
100
AcDbSymbolTableRecord
100
AcDbLayerTableRecord
  2
6
 70
     0
 62
     2
  6
Continuous
370
    -3
390
F
  0
LAYER
  5
13EA
330
2
100
AcDbSymbolTableRecord
100
AcDbLayerTableRecord
  2
TEXT
 70
     0
 62
     7
  6
Continuous
370
    -3
390
F
  0
LAYER
  5
14EF
330
2
100
AcDbSymbolTableRecord
100
AcDbLayerTableRecord
  2
AM_CL
 70
     0
 62
     1
  6
Amconstr
370
    25
390
F
  0
LAYER
  5
15A7
330
2
100
AcDbSymbolTableRecord
100
AcDbLayerTableRecord
  2
AM_0
 70
     0
 62
     7
  6
Continuous
370
    50
390
F
  0
ENDTAB
  0
TABLE
  2
STYLE
  5
3
330
0
100
AcDbSymbolTable
 70
     9
  0
STYLE
  5
11
330
3
100
AcDbSymbolTableRecord
100
AcDbTextStyleTableRecord
  2
STANDARD
 70
     0
 40
0.0
 41
1.0
 50
0.0
 71
     0
 42
2.5
  3
ISOCP.SHX
  4
EXTFONT.SHX
  0
STYLE
  5
3C
330
3
100
AcDbSymbolTableRecord
100
AcDbTextStyleTableRecord
  2

 70
     1
 40
0.0
 41
1.0
 50
0.0
 71
     0
 42
2.5
  3
ltypeshp.shx
  4

  0
STYLE
  5
5D
330
3
100
AcDbSymbolTableRecord
100
AcDbTextStyleTableRecord
  2
ACJISTS
 70
     0
 40
1.0
 41
1.0
 50
0.0
 71
     0
 42
2.5
  3
isocp.shx
  4
extfont.shx
  0
STYLE
  5
60
330
3
100
AcDbSymbolTableRecord
100
AcDbTextStyleTableRecord
  2
ACJISGDT
 70
     0
 40
0.0
 41
1.0
 50
0.0
 71
     0
 42
2.5
  3
amgdt.shx
  4

  0
STYLE
  5
89
330
3
100
AcDbSymbolTableRecord
100
AcDbTextStyleTableRecord
  2
ACISOTS
 70
     0
 40
1.0
 41
1.0
 50
0.0
 71
     0
 42
2.5
  3
isocp.shx
  4
extfont.shx
  0
STYLE
  5
8D
330
3
100
AcDbSymbolTableRecord
100
AcDbTextStyleTableRecord
  2
ACISOGDT
 70
     0
 40
0.0
 41
1.0
 50
0.0
 71
     0
 42
2.5
  3
amgdt.shx
  4

  0
STYLE
  5
AED
330
3
100
AcDbSymbolTableRecord
100
AcDbTextStyleTableRecord
  2
MDRAFSTD
 70
     0
 40
0.0
 41
1.0
 50
0.0
 71
     0
 42
40.0
  3
TXT
  4
BIGFONT
  0
STYLE
  5
AEE
330
3
100
AcDbSymbolTableRecord
100
AcDbTextStyleTableRecord
  2
ACANSTS
 70
     0
 40
1.0
 41
1.0
 50
0.0
 71
     0
 42
40.0
  3
romans.shx
  4
extfont.shx
  0
STYLE
  5
AEF
330
3
100
AcDbSymbolTableRecord
100
AcDbTextStyleTableRecord
  2
ACANSGDT
 70
     0
 40
0.0
 41
1.0
 50
0.0
 71
     0
 42
40.0
  3
amgdtans.shx
  4

  0
ENDTAB
  0
TABLE
  2
VIEW
  5
6
330
0
100
AcDbSymbolTable
 70
     6
  0
VIEW
  5
3C5
330
6
100
AcDbSymbolTableRecord
100
AcDbViewTableRecord
  2
AM_VIEW1
 70
     0
 40
1485.0
 10
5664.421455266569
 20
2226.291974064405
 41
2346.140035906643
 11
0.0
 21
0.0
 31
1.0
 12
0.0
 22
0.0
 32
0.0
 42
50.0
 43
0.0
 44
0.0
 50
0.0
 71
    16
281
     0
 72
     0
  0
VIEW
  5
3C6
330
6
100
AcDbSymbolTableRecord
100
AcDbViewTableRecord
  2
AM_VIEW2
 70
     0
 40
1485.0
 10
7518.281419359926
 20
2226.291974064405
 41
2346.140035906643
 11
0.0
 21
0.0
 31
1.0
 12
0.0
 22
0.0
 32
0.0
 42
50.0
 43
0.0
 44
0.0
 50
0.0
 71
    16
281
     0
 72
     0
  0
VIEW
  5
3C7
330
6
100
AcDbSymbolTableRecord
100
AcDbViewTableRecord
  2
AM_VIEW3
 70
     0
 40
1485.0
 10
5664.421455266569
 20
741.2919740644047
 41
2346.140035906643
 11
0.0
 21
0.0
 31
1.0
 12
0.0
 22
0.0
 32
0.0
 42
50.0
 43
0.0
 44
0.0
 50
0.0
 71
    16
281
     0
 72
     0
  0
VIEW
  5
3C8
330
6
100
AcDbSymbolTableRecord
100
AcDbViewTableRecord
  2
AM_VIEW4
 70
     0
 40
1485.0
 10
7518.281419359926
 20
741.2919740644047
 41
2346.140035906643
 11
0.0
 21
0.0
 31
1.0
 12
0.0
 22
0.0
 32
0.0
 42
50.0
 43
0.0
 44
0.0
 50
0.0
 71
    16
281
     0
 72
     0
  0
VIEW
  5
3C9
330
6
100
AcDbSymbolTableRecord
100
AcDbViewTableRecord
  2
AM_VIEW5
 70
     0
 40
1485.0
 10
6591.351437313247
 20
1483.791974064405
 41
2346.140035906643
 11
0.0
 21
0.0
 31
1.0
 12
0.0
 22
0.0
 32
0.0
 42
50.0
 43
0.0
 44
0.0
 50
0.0
 71
    16
281
     0
 72
     0
  0
VIEW
  5
3CA
330
6
100
AcDbSymbolTableRecord
100
AcDbViewTableRecord
  2
AM_VIEW6
 70
     0
 40
2969.9703
 10
6591.351437313247
 20
1483.791974064405
 41
4692.233149012569
 11
0.0
 21
0.0
 31
1.0
 12
0.0
 22
0.0
 32
0.0
 42
50.0
 43
0.0
 44
0.0
 50
0.0
 71
    16
281
     0
 72
     0
  0
ENDTAB
  0
TABLE
  2
UCS
  5
7
330
0
100
AcDbSymbolTable
 70
     0
  0
ENDTAB
  0
TABLE
  2
APPID
  5
9
330
0
100
AcDbSymbolTable
 70
    48
  0
APPID
  5
12
330
9
100
AcDbSymbolTableRecord
100
AcDbRegAppTableRecord
  2
ACAD
 70
     0
  0
APPID
  5
2D
330
9
100
AcDbSymbolTableRecord
100
AcDbRegAppTableRecord
  2
MCAD_NO_VIS
 70
     0
  0
APPID
  5
2E
330
9
100
AcDbSymbolTableRecord
100
AcDbRegAppTableRecord
  2
ACAD_TEMP_GRAPHIC
 70
     0
  0
APPID
  5
2F
330
9
100
AcDbSymbolTableRecord
100
AcDbRegAppTableRecord
  2
ACATTRIBSERVICES
 70
     0
  0
APPID
  5
1F0
330
9
100
AcDbSymbolTableRecord
100
AcDbRegAppTableRecord
  2
GENIUS_GENBLLY_14
 70
     0
  0
APPID
  5
321
330
9
100
AcDbSymbolTableRecord
100
AcDbRegAppTableRecord
  2
GENIUS_GENCFG_13
 70
     0
  0
APPID
  5
322
330
9
100
AcDbSymbolTableRecord
100
AcDbRegAppTableRecord
  2
GENIUS_GENOBJ_13
 70
     0
  0
APPID
  5
323
330
9
100
AcDbSymbolTableRecord
100
AcDbRegAppTableRecord
  2
GENIUS_GENODEF_13
 70
     0
  0
APPID
  5
324
330
9
100
AcDbSymbolTableRecord
100
AcDbRegAppTableRecord
  2
GENIUS_GENOENT_13
 70
     0
  0
APPID
  5
325
330
9
100
AcDbSymbolTableRecord
100
AcDbRegAppTableRecord
  2
GENIUS_GENOLIS_13
 70
     0
  0
APPID
  5
326
330
9
100
AcDbSymbolTableRecord
100
AcDbRegAppTableRecord
  2
GENIUS_GENOREF_13
 70
     0
  0
APPID
  5
327
330
9
100
AcDbSymbolTableRecord
100
AcDbRegAppTableRecord
  2
GENIUS_GENOBJ-N-TIT_13
 70
     0
  0
APPID
  5
328
330
9
100
AcDbSymbolTableRecord
100
AcDbRegAppTableRecord
  2
GENIUS_GENTITLE_13
 70
     0
  0
APPID
  5
329
330
9
100
AcDbSymbolTableRecord
100
AcDbRegAppTableRecord
  2
GENIUS_GENZVEED_13
 70
     0
  0
APPID
  5
32A
330
9
100
AcDbSymbolTableRecord
100
AcDbRegAppTableRecord
  2
GENIUS_GENOBJ-N-SDF_13
 70
     0
  0
APPID
  5
32B
330
9
100
AcDbSymbolTableRecord
100
AcDbRegAppTableRecord
  2
GENIUS_GENSCREG_13
 70
     0
  0
APPID
  5
32C
330
9
100
AcDbSymbolTableRecord
100
AcDbRegAppTableRecord
  2
GENIUS_GENCFG0_13
 70
     0
  0
APPID
  5
32D
330
9
100
AcDbSymbolTableRecord
100
AcDbRegAppTableRecord
  2
GENIUS_GENCFG1_13
 70
     0
  0
APPID
  5
32E
330
9
100
AcDbSymbolTableRecord
100
AcDbRegAppTableRecord
  2
GENIUS_GENCFG2_13
 70
     0
  0
APPID
  5
32F
330
9
100
AcDbSymbolTableRecord
100
AcDbRegAppTableRecord
  2
GENIUS_GENCFG3_13
 70
     0
  0
APPID
  5
330
330
9
100
AcDbSymbolTableRecord
100
AcDbRegAppTableRecord
  2
GENIUS_GENCFG4_13
 70
     0
  0
APPID
  5
331
330
9
100
AcDbSymbolTableRecord
100
AcDbRegAppTableRecord
  2
GENIUS_GEVCFG0_13
 70
     0
  0
APPID
  5
332
330
9
100
AcDbSymbolTableRecord
100
AcDbRegAppTableRecord
  2
GENIUS_GENOBJ-N-CRS_13
 70
     0
  0
APPID
  5
333
330
9
100
AcDbSymbolTableRecord
100
AcDbRegAppTableRecord
  2
GENIUS_GENOBJ-N-CEN_13
 70
     0
  0
APPID
  5
334
330
9
100
AcDbSymbolTableRecord
100
AcDbRegAppTableRecord
  2
GENIUS_GEFCFG0_13
 70
     0
  0
APPID
  5
3BA
330
9
100
AcDbSymbolTableRecord
100
AcDbRegAppTableRecord
  2
GENIUS_GENTRA_14
 70
     0
  0
APPID
  5
3CB
330
9
100
AcDbSymbolTableRecord
100
AcDbRegAppTableRecord
  2
GENIUS_GENSCREG_15
 70
     0
  0
APPID
  5
436
330
9
100
AcDbSymbolTableRecord
100
AcDbRegAppTableRecord
  2
GEVID984623613
 70
     0
  0
APPID
  5
437
330
9
100
AcDbSymbolTableRecord
100
AcDbRegAppTableRecord
  2
GEVDC
 70
     0
  0
APPID
  5
438
330
9
100
AcDbSymbolTableRecord
100
AcDbRegAppTableRecord
  2
GEVCON
 70
     0
  0
APPID
  5
43C
330
9
100
AcDbSymbolTableRecord
100
AcDbRegAppTableRecord
  2
GENIUS_GENBH_13
 70
     0
  0
APPID
  5
43E
330
9
100
AcDbSymbolTableRecord
100
AcDbRegAppTableRecord
  2
GENIUS_GENOBJ-NBEHI-BHF_13
 70
     0
  0
APPID
  5
440
330
9
100
AcDbSymbolTableRecord
100
AcDbRegAppTableRecord
  2
GENIUS_GENOBJ-NBEHI-BHB_13
 70
     0
  0
APPID
  5
455
330
9
100
AcDbSymbolTableRecord
100
AcDbRegAppTableRecord
  2
GENIUS_GENOBJ-F-SCPASSM_13
 70
     0
  0
APPID
  5
47B
330
9
100
AcDbSymbolTableRecord
100
AcDbRegAppTableRecord
  2
GEVID984623614
 70
     0
  0
APPID
  5
48B
330
9
100
AcDbSymbolTableRecord
100
AcDbRegAppTableRecord
  2
GEVID984623615
 70
     0
  0
APPID
  5
54A
330
9
100
AcDbSymbolTableRecord
100
AcDbRegAppTableRecord
  2
GENIUS_GENOBJ-N-REV_13
 70
     0
  0
APPID
  5
54B
330
9
100
AcDbSymbolTableRecord
100
AcDbRegAppTableRecord
  2
GENIUS_GENOBJ-N-RSSYM_13
 70
     0
  0
APPID
  5
54C
330
9
100
AcDbSymbolTableRecord
100
AcDbRegAppTableRecord
  2
GENIUS_GENSYMENT_13
 70
     0
  0
APPID
  5
54D
330
9
100
AcDbSymbolTableRecord
100
AcDbRegAppTableRecord
  2
GENIUS_GENSCSYM_13
 70
     0
  0
APPID
  5
943
330
9
100
AcDbSymbolTableRecord
100
AcDbRegAppTableRecord
  2
DCO15
 70
     0
  0
APPID
  5
9B7
330
9
100
AcDbSymbolTableRecord
100
AcDbRegAppTableRecord
  2
AD_DRAW
 70
     0
  0
APPID
  5
9D5
330
9
100
AcDbSymbolTableRecord
100
AcDbRegAppTableRecord
  2
DESIGNERASSEMBLIES
 70
     0
  0
APPID
  5
9E5
330
9
100
AcDbSymbolTableRecord
100
AcDbRegAppTableRecord
  2
ACADM_DIM_EDIT
 70
     0
  0
APPID
  5
9E6
330
9
100
AcDbSymbolTableRecord
100
AcDbRegAppTableRecord
  2
AMDT_DM_ADJ
 70
     0
  0
APPID
  5
FD6
330
9
100
AcDbSymbolTableRecord
100
AcDbRegAppTableRecord
  2
GENIUS_GENDIMSH_14
 70
     0
  0
APPID
  5
14E7
330
9
100
AcDbSymbolTableRecord
100
AcDbRegAppTableRecord
  2
GENIUS_GENREC_14
 70
     0
  0
APPID
  5
14E8
330
9
100
AcDbSymbolTableRecord
100
AcDbRegAppTableRecord
  2
GENIUS_GENOBJ-N-REC_13
 70
     0
  0
ENDTAB
  0
TABLE
  2
DIMSTYLE
  5
A
330
0
100
AcDbSymbolTable
 70
    21
100
AcDbDimStyleTable
 71
     1
340
76
  0
DIMSTYLE
105
76
102
{ACAD_REACTORS
330
F07
330
1053
330
1079
330
10C9
330
10E6
330
1133
330
116E
330
1194
330
11AE
330
1203
330
1241
330
162C
330
1652
330
167F
330
16AA
102
}
330
A
100
AcDbSymbolTableRecord
100
AcDbDimStyleTableRecord
  2
IGS
 70
     0
  4
"
 40
10.0
 41
2.5
 42
1.0
 43
10.0
 44
1.0
 47
0.1
 48
0.1
 73
     0
 74
     0
 77
     3
 78
     8
 79
     2
140
4.5
141
0.0
143
0.0393701
146
0.71
147
1.5
172
     1
176
   256
177
   256
178
     2
271
     2
272
     2
283
     0
284
     8
340
11
341
77
342
77
371
    -1
372
    -1
  0
DIMSTYLE
105
7D
330
A
100
AcDbSymbolTableRecord
100
AcDbDimStyleTableRecord
  2
IGS$3
 70
     0
  4
"
 40
10.0
 41
2.5
 42
1.0
 43
10.0
 44
1.0
 47
0.1
 48
0.1
 73
     0
 77
     3
 78
     8
 79
     2
140
4.5
141
0.0
143
0.0393701
146
0.71
147
1.5
176
   256
177
   256
178
     2
271
     2
272
     2
283
     0
284
     8
288
     1
289
     0
340
11
341
77
342
77
371
    -1
372
    -1
  0
DIMSTYLE
105
7E
330
A
100
AcDbSymbolTableRecord
100
AcDbDimStyleTableRecord
  2
IGS$4
 70
     0
  4
"
 40
10.0
 41
2.5
 42
1.0
 43
10.0
 44
1.0
 47
0.1
 48
0.1
 73
     0
 77
     3
 78
     8
 79
     2
140
4.5
141
0.0
143
0.0393701
146
0.71
147
1.5
176
   256
177
   256
178
     2
271
     2
272
     2
283
     0
284
     8
288
     1
289
     0
340
11
341
77
342
77
371
    -1
372
    -1
  0
DIMSTYLE
105
7F
330
A
100
AcDbSymbolTableRecord
100
AcDbDimStyleTableRecord
  2
IGS$6
 70
     0
  4
"
 40
10.0
 41
2.5
 42
1.0
 43
10.0
 44
1.0
 47
0.1
 48
0.1
 73
     0
 74
     0
 78
     8
 79
     2
140
4.5
141
0.0
143
0.0393701
146
0.71
147
1.5
172
     1
176
   256
177
   256
178
     2
271
     2
272
     2
283
     0
284
     8
340
11
341
77
342
77
371
    -1
372
    -1
  0
DIMSTYLE
105
80
330
A
100
AcDbSymbolTableRecord
100
AcDbDimStyleTableRecord
  2
IGS$7
 70
     0
  4
"
 40
10.0
 41
2.5
 42
1.0
 43
10.0
 44
1.0
 47
0.1
 48
0.1
 73
     0
 74
     0
 77
     3
 78
     8
 79
     2
140
5.0
141
0.0
143
0.0393701
146
0.71
147
1.5
172
     1
176
   256
177
   256
178
     2
271
     2
272
     2
283
     0
284
     8
340
11
341
77
342
77
371
    -1
372
    -1
  0
DIMSTYLE
105
81
330
A
100
AcDbSymbolTableRecord
100
AcDbDimStyleTableRecord
  2
IGS$SF
 70
     0
  4
"
 40
10.0
 41
2.5
 42
1.0
 43
10.0
 44
1.0
 47
0.1
 48
0.1
 73
     0
 74
     0
 75
     1
 76
     1
 77
     3
 78
     8
 79
     2
140
3.5
141
0.0
143
0.0393701
146
0.71
147
1.5
172
     1
176
   256
177
   256
178
     2
271
     2
272
     3
274
     4
283
     0
284
     8
340
11
341
77
342
77
343
77
344
77
371
    -1
372
    -1
  0
DIMSTYLE
105
82
330
A
100
AcDbSymbolTableRecord
100
AcDbDimStyleTableRecord
  2
IGS$SH
 70
     0
  4
"
 40
10.0
 41
2.5
 42
1.0
 43
10.0
 44
1.0
 47
0.1
 48
0.1
 73
     0
 74
     0
 75
     1
 76
     1
 77
     3
 78
     8
 79
     2
140
3.5
141
0.0
143
0.0393701
144
2.0
146
0.71
147
1.5
172
     1
173
     1
176
   256
177
   256
178
     2
271
     2
272
     3
274
     4
283
     0
284
     8
340
11
341
77
342
77
343
83
344
77
371
    -1
372
    -1
  0
DIMSTYLE
105
9A
330
A
100
AcDbSymbolTableRecord
100
AcDbDimStyleTableRecord
  2
AM_ISO
 70
     0
  4
"
 40
10.0
 41
2.5
 42
1.0
 43
10.0
 44
1.0
 47
0.1
 48
0.1
 73
     0
 74
     0
 77
     1
 78
     8
 79
     2
140
3.5
141
0.0
143
0.0393701
146
0.71
147
1.5
172
     1
176
   256
177
   256
178
     2
271
     2
272
     3
274
     4
283
     0
284
     8
340
11
371
    -1
372
    -1
  0
DIMSTYLE
105
9B
330
A
100
AcDbSymbolTableRecord
100
AcDbDimStyleTableRecord
  2
AM_ISO$3
 70
     0
  4
"
 40
10.0
 41
2.5
 42
1.0
 43
10.0
 44
1.0
 47
0.1
 48
0.1
 73
     0
 77
     1
 78
     8
 79
     2
140
3.5
141
0.0
143
0.0393701
146
0.71
147
1.5
176
   256
177
   256
178
     2
271
     2
272
     3
274
     4
283
     0
284
     8
288
     1
289
     0
340
11
371
    -1
372
    -1
  0
DIMSTYLE
105
9C
330
A
100
AcDbSymbolTableRecord
100
AcDbDimStyleTableRecord
  2
AM_ISO$4
 70
     0
  4
"
 40
10.0
 41
2.5
 42
1.0
 43
10.0
 44
1.0
 47
0.1
 48
0.1
 73
     0
 77
     1
 78
     8
 79
     2
140
3.5
141
0.0
143
0.0393701
146
0.71
147
1.5
176
   256
177
   256
178
     2
271
     2
272
     3
274
     4
283
     0
284
     8
288
     1
289
     0
340
11
371
    -1
372
    -1
  0
DIMSTYLE
105
9D
330
A
100
AcDbSymbolTableRecord
100
AcDbDimStyleTableRecord
  2
AM_ISO$6
 70
     0
  4
"
 40
10.0
 41
2.5
 42
1.0
 43
10.0
 44
1.0
 47
0.1
 48
0.1
 73
     0
 74
     0
 78
     8
 79
     2
140
3.5
141
0.0
143
0.0393701
146
0.71
147
1.5
172
     1
176
   256
177
   256
178
     2
271
     2
272
     3
274
     4
283
     0
284
     8
340
11
371
    -1
372
    -1
  0
DIMSTYLE
105
9E
330
A
100
AcDbSymbolTableRecord
100
AcDbDimStyleTableRecord
  2
AM_ISO$7
 70
     0
  4
"
 40
10.0
 41
2.5
 42
1.0
 43
10.0
 44
1.0
 47
0.1
 48
0.1
 73
     0
 74
     0
 77
     1
 78
     8
 79
     2
140
5.0
141
0.0
143
0.0393701
146
0.71
147
1.5
172
     1
176
   256
177
   256
178
     2
271
     2
272
     3
274
     4
283
     0
284
     8
340
11
371
    -1
372
    -1
  0
DIMSTYLE
105
9F
330
A
100
AcDbSymbolTableRecord
100
AcDbDimStyleTableRecord
  2
AM_ISO$SF
 70
     0
  4
"
 40
10.0
 41
2.5
 42
1.0
 43
10.0
 44
1.0
 47
0.1
 48
0.1
 73
     0
 74
     0
 75
     1
 76
     1
 77
     1
 78
     8
 79
     2
140
3.5
141
0.0
143
0.0393701
146
0.71
147
1.5
172
     1
176
   256
177
   256
178
     2
271
     2
272
     3
274
     4
283
     0
284
     8
340
11
371
    -1
372
    -1
  0
DIMSTYLE
105
A0
330
A
100
AcDbSymbolTableRecord
100
AcDbDimStyleTableRecord
  2
AM_ISO$SH
 70
     0
  4
"
 40
10.0
 41
2.5
 42
1.0
 43
10.0
 44
1.0
 47
0.1
 48
0.1
 73
     0
 74
     0
 75
     1
 76
     1
 77
     1
 78
     8
 79
     2
140
3.5
141
0.0
143
0.0393701
144
2.0
146
0.71
147
1.5
172
     1
173
     1
176
   256
177
   256
178
     2
271
     2
272
     3
274
     4
283
     0
284
     8
340
11
343
83
371
    -1
372
    -1
  0
DIMSTYLE
105
317
330
A
100
AcDbSymbolTableRecord
100
AcDbDimStyleTableRecord
  2
STANDARD
 70
     0
340
11
  0
DIMSTYLE
105
AF0
330
A
100
AcDbSymbolTableRecord
100
AcDbDimStyleTableRecord
  2
AM_ANSI
 70
     0
  4
mm
 41
0.1
 42
0.05
 43
0.5
 44
0.1
 47
0.1
 48
0.1
 78
     7
 79
     2
140
0.12
141
0.0
146
0.71
147
0.06
176
   256
177
   256
178
     2
274
     4
284
     7
340
11
371
    -1
372
    -1
  0
DIMSTYLE
105
AF1
330
A
100
AcDbSymbolTableRecord
100
AcDbDimStyleTableRecord
  2
AM_ANSI$3
 70
     0
  4
mm
 41
0.1
 42
0.05
 43
0.5
 44
0.1
 47
0.1
 48
0.1
 78
     7
 79
     2
140
0.12
141
0.0
146
0.71
147
0.06
176
   256
177
   256
178
     2
274
     4
284
     7
288
     1
289
     0
340
11
371
    -1
372
    -1
  0
DIMSTYLE
105
AF2
330
A
100
AcDbSymbolTableRecord
100
AcDbDimStyleTableRecord
  2
AM_ANSI$4
 70
     0
  4
mm
 41
0.1
 42
0.05
 43
0.5
 44
0.1
 47
0.1
 48
0.1
 78
     7
 79
     2
140
0.12
141
0.0
146
0.71
147
0.06
176
   256
177
   256
178
     2
274
     4
284
     7
288
     1
289
     0
340
11
371
    -1
372
    -1
  0
DIMSTYLE
105
AF3
330
A
100
AcDbSymbolTableRecord
100
AcDbDimStyleTableRecord
  2
AM_ANSI$7
 70
     0
  4
mm
 41
0.1
 42
0.05
 43
0.5
 44
0.1
 47
0.1
 48
0.1
 78
     7
 79
     2
140
0.24
141
0.0
146
0.71
147
0.06
176
   256
177
   256
178
     2
274
     4
284
     7
340
11
371
    -1
372
    -1
  0
DIMSTYLE
105
AF4
330
A
100
AcDbSymbolTableRecord
100
AcDbDimStyleTableRecord
  2
AM_ANSI$SF
 70
     0
  4
mm
 41
0.1
 42
0.05
 43
0.5
 44
0.1
 47
0.1
 48
0.1
 75
     1
 76
     1
 78
     7
 79
     2
140
0.12
141
0.0
146
0.71
147
0.06
176
   256
177
   256
178
     2
274
     4
284
     7
340
11
371
    -1
372
    -1
  0
DIMSTYLE
105
AF5
330
A
100
AcDbSymbolTableRecord
100
AcDbDimStyleTableRecord
  2
AM_ANSI$SH
 70
     0
  4
mm
 41
0.1
 42
0.05
 43
0.5
 44
0.1
 47
0.1
 48
0.1
 75
     1
 76
     1
 78
     7
 79
     2
140
0.12
141
0.0
146
0.71
147
0.06
173
     1
176
   256
177
   256
178
     2
274
     4
284
     7
340
11
343
83
371
    -1
372
    -1
  0
ENDTAB
  0
TABLE
  2
BLOCK_RECORD
  5
1
330
0
100
AcDbSymbolTable
 70
    28
  0
BLOCK_RECORD
  5
1F
102
{ACAD_XDICTIONARY
360
B1
102
}
330
1
100
AcDbSymbolTableRecord
100
AcDbBlockTableRecord
  2
*Model_Space
340
22
  0
BLOCK_RECORD
  5
1B
330
1
100
AcDbSymbolTableRecord
100
AcDbBlockTableRecord
  2
*Paper_Space
340
1E
  0
BLOCK_RECORD
  5
23
330
1
100
AcDbSymbolTableRecord
100
AcDbBlockTableRecord
  2
*Paper_Space0
340
26
  0
BLOCK_RECORD
  5
77
330
1
100
AcDbSymbolTableRecord
100
AcDbBlockTableRecord
  2
_Open30
340
0
310
2800000020000000200000000100080000000000000400000000000000000000000000000000000000000000000080000080000000808000800000008000800080800000C0C0C000C0DCC000F0CAA6000020400000206000002080000020A0000020C0000020E00000400000004020000040400000406000004080000040A0
310
000040C0000040E00000600000006020000060400000606000006080000060A0000060C0000060E00000800000008020000080400000806000008080000080A0000080C0000080E00000A0000000A0200000A0400000A0600000A0800000A0A00000A0C00000A0E00000C0000000C0200000C0400000C0600000C0800000C0
310
A00000C0C00000C0E00000E0000000E0200000E0400000E0600000E0800000E0A00000E0C00000E0E00040000000400020004000400040006000400080004000A0004000C0004000E00040200000402020004020400040206000402080004020A0004020C0004020E000404000004040200040404000404060004040800040
310
40A0004040C0004040E00040600000406020004060400040606000406080004060A0004060C0004060E00040800000408020004080400040806000408080004080A0004080C0004080E00040A0000040A0200040A0400040A0600040A0800040A0A00040A0C00040A0E00040C0000040C0200040C0400040C0600040C08000
310
40C0A00040C0C00040C0E00040E0000040E0200040E0400040E0600040E0800040E0A00040E0C00040E0E00080000000800020008000400080006000800080008000A0008000C0008000E00080200000802020008020400080206000802080008020A0008020C0008020E00080400000804020008040400080406000804080
310
008040A0008040C0008040E00080600000806020008060400080606000806080008060A0008060C0008060E00080800000808020008080400080806000808080008080A0008080C0008080E00080A0000080A0200080A0400080A0600080A0800080A0A00080A0C00080A0E00080C0000080C0200080C0400080C0600080C0
310
800080C0A00080C0C00080C0E00080E0000080E0200080E0400080E0600080E0800080E0A00080E0C00080E0E000C0000000C0002000C0004000C0006000C0008000C000A000C000C000C000E000C0200000C0202000C0204000C0206000C0208000C020A000C020C000C020E000C0400000C0402000C0404000C0406000C0
310
408000C040A000C040C000C040E000C0600000C0602000C0604000C0606000C0608000C060A000C060C000C060E000C0800000C0802000C0804000C0806000C0808000C080A000C080C000C080E000C0A00000C0A02000C0A04000C0A06000C0A08000C0A0A000C0A0C000C0A0E000C0C00000C0C02000C0C04000C0C06000
310
C0C08000C0C0A000F0FBFF00A4A0A000808080000000FF0000FF000000FFFF00FF000000FF00FF00FFFF0000FFFFFF0000000000000000000000000000000000000000000000000000000000000000000000000000000000000000000000000000000000000000000000000000000000000000000000000000000000000000
310
00000000000000000000000000000000000000000000000000000000000000000000000000000000000000000000000000000000000000000000000000000000000000000000000000000000000000000000000000000000000000000000000000000000000000000000000000000000000000000000000000000000000000
310
000000000000000000000000000000000000000000000000000000000000000000000000000000000000000000000000000000FFFF0000000000000000000000000000000000000000000000000000000000000000FFFFFFFF0000000000000000000000000000000000000000000000000000000000000000FFFFFFFF0000
310
000000000000000000000000000000000000000000000000000000000000FFFFFF0000000000000000000000000000000000000000000000000000000000000000FFFFFFFF0000000000000000000000000000000000000000000000000000000000000000FFFFFF0000000000000000000000000000000000000000000000
310
000000000000000000FFFFFFFF0000000000000000000000000000000000000000000000000000000000000000FFFFFFFF00000000FFFFFFFFFFFFFFFFFFFFFFFFFFFFFFFFFFFFFFFFFFFFFFFFFFFFFFFFFFFF00000000000000000000000000000000000000000000000000FFFFFFFF000000000000000000000000000000
310
000000000000000000FFFFFFFF000000000000000000000000000000000000000000000000FFFFFFFF000000000000000000000000000000000000000000000000FFFFFFFF000000000000000000000000000000000000000000000000FFFFFFFF000000000000000000000000000000000000000000000000FFFFFFFF0000
310
0000000000000000000000000000000000000000000000FFFFFF0000000000000000000000000000000000000000000000000000000000000000000000000000000000000000000000000000000000000000000000000000000000000000000000000000000000000000000000000000000000000000000000000000000000
310
00000000000000000000000000000000000000000000000000000000000000000000000000000000000000000000000000000000000000000000000000000000000000000000000000000000000000000000000000000000000000000000000000000000000000000000000000000000000000000000000000000000000000
310
0000000000000000000000000000000000000000000000000000000000000000000000000000000000000000000000000000000000000000
102
{BLKREFS
331
16D2
331
16D3
331
16DB
331
16DC
331
16E4
331
16E5
331
16ED
331
16EE
331
16F8
331
16F9
331
1701
331
1702
331
170A
331
170B
331
1713
331
1714
331
171C
331
171D
331
1725
331
1726
331
172E
331
172F
331
1737
331
1738
331
1740
331
1741
331
1749
331
174A
331
1754
331
1755
102
}
  0
BLOCK_RECORD
  5
83
330
1
100
AcDbSymbolTableRecord
100
AcDbBlockTableRecord
  2
GENAXEH
340
0
310
2800000020000000200000000100080000000000000400000000000000000000000000000000000000000000000080000080000000808000800000008000800080800000C0C0C000C0DCC000F0CAA6000020400000206000002080000020A0000020C0000020E00000400000004020000040400000406000004080000040A0
310
000040C0000040E00000600000006020000060400000606000006080000060A0000060C0000060E00000800000008020000080400000806000008080000080A0000080C0000080E00000A0000000A0200000A0400000A0600000A0800000A0A00000A0C00000A0E00000C0000000C0200000C0400000C0600000C0800000C0
310
A00000C0C00000C0E00000E0000000E0200000E0400000E0600000E0800000E0A00000E0C00000E0E00040000000400020004000400040006000400080004000A0004000C0004000E00040200000402020004020400040206000402080004020A0004020C0004020E000404000004040200040404000404060004040800040
310
40A0004040C0004040E00040600000406020004060400040606000406080004060A0004060C0004060E00040800000408020004080400040806000408080004080A0004080C0004080E00040A0000040A0200040A0400040A0600040A0800040A0A00040A0C00040A0E00040C0000040C0200040C0400040C0600040C08000
310
40C0A00040C0C00040C0E00040E0000040E0200040E0400040E0600040E0800040E0A00040E0C00040E0E00080000000800020008000400080006000800080008000A0008000C0008000E00080200000802020008020400080206000802080008020A0008020C0008020E00080400000804020008040400080406000804080
310
008040A0008040C0008040E00080600000806020008060400080606000806080008060A0008060C0008060E00080800000808020008080400080806000808080008080A0008080C0008080E00080A0000080A0200080A0400080A0600080A0800080A0A00080A0C00080A0E00080C0000080C0200080C0400080C0600080C0
310
800080C0A00080C0C00080C0E00080E0000080E0200080E0400080E0600080E0800080E0A00080E0C00080E0E000C0000000C0002000C0004000C0006000C0008000C000A000C000C000C000E000C0200000C0202000C0204000C0206000C0208000C020A000C020C000C020E000C0400000C0402000C0404000C0406000C0
310
408000C040A000C040C000C040E000C0600000C0602000C0604000C0606000C0608000C060A000C060C000C060E000C0800000C0802000C0804000C0806000C0808000C080A000C080C000C080E000C0A00000C0A02000C0A04000C0A06000C0A08000C0A0A000C0A0C000C0A0E000C0C00000C0C02000C0C04000C0C06000
310
C0C08000C0C0A000F0FBFF00A4A0A000808080000000FF0000FF000000FFFF00FF000000FF00FF00FFFF0000FFFFFF0000000000000000000000000000000000000000000000000000000000000000000000000000000000000000000000000000000000000000000000000000000000000000000000000000000000000000
310
00000000000000000000000000000000000000000000000000000000000000000000000000000000000000000000000000000000000000000000000000000000000000000000000000000000000000000000000000000000000000000000000000000000000000000000000000000000000000000000000000000000000000
310
00000000000000000000000000000000000000000000000000000000000000000000000000000000000000000000000000000000000000000000000000000000000000000000000000000000000000000000000000000000000000000000000000000000000000000000000000000000000000000000000000000000000000
310
00000000000000000000000000000000000000000000000000000000000000000000000000000000000000000000000000000000000000000000000000000000000000000000000000000000000000000000000000000000000000000000000000000000000000000000000000000000000000000000000000000000000000
310
0000000000000000000000000000000000000000000000000000000000000000000000000000000000000000000000000000000000FFFFFFFFFFFFFFFFFFFFFFFFFFFFFFFFFFFFFFFFFFFFFFFFFFFFFFFFFFFF0000000000000000000000000000000000000000000000000000000000000000000000000000000000000000
310
00000000000000000000000000000000000000000000000000000000000000000000000000000000000000000000000000000000000000000000000000000000000000000000000000000000000000000000000000000000000000000000000000000000000000000000000000000000000000000000000000000000000000
310
00000000000000000000000000000000000000000000000000000000000000000000000000000000000000000000000000000000000000000000000000000000000000000000000000000000000000000000000000000000000000000000000000000000000000000000000000000000000000000000000000000000000000
310
00000000000000000000000000000000000000000000000000000000000000000000000000000000000000000000000000000000000000000000000000000000000000000000000000000000000000000000000000000000000000000000000000000000000000000000000000000000000000000000000000000000000000
310
0000000000000000000000000000000000000000000000000000000000000000000000000000000000000000000000000000000000000000
  0
BLOCK_RECORD
  5
335
330
1
100
AcDbSymbolTableRecord
100
AcDbBlockTableRecord
  2
IGS2
340
0
310
2800000020000000200000000100080000000000000400000000000000000000000000000000000000000000000080000080000000808000800000008000800080800000C0C0C000C0DCC000F0CAA6000020400000206000002080000020A0000020C0000020E00000400000004020000040400000406000004080000040A0
310
000040C0000040E00000600000006020000060400000606000006080000060A0000060C0000060E00000800000008020000080400000806000008080000080A0000080C0000080E00000A0000000A0200000A0400000A0600000A0800000A0A00000A0C00000A0E00000C0000000C0200000C0400000C0600000C0800000C0
310
A00000C0C00000C0E00000E0000000E0200000E0400000E0600000E0800000E0A00000E0C00000E0E00040000000400020004000400040006000400080004000A0004000C0004000E00040200000402020004020400040206000402080004020A0004020C0004020E000404000004040200040404000404060004040800040
310
40A0004040C0004040E00040600000406020004060400040606000406080004060A0004060C0004060E00040800000408020004080400040806000408080004080A0004080C0004080E00040A0000040A0200040A0400040A0600040A0800040A0A00040A0C00040A0E00040C0000040C0200040C0400040C0600040C08000
310
40C0A00040C0C00040C0E00040E0000040E0200040E0400040E0600040E0800040E0A00040E0C00040E0E00080000000800020008000400080006000800080008000A0008000C0008000E00080200000802020008020400080206000802080008020A0008020C0008020E00080400000804020008040400080406000804080
310
008040A0008040C0008040E00080600000806020008060400080606000806080008060A0008060C0008060E00080800000808020008080400080806000808080008080A0008080C0008080E00080A0000080A0200080A0400080A0600080A0800080A0A00080A0C00080A0E00080C0000080C0200080C0400080C0600080C0
310
800080C0A00080C0C00080C0E00080E0000080E0200080E0400080E0600080E0800080E0A00080E0C00080E0E000C0000000C0002000C0004000C0006000C0008000C000A000C000C000C000E000C0200000C0202000C0204000C0206000C0208000C020A000C020C000C020E000C0400000C0402000C0404000C0406000C0
310
408000C040A000C040C000C040E000C0600000C0602000C0604000C0606000C0608000C060A000C060C000C060E000C0800000C0802000C0804000C0806000C0808000C080A000C080C000C080E000C0A00000C0A02000C0A04000C0A06000C0A08000C0A0A000C0A0C000C0A0E000C0C00000C0C02000C0C04000C0C06000
310
C0C08000C0C0A000F0FBFF00A4A0A000808080000000FF0000FF000000FFFF00FF000000FF00FF00FFFF0000FFFFFF0000000000000000000000000000000000000000000000000000000000000000000000000000000000000000000000000000000000000000000000000000000000000000000000000000000000000000
310
00000000000000000000000000000000000000000000000000000000000000000000000000000000000000000000000000000000000000000000000000000000000000000000000000000000000000000000F9FBFBF9F9F9FBFBF9F9F9F90000000000000000000000000000000000000000F9F9FBFBFBFBFBFBFBF9F9F900
310
00000000000000000000000000000000000000F9FBFBFBFBFBFBFBFBF9F9F90000000000000000000000000000000000000000F9F9F9F9F9F9F9F9F9F9F9F900000000000000000000000000000000000000000000000000000000000000000000000000000000000000000000000000000000000000000000000000000000
310
00000000000000000000000000000000000000000000000000000000000000000000000000000000000000000000000000000000000000000000000000000000000000000000000000000000000000000000000000000000000000000000000000000000000000000000000000000000000000000000000000000000000000
310
00000000000000000000000000000000000000000000000000000000000000000000000000000000000000000000000000000000000000000000000000000000000000000000000000000000000000000000000000000000000000000000000000000000000000000000000000000000000000000000000000000000000000
310
00000000000000000000000000000000000000000000000000000000000000000000000000000000000000000000000000000000000000000000000000000000000000000000000000000000000000000000000000000000000000000000000000000000000000000000000000000000000000000000000000000000000000
310
00000000000000000000000000000000000000000000000000000000000000000000000000000000000000000000000000000000000000000000000000000000000000000000000000000000000000000000000000000000000000000000000000000000000000000000000000000000000000000000000000000000000000
310
00000000000000000000000000000000000000000000000000000000000000000000000000000000000000000000000000000000000000000000000000000000000000000000000000000000000000000000000000000000000000000000000000000000000000000000000000000000000000000000000000000000000000
310
0000000000000000000000000000000000000000000000000000000000000000000000000000000000000000000000000000000000000000
102
{BLKREFS
331
1275
102
}
  0
BLOCK_RECORD
  5
6A8
330
1
100
AcDbSymbolTableRecord
100
AcDbBlockTableRecord
  2
IGS_A3
340
0
310
2800000020000000200000000100080000000000000400000000000000000000000000000000000000000000000080000080000000808000800000008000800080800000C0C0C000C0DCC000F0CAA6000020400000206000002080000020A0000020C0000020E00000400000004020000040400000406000004080000040A0
310
000040C0000040E00000600000006020000060400000606000006080000060A0000060C0000060E00000800000008020000080400000806000008080000080A0000080C0000080E00000A0000000A0200000A0400000A0600000A0800000A0A00000A0C00000A0E00000C0000000C0200000C0400000C0600000C0800000C0
310
A00000C0C00000C0E00000E0000000E0200000E0400000E0600000E0800000E0A00000E0C00000E0E00040000000400020004000400040006000400080004000A0004000C0004000E00040200000402020004020400040206000402080004020A0004020C0004020E000404000004040200040404000404060004040800040
310
40A0004040C0004040E00040600000406020004060400040606000406080004060A0004060C0004060E00040800000408020004080400040806000408080004080A0004080C0004080E00040A0000040A0200040A0400040A0600040A0800040A0A00040A0C00040A0E00040C0000040C0200040C0400040C0600040C08000
310
40C0A00040C0C00040C0E00040E0000040E0200040E0400040E0600040E0800040E0A00040E0C00040E0E00080000000800020008000400080006000800080008000A0008000C0008000E00080200000802020008020400080206000802080008020A0008020C0008020E00080400000804020008040400080406000804080
310
008040A0008040C0008040E00080600000806020008060400080606000806080008060A0008060C0008060E00080800000808020008080400080806000808080008080A0008080C0008080E00080A0000080A0200080A0400080A0600080A0800080A0A00080A0C00080A0E00080C0000080C0200080C0400080C0600080C0
310
800080C0A00080C0C00080C0E00080E0000080E0200080E0400080E0600080E0800080E0A00080E0C00080E0E000C0000000C0002000C0004000C0006000C0008000C000A000C000C000C000E000C0200000C0202000C0204000C0206000C0208000C020A000C020C000C020E000C0400000C0402000C0404000C0406000C0
310
408000C040A000C040C000C040E000C0600000C0602000C0604000C0606000C0608000C060A000C060C000C060E000C0800000C0802000C0804000C0806000C0808000C080A000C080C000C080E000C0A00000C0A02000C0A04000C0A06000C0A08000C0A0A000C0A0C000C0A0E000C0C00000C0C02000C0C04000C0C06000
310
C0C08000C0C0A000F0FBFF00A4A0A000808080000000FF0000FF000000FFFF00FF000000FF00FF00FFFF0000FFFFFF0000000000000000000000000000000000000000000000000000000000000000000000000000000000000000000000000000000000000000000000000000000000000000000000000000000000000000
310
000000000000000000000000000000000000000000000000000000000000000000000000000000000000000000000000000000000000000000000000000000000000000000000000000000000000000000000000000000000000000000000000000000000000000000000000000000000000F9F9FFF9F9F9F9F9F9F9F9F9F9
310
F9F9F9F9F9F9F9F9F9F9F9F9F9F9F900000000F900FFFFFFFFFFFFFFFFFFFFFFFFFFFFFFFFFFFFFFFFFFFFFFFFFFF900000000F900FF0000000000000000000000000000000000000000000000FFF900000000F900FF0000000000000000000000000000000000000000000000FFF900000000F900FF000000000000000000
310
0000000000000000000000000000FFF900000000F900FF0000000000000000000000000000000000000000000000FFF900000000F900FF0000000000000000000000000000000000000000000000FFF900000000F900FF0000000000000000000000000000000000000000000000FFF900000000F900FF0000000000000000
310
000000000000000000000000000000FFF900000000F900FF0000000000000000000000000000000000000000000000FFF900000000F900FF0000000000000000000000000000000000000000000000FFF900000000F900FF0000000000000000000000000000000000000000000000FFF900000000F900FF00000000000000
310
00000000000000000000000000000000FFF900000000F900FF0000000000000000000000000000000000000000000000FFF900000000F900FF0000000000000000000000000000000000000000000000FFF900000000F900FF0000000000000000000000000000000000000000000000FFF900000000F900FF000000000000
310
0000000000000000000000000000000000FFF900000000F900FF0000000000000000000000000000000000000000000000FFF900000000F900FFFFFFFFFFFFFFFFFFFFFFFFFFFFFFFFFFFFFFFFFFFFFFFFFFF900000000F9F9F9F9F9F9F9F9F9F9F9F9F9F9F9F9F9F9F9F9F9F9F9F9F9F9F9F9000000000000000000000000
310
00000000000000000000000000000000000000000000000000000000000000000000000000000000000000000000000000000000000000000000000000000000000000000000000000000000000000000000000000000000000000000000000000000000000000000000000000000000000000000000000000000000000000
310
0000000000000000000000000000000000000000000000000000000000000000000000000000000000000000000000000000000000000000
102
{BLKREFS
331
1274
102
}
  0
BLOCK_RECORD
  5
AD3
330
1
100
AcDbSymbolTableRecord
100
AcDbBlockTableRecord
  2
LTEX0
340
0
  0
BLOCK_RECORD
  5
ADA
330
1
100
AcDbSymbolTableRecord
100
AcDbBlockTableRecord
  2
LTEX1
340
0
  0
BLOCK_RECORD
  5
AE1
330
1
100
AcDbSymbolTableRecord
100
AcDbBlockTableRecord
  2
LTEX2
340
0
  0
BLOCK_RECORD
  5
F08
330
1
100
AcDbSymbolTableRecord
100
AcDbBlockTableRecord
  2
*D9
340
0
  0
BLOCK_RECORD
  5
1054
330
1
100
AcDbSymbolTableRecord
100
AcDbBlockTableRecord
  2
*D10
340
0
  0
BLOCK_RECORD
  5
107A
330
1
100
AcDbSymbolTableRecord
100
AcDbBlockTableRecord
  2
*D11
340
0
  0
BLOCK_RECORD
  5
10CA
330
1
100
AcDbSymbolTableRecord
100
AcDbBlockTableRecord
  2
*D12
340
0
  0
BLOCK_RECORD
  5
10E7
330
1
100
AcDbSymbolTableRecord
100
AcDbBlockTableRecord
  2
*D13
340
0
  0
BLOCK_RECORD
  5
1134
330
1
100
AcDbSymbolTableRecord
100
AcDbBlockTableRecord
  2
*D14
340
0
  0
BLOCK_RECORD
  5
116F
330
1
100
AcDbSymbolTableRecord
100
AcDbBlockTableRecord
  2
*D15
340
0
  0
BLOCK_RECORD
  5
1195
330
1
100
AcDbSymbolTableRecord
100
AcDbBlockTableRecord
  2
*D16
340
0
  0
BLOCK_RECORD
  5
11AF
330
1
100
AcDbSymbolTableRecord
100
AcDbBlockTableRecord
  2
*D17
340
0
  0
BLOCK_RECORD
  5
1204
330
1
100
AcDbSymbolTableRecord
100
AcDbBlockTableRecord
  2
*D18
340
0
  0
BLOCK_RECORD
  5
1242
330
1
100
AcDbSymbolTableRecord
100
AcDbBlockTableRecord
  2
*D19
340
0
  0
BLOCK_RECORD
  5
162D
330
1
100
AcDbSymbolTableRecord
100
AcDbBlockTableRecord
  2
*D20
340
0
  0
BLOCK_RECORD
  5
1653
330
1
100
AcDbSymbolTableRecord
100
AcDbBlockTableRecord
  2
*D21
340
0
  0
BLOCK_RECORD
  5
1680
330
1
100
AcDbSymbolTableRecord
100
AcDbBlockTableRecord
  2
*D22
340
0
  0
BLOCK_RECORD
  5
16AB
330
1
100
AcDbSymbolTableRecord
100
AcDbBlockTableRecord
  2
*D23
340
0
  0
BLOCK_RECORD
  5
1764
330
1
100
AcDbSymbolTableRecord
100
AcDbBlockTableRecord
  2
NAKAMURA
340
0
310
2800000020000000200000000100080000000000000400000000000000000000000000000000000000000000000080000080000000808000800000008000800080800000C0C0C000C0DCC000F0CAA6000020400000206000002080000020A0000020C0000020E00000400000004020000040400000406000004080000040A0
310
000040C0000040E00000600000006020000060400000606000006080000060A0000060C0000060E00000800000008020000080400000806000008080000080A0000080C0000080E00000A0000000A0200000A0400000A0600000A0800000A0A00000A0C00000A0E00000C0000000C0200000C0400000C0600000C0800000C0
310
A00000C0C00000C0E00000E0000000E0200000E0400000E0600000E0800000E0A00000E0C00000E0E00040000000400020004000400040006000400080004000A0004000C0004000E00040200000402020004020400040206000402080004020A0004020C0004020E000404000004040200040404000404060004040800040
310
40A0004040C0004040E00040600000406020004060400040606000406080004060A0004060C0004060E00040800000408020004080400040806000408080004080A0004080C0004080E00040A0000040A0200040A0400040A0600040A0800040A0A00040A0C00040A0E00040C0000040C0200040C0400040C0600040C08000
310
40C0A00040C0C00040C0E00040E0000040E0200040E0400040E0600040E0800040E0A00040E0C00040E0E00080000000800020008000400080006000800080008000A0008000C0008000E00080200000802020008020400080206000802080008020A0008020C0008020E00080400000804020008040400080406000804080
310
008040A0008040C0008040E00080600000806020008060400080606000806080008060A0008060C0008060E00080800000808020008080400080806000808080008080A0008080C0008080E00080A0000080A0200080A0400080A0600080A0800080A0A00080A0C00080A0E00080C0000080C0200080C0400080C0600080C0
310
800080C0A00080C0C00080C0E00080E0000080E0200080E0400080E0600080E0800080E0A00080E0C00080E0E000C0000000C0002000C0004000C0006000C0008000C000A000C000C000C000E000C0200000C0202000C0204000C0206000C0208000C020A000C020C000C020E000C0400000C0402000C0404000C0406000C0
310
408000C040A000C040C000C040E000C0600000C0602000C0604000C0606000C0608000C060A000C060C000C060E000C0800000C0802000C0804000C0806000C0808000C080A000C080C000C080E000C0A00000C0A02000C0A04000C0A06000C0A08000C0A0A000C0A0C000C0A0E000C0C00000C0C02000C0C04000C0C06000
310
C0C08000C0C0A000F0FBFF00A4A0A000808080000000FF0000FF000000FFFF00FF000000FF00FF00FFFF0000FFFFFF000000000000000000000000000000000000000000000000000000000000000000000000000000000000000000000000FFFFFF000000000000000000000000000000000000000000000000FFFFFFFFFF
310
000000FFFF0000000000000000000000000000000000000000FFFF00000000000000000000FFFFFF00000000000000000000000000000000FF00000000FF0000000000FF00FFFF00FFFF00000000000000000000000000FF0000000000FF0000000000FF0000FF000000FF0000000000000000000000FF000000FFFFFFFFFF
310
FF00FF00FF00FFFF00000000FF000000000000000000FF00000000FF0000FF00FF0000FFFFFFFFFF0000000000FF0000000000000000FF00000000FF0000FF00FF0000FFFFFFFFFF0000000000FF00000000000000FF0000000000FF0000FF00FF00FFFFFFFFFFFFFF0000000000FF000000000000FF0000000000FFFFFFFF
310
FFFF000000FF0000FF00000000000000FF00000000FF000000000000000000FF0000000000FF0000FF00000000000000FF00000000FFFFFFFFFFFFFFFFFFFFFFFFFFFFFFFFFFFFFFFFFFFFFFFFFFFFFFFF00000000FF0000000000000000000000000000000000000000000000000000FF000000FF00000000000000000000
310
000000000000000000000000000000000000FF0000FF00000000000000000000000000000000000000000000000000000000FF0000FF00000000000000000000000000000000000000000000000000000000FF0000FF00000000000000000000000000000000000000000000000000000000FF000000FF0000000000000000
310
000000000000000000000000000000000000FF00000000FF0000000000000000000000000000000000000000000000000000FF00000000FF0000000000000000000000000000000000000000000000000000FF0000000000FF00000000000000000000000000000000000000000000000000FF0000000000FFFFFFFFFFFFFF
310
FFFFFFFFFFFFFFFFFFFFFFFFFFFFFFFFFFFFFF00000000000000FF000000000000FFFF00FFFF00FFFF00FF000000000000FF0000000000000000FF000000000000FF00FFFF0000FFFF00FF000000000000FF000000000000000000FF00000000FFFF00FFFF0000FFFFFFFF0000000000FF0000000000000000000000FF0000
310
0000FFFFFF00FFFFFFFFFFFF00000000FF00000000000000000000000000FF0000FFFFFFFFFFFF00FFFFFFFFFF00FFFF000000000000000000000000000000FFFF00FFFFFFFFFFFFFFFFFFFFFFFF00000000000000000000000000000000000000FFFFFFFFFF0000FFFFFFFF00000000000000000000000000000000000000
310
00000000000000FFFFFF00000000000000000000000000000000000000000000000000000000000000000000000000000000000000000000
102
{BLKREFS
331
1780
102
}
1001
ACAD
1000
DesignCenter Data
1002
{
1070
     1
1070
     4
1002
}
  0
BLOCK_RECORD
  5
17ED
330
1
100
AcDbSymbolTableRecord
100
AcDbBlockTableRecord
  2
*S25
340
0
  0
BLOCK_RECORD
  5
17F4
330
1
100
AcDbSymbolTableRecord
100
AcDbBlockTableRecord
  2
*S26
340
0
  0
BLOCK_RECORD
  5
17FC
330
1
100
AcDbSymbolTableRecord
100
AcDbBlockTableRecord
  2
*S27
340
0
  0
ENDTAB
  0
ENDSEC
  0
SECTION
  2
BLOCKS
  0
BLOCK
  5
20
330
1F
100
AcDbEntity
  8
0
100
AcDbBlockBegin
  2
*Model_Space
 70
     0
 10
0.0
 20
0.0
 30
0.0
  3
*Model_Space
  1

  0
ENDBLK
  5
21
330
1F
100
AcDbEntity
  8
0
100
AcDbBlockEnd
  0
BLOCK
  5
1C
330
1B
100
AcDbEntity
 67
     1
  8
0
100
AcDbBlockBegin
  2
*Paper_Space
 70
     0
 10
0.0
 20
0.0
 30
0.0
  3
*Paper_Space
  1

  0
ENDBLK
  5
1D
330
1B
100
AcDbEntity
 67
     1
  8
0
100
AcDbBlockEnd
  0
BLOCK
  5
24
330
23
100
AcDbEntity
  8
0
100
AcDbBlockBegin
  2
*Paper_Space0
 70
     0
 10
0.0
 20
0.0
 30
0.0
  3
*Paper_Space0
  1

  0
ENDBLK
  5
25
330
23
100
AcDbEntity
  8
0
100
AcDbBlockEnd
  0
BLOCK
  5
7B
330
77
100
AcDbEntity
  8
0
100
AcDbBlockBegin
  2
_Open30
 70
     0
 10
0.0
 20
0.0
 30
0.0
  3
_Open30
  1

  0
LINE
  5
78
330
77
100
AcDbEntity
  8
0
  6
ByBlock
 62
     0
370
    -2
100
AcDbLine
 10
-1.0
 20
0.26794919
 30
0.0
 11
0.0
 21
0.0
 31
0.0
  0
LINE
  5
79
330
77
100
AcDbEntity
  8
0
  6
ByBlock
 62
     0
370
    -2
100
AcDbLine
 10
0.0
 20
0.0
 30
0.0
 11
-1.0
 21
-0.26794919
 31
0.0
  0
LINE
  5
7A
330
77
100
AcDbEntity
  8
0
  6
ByBlock
 62
     0
370
    -2
100
AcDbLine
 10
0.0
 20
0.0
 30
0.0
 11
-1.0
 21
0.0
 31
0.0
  0
ENDBLK
  5
7C
330
77
100
AcDbEntity
  8
0
100
AcDbBlockEnd
  0
BLOCK
  5
85
330
83
100
AcDbEntity
  8
0
100
AcDbBlockBegin
  2
GENAXEH
 70
     0
 10
0.0
 20
0.0
 30
0.0
  3
GENAXEH
  1

  0
LINE
  5
84
330
83
100
AcDbEntity
  8
0
100
AcDbLine
 10
-1.0
 20
0.0
 30
0.0
 11
1.0
 21
0.0
 31
0.0
  0
ENDBLK
  5
86
330
83
100
AcDbEntity
  8
0
100
AcDbBlockEnd
  0
BLOCK
  5
3B8
330
335
100
AcDbEntity
  8
0
100
AcDbBlockBegin
  2
IGS2
 70
     2
 10
0.0
 20
0.0
 30
0.0
  3
IGS2
  1

  0
POINT
  5
336
330
335
100
AcDbEntity
  8
0
 60
     1
100
AcDbPoint
 10
0.0
 20
0.0
 30
0.0
1001
GENIUS_GENODEF_13
1002
{
1000
HIER
1070
     1
1002
}
1002
{
1000
MANEDIT
1070
     0
1002
}
1002
{
1000
NOSEL
1070
     0
1002
}
1002
{
1000
BEHIND
1070
     0
1002
}
1002
{
1000
REACTOR
1002
}
1001
GENIUS_GENTITLE_13
1002
{
1000
SCALE
1000
1:1
1002
}
1002
{
1000
BORDER
1000
IGS-A4
1002
}
1002
{
1000
TITLE
1000
IGS-TITLE
1002
}
1002
{
1000
UNCHG
1002
{
1000
GEN-TITLE-SCA
1000
GEN-TITLE-SIZ
1002
}
1002
}
1002
{
1000
HRA
1005
0
1002
}
1002
{
1000
HTIT
1005
0
1002
}
1002
{
1000
GENIUSID
1005
336
1002
}
1001
GENIUS_GENOBJ-N-TIT_13
1002
{
1000
OWNER
1000
GEN
1002
}
1001
GENIUS_GENOENT_13
1002
{
1000
MYREF
1005
336
1002
}
1002
{
1000
GRP
1005
0
1002
}
1001
GENIUS_GENOLIS_13
1002
{
1000
ENT
1005
0
1005
0
1002
}
  0
LINE
  5
337
330
335
100
AcDbEntity
  8
RAHM3
100
AcDbLine
 10
-148.4080564410193
 20
8.825237325416161
 30
52.0
 11
-145.4319868410194
 21
8.825237325416161
 31
52.0
  0
ARC
  5
338
330
335
100
AcDbEntity
  8
RAHM3
100
AcDbCircle
 10
-141.4638940410194
 20
7.833214125416168
 30
52.0
 40
0.9920232
100
AcDbArc
 50
90.0
 51
180.0
  0
LINE
  5
339
330
335
100
AcDbEntity
  8
RAHM3
100
AcDbLine
 10
-137.6611384410193
 20
8.825237325416161
 30
52.0
 11
-141.4638940410194
 21
8.825237325416161
 31
52.0
  0
ARC
  5
33A
330
335
100
AcDbEntity
  8
RAHM3
100
AcDbCircle
 10
-137.6611384410193
 20
7.833214125416168
 30
52.0
 40
0.9920232
100
AcDbArc
 50
0.0
 51
90.0
  0
ARC
  5
33B
330
335
100
AcDbEntity
  8
RAHM3
100
AcDbCircle
 10
-129.0636040410194
 20
7.833214125416168
 30
52.0
 40
0.9920232
100
AcDbArc
 50
0.0
 51
90.0
  0
LINE
  5
33C
330
335
100
AcDbEntity
  8
RAHM3
100
AcDbLine
 10
-132.7010224410193
 20
8.825237325416161
 30
52.0
 11
-129.0636040410194
 21
8.825237325416161
 31
52.0
  0
ARC
  5
33D
330
335
100
AcDbEntity
  8
RAHM3
100
AcDbCircle
 10
-132.7010224410193
 20
7.833214125416168
 30
52.0
 40
0.9920232
100
AcDbArc
 50
90.0
 51
180.0
  0
LINE
  5
33E
330
335
100
AcDbEntity
  8
RAHM3
100
AcDbLine
 10
-148.4080564410193
 20
8.163888525416165
 30
52.0
 11
-147.5813704410193
 21
8.163888525416165
 31
52.0
  0
LINE
  5
33F
330
335
100
AcDbEntity
  8
RAHM3
100
AcDbLine
 10
-147.5813704410193
 20
8.163888525416165
 30
52.0
 11
-147.5813704410193
 21
3.865121325416145
 31
52.0
  0
LINE
  5
340
330
335
100
AcDbEntity
  8
RAHM3
100
AcDbLine
 10
-146.2586728410194
 20
3.865121325416145
 30
52.0
 11
-146.2586728410194
 21
8.163888525416165
 31
52.0
  0
LINE
  5
341
330
335
100
AcDbEntity
  8
RAHM3
100
AcDbLine
 10
-146.2586728410194
 20
8.163888525416165
 30
52.0
 11
-145.4319868410194
 21
8.163888525416165
 31
52.0
  0
LINE
  5
342
330
335
100
AcDbEntity
  8
RAHM3
100
AcDbLine
 10
-145.4319868410194
 20
8.825237325416161
 30
52.0
 11
-145.4319868410194
 21
8.163888525416165
 31
52.0
  0
LINE
  5
343
330
335
100
AcDbEntity
  8
RAHM3
100
AcDbLine
 10
-148.4080564410193
 20
8.163888525416165
 30
52.0
 11
-148.4080564410193
 21
8.825237325416161
 31
52.0
  0
LINE
  5
344
330
335
100
AcDbEntity
  8
RAHM3
100
AcDbLine
 10
-145.4319868410194
 20
3.203772525416149
 30
52.0
 11
-148.4080564410193
 21
3.203772525416149
 31
52.0
  0
CIRCLE
  5
345
330
335
100
AcDbEntity
  8
RAHM3
100
AcDbCircle
 10
-144.1092892410194
 20
3.865121325416145
 30
52.0
 40
0.6613488000000001
  0
LINE
  5
346
330
335
100
AcDbEntity
  8
RAHM3
100
AcDbLine
 10
-137.9918128410194
 20
3.865121325416145
 30
52.0
 11
-137.9918128410194
 21
3.203772525416149
 31
52.0
  0
LINE
  5
347
330
335
100
AcDbEntity
  8
RAHM3
100
AcDbLine
 10
-137.9918128410194
 20
3.203772525416149
 30
52.0
 11
-136.6691152410193
 21
3.203772525416149
 31
52.0
  0
ARC
  5
348
330
335
100
AcDbEntity
  8
RAHM3
100
AcDbCircle
 10
-141.4638940410194
 20
4.195795725416166
 30
52.0
 40
0.9920232
100
AcDbArc
 50
180.0
 51
270.0
  0
LINE
  5
349
330
335
100
AcDbEntity
  8
RAHM3
100
AcDbLine
 10
-141.4638940410194
 20
3.203772525416149
 30
52.0
 11
-141.1332196410193
 21
3.203772525416149
 31
52.0
  0
LINE
  5
34A
330
335
100
AcDbEntity
  8
RAHM3
100
AcDbLine
 10
-142.4559172410194
 20
4.195795725416166
 30
52.0
 11
-142.4559172410194
 21
7.833214125416168
 31
52.0
  0
CIRCLE
  5
34B
330
335
100
AcDbEntity
  8
RAHM3
100
AcDbCircle
 10
-135.5117548410193
 20
3.865121325416145
 30
52.0
 40
0.6613488000000001
  0
ARC
  5
34C
330
335
100
AcDbEntity
  8
RAHM3
100
AcDbCircle
 10
-132.7010224410193
 20
4.195795725416166
 30
52.0
 40
0.9920232
100
AcDbArc
 50
180.0
 51
270.0
  0
LINE
  5
34D
330
335
100
AcDbEntity
  8
RAHM3
100
AcDbLine
 10
-129.0636040410194
 20
3.203772525416149
 30
52.0
 11
-132.7010224410193
 21
3.203772525416149
 31
52.0
  0
ARC
  5
34E
330
335
100
AcDbEntity
  8
RAHM3
100
AcDbCircle
 10
-129.0636040410194
 20
4.195795725416166
 30
52.0
 40
0.9920232
100
AcDbArc
 50
270.0
 51
0.0
  0
LINE
  5
34F
330
335
100
AcDbEntity
  8
RAHM3
100
AcDbLine
 10
-133.6930456410194
 20
4.195795725416166
 30
52.0
 11
-133.6930456410194
 21
5.022481725416161
 31
52.0
  0
LINE
  5
350
330
335
100
AcDbEntity
  8
RAHM3
100
AcDbLine
 10
-128.0715808410194
 20
7.833214125416168
 30
52.0
 11
-128.0715808410194
 21
7.00652812541615
 31
52.0
  0
CIRCLE
  5
351
330
335
100
AcDbEntity
  8
RAHM3
100
AcDbCircle
 10
-126.9142204410194
 20
3.865121325416145
 30
52.0
 40
0.6613488000000001
  0
LINE
  5
352
330
335
100
AcDbEntity
  8
RAHM3
100
AcDbLine
 10
-136.6691152410193
 20
7.171865325416149
 30
52.0
 11
-137.8264756410194
 21
7.171865325416149
 31
52.0
  0
LINE
  5
353
330
335
100
AcDbEntity
  8
RAHM3
100
AcDbLine
 10
-137.8264756410194
 20
7.171865325416149
 30
52.0
 11
-137.8264756410194
 21
7.667876925416146
 31
52.0
  0
LINE
  5
354
330
335
100
AcDbEntity
  8
RAHM3
100
AcDbLine
 10
-137.8264756410194
 20
7.667876925416146
 30
52.0
 11
-141.2985568410193
 21
7.667876925416146
 31
52.0
  0
LINE
  5
355
330
335
100
AcDbEntity
  8
RAHM3
100
AcDbLine
 10
-141.2985568410193
 20
7.667876925416146
 30
52.0
 11
-141.2985568410193
 21
4.361132925416165
 31
52.0
  0
LINE
  5
356
330
335
100
AcDbEntity
  8
RAHM3
100
AcDbLine
 10
-137.8264756410194
 20
5.518493325416158
 30
52.0
 11
-139.4798476410193
 21
5.518493325416158
 31
52.0
  0
LINE
  5
357
330
335
100
AcDbEntity
  8
RAHM3
100
AcDbLine
 10
-139.4798476410193
 20
5.518493325416158
 30
52.0
 11
-139.4798476410193
 21
6.510516525416153
 31
52.0
  0
LINE
  5
358
330
335
100
AcDbEntity
  8
RAHM3
100
AcDbLine
 10
-136.6691152410193
 20
7.171865325416149
 30
52.0
 11
-136.6691152410193
 21
7.833214125416168
 31
52.0
  0
LINE
  5
359
330
335
100
AcDbEntity
  8
RAHM3
100
AcDbLine
 10
-137.8264756410194
 20
5.022481725416161
 30
52.0
 11
-137.8264756410194
 21
5.518493325416158
 31
52.0
  0
LINE
  5
35A
330
335
100
AcDbEntity
  8
RAHM3
100
AcDbLine
 10
-137.6611384410193
 20
6.510516525416153
 30
52.0
 11
-139.4798476410193
 21
6.510516525416153
 31
52.0
  0
LINE
  5
35B
330
335
100
AcDbEntity
  8
RAHM3
100
AcDbLine
 10
-136.6691152410193
 20
5.518493325416158
 30
52.0
 11
-136.6691152410193
 21
3.203772525416149
 31
52.0
  0
ARC
  5
35C
330
335
100
AcDbEntity
  8
RAHM3
100
AcDbCircle
 10
-137.6611384410193
 20
5.518493325416158
 30
52.0
 40
0.9920232
100
AcDbArc
 50
0.0
 51
90.0
  0
LINE
  5
35D
330
335
100
AcDbEntity
  8
RAHM3
100
AcDbLine
 10
-139.1930809214994
 20
5.022481725416161
 30
52.0
 11
-137.8264756410194
 21
5.022481725416161
 31
52.0
  0
ARC
  5
35E
330
335
100
AcDbEntity
  8
RAHM3
100
AcDbCircle
 10
-139.1930809214994
 20
4.030458525416167
 30
52.0
 40
0.9920232
100
AcDbArc
 50
90.0
 51
119.7448812969
  0
LINE
  5
35F
330
335
100
AcDbEntity
  8
RAHM3
100
AcDbLine
 10
-140.8773334868594
 20
4.361132925416165
 30
52.0
 11
-141.2985568410193
 21
4.361132925416165
 31
52.0
  0
LINE
  5
360
330
335
100
AcDbEntity
  8
RAHM3
100
AcDbLine
 10
-140.3851521495794
 20
4.491838785176161
 30
52.0
 11
-139.6852622587794
 21
4.891775865576152
 31
52.0
  0
ARC
  5
361
330
335
100
AcDbEntity
  8
RAHM3
100
AcDbCircle
 10
-140.8773334868594
 20
5.35315612541616
 30
52.0
 40
0.9920232
100
AcDbArc
 50
270.0
 51
299.7448812969
  0
ARC
  5
362
330
335
100
AcDbEntity
  8
RAHM3
100
AcDbCircle
 10
-138.8857271583794
 20
2.873098125416151
 30
52.0
 40
0.9920232
100
AcDbArc
 50
90.0
 51
119.7448812969
  0
LINE
  5
363
330
335
100
AcDbEntity
  8
RAHM3
100
AcDbLine
 10
-140.5699797237394
 20
3.203772525416149
 30
52.0
 11
-141.4638940410194
 21
3.203772525416149
 31
52.0
  0
ARC
  5
364
330
335
100
AcDbEntity
  8
RAHM3
100
AcDbCircle
 10
-140.5699797237394
 20
4.195795725416166
 30
52.0
 40
0.9920232
100
AcDbArc
 50
270.0
 51
299.7448812969
  0
LINE
  5
365
330
335
100
AcDbEntity
  8
RAHM3
100
AcDbLine
 10
-139.3779084956594
 20
3.734415465576159
 30
52.0
 11
-140.0777983864594
 21
3.334478385176168
 31
52.0
  0
LINE
  5
366
330
335
100
AcDbEntity
  8
RAHM3
100
AcDbLine
 10
-138.8857271583794
 20
3.865121325416145
 30
52.0
 11
-137.9918128410194
 21
3.865121325416145
 31
52.0
  0
LINE
  5
367
330
335
100
AcDbEntity
  8
RAHM3
100
AcDbLine
 10
-147.5813704410193
 20
3.865121325416145
 30
52.0
 11
-148.4080564410193
 21
3.865121325416145
 31
52.0
  0
LINE
  5
368
330
335
100
AcDbEntity
  8
RAHM3
100
AcDbLine
 10
-146.2586728410194
 20
3.865121325416145
 30
52.0
 11
-145.4319868410194
 21
3.865121325416145
 31
52.0
  0
LINE
  5
369
330
335
100
AcDbEntity
  8
RAHM3
100
AcDbLine
 10
-148.4080564410193
 20
3.203772525416149
 30
52.0
 11
-148.4080564410193
 21
3.865121325416145
 31
52.0
  0
LINE
  5
36A
330
335
100
AcDbEntity
  8
RAHM3
100
AcDbLine
 10
-145.4319868410194
 20
3.865121325416145
 30
52.0
 11
-145.4319868410194
 21
3.203772525416149
 31
52.0
  0
LINE
  5
36B
330
335
100
AcDbEntity
  8
RAHM3
100
AcDbLine
 10
-132.5356852410194
 20
7.667876925416146
 30
52.0
 11
-129.2289412410193
 21
7.667876925416146
 31
52.0
  0
LINE
  5
36C
330
335
100
AcDbEntity
  8
RAHM3
100
AcDbLine
 10
-129.2289412410193
 20
7.667876925416146
 30
52.0
 11
-129.2289412410193
 21
7.00652812541615
 31
52.0
  0
LINE
  5
36D
330
335
100
AcDbEntity
  8
RAHM3
100
AcDbLine
 10
-132.5356852410194
 20
5.022481725416161
 30
52.0
 11
-132.5356852410194
 21
4.361132925416165
 31
52.0
  0
LINE
  5
36E
330
335
100
AcDbEntity
  8
RAHM3
100
AcDbLine
 10
-132.5356852410194
 20
4.361132925416165
 30
52.0
 11
-129.2289412410193
 21
4.361132925416165
 31
52.0
  0
LINE
  5
36F
330
335
100
AcDbEntity
  8
RAHM3
100
AcDbLine
 10
-132.5356852410194
 20
5.022481725416161
 30
52.0
 11
-133.6930456410194
 21
5.022481725416161
 31
52.0
  0
LINE
  5
370
330
335
100
AcDbEntity
  8
RAHM3
100
AcDbLine
 10
-128.0715808410194
 20
7.00652812541615
 30
52.0
 11
-129.2289412410193
 21
7.00652812541615
 31
52.0
  0
LINE
  5
371
330
335
100
AcDbEntity
  8
RAHM3
100
AcDbLine
 10
-129.2289412410193
 20
4.361132925416165
 30
52.0
 11
-129.2289412410193
 21
5.518493325416158
 31
52.0
  0
LINE
  5
372
330
335
100
AcDbEntity
  8
RAHM3
100
AcDbLine
 10
-132.5356852410194
 20
6.510516525416153
 30
52.0
 11
-132.5356852410194
 21
7.667876925416146
 31
52.0
  0
LINE
  5
373
330
335
100
AcDbEntity
  8
RAHM3
100
AcDbLine
 10
-128.0715808410194
 20
5.518493325416158
 30
52.0
 11
-128.0715808410194
 21
4.195795725416166
 31
52.0
  0
LINE
  5
374
330
335
100
AcDbEntity
  8
RAHM3
100
AcDbLine
 10
-129.0636040410194
 20
6.510516525416153
 30
52.0
 11
-132.5356852410194
 21
6.510516525416153
 31
52.0
  0
ARC
  5
375
330
335
100
AcDbEntity
  8
RAHM3
100
AcDbCircle
 10
-129.0636040410194
 20
5.518493325416158
 30
52.0
 40
0.9920232
100
AcDbArc
 50
0.0
 51
90.0
  0
LINE
  5
376
330
335
100
AcDbEntity
  8
RAHM3
100
AcDbLine
 10
-132.7010224411794
 20
5.518493325416158
 30
52.0
 11
-129.2289412410193
 21
5.518493325416158
 31
52.0
  0
LINE
  5
377
330
335
100
AcDbEntity
  8
RAHM3
100
AcDbLine
 10
-133.6930456410194
 20
6.510516525416153
 30
52.0
 11
-133.6930456410194
 21
7.833214125416168
 31
52.0
  0
ARC
  5
378
330
335
100
AcDbEntity
  8
RAHM3
100
AcDbCircle
 10
-132.7010224411794
 20
6.510516525416153
 30
52.0
 40
0.9920232
100
AcDbArc
 50
180.0
 51
270.0
  0
POINT
  5
379
330
335
100
AcDbEntity
  8
0
 60
     1
100
AcDbPoint
 10
0.0
 20
0.0
 30
0.0
1001
GENIUS_GENODEF_13
1002
{
1000
HIER
1070
     1
1002
}
1002
{
1000
MANEDIT
1070
     0
1002
}
1002
{
1000
NOSEL
1070
     0
1002
}
1002
{
1000
BEHIND
1070
     0
1002
}
1002
{
1000
REACTOR
1002
}
1001
GENIUS_GENTITLE_13
1002
{
1000
SCALE
1000
1:1
1002
}
1002
{
1000
BORDER
1000
GEN_A4
1002
}
1002
{
1000
TITLE
1000
GENTITUS
1002
}
1002
{
1000
UNCHG
1002
{
1000
GEN-TITLE-SCA
1000
GEN-TITLE-SIZ
1002
}
1002
}
1002
{
1000
HRA
1005
0
1002
}
1002
{
1000
HTIT
1005
0
1002
}
1002
{
1000
GENIUSID
1005
379
1002
}
1001
GENIUS_GENOBJ-N-TIT_13
1002
{
1000
OWNER
1000
GEN
1002
}
1001
GENIUS_GENOENT_13
1002
{
1000
MYREF
1005
379
1002
}
1002
{
1000
GRP
1005
0
1002
}
1001
GENIUS_GENOLIS_13
1002
{
1000
ENT
1005
0
1005
0
1002
}
  0
TEXT
  5
37A
330
335
100
AcDbEntity
  8
0
 60
     1
100
AcDbText
 10
210.0
 20
297.0
 30
0.0
 40
3.5
  1
!GENTITLE-MAX
100
AcDbText
  0
TEXT
  5
37B
330
335
100
AcDbEntity
  8
0
 60
     1
100
AcDbText
 10
205.0
 20
287.0
 30
0.0
 40
3.5
  1
!GENTITLE-RU
100
AcDbText
  0
TEXT
  5
37C
330
335
100
AcDbEntity
  8
0
 60
     1
100
AcDbText
 10
15.0
 20
59.99
 30
0.0
 40
3.5
  1
!GENTITLE-LL
100
AcDbText
  0
TEXT
  5
37D
330
335
100
AcDbEntity
  8
0
 60
     1
100
AcDbText
 10
205.0
 20
5.0
 30
0.0
 40
3.5
  1
!GENTITLE-INSERT
100
AcDbText
  0
LINE
  5
37E
330
335
100
AcDbEntity
  8
RAHM2
100
AcDbLine
 10
-155.0
 20
12.0
 30
0.0
 11
0.0
 21
12.0
 31
0.0
  0
LINE
  5
37F
330
335
100
AcDbEntity
  8
RAHM2
100
AcDbLine
 10
-12.0
 20
12.0
 30
0.0
 11
-12.00000000000727
 21
0.0
 31
0.0
  0
LINE
  5
380
330
335
100
AcDbEntity
  8
RAHM2
100
AcDbLine
 10
-80.0
 20
19.99999999999272
 30
0.0
 11
0.0
 21
20.0
 31
0.0
  0
LINE
  5
381
330
335
100
AcDbEntity
  8
RAHM2
100
AcDbLine
 10
0.0
 20
27.0
 30
0.0
 11
-80.0
 21
27.0
 31
0.0
  0
MTEXT
  5
382
330
335
100
AcDbEntity
  8
RAHM2
100
AcDbMText
 10
-78.39748281353763
 20
37.79972226353243
 30
0.0
 40
2.5
 41
2.458156240282278
 71
     1
 72
     5
  1

 73
     1
 44
1.0
  0
TEXT
  5
383
330
335
100
AcDbEntity
  8
RAHM3
100
AcDbText
 10
-79.00900277736832
 20
36.89804600214973
 30
0.0
 40
2.299999999999999
  1
名称 ＴＩＴＬＥ
 41
0.8
100
AcDbText
  0
LINE
  5
384
330
335
100
AcDbEntity
  8
RAHM2
100
AcDbLine
 10
-80.0
 20
40.00000000000727
 30
0.0
 11
-80.0
 21
0.0
 31
0.0
  0
TEXT
  5
385
330
335
100
AcDbEntity
  8
RAHM3
100
AcDbText
 10
-79.00900277736832
 20
23.89804600216055
 30
0.0
 40
2.299999999999999
  1
符号 
 41
0.8
100
AcDbText
  0
TEXT
  5
386
330
335
100
AcDbEntity
  8
RAHM3
100
AcDbText
 10
-79.00900277736832
 20
16.89804600215146
 30
0.0
 40
2.299999999999999
  1
件名
 41
0.8
100
AcDbText
  0
TEXT
  5
387
330
335
100
AcDbEntity
  8
RAHM3
100
AcDbText
 10
-79.00900277736832
 20
8.898046002160548
 30
0.0
 40
2.299999999999999
  1
図番 ＤＲＡＷＩＮＧ ＮＯ．
 41
0.8
100
AcDbText
  0
CIRCLE
  5
388
330
335
100
AcDbEntity
  8
RAHM2
100
AcDbCircle
 10
-5.0
 20
5.0
 30
0.0
 40
4.5
  0
LINE
  5
389
330
335
100
AcDbEntity
  8
RAHM2
100
AcDbLine
 10
-130.0000000000018
 20
40.00000000000916
 30
0.0
 11
-130.0000000000018
 21
12.0
 31
0.0
  0
LINE
  5
38A
330
335
100
AcDbEntity
  8
RAHM2
100
AcDbLine
 10
-130.0000000000018
 20
26.00000000000458
 30
0.0
 11
-80.0
 21
25.99999999999818
 31
0.0
  0
LINE
  5
38B
330
335
100
AcDbEntity
  8
RAHM2
100
AcDbLine
 10
-105.0000000000018
 20
40.00000000000916
 30
0.0
 11
-105.0000000000018
 21
12.0
 31
0.0
  0
TEXT
  5
38C
330
335
100
AcDbEntity
  8
RAHM3
100
AcDbText
 10
-129.0090027773683
 20
36.89804600215881
 30
0.0
 40
2.299999999999999
  1
承認 ＡＰＰＤ
 41
0.8
100
AcDbText
  0
TEXT
  5
38D
330
335
100
AcDbEntity
  8
RAHM3
100
AcDbText
 10
-104.0090027773683
 20
36.8980460021551
 30
0.0
 40
2.299999999999999
  1
検図 ＣＨＫ
 41
0.8
100
AcDbText
  0
TEXT
  5
38E
330
335
100
AcDbEntity
  8
RAHM3
100
AcDbText
 10
-129.0090027773683
 20
22.89804600215422
 30
0.0
 40
2.299999999999999
  1
設計 ＥＮＧＲ
 41
0.8
100
AcDbText
  0
TEXT
  5
38F
330
335
100
AcDbEntity
  8
RAHM3
100
AcDbText
 10
-104.0090027773683
 20
22.89804600214964
 30
0.0
 40
2.299999999999999
  1
製図 ＤＲ ＤＡＴＥ
 41
0.8
100
AcDbText
  0
LINE
  5
390
330
335
100
AcDbEntity
  8
RAHM2
100
AcDbLine
 10
-155.0
 20
30.60000000000036
 30
0.0
 11
-130.0000000000018
 21
30.60000000000036
 31
0.0
  0
LINE
  5
391
330
335
100
AcDbEntity
  8
RAHM2
100
AcDbLine
 10
-155.0
 20
21.29999999999927
 30
0.0
 11
-130.0000000000018
 21
21.30000000000109
 31
0.0
  0
TEXT
  5
392
330
335
100
AcDbEntity
  8
RAHM3
100
AcDbText
 10
-121.7843516157921
 20
6.885079184961092
 30
0.0
 40
4.0
  1
伊藤鉄工株式会社
100
AcDbText
  0
TEXT
  5
393
330
335
100
AcDbEntity
  8
RAHM3
100
AcDbText
 10
-120.6675998914835
 20
3.578884653066273
 30
0.0
 40
2.0
  1
ITO TEKKO  CO.,LTD.
100
AcDbText
1001
GENIUS_GENTRA_14
1002
{
1070
     1
1000
/
1000
ITO TEKKO  CO.,LTD.
1000
JPN
1070
     0
1040
1.0
1070
     0
1002
}
  0
TEXT
  5
394
330
335
100
AcDbEntity
  8
RAHM3
100
AcDbText
 10
-120.6675998914835
 20
0.9279960228792472
 30
0.0
 40
2.0
  1
KAWAGUCHI  JAPAN
100
AcDbText
  0
TEXT
  5
395
330
335
100
AcDbEntity
  8
RAHM3
100
AcDbText
 10
-11.85206060358336
 20
9.69362381988742
 30
0.0
 40
1.8
  1
ＲＥＶ．ＭＡＲＫ
 41
0.6800000000000001
100
AcDbText
  0
TEXT
  5
396
330
335
100
AcDbEntity
  8
RAHM3
100
AcDbText
 10
-11.57052530051805
 20
7.425435269030799
 30
0.0
 40
1.8
  1
変
100
AcDbText
  0
TEXT
  5
397
330
335
100
AcDbEntity
  8
RAHM3
100
AcDbText
 10
-11.59004395148213
 20
4.996441785248862
 30
0.0
 40
1.8
  1
更
100
AcDbText
  0
TEXT
  5
398
330
335
100
AcDbEntity
  8
RAHM3
100
AcDbText
 10
-11.62938531906752
 20
2.617267270587205
 30
0.0
 40
1.8
  1
回
100
AcDbText
  0
TEXT
  5
399
330
335
100
AcDbEntity
  8
RAHM3
100
AcDbText
 10
-11.56556962136267
 20
0.3551115072955326
 30
0.0
 40
1.8
  1
数
100
AcDbText
  0
TEXT
  5
39A
330
335
100
AcDbEntity
  8
RAHM3
100
AcDbText
 10
-154.0090027773665
 20
36.89804600217056
 30
0.0
 40
2.299999999999999
  1
尺度 ＳＣＡＬＥ
 41
0.8
100
AcDbText
  0
TEXT
  5
39B
330
335
100
AcDbEntity
  8
RAHM3
100
AcDbText
 10
-154.0090027773665
 20
27.49804600215
 30
0.0
 40
2.299999999999999
  1
図面枚数 ＮＯ．  
 41
0.8
100
AcDbText
  0
LINE
  5
39C
330
335
100
AcDbEntity
  8
7A
100
AcDbLine
 10
-151.7551228444401
 20
16.64999999999988
 30
0.0
 11
-149.2551228444401
 21
16.64999999999988
 31
0.0
1001
GENIUS_GENOREF_13
1005
3A0
  0
LINE
  5
39D
330
335
100
AcDbEntity
  8
7A
100
AcDbLine
 10
-151.7551228444401
 20
16.64999999999988
 30
0.0
 11
-151.7551228444401
 21
19.14999999999988
 31
0.0
1001
GENIUS_GENOREF_13
1005
3A0
  0
LINE
  5
39E
330
335
100
AcDbEntity
  8
7A
100
AcDbLine
 10
-151.7551228444401
 20
16.64999999999988
 30
0.0
 11
-154.2551228444401
 21
16.64999999999988
 31
0.0
1001
GENIUS_GENOREF_13
1005
3A0
  0
LINE
  5
39F
330
335
100
AcDbEntity
  8
7A
100
AcDbLine
 10
-151.7551228444401
 20
16.64999999999988
 30
0.0
 11
-151.7551228444401
 21
14.14999999999988
 31
0.0
1001
GENIUS_GENOREF_13
1005
3A0
  0
POINT
  5
3A0
330
335
100
AcDbEntity
  8
0
 60
     1
100
AcDbPoint
 10
0.0
 20
0.0
 30
0.0
1001
GENIUS_GENODEF_13
1002
{
1000
HIER
1070
    10
1002
}
1002
{
1000
MANEDIT
1070
     0
1002
}
1002
{
1000
NOSEL
1070
     0
1002
}
1002
{
1000
BEHIND
1070
     0
1002
}
1002
{
1000
REACTOR
1002
}
1001
GENIUS_GENOBJ-N-CRS_13
1002
{
1000
OWNER
1000
GEN
1002
}
1001
GENIUS_GENOENT_13
1002
{
1000
MYREF
1005
3A0
1002
}
1002
{
1000
GRP
1005
0
1002
}
1001
GENIUS_GENOLIS_13
1002
{
1000
ENT
1005
39F
1005
39E
1005
39D
1005
39C
1002
}
  0
CIRCLE
  5
3A1
330
335
100
AcDbEntity
  8
RAHM3
100
AcDbCircle
 10
-151.7551228444401
 20
16.64999999999988
 30
0.0
 40
2.0
  0
CIRCLE
  5
3A2
330
335
100
AcDbEntity
  8
RAHM3
100
AcDbCircle
 10
-151.7551228444401
 20
16.64999999999952
 30
0.0
 40
1.0
  0
LINE
  5
3A3
330
335
100
AcDbEntity
  8
RAHM3
100
AcDbLine
 10
-147.7659442035316
 20
17.64999999999929
 30
0.0
 11
-147.7659442035316
 21
15.64999999999929
 31
0.0
  0
LINE
  5
3A4
330
335
100
AcDbEntity
  8
RAHM3
100
AcDbLine
 10
-147.7659442035316
 20
15.64999999999929
 30
0.0
 11
-143.7659442035316
 21
14.64999999999928
 31
0.0
  0
LINE
  5
3A5
330
335
100
AcDbEntity
  8
RAHM3
100
AcDbLine
 10
-143.7659442035316
 20
14.64999999999928
 30
0.0
 11
-143.7659442035316
 21
18.64999999999929
 31
0.0
  0
LINE
  5
3A6
330
335
100
AcDbEntity
  8
RAHM3
100
AcDbLine
 10
-143.7659442035316
 20
18.64999999999929
 30
0.0
 11
-147.7659442035316
 21
17.64999999999929
 31
0.0
  0
LINE
  5
3A7
330
335
100
AcDbEntity
  8
7A
100
AcDbLine
 10
-148.6350563849704
 20
16.64999999999929
 30
0.0
 11
-142.8462596443259
 21
16.64999999999929
 31
0.0
1001
GENIUS_GENODEF_13
1002
{
1000
HIER
1070
     0
1002
}
1002
{
1000
MANEDIT
1070
     0
1002
}
1002
{
1000
NOSEL
1070
     0
1002
}
1002
{
1000
BEHIND
1070
     0
1002
}
1002
{
1000
REACTOR
1002
}
1001
GENIUS_GENOBJ-N-CEN_13
1002
{
1000
OWNER
1000
GEN
1002
}
  0
TEXT
  5
3A8
330
335
100
AcDbEntity
  8
RAHM3
100
AcDbText
 10
-141.8454810851357
 20
18.28209750892168
 30
0.0
 40
2.1
  1
単位 ＵＮＩＴ
 41
0.7
100
AcDbText
  0
LINE
  5
3A9
330
335
100
AcDbEntity
  8
RAHM2
100
AcDbLine
 10
-142.5000000000009
 20
21.29999999999927
 30
0.0
 11
-142.5000000000009
 21
12.0
 31
0.0
  0
TEXT
  5
3AA
330
335
100
AcDbEntity
  8
RAHM3
100
AcDbText
 10
-139.6782849929894
 20
13.82826889824218
 30
0.0
 40
4.0
  1
ｍｍ
 41
0.8
100
AcDbText
  0
POLYLINE
  5
3AB
330
335
100
AcDbEntity
  8
RAHM2
100
AcDb2dPolyline
 66
     1
 10
0.0
 20
0.0
 30
0.0
 70
     1
  0
VERTEX
  5
3AC
330
3AB
100
AcDbEntity
  8
RAHM2
100
AcDbVertex
100
AcDb2dVertex
 10
-155.0
 20
-0.000000000001819
 30
0.0
  0
VERTEX
  5
3AD
330
3AB
100
AcDbEntity
  8
RAHM2
100
AcDbVertex
100
AcDb2dVertex
 10
-155.0
 20
40.00000000002091
 30
0.0
  0
VERTEX
  5
3AE
330
3AB
100
AcDbEntity
  8
RAHM2
100
AcDbVertex
100
AcDb2dVertex
 10
0.0
 20
39.99999999999273
 30
0.0
  0
VERTEX
  5
3AF
330
3AB
100
AcDbEntity
  8
RAHM2
100
AcDbVertex
100
AcDb2dVertex
 10
0.0
 20
0.0
 30
0.0
  0
SEQEND
  5
3B0
330
3AB
100
AcDbEntity
  8
RAHM2
  0
ATTDEF
  5
3B1
330
335
100
AcDbEntity
  8
RAHM3
100
AcDbText
 10
-147.2595867131855
 20
31.94728899818607
 30
0.0
 40
4.0
  1

100
AcDbAttributeDefinition
  3
尺度
  2
GEN-TITLE-SCA
 70
     0
  0
ATTDEF
  5
3B2
330
335
100
AcDbEntity
  8
RAHM3
100
AcDbText
 10
-73.09000000000001
 20
29.74
 30
0.0
 40
5.0
  1

100
AcDbAttributeDefinition
  3
名称
  2
ＴＩＴＬＥ
 70
     0
  0
ATTDEF
  5
3B3
330
335
100
AcDbEntity
  8
RAHM3
100
AcDbText
 10
-71.56287815584043
 20
21.80438312711384
 30
0.0
 40
3.0
  1

100
AcDbAttributeDefinition
  3
符号
  2
ｃｏｄｅ
 70
     0
  0
ATTDEF
  5
3B4
330
335
100
AcDbEntity
  8
RAHM3
100
AcDbText
 10
-70.74480649396313
 20
14.80438312710657
 30
0.0
 40
3.0
  1

100
AcDbAttributeDefinition
  3
件名
  2
件名
 70
     0
  0
ATTDEF
  5
3B5
330
335
100
AcDbEntity
  8
RAHM3
100
AcDbText
 10
-73.09000000000001
 20
1.739999999992722
 30
0.0
 40
5.0
  1

100
AcDbAttributeDefinition
  3
図面番号
  2
Ｎｏ．
 70
     0
  0
ATTDEF
  5
3B6
330
335
100
AcDbEntity
  8
RAHM3
100
AcDbText
 10
-100.45
 20
17.40708932112655
 30
0.0
 40
4.0
  1

100
AcDbAttributeDefinition
  3
製図者
  2
ＤＲ
 70
     0
  0
ATTDEF
  5
3B7
330
335
100
AcDbEntity
  8
RAHM3
100
AcDbText
 10
-103.7180853038729
 20
12.76999999999999
 30
0.0
 40
3.0
  1

 41
0.8
100
AcDbAttributeDefinition
  3
日付
  2
ｄａｔｅ
 70
     0
  0
ENDBLK
  5
3B9
330
335
100
AcDbEntity
  8
0
100
AcDbBlockEnd
  0
BLOCK
  5
6BE
330
6A8
100
AcDbEntity
  8
0
100
AcDbBlockBegin
  2
IGS_A3
 70
     0
 10
0.0
 20
0.0
 30
0.0
  3
IGS_A3
  1

  0
LINE
  5
6A9
330
6A8
100
AcDbEntity
  8
AM_BOR
100
AcDbLine
 10
0.0
 20
0.0
 30
0.0
 11
0.0
 21
10.0
 31
0.0
  0
LINE
  5
6AA
330
6A8
100
AcDbEntity
  8
AM_BOR
100
AcDbLine
 10
0.0
 20
297.0
 30
0.0
 11
10.0
 21
297.0
 31
0.0
  0
LINE
  5
6AB
330
6A8
100
AcDbEntity
  8
AM_BOR
100
AcDbLine
 10
420.0
 20
297.0
 30
0.0
 11
420.0
 21
287.0
 31
0.0
  0
LINE
  5
6AC
330
6A8
100
AcDbEntity
  8
AM_BOR
100
AcDbLine
 10
420.0
 20
0.0
 30
0.0
 11
410.0
 21
0.0
 31
0.0
  0
LINE
  5
6AD
330
6A8
100
AcDbEntity
  8
0
100
AcDbLine
 10
25.0
 20
10.0
 30
0.0
 11
25.0
 21
287.0
 31
0.0
  0
LINE
  5
6AE
330
6A8
100
AcDbEntity
  8
0
100
AcDbLine
 10
410.0
 20
10.0
 30
0.0
 11
25.0
 21
10.0
 31
0.0
  0
LINE
  5
6AF
330
6A8
100
AcDbEntity
  8
0
100
AcDbLine
 10
410.0
 20
287.0
 30
0.0
 11
410.0
 21
10.0
 31
0.0
  0
LINE
  5
6B0
330
6A8
100
AcDbEntity
  8
0
100
AcDbLine
 10
25.0
 20
287.0
 30
0.0
 11
410.0
 21
287.0
 31
0.0
  0
LINE
  5
6B1
330
6A8
100
AcDbEntity
  8
AM_BOR
100
AcDbLine
 10
0.0
 20
287.0
 30
0.0
 11
0.0
 21
297.0
 31
0.0
  0
LINE
  5
6B2
330
6A8
100
AcDbEntity
  8
AM_BOR
100
AcDbLine
 10
10.0
 20
0.0
 30
0.0
 11
0.0
 21
0.0
 31
0.0
  0
LINE
  5
6B3
330
6A8
100
AcDbEntity
  8
AM_BOR
100
AcDbLine
 10
420.0
 20
10.0
 30
0.0
 11
420.0
 21
0.0
 31
0.0
  0
LINE
  5
6B4
330
6A8
100
AcDbEntity
  8
AM_BOR
100
AcDbLine
 10
410.0
 20
297.0
 30
0.0
 11
420.0
 21
297.0
 31
0.0
  0
TEXT
  5
6B5
330
6A8
100
AcDbEntity
  8
0
 60
     1
100
AcDbText
 10
410.0
 20
287.0
 30
0.0
 40
3.5
  1
!GENTITLE-RU
  7
ACJISTS
100
AcDbText
  0
TEXT
  5
6B6
330
6A8
100
AcDbEntity
  8
0
 60
     1
100
AcDbText
 10
420.0
 20
297.0
 30
0.0
 40
3.5
  1
!GENTITLE-MAX
  7
ACJISTS
100
AcDbText
  0
TEXT
  5
6B7
330
6A8
100
AcDbEntity
  8
0
 60
     1
100
AcDbText
 10
410.0
 20
10.0
 30
0.0
 40
3.5
  1
!GENTITLE-INSERT
  7
ACJISTS
100
AcDbText
  0
TEXT
  5
6B8
330
6A8
100
AcDbEntity
  8
0
 60
     1
100
AcDbText
 10
25.0
 20
10.0
 30
0.0
 40
3.5
  1
!GENTITLE-LL
  7
ACJISTS
100
AcDbText
  0
LINE
  5
6B9
330
6A8
100
AcDbEntity
  8
AM_BOR
 62
     1
370
    25
100
AcDbLine
 10
0.0
 20
297.0
 30
0.0
 11
420.0
 21
297.0
 31
0.0
  0
LINE
  5
6BA
330
6A8
100
AcDbEntity
  8
AM_BOR
 62
     1
370
    25
100
AcDbLine
 10
420.0
 20
297.0
 30
0.0
 11
420.0
 21
0.0
 31
0.0
  0
LINE
  5
6BB
330
6A8
100
AcDbEntity
  8
AM_BOR
 62
     1
370
    25
100
AcDbLine
 10
420.0
 20
0.0
 30
0.0
 11
0.0
 21
0.0
 31
0.0
  0
LINE
  5
6BC
330
6A8
100
AcDbEntity
  8
AM_BOR
 62
     1
370
    25
100
AcDbLine
 10
0.0
 20
0.0
 30
0.0
 11
0.0
 21
297.0
 31
0.0
  0
TEXT
  5
6BD
330
6A8
100
AcDbEntity
  8
DEFPOINTS
100
AcDbText
 10
19.5941472374451
 20
2.504073349097552
 30
0.0
 40
5.0
  1
A3
100
AcDbText
  0
ENDBLK
  5
6BF
330
6A8
100
AcDbEntity
  8
0
100
AcDbBlockEnd
  0
BLOCK
  5
AD4
330
AD3
100
AcDbEntity
  8
1
100
AcDbBlockBegin
  2
LTEX0
 70
     0
 10
2216.6650551912
 20
-29.2312395164
 30
0.0
  3
LTEX0
  1

  0
CIRCLE
  5
AD5
330
AD3
100
AcDbEntity
  8
1
  6
ByBlock
 62
     7
100
AcDbCircle
 10
2216.6650551912
 20
-29.2312395164
 30
0.0
 40
3.333333333299999
  0
TEXT
  5
AD6
330
AD3
100
AcDbEntity
  8
1
  6
Continuous
 62
     7
100
AcDbText
 10
2464.873405
 20
-156.297691
 30
0.0
 40
40.0
  1
コンクリ－ト（ＢＢ１６２Ｂ）
 41
0.7781249999999998
  7
MDRAFSTD
 72
     5
 11
2962.873405
 21
-156.297691
 31
0.0
100
AcDbText
  0
LINE
  5
AD7
330
AD3
100
AcDbEntity
  8
1
  6
ByBlock
 62
     7
100
AcDbLine
 10
2216.6650551912
 20
-29.2312395164
 30
0.0
 11
2464.8734054994
 21
-166.2976914963
 31
0.0
  0
LINE
  5
AD8
330
AD3
100
AcDbEntity
  8
1
  6
ByBlock
 62
     7
100
AcDbLine
 10
2464.8734054994
 20
-166.2976914963
 30
0.0
 11
2962.8734054994
 21
-166.2976914963
 31
0.0
  0
ENDBLK
  5
AD9
330
AD3
100
AcDbEntity
  8
1
100
AcDbBlockEnd
  0
BLOCK
  5
ADB
330
ADA
100
AcDbEntity
  8
1
100
AcDbBlockBegin
  2
LTEX1
 70
     0
 10
2271.8509862318
 20
-239.4511349687
 30
0.0
  3
LTEX1
  1

  0
CIRCLE
  5
ADC
330
ADA
100
AcDbEntity
  8
1
  6
ByBlock
 62
     7
100
AcDbCircle
 10
2271.8509862318
 20
-239.4511349687
 30
0.0
 40
3.333333333299999
  0
TEXT
  5
ADD
330
ADA
100
AcDbEntity
  8
1
  6
Continuous
 62
     7
100
AcDbText
 10
2464.873405
 20
-342.903142
 30
0.0
 40
40.0
  1
コンクリ－ト（ＢＢ１６２Ｂ）
 41
0.7781249999999998
  7
MDRAFSTD
 72
     5
 11
2962.873405
 21
-342.903142
 31
0.0
100
AcDbText
  0
LINE
  5
ADE
330
ADA
100
AcDbEntity
  8
1
  6
ByBlock
 62
     7
100
AcDbLine
 10
2271.8509862318
 20
-239.4511349687
 30
0.0
 11
2464.8734054994
 21
-352.9031420383
 31
0.0
  0
LINE
  5
ADF
330
ADA
100
AcDbEntity
  8
1
  6
ByBlock
 62
     7
100
AcDbLine
 10
2464.8734054994
 20
-352.9031420383
 30
0.0
 11
2962.8734054994
 21
-352.9031420383
 31
0.0
  0
ENDBLK
  5
AE0
330
ADA
100
AcDbEntity
  8
1
100
AcDbBlockEnd
  0
BLOCK
  5
AE2
330
AE1
100
AcDbEntity
  8
1
100
AcDbBlockBegin
  2
LTEX2
 70
     0
 10
2269.5408774906
 20
-326.9785883866
 30
0.0
  3
LTEX2
  1

  0
CIRCLE
  5
AE3
330
AE1
100
AcDbEntity
  8
1
  6
ByBlock
 62
     7
100
AcDbCircle
 10
2269.5408774906
 20
-326.9785883866
 30
0.0
 40
3.333333333299999
  0
TEXT
  5
AE4
330
AE1
100
AcDbEntity
  8
1
  6
Continuous
 62
     7
100
AcDbText
 10
2464.873405
 20
-482.279703
 30
0.0
 40
40.0
  1
再生クラッシャラン基礎（ＲＣ－４０）
 41
0.7716346153846152
  7
MDRAFSTD
 72
     5
 11
3106.873405
 21
-482.279703
 31
0.0
100
AcDbText
  0
LINE
  5
AE5
330
AE1
100
AcDbEntity
  8
1
  6
ByBlock
 62
     7
100
AcDbLine
 10
2269.5408774906
 20
-326.9785883866
 30
0.0
 11
2464.8734054994
 21
-492.2797027594
 31
0.0
  0
LINE
  5
AE6
330
AE1
100
AcDbEntity
  8
1
  6
ByBlock
 62
     7
100
AcDbLine
 10
2464.8734054994
 20
-492.2797027594
 30
0.0
 11
3106.8734054994
 21
-492.2797027594
 31
0.0
  0
ENDBLK
  5
AE7
330
AE1
100
AcDbEntity
  8
1
100
AcDbBlockEnd
  0
BLOCK
  5
F1E
330
F08
100
AcDbEntity
  8
0
100
AcDbBlockBegin
  2
*D9
 70
     1
 10
0.0
 20
0.0
 30
0.0
  3
*D9
  1

  0
LINE
  5
1746
330
F08
100
AcDbEntity
  8
AM_5
100
AcDbLine
 10
1893.609387442299
 20
2013.868826435724
 30
0.0
 11
1893.609387442299
 21
2163.868827445724
 31
0.0
  0
LINE
  5
1747
330
F08
100
AcDbEntity
  8
AM_5
100
AcDbLine
 10
1093.609387442298
 20
2013.868826435724
 30
0.0
 11
1093.609387442298
 21
2163.868827445724
 31
0.0
  0
LINE
  5
1748
330
F08
100
AcDbEntity
  8
AM_5
100
AcDbLine
 10
1868.609387442299
 20
2153.868827445724
 30
0.0
 11
1118.609387442298
 21
2153.868827445724
 31
0.0
  0
INSERT
  5
1749
330
F08
100
AcDbEntity
  8
AM_5
100
AcDbBlockReference
  2
_Open30
 10
1893.609387442299
 20
2153.868827445724
 30
0.0
 41
25.0
 42
25.0
 43
25.0
  0
INSERT
  5
174A
330
F08
100
AcDbEntity
  8
AM_5
100
AcDbBlockReference
  2
_Open30
 10
1093.609387442298
 20
2153.868827445724
 30
0.0
 41
25.0
 42
25.0
 43
25.0
 50
180.0
  0
MTEXT
  5
174B
330
F08
100
AcDbEntity
  8
AM_5
 62
     2
100
AcDbMText
 10
1493.609387442299
 20
2183.868827445724
 30
0.0
 40
30.0
 41
0.0
 71
     5
 72
     1
  1
800
 73
     1
 44
1.0
  0
POINT
  5
174C
330
F08
100
AcDbEntity
  8
DEFPOINTS
 62
     0
100
AcDbPoint
 10
1893.609387442299
 20
2003.868826435724
 30
0.0
  0
POINT
  5
174D
330
F08
100
AcDbEntity
  8
DEFPOINTS
 62
     0
100
AcDbPoint
 10
1093.609387442298
 20
2003.868826435724
 30
0.0
  0
POINT
  5
174E
330
F08
100
AcDbEntity
  8
DEFPOINTS
 62
     0
100
AcDbPoint
 10
1093.609387442298
 20
2153.868827445724
 30
0.0
  0
ENDBLK
  5
F1F
330
F08
100
AcDbEntity
  8
0
100
AcDbBlockEnd
  0
BLOCK
  5
1090
330
1054
100
AcDbEntity
  8
0
100
AcDbBlockBegin
  2
*D10
 70
     1
 10
0.0
 20
0.0
 30
0.0
  3
*D10
  1

  0
LINE
  5
173D
330
1054
100
AcDbEntity
  8
AM_5
100
AcDbLine
 10
1903.609387442299
 20
1533.868826435724
 30
0.0
 11
2094.071456971973
 21
1533.868826435724
 31
0.0
  0
LINE
  5
173E
330
1054
100
AcDbEntity
  8
AM_5
100
AcDbLine
 10
1972.620175280528
 20
1333.868826435724
 30
0.0
 11
2094.071456971973
 21
1333.868826435724
 31
0.0
  0
LINE
  5
173F
330
1054
100
AcDbEntity
  8
AM_5
100
AcDbLine
 10
2084.071456971973
 20
1508.868826435724
 30
0.0
 11
2084.071456971973
 21
1358.868826435724
 31
0.0
  0
INSERT
  5
1740
330
1054
100
AcDbEntity
  8
AM_5
100
AcDbBlockReference
  2
_Open30
 10
2084.071456971973
 20
1533.868826435724
 30
0.0
 41
25.0
 42
25.0
 43
25.0
 50
90.0
  0
INSERT
  5
1741
330
1054
100
AcDbEntity
  8
AM_5
100
AcDbBlockReference
  2
_Open30
 10
2084.071456971973
 20
1333.868826435724
 30
0.0
 41
25.0
 42
25.0
 43
25.0
 50
270.0
  0
MTEXT
  5
1742
330
1054
100
AcDbEntity
  8
AM_5
 62
     2
100
AcDbMText
 10
2054.068504216067
 20
1433.868826435724
 30
0.0
 40
30.0
 41
0.0
 71
     5
 72
     1
  1
200
 11
0.0000000000000001
 21
1.0
 31
0.0
 73
     1
 44
1.0
  0
POINT
  5
1743
330
1054
100
AcDbEntity
  8
DEFPOINTS
 62
     0
100
AcDbPoint
 10
1893.609387442299
 20
1533.868826435724
 30
0.0
  0
POINT
  5
1744
330
1054
100
AcDbEntity
  8
DEFPOINTS
 62
     0
100
AcDbPoint
 10
1962.620175280528
 20
1333.868826435724
 30
0.0
  0
POINT
  5
1745
330
1054
100
AcDbEntity
  8
DEFPOINTS
 62
     0
100
AcDbPoint
 10
2084.071456971973
 20
1333.868826435724
 30
0.0
  0
ENDBLK
  5
1091
330
1054
100
AcDbEntity
  8
0
100
AcDbBlockEnd
  0
BLOCK
  5
1092
330
107A
100
AcDbEntity
  8
0
100
AcDbBlockBegin
  2
*D11
 70
     1
 10
0.0
 20
0.0
 30
0.0
  3
*D11
  1

  0
LINE
  5
1734
330
107A
100
AcDbEntity
  8
AM_5
100
AcDbLine
 10
1753.609387442298
 20
1133.868826435724
 30
0.0
 11
2194.071456971974
 21
1133.868826435724
 31
0.0
  0
LINE
  5
1735
330
107A
100
AcDbEntity
  8
AM_5
100
AcDbLine
 10
1982.620175280528
 20
1333.868826435724
 30
0.0
 11
2194.071456971974
 21
1333.868826435724
 31
0.0
  0
LINE
  5
1736
330
107A
100
AcDbEntity
  8
AM_5
100
AcDbLine
 10
2184.071456971974
 20
1158.868826435724
 30
0.0
 11
2184.071456971974
 21
1308.868826435724
 31
0.0
  0
INSERT
  5
1737
330
107A
100
AcDbEntity
  8
AM_5
100
AcDbBlockReference
  2
_Open30
 10
2184.071456971974
 20
1133.868826435724
 30
0.0
 41
25.0
 42
25.0
 43
25.0
 50
270.0
  0
INSERT
  5
1738
330
107A
100
AcDbEntity
  8
AM_5
100
AcDbBlockReference
  2
_Open30
 10
2184.071456971974
 20
1333.868826435724
 30
0.0
 41
25.0
 42
25.0
 43
25.0
 50
90.0
  0
MTEXT
  5
1739
330
107A
100
AcDbEntity
  8
AM_5
 62
     2
100
AcDbMText
 10
2154.068504216068
 20
1233.868826435724
 30
0.0
 40
30.0
 41
0.0
 71
     5
 72
     1
  1
200
 11
0.0000000000000001
 21
1.0
 31
0.0
 73
     1
 44
1.0
  0
POINT
  5
173A
330
107A
100
AcDbEntity
  8
DEFPOINTS
 62
     0
100
AcDbPoint
 10
1743.609387442299
 20
1133.868826435724
 30
0.0
  0
POINT
  5
173B
330
107A
100
AcDbEntity
  8
DEFPOINTS
 62
     0
100
AcDbPoint
 10
1972.620175280528
 20
1333.868826435724
 30
0.0
  0
POINT
  5
173C
330
107A
100
AcDbEntity
  8
DEFPOINTS
 62
     0
100
AcDbPoint
 10
2184.071456971974
 20
1333.868826435724
 30
0.0
  0
ENDBLK
  5
1093
330
107A
100
AcDbEntity
  8
0
100
AcDbBlockEnd
  0
BLOCK
  5
1108
330
10CA
100
AcDbEntity
  8
0
100
AcDbBlockBegin
  2
*D12
 70
     1
 10
0.0
 20
0.0
 30
0.0
  3
*D12
  1

  0
LINE
  5
172B
330
10CA
100
AcDbEntity
  8
AM_5
100
AcDbLine
 10
1903.609387442299
 20
1533.868826435724
 30
0.0
 11
2094.071456971973
 21
1533.868826435724
 31
0.0
  0
LINE
  5
172C
330
10CA
100
AcDbEntity
  8
AM_5
100
AcDbLine
 10
1873.609387442299
 20
2033.868826435724
 30
0.0
 11
2094.071456971973
 21
2033.868826435724
 31
0.0
  0
LINE
  5
172D
330
10CA
100
AcDbEntity
  8
AM_5
100
AcDbLine
 10
2084.071456971973
 20
1558.868826435724
 30
0.0
 11
2084.071456971973
 21
2008.868826435724
 31
0.0
  0
INSERT
  5
172E
330
10CA
100
AcDbEntity
  8
AM_5
100
AcDbBlockReference
  2
_Open30
 10
2084.071456971973
 20
1533.868826435724
 30
0.0
 41
25.0
 42
25.0
 43
25.0
 50
270.0
  0
INSERT
  5
172F
330
10CA
100
AcDbEntity
  8
AM_5
100
AcDbBlockReference
  2
_Open30
 10
2084.071456971973
 20
2033.868826435724
 30
0.0
 41
25.0
 42
25.0
 43
25.0
 50
90.0
  0
MTEXT
  5
1730
330
10CA
100
AcDbEntity
  8
AM_5
 62
     2
100
AcDbMText
 10
2054.071456971973
 20
1783.868826435724
 30
0.0
 40
30.0
 41
0.0
 71
     5
 72
     1
  1
500
 11
0.0000000000000001
 21
1.0
 31
0.0
 73
     1
 44
1.0
  0
POINT
  5
1731
330
10CA
100
AcDbEntity
  8
DEFPOINTS
 62
     0
100
AcDbPoint
 10
1893.609387442299
 20
1533.868826435724
 30
0.0
  0
POINT
  5
1732
330
10CA
100
AcDbEntity
  8
DEFPOINTS
 62
     0
100
AcDbPoint
 10
1863.6093874423
 20
2033.868826435724
 30
0.0
  0
POINT
  5
1733
330
10CA
100
AcDbEntity
  8
DEFPOINTS
 62
     0
100
AcDbPoint
 10
2084.071456971973
 20
2033.868826435724
 30
0.0
  0
ENDBLK
  5
1109
330
10CA
100
AcDbEntity
  8
0
100
AcDbBlockEnd
  0
BLOCK
  5
110A
330
10E7
100
AcDbEntity
  8
0
100
AcDbBlockBegin
  2
*D13
 70
     1
 10
0.0
 20
0.0
 30
0.0
  3
*D13
  1

  0
LINE
  5
1722
330
10E7
100
AcDbEntity
  8
AM_5
100
AcDbLine
 10
1753.609387442298
 20
1133.868826435724
 30
0.0
 11
2294.071456971974
 21
1133.868826435724
 31
0.0
  0
LINE
  5
1723
330
10E7
100
AcDbEntity
  8
AM_5
100
AcDbLine
 10
1873.609387442299
 20
2033.868826435724
 30
0.0
 11
2294.071456971974
 21
2033.868826435724
 31
0.0
  0
LINE
  5
1724
330
10E7
100
AcDbEntity
  8
AM_5
100
AcDbLine
 10
2284.071456971974
 20
1158.868826435724
 30
0.0
 11
2284.071456971974
 21
2008.868826435724
 31
0.0
  0
INSERT
  5
1725
330
10E7
100
AcDbEntity
  8
AM_5
100
AcDbBlockReference
  2
_Open30
 10
2284.071456971974
 20
1133.868826435724
 30
0.0
 41
25.0
 42
25.0
 43
25.0
 50
270.0
  0
INSERT
  5
1726
330
10E7
100
AcDbEntity
  8
AM_5
100
AcDbBlockReference
  2
_Open30
 10
2284.071456971974
 20
2033.868826435724
 30
0.0
 41
25.0
 42
25.0
 43
25.0
 50
90.0
  0
MTEXT
  5
1727
330
10E7
100
AcDbEntity
  8
AM_5
 62
     2
100
AcDbMText
 10
2254.071456971974
 20
1583.868826435724
 30
0.0
 40
30.0
 41
0.0
 71
     5
 72
     1
  1
900
 11
0.0000000000000001
 21
1.0
 31
0.0
 73
     1
 44
1.0
  0
POINT
  5
1728
330
10E7
100
AcDbEntity
  8
DEFPOINTS
 62
     0
100
AcDbPoint
 10
1743.609387442299
 20
1133.868826435724
 30
0.0
  0
POINT
  5
1729
330
10E7
100
AcDbEntity
  8
DEFPOINTS
 62
     0
100
AcDbPoint
 10
1863.6093874423
 20
2033.868826435724
 30
0.0
  0
POINT
  5
172A
330
10E7
100
AcDbEntity
  8
DEFPOINTS
 62
     0
100
AcDbPoint
 10
2284.071456971974
 20
2033.868826435724
 30
0.0
  0
ENDBLK
  5
110B
330
10E7
100
AcDbEntity
  8
0
100
AcDbBlockEnd
  0
BLOCK
  5
114A
330
1134
100
AcDbEntity
  8
0
100
AcDbBlockBegin
  2
*D14
 70
     1
 10
0.0
 20
0.0
 30
0.0
  3
*D14
  1

  0
LINE
  5
1719
330
1134
100
AcDbEntity
  8
AM_5
100
AcDbLine
 10
1873.609387442299
 20
2033.868826435724
 30
0.0
 11
2194.071456971974
 21
2033.868826435724
 31
0.0
  0
LINE
  5
171A
330
1134
100
AcDbEntity
  8
AM_5
100
AcDbLine
 10
1982.620175280528
 20
1333.868826435724
 30
0.0
 11
2194.071456971974
 21
1333.868826435724
 31
0.0
  0
LINE
  5
171B
330
1134
100
AcDbEntity
  8
AM_5
100
AcDbLine
 10
2184.071456971974
 20
2008.868826435724
 30
0.0
 11
2184.071456971974
 21
1358.868826435724
 31
0.0
  0
INSERT
  5
171C
330
1134
100
AcDbEntity
  8
AM_5
100
AcDbBlockReference
  2
_Open30
 10
2184.071456971974
 20
2033.868826435724
 30
0.0
 41
25.0
 42
25.0
 43
25.0
 50
90.0
  0
INSERT
  5
171D
330
1134
100
AcDbEntity
  8
AM_5
100
AcDbBlockReference
  2
_Open30
 10
2184.071456971974
 20
1333.868826435724
 30
0.0
 41
25.0
 42
25.0
 43
25.0
 50
270.0
  0
MTEXT
  5
171E
330
1134
100
AcDbEntity
  8
AM_5
 62
     2
100
AcDbMText
 10
2154.071456971974
 20
1683.868826435724
 30
0.0
 40
30.0
 41
0.0
 71
     5
 72
     1
  1
700
 11
0.0000000000000001
 21
1.0
 31
0.0
 73
     1
 44
1.0
  0
POINT
  5
171F
330
1134
100
AcDbEntity
  8
DEFPOINTS
 62
     0
100
AcDbPoint
 10
1863.6093874423
 20
2033.868826435724
 30
0.0
  0
POINT
  5
1720
330
1134
100
AcDbEntity
  8
DEFPOINTS
 62
     0
100
AcDbPoint
 10
1972.620175280528
 20
1333.868826435724
 30
0.0
  0
POINT
  5
1721
330
1134
100
AcDbEntity
  8
DEFPOINTS
 62
     0
100
AcDbPoint
 10
2184.071456971974
 20
1333.868826435724
 30
0.0
  0
ENDBLK
  5
114B
330
1134
100
AcDbEntity
  8
0
100
AcDbBlockEnd
  0
BLOCK
  5
11C5
330
116F
100
AcDbEntity
  8
0
100
AcDbBlockBegin
  2
*D15
 70
     1
 10
0.0
 20
0.0
 30
0.0
  3
*D15
  1

  0
LINE
  5
1710
330
116F
100
AcDbEntity
  8
AM_5
100
AcDbLine
 10
1093.609387442298
 20
1523.868826435724
 30
0.0
 11
1093.609387442298
 21
1428.760482821629
 31
0.0
  0
LINE
  5
1711
330
116F
100
AcDbEntity
  8
AM_5
100
AcDbLine
 10
1258.609387442299
 20
1460.941240516164
 30
0.0
 11
1258.609387442299
 21
1428.760482821629
 31
0.0
  0
LINE
  5
1712
330
116F
100
AcDbEntity
  8
AM_5
100
AcDbLine
 10
1118.609387442298
 20
1438.760482821629
 30
0.0
 11
1233.609387442299
 21
1438.760482821629
 31
0.0
  0
INSERT
  5
1713
330
116F
100
AcDbEntity
  8
AM_5
100
AcDbBlockReference
  2
_Open30
 10
1093.609387442298
 20
1438.760482821629
 30
0.0
 41
25.0
 42
25.0
 43
25.0
 50
180.0
  0
INSERT
  5
1714
330
116F
100
AcDbEntity
  8
AM_5
100
AcDbBlockReference
  2
_Open30
 10
1258.609387442299
 20
1438.760482821629
 30
0.0
 41
25.0
 42
25.0
 43
25.0
  0
MTEXT
  5
1715
330
116F
100
AcDbEntity
  8
AM_5
 62
     2
100
AcDbMText
 10
1176.109387442299
 20
1468.760482821629
 30
0.0
 40
30.0
 41
0.0
 71
     5
 72
     1
  1
165
 73
     1
 44
1.0
  0
POINT
  5
1716
330
116F
100
AcDbEntity
  8
DEFPOINTS
 62
     0
100
AcDbPoint
 10
1093.609387442298
 20
1533.868826435724
 30
0.0
  0
POINT
  5
1717
330
116F
100
AcDbEntity
  8
DEFPOINTS
 62
     0
100
AcDbPoint
 10
1258.609387442299
 20
1470.941240516164
 30
0.0
  0
POINT
  5
1718
330
116F
100
AcDbEntity
  8
DEFPOINTS
 62
     0
100
AcDbPoint
 10
1258.609387442299
 20
1438.760482821629
 30
0.0
  0
ENDBLK
  5
11C6
330
116F
100
AcDbEntity
  8
0
100
AcDbBlockEnd
  0
BLOCK
  5
11C7
330
1195
100
AcDbEntity
  8
0
100
AcDbBlockBegin
  2
*D16
 70
     1
 10
0.0
 20
0.0
 30
0.0
  3
*D16
  1

  0
LINE
  5
1707
330
1195
100
AcDbEntity
  8
AM_5
100
AcDbLine
 10
1258.609387442299
 20
1460.941240516164
 30
0.0
 11
1258.609387442299
 21
1428.76048282163
 31
0.0
  0
LINE
  5
1708
330
1195
100
AcDbEntity
  8
AM_5
100
AcDbLine
 10
1728.609387442298
 20
1457.412685455491
 30
0.0
 11
1728.609387442298
 21
1428.76048282163
 31
0.0
  0
LINE
  5
1709
330
1195
100
AcDbEntity
  8
AM_5
100
AcDbLine
 10
1283.6093874423
 20
1438.76048282163
 30
0.0
 11
1703.609387442298
 21
1438.76048282163
 31
0.0
  0
INSERT
  5
170A
330
1195
100
AcDbEntity
  8
AM_5
100
AcDbBlockReference
  2
_Open30
 10
1258.609387442299
 20
1438.76048282163
 30
0.0
 41
25.0
 42
25.0
 43
25.0
 50
180.0
  0
INSERT
  5
170B
330
1195
100
AcDbEntity
  8
AM_5
100
AcDbBlockReference
  2
_Open30
 10
1728.609387442298
 20
1438.76048282163
 30
0.0
 41
25.0
 42
25.0
 43
25.0
  0
MTEXT
  5
170C
330
1195
100
AcDbEntity
  8
AM_5
 62
     2
100
AcDbMText
 10
1493.609387442299
 20
1468.76048282163
 30
0.0
 40
30.0
 41
0.0
 71
     5
 72
     1
  1
470
 73
     1
 44
1.0
  0
POINT
  5
170D
330
1195
100
AcDbEntity
  8
DEFPOINTS
 62
     0
100
AcDbPoint
 10
1258.609387442299
 20
1470.941240516164
 30
0.0
  0
POINT
  5
170E
330
1195
100
AcDbEntity
  8
DEFPOINTS
 62
     0
100
AcDbPoint
 10
1728.609387442298
 20
1467.412685455491
 30
0.0
  0
POINT
  5
170F
330
1195
100
AcDbEntity
  8
DEFPOINTS
 62
     0
100
AcDbPoint
 10
1728.609387442298
 20
1438.76048282163
 30
0.0
  0
ENDBLK
  5
11C8
330
1195
100
AcDbEntity
  8
0
100
AcDbBlockEnd
  0
BLOCK
  5
11C9
330
11AF
100
AcDbEntity
  8
0
100
AcDbBlockBegin
  2
*D17
 70
     1
 10
0.0
 20
0.0
 30
0.0
  3
*D17
  1

  0
LINE
  5
16FE
330
11AF
100
AcDbEntity
  8
AM_5
100
AcDbLine
 10
1728.609387442298
 20
1457.412685455491
 30
0.0
 11
1728.609387442298
 21
1428.76048282163
 31
0.0
  0
LINE
  5
16FF
330
11AF
100
AcDbEntity
  8
AM_5
100
AcDbLine
 10
1893.609387442299
 20
1523.868826435724
 30
0.0
 11
1893.609387442299
 21
1428.76048282163
 31
0.0
  0
LINE
  5
1700
330
11AF
100
AcDbEntity
  8
AM_5
100
AcDbLine
 10
1753.609387442298
 20
1438.76048282163
 30
0.0
 11
1868.609387442299
 21
1438.76048282163
 31
0.0
  0
INSERT
  5
1701
330
11AF
100
AcDbEntity
  8
AM_5
100
AcDbBlockReference
  2
_Open30
 10
1728.609387442298
 20
1438.76048282163
 30
0.0
 41
25.0
 42
25.0
 43
25.0
 50
180.0
  0
INSERT
  5
1702
330
11AF
100
AcDbEntity
  8
AM_5
100
AcDbBlockReference
  2
_Open30
 10
1893.609387442299
 20
1438.76048282163
 30
0.0
 41
25.0
 42
25.0
 43
25.0
  0
MTEXT
  5
1703
330
11AF
100
AcDbEntity
  8
AM_5
 62
     2
100
AcDbMText
 10
1811.109387442299
 20
1468.76048282163
 30
0.0
 40
30.0
 41
0.0
 71
     5
 72
     1
  1
165
 73
     1
 44
1.0
  0
POINT
  5
1704
330
11AF
100
AcDbEntity
  8
DEFPOINTS
 62
     0
100
AcDbPoint
 10
1728.609387442298
 20
1467.412685455491
 30
0.0
  0
POINT
  5
1705
330
11AF
100
AcDbEntity
  8
DEFPOINTS
 62
     0
100
AcDbPoint
 10
1893.609387442299
 20
1533.868826435724
 30
0.0
  0
POINT
  5
1706
330
11AF
100
AcDbEntity
  8
DEFPOINTS
 62
     0
100
AcDbPoint
 10
1893.609387442299
 20
1438.76048282163
 30
0.0
  0
ENDBLK
  5
11CA
330
11AF
100
AcDbEntity
  8
0
100
AcDbBlockEnd
  0
BLOCK
  5
121E
330
1204
100
AcDbEntity
  8
0
100
AcDbBlockBegin
  2
*D18
 70
     1
 10
0.0
 20
0.0
 30
0.0
  3
*D18
  1

  0
LINE
  5
16F3
330
1204
100
AcDbEntity
  8
AM_5
100
AcDbLine
 10
1243.609387442299
 20
1123.868826435724
 30
0.0
 11
1243.609387442299
 21
1064.762307217296
 31
0.0
  0
LINE
  5
16F4
330
1204
100
AcDbEntity
  8
AM_5
100
AcDbLine
 10
1273.609387442298
 20
1123.868826435724
 30
0.0
 11
1273.609387442298
 21
1064.762307217296
 31
0.0
  0
LINE
  5
16F5
330
1204
100
AcDbEntity
  8
AM_5
100
AcDbLine
 10
1218.609387442298
 20
1074.762307217296
 30
0.0
 11
1193.609387442299
 21
1074.762307217296
 31
0.0
  0
LINE
  5
16F6
330
1204
100
AcDbEntity
  8
AM_5
100
AcDbLine
 10
1298.609387442298
 20
1074.762307217296
 30
0.0
 11
1439.671300922957
 21
1074.762307217296
 31
0.0
  0
LINE
  5
16F7
330
1204
100
AcDbEntity
  8
AM_5
100
AcDbLine
 10
1243.609387442299
 20
1074.762307217296
 30
0.0
 11
1273.609387442298
 21
1074.762307217296
 31
0.0
  0
INSERT
  5
16F8
330
1204
100
AcDbEntity
  8
AM_5
100
AcDbBlockReference
  2
_Open30
 10
1243.609387442299
 20
1074.762307217296
 30
0.0
 41
25.0
 42
25.0
 43
25.0
  0
INSERT
  5
16F9
330
1204
100
AcDbEntity
  8
AM_5
100
AcDbBlockReference
  2
_Open30
 10
1273.609387442298
 20
1074.762307217296
 30
0.0
 41
25.0
 42
25.0
 43
25.0
 50
180.0
  0
MTEXT
  5
16FA
330
1204
100
AcDbEntity
  8
AM_5
 62
     2
100
AcDbMText
 10
1408.159489899335
 20
1104.762307217296
 30
0.0
 40
30.0
 41
0.0
 71
     5
 72
     1
  1
30
 73
     1
 44
1.0
  0
POINT
  5
16FB
330
1204
100
AcDbEntity
  8
DEFPOINTS
 62
     0
100
AcDbPoint
 10
1243.609387442299
 20
1133.868826435724
 30
0.0
  0
POINT
  5
16FC
330
1204
100
AcDbEntity
  8
DEFPOINTS
 62
     0
100
AcDbPoint
 10
1273.609387442298
 20
1133.868826435724
 30
0.0
  0
POINT
  5
16FD
330
1204
100
AcDbEntity
  8
DEFPOINTS
 62
     0
100
AcDbPoint
 10
1273.609387442298
 20
1074.762307217296
 30
0.0
  0
ENDBLK
  5
121F
330
1204
100
AcDbEntity
  8
0
100
AcDbBlockEnd
  0
BLOCK
  5
125C
330
1242
100
AcDbEntity
  8
0
100
AcDbBlockBegin
  2
*D19
 70
     1
 10
0.0
 20
0.0
 30
0.0
  3
*D19
  1

  0
LINE
  5
174F
330
1242
100
AcDbEntity
  8
AM_5
100
AcDbLine
 10
2937.456904678499
 20
2040.868826435724
 30
0.0
 11
2937.456904678499
 21
2163.868827445724
 31
0.0
  0
LINE
  5
1750
330
1242
100
AcDbEntity
  8
AM_5
100
AcDbLine
 10
2962.456904678499
 20
2040.868826435724
 30
0.0
 11
2962.456904678499
 21
2163.868827445724
 31
0.0
  0
LINE
  5
1751
330
1242
100
AcDbEntity
  8
AM_5
100
AcDbLine
 10
2912.456904678499
 20
2153.868827445724
 30
0.0
 11
2887.456904678499
 21
2153.868827445724
 31
0.0
  0
LINE
  5
1752
330
1242
100
AcDbEntity
  8
AM_5
100
AcDbLine
 10
2987.456904678499
 20
2153.868827445724
 30
0.0
 11
3077.461356389241
 21
2153.868827445724
 31
0.0
  0
LINE
  5
1753
330
1242
100
AcDbEntity
  8
AM_5
100
AcDbLine
 10
2937.456904678499
 20
2153.868827445724
 30
0.0
 11
2962.456904678499
 21
2153.868827445724
 31
0.0
  0
INSERT
  5
1754
330
1242
100
AcDbEntity
  8
AM_5
100
AcDbBlockReference
  2
_Open30
 10
2937.456904678499
 20
2153.868827445724
 30
0.0
 41
25.0
 42
25.0
 43
25.0
  0
INSERT
  5
1755
330
1242
100
AcDbEntity
  8
AM_5
100
AcDbBlockReference
  2
_Open30
 10
2962.456904678499
 20
2153.868827445724
 30
0.0
 41
25.0
 42
25.0
 43
25.0
 50
180.0
  0
MTEXT
  5
1756
330
1242
100
AcDbEntity
  8
AM_5
 62
     2
100
AcDbMText
 10
3044.95913053387
 20
2183.871780201629
 30
0.0
 40
30.0
 41
0.0
 71
     5
 72
     1
  1
25
 73
     1
 44
1.0
  0
POINT
  5
1757
330
1242
100
AcDbEntity
  8
DEFPOINTS
 62
     0
100
AcDbPoint
 10
2937.456904678499
 20
2030.868826435725
 30
0.0
  0
POINT
  5
1758
330
1242
100
AcDbEntity
  8
DEFPOINTS
 62
     0
100
AcDbPoint
 10
2962.456904678499
 20
2030.868826435725
 30
0.0
  0
POINT
  5
1759
330
1242
100
AcDbEntity
  8
DEFPOINTS
 62
     0
100
AcDbPoint
 10
2962.456904678499
 20
2153.868827445724
 30
0.0
  0
ENDBLK
  5
125D
330
1242
100
AcDbEntity
  8
0
100
AcDbBlockEnd
  0
BLOCK
  5
166C
330
162D
100
AcDbEntity
  8
0
100
AcDbBlockBegin
  2
*D20
 70
     1
 10
0.0
 20
0.0
 30
0.0
  3
*D20
  1

  0
LINE
  5
16EA
330
162D
100
AcDbEntity
  8
AM_5
100
AcDbLine
 10
883.5388199069639
 20
1333.868826435724
 30
0.0
 11
763.5388199069641
 21
1333.868826435724
 31
0.0
  0
LINE
  5
16EB
330
162D
100
AcDbEntity
  8
AM_5
100
AcDbLine
 10
1098.609387442298
 20
983.8688264357241
 30
0.0
 11
763.538819906964
 21
983.8688264357241
 31
0.0
  0
LINE
  5
16EC
330
162D
100
AcDbEntity
  8
AM_5
100
AcDbLine
 10
773.5388199069641
 20
1308.868826435724
 30
0.0
 11
773.538819906964
 21
1008.868826435724
 31
0.0
  0
INSERT
  5
16ED
330
162D
100
AcDbEntity
  8
AM_5
100
AcDbBlockReference
  2
_Open30
 10
773.5388199069641
 20
1333.868826435724
 30
0.0
 41
25.0
 42
25.0
 43
25.0
 50
90.0
  0
INSERT
  5
16EE
330
162D
100
AcDbEntity
  8
AM_5
100
AcDbBlockReference
  2
_Open30
 10
773.538819906964
 20
983.8688264357241
 30
0.0
 41
25.0
 42
25.0
 43
25.0
 50
270.0
  0
MTEXT
  5
16EF
330
162D
100
AcDbEntity
  8
AM_5
 62
     2
100
AcDbMText
 10
743.5388199069639
 20
1158.868826435724
 30
0.0
 40
30.0
 41
0.0
 71
     5
 72
     1
  1
350
 11
0.0000000000000001
 21
1.0
 31
0.0
 73
     1
 44
1.0
  0
POINT
  5
16F0
330
162D
100
AcDbEntity
  8
DEFPOINTS
 62
     0
100
AcDbPoint
 10
893.5388199069638
 20
1333.868826435724
 30
0.0
  0
POINT
  5
16F1
330
162D
100
AcDbEntity
  8
DEFPOINTS
 62
     0
100
AcDbPoint
 10
1108.609387442298
 20
983.8688264357241
 30
0.0
  0
POINT
  5
16F2
330
162D
100
AcDbEntity
  8
DEFPOINTS
 62
     0
100
AcDbPoint
 10
773.538819906964
 20
983.8688264357241
 30
0.0
  0
ENDBLK
  5
166D
330
162D
100
AcDbEntity
  8
0
100
AcDbBlockEnd
  0
BLOCK
  5
166E
330
1653
100
AcDbEntity
  8
0
100
AcDbBlockBegin
  2
*D21
 70
     1
 10
0.0
 20
0.0
 30
0.0
  3
*D21
  1

  0
LINE
  5
16E1
330
1653
100
AcDbEntity
  8
AM_5
100
AcDbLine
 10
1098.609387442298
 20
983.8688264357241
 30
0.0
 11
763.5388199069641
 21
983.8688264357241
 31
0.0
  0
LINE
  5
16E2
330
1653
100
AcDbEntity
  8
AM_5
100
AcDbLine
 10
1098.609387442298
 20
883.8688264357241
 30
0.0
 11
763.5388199069641
 21
883.8688264357241
 31
0.0
  0
LINE
  5
16E3
330
1653
100
AcDbEntity
  8
AM_5
100
AcDbLine
 10
773.5388199069641
 20
958.8688264357241
 30
0.0
 11
773.5388199069641
 21
908.8688264357241
 31
0.0
  0
INSERT
  5
16E4
330
1653
100
AcDbEntity
  8
AM_5
100
AcDbBlockReference
  2
_Open30
 10
773.5388199069641
 20
983.8688264357241
 30
0.0
 41
25.0
 42
25.0
 43
25.0
 50
90.0
  0
INSERT
  5
16E5
330
1653
100
AcDbEntity
  8
AM_5
100
AcDbBlockReference
  2
_Open30
 10
773.5388199069641
 20
883.8688264357241
 30
0.0
 41
25.0
 42
25.0
 43
25.0
 50
270.0
  0
MTEXT
  5
16E6
330
1653
100
AcDbEntity
  8
AM_5
 62
     2
100
AcDbMText
 10
743.538819906964
 20
933.8688264357243
 30
0.0
 40
30.0
 41
0.0
 71
     5
 72
     1
  1
100
 11
0.0000000000000001
 21
1.0
 31
0.0
 73
     1
 44
1.0
  0
POINT
  5
16E7
330
1653
100
AcDbEntity
  8
DEFPOINTS
 62
     0
100
AcDbPoint
 10
1108.609387442298
 20
983.8688264357241
 30
0.0
  0
POINT
  5
16E8
330
1653
100
AcDbEntity
  8
DEFPOINTS
 62
     0
100
AcDbPoint
 10
1108.609387442298
 20
883.8688264357241
 30
0.0
  0
POINT
  5
16E9
330
1653
100
AcDbEntity
  8
DEFPOINTS
 62
     0
100
AcDbPoint
 10
773.5388199069641
 20
883.8688264357241
 30
0.0
  0
ENDBLK
  5
166F
330
1653
100
AcDbEntity
  8
0
100
AcDbBlockEnd
  0
BLOCK
  5
16C1
330
1680
100
AcDbEntity
  8
0
100
AcDbBlockBegin
  2
*D22
 70
     1
 10
0.0
 20
0.0
 30
0.0
  3
*D22
  1

  0
LINE
  5
16D8
330
1680
100
AcDbEntity
  8
AM_5
100
AcDbLine
 10
1158.609387442298
 20
973.8688264357239
 30
0.0
 11
1158.609387442298
 21
753.8688254357214
 31
0.0
  0
LINE
  5
16D9
330
1680
100
AcDbEntity
  8
AM_5
100
AcDbLine
 10
1358.609387442298
 20
973.8688264357239
 30
0.0
 11
1358.609387442298
 21
753.8688254357214
 31
0.0
  0
LINE
  5
16DA
330
1680
100
AcDbEntity
  8
AM_5
100
AcDbLine
 10
1183.609387442298
 20
763.8688254357214
 30
0.0
 11
1333.609387442298
 21
763.8688254357214
 31
0.0
  0
INSERT
  5
16DB
330
1680
100
AcDbEntity
  8
AM_5
100
AcDbBlockReference
  2
_Open30
 10
1158.609387442298
 20
763.8688254357214
 30
0.0
 41
25.0
 42
25.0
 43
25.0
 50
180.0
  0
INSERT
  5
16DC
330
1680
100
AcDbEntity
  8
AM_5
100
AcDbBlockReference
  2
_Open30
 10
1358.609387442298
 20
763.8688254357214
 30
0.0
 41
25.0
 42
25.0
 43
25.0
  0
MTEXT
  5
16DD
330
1680
100
AcDbEntity
  8
AM_5
 62
     2
100
AcDbMText
 10
1258.609387442298
 20
793.8717781916269
 30
0.0
 40
30.0
 41
0.0
 71
     5
 72
     1
  1
{\Famgdt|c128;o}200
 73
     1
 44
1.0
  0
POINT
  5
16DE
330
1680
100
AcDbEntity
  8
DEFPOINTS
 62
     0
100
AcDbPoint
 10
1158.609387442298
 20
983.8688264357241
 30
0.0
  0
POINT
  5
16DF
330
1680
100
AcDbEntity
  8
DEFPOINTS
 62
     0
100
AcDbPoint
 10
1358.609387442298
 20
983.8688264357241
 30
0.0
  0
POINT
  5
16E0
330
1680
100
AcDbEntity
  8
DEFPOINTS
 62
     0
100
AcDbPoint
 10
1358.609387442298
 20
763.8688254357214
 30
0.0
  0
ENDBLK
  5
16C2
330
1680
100
AcDbEntity
  8
0
100
AcDbBlockEnd
  0
BLOCK
  5
16C3
330
16AB
100
AcDbEntity
  8
0
100
AcDbBlockBegin
  2
*D23
 70
     1
 10
0.0
 20
0.0
 30
0.0
  3
*D23
  1

  0
LINE
  5
16CF
330
16AB
100
AcDbEntity
  8
AM_5
100
AcDbLine
 10
1108.609387442298
 20
873.8688264357239
 30
0.0
 11
1108.609387442298
 21
653.8688254357203
 31
0.0
  0
LINE
  5
16D0
330
16AB
100
AcDbEntity
  8
AM_5
100
AcDbLine
 10
1408.609387442298
 20
873.8688264357239
 30
0.0
 11
1408.609387442298
 21
653.8688254357203
 31
0.0
  0
LINE
  5
16D1
330
16AB
100
AcDbEntity
  8
AM_5
100
AcDbLine
 10
1133.609387442298
 20
663.8688254357203
 30
0.0
 11
1383.609387442298
 21
663.8688254357203
 31
0.0
  0
INSERT
  5
16D2
330
16AB
100
AcDbEntity
  8
AM_5
100
AcDbBlockReference
  2
_Open30
 10
1108.609387442298
 20
663.8688254357203
 30
0.0
 41
25.0
 42
25.0
 43
25.0
 50
180.0
  0
INSERT
  5
16D3
330
16AB
100
AcDbEntity
  8
AM_5
100
AcDbBlockReference
  2
_Open30
 10
1408.609387442298
 20
663.8688254357203
 30
0.0
 41
25.0
 42
25.0
 43
25.0
  0
MTEXT
  5
16D4
330
16AB
100
AcDbEntity
  8
AM_5
 62
     2
100
AcDbMText
 10
1258.609387442298
 20
693.8688254357202
 30
0.0
 40
30.0
 41
0.0
 71
     5
 72
     1
  1
{\Famgdt|c128;o}300
 73
     1
 44
1.0
  0
POINT
  5
16D5
330
16AB
100
AcDbEntity
  8
DEFPOINTS
 62
     0
100
AcDbPoint
 10
1108.609387442298
 20
883.8688264357241
 30
0.0
  0
POINT
  5
16D6
330
16AB
100
AcDbEntity
  8
DEFPOINTS
 62
     0
100
AcDbPoint
 10
1408.609387442298
 20
883.8688264357241
 30
0.0
  0
POINT
  5
16D7
330
16AB
100
AcDbEntity
  8
DEFPOINTS
 62
     0
100
AcDbPoint
 10
1408.609387442298
 20
663.8688254357203
 30
0.0
  0
ENDBLK
  5
16C4
330
16AB
100
AcDbEntity
  8
0
100
AcDbBlockEnd
  0
BLOCK
  5
1765
330
1764
100
AcDbEntity
  8
0
100
AcDbBlockBegin
  2
NAKAMURA
 70
     0
 10
0.0
 20
0.0
 30
0.0
  3
NAKAMURA
  1

  0
CIRCLE
  5
1766
330
1764
100
AcDbEntity
  8
0
100
AcDbCircle
 10
0.0
 20
-0.0000000000000071
 30
0.0
 40
5.75
  0
LINE
  5
1767
330
1764
100
AcDbEntity
  8
0
100
AcDbLine
 10
5.390964663212002
 20
2.0
 30
0.0
 11
-5.390964663211889
 21
1.999999999999985
 31
0.0
  0
TEXT
  5
1768
330
1764
100
AcDbEntity
  8
0
100
AcDbText
 10
-1.40956822548013
 20
2.272712767880801
 30
0.0
 40
2.875000000632499
  1
藤
 50
0.000000000000708
 72
     4
 11
-0.0679015585183152
 21
3.710212768197067
 31
0.0
100
AcDbText
  0
TEXT
  5
1769
330
1764
100
AcDbEntity
  8
0
100
AcDbText
 10
-1.227410318497265
 20
-5.354429741660606
 30
0.0
 40
2.875000000632499
  1
繁
 50
0.000000000000708
 72
     4
 11
0.1142563484645507
 21
-3.91692974134434
 31
0.0
100
AcDbText
  0
LINE
  5
176A
330
1764
100
AcDbEntity
  8
0
100
AcDbLine
 10
5.390964663212002
 20
-1.999999999999964
 30
0.0
 11
-5.390964663211889
 21
-2.000000000000021
 31
0.0
  0
ENDBLK
  5
176B
330
1764
100
AcDbEntity
  8
0
100
AcDbBlockEnd
  0
BLOCK
  5
17F1
330
17ED
100
AcDbEntity
  8
0
100
AcDbBlockBegin
  2
*S25
 70
     1
 10
0.0
 20
0.0
 30
0.0
  3
*S25
  1

  0
CIRCLE
  5
17EE
330
17ED
100
AcDbEntity
  8
AM_12
 62
     4
100
AcDbCircle
 10
1213.773193499846
 20
2011.713270635322
 30
0.0
 40
15.75
  0
LINE
  5
17EF
330
17ED
100
AcDbEntity
  8
AM_12
 62
     4
100
AcDbLine
 10
1198.023193499846
 20
1995.963270635322
 30
0.0
 11
1229.523193499846
 21
2027.463270635323
 31
0.0
  0
LINE
  5
17F0
330
17ED
100
AcDbEntity
  8
AM_12
 62
     4
100
AcDbLine
 10
1198.023193499846
 20
2027.463270635323
 30
0.0
 11
1229.523193499846
 21
1995.963270635322
 31
0.0
  0
ENDBLK
  5
17F2
330
17ED
100
AcDbEntity
  8
0
100
AcDbBlockEnd
  0
BLOCK
  5
17F9
330
17F4
100
AcDbEntity
  8
0
100
AcDbBlockBegin
  2
*S26
 70
     1
 10
0.0
 20
0.0
 30
0.0
  3
*S26
  1

  0
LINE
  5
17F5
330
17F4
100
AcDbEntity
  8
AM_5
100
AcDbLine
 10
1134.289582448595
 20
2273.330950852247
 30
0.0
 11
1204.616276646862
 21
2041.852959979234
 31
0.0
  0
TRACE
  5
17F6
330
17F4
100
AcDbEntity
  8
AM_5
100
AcDbTrace
 10
1200.648311285931
 20
2040.647429010718
 30
0.0
 11
1208.584242007792
 21
2043.058490947752
 31
0.0
 12
1213.773193499846
 22
2011.713270635322
 32
0.0
 13
1213.773193499846
 23
2011.713270635322
 33
0.0
  0
MTEXT
  5
17F7
330
17F4
100
AcDbEntity
  8
AM_5
 62
     2
100
AcDbMText
 10
1119.791130764703
 20
2321.052125646775
 30
0.0
 40
35.0
 41
0.0
 71
     5
 72
     5
  1
1
  7
ACJISTS
 73
     1
 44
1.0
  0
CIRCLE
  5
17F8
330
17F4
100
AcDbEntity
  8
AM_5
 62
     3
100
AcDbCircle
 10
1119.791130764703
 20
2321.052125646775
 30
0.0
 40
49.875
  0
ENDBLK
  5
17FA
330
17F4
100
AcDbEntity
  8
0
100
AcDbBlockEnd
  0
BLOCK
  5
1817
330
17FC
100
AcDbEntity
  8
0
100
AcDbBlockBegin
  2
*S27
 70
     1
 10
0.0
 20
0.0
 30
0.0
  3
*S27
  1

  0
MTEXT
  5
17FD
330
17FC
100
AcDbEntity
  8
0
 62
     7
100
AcDbMText
 10
2644.5
 20
2782.25
 30
0.0
 40
45.0
 41
98.99999999999998
 71
     2
 72
     5
  1
1
  7
ACJISTS
 73
     1
 44
1.0
  0
LINE
  5
17FE
330
17FC
100
AcDbEntity
  8
0
 62
     1
100
AcDbLine
 10
2703.0
 20
2795.75
 30
0.0
 11
2703.0
 21
2721.5
 31
0.0
  0
MTEXT
  5
17FF
330
17FC
100
AcDbEntity
  8
0
 62
     7
100
AcDbMText
 10
2928.0
 20
2782.25
 30
0.0
 40
45.0
 41
432.0
 71
     2
 72
     5
  1
フェンス
  7
ACJISTS
 73
     1
 44
1.0
  0
LINE
  5
1800
330
17FC
100
AcDbEntity
  8
0
 62
     1
100
AcDbLine
 10
3153.0
 20
2795.75
 30
0.0
 11
3153.0
 21
2721.5
 31
0.0
  0
MTEXT
  5
1801
330
17FC
100
AcDbEntity
  8
0
 62
     7
100
AcDbMText
 10
3211.5
 20
2782.25
 30
0.0
 40
45.0
 41
99.0
 71
     2
 72
     5
  1
1
  7
ACJISTS
 73
     1
 44
1.0
  0
LINE
  5
1802
330
17FC
100
AcDbEntity
  8
0
 62
     1
100
AcDbLine
 10
3270.0
 20
2795.75
 30
0.0
 11
3270.0
 21
2721.5
 31
0.0
  0
MTEXT
  5
1803
330
17FC
100
AcDbEntity
  8
0
 62
     7
100
AcDbMText
 10
3385.0
 20
2782.25
 30
0.0
 40
45.0
 41
212.0
 71
     2
 72
     5
  1
FCD
  7
ACJISTS
 73
     1
 44
1.0
  0
LINE
  5
1804
330
17FC
100
AcDbEntity
  8
0
 62
     1
100
AcDbLine
 10
3500.0
 20
2795.75
 30
0.0
 11
3500.0
 21
2721.5
 31
0.0
  0
MTEXT
  5
1805
330
17FC
100
AcDbEntity
  8
0
 62
     7
100
AcDbMText
 10
3600.0
 20
2782.25
 30
0.0
 40
45.0
 41
182.0
 71
     2
 72
     5
  1
28.0
  7
ACJISTS
 73
     1
 44
1.0
  0
LINE
  5
1806
330
17FC
100
AcDbEntity
  8
0
 62
     1
100
AcDbLine
 10
3700.0
 20
2795.75
 30
0.0
 11
3700.0
 21
2721.5
 31
0.0
  0
LINE
  5
1807
330
17FC
100
AcDbEntity
  8
0
 62
     1
100
AcDbLine
 10
2586.0
 20
2795.75
 30
0.0
 11
4100.0
 21
2795.75
 31
0.0
  0
MTEXT
  5
1808
330
17FC
100
AcDbEntity
  8
0
 62
     7
100
AcDbMText
 10
2644.5
 20
2856.5
 30
0.0
 40
45.0
 41
98.99999999999998
 71
     2
 72
     5
  1
部番
  7
ACJISTS
 73
     1
 44
1.0
  0
LINE
  5
1809
330
17FC
100
AcDbEntity
  8
0
 62
     1
100
AcDbLine
 10
2703.0
 20
2870.0
 30
0.0
 11
2703.0
 21
2795.75
 31
0.0
  0
MTEXT
  5
180A
330
17FC
100
AcDbEntity
  8
0
 62
     7
100
AcDbMText
 10
2928.0
 20
2856.5
 30
0.0
 40
45.0
 41
432.0
 71
     2
 72
     5
  1
部  品  名
  7
ACJISTS
 73
     1
 44
1.0
  0
LINE
  5
180B
330
17FC
100
AcDbEntity
  8
0
 62
     1
100
AcDbLine
 10
3153.0
 20
2870.0
 30
0.0
 11
3153.0
 21
2795.75
 31
0.0
  0
MTEXT
  5
180C
330
17FC
100
AcDbEntity
  8
0
 62
     7
100
AcDbMText
 10
3211.5
 20
2856.5
 30
0.0
 40
45.0
 41
99.0
 71
     2
 72
     5
  1
数量
  7
ACJISTS
 73
     1
 44
1.0
  0
LINE
  5
180D
330
17FC
100
AcDbEntity
  8
0
 62
     1
100
AcDbLine
 10
3270.0
 20
2870.0
 30
0.0
 11
3270.0
 21
2795.75
 31
0.0
  0
MTEXT
  5
180E
330
17FC
100
AcDbEntity
  8
0
 62
     7
100
AcDbMText
 10
3385.0
 20
2856.5
 30
0.0
 40
45.0
 41
212.0
 71
     2
 72
     5
  1
材  質
  7
ACJISTS
 73
     1
 44
1.0
  0
LINE
  5
180F
330
17FC
100
AcDbEntity
  8
0
 62
     1
100
AcDbLine
 10
3500.0
 20
2870.0
 30
0.0
 11
3500.0
 21
2795.75
 31
0.0
  0
MTEXT
  5
1810
330
17FC
100
AcDbEntity
  8
0
 62
     7
100
AcDbMText
 10
3600.0
 20
2856.5
 30
0.0
 40
45.0
 41
182.0
 71
     2
 72
     5
  1
単重
  7
ACJISTS
 73
     1
 44
1.0
  0
LINE
  5
1811
330
17FC
100
AcDbEntity
  8
0
 62
     1
100
AcDbLine
 10
3700.0
 20
2870.0
 30
0.0
 11
3700.0
 21
2795.75
 31
0.0
  0
MTEXT
  5
1812
330
17FC
100
AcDbEntity
  8
0
 62
     7
100
AcDbMText
 10
3900.000000000001
 20
2856.5
 30
0.0
 40
45.0
 41
382.0
 71
     2
 72
     5
  1
備　　考
  7
ACJISTS
 73
     1
 44
1.0
  0
LINE
  5
1813
330
17FC
100
AcDbEntity
  8
0
 62
     7
100
AcDbLine
 10
2586.0
 20
2870.0
 30
0.0
 11
4100.0
 21
2870.0
 31
0.0
  0
LINE
  5
1814
330
17FC
100
AcDbEntity
  8
0
 62
     7
100
AcDbLine
 10
4100.0
 20
2870.0
 30
0.0
 11
4100.0
 21
2721.5
 31
0.0
  0
LINE
  5
1815
330
17FC
100
AcDbEntity
  8
0
 62
     7
100
AcDbLine
 10
4100.0
 20
2721.5
 30
0.0
 11
2586.0
 21
2721.5
 31
0.0
  0
LINE
  5
1816
330
17FC
100
AcDbEntity
  8
0
 62
     7
100
AcDbLine
 10
2586.0
 20
2721.5
 30
0.0
 11
2586.0
 21
2870.0
 31
0.0
  0
ENDBLK
  5
1818
330
17FC
100
AcDbEntity
  8
0
100
AcDbBlockEnd
  0
ENDSEC
  0
SECTION
  2
ENTITIES
  0
LINE
  5
C68
330
1F
100
AcDbEntity
  8
1
  6
Continuous
 62
     7
100
AcDbLine
 10
1962.620175280528
 20
1333.868826435724
 30
0.0
 11
1743.609387442299
 21
1333.868826435724
 31
0.0
  0
ARC
  5
C71
330
1F
100
AcDbEntity
  8
1
  6
HIDDEN
 62
     7
100
AcDbCircle
 10
2959.456904678499
 20
2030.868826435725
 30
0.0
 40
3.0
100
AcDbArc
 50
0.0
 51
90.0
  0
LINE
  5
C72
330
1F
100
AcDbEntity
  8
1
  6
Continuous
 62
     7
100
AcDbLine
 10
2959.456904678499
 20
2033.868826435724
 30
0.0
 11
2940.456904678499
 21
2033.868826435724
 31
0.0
  0
LINE
  5
C73
330
1F
100
AcDbEntity
  8
1
  6
Continuous
 62
     7
100
AcDbLine
 10
2962.456904678499
 20
2030.868826435725
 30
0.0
 11
2962.456904678499
 21
1133.868826435724
 31
0.0
  0
ARC
  5
C74
330
1F
100
AcDbEntity
  8
1
  6
HIDDEN
 62
     7
100
AcDbCircle
 10
2940.456904678499
 20
2030.868826435725
 30
0.0
 40
3.0
100
AcDbArc
 50
90.0
 51
180.0
  0
LINE
  5
C75
330
1F
100
AcDbEntity
  8
1
  6
Continuous
 62
     7
100
AcDbLine
 10
2937.456904678499
 20
2030.868826435725
 30
0.0
 11
2937.456904678499
 21
1133.868826435724
 31
0.0
  0
LINE
  5
C76
330
1F
100
AcDbEntity
  8
AM_3
100
AcDbLine
 10
2957.456904678499
 20
1563.868826435724
 30
0.0
 11
2962.456904678499
 21
1563.868826435724
 31
0.0
  0
LINE
  5
C77
330
1F
100
AcDbEntity
  8
AM_3
100
AcDbLine
 10
2937.456904678499
 20
1563.868826435724
 30
0.0
 11
2942.456904678499
 21
1563.868826435724
 31
0.0
  0
LINE
  5
C78
330
1F
100
AcDbEntity
  8
AM_3
100
AcDbLine
 10
2957.456904678499
 20
2003.868826435724
 30
0.0
 11
2962.456904678499
 21
2003.868826435724
 31
0.0
  0
LINE
  5
C79
330
1F
100
AcDbEntity
  8
AM_3
100
AcDbLine
 10
2937.456904678499
 20
2003.868826435724
 30
0.0
 11
2942.456904678499
 21
2003.868826435724
 31
0.0
  0
LINE
  5
C7A
330
1F
100
AcDbEntity
  8
AM_3
100
AcDbLine
 10
2957.456904678499
 20
1563.868826435724
 30
0.0
 11
2957.456904678499
 21
2003.868826435724
 31
0.0
  0
LINE
  5
C7B
330
1F
100
AcDbEntity
  8
AM_3
100
AcDbLine
 10
2942.456904678499
 20
2003.868826435724
 30
0.0
 11
2942.456904678499
 21
1563.868826435724
 31
0.0
  0
LINE
  5
C7C
330
1F
100
AcDbEntity
  8
1
  6
Continuous
 62
     7
100
AcDbLine
 10
2937.456904678499
 20
1133.868826435724
 30
0.0
 11
2962.456904678499
 21
1133.868826435724
 31
0.0
  0
LINE
  5
C7D
330
1F
100
AcDbEntity
  8
1
  6
Continuous
 62
     7
100
AcDbLine
 10
2962.456904678499
 20
1333.868826435724
 30
0.0
 11
3272.587355942899
 21
1333.868826435724
 31
0.0
  0
LINE
  5
C7F
330
1F
100
AcDbEntity
  8
1
  6
Continuous
 62
     7
100
AcDbLine
 10
2667.224256082699
 20
1333.868826435724
 30
0.0
 11
2934.956904678499
 21
1333.868826435724
 31
0.0
  0
LINE
  5
C94
330
1F
100
AcDbEntity
  8
AM_7
100
AcDbLine
 10
2949.956904678499
 20
1043.479595977024
 30
0.0
 11
2949.956904678499
 21
1546.685064386424
 31
0.0
  0
LINE
  5
CBF
330
1F
100
AcDbEntity
  8
AM_7
100
AcDbLine
 10
1728.609387442298
 20
1043.479595977024
 30
0.0
 11
1728.609387442298
 21
1546.685064386424
 31
0.0
  0
LINE
  5
CC0
330
1F
100
AcDbEntity
  8
AM_7
100
AcDbLine
 10
1258.609387442298
 20
1544.970889815824
 30
0.0
 11
1258.609387442298
 21
1043.479595977024
 31
0.0
  0
LINE
  5
CC1
330
1F
100
AcDbEntity
  8
1
  6
Continuous
 62
     7
100
AcDbLine
 10
1243.609387442299
 20
1333.868826435724
 30
0.0
 11
893.5388199069638
 21
1333.868826435724
 31
0.0
  0
LINE
  5
CC2
330
1F
100
AcDbEntity
  8
1
  6
Continuous
 62
     7
100
AcDbLine
 10
1713.609387442298
 20
1333.868826435724
 30
0.0
 11
1273.609387442298
 21
1333.868826435724
 31
0.0
  0
ARC
  5
CC3
330
1F
100
AcDbEntity
  8
1
  6
Continuous
 62
     7
100
AcDbCircle
 10
1233.609387442298
 20
1523.868826435724
 30
0.0
 40
10.0
100
AcDbArc
 50
0.0
 51
90.0
  0
LINE
  5
CC4
330
1F
100
AcDbEntity
  8
1
  6
Continuous
 62
     7
100
AcDbLine
 10
1243.609387442299
 20
1523.868826435724
 30
0.0
 11
1243.609387442299
 21
1133.868826435724
 31
0.0
  0
LINE
  5
CC5
330
1F
100
AcDbEntity
  8
1
  6
Continuous
 62
     7
100
AcDbLine
 10
1233.609387442298
 20
1533.868826435724
 30
0.0
 11
1093.609387442298
 21
1533.868826435724
 31
0.0
  0
ARC
  5
CC6
330
1F
100
AcDbEntity
  8
1
  6
Continuous
 62
     7
100
AcDbCircle
 10
1283.609387442298
 20
1523.868826435724
 30
0.0
 40
10.0
100
AcDbArc
 50
90.0
 51
180.0
  0
LINE
  5
CC7
330
1F
100
AcDbEntity
  8
1
  6
Continuous
 62
     7
100
AcDbLine
 10
1283.609387442298
 20
1533.868826435724
 30
0.0
 11
1703.609387442298
 21
1533.868826435724
 31
0.0
  0
LINE
  5
CC8
330
1F
100
AcDbEntity
  8
1
  6
Continuous
 62
     7
100
AcDbLine
 10
1273.609387442298
 20
1523.868826435724
 30
0.0
 11
1273.609387442298
 21
1133.868826435724
 31
0.0
  0
ARC
  5
CC9
330
1F
100
AcDbEntity
  8
1
  6
Continuous
 62
     7
100
AcDbCircle
 10
1703.609387442298
 20
1523.868826435724
 30
0.0
 40
10.0
100
AcDbArc
 50
0.0
 51
90.0
  0
LINE
  5
CCA
330
1F
100
AcDbEntity
  8
1
  6
Continuous
 62
     7
100
AcDbLine
 10
1713.609387442298
 20
1523.868826435724
 30
0.0
 11
1713.609387442298
 21
1133.868826435724
 31
0.0
  0
ARC
  5
CCB
330
1F
100
AcDbEntity
  8
1
  6
Continuous
 62
     7
100
AcDbCircle
 10
1753.609387442298
 20
1523.868826435724
 30
0.0
 40
10.0
100
AcDbArc
 50
90.0
 51
180.0
  0
LINE
  5
CCC
330
1F
100
AcDbEntity
  8
1
  6
Continuous
 62
     7
100
AcDbLine
 10
1753.609387442298
 20
1533.868826435724
 30
0.0
 11
1893.609387442299
 21
1533.868826435724
 31
0.0
  0
LINE
  5
CCD
330
1F
100
AcDbEntity
  8
1
  6
Continuous
 62
     7
100
AcDbLine
 10
1743.609387442299
 20
1523.868826435724
 30
0.0
 11
1743.609387442299
 21
1133.868826435724
 31
0.0
  0
ARC
  5
CCE
330
1F
100
AcDbEntity
  8
1
  6
Continuous
 62
     7
100
AcDbCircle
 10
1128.609387442298
 20
1998.868826435724
 30
0.0
 40
5.0
100
AcDbArc
 50
90.0
 51
180.0
  0
LINE
  5
CCF
330
1F
100
AcDbEntity
  8
1
  6
Continuous
 62
     7
100
AcDbLine
 10
1128.609387442298
 20
2003.868826435724
 30
0.0
 11
1858.609387442299
 21
2003.868826435724
 31
0.0
  0
LINE
  5
CD0
330
1F
100
AcDbEntity
  8
1
  6
Continuous
 62
     7
100
AcDbLine
 10
1123.609387442298
 20
1998.868826435724
 30
0.0
 11
1123.609387442298
 21
1563.868826435724
 31
0.0
  0
ARC
  5
CD1
330
1F
100
AcDbEntity
  8
1
  6
Continuous
 62
     7
100
AcDbCircle
 10
1858.609387442299
 20
1998.868826435724
 30
0.0
 40
5.0
100
AcDbArc
 50
0.0
 51
90.0
  0
LINE
  5
CD2
330
1F
100
AcDbEntity
  8
1
  6
Continuous
 62
     7
100
AcDbLine
 10
1863.6093874423
 20
1998.868826435724
 30
0.0
 11
1863.6093874423
 21
1563.868826435724
 31
0.0
  0
ARC
  5
CD3
330
1F
100
AcDbEntity
  8
1
  6
Continuous
 62
     7
100
AcDbCircle
 10
1863.6093874423
 20
2003.868826435724
 30
0.0
 40
30.0
100
AcDbArc
 50
0.0
 51
90.0
  0
LINE
  5
CD4
330
1F
100
AcDbEntity
  8
1
  6
Continuous
 62
     7
100
AcDbLine
 10
1863.6093874423
 20
2033.868826435724
 30
0.0
 11
1123.609387442298
 21
2033.868826435724
 31
0.0
  0
LINE
  5
CD5
330
1F
100
AcDbEntity
  8
1
  6
Continuous
 62
     7
100
AcDbLine
 10
1893.609387442299
 20
2003.868826435724
 30
0.0
 11
1893.609387442299
 21
1533.868826435724
 31
0.0
  0
ARC
  5
CD6
330
1F
100
AcDbEntity
  8
1
  6
Continuous
 62
     7
100
AcDbCircle
 10
1123.609387442298
 20
2003.868826435724
 30
0.0
 40
30.0
100
AcDbArc
 50
90.0
 51
180.0
  0
LINE
  5
CD7
330
1F
100
AcDbEntity
  8
1
  6
Continuous
 62
     7
100
AcDbLine
 10
1093.609387442298
 20
2003.868826435724
 30
0.0
 11
1093.609387442298
 21
1533.868826435724
 31
0.0
  0
ARC
  5
CD8
330
1F
100
AcDbEntity
  8
1
  6
Continuous
 62
     7
100
AcDbCircle
 10
1492.683496700899
 20
1655.757640346024
 30
0.0
 40
10.0
100
AcDbArc
 50
21.29653671530326
 51
158.7034632846967
  0
ARC
  5
CD9
330
1F
100
AcDbEntity
  8
1
  6
Continuous
 62
     7
100
AcDbCircle
 10
1641.757605959499
 20
1713.868826435724
 30
0.0
 40
150.0
100
AcDbArc
 50
201.2965367153033
 51
270.0
  0
ARC
  5
CDA
330
1F
100
AcDbEntity
  8
1
  6
Continuous
 62
     7
100
AcDbCircle
 10
1343.609387442298
 20
1713.868826435724
 30
0.0
 40
150.0
100
AcDbArc
 50
270.0
 51
338.7034632846968
  0
ARC
  5
CDB
330
1F
100
AcDbEntity
  8
1
  6
Continuous
 62
     7
100
AcDbCircle
 10
1492.683496700899
 20
1874.093535285124
 30
0.0
 40
10.0
100
AcDbArc
 50
19.34121685450567
 51
160.6587831454943
  0
ARC
  5
CDC
330
1F
100
AcDbEntity
  8
1
  6
Continuous
 62
     7
100
AcDbCircle
 10
1393.609387442299
 20
1908.868826435724
 30
0.0
 40
95.0
100
AcDbArc
 50
307.7507839190974
 51
340.6587831454944
  0
ARC
  5
CDD
330
1F
100
AcDbEntity
  8
1
  6
Continuous
 62
     7
100
AcDbCircle
 10
1492.683496700899
 20
1771.980012525524
 30
0.0
 40
10.0
100
AcDbArc
 50
201.2965367153033
 51
338.7034632846968
  0
ARC
  5
CDE
330
1F
100
AcDbEntity
  8
1
  6
Continuous
 62
     7
100
AcDbCircle
 10
1641.757605959499
 20
1713.868826435724
 30
0.0
 40
150.0
100
AcDbArc
 50
135.5837888247045
 51
158.7034632846967
  0
ARC
  5
CDF
330
1F
100
AcDbEntity
  8
1
  6
Continuous
 62
     7
100
AcDbCircle
 10
1676.757605959499
 20
1636.409159511624
 30
0.0
 40
50.0
100
AcDbArc
 50
245.6842608288008
 51
294.3157391711992
  0
ARC
  5
CE0
330
1F
100
AcDbEntity
  8
1
  6
Continuous
 62
     7
100
AcDbCircle
 10
1711.757605959499
 20
1713.868826435724
 30
0.0
 40
135.0
100
AcDbArc
 50
126.5896164489951
 51
245.6842608288008
  0
ARC
  5
CE1
330
1F
100
AcDbEntity
  8
1
  6
Continuous
 62
     7
100
AcDbCircle
 10
1641.757605959499
 20
1713.868826435724
 30
0.0
 40
135.0
100
AcDbArc
 50
294.3157391711992
 51
78.10061527480122
  0
ARC
  5
CE2
330
1F
100
AcDbEntity
  8
1
  6
Continuous
 62
     7
100
AcDbCircle
 10
1641.757605959499
 20
1713.868826435724
 30
0.0
 40
135.0
100
AcDbArc
 50
130.6621739073968
 51
241.8535942466002
  0
ARC
  5
CE3
330
1F
100
AcDbEntity
  8
1
  6
Continuous
 62
     7
100
AcDbCircle
 10
1585.150463102399
 20
1608.059415807224
 30
0.0
 40
15.0
100
AcDbArc
 50
241.8535942466002
 51
39.88652244509521
  0
ARC
  5
CE4
330
1F
100
AcDbEntity
  8
1
  6
Continuous
 62
     7
100
AcDbCircle
 10
1711.757605959499
 20
1713.868826435724
 30
0.0
 40
150.0
100
AcDbArc
 50
145.481061644002
 51
219.8865224450952
  0
ARC
  5
CE5
330
1F
100
AcDbEntity
  8
1
  6
Continuous
 62
     7
100
AcDbCircle
 10
1591.757605959499
 20
1908.868826435724
 30
0.0
 40
95.0
100
AcDbArc
 50
252.5711566427016
 51
263.5308145643011
  0
ARC
  5
CE6
330
1F
100
AcDbEntity
  8
1
  6
Continuous
 62
     7
100
AcDbCircle
 10
1591.757605959499
 20
1908.868826435724
 30
0.0
 40
95.0
100
AcDbArc
 50
295.6732814906993
 51
316.1916325395034
  0
ARC
  5
CE7
330
1F
100
AcDbEntity
  8
1
  6
Continuous
 62
     7
100
AcDbCircle
 10
1579.927377867299
 20
1804.537404020024
 30
0.0
 40
10.0
100
AcDbArc
 50
325.4810616440019
 51
83.53081456430107
  0
ARC
  5
CE8
330
1F
100
AcDbEntity
  8
1
  6
Continuous
 62
     7
100
AcDbCircle
 10
1667.531815659099
 20
1836.182726358724
 30
0.0
 40
10.0
100
AcDbArc
 50
78.10061527480122
 51
136.1916325395034
  0
ARC
  5
CE9
330
1F
100
AcDbEntity
  8
1
  6
Continuous
 62
     7
100
AcDbCircle
 10
1527.473655651999
 20
1825.847300715923
 30
0.0
 40
10.0
100
AcDbArc
 50
315.5837888247045
 51
52.2492160809026
  0
ARC
  5
CEA
330
1F
100
AcDbEntity
  8
1
  6
Continuous
 62
     7
100
AcDbCircle
 10
1591.757605959499
 20
1908.868826435724
 30
0.0
 40
95.0
100
AcDbArc
 50
193.173551107296
 51
232.2492160809026
  0
ARC
  5
CEB
330
1F
100
AcDbEntity
  8
1
  6
Continuous
 62
     7
100
AcDbCircle
 10
1560.307887314899
 20
1808.689411398724
 30
0.0
 40
10.0
100
AcDbArc
 50
72.57115664270155
 51
130.6621739073968
  0
LINE
  5
CEC
330
1F
100
AcDbEntity
  8
1
  6
Continuous
 62
     7
100
AcDbLine
 10
1819.754618634699
 20
1687.085017196224
 30
0.0
 11
1861.757605959499
 21
1698.339683729624
 31
0.0
  0
ARC
  5
CED
330
1F
100
AcDbEntity
  8
1
  6
Continuous
 62
     7
100
AcDbCircle
 10
1641.757605959499
 20
1713.868826435724
 30
0.0
 40
150.0
100
AcDbArc
 50
357.9398080474009
 51
42.25980652139853
  0
ARC
  5
CEE
330
1F
100
AcDbEntity
  8
1
  6
Continuous
 62
     7
100
AcDbCircle
 10
1801.654183871299
 20
1708.116924829024
 30
0.0
 40
10.0
100
AcDbArc
 50
177.939808047401
 51
285.0000000000012
  0
LINE
  5
CEF
330
1F
100
AcDbEntity
  8
1
  6
Continuous
 62
     7
100
AcDbLine
 10
1804.242374322399
 20
1698.457666566124
 30
0.0
 11
1861.757605959499
 21
1713.868826435724
 31
0.0
  0
ARC
  5
CF0
330
1F
100
AcDbEntity
  8
1
  6
Continuous
 62
     7
100
AcDbCircle
 10
1822.342809085699
 20
1677.425758933324
 30
0.0
 40
10.0
100
AcDbArc
 50
105.0000000000011
 51
224.9999999999954
  0
LINE
  5
CF1
330
1F
100
AcDbEntity
  8
1
  6
Continuous
 62
     7
100
AcDbLine
 10
1815.271741273799
 20
1670.354691121524
 30
0.0
 11
1861.757605959499
 21
1623.868826435724
 31
0.0
  0
ARC
  5
CF2
330
1F
100
AcDbEntity
  8
1
  6
Continuous
 62
     7
100
AcDbCircle
 10
1760.174091875298
 20
1821.467784903524
 30
0.0
 40
10.0
100
AcDbArc
 50
123.1646112470011
 51
222.2598065213986
  0
ARC
  5
CF3
330
1F
100
AcDbEntity
  8
1
  6
Continuous
 62
     7
100
AcDbCircle
 10
1472.974788897999
 20
2260.946522010724
 30
0.0
 40
515.0
100
AcDbArc
 50
303.164611247001
 51
319.0182132914968
  0
ARC
  5
CF4
330
1F
100
AcDbEntity
  8
1
  6
Continuous
 62
     7
100
AcDbCircle
 10
1641.757605959499
 20
1713.868826435724
 30
0.0
 40
150.0
100
AcDbArc
 50
55.33985450430038
 51
73.17900035749945
  0
ARC
  5
CF5
330
1F
100
AcDbEntity
  8
1
  6
Continuous
 62
     7
100
AcDbCircle
 10
1732.750807346999
 20
1845.475199006624
 30
0.0
 40
10.0
100
AcDbArc
 50
235.3398545043004
 51
302.0159375902988
  0
ARC
  5
CF6
330
1F
100
AcDbEntity
  8
1
  6
Continuous
 62
     7
100
AcDbCircle
 10
1472.974788897999
 20
2260.946522010724
 30
0.0
 40
500.0
100
AcDbArc
 50
302.0159375902988
 51
321.0382243825049
  0
ARC
  5
CF7
330
1F
100
AcDbEntity
  8
1
  6
Continuous
 62
     7
100
AcDbCircle
 10
1688.058829555199
 20
1867.022986332124
 30
0.0
 40
10.0
100
AcDbArc
 50
156.513573101196
 51
253.1790003574994
  0
ARC
  5
CF8
330
1F
100
AcDbEntity
  8
1
  6
Continuous
 62
     7
100
AcDbCircle
 10
1591.757605959499
 20
1908.868826435724
 30
0.0
 40
95.0
100
AcDbArc
 50
336.513573101196
 51
122.7334515110015
  0
LINE
  5
CF9
330
1F
100
AcDbEntity
  8
1
  6
Continuous
 62
     7
100
AcDbLine
 10
1499.257605959499
 20
1995.160477681724
 30
0.0
 11
1499.257605959499
 21
1930.519461530423
 31
0.0
  0
LINE
  5
CFA
330
1F
100
AcDbEntity
  8
1
  6
Continuous
 62
     7
100
AcDbLine
 10
1527.509869176199
 20
1978.849025908424
 30
0.0
 11
1499.257605959499
 21
1995.160477681724
 31
0.0
  0
LINE
  5
CFB
330
1F
100
AcDbEntity
  8
1
  6
Continuous
 62
     7
100
AcDbLine
 10
1551.757605959499
 20
1964.849588549324
 30
0.0
 11
1541.255152338799
 21
1970.913182974324
 31
0.0
  0
LINE
  5
CFC
330
1F
100
AcDbEntity
  8
1
  6
Continuous
 62
     7
100
AcDbLine
 10
1555.386638660298
 20
1980.122968334423
 30
0.0
 11
1581.757605959499
 21
1964.849588549324
 31
0.0
  0
LINE
  5
CFD
330
1F
100
AcDbEntity
  8
1
  6
Continuous
 62
     7
100
AcDbLine
 10
1514.174303467499
 20
2003.868826435724
 30
0.0
 11
1540.388110116199
 21
1988.782372826824
 31
0.0
  0
ARC
  5
CFE
330
1F
100
AcDbEntity
  8
1
  6
Continuous
 62
     7
100
AcDbCircle
 10
1566.757605959499
 20
1938.868826435724
 30
0.0
 40
30.0
100
AcDbArc
 50
119.9999999999969
 51
60.00000000000391
  0
CIRCLE
  5
CFF
330
1F
100
AcDbEntity
  8
1
  6
Continuous
 62
     7
100
AcDbCircle
 10
1566.757605959499
 20
1938.868826435724
 30
0.0
 40
15.0
  0
ARC
  5
D00
330
1F
100
AcDbEntity
  8
1
  6
Continuous
 62
     7
100
AcDbCircle
 10
1591.757605959499
 20
1908.868826435724
 30
0.0
 40
80.0
100
AcDbArc
 50
129.1127460419958
 51
117.0415864733016
  0
ARC
  5
D01
330
1F
100
AcDbEntity
  8
1
  6
Continuous
 62
     7
100
AcDbCircle
 10
1591.757605959499
 20
1908.868826435724
 30
0.0
 40
95.0
100
AcDbArc
 50
132.5282258213041
 51
166.8264488927039
  0
LINE
  5
D02
330
1F
100
AcDbEntity
  8
1
  6
Continuous
 62
     7
100
AcDbLine
 10
1861.757605959499
 20
1613.868826435724
 30
0.0
 11
1676.757605959499
 21
1563.868826435724
 31
0.0
  0
ARC
  5
D03
330
1F
100
AcDbEntity
  8
1
  6
Continuous
 62
     7
100
AcDbCircle
 10
1308.609387442298
 20
1636.409159511624
 30
0.0
 40
50.0
100
AcDbArc
 50
245.6842608288008
 51
294.3157391711992
  0
ARC
  5
D04
330
1F
100
AcDbEntity
  8
1
  6
Continuous
 62
     7
100
AcDbCircle
 10
1273.609387442298
 20
1713.868826435724
 30
0.0
 40
135.0
100
AcDbArc
 50
294.3157391711992
 51
53.41038355100484
  0
ARC
  5
D05
330
1F
100
AcDbEntity
  8
1
  6
Continuous
 62
     7
100
AcDbCircle
 10
1343.609387442298
 20
1713.868826435724
 30
0.0
 40
135.0
100
AcDbArc
 50
101.8993847251987
 51
245.6842608288008
  0
ARC
  5
D06
330
1F
100
AcDbEntity
  8
1
  6
Continuous
 62
     7
100
AcDbCircle
 10
1343.609387442298
 20
1713.868826435724
 30
0.0
 40
135.0
100
AcDbArc
 50
298.1464057533998
 51
49.33782609260319
  0
ARC
  5
D07
330
1F
100
AcDbEntity
  8
1
  6
Continuous
 62
     7
100
AcDbCircle
 10
1400.216530299499
 20
1608.059415807224
 30
0.0
 40
15.0
100
AcDbArc
 50
140.1134775549048
 51
298.1464057533998
  0
ARC
  5
D08
330
1F
100
AcDbEntity
  8
1
  6
Continuous
 62
     7
100
AcDbCircle
 10
1273.609387442298
 20
1713.868826435724
 30
0.0
 40
150.0
100
AcDbArc
 50
320.1134775549048
 51
34.518938355998
  0
ARC
  5
D09
330
1F
100
AcDbEntity
  8
1
  6
Continuous
 62
     7
100
AcDbCircle
 10
1393.609387442299
 20
1908.868826435724
 30
0.0
 40
95.0
100
AcDbArc
 50
276.4691854356989
 51
287.4288433572985
  0
ARC
  5
D0A
330
1F
100
AcDbEntity
  8
1
  6
Continuous
 62
     7
100
AcDbCircle
 10
1348.119309048599
 20
1814.234515703724
 30
0.0
 40
10.0
100
AcDbArc
 50
53.41038355100484
 51
64.32671850930069
  0
ARC
  5
D0B
330
1F
100
AcDbEntity
  8
1
  6
Continuous
 62
     7
100
AcDbCircle
 10
1393.609387442299
 20
1908.868826435724
 30
0.0
 40
95.0
100
AcDbArc
 50
223.8083674604966
 51
244.3267185093007
  0
ARC
  5
D0C
330
1F
100
AcDbEntity
  8
1
  6
Continuous
 62
     7
100
AcDbCircle
 10
1405.439615534499
 20
1804.537404020024
 30
0.0
 40
10.0
100
AcDbArc
 50
96.46918543569894
 51
214.518938355998
  0
ARC
  5
D0D
330
1F
100
AcDbEntity
  8
1
  6
Continuous
 62
     7
100
AcDbCircle
 10
1317.835177742799
 20
1836.182726358724
 30
0.0
 40
10.0
100
AcDbArc
 50
43.80836746049658
 51
101.8993847251987
  0
ARC
  5
D0E
330
1F
100
AcDbEntity
  8
1
  6
Continuous
 62
     7
100
AcDbCircle
 10
1457.8933377499
 20
1825.847300715923
 30
0.0
 40
10.0
100
AcDbArc
 50
127.7507839190974
 51
224.4162111752955
  0
ARC
  5
D0F
330
1F
100
AcDbEntity
  8
1
  6
Continuous
 62
     7
100
AcDbCircle
 10
1343.609387442298
 20
1713.868826435724
 30
0.0
 40
150.0
100
AcDbArc
 50
21.11735180360215
 51
44.41621117529545
  0
ARC
  5
D10
330
1F
100
AcDbEntity
  8
1
  6
Continuous
 62
     7
100
AcDbCircle
 10
1425.059106086999
 20
1808.689411398724
 30
0.0
 40
10.0
100
AcDbArc
 50
49.33782609260319
 51
107.4288433572984
  0
LINE
  5
D11
330
1F
100
AcDbEntity
  8
1
  6
Continuous
 62
     7
100
AcDbLine
 10
1165.612374767199
 20
1687.085017196224
 30
0.0
 11
1123.609387442298
 21
1698.339683729624
 31
0.0
  0
ARC
  5
D12
330
1F
100
AcDbEntity
  8
1
  6
Continuous
 62
     7
100
AcDbCircle
 10
1343.609387442298
 20
1713.868826435724
 30
0.0
 40
150.0
100
AcDbArc
 50
137.7401934786014
 51
182.060191952599
  0
ARC
  5
D13
330
1F
100
AcDbEntity
  8
1
  6
Continuous
 62
     7
100
AcDbCircle
 10
1183.7128095305
 20
1708.116924829024
 30
0.0
 40
10.0
100
AcDbArc
 50
254.9999999999988
 51
2.060191952599015
  0
LINE
  5
D14
330
1F
100
AcDbEntity
  8
1
  6
Continuous
 62
     7
100
AcDbLine
 10
1181.124619079499
 20
1698.457666566124
 30
0.0
 11
1123.609387442298
 21
1713.868826435724
 31
0.0
  0
ARC
  5
D15
330
1F
100
AcDbEntity
  8
1
  6
Continuous
 62
     7
100
AcDbCircle
 10
1163.024184316199
 20
1677.425758933324
 30
0.0
 40
10.0
100
AcDbArc
 50
315.0000000000046
 51
74.99999999999883
  0
LINE
  5
D16
330
1F
100
AcDbEntity
  8
1
  6
Continuous
 62
     7
100
AcDbLine
 10
1170.095252127999
 20
1670.354691121524
 30
0.0
 11
1123.609387442298
 21
1623.868826435724
 31
0.0
  0
ARC
  5
D17
330
1F
100
AcDbEntity
  8
1
  6
Continuous
 62
     7
100
AcDbCircle
 10
1225.192901526499
 20
1821.467784903524
 30
0.0
 40
10.0
100
AcDbArc
 50
317.7401934786015
 51
56.83538875299892
  0
ARC
  5
D18
330
1F
100
AcDbEntity
  8
1
  6
Continuous
 62
     7
100
AcDbCircle
 10
1512.392204503899
 20
2260.946522010724
 30
0.0
 40
515.0
100
AcDbArc
 50
220.9817867085032
 51
236.8353887529989
  0
ARC
  5
D19
330
1F
100
AcDbEntity
  8
1
  6
Continuous
 62
     7
100
AcDbCircle
 10
1343.609387442298
 20
1713.868826435724
 30
0.0
 40
150.0
100
AcDbArc
 50
106.8209996425005
 51
124.6601454956996
  0
ARC
  5
D1A
330
1F
100
AcDbEntity
  8
1
  6
Continuous
 62
     7
100
AcDbCircle
 10
1252.616186054899
 20
1845.475199006624
 30
0.0
 40
10.0
100
AcDbArc
 50
237.9840624097011
 51
304.6601454956995
  0
ARC
  5
D1B
330
1F
100
AcDbEntity
  8
1
  6
Continuous
 62
     7
100
AcDbCircle
 10
1512.392204503899
 20
2260.946522010724
 30
0.0
 40
500.0
100
AcDbArc
 50
218.9617756174952
 51
237.9840624097011
  0
ARC
  5
D1C
330
1F
100
AcDbEntity
  8
1
  6
Continuous
 62
     7
100
AcDbCircle
 10
1297.308163846699
 20
1867.022986332124
 30
0.0
 40
10.0
100
AcDbArc
 50
286.8209996425005
 51
23.48642689880402
  0
ARC
  5
D1D
330
1F
100
AcDbEntity
  8
1
  6
Continuous
 62
     7
100
AcDbCircle
 10
1393.609387442299
 20
1908.868826435724
 30
0.0
 40
95.0
100
AcDbArc
 50
57.26654848899848
 51
203.486426898804
  0
LINE
  5
D1E
330
1F
100
AcDbEntity
  8
1
  6
Continuous
 62
     7
100
AcDbLine
 10
1486.109387442298
 20
1995.160477681724
 30
0.0
 11
1486.109387442298
 21
1930.519461530423
 31
0.0
  0
LINE
  5
D1F
330
1F
100
AcDbEntity
  8
1
  6
Continuous
 62
     7
100
AcDbLine
 10
1457.857124225599
 20
1978.849025908424
 30
0.0
 11
1486.109387442298
 21
1995.160477681724
 31
0.0
  0
LINE
  5
D20
330
1F
100
AcDbEntity
  8
1
  6
Continuous
 62
     7
100
AcDbLine
 10
1433.609387442298
 20
1964.849588549324
 30
0.0
 11
1444.111841062999
 21
1970.913182974324
 31
0.0
  0
LINE
  5
D21
330
1F
100
AcDbEntity
  8
1
  6
Continuous
 62
     7
100
AcDbLine
 10
1429.980354741499
 20
1980.122968334423
 30
0.0
 11
1403.609387442299
 21
1964.849588549324
 31
0.0
  0
LINE
  5
D22
330
1F
100
AcDbEntity
  8
1
  6
Continuous
 62
     7
100
AcDbLine
 10
1471.192689934299
 20
2003.868826435724
 30
0.0
 11
1444.978883285699
 21
1988.782372826824
 31
0.0
  0
ARC
  5
D23
330
1F
100
AcDbEntity
  8
1
  6
Continuous
 62
     7
100
AcDbCircle
 10
1418.609387442298
 20
1938.868826435724
 30
0.0
 40
30.0
100
AcDbArc
 50
119.9999999999969
 51
60.00000000000391
  0
CIRCLE
  5
D24
330
1F
100
AcDbEntity
  8
1
  6
Continuous
 62
     7
100
AcDbCircle
 10
1418.609387442298
 20
1938.868826435724
 30
0.0
 40
15.0
  0
ARC
  5
D25
330
1F
100
AcDbEntity
  8
1
  6
Continuous
 62
     7
100
AcDbCircle
 10
1393.609387442299
 20
1908.868826435724
 30
0.0
 40
80.0
100
AcDbArc
 50
62.95841352669834
 51
50.88725395800418
  0
ARC
  5
D26
330
1F
100
AcDbEntity
  8
1
  6
Continuous
 62
     7
100
AcDbCircle
 10
1393.609387442299
 20
1908.868826435724
 30
0.0
 40
95.0
100
AcDbArc
 50
13.17355110729604
 51
47.47177417869591
  0
LINE
  5
D27
330
1F
100
AcDbEntity
  8
1
  6
Continuous
 62
     7
100
AcDbLine
 10
1123.609387442298
 20
1613.868826435724
 30
0.0
 11
1308.609387442298
 21
1563.868826435724
 31
0.0
  0
LINE
  5
D28
330
1F
100
AcDbEntity
  8
1
  6
Continuous
 62
     7
100
AcDbLine
 10
1123.609387442298
 20
1563.868826435724
 30
0.0
 11
1863.6093874423
 21
1563.868826435724
 31
0.0
  0
LINE
  5
D29
330
1F
100
AcDbEntity
  8
1
  6
Continuous
 62
     7
100
AcDbLine
 10
1713.609387442298
 20
1133.868826435724
 30
0.0
 11
1743.609387442299
 21
1133.868826435724
 31
0.0
  0
LINE
  5
D2A
330
1F
100
AcDbEntity
  8
1
  6
Continuous
 62
     7
100
AcDbLine
 10
1243.609387442299
 20
1133.868826435724
 30
0.0
 11
1273.609387442298
 21
1133.868826435724
 31
0.0
  0
DIMENSION
  5
F07
330
1F
100
AcDbEntity
  8
AM_5
100
AcDbDimension
  2
*D9
 10
1093.609387442298
 20
2153.868827445724
 30
0.0
 11
1493.609387442299
 21
2183.868827445724
 31
0.0
 70
    32
 71
     5
 42
800.0000000000008
  3
IGS
100
AcDbAlignedDimension
 13
1893.609387442299
 23
2003.868826435724
 33
0.0
 14
1093.609387442298
 24
2003.868826435724
 34
0.0
100
AcDbRotatedDimension
1001
ACAD
1000
DSTYLE
1002
{
1070
   140
1040
3.0
1002
}
  0
DIMENSION
  5
1053
330
1F
100
AcDbEntity
  8
AM_5
100
AcDbDimension
  2
*D10
 10
2084.071456971973
 20
1333.868826435724
 30
0.0
 11
2054.068504216067
 21
1433.868826435724
 31
0.0
 70
    32
 71
     5
 42
200.0
  3
IGS
100
AcDbAlignedDimension
 13
1893.609387442299
 23
1533.868826435724
 33
0.0
 14
1962.620175280528
 24
1333.868826435724
 34
0.0
 50
90.0
100
AcDbRotatedDimension
1001
ACAD
1000
DSTYLE
1002
{
1070
   140
1040
3.0
1070
   174
1070
     1
1002
}
  0
DIMENSION
  5
1079
330
1F
100
AcDbEntity
  8
AM_5
100
AcDbDimension
  2
*D11
 10
2184.071456971974
 20
1333.868826435724
 30
0.0
 11
2154.068504216068
 21
1233.868826435724
 31
0.0
 70
    32
 71
     5
 42
200.0
  3
IGS
100
AcDbAlignedDimension
 13
1743.609387442299
 23
1133.868826435724
 33
0.0
 14
1972.620175280528
 24
1333.868826435724
 34
0.0
 50
90.0
100
AcDbRotatedDimension
1001
ACAD
1000
DSTYLE
1002
{
1070
   140
1040
3.0
1070
   174
1070
     1
1002
}
  0
DIMENSION
  5
10C9
330
1F
100
AcDbEntity
  8
AM_5
100
AcDbDimension
  2
*D12
 10
2084.071456971973
 20
2033.868826435724
 30
0.0
 11
2054.071456971973
 21
1783.868826435724
 31
0.0
 70
    32
 71
     5
 42
500.0
  3
IGS
100
AcDbAlignedDimension
 13
1893.609387442299
 23
1533.868826435724
 33
0.0
 14
1863.6093874423
 24
2033.868826435724
 34
0.0
 50
90.0
100
AcDbRotatedDimension
1001
ACAD
1000
DSTYLE
1002
{
1070
   140
1040
3.0
1070
   174
1070
     1
1002
}
  0
DIMENSION
  5
10E6
330
1F
100
AcDbEntity
  8
AM_5
100
AcDbDimension
  2
*D13
 10
2284.071456971974
 20
2033.868826435724
 30
0.0
 11
2254.071456971974
 21
1583.868826435724
 31
0.0
 70
    32
 71
     5
 42
900.0000000000001
  3
IGS
100
AcDbAlignedDimension
 13
1743.609387442299
 23
1133.868826435724
 33
0.0
 14
1863.6093874423
 24
2033.868826435724
 34
0.0
 50
90.0
100
AcDbRotatedDimension
1001
ACAD
1000
DSTYLE
1002
{
1070
   140
1040
3.0
1002
}
  0
DIMENSION
  5
1133
330
1F
100
AcDbEntity
  8
AM_5
100
AcDbDimension
  2
*D14
 10
2184.071456971974
 20
1333.868826435724
 30
0.0
 11
2154.071456971974
 21
1683.868826435724
 31
0.0
 70
    32
 71
     5
 42
700.0000000000002
  3
IGS
100
AcDbAlignedDimension
 13
1863.6093874423
 23
2033.868826435724
 33
0.0
 14
1972.620175280528
 24
1333.868826435724
 34
0.0
 50
90.0
100
AcDbRotatedDimension
1001
ACAD
1000
DSTYLE
1002
{
1070
   140
1040
3.0
1002
}
  0
DIMENSION
  5
116E
330
1F
100
AcDbEntity
  8
AM_5
100
AcDbDimension
  2
*D15
 10
1258.609387442299
 20
1438.760482821629
 30
0.0
 11
1176.109387442299
 21
1468.760482821629
 31
0.0
 70
    32
 71
     5
 42
165.0000000000009
  3
IGS
100
AcDbAlignedDimension
 13
1093.609387442298
 23
1533.868826435724
 33
0.0
 14
1258.609387442299
 24
1470.941240516164
 34
0.0
100
AcDbRotatedDimension
1001
ACAD
1000
DSTYLE
1002
{
1070
   140
1040
3.0
1070
   174
1070
     1
1002
}
  0
DIMENSION
  5
1194
330
1F
100
AcDbEntity
  8
AM_5
100
AcDbDimension
  2
*D16
 10
1728.609387442298
 20
1438.76048282163
 30
0.0
 11
1493.609387442299
 21
1468.76048282163
 31
0.0
 70
    32
 71
     5
 42
469.9999999999991
  3
IGS
100
AcDbAlignedDimension
 13
1258.609387442299
 23
1470.941240516164
 33
0.0
 14
1728.609387442298
 24
1467.412685455491
 34
0.0
100
AcDbRotatedDimension
1001
ACAD
1000
DSTYLE
1002
{
1070
   140
1040
3.0
1070
   174
1070
     1
1002
}
  0
DIMENSION
  5
11AE
330
1F
100
AcDbEntity
  8
AM_5
100
AcDbDimension
  2
*D17
 10
1893.609387442299
 20
1438.76048282163
 30
0.0
 11
1811.109387442299
 21
1468.76048282163
 31
0.0
 70
    32
 71
     5
 42
165.0000000000009
  3
IGS
100
AcDbAlignedDimension
 13
1728.609387442298
 23
1467.412685455491
 33
0.0
 14
1893.609387442299
 24
1533.868826435724
 34
0.0
100
AcDbRotatedDimension
1001
ACAD
1000
DSTYLE
1002
{
1070
   140
1040
3.0
1070
   174
1070
     1
1002
}
  0
DIMENSION
  5
1203
330
1F
100
AcDbEntity
  8
AM_5
100
AcDbDimension
  2
*D18
 10
1273.609387442298
 20
1074.762307217296
 30
0.0
 11
1408.159489899335
 21
1074.762307217296
 31
0.0
 70
   160
 71
     5
 42
30.0
  3
IGS
100
AcDbAlignedDimension
 13
1243.609387442299
 23
1133.868826435724
 33
0.0
 14
1273.609387442298
 24
1133.868826435724
 34
0.0
100
AcDbRotatedDimension
1001
ACAD
1000
DSTYLE
1002
{
1070
   140
1040
3.0
1002
}
  0
DIMENSION
  5
1241
330
1F
100
AcDbEntity
  8
AM_5
100
AcDbDimension
  2
*D19
 10
2962.456904678499
 20
2153.868827445724
 30
0.0
 11
3044.95913053387
 21
2183.871780201629
 31
0.0
 70
    32
 71
     5
 42
25.0
  3
IGS
100
AcDbAlignedDimension
 13
2937.456904678499
 23
2030.868826435725
 33
0.0
 14
2962.456904678499
 24
2030.868826435725
 34
0.0
100
AcDbRotatedDimension
1001
ACAD
1000
DSTYLE
1002
{
1070
   140
1040
3.0
1002
}
  0
INSERT
  5
1274
330
1F
100
AcDbEntity
  8
0
370
     0
100
AcDbBlockReference
  2
IGS_A3
 10
0.0
 20
0.0
 30
0.0
 41
10.0
 42
10.0
 43
10.0
1001
GENIUS_GENOREF_13
1005
127E
1001
GENIUS_GENOBJ-N-SDF_13
1002
{
1000
OWNER
1000
GEN
1002
}
1001
GENIUS_GENODEF_13
1002
{
1000
HIER
1070
     0
1002
}
1002
{
1000
MANEDIT
1070
     0
1002
}
1002
{
1000
NOSEL
1070
     0
1002
}
1002
{
1000
BEHIND
1070
     0
1002
}
1002
{
1000
OTHER
1070
     0
1002
}
1002
{
1000
REACTOR
1002
}
1001
GENIUS_GENSCREG_15
1040
10.0
1040
1.0
1011
0.0
1021
0.0
1031
0.0
1011
4200.0
1021
2970.0
1031
0.0
1070
     5
  0
INSERT
  5
1275
330
1F
100
AcDbEntity
  8
0
370
     0
100
AcDbBlockReference
 66
     1
  2
IGS2
 10
4100.0
 20
100.0
 30
0.0
 41
10.0
 42
10.0
 43
10.0
1001
GENIUS_GENOREF_13
1005
127E
  0
ATTRIB
  5
1277
330
1275
100
AcDbEntity
  8
RAHM3
100
AcDbText
 10
2627.404132868145
 20
419.4728899818606
 30
0.0
 40
40.0
  1
1:10
100
AcDbAttribute
  2
GEN-TITLE-SCA
 70
     0
  0
ATTRIB
  5
1278
330
1275
100
AcDbEntity
  8
RAHM3
100
AcDbText
 10
3369.1
 20
397.4
 30
0.0
 40
50.0
  1
フェンス
100
AcDbAttribute
  2
ＴＩＴＬＥ
 70
     0
  0
ATTRIB
  5
1279
330
1275
100
AcDbEntity
  8
RAHM3
100
AcDbText
 10
3384.371218441596
 20
318.0438312711384
 30
0.0
 40
30.0
  1
IF-6
100
AcDbAttribute
  2
ｃｏｄｅ
 70
     0
  0
ATTRIB
  5
127A
330
1275
100
AcDbEntity
  8
RAHM3
100
AcDbText
 10
3392.551935060368
 20
248.0438312710657
 30
0.0
 40
30.0
  1

100
AcDbAttribute
  2
件名
 70
     0
  0
ATTRIB
  5
127B
330
1275
100
AcDbEntity
  8
RAHM3
100
AcDbText
 10
3369.1
 20
117.3999999999272
 30
0.0
 40
50.0
  1
Ｔ２４Ａ０５００３
100
AcDbAttribute
  2
Ｎｏ．
 70
     0
  0
ATTRIB
  5
127C
330
1275
100
AcDbEntity
  8
RAHM3
100
AcDbText
 10
3095.5
 20
274.0708932112656
 30
0.0
 40
40.0
  1

100
AcDbAttribute
  2
ＤＲ
 70
     0
  0
ATTRIB
  5
127D
330
1275
100
AcDbEntity
  8
RAHM3
100
AcDbText
 10
3062.819146961271
 20
227.7
 30
0.0
 40
30.0
  1

 41
0.8000000000000001
100
AcDbAttribute
  2
ｄａｔｅ
 70
     0
  0
SEQEND
  5
1276
330
1275
100
AcDbEntity
  8
0
370
     0
  0
POINT
  5
127E
330
1F
100
AcDbEntity
  8
0
 60
     1
100
AcDbPoint
 10
0.0
 20
0.0
 30
0.0
1001
GENIUS_GENOBJ-N-TIT_13
1002
{
1000
OWNER
1000
GEN
1002
}
1001
GENIUS_GENOLIS_13
1002
{
1000
ENT
1005
1275
1005
1274
1002
}
1001
GENIUS_GENOENT_13
1002
{
1000
MYREF
1005
127E
1002
}
1002
{
1000
GRP
1005
0
1002
}
1001
GENIUS_GENODEF_13
1002
{
1000
HIER
1070
     1
1002
}
1002
{
1000
MANEDIT
1070
     0
1002
}
1002
{
1000
NOSEL
1070
     0
1002
}
1002
{
1000
BEHIND
1070
     0
1002
}
1002
{
1000
OTHER
1070
     0
1002
}
1002
{
1000
REACTOR
1002
}
1001
GENIUS_GENTITLE_13
1002
{
1000
BORDER
1000
C:\WINNT\Profiles\Administrator\Application Data\Autodesk\AutoCAD\Recent\format\igs_a3
1002
}
1002
{
1000
TITLE
1000
C:\WINNT\Profiles\Administrator\Application Data\Autodesk\AutoCAD\Recent\format\IGS2
1002
}
1002
{
1000
SCALE
1000
1:10
1002
}
1002
{
1000
TITLESTD
1000
IGS
1002
}
1002
{
1000
HRA
1005
1274
1002
}
1002
{
1000
HTIT
1005
1275
1002
}
1002
{
1000
UNCHG
1002
{
1000
GEN-TITLE-SIZ
1000
GEN-TITLE-SCA
1002
}
1002
}
1002
{
1000
GENIUSID
1005
127E
1002
}
  0
INSERT
  5
13DD
102
{ACAD_REACTORS
330
13DA
102
}
330
1F
100
AcDbEntity
  8
AM_12
100
AcDbBlockReference
  2
*S25
 10
0.0
 20
0.0
 30
0.0
1001
ACAD
1000
AcRTDxfName
1000
ACMPARTREF
  0
INSERT
  5
13E2
102
{ACAD_REACTORS
330
13E1
102
}
330
1F
100
AcDbEntity
  8
AM_5
100
AcDbBlockReference
  2
*S26
 10
0.0
 20
0.0
 30
0.0
1001
ACAD
1000
AcRTDxfName
1000
ACMBALLOON
  0
INSERT
  5
13E3
102
{ACAD_REACTORS
330
13E0
102
}
330
1F
100
AcDbEntity
  8
0
100
AcDbBlockReference
  2
*S27
 10
0.0
 20
0.0
 30
0.0
1001
ACAD
1000
AcRTDxfName
1000
ACMPARTLIST
  0
TEXT
  5
13F9
330
1F
100
AcDbEntity
  8
6
100
AcDbText
 10
2987.659339780318
 20
2641.832497848615
 30
0.0
 40
40.0
  1
表面処理：さび止め塗装の上、樹脂系塗料塗装
 11
2987.659339780318
 21
2641.832497848615
 31
0.0
100
AcDbText
 73
     1
  0
LINE
  5
13FA
330
1F
100
AcDbEntity
  8
0
100
AcDbLine
 10
3209.477142982223
 20
261.7886588002722
 30
0.0
 11
3115.721235816554
 21
261.7886588002716
 31
0.0
  0
LINE
  5
13FB
330
1F
100
AcDbEntity
  8
0
100
AcDbLine
 10
3209.477142982223
 20
296.571267488273
 30
0.0
 11
3115.721235816554
 21
296.571267488273
 31
0.0
  0
CIRCLE
  5
13FC
330
1F
100
AcDbEntity
  8
0
100
AcDbCircle
 10
3162.599189399389
 20
279.1799631442723
 30
0.0
 40
49.99999998900111
  0
TEXT
  5
13FD
330
1F
100
AcDbEntity
  8
TEXT
100
AcDbText
 10
3118.920556433086
 20
266.1364848862718
 30
0.0
 40
26.086956516
  1
05.07.20
 41
0.6972296058015833
 72
     5
 11
3203.51186076231
 21
266.1364848862718
 31
0.0
100
AcDbText
  0
TEXT
  5
13FE
330
1F
100
AcDbEntity
  8
0
100
AcDbText
 10
3151.926056197411
 20
232.6197045313788
 30
0.0
 40
25.00000000000055
  1
本
 72
     4
 11
3163.592722864078
 21
245.1197045313791
 31
0.0
100
AcDbText
  0
TEXT
  5
13FF
330
1F
100
AcDbEntity
  8
0
100
AcDbText
 10
3150.342074397907
 20
298.9426828606278
 30
0.0
 40
25.00000000000055
  1
松
 72
     4
 11
3162.008741064574
 21
311.4426828606281
 31
0.0
100
AcDbText
  0
LWPOLYLINE
  5
14E6
330
1F
100
AcDbEntity
  8
0
100
AcDbPolyline
 90
        4
 70
     1
 43
0.0
 10
1158.609387442298
 20
983.8688264357241
 10
1358.609387442298
 20
983.8688264357241
 10
1358.609387442298
 20
1333.868826435724
 10
1158.609387442298
 20
1333.868826435724
1001
GENIUS_GENREC_14
1002
{
1000
PYDIR
1011
1158.609387442298
1021
1333.868826435724
1031
0.0
1002
}
1002
{
1000
PXDIR
1011
1358.609387442298
1021
983.8688264357241
1031
0.0
1002
}
1002
{
1000
PORI
1011
1158.609387442298
1021
983.8688264357241
1031
0.0
1002
}
1002
{
1000
PINS
1011
1258.609387442298
1021
983.8688264357241
1031
0.0
1002
}
1002
{
1000
HVAL
1000
350
1002
}
1002
{
1000
H
1070
     2
1002
}
1002
{
1000
WVAL
1000
200
1002
}
1002
{
1000
W
1070
     2
1002
}
1002
{
1000
C
1070
     2
1002
}
1001
GENIUS_GENODEF_13
1002
{
1000
HIER
1070
     0
1002
}
1002
{
1000
MANEDIT
1070
     0
1002
}
1002
{
1000
NOSEL
1070
     0
1002
}
1002
{
1000
BEHIND
1070
     0
1002
}
1002
{
1000
OTHER
1070
     0
1002
}
1002
{
1000
REACTOR
1002
}
1001
GENIUS_GENOBJ-N-REC_13
1002
{
1000
OWNER
1000
GEN
1002
}
  0
LWPOLYLINE
  5
1503
330
1F
100
AcDbEntity
  8
0
100
AcDbPolyline
 90
        4
 70
     1
 43
0.0
 10
1108.609387442298
 20
883.8688264357241
 10
1408.609387442298
 20
883.8688264357241
 10
1408.609387442298
 20
983.8688264357241
 10
1108.609387442298
 20
983.8688264357241
1001
GENIUS_GENREC_14
1002
{
1000
PYDIR
1011
1108.609387442298
1021
983.8688264357241
1031
0.0
1002
}
1002
{
1000
PXDIR
1011
1408.609387442298
1021
883.8688264357241
1031
0.0
1002
}
1002
{
1000
PORI
1011
1108.609387442298
1021
883.8688264357241
1031
0.0
1002
}
1002
{
1000
PINS
1011
1258.609387442298
1021
883.8688264357241
1031
0.0
1002
}
1002
{
1000
HVAL
1000
100
1002
}
1002
{
1000
H
1070
     2
1002
}
1002
{
1000
WVAL
1000
300
1002
}
1002
{
1000
W
1070
     2
1002
}
1002
{
1000
C
1070
     2
1002
}
1001
GENIUS_GENODEF_13
1002
{
1000
HIER
1070
     0
1002
}
1002
{
1000
MANEDIT
1070
     0
1002
}
1002
{
1000
NOSEL
1070
     0
1002
}
1002
{
1000
BEHIND
1070
     0
1002
}
1002
{
1000
OTHER
1070
     0
1002
}
1002
{
1000
REACTOR
1002
}
1001
GENIUS_GENOBJ-N-REC_13
1002
{
1000
OWNER
1000
GEN
1002
}
  0
HATCH
  5
15A5
330
1F
100
AcDbEntity
  8
0
100
AcDbHatch
 10
0.0
 20
0.0
 30
0.0
210
0.0
220
0.0
230
1.0
  2
PLAST
 70
     0
 71
     0
 91
        1
 92
        7
 72
     0
 73
     1
 93
        8
 10
1358.609387442298
 20
1333.868826435724
 10
1273.609387442298
 20
1333.868826435723
 10
1273.609387442298
 20
1133.868826435724
 10
1243.609387442299
 20
1133.868826435723
 10
1243.609387442299
 20
1333.868826435724
 10
1158.609387442298
 20
1333.868826435724
 10
1158.609387442298
 20
983.8688264357241
 10
1358.609387442298
 20
983.8688264357241
 97
        0
 75
     0
 76
     1
 52
45.0
 41
10.0
 77
     0
 78
     3
 53
45.0
 43
0.0
 44
0.0
 45
-44.90128060534575
 46
44.90128060534576
 79
     0
 53
45.0
 43
-5.61266007566822
 44
5.612660075668221
 45
-44.90128060534575
 46
44.90128060534576
 79
     0
 53
45.0
 43
-11.22532015133644
 44
11.22532015133644
 45
-44.90128060534575
 46
44.90128060534576
 79
     0
 47
2.900753527162452
 98
        1
 10
1204.081807595075
 20
1030.158941823193
  0
LINE
  5
15B9
330
1F
100
AcDbEntity
  8
AM_0
100
AcDbLine
 10
1386.477561150807
 20
963.3550671286856
 30
0.0
 11
1374.6339366928
 21
983.8688264357214
 31
0.0
  0
LINE
  5
15BA
330
1F
100
AcDbEntity
  8
AM_0
100
AcDbLine
 10
1340.586158689853
 20
883.8688264357214
 30
0.0
 11
1398.321185608816
 21
983.8688264357214
 31
0.0
  0
LINE
  5
15BB
330
1F
100
AcDbEntity
  8
AM_0
100
AcDbLine
 10
1363.715290157458
 20
883.8688264357214
 30
0.0
 11
1352.150724423656
 21
903.8992418541374
 31
0.0
  0
LINE
  5
15BC
330
1F
100
AcDbEntity
  8
AM_0
100
AcDbLine
 10
1316.477561150808
 20
963.3550671286865
 30
0.0
 11
1304.6339366928
 21
983.8688264357223
 31
0.0
  0
LINE
  5
15BD
330
1F
100
AcDbEntity
  8
AM_0
100
AcDbLine
 10
1270.586158689853
 20
883.8688264357223
 30
0.0
 11
1328.321185608816
 21
983.8688264357223
 31
0.0
  0
LINE
  5
15BE
330
1F
100
AcDbEntity
  8
AM_0
100
AcDbLine
 10
1293.715290157459
 20
883.8688264357223
 30
0.0
 11
1282.150724423656
 21
903.8992418541383
 31
0.0
  0
LINE
  5
15BF
330
1F
100
AcDbEntity
  8
AM_0
100
AcDbLine
 10
1223.715290157459
 20
883.868826435723
 30
0.0
 11
1212.150724423656
 21
903.899241854139
 31
0.0
  0
LINE
  5
15C0
330
1F
100
AcDbEntity
  8
AM_0
100
AcDbLine
 10
1200.586158689854
 20
883.868826435723
 30
0.0
 11
1258.321185608817
 21
983.868826435723
 31
0.0
  0
LINE
  5
15C1
330
1F
100
AcDbEntity
  8
AM_0
100
AcDbLine
 10
1246.477561150809
 20
963.3550671286872
 30
0.0
 11
1234.6339366928
 21
983.868826435723
 31
0.0
  0
LINE
  5
15C2
330
1F
100
AcDbEntity
  8
AM_0
100
AcDbLine
 10
1176.477561150808
 20
963.3550671286872
 30
0.0
 11
1164.6339366928
 21
983.868826435723
 31
0.0
  0
LINE
  5
15C3
330
1F
100
AcDbEntity
  8
AM_0
100
AcDbLine
 10
1130.586158689854
 20
883.868826435723
 30
0.0
 11
1188.321185608816
 21
983.868826435723
 31
0.0
  0
LINE
  5
15C4
330
1F
100
AcDbEntity
  8
AM_0
100
AcDbLine
 10
1153.715290157459
 20
883.868826435723
 30
0.0
 11
1142.150724423656
 21
903.899241854139
 31
0.0
  0
LINE
  5
15C5
330
1F
100
AcDbEntity
  8
AM_0
100
AcDbLine
 10
1623.715290157459
 20
883.868826435723
 30
0.0
 11
1612.150724423656
 21
903.899241854139
 31
0.0
  0
LINE
  5
15C6
330
1F
100
AcDbEntity
  8
AM_0
100
AcDbLine
 10
1600.586158689854
 20
883.868826435723
 30
0.0
 11
1658.321185608816
 21
983.868826435723
 31
0.0
  0
LINE
  5
15C7
330
1F
100
AcDbEntity
  8
AM_0
100
AcDbLine
 10
1646.477561150809
 20
963.3550671286872
 30
0.0
 11
1634.6339366928
 21
983.868826435723
 31
0.0
  0
LINE
  5
15C8
330
1F
100
AcDbEntity
  8
AM_0
100
AcDbLine
 10
1716.477561150808
 20
963.3550671286872
 30
0.0
 11
1704.6339366928
 21
983.868826435723
 31
0.0
  0
LINE
  5
15C9
330
1F
100
AcDbEntity
  8
AM_0
100
AcDbLine
 10
1670.586158689854
 20
883.868826435723
 30
0.0
 11
1728.321185608817
 21
983.868826435723
 31
0.0
  0
LINE
  5
15CA
330
1F
100
AcDbEntity
  8
AM_0
100
AcDbLine
 10
1693.715290157459
 20
883.868826435723
 30
0.0
 11
1682.150724423657
 21
903.899241854139
 31
0.0
  0
LINE
  5
15CB
330
1F
100
AcDbEntity
  8
AM_0
100
AcDbLine
 10
1763.715290157459
 20
883.8688264357223
 30
0.0
 11
1752.150724423656
 21
903.8992418541383
 31
0.0
  0
LINE
  5
15CC
330
1F
100
AcDbEntity
  8
AM_0
100
AcDbLine
 10
1740.586158689853
 20
883.8688264357223
 30
0.0
 11
1798.321185608816
 21
983.8688264357223
 31
0.0
  0
LINE
  5
15CD
330
1F
100
AcDbEntity
  8
AM_0
100
AcDbLine
 10
1786.477561150808
 20
963.3550671286865
 30
0.0
 11
1774.6339366928
 21
983.8688264357223
 31
0.0
  0
LINE
  5
15CE
330
1F
100
AcDbEntity
  8
AM_0
100
AcDbLine
 10
1833.715290157458
 20
883.8688264357214
 30
0.0
 11
1822.150724423656
 21
903.8992418541374
 31
0.0
  0
LINE
  5
15CF
330
1F
100
AcDbEntity
  8
AM_0
100
AcDbLine
 10
1810.586158689853
 20
883.8688264357214
 30
0.0
 11
1868.321185608816
 21
983.8688264357214
 31
0.0
  0
LINE
  5
15D0
330
1F
100
AcDbEntity
  8
AM_0
100
AcDbLine
 10
1856.477561150808
 20
963.3550671286856
 30
0.0
 11
1844.633936692799
 21
983.8688264357214
 31
0.0
  0
HATCH
  5
15D1
330
1F
100
AcDbEntity
  8
0
100
AcDbHatch
 10
0.0
 20
0.0
 30
0.0
210
0.0
220
0.0
230
1.0
  2
PLAST
 70
     0
 71
     0
 91
        1
 92
        7
 72
     0
 73
     1
 93
        8
 10
1828.609387442298
 20
1333.868826435724
 10
1743.609387442299
 20
1333.868826435723
 10
1743.609387442299
 20
1133.868826435724
 10
1713.609387442298
 20
1133.868826435723
 10
1713.609387442298
 20
1333.868826435724
 10
1628.609387442298
 20
1333.868826435724
 10
1628.609387442298
 20
983.8688264357241
 10
1828.609387442298
 20
983.8688264357241
 97
        0
 75
     0
 76
     1
 52
45.0
 41
10.0
 77
     0
 78
     3
 53
45.0
 43
470.0
 44
0.0
 45
-44.90128060534575
 46
44.90128060534576
 79
     0
 53
45.0
 43
464.3873399243317
 44
5.612660075668221
 45
-44.90128060534575
 46
44.90128060534576
 79
     0
 53
45.0
 43
458.7746798486635
 44
11.22532015133644
 45
-44.90128060534575
 46
44.90128060534576
 79
     0
 47
2.900753527162452
 98
        1
 10
1674.081807595075
 20
1030.158941823193
  0
LWPOLYLINE
  5
15D2
330
1F
100
AcDbEntity
  8
0
100
AcDbPolyline
 90
        4
 70
     1
 43
0.0
 10
1578.609387442299
 20
883.8688264357241
 10
1878.609387442298
 20
883.8688264357241
 10
1878.609387442298
 20
983.8688264357241
 10
1578.609387442299
 20
983.8688264357241
1001
GENIUS_GENREC_14
1002
{
1000
PYDIR
1011
1578.609387442299
1021
983.8688264357241
1031
0.0
1002
}
1002
{
1000
PXDIR
1011
1878.609387442298
1021
883.8688264357241
1031
0.0
1002
}
1002
{
1000
PORI
1011
1578.609387442299
1021
883.8688264357241
1031
0.0
1002
}
1002
{
1000
PINS
1011
1728.609387442298
1021
883.8688264357241
1031
0.0
1002
}
1002
{
1000
HVAL
1000
100
1002
}
1002
{
1000
H
1070
     2
1002
}
1002
{
1000
WVAL
1000
300
1002
}
1002
{
1000
W
1070
     2
1002
}
1002
{
1000
C
1070
     2
1002
}
1001
GENIUS_GENODEF_13
1002
{
1000
HIER
1070
     0
1002
}
1002
{
1000
MANEDIT
1070
     0
1002
}
1002
{
1000
NOSEL
1070
     0
1002
}
1002
{
1000
BEHIND
1070
     0
1002
}
1002
{
1000
OTHER
1070
     0
1002
}
1002
{
1000
REACTOR
1002
}
1001
GENIUS_GENOBJ-N-REC_13
1002
{
1000
OWNER
1000
GEN
1002
}
  0
LWPOLYLINE
  5
15D3
330
1F
100
AcDbEntity
  8
0
100
AcDbPolyline
 90
        4
 70
     1
 43
0.0
 10
1628.609387442298
 20
983.8688264357241
 10
1828.609387442298
 20
983.8688264357241
 10
1828.609387442298
 20
1333.868826435724
 10
1628.609387442298
 20
1333.868826435724
1001
GENIUS_GENREC_14
1002
{
1000
PYDIR
1011
1628.609387442298
1021
1333.868826435724
1031
0.0
1002
}
1002
{
1000
PXDIR
1011
1828.609387442298
1021
983.8688264357241
1031
0.0
1002
}
1002
{
1000
PORI
1011
1628.609387442298
1021
983.8688264357241
1031
0.0
1002
}
1002
{
1000
PINS
1011
1728.609387442298
1021
983.8688264357241
1031
0.0
1002
}
1002
{
1000
HVAL
1000
350
1002
}
1002
{
1000
H
1070
     2
1002
}
1002
{
1000
WVAL
1000
200
1002
}
1002
{
1000
W
1070
     2
1002
}
1002
{
1000
C
1070
     2
1002
}
1001
GENIUS_GENODEF_13
1002
{
1000
HIER
1070
     0
1002
}
1002
{
1000
MANEDIT
1070
     0
1002
}
1002
{
1000
NOSEL
1070
     0
1002
}
1002
{
1000
BEHIND
1070
     0
1002
}
1002
{
1000
OTHER
1070
     0
1002
}
1002
{
1000
REACTOR
1002
}
1001
GENIUS_GENOBJ-N-REC_13
1002
{
1000
OWNER
1000
GEN
1002
}
  0
TEXT
  5
161C
330
1F
100
AcDbEntity
  8
0
100
AcDbText
 10
920.077326064058
 20
1344.60707070022
 30
0.0
 40
50.0
  1
G.L
 11
920.077326064058
 21
1344.60707070022
 31
0.0
100
AcDbText
 73
     1
  0
DIMENSION
  5
162C
330
1F
100
AcDbEntity
  8
AM_5
100
AcDbDimension
  2
*D20
 10
773.538819906964
 20
983.8688264357241
 30
0.0
 11
743.5388199069639
 21
1158.868826435724
 31
0.0
 70
    32
 71
     5
 42
350.0
  3
IGS
100
AcDbAlignedDimension
 13
893.5388199069638
 23
1333.868826435724
 33
0.0
 14
1108.609387442298
 24
983.8688264357241
 34
0.0
 50
90.00000000000003
100
AcDbRotatedDimension
1001
ACAD
1000
DSTYLE
1002
{
1070
   140
1040
3.0
1070
   174
1070
     1
1002
}
  0
DIMENSION
  5
1652
330
1F
100
AcDbEntity
  8
AM_5
100
AcDbDimension
  2
*D21
 10
773.5388199069641
 20
883.8688264357241
 30
0.0
 11
743.538819906964
 21
933.8688264357243
 31
0.0
 70
    32
 71
     5
 42
100.0
  3
IGS
100
AcDbAlignedDimension
 13
1108.609387442298
 23
983.8688264357241
 33
0.0
 14
1108.609387442298
 24
883.8688264357241
 34
0.0
 50
90.0
100
AcDbRotatedDimension
1001
ACAD
1000
DSTYLE
1002
{
1070
   140
1040
3.0
1070
   174
1070
     1
1002
}
  0
DIMENSION
  5
167F
330
1F
100
AcDbEntity
  8
AM_5
100
AcDbDimension
  2
*D22
 10
1358.609387442298
 20
763.8688254357214
 30
0.0
 11
1258.609387442298
 21
793.8717781916269
 31
0.0
 70
    32
  1
{\Famgdt;o}<>
 71
     5
 42
200.0
  3
IGS
100
AcDbAlignedDimension
 13
1158.609387442298
 23
983.8688264357241
 33
0.0
 14
1358.609387442298
 24
983.8688264357241
 34
0.0
 50
0.0000000000001132
100
AcDbRotatedDimension
1001
ACAD
1000
DSTYLE
1002
{
1070
   140
1040
3.0
1002
}
  0
DIMENSION
  5
16AA
330
1F
100
AcDbEntity
  8
AM_5
100
AcDbDimension
  2
*D23
 10
1408.609387442298
 20
663.8688254357203
 30
0.0
 11
1258.609387442298
 21
693.8688254357202
 31
0.0
 70
    32
  1
{\Famgdt;o}<>
 71
     5
 42
300.0
  3
IGS
100
AcDbAlignedDimension
 13
1108.609387442298
 23
883.8688264357241
 33
0.0
 14
1408.609387442298
 24
883.8688264357241
 34
0.0
 50
0.0000000000001132
100
AcDbRotatedDimension
1001
ACAD
1000
DSTYLE
1002
{
1070
   140
1040
3.0
1002
}
  0
TEXT
  5
175A
330
1F
100
AcDbEntity
  8
0
100
AcDbText
 10
2900.342074397907
 20
298.9426828606278
 30
0.0
 40
25.00000000000055
  1
松
 72
     4
 11
2912.008741064574
 21
311.4426828606281
 31
0.0
100
AcDbText
  0
TEXT
  5
175B
330
1F
100
AcDbEntity
  8
0
100
AcDbText
 10
2901.926056197411
 20
232.6197045313788
 30
0.0
 40
25.00000000000055
  1
本
 72
     4
 11
2913.592722864078
 21
245.1197045313791
 31
0.0
100
AcDbText
  0
TEXT
  5
175C
330
1F
100
AcDbEntity
  8
TEXT
100
AcDbText
 10
2868.920556433086
 20
266.1364848862718
 30
0.0
 40
26.086956516
  1
05.07.20
 41
0.6972296058015833
 72
     5
 11
2953.51186076231
 21
266.1364848862718
 31
0.0
100
AcDbText
  0
CIRCLE
  5
175D
330
1F
100
AcDbEntity
  8
0
100
AcDbCircle
 10
2912.599189399389
 20
279.1799631442723
 30
0.0
 40
49.99999998900111
  0
LINE
  5
175E
330
1F
100
AcDbEntity
  8
0
100
AcDbLine
 10
2959.477142982223
 20
296.571267488273
 30
0.0
 11
2865.721235816554
 21
296.571267488273
 31
0.0
  0
LINE
  5
175F
330
1F
100
AcDbEntity
  8
0
100
AcDbLine
 10
2959.477142982223
 20
261.7886588002722
 30
0.0
 11
2865.721235816554
 21
261.7886588002716
 31
0.0
  0
TEXT
  5
1779
330
1F
100
AcDbEntity
  8
TEXT
100
AcDbText
 10
3121.518831203594
 20
406.1364848863254
 30
0.0
 40
26.086956516
  1
05.07.20
 41
0.6972296058015833
 72
     5
 11
3206.110135532818
 21
406.1364848863254
 31
0.0
100
AcDbText
  0
TEXT
  5
177A
330
1F
100
AcDbEntity
  8
TEXT
100
AcDbText
 10
2867.801321337444
 20
403.4996320694869
 30
0.0
 40
26.086956516
  1
05.07.20
 41
0.6972296058015833
 72
     5
 11
2952.392625666668
 21
403.4996320694869
 31
0.0
100
AcDbText
  0
LINE
  5
177B
330
1F
100
AcDbEntity
  8
0
100
AcDbLine
 10
2958.357907886581
 20
399.1518059834869
 30
0.0
 11
2864.602000720912
 21
399.1518059834869
 31
0.0
  0
TEXT
  5
177C
330
1F
100
AcDbEntity
  8
0
100
AcDbText
 10
2900.806821101768
 20
369.9828517145941
 30
0.0
 40
25.00000000000055
  1
村
 72
     4
 11
2912.473487768435
 21
382.4828517145943
 31
0.0
100
AcDbText
  0
TEXT
  5
177D
330
1F
100
AcDbEntity
  8
0
100
AcDbText
 10
2899.222839302269
 20
436.3058300438425
 30
0.0
 40
25.00000000000055
  1
梅
 72
     4
 11
2910.889505968936
 21
448.8058300438428
 31
0.0
100
AcDbText
  0
LINE
  5
177E
330
1F
100
AcDbEntity
  8
0
100
AcDbLine
 10
2958.357907886581
 20
433.9344146714877
 30
0.0
 11
2864.602000720912
 21
433.9344146714877
 31
0.0
  0
CIRCLE
  5
177F
330
1F
100
AcDbEntity
  8
0
100
AcDbCircle
 10
2911.479954303747
 20
416.5431103274875
 30
0.0
 40
49.99999998900111
  0
INSERT
  5
1780
330
1F
100
AcDbEntity
  8
0
100
AcDbBlockReference
  2
NAKAMURA
 10
3165.197464169897
 20
419.1799631443261
 30
0.0
 41
8.695652172000336
 42
8.695652172000336
 43
8.695652172
  0
LWPOLYLINE
  5
1781
330
1F
100
AcDbEntity
  8
0
100
AcDbPolyline
 90
        4
 70
     1
 43
0.0
 10
2849.956904678499
 20
983.8688264357241
 10
3049.956904678499
 20
983.8688264357241
 10
3049.956904678499
 20
1333.868826435724
 10
2849.956904678499
 20
1333.868826435724
1001
GENIUS_GENREC_14
1002
{
1000
PYDIR
1011
2849.956904678499
1021
1333.868826435724
1031
0.0
1002
}
1002
{
1000
PXDIR
1011
3049.956904678499
1021
983.8688264357241
1031
0.0
1002
}
1002
{
1000
PORI
1011
2849.956904678499
1021
983.8688264357241
1031
0.0
1002
}
1002
{
1000
PINS
1011
2949.956904678499
1021
983.8688264357241
1031
0.0
1002
}
1002
{
1000
HVAL
1000
350
1002
}
1002
{
1000
H
1070
     2
1002
}
1002
{
1000
WVAL
1000
200
1002
}
1002
{
1000
W
1070
     2
1002
}
1002
{
1000
C
1070
     2
1002
}
1001
GENIUS_GENODEF_13
1002
{
1000
HIER
1070
     0
1002
}
1002
{
1000
MANEDIT
1070
     0
1002
}
1002
{
1000
NOSEL
1070
     0
1002
}
1002
{
1000
BEHIND
1070
     0
1002
}
1002
{
1000
OTHER
1070
     0
1002
}
1002
{
1000
REACTOR
1002
}
1001
GENIUS_GENOBJ-N-REC_13
1002
{
1000
OWNER
1000
GEN
1002
}
  0
LWPOLYLINE
  5
1782
330
1F
100
AcDbEntity
  8
0
100
AcDbPolyline
 90
        4
 70
     1
 43
0.0
 10
2799.956904678499
 20
883.8688264357241
 10
3099.956904678499
 20
883.8688264357241
 10
3099.956904678499
 20
983.8688264357241
 10
2799.956904678499
 20
983.8688264357241
1001
GENIUS_GENREC_14
1002
{
1000
PYDIR
1011
2799.956904678499
1021
983.8688264357241
1031
0.0
1002
}
1002
{
1000
PXDIR
1011
3099.956904678499
1021
883.8688264357241
1031
0.0
1002
}
1002
{
1000
PORI
1011
2799.956904678499
1021
883.8688264357241
1031
0.0
1002
}
1002
{
1000
PINS
1011
2949.956904678499
1021
883.8688264357241
1031
0.0
1002
}
1002
{
1000
HVAL
1000
100
1002
}
1002
{
1000
H
1070
     2
1002
}
1002
{
1000
WVAL
1000
300
1002
}
1002
{
1000
W
1070
     2
1002
}
1002
{
1000
C
1070
     2
1002
}
1001
GENIUS_GENODEF_13
1002
{
1000
HIER
1070
     0
1002
}
1002
{
1000
MANEDIT
1070
     0
1002
}
1002
{
1000
NOSEL
1070
     0
1002
}
1002
{
1000
BEHIND
1070
     0
1002
}
1002
{
1000
OTHER
1070
     0
1002
}
1002
{
1000
REACTOR
1002
}
1001
GENIUS_GENOBJ-N-REC_13
1002
{
1000
OWNER
1000
GEN
1002
}
  0
HATCH
  5
1783
330
1F
100
AcDbEntity
  8
0
100
AcDbHatch
 10
0.0
 20
0.0
 30
0.0
210
0.0
220
0.0
230
1.0
  2
PLAST
 70
     0
 71
     0
 91
        1
 92
        7
 72
     0
 73
     1
 93
        8
 10
3049.956904678499
 20
1333.868826435724
 10
2964.956904678499
 20
1333.868826435723
 10
2964.956904678499
 20
1133.868826435724
 10
2934.956904678499
 20
1133.868826435723
 10
2934.956904678499
 20
1333.868826435724
 10
2849.956904678499
 20
1333.868826435724
 10
2849.956904678499
 20
983.8688264357241
 10
3049.956904678499
 20
983.8688264357241
 97
        0
 75
     0
 76
     1
 52
45.0
 41
10.0
 77
     0
 78
     3
 53
45.0
 43
1691.3475172362
 44
0.0
 45
-44.90128060534575
 46
44.90128060534576
 79
     0
 53
45.0
 43
1685.734857160532
 44
5.612660075668221
 45
-44.90128060534575
 46
44.90128060534576
 79
     0
 53
45.0
 43
1680.122197084864
 44
11.22532015133644
 45
-44.90128060534575
 46
44.90128060534576
 79
     0
 47
2.900753527162452
 98
        1
 10
2895.429324831276
 20
1030.158941823193
  0
LINE
  5
1784
330
1F
100
AcDbEntity
  8
AM_0
100
AcDbLine
 10
3077.825078387008
 20
963.3550671286856
 30
0.0
 11
3065.981453929
 21
983.8688264357214
 31
0.0
  0
LINE
  5
1785
330
1F
100
AcDbEntity
  8
AM_0
100
AcDbLine
 10
3031.933675926053
 20
883.8688264357214
 30
0.0
 11
3089.668702845016
 21
983.8688264357214
 31
0.0
  0
LINE
  5
1786
330
1F
100
AcDbEntity
  8
AM_0
100
AcDbLine
 10
3055.062807393659
 20
883.8688264357214
 30
0.0
 11
3043.498241659856
 21
903.8992418541374
 31
0.0
  0
LINE
  5
1787
330
1F
100
AcDbEntity
  8
AM_0
100
AcDbLine
 10
3007.825078387009
 20
963.3550671286865
 30
0.0
 11
2995.981453929001
 21
983.8688264357223
 31
0.0
  0
LINE
  5
1788
330
1F
100
AcDbEntity
  8
AM_0
100
AcDbLine
 10
2961.933675926054
 20
883.8688264357223
 30
0.0
 11
3019.668702845017
 21
983.8688264357223
 31
0.0
  0
LINE
  5
1789
330
1F
100
AcDbEntity
  8
AM_0
100
AcDbLine
 10
2985.06280739366
 20
883.8688264357223
 30
0.0
 11
2973.498241659857
 21
903.8992418541383
 31
0.0
  0
LINE
  5
178A
330
1F
100
AcDbEntity
  8
AM_0
100
AcDbLine
 10
2915.06280739366
 20
883.868826435723
 30
0.0
 11
2903.498241659857
 21
903.899241854139
 31
0.0
  0
LINE
  5
178B
330
1F
100
AcDbEntity
  8
AM_0
100
AcDbLine
 10
2891.933675926054
 20
883.868826435723
 30
0.0
 11
2949.668702845017
 21
983.868826435723
 31
0.0
  0
LINE
  5
178C
330
1F
100
AcDbEntity
  8
AM_0
100
AcDbLine
 10
2937.825078387009
 20
963.3550671286872
 30
0.0
 11
2925.981453929001
 21
983.868826435723
 31
0.0
  0
LINE
  5
178D
330
1F
100
AcDbEntity
  8
AM_0
100
AcDbLine
 10
2867.825078387009
 20
963.3550671286872
 30
0.0
 11
2855.981453929001
 21
983.868826435723
 31
0.0
  0
LINE
  5
178E
330
1F
100
AcDbEntity
  8
AM_0
100
AcDbLine
 10
2821.933675926054
 20
883.868826435723
 30
0.0
 11
2879.668702845017
 21
983.868826435723
 31
0.0
  0
LINE
  5
178F
330
1F
100
AcDbEntity
  8
AM_0
100
AcDbLine
 10
2845.06280739366
 20
883.868826435723
 30
0.0
 11
2833.498241659857
 21
903.899241854139
 31
0.0
  0
ENDSEC
  0
SECTION
  2
OBJECTS
  0
DICTIONARY
  5
C
330
0
100
AcDbDictionary
281
     1
  3
ACAD_COLOR
350
985
  3
ACAD_GROUP
350
D
  3
ACAD_LAYOUT
350
1A
  3
ACAD_MATERIAL
350
984
  3
ACAD_MLINESTYLE
350
17
  3
ACAD_PLOTSETTINGS
350
19
  3
ACAD_PLOTSTYLENAME
350
E
  3
AcDbVariableDictionary
350
43
  3
AcmDictionary
350
55
  3
AMG
350
2B
  3
AMGSNAPSETTINGS
350
A8
  3
ASE_INDEX_DICTIONARY
350
942
  0
DICTIONARY
  5
13EB
330
2
100
AcDbDictionary
280
     1
281
     1
  3
ACAD_LAYERSTATES
360
13EC
  0
DICTIONARY
  5
B1
330
1F
100
AcDbDictionary
280
     1
281
     1
  3
ACAD_INDEX
360
B2
  0
DICTIONARY
  5
985
102
{ACAD_REACTORS
330
C
102
}
330
C
100
AcDbDictionary
281
     1
  0
DICTIONARY
  5
D
102
{ACAD_REACTORS
330
C
102
}
330
C
100
AcDbDictionary
281
     1
  0
DICTIONARY
  5
1A
102
{ACAD_REACTORS
330
C
102
}
330
C
100
AcDbDictionary
281
     1
  3
Model
350
22
  3
ﾚｲｱｳﾄ1
350
1E
  3
ﾚｲｱｳﾄ2
350
26
  0
DICTIONARY
  5
984
102
{ACAD_REACTORS
330
C
102
}
330
C
100
AcDbDictionary
281
     1
  0
DICTIONARY
  5
17
102
{ACAD_REACTORS
330
C
102
}
330
C
100
AcDbDictionary
281
     1
  3
Standard
350
18
  0
DICTIONARY
  5
19
102
{ACAD_REACTORS
330
C
102
}
330
C
100
AcDbDictionary
281
     1
  0
ACDBDICTIONARYWDFLT
  5
E
102
{ACAD_REACTORS
330
C
102
}
330
C
100
AcDbDictionary
281
     1
  3
Normal
350
F
100
AcDbDictionaryWithDefault
340
F
  0
DICTIONARY
  5
43
102
{ACAD_REACTORS
330
C
102
}
330
C
100
AcDbDictionary
281
     1
  3
DIMASSOC
350
17CB
  3
INDEXCTL
350
44
  3
PROJECTNAME
350
17CC
  3
SORTENTS
350
774
  0
DICTIONARY
  5
55
102
{ACAD_REACTORS
330
C
102
}
330
C
100
AcDbDictionary
281
     1
  3
AcmBOM
350
3D1
  3
AcmStdDictionary
350
59
  3
AMDTSECTSYM_ARROWCOLOR
350
98E
  0
DICTIONARY
  5
2B
102
{ACAD_REACTORS
330
C
102
}
330
C
100
AcDbDictionary
281
     1
  0
DICTIONARY
  5
A8
102
{ACAD_REACTORS
330
C
102
}
330
C
100
AcDbDictionary
281
     1
  0
DICTIONARY
  5
942
102
{ACAD_REACTORS
330
C
102
}
330
C
100
AcDbDictionary
281
     1
  3
ASEBlockHierarchyIndexRecord
350
944
1001
DCO15
1040
1418113613.734
  0
DICTIONARY
  5
13EC
102
{ACAD_REACTORS
330
13EB
102
}
330
13EB
100
AcDbDictionary
281
     1
  0
DICTIONARY
  5
B2
102
{ACAD_REACTORS
330
B1
102
}
330
B1
100
AcDbDictionary
281
     1
  3
*A1
350
B3
  0
LAYOUT
  5
22
102
{ACAD_REACTORS
330
1A
102
}
330
1A
100
AcDbPlotSettings
  1

  2
\\PC01\CASIO SPEEDIA N4
  4
A3
  6
AM_VIEW1
 40
5.873749732971191
 41
5.958403587341308
 42
5.958404541015625
 43
5.873748779296875
 44
296.9259948730469
 45
419.9466552734374
 46
9.609999999999999
 47
0.0
 48
0.0
 49
0.0
140
0.0
141
0.0
142
1.0
143
3.458210785390119
 70
 11956
 72
     1
 73
     1
 74
     0
  7
monochrome.ctb
 75
     0
147
0.2891668732931762
 76
     0
 77
     2
 78
   300
148
295.8822165187813
149
247.9752015480118
100
AcDbLayout
  1
Model
 70
     1
 71
     0
 10
0.0
 20
0.0
 11
12.0
 21
9.0
 12
0.0
 22
0.0
 32
0.0
 14
0.0
 24
0.0
 34
0.0
 15
0.0
 25
0.0
 35
0.0
146
0.0
 13
0.0
 23
0.0
 33
0.0
 16
1.0
 26
0.0
 36
0.0
 17
0.0
 27
1.0
 37
0.0
 76
     0
330
1F
  0
LAYOUT
  5
1E
102
{ACAD_REACTORS
330
1A
102
}
330
1A
100
AcDbPlotSettings
  1

  2
MUTOH RL-803C(ﾌﾟﾛｯﾀﾓｰﾄﾞ)
  4

  6

 40
0.0
 41
0.0
 42
0.0
 43
0.0
 44
0.0
 45
0.0
 46
0.0
 47
0.0
 48
0.0
 49
0.0
140
0.0
141
0.0
142
1.0
143
1.0
 70
   688
 72
     0
 73
     0
 74
     5
  7
monochrome.ctb
 75
    16
147
1.0
 76
     0
 77
     2
 78
   300
148
0.0
149
0.0
100
AcDbLayout
  1
ﾚｲｱｳﾄ1
 70
     1
 71
     1
 10
0.0
 20
0.0
 11
420.0
 21
297.0
 12
0.0
 22
0.0
 32
0.0
 14
1.000000000000000E+20
 24
1.000000000000000E+20
 34
1.000000000000000E+20
 15
-1.000000000000000E+20
 25
-1.000000000000000E+20
 35
-1.000000000000000E+20
146
0.0
 13
0.0
 23
0.0
 33
0.0
 16
1.0
 26
0.0
 36
0.0
 17
0.0
 27
1.0
 37
0.0
 76
     0
330
1B
  0
LAYOUT
  5
26
102
{ACAD_REACTORS
330
1A
102
}
330
1A
100
AcDbPlotSettings
  1

  2
MUTOH RL-803C(ﾌﾟﾛｯﾀﾓｰﾄﾞ)
  4

  6

 40
0.0
 41
0.0
 42
0.0
 43
0.0
 44
0.0
 45
0.0
 46
0.0
 47
0.0
 48
0.0
 49
0.0
140
0.0
141
0.0
142
1.0
143
1.0
 70
   688
 72
     0
 73
     0
 74
     5
  7
monochrome.ctb
 75
    16
147
1.0
 76
     0
 77
     2
 78
   300
148
0.0
149
0.0
100
AcDbLayout
  1
ﾚｲｱｳﾄ2
 70
     1
 71
     2
 10
0.0
 20
0.0
 11
12.0
 21
9.0
 12
0.0
 22
0.0
 32
0.0
 14
0.0
 24
0.0
 34
0.0
 15
0.0
 25
0.0
 35
0.0
146
0.0
 13
0.0
 23
0.0
 33
0.0
 16
1.0
 26
0.0
 36
0.0
 17
0.0
 27
1.0
 37
0.0
 76
     0
330
23
  0
MLINESTYLE
  5
18
102
{ACAD_REACTORS
330
17
102
}
330
17
100
AcDbMlineStyle
  2
STANDARD
 70
     0
  3

 62
   256
 51
90.0
 52
90.0
 71
     2
 49
0.5
 62
   256
  6
BYLAYER
 49
-0.5
 62
   256
  6
BYLAYER
  0
ACDBPLACEHOLDER
  5
F
102
{ACAD_REACTORS
330
E
102
}
330
E
  0
DICTIONARYVAR
  5
17CB
102
{ACAD_REACTORS
330
43
102
}
330
43
100
DictionaryVariables
280
     0
  1
1
  0
DICTIONARYVAR
  5
44
102
{ACAD_REACTORS
330
43
102
}
330
43
100
DictionaryVariables
280
     0
  1
1
  0
DICTIONARYVAR
  5
17CC
102
{ACAD_REACTORS
330
43
102
}
330
43
100
DictionaryVariables
280
     0
  1

  0
DICTIONARYVAR
  5
774
102
{ACAD_REACTORS
330
43
102
}
330
43
100
DictionaryVariables
280
     0
  1
103
  0
DICTIONARY
  5
3D1
102
{ACAD_REACTORS
330
55
102
}
330
55
100
AcDbDictionary
281
     1
  0
DICTIONARY
  5
59
102
{ACAD_REACTORS
330
55
102
}
330
55
100
AcDbDictionary
281
     1
  0
XRECORD
  5
98E
102
{ACAD_REACTORS
330
55
102
}
330
55
100
AcDbXrecord
280
     1
 90
-1023410169
  0
XRECORD
  5
944
102
{ACAD_REACTORS
330
942
102
}
330
942
100
AcDbXrecord
280
     1
330
0
330
0
330
0
330
0
  0
LAYER_INDEX
  5
B3
102
{ACAD_REACTORS
330
B2
102
}
330
B2
100
AcDbIndex
 40
2454718.70482801
100
AcDbLayerIndex
  8
0
360
B4
 90
       30
  8
RAHM2
360
156
 90
        0
  8
AM_BOR
360
4B6
 90
        0
  8
RAHM3
360
4B7
 90
        0
  8
1
360
4B9
 90
      115
  8
DEFPOINTS
360
4BA
 90
        0
  8
7A
360
4BD
 90
        0
  8
AM_5
360
1042
 90
       16
  8
AM_7
360
127F
 90
        3
  8
AM_3
360
1280
 90
        6
  8
AM_12
360
1402
 90
        1
  8
AM_PAREF
360
1403
 90
        0
  8
6
360
1404
 90
        1
  8
TEXT
360
1405
 90
        4
  8
AM_CL
360
1760
 90
        0
  8
AM_0
360
1761
 90
       36
  0
IDBUFFER
  5
B4
330
0
100
AcDbIdBuffer
330
1274
330
1275
330
127E
330
13E3
330
13FA
330
13FB
330
13FC
330
13FE
330
13FF
330
14E6
330
1503
330
15A5
330
15D1
330
15D2
330
15D3
330
161C
330
175A
330
175B
330
175D
330
175E
330
175F
330
177B
330
177C
330
177D
330
177E
330
177F
330
1780
330
1781
330
1782
330
1783
  0
IDBUFFER
  5
156
330
0
100
AcDbIdBuffer
  0
IDBUFFER
  5
4B6
330
0
100
AcDbIdBuffer
  0
IDBUFFER
  5
4B7
330
0
100
AcDbIdBuffer
  0
IDBUFFER
  5
4B9
330
0
100
AcDbIdBuffer
330
C68
330
C71
330
C72
330
C73
330
C74
330
C75
330
C7C
330
C7D
330
C7F
330
CC1
330
CC2
330
CC3
330
CC4
330
CC5
330
CC6
330
CC7
330
CC8
330
CC9
330
CCA
330
CCB
330
CCC
330
CCD
330
CCE
330
CCF
330
CD0
330
CD1
330
CD2
330
CD3
330
CD4
330
CD5
330
CD6
330
CD7
330
CD8
330
CD9
330
CDA
330
CDB
330
CDC
330
CDD
330
CDE
330
CDF
330
CE0
330
CE1
330
CE2
330
CE3
330
CE4
330
CE5
330
CE6
330
CE7
330
CE8
330
CE9
330
CEA
330
CEB
330
CEC
330
CED
330
CEE
330
CEF
330
CF0
330
CF1
330
CF2
330
CF3
330
CF4
330
CF5
330
CF6
330
CF7
330
CF8
330
CF9
330
CFA
330
CFB
330
CFC
330
CFD
330
CFE
330
CFF
330
D00
330
D01
330
D02
330
D03
330
D04
330
D05
330
D06
330
D07
330
D08
330
D09
330
D0A
330
D0B
330
D0C
330
D0D
330
D0E
330
D0F
330
D10
330
D11
330
D12
330
D13
330
D14
330
D15
330
D16
330
D17
330
D18
330
D19
330
D1A
330
D1B
330
D1C
330
D1D
330
D1E
330
D1F
330
D20
330
D21
330
D22
330
D23
330
D24
330
D25
330
D26
330
D27
330
D28
330
D29
330
D2A
  0
IDBUFFER
  5
4BA
330
0
100
AcDbIdBuffer
  0
IDBUFFER
  5
4BD
330
0
100
AcDbIdBuffer
  0
IDBUFFER
  5
1042
330
0
100
AcDbIdBuffer
330
F07
330
1053
330
1079
330
10C9
330
10E6
330
1133
330
116E
330
1194
330
11AE
330
1203
330
1241
330
13E2
330
162C
330
1652
330
167F
330
16AA
  0
IDBUFFER
  5
127F
330
0
100
AcDbIdBuffer
330
C94
330
CBF
330
CC0
  0
IDBUFFER
  5
1280
330
0
100
AcDbIdBuffer
330
C76
330
C77
330
C78
330
C79
330
C7A
330
C7B
  0
IDBUFFER
  5
1402
330
0
100
AcDbIdBuffer
330
13DD
  0
IDBUFFER
  5
1403
330
0
100
AcDbIdBuffer
  0
IDBUFFER
  5
1404
330
0
100
AcDbIdBuffer
330
13F9
  0
IDBUFFER
  5
1405
330
0
100
AcDbIdBuffer
330
13FD
330
175C
330
1779
330
177A
  0
IDBUFFER
  5
1760
330
0
100
AcDbIdBuffer
  0
IDBUFFER
  5
1761
330
0
100
AcDbIdBuffer
330
15B9
330
15BA
330
15BB
330
15BC
330
15BD
330
15BE
330
15BF
330
15C0
330
15C1
330
15C2
330
15C3
330
15C4
330
15C5
330
15C6
330
15C7
330
15C8
330
15C9
330
15CA
330
15CB
330
15CC
330
15CD
330
15CE
330
15CF
330
15D0
330
1784
330
1785
330
1786
330
1787
330
1788
330
1789
330
178A
330
178B
330
178C
330
178D
330
178E
330
178F
  0
ENDSEC
  0
EOF
