  0
SECTION
  2
HEADER
  9
$ACADVER
  1
AC1015
  9
$ACADMAINTVER
 70
    20
  9
$DWGCODEPAGE
  3
ANSI_932
  9
$INSBASE
 10
0.0
 20
0.0
 30
0.0
  9
$EXTMIN
 10
-0.173793632115121
 20
-0.0818182839466317
 30
-0.0158606652669278
  9
$EXTMAX
 10
4365.582670077863
 20
2970.140008565807
 30
520.0238109755673
  9
$LIMMIN
 10
-33.60421398484141
 20
500.8088123138259
  9
$LIMMAX
 10
4166.395786015158
 20
3470.808812313826
  9
$ORTHOMODE
 70
     0
  9
$REGENMODE
 70
     1
  9
$FILLMODE
 70
     1
  9
$QTEXTMODE
 70
     0
  9
$MIRRTEXT
 70
     1
  9
$LTSCALE
 40
10.0
  9
$ATTMODE
 70
     1
  9
$TEXTSIZE
 40
2.5
  9
$TRACEWID
 40
1.0
  9
$TEXTSTYLE
  7
STANDARD
  9
$CLAYER
  8
0
  9
$CELTYPE
  6
ByLayer
  9
$CECOLOR
 62
   256
  9
$CELTSCALE
 40
1.0
  9
$DISPSILH
 70
     0
  9
$DIMSCALE
 40
10.0
  9
$DIMASZ
 40
2.5
  9
$DIMEXO
 40
1.0
  9
$DIMDLI
 40
10.0
  9
$DIMRND
 40
0.0
  9
$DIMDLE
 40
0.0
  9
$DIMEXE
 40
1.0
  9
$DIMTP
 40
0.1
  9
$DIMTM
 40
0.1
  9
$DIMTXT
 40
4.5
  9
$DIMCEN
 40
0.0
  9
$DIMTSZ
 40
0.0
  9
$DIMTOL
 70
     0
  9
$DIMLIM
 70
     0
  9
$DIMTIH
 70
     0
  9
$DIMTOH
 70
     0
  9
$DIMSE1
 70
     0
  9
$DIMSE2
 70
     0
  9
$DIMTAD
 70
     3
  9
$DIMZIN
 70
     8
  9
$DIMBLK
  1
Open30
  9
$DIMASO
 70
     1
  9
$DIMSHO
 70
     1
  9
$DIMPOST
  1

  9
$DIMAPOST
  1
"
  9
$DIMALT
 70
     0
  9
$DIMALTD
 70
     2
  9
$DIMALTF
 40
0.0393701
  9
$DIMLFAC
 40
1.0
  9
$DIMTOFL
 70
     1
  9
$DIMTVP
 40
0.0
  9
$DIMTIX
 70
     0
  9
$DIMSOXD
 70
     0
  9
$DIMSAH
 70
     0
  9
$DIMBLK1
  1

  9
$DIMBLK2
  1

  9
$DIMSTYLE
  2
IGS
  9
$DIMCLRD
 70
   256
  9
$DIMCLRE
 70
   256
  9
$DIMCLRT
 70
     2
  9
$DIMTFAC
 40
0.71
  9
$DIMGAP
 40
1.5
  9
$DIMJUST
 70
     0
  9
$DIMSD1
 70
     0
  9
$DIMSD2
 70
     0
  9
$DIMTOLJ
 70
     0
  9
$DIMTZIN
 70
     8
  9
$DIMALTZ
 70
     0
  9
$DIMALTTZ
 70
     0
  9
$DIMUPT
 70
     0
  9
$DIMDEC
 70
     2
  9
$DIMTDEC
 70
     2
  9
$DIMALTU
 70
     2
  9
$DIMALTTD
 70
     2
  9
$DIMTXSTY
  7
STANDARD
  9
$DIMAUNIT
 70
     0
  9
$DIMADEC
 70
     0
  9
$DIMALTRND
 40
0.0
  9
$DIMAZIN
 70
     2
  9
$DIMDSEP
 70
    46
  9
$DIMATFIT
 70
     3
  9
$DIMFRAC
 70
     0
  9
$DIMLDRBLK
  1
Open30
  9
$DIMLUNIT
 70
     2
  9
$DIMLWD
 70
    -1
  9
$DIMLWE
 70
    -1
  9
$DIMTMOVE
 70
     0
  9
$LUNITS
 70
     2
  9
$LUPREC
 70
     2
  9
$SKETCHINC
 40
1.0
  9
$FILLETRAD
 40
5.0
  9
$AUNITS
 70
     0
  9
$AUPREC
 70
     0
  9
$MENU
  1
.
  9
$ELEVATION
 40
0.0
  9
$PELEVATION
 40
0.0
  9
$THICKNESS
 40
0.0
  9
$LIMCHECK
 70
     0
  9
$CHAMFERA
 40
25.0
  9
$CHAMFERB
 40
25.0
  9
$CHAMFERC
 40
20.0
  9
$CHAMFERD
 40
0.0
  9
$SKPOLY
 70
     0
  9
$TDCREATE
 40
2453572.413664097
  9
$TDUCREATE
 40
2453572.038664098
  9
$TDUPDATE
 40
2456247.392182975
  9
$TDUUPDATE
 40
2456247.017182975
  9
$TDINDWG
 40
0.0309723958
  9
$TDUSRTIMER
 40
0.0309723958
  9
$USRTIMER
 70
     1
  9
$ANGBASE
 50
0.0
  9
$ANGDIR
 70
     0
  9
$PDMODE
 70
     0
  9
$PDSIZE
 40
0.0
  9
$PLINEWID
 40
0.0
  9
$SPLFRAME
 70
     0
  9
$SPLINETYPE
 70
     6
  9
$SPLINESEGS
 70
     8
  9
$HANDSEED
  5
39F5
  9
$SURFTAB1
 70
     6
  9
$SURFTAB2
 70
     6
  9
$SURFTYPE
 70
     6
  9
$SURFU
 70
     6
  9
$SURFV
 70
     6
  9
$UCSBASE
  2

  9
$UCSNAME
  2

  9
$UCSORG
 10
0.0
 20
0.0
 30
0.0
  9
$UCSXDIR
 10
1.0
 20
0.0
 30
0.0
  9
$UCSYDIR
 10
0.0
 20
1.0
 30
0.0
  9
$UCSORTHOREF
  2

  9
$UCSORTHOVIEW
 70
     0
  9
$UCSORGTOP
 10
0.0
 20
0.0
 30
0.0
  9
$UCSORGBOTTOM
 10
0.0
 20
0.0
 30
0.0
  9
$UCSORGLEFT
 10
0.0
 20
0.0
 30
0.0
  9
$UCSORGRIGHT
 10
0.0
 20
0.0
 30
0.0
  9
$UCSORGFRONT
 10
0.0
 20
0.0
 30
0.0
  9
$UCSORGBACK
 10
0.0
 20
0.0
 30
0.0
  9
$PUCSBASE
  2

  9
$PUCSNAME
  2

  9
$PUCSORG
 10
0.0
 20
0.0
 30
0.0
  9
$PUCSXDIR
 10
1.0
 20
0.0
 30
0.0
  9
$PUCSYDIR
 10
0.0
 20
1.0
 30
0.0
  9
$PUCSORTHOREF
  2

  9
$PUCSORTHOVIEW
 70
     0
  9
$PUCSORGTOP
 10
0.0
 20
0.0
 30
0.0
  9
$PUCSORGBOTTOM
 10
0.0
 20
0.0
 30
0.0
  9
$PUCSORGLEFT
 10
0.0
 20
0.0
 30
0.0
  9
$PUCSORGRIGHT
 10
0.0
 20
0.0
 30
0.0
  9
$PUCSORGFRONT
 10
0.0
 20
0.0
 30
0.0
  9
$PUCSORGBACK
 10
0.0
 20
0.0
 30
0.0
  9
$USERI1
 70
     0
  9
$USERI2
 70
     0
  9
$USERI3
 70
     0
  9
$USERI4
 70
     0
  9
$USERI5
 70
     0
  9
$USERR1
 40
0.0
  9
$USERR2
 40
0.0
  9
$USERR3
 40
0.0
  9
$USERR4
 40
0.0
  9
$USERR5
 40
0.0
  9
$WORLDVIEW
 70
     1
  9
$SHADEDGE
 70
     3
  9
$SHADEDIF
 70
    70
  9
$TILEMODE
 70
     1
  9
$MAXACTVP
 70
    64
  9
$PINSBASE
 10
0.0
 20
0.0
 30
0.0
  9
$PLIMCHECK
 70
     0
  9
$PEXTMIN
 10
1.000000000000000E+20
 20
1.000000000000000E+20
 30
1.000000000000000E+20
  9
$PEXTMAX
 10
-1.000000000000000E+20
 20
-1.000000000000000E+20
 30
-1.000000000000000E+20
  9
$PLIMMIN
 10
0.0
 20
0.0
  9
$PLIMMAX
 10
420.0
 20
297.0
  9
$UNITMODE
 70
     0
  9
$VISRETAIN
 70
     1
  9
$PLINEGEN
 70
     0
  9
$PSLTSCALE
 70
     1
  9
$TREEDEPTH
 70
  3020
  9
$CMLSTYLE
  2
Standard
  9
$CMLJUST
 70
     0
  9
$CMLSCALE
 40
20.0
  9
$PROXYGRAPHICS
 70
     1
  9
$MEASUREMENT
 70
     1
  9
$CELWEIGHT
370
    -1
  9
$ENDCAPS
280
     0
  9
$JOINSTYLE
280
     0
  9
$LWDISPLAY
290
     0
  9
$INSUNITS
 70
     4
  9
$HYPERLINKBASE
  1

  9
$STYLESHEET
  1
monochrome.ctb
  9
$XEDIT
290
     1
  9
$CEPSNTYPE
380
     0
  9
$PSTYLEMODE
290
     1
  9
$FINGERPRINTGUID
  2
{A179640A-E7AE-11D4-BDB4-00B0D0A1239A}
  9
$VERSIONGUID
  2
{7AEC773C-E826-4FFE-9B5D-31BCF9BA4637}
  9
$EXTNAMES
290
     1
  9
$PSVPSCALE
 40
0.0
  9
$OLESTARTUP
290
     0
  0
ENDSEC
  0
SECTION
  2
CLASSES
  0
CLASS
  1
ACDBDICTIONARYWDFLT
  2
AcDbDictionaryWithDefault
  3
ObjectDBX Classes
 90
        0
280
     0
281
     0
  0
CLASS
  1
ACDBPLACEHOLDER
  2
AcDbPlaceHolder
  3
ObjectDBX Classes
 90
        0
280
     0
281
     0
  0
CLASS
  1
LAYOUT
  2
AcDbLayout
  3
ObjectDBX Classes
 90
        0
280
     0
281
     0
  0
CLASS
  1
AMGSETTINGSOBJ
  2
AmgSettingsObj
  3
"AcadM|Product Description: AutoCAD Mechanical 2000|Company: Autodesk"
 90
        0
280
     0
281
     0
  0
CLASS
  1
AMGOBJPROPCFG
  2
AmgObjPropCfg
  3
"AmgLay|Product Description: AutoCAD Mechanical 2000|Company: Autodesk"
 90
        1
280
     0
281
     0
  0
CLASS
  1
ACME_DOCUMENT
  2
AcMeDbDoc
  3
AcMeServices
 90
        0
280
     0
281
     0
  0
CLASS
  1
ACMESCOPE
  2
AcMeScope
  3
AcMeServices
 90
        0
280
     0
281
     0
  0
CLASS
  1
ACMECOMMANDHISTORY
  2
AcMeCommandHistory
  3
AcMeServices
 90
        0
280
     0
281
     0
  0
CLASS
  1
DICTIONARYVAR
  2
AcDbDictionaryVar
  3
ObjectDBX Classes
 90
        0
280
     0
281
     0
  0
CLASS
  1
ACIMSYSVARMAN
  2
AcImSysVarManager
  3
AcMeServices
 90
        0
280
     0
281
     0
  0
CLASS
  1
ACIMREALSYSVAR
  2
AcImRealSysVar
  3
AcMeServices
 90
        0
280
     0
281
     0
  0
CLASS
  1
ACIMINTSYSVAR
  2
AcImIntSysVar
  3
AcMeServices
 90
        0
280
     0
281
     0
  0
CLASS
  1
ACMEDRAWINGMAN
  2
AcMeDrawingMan
  3
AcMeServices
 90
        0
280
     0
281
     0
  0
CLASS
  1
ACMEVIEW
  2
AcMeView
  3
AcMeServices
 90
        0
280
     0
281
     0
  0
CLASS
  1
ACDBENTITYCACHE
  2
AcMeEntityCache
  3
AcMeServices
 90
        0
280
     0
281
     0
  0
CLASS
  1
GSMANAGER
  2
AcMeGSManager
  3
AcMeServices
 90
        0
280
     0
281
     0
  0
CLASS
  1
AMDTINTERNALREACTOR
  2
AmdtInternalReactor
  3
AcMeServices
 90
        0
280
     0
281
     0
  0
CLASS
  1
ACMESTATEMGR
  2
AcMeStateMgr
  3
AcMeServices
 90
        0
280
     0
281
     0
  0
CLASS
  1
ACGREFMASTER
  2
AcGrefMaster
  3
AcAttribServices
 90
        0
280
     0
281
     0
  0
CLASS
  1
ACME_DATABASE
  2
AcMeDbDatabase
  3
AcMeServices
 90
        0
280
     0
281
     0
  0
CLASS
  1
ACRFINSADJUSTERMGR
  2
AcRfInsAdjusterMgr
  3
AcMeServices
 90
        0
280
     0
281
     0
  0
CLASS
  1
ACGREFACADMASTER
  2
AcGrefacadMaster
  3
AcGrefServices
 90
        0
280
     0
281
     0
  0
CLASS
  1
AMIMASTER
  2
AmiMaster
  3
AmiServices
 90
        0
280
     0
281
     0
  0
CLASS
  1
ACMDATADICTIONARY
  2
AcmDataDictionary
  3
"AcmSymBB|Product Description: AutoCAD Mechanical 2004 DX|Company: Autodesk"
 90
        0
280
     0
281
     0
  0
CLASS
  1
ACMDATAENTRYBLOCK
  2
AcmDataEntryBlock
  3
"AcmSymBB|Product Description: AutoCAD Mechanical 2004 DX|Company: Autodesk"
 90
        0
280
     0
281
     0
  0
CLASS
  1
ACMSTANDARDJIS
  2
AcmStandardJIS
  3
"Amdt_StdImp|Product Description: AutoCAD Mechanical 2004 DX|Company: Autodesk"
 90
        0
280
     0
281
     0
  0
CLASS
  1
ACMSURFSTANDARDJIS
  2
AcmSurfTextStdJIS
  3
"Amdt_StdImp|Product Description: AutoCAD Mechanical 2004 DX|Company: Autodesk"
 90
        0
280
     0
281
     0
  0
CLASS
  1
ACMFCFSTANDARDJIS
  2
AcmFCFStdJIS
  3
"Amdt_StdImp|Product Description: AutoCAD Mechanical 2004 DX|Company: Autodesk"
 90
        0
280
     0
281
     0
  0
CLASS
  1
ACMWELDSTANDARDJIS
  2
AcmWeldingStdJIS
  3
"Amdt_StdImp|Product Description: AutoCAD Mechanical 2004 DX|Company: Autodesk"
 90
        0
280
     0
281
     0
  0
CLASS
  1
ACMIDSTANDARDJIS
  2
AcmIdStdJIS
  3
"Amdt_StdImp|Product Description: AutoCAD Mechanical 2004 DX|Company: Autodesk"
 90
        0
280
     0
281
     0
  0
CLASS
  1
ACMDATUMSTANDARDJIS
  2
AcmDatumStdJIS
  3
"Amdt_StdImp|Product Description: AutoCAD Mechanical 2004 DX|Company: Autodesk"
 90
        0
280
     0
281
     0
  0
CLASS
  1
ACMBOMSTANDARDJIS
  2
AcmBOMStdJIS
  3
"Amdt_StdImp|Product Description: AutoCAD Mechanical 2004 DX|Company: Autodesk"
 90
        0
280
     0
281
     0
  0
CLASS
  1
ACMDETAILSTANDARDJIS
  2
AmdtDetailSymStdJIS
  3
"Amdt_StdImp|Product Description: AutoCAD Mechanical 2004 DX|Company: Autodesk"
 90
        0
280
     0
281
     0
  0
CLASS
  1
ACMSECTIONSTANDARDJIS
  2
AmdtSectionSymStdJIS
  3
"Amdt_StdImp|Product Description: AutoCAD Mechanical 2004 DX|Company: Autodesk"
 90
        0
280
     0
281
     0
  0
CLASS
  1
ACMCENTERLINESTANDARDJIS
  2
AmdtCenterLineStdJIS
  3
"Amdt_StdImp|Product Description: AutoCAD Mechanical 2004 DX|Company: Autodesk"
 90
        0
280
     0
281
     0
  0
CLASS
  1
ACAMGLAYSTD
  2
AcAmgLayStd
  3
"AcAmgLayStd|Product Description: AutoCAD Mechanical 2000|Company: Autodesk"
 90
        0
280
     0
281
     0
  0
CLASS
  1
ACAMGDIMSTD
  2
AcAmgDimStd
  3
"AcAmgDimStd|Product Description: AutoCAD Mechanical 2000|Company: Autodesk"
 90
        0
280
     0
281
     0
  0
CLASS
  1
ACAMGTITLESTD
  2
AcAmgTitleStd
  3
"TITLEAPP"
 90
        0
280
     0
281
     0
  0
CLASS
  1
ACMSTANDARDISO
  2
AcmStandardISO
  3
"Amdt_StdImp|Product Description: AutoCAD Mechanical 2004 DX|Company: Autodesk"
 90
        0
280
     0
281
     0
  0
CLASS
  1
AMDTEDGESTANDARDISO
  2
AmdtEdgeStdISO
  3
"Amdt_StdImp|Product Description: AutoCAD Mechanical 2004 DX|Company: Autodesk"
 90
        0
280
     0
281
     0
  0
CLASS
  1
ACMSURFSTANDARDISO
  2
AcmSurfTextStdISO
  3
"Amdt_StdImp|Product Description: AutoCAD Mechanical 2004 DX|Company: Autodesk"
 90
        0
280
     0
281
     0
  0
CLASS
  1
ACMFCFSTANDARDISO
  2
AcmFCFStdISO
  3
"Amdt_StdImp|Product Description: AutoCAD Mechanical 2004 DX|Company: Autodesk"
 90
        0
280
     0
281
     0
  0
CLASS
  1
ACMWELDSTANDARDISO
  2
AcmWeldingStdISO
  3
"Amdt_StdImp|Product Description: AutoCAD Mechanical 2004 DX|Company: Autodesk"
 90
        0
280
     0
281
     0
  0
CLASS
  1
ACMIDSTANDARDISO
  2
AcmIdStdISO
  3
"Amdt_StdImp|Product Description: AutoCAD Mechanical 2004 DX|Company: Autodesk"
 90
        0
280
     0
281
     0
  0
CLASS
  1
ACMDATUMSTANDARDISO
  2
AcmDatumStdISO
  3
"Amdt_StdImp|Product Description: AutoCAD Mechanical 2004 DX|Company: Autodesk"
 90
        0
280
     0
281
     0
  0
CLASS
  1
ACMBOMSTANDARDISO
  2
AcmBOMStdISO
  3
"Amdt_StdImp|Product Description: AutoCAD Mechanical 2004 DX|Company: Autodesk"
 90
        0
280
     0
281
     0
  0
CLASS
  1
ACMDETAILSTANDARDISO
  2
AmdtDetailSymStdISO
  3
"Amdt_StdImp|Product Description: AutoCAD Mechanical 2004 DX|Company: Autodesk"
 90
        0
280
     0
281
     0
  0
CLASS
  1
ACMSECTIONSTANDARDISO
  2
AmdtSectionSymStdISO
  3
"Amdt_StdImp|Product Description: AutoCAD Mechanical 2004 DX|Company: Autodesk"
 90
        0
280
     0
281
     0
  0
CLASS
  1
ACMCENTERLINESTANDARDISO
  2
AmdtCenterLineStdISO
  3
"Amdt_StdImp|Product Description: AutoCAD Mechanical 2004 DX|Company: Autodesk"
 90
        0
280
     0
281
     0
  0
CLASS
  1
ACIMSTRSYSVAR
  2
AcImStrSysVar
  3
AcMeServices
 90
        0
280
     0
281
     0
  0
CLASS
  1
ACAMGFILTERDAT
  2
AcAmgFilterDat
  3
"AcadM|Product Description: AutoCAD Mechanical 2000|Company: Autodesk"
 90
        0
280
     0
281
     0
  0
CLASS
  1
LAYER_INDEX
  2
AcDbLayerIndex
  3
ObjectDBX Classes
 90
        0
280
     0
281
     0
  0
CLASS
  1
IDBUFFER
  2
AcDbIdBuffer
  3
ObjectDBX Classes
 90
        0
280
     0
281
     0
  0
CLASS
  1
AMDTFORMULAUPDATEDISPATCHER
  2
AmdtFormulaUpdateDispatcher
  3
AcMeServices
 90
        0
280
     0
281
     0
  0
CLASS
  1
ACMDATAENTRYPART
  2
AcmDataEntryPart
  3
"AcmSymBB|Product Description: AutoCAD Mechanical 2004 DX|Company: Autodesk"
 90
        0
280
     0
281
     0
  0
CLASS
  1
ACMPARTREF
  2
AcmPartRef
  3
"AcmSymBB|Product Description: AutoCAD Mechanical 2004 DX|Company: Autodesk"
 90
     1023
280
     0
281
     1
  0
CLASS
  1
ACMDATAENTRY
  2
AcmDataEntry
  3
"AcmSymBB|Product Description: AutoCAD Mechanical 2004 DX|Company: Autodesk"
 90
        0
280
     0
281
     0
  0
CLASS
  1
ACMBOM
  2
AcmBom
  3
"AcmSymBB|Product Description: AutoCAD Mechanical 2004 DX|Company: Autodesk"
 90
        0
280
     0
281
     0
  0
CLASS
  1
ACMBOMROW
  2
AcmBomRow
  3
"AcmSymBB|Product Description: AutoCAD Mechanical 2004 DX|Company: Autodesk"
 90
        0
280
     0
281
     0
  0
CLASS
  1
ACMBALLOON
  2
AcmBalloon
  3
"AcmSymBB|Product Description: AutoCAD Mechanical 2004 DX|Company: Autodesk"
 90
     1023
280
     0
281
     1
  0
CLASS
  1
ACMPARTLIST
  2
AcmPartList
  3
"AcmSymBB|Product Description: AutoCAD Mechanical 2004 DX|Company: Autodesk"
 90
     1023
280
     0
281
     1
  0
CLASS
  1
ACDBLINERES
  2
AcDbLineRes
  3
AcGrefServices
 90
        0
280
     0
281
     0
  0
CLASS
  1
ACRFINSADJ
  2
AcRfInsAdjuster
  3
AcMeServices
 90
        0
280
     0
281
     0
  0
CLASS
  1
STDPART2D
  2
AmgStdPart
  3
"AmgStdPart|Product Description: AutoCAD Mechanical 2000|Company: Autodesk"
 90
    33791
280
     0
281
     1
  0
CLASS
  1
ACDBSTDPARTRES_ARC
  2
AcDbStdPartRes_Arc
  3
"AcDbStdPartRes_Arc|Product Description: AutoCAD Mechanical 2000|Company: Autodesk"
 90
    32768
280
     0
281
     0
  0
CLASS
  1
ACMPICKOBJ
  2
AcmPickEnt
  3
"AcmSymBB|Product Description: AutoCAD Mechanical 2004 DX|Company: Autodesk"
 90
    32768
280
     0
281
     1
  0
CLASS
  1
ACDBSTDPARTRES_LINE
  2
AcDbStdPartRes_Line
  3
"AcDbStdPartRes_Line|Product Description: AutoCAD Mechanical 2000|Company: Autodesk"
 90
    32768
280
     0
281
     0
  0
CLASS
  1
AM_DRAWING_MGR
  2
AcDmDwgMgr
  3
AcMechDwgViewMgmt
 90
        0
280
     0
281
     0
  0
CLASS
  1
AM_DWG_DOCUMENT
  2
AcDmDwgDocument
  3
AcMechDwgViewMgmt
 90
        0
280
     0
281
     0
  0
CLASS
  1
AM_DWG_SHEET
  2
AcDmSheet
  3
AcMechDwgViewMgmt
 90
        0
280
     0
281
     0
  0
CLASS
  1
AM_VIEWDIMPARMAP
  2
AcDmViewDimParMap
  3
AcMechDwgViewMgmt
 90
        0
280
     0
281
     0
  0
CLASS
  1
AM_DWGMGR_NAME
  2
AcDmDwgMgrName
  3
AcMechDwgViewMgmt
 90
        0
280
     0
281
     0
  0
CLASS
  1
AMDTMENUSTATEMGR
  2
AmdtMenuStateMgr
  3
McadcomServices
 90
        0
280
     0
281
     0
  0
CLASS
  1
AMDTMCOMMENUSTATE
  2
AmdtMcomMenuState
  3
McadcomServices
 90
        0
280
     0
281
     0
  0
CLASS
  1
MAPIAMMOUDLE
  2
MApiAmModule
  3
MApiAmServices
 90
        0
280
     0
281
     0
  0
CLASS
  1
AMDTADMENUSTATE
  2
AmdtAdMenuState
  3
DesignerServices
 90
        0
280
     0
281
     0
  0
CLASS
  1
ADAPPL
  2
AcAdAppl
  3
DesignerServices
 90
        0
280
     0
281
     0
  0
CLASS
  1
DEPMGR
  2
AcAdDepMgr
  3
DesignerServices
 90
        0
280
     0
281
     0
  0
CLASS
  1
PARAMMGR
  2
AcAdParamMgr
  3
DesignerServices
 90
        0
280
     0
281
     0
  0
CLASS
  1
PARAMSCOPE
  2
AcAdParamScope
  3
DesignerServices
 90
        0
280
     0
281
     0
  0
CLASS
  1
NAMEDAPPL
  2
AcAdNamedAppl
  3
DesignerServices
 90
        0
280
     0
281
     0
  0
CLASS
  1
AMDTDMMENUSTATE
  2
AmdtDmMenuState
  3
AcMechDwgViewMgmt
 90
        0
280
     0
281
     0
  0
CLASS
  1
AMDTAMMENUSTATE
  2
AmdtAmMenuState
  3
DesignerAssemblies
 90
        0
280
     0
281
     0
  0
CLASS
  1
ACAMPROJECT
  2
AcAmProject
  3
DesignerAssemblies
 90
        0
280
     0
281
     0
  0
CLASS
  1
ACAMGRCOMPDEF
  2
AcAmGrCompDef
  3
DesignerAssemblies
 90
        0
280
     0
281
     0
  0
CLASS
  1
ACCMCONTEXT
  2
AcCmContext
  3
DesignerAssemblies
 90
        0
280
     0
281
     0
  0
CLASS
  1
ACAMCOMPDEF
  2
AcAmCompDef
  3
DesignerAssemblies
 90
        0
280
     0
281
     0
  0
CLASS
  1
ACAMCOMPDEFMGR
  2
AcAmCompDefMgr
  3
DesignerAssemblies
 90
        0
280
     0
281
     0
  0
CLASS
  1
AMCONTEXTMGR
  2
AcAmContextMgr
  3
DesignerAssemblies
 90
        0
280
     0
281
     0
  0
CLASS
  1
ACAMCONTEXTMODELER
  2
AcAmContextModeler
  3
DesignerAssemblies
 90
        0
280
     0
281
     0
  0
CLASS
  1
ACMTHREADLINESTANDARDJIS
  2
AmdtThreadLineStdJIS
  3
"Amdt_StdImp|Product Description: AutoCAD Mechanical 2004 DX|Company: Autodesk"
 90
        0
280
     0
281
     0
  0
CLASS
  1
ACMNOTESTANDARDJIS
  2
AmdtNoteStdJIS
  3
"Amdt_StdImp|Product Description: AutoCAD Mechanical 2004 DX|Company: Autodesk"
 90
        0
280
     0
281
     0
  0
CLASS
  1
AMDTNOTETEMPLATEDB
  2
AmdtNoteTemplateDB
  3
AMDT_STDIMP_MODULE_NAME
 90
        0
280
     0
281
     0
  0
CLASS
  1
ACMTHREADLINESTANDARDISO
  2
AmdtThreadLineStdISO
  3
"Amdt_StdImp|Product Description: AutoCAD Mechanical 2004 DX|Company: Autodesk"
 90
        0
280
     0
281
     0
  0
CLASS
  1
ACMNOTESTANDARDISO
  2
AmdtNoteStdISO
  3
"Amdt_StdImp|Product Description: AutoCAD Mechanical 2004 DX|Company: Autodesk"
 90
        0
280
     0
281
     0
  0
CLASS
  1
CATALOGSTATE
  2
AcAmCatalogState
  3
DesignerAssemblies
 90
        0
280
     0
281
     0
  0
CLASS
  1
ACAMGRCOMPDEFSET
  2
AcAmGrCompDefSet
  3
DesignerAssemblies
 90
        0
280
     0
281
     0
  0
CLASS
  1
AMDTBROWSERDBTAB
  2
AmdtBrowserDbTab
  3
McadcomServices
 90
        0
280
     0
281
     0
  0
CLASS
  1
CBROWSERAPPOBJECT
  2
CBrowserAppObject
  3
McadcomServices
 90
        0
280
     0
281
     0
  0
CLASS
  1
DM_PLACEHOLDER
  2
AcDmSelsetPlaceholder
  3
AcMechDwgViewMgmt
 90
        0
280
     0
281
     0
  0
CLASS
  1
ACMSTANDARDANSI
  2
AcmStandardANSI
  3
"Amdt_StdImp|Product Description: AutoCAD Mechanical 2004 DX|Company: Autodesk"
 90
        0
280
     0
281
     0
  0
CLASS
  1
ACMSURFSTANDARDANSI
  2
AcmSurfTextStdANSI
  3
"Amdt_StdImp|Product Description: AutoCAD Mechanical 2004 DX|Company: Autodesk"
 90
        0
280
     0
281
     0
  0
CLASS
  1
ACMFCFSTANDARDANSI
  2
AcmFCFStdANSI
  3
"Amdt_StdImp|Product Description: AutoCAD Mechanical 2004 DX|Company: Autodesk"
 90
        0
280
     0
281
     0
  0
CLASS
  1
ACMWELDSTANDARDANSI
  2
AcmWeldingStdANSI
  3
"Amdt_StdImp|Product Description: AutoCAD Mechanical 2004 DX|Company: Autodesk"
 90
        0
280
     0
281
     0
  0
CLASS
  1
ACMIDSTANDARDANSI
  2
AcmIdStdANSI
  3
"Amdt_StdImp|Product Description: AutoCAD Mechanical 2004 DX|Company: Autodesk"
 90
        0
280
     0
281
     0
  0
CLASS
  1
ACMDATUMSTANDARDANSI
  2
AcmDatumStdANSI
  3
"Amdt_StdImp|Product Description: AutoCAD Mechanical 2004 DX|Company: Autodesk"
 90
        0
280
     0
281
     0
  0
CLASS
  1
ACMBOMSTANDARDANSI
  2
AcmBOMStdANSI
  3
"Amdt_StdImp|Product Description: AutoCAD Mechanical 2004 DX|Company: Autodesk"
 90
        0
280
     0
281
     0
  0
CLASS
  1
ACMDETAILSTANDARDANSI
  2
AmdtDetailSymStdANSI
  3
"Amdt_StdImp|Product Description: AutoCAD Mechanical 2004 DX|Company: Autodesk"
 90
        0
280
     0
281
     0
  0
CLASS
  1
ACMSECTIONSTANDARDANSI
  2
AmdtSectionSymStdANSI
  3
"Amdt_StdImp|Product Description: AutoCAD Mechanical 2004 DX|Company: Autodesk"
 90
        0
280
     0
281
     0
  0
CLASS
  1
ACMCENTERLINESTANDARDANSI
  2
AmdtCenterLineStdANSI
  3
"Amdt_StdImp|Product Description: AutoCAD Mechanical 2004 DX|Company: Autodesk"
 90
        0
280
     0
281
     0
  0
CLASS
  1
ACMTHREADLINESTANDARDANSI
  2
AmdtThreadLineStdANSI
  3
"Amdt_StdImp|Product Description: AutoCAD Mechanical 2004 DX|Company: Autodesk"
 90
        0
280
     0
281
     0
  0
CLASS
  1
ACMNOTESTANDARDANSI
  2
AmdtNoteStdANSI
  3
"Amdt_StdImp|Product Description: AutoCAD Mechanical 2004 DX|Company: Autodesk"
 90
        0
280
     0
281
     0
  0
CLASS
  1
ACAMGHOLECHARTSTDANSI
  2
AcAmgHoleChartStdANSI
  3
ACMSYMBB_MODULE_NAME
 90
        0
280
     0
281
     0
  0
CLASS
  1
AMDTACMWBLOCKBOMENTITY
  2
AmdtAcmWblockBomEntity
  3
"AcmSymBB|Product Description: AutoCAD Mechanical 2004 DX|Company: Autodesk"
 90
     1023
280
     0
281
     1
  0
CLASS
  1
ACDBCIRCARCRES
  2
AcDbCircArcRes
  3
AcGrefServices
 90
        0
280
     0
281
     0
  0
CLASS
  1
AMDTDETAILSYM
  2
AmdtDetailSym
  3
"AcmSymBB|Product Description: AutoCAD Mechanical 2004 DX|Company: Autodesk"
 90
     1023
280
     0
281
     1
  0
CLASS
  1
AMDTDETAILSYMLABEL
  2
AmdtDetailSymLabel
  3
"AcmSymBB|Product Description: AutoCAD Mechanical 2004 DX|Company: Autodesk"
 90
     1023
280
     0
281
     1
  0
CLASS
  1
AMDTNOTE
  2
AmdtNote
  3
"AcmSymBB|Product Description: AutoCAD Mechanical 2004 DX|Company: Autodesk"
 90
     1023
280
     0
281
     1
  0
CLASS
  1
SORTENTSTABLE
  2
AcDbSortentsTable
  3
ObjectDBX Classes
 90
        0
280
     0
281
     0
  0
ENDSEC
  0
SECTION
  2
TABLES
  0
TABLE
  2
VPORT
  5
8
330
0
100
AcDbSymbolTable
 70
     3
  0
VPORT
  5
39EA
330
8
100
AcDbSymbolTableRecord
100
AcDbViewportTableRecord
  2
*Active
 70
     0
 10
0.0
 20
0.0
 11
1.0
 21
1.0
 12
2182.704438222874
 22
1485.02909514093
 13
0.0
 23
0.0
 14
25.0
 24
25.0
 15
100.0
 25
100.0
 16
0.0
 26
0.0
 36
1.0
 17
0.0
 27
0.0
 37
0.0
 40
2988.702643065624
 41
1.598509052183173
 42
50.0
 43
0.0
 44
0.0
 50
0.0
 51
0.0
 71
    16
 72
   100
 73
     1
 74
     3
 75
     0
 76
     0
 77
     0
 78
     0
281
     0
 65
     1
110
0.0
120
0.0
130
0.0
111
1.0
121
0.0
131
0.0
112
0.0
122
1.0
132
0.0
 79
     0
146
0.0
  0
ENDTAB
  0
TABLE
  2
LTYPE
  5
5
330
0
100
AcDbSymbolTable
 70
    21
  0
LTYPE
  5
14
330
5
100
AcDbSymbolTableRecord
100
AcDbLinetypeTableRecord
  2
ByBlock
 70
     0
  3

 72
    65
 73
     0
 40
0.0
  0
LTYPE
  5
15
330
5
100
AcDbSymbolTableRecord
100
AcDbLinetypeTableRecord
  2
ByLayer
 70
     0
  3

 72
    65
 73
     0
 40
0.0
  0
LTYPE
  5
16
330
5
100
AcDbSymbolTableRecord
100
AcDbLinetypeTableRecord
  2
Continuous
 70
     0
  3
Solid line
 72
    65
 73
     0
 40
0.0
  0
LTYPE
  5
35
330
5
100
AcDbSymbolTableRecord
100
AcDbLinetypeTableRecord
  2
AM_ISO02W050
 70
     0
  3
__ __ __ __ __ __ __ __ __ __ __ __ __ __ __
 72
    65
 73
     2
 40
7.5
 49
6.0
 74
     0
 49
-1.5
 74
     0
  0
LTYPE
  5
36
330
5
100
AcDbSymbolTableRecord
100
AcDbLinetypeTableRecord
  2
AM_ISO08W050
 70
     0
  3
____ . ____ . ____ . ____ . ____ . ____ . ____
 72
    65
 73
     4
 40
18.0
 49
12.0
 74
     0
 49
-1.5
 74
     0
 49
3.0
 74
     0
 49
-1.5
 74
     0
  0
LTYPE
  5
37
330
5
100
AcDbSymbolTableRecord
100
AcDbLinetypeTableRecord
  2
AM_ISO09W050
 70
     0
  3
_____ . . _____ . . _____ . . ____ .. ____
 72
    65
 73
     6
 40
22.5
 49
12.0
 74
     0
 49
-1.5
 74
     0
 49
3.0
 74
     0
 49
-1.5
 74
     0
 49
3.0
 74
     0
 49
-1.5
 74
     0
  0
LTYPE
  5
38
330
5
100
AcDbSymbolTableRecord
100
AcDbLinetypeTableRecord
  2
Amconstr
 70
     0
  3
_______________________
 72
    65
 73
     2
 40
9999.0
 49
9999.0
 74
     0
 49
0.0
 74
     0
  0
LTYPE
  5
39
330
5
100
AcDbSymbolTableRecord
100
AcDbLinetypeTableRecord
  2
AM_ISO08W050x2
 70
     0
  3
__ . __ . __ . __ . __ . __
 72
    65
 73
     4
 40
9.0
 49
6.0
 74
     0
 49
-0.75
 74
     0
 49
1.5
 74
     0
 49
-0.75
 74
     0
  0
LTYPE
  5
3A
330
5
100
AcDbSymbolTableRecord
100
AcDbLinetypeTableRecord
  2
AM_ISO02W050x2
 70
     0
  3
 _ _ _ _ _ _ _ _ _ _ _ _
 72
    65
 73
     2
 40
3.75
 49
3.0
 74
     0
 49
-0.75
 74
     0
  0
LTYPE
  5
3B
330
5
100
AcDbSymbolTableRecord
100
AcDbLinetypeTableRecord
  2
Amzigzag
 70
     0
  3
/\/-/\/-/\/-/\/-/\/-/\/
 72
    65
 73
     2
 40
11.0001
 49
0.0001
 74
     4
 75
   135
340
3C
 46
0.04
 50
0.0
 44
0.0
 45
0.0
 49
-11.0
 74
     0
  0
LTYPE
  5
64
330
5
100
AcDbSymbolTableRecord
100
AcDbLinetypeTableRecord
  2
ACJISTGB
 70
     0
  3
__ . . __ . .
 72
    65
 73
     6
 40
9.0
 49
4.0
 74
     0
 49
-1.0
 74
     0
 49
1.0
 74
     0
 49
-1.0
 74
     0
 49
1.0
 74
     0
 49
-1.0
 74
     0
  0
LTYPE
  5
65
330
5
100
AcDbSymbolTableRecord
100
AcDbLinetypeTableRecord
  2
ACJISTGL
 70
     0
  3
_ _ _ _ _
 72
    65
 73
     2
 40
3.0
 49
2.0
 74
     0
 49
-1.0
 74
     0
  0
LTYPE
  5
69
330
5
100
AcDbSymbolTableRecord
100
AcDbLinetypeTableRecord
  2
CENTER
 70
     0
  3
__ . __
 72
    65
 73
     4
 40
7.0
 49
4.0
 74
     0
 49
-1.0
 74
     0
 49
1.0
 74
     0
 49
-1.0
 74
     0
  0
LTYPE
  5
8F
330
5
100
AcDbSymbolTableRecord
100
AcDbLinetypeTableRecord
  2
ACISOWELD
 70
     0
  3
_ _ _ _ _
 72
    65
 73
     2
 40
2.0
 49
2.0
 74
     0
 49
-1.0
 74
     0
  0
LTYPE
  5
92
330
5
100
AcDbSymbolTableRecord
100
AcDbLinetypeTableRecord
  2
ACISOTGB
 70
     0
  3
__ . . __ . .
 72
    65
 73
     6
 40
9.0
 49
4.0
 74
     0
 49
-1.0
 74
     0
 49
1.0
 74
     0
 49
-1.0
 74
     0
 49
1.0
 74
     0
 49
-1.0
 74
     0
  0
LTYPE
  5
93
330
5
100
AcDbSymbolTableRecord
100
AcDbLinetypeTableRecord
  2
ACISOTGL
 70
     0
  3
_ _ _ _ _
 72
    65
 73
     2
 40
3.0
 49
2.0
 74
     0
 49
-1.0
 74
     0
  0
LTYPE
  5
309
330
5
100
AcDbSymbolTableRecord
100
AcDbLinetypeTableRecord
  2
HIDDEN
 70
     0
  3
_ _ _ _ _ _ _ _ _ _ _ _ _ _ _ _ _ _ _ _ _ _ _
 72
    65
 73
     2
 40
1.5
 49
1.0
 74
     0
 49
-0.5
 74
     0
  0
LTYPE
  5
30F
330
5
100
AcDbSymbolTableRecord
100
AcDbLinetypeTableRecord
  2
GEN7A
 70
     0
  3
__ . __ . __
 72
    65
 73
     4
 40
6.875
 49
5.0
 74
     0
 49
-0.625
 74
     0
 49
0.625
 74
     0
 49
-0.625
 74
     0
  0
LTYPE
  5
9B5
330
5
100
AcDbSymbolTableRecord
100
AcDbLinetypeTableRecord
  2
PHANTOM2
 70
     0
  3
Phantom (.5x) ___ _ _ ___ _ _ ___ _ _ ___ _ _
 72
    65
 73
     6
 40
31.75
 49
15.875
 74
     0
 49
-3.174999999999999
 74
     0
 49
3.174999999999999
 74
     0
 49
-3.174999999999999
 74
     0
 49
3.174999999999999
 74
     0
 49
-3.174999999999999
 74
     0
  0
LTYPE
  5
A91
330
5
100
AcDbSymbolTableRecord
100
AcDbLinetypeTableRecord
  2
ACANSTGB
 70
     0
  3
__ . . __ . .
 72
    65
 73
     6
 40
0.35433070866
 49
0.15748031496
 74
     0
 49
-0.03937007874
 74
     0
 49
0.03937007874
 74
     0
 49
-0.03937007874
 74
     0
 49
0.03937007874
 74
     0
 49
-0.03937007874
 74
     0
  0
LTYPE
  5
A92
330
5
100
AcDbSymbolTableRecord
100
AcDbLinetypeTableRecord
  2
ACANSTGL
 70
     0
  3
_ _ _ _ _
 72
    65
 73
     2
 40
0.11811023622
 49
0.07874015748
 74
     0
 49
-0.03937007874
 74
     0
  0
LTYPE
  5
1F68
330
5
100
AcDbSymbolTableRecord
100
AcDbLinetypeTableRecord
  2
GEN7
 70
     0
  3
____ . ____ . ____ . ____ . ____ . ____ . ____
 72
    65
 73
     4
 40
13.75
 49
10.0
 74
     0
 49
-1.25
 74
     0
 49
1.25
 74
     0
 49
-1.25
 74
     0
  0
LTYPE
  5
1F69
330
5
100
AcDbSymbolTableRecord
100
AcDbLinetypeTableRecord
  2
GEN3A
 70
     0
  3
 - - - - -
 72
    65
 73
     2
 40
3.125
 49
2.5
 74
     0
 49
-0.625
 74
     0
  0
ENDTAB
  0
TABLE
  2
LAYER
  5
2
102
{ACAD_XDICTIONARY
360
1050
102
}
330
0
100
AcDbSymbolTable
 70
    23
  0
LAYER
  5
10
330
2
100
AcDbSymbolTableRecord
100
AcDbLayerTableRecord
  2
0
 70
     0
 62
     7
  6
Continuous
370
    -3
390
F
  0
LAYER
  5
F5
330
2
100
AcDbSymbolTableRecord
100
AcDbLayerTableRecord
  2
RAHM2
 70
     0
 62
     1
  6
Continuous
370
    -3
390
F
  0
LAYER
  5
1EF
330
2
100
AcDbSymbolTableRecord
100
AcDbLayerTableRecord
  2
AM_BOR
 70
     0
 62
     7
  6
Continuous
370
    50
390
F
  0
LAYER
  5
310
330
2
100
AcDbSymbolTableRecord
100
AcDbLayerTableRecord
  2
RAHM3
 70
     0
 62
     2
  6
Continuous
370
    -3
390
F
  0
LAYER
  5
313
330
2
100
AcDbSymbolTableRecord
100
AcDbLayerTableRecord
  2
DEFPOINTS
 70
     0
 62
     7
  6
Continuous
290
     0
370
    -3
390
F
  0
LAYER
  5
316
330
2
100
AcDbSymbolTableRecord
100
AcDbLayerTableRecord
  2
7A
 70
     0
 62
     4
  6
GEN7A
370
    -3
390
F
  0
LAYER
  5
D60
330
2
100
AcDbSymbolTableRecord
100
AcDbLayerTableRecord
  2
AM_5
 70
     0
 62
     3
  6
Continuous
370
    25
390
F
  0
LAYER
  5
1045
330
2
100
AcDbSymbolTableRecord
100
AcDbLayerTableRecord
  2
6
 70
     0
 62
     2
  6
Continuous
370
    -3
390
F
  0
LAYER
  5
104A
330
2
100
AcDbSymbolTableRecord
100
AcDbLayerTableRecord
  2
TEXT
 70
     0
 62
     7
  6
Continuous
370
    -3
390
F
  0
LAYER
  5
104B
330
2
100
AcDbSymbolTableRecord
100
AcDbLayerTableRecord
  2
AM_12
 70
     0
 62
     7
  6
Continuous
290
     0
370
    50
390
F
  0
LAYER
  5
104C
330
2
100
AcDbSymbolTableRecord
100
AcDbLayerTableRecord
  2
AM_PAREF
 70
     0
 62
     4
  6
Continuous
290
     0
370
    25
390
F
  0
LAYER
  5
1F6C
330
2
100
AcDbSymbolTableRecord
100
AcDbLayerTableRecord
  2
5
 70
     0
 62
     3
  6
Continuous
370
    -3
390
F
  0
LAYER
  5
1F6D
330
2
100
AcDbSymbolTableRecord
100
AcDbLayerTableRecord
  2
7
 70
     0
 62
     4
  6
GEN7
370
    -3
390
F
  0
LAYER
  5
1F6E
330
2
100
AcDbSymbolTableRecord
100
AcDbLayerTableRecord
  2
3A
 70
     0
 62
     6
  6
GEN3A
370
    -3
390
F
  0
LAYER
  5
2841
330
2
100
AcDbSymbolTableRecord
100
AcDbLayerTableRecord
  2
AM_CL
 70
     0
 62
     1
  6
Amconstr
370
    25
390
F
  0
LAYER
  5
294F
330
2
100
AcDbSymbolTableRecord
100
AcDbLayerTableRecord
  2
AM_0
 70
     0
 62
     7
  6
Continuous
370
    50
390
F
  0
LAYER
  5
2F04
330
2
100
AcDbSymbolTableRecord
100
AcDbLayerTableRecord
  2
AM_1
 70
     0
 62
    14
  6
Continuous
370
    50
390
F
  0
LAYER
  5
2F05
330
2
100
AcDbSymbolTableRecord
100
AcDbLayerTableRecord
  2
AM_7
 70
     0
 62
     4
  6
AM_ISO08W050
370
    25
390
F
  0
LAYER
  5
2F06
330
2
100
AcDbSymbolTableRecord
100
AcDbLayerTableRecord
  2
AM_4
 70
     0
 62
     3
  6
Continuous
370
    25
390
F
  0
LAYER
  5
2F07
330
2
100
AcDbSymbolTableRecord
100
AcDbLayerTableRecord
  2
AM_3
 70
     0
 62
     6
  6
AM_ISO02W050
370
    25
390
F
  0
LAYER
  5
2F08
330
2
100
AcDbSymbolTableRecord
100
AcDbLayerTableRecord
  2
SUNPO
 70
     0
 62
   144
  6
Continuous
370
    -3
390
F
  0
LAYER
  5
3881
330
2
100
AcDbSymbolTableRecord
100
AcDbLayerTableRecord
  2
AM_9
 70
     0
 62
  -253
  6
Continuous
370
     0
390
F
  0
LAYER
  5
3974
330
2
100
AcDbSymbolTableRecord
100
AcDbLayerTableRecord
  2
建築-AM_6
 70
     0
 62
     2
  6
Continuous
370
    35
390
F
  0
ENDTAB
  0
TABLE
  2
STYLE
  5
3
330
0
100
AcDbSymbolTable
 70
     9
  0
STYLE
  5
11
330
3
100
AcDbSymbolTableRecord
100
AcDbTextStyleTableRecord
  2
STANDARD
 70
     0
 40
0.0
 41
1.0
 50
0.0
 71
     0
 42
2.5
  3
ISOCP.SHX
  4
EXTFONT.SHX
  0
STYLE
  5
3C
330
3
100
AcDbSymbolTableRecord
100
AcDbTextStyleTableRecord
  2

 70
     1
 40
0.0
 41
1.0
 50
0.0
 71
     0
 42
2.5
  3
ltypeshp.shx
  4

  0
STYLE
  5
5D
330
3
100
AcDbSymbolTableRecord
100
AcDbTextStyleTableRecord
  2
ACJISTS
 70
     0
 40
1.0
 41
1.0
 50
0.0
 71
     0
 42
2.5
  3
isocp.shx
  4
extfont.shx
  0
STYLE
  5
60
330
3
100
AcDbSymbolTableRecord
100
AcDbTextStyleTableRecord
  2
ACJISGDT
 70
     0
 40
0.0
 41
1.0
 50
0.0
 71
     0
 42
2.5
  3
amgdt.shx
  4

  0
STYLE
  5
89
330
3
100
AcDbSymbolTableRecord
100
AcDbTextStyleTableRecord
  2
ACISOTS
 70
     0
 40
1.0
 41
1.0
 50
0.0
 71
     0
 42
2.5
  3
isocp.shx
  4
extfont.shx
  0
STYLE
  5
8D
330
3
100
AcDbSymbolTableRecord
100
AcDbTextStyleTableRecord
  2
ACISOGDT
 70
     0
 40
0.0
 41
1.0
 50
0.0
 71
     0
 42
2.5
  3
amgdt.shx
  4

  0
STYLE
  5
A93
330
3
100
AcDbSymbolTableRecord
100
AcDbTextStyleTableRecord
  2
ACANSTS
 70
     0
 40
1.0
 41
1.0
 50
0.0
 71
     0
 42
40.0
  3
romans.shx
  4
extfont.shx
  0
STYLE
  5
A94
330
3
100
AcDbSymbolTableRecord
100
AcDbTextStyleTableRecord
  2
ACANSGDT
 70
     0
 40
0.0
 41
1.0
 50
0.0
 71
     0
 42
40.0
  3
amgdtans.shx
  4

  0
STYLE
  5
2F09
330
3
100
AcDbSymbolTableRecord
100
AcDbTextStyleTableRecord
  2
MSG
 70
     0
 40
0.0
 41
1.0
 50
0.0
 71
     0
 42
2.5
  3
MS Gothic.ttf
  4

1001
ACAD
1000
MS Gothic
1071
    32817
  0
ENDTAB
  0
TABLE
  2
VIEW
  5
6
330
0
100
AcDbSymbolTable
 70
     6
  0
VIEW
  5
3C5
330
6
100
AcDbSymbolTableRecord
100
AcDbViewTableRecord
  2
AM_VIEW1
 70
     0
 40
1485.0
 10
1052.865434577459
 20
2728.308812313826
 41
2172.939297124601
 11
0.0
 21
0.0
 31
1.0
 12
0.0
 22
0.0
 32
0.0
 42
50.0
 43
0.0
 44
0.0
 50
0.0
 71
    16
281
     0
 72
     0
  0
VIEW
  5
3C6
330
6
100
AcDbSymbolTableRecord
100
AcDbViewTableRecord
  2
AM_VIEW2
 70
     0
 40
1485.0
 10
3079.926137452858
 20
2728.308812313826
 41
2172.939297124601
 11
0.0
 21
0.0
 31
1.0
 12
0.0
 22
0.0
 32
0.0
 42
50.0
 43
0.0
 44
0.0
 50
0.0
 71
    16
281
     0
 72
     0
  0
VIEW
  5
3C7
330
6
100
AcDbSymbolTableRecord
100
AcDbViewTableRecord
  2
AM_VIEW3
 70
     0
 40
1485.0
 10
1052.865434577459
 20
1243.308812313826
 41
2172.939297124601
 11
0.0
 21
0.0
 31
1.0
 12
0.0
 22
0.0
 32
0.0
 42
50.0
 43
0.0
 44
0.0
 50
0.0
 71
    16
281
     0
 72
     0
  0
VIEW
  5
3C8
330
6
100
AcDbSymbolTableRecord
100
AcDbViewTableRecord
  2
AM_VIEW4
 70
     0
 40
1485.0
 10
3079.926137452858
 20
1243.308812313826
 41
2172.939297124601
 11
0.0
 21
0.0
 31
1.0
 12
0.0
 22
0.0
 32
0.0
 42
50.0
 43
0.0
 44
0.0
 50
0.0
 71
    16
281
     0
 72
     0
  0
VIEW
  5
3C9
330
6
100
AcDbSymbolTableRecord
100
AcDbViewTableRecord
  2
AM_VIEW5
 70
     0
 40
1485.0
 10
2066.395786015159
 20
1985.808812313826
 41
2172.939297124601
 11
0.0
 21
0.0
 31
1.0
 12
0.0
 22
0.0
 32
0.0
 42
50.0
 43
0.0
 44
0.0
 50
0.0
 71
    16
281
     0
 72
     0
  0
VIEW
  5
3CA
330
6
100
AcDbSymbolTableRecord
100
AcDbViewTableRecord
  2
AM_VIEW6
 70
     0
 40
2969.9703
 10
2066.395786015159
 20
1985.808812313826
 41
4345.835135463257
 11
0.0
 21
0.0
 31
1.0
 12
0.0
 22
0.0
 32
0.0
 42
50.0
 43
0.0
 44
0.0
 50
0.0
 71
    16
281
     0
 72
     0
  0
ENDTAB
  0
TABLE
  2
UCS
  5
7
330
0
100
AcDbSymbolTable
 70
     0
  0
ENDTAB
  0
TABLE
  2
APPID
  5
9
330
0
100
AcDbSymbolTable
 70
    57
  0
APPID
  5
12
330
9
100
AcDbSymbolTableRecord
100
AcDbRegAppTableRecord
  2
ACAD
 70
     0
  0
APPID
  5
2D
330
9
100
AcDbSymbolTableRecord
100
AcDbRegAppTableRecord
  2
MCAD_NO_VIS
 70
     0
  0
APPID
  5
2E
330
9
100
AcDbSymbolTableRecord
100
AcDbRegAppTableRecord
  2
ACAD_TEMP_GRAPHIC
 70
     0
  0
APPID
  5
2F
330
9
100
AcDbSymbolTableRecord
100
AcDbRegAppTableRecord
  2
ACATTRIBSERVICES
 70
     0
  0
APPID
  5
1F0
330
9
100
AcDbSymbolTableRecord
100
AcDbRegAppTableRecord
  2
GENIUS_GENBLLY_14
 70
     0
  0
APPID
  5
321
330
9
100
AcDbSymbolTableRecord
100
AcDbRegAppTableRecord
  2
GENIUS_GENCFG_13
 70
     0
  0
APPID
  5
322
330
9
100
AcDbSymbolTableRecord
100
AcDbRegAppTableRecord
  2
GENIUS_GENOBJ_13
 70
     0
  0
APPID
  5
323
330
9
100
AcDbSymbolTableRecord
100
AcDbRegAppTableRecord
  2
GENIUS_GENODEF_13
 70
     0
  0
APPID
  5
324
330
9
100
AcDbSymbolTableRecord
100
AcDbRegAppTableRecord
  2
GENIUS_GENOENT_13
 70
     0
  0
APPID
  5
325
330
9
100
AcDbSymbolTableRecord
100
AcDbRegAppTableRecord
  2
GENIUS_GENOLIS_13
 70
     0
  0
APPID
  5
326
330
9
100
AcDbSymbolTableRecord
100
AcDbRegAppTableRecord
  2
GENIUS_GENOREF_13
 70
     0
  0
APPID
  5
327
330
9
100
AcDbSymbolTableRecord
100
AcDbRegAppTableRecord
  2
GENIUS_GENOBJ-N-TIT_13
 70
     0
  0
APPID
  5
328
330
9
100
AcDbSymbolTableRecord
100
AcDbRegAppTableRecord
  2
GENIUS_GENTITLE_13
 70
     0
  0
APPID
  5
329
330
9
100
AcDbSymbolTableRecord
100
AcDbRegAppTableRecord
  2
GENIUS_GENZVEED_13
 70
     0
  0
APPID
  5
32A
330
9
100
AcDbSymbolTableRecord
100
AcDbRegAppTableRecord
  2
GENIUS_GENOBJ-N-SDF_13
 70
     0
  0
APPID
  5
32B
330
9
100
AcDbSymbolTableRecord
100
AcDbRegAppTableRecord
  2
GENIUS_GENSCREG_13
 70
     0
  0
APPID
  5
32C
330
9
100
AcDbSymbolTableRecord
100
AcDbRegAppTableRecord
  2
GENIUS_GENCFG0_13
 70
     0
  0
APPID
  5
32D
330
9
100
AcDbSymbolTableRecord
100
AcDbRegAppTableRecord
  2
GENIUS_GENCFG1_13
 70
     0
  0
APPID
  5
32E
330
9
100
AcDbSymbolTableRecord
100
AcDbRegAppTableRecord
  2
GENIUS_GENCFG2_13
 70
     0
  0
APPID
  5
32F
330
9
100
AcDbSymbolTableRecord
100
AcDbRegAppTableRecord
  2
GENIUS_GENCFG3_13
 70
     0
  0
APPID
  5
330
330
9
100
AcDbSymbolTableRecord
100
AcDbRegAppTableRecord
  2
GENIUS_GENCFG4_13
 70
     0
  0
APPID
  5
331
330
9
100
AcDbSymbolTableRecord
100
AcDbRegAppTableRecord
  2
GENIUS_GEVCFG0_13
 70
     0
  0
APPID
  5
332
330
9
100
AcDbSymbolTableRecord
100
AcDbRegAppTableRecord
  2
GENIUS_GENOBJ-N-CRS_13
 70
     0
  0
APPID
  5
333
330
9
100
AcDbSymbolTableRecord
100
AcDbRegAppTableRecord
  2
GENIUS_GENOBJ-N-CEN_13
 70
     0
  0
APPID
  5
334
330
9
100
AcDbSymbolTableRecord
100
AcDbRegAppTableRecord
  2
GENIUS_GEFCFG0_13
 70
     0
  0
APPID
  5
3BA
330
9
100
AcDbSymbolTableRecord
100
AcDbRegAppTableRecord
  2
GENIUS_GENTRA_14
 70
     0
  0
APPID
  5
3CB
330
9
100
AcDbSymbolTableRecord
100
AcDbRegAppTableRecord
  2
GENIUS_GENSCREG_15
 70
     0
  0
APPID
  5
436
330
9
100
AcDbSymbolTableRecord
100
AcDbRegAppTableRecord
  2
GEVID984623613
 70
     0
  0
APPID
  5
437
330
9
100
AcDbSymbolTableRecord
100
AcDbRegAppTableRecord
  2
GEVDC
 70
     0
  0
APPID
  5
438
330
9
100
AcDbSymbolTableRecord
100
AcDbRegAppTableRecord
  2
GEVCON
 70
     0
  0
APPID
  5
43C
330
9
100
AcDbSymbolTableRecord
100
AcDbRegAppTableRecord
  2
GENIUS_GENBH_13
 70
     0
  0
APPID
  5
43E
330
9
100
AcDbSymbolTableRecord
100
AcDbRegAppTableRecord
  2
GENIUS_GENOBJ-NBEHI-BHF_13
 70
     0
  0
APPID
  5
440
330
9
100
AcDbSymbolTableRecord
100
AcDbRegAppTableRecord
  2
GENIUS_GENOBJ-NBEHI-BHB_13
 70
     0
  0
APPID
  5
455
330
9
100
AcDbSymbolTableRecord
100
AcDbRegAppTableRecord
  2
GENIUS_GENOBJ-F-SCPASSM_13
 70
     0
  0
APPID
  5
47B
330
9
100
AcDbSymbolTableRecord
100
AcDbRegAppTableRecord
  2
GEVID984623614
 70
     0
  0
APPID
  5
48B
330
9
100
AcDbSymbolTableRecord
100
AcDbRegAppTableRecord
  2
GEVID984623615
 70
     0
  0
APPID
  5
54A
330
9
100
AcDbSymbolTableRecord
100
AcDbRegAppTableRecord
  2
GENIUS_GENOBJ-N-REV_13
 70
     0
  0
APPID
  5
54B
330
9
100
AcDbSymbolTableRecord
100
AcDbRegAppTableRecord
  2
GENIUS_GENOBJ-N-RSSYM_13
 70
     0
  0
APPID
  5
54C
330
9
100
AcDbSymbolTableRecord
100
AcDbRegAppTableRecord
  2
GENIUS_GENSYMENT_13
 70
     0
  0
APPID
  5
54D
330
9
100
AcDbSymbolTableRecord
100
AcDbRegAppTableRecord
  2
GENIUS_GENSCSYM_13
 70
     0
  0
APPID
  5
943
330
9
100
AcDbSymbolTableRecord
100
AcDbRegAppTableRecord
  2
DCO15
 70
     0
  0
APPID
  5
9B7
330
9
100
AcDbSymbolTableRecord
100
AcDbRegAppTableRecord
  2
AD_DRAW
 70
     0
  0
APPID
  5
9D5
330
9
100
AcDbSymbolTableRecord
100
AcDbRegAppTableRecord
  2
DESIGNERASSEMBLIES
 70
     0
  0
APPID
  5
9E5
330
9
100
AcDbSymbolTableRecord
100
AcDbRegAppTableRecord
  2
ACADM_DIM_EDIT
 70
     0
  0
APPID
  5
9E6
330
9
100
AcDbSymbolTableRecord
100
AcDbRegAppTableRecord
  2
AMDT_DM_ADJ
 70
     0
  0
APPID
  5
DC3
330
9
100
AcDbSymbolTableRecord
100
AcDbRegAppTableRecord
  2
GENIUS_GENDIMSH_14
 70
     0
  0
APPID
  5
104E
330
9
100
AcDbSymbolTableRecord
100
AcDbRegAppTableRecord
  2
GENIUS_GENOBJ-N-REC_13
 70
     0
  0
APPID
  5
104F
330
9
100
AcDbSymbolTableRecord
100
AcDbRegAppTableRecord
  2
GENIUS_GENOBJ-N-FIL_13
 70
     0
  0
APPID
  5
1F77
330
9
100
AcDbSymbolTableRecord
100
AcDbRegAppTableRecord
  2
GENIUS_GENDTOL_13
 70
     0
  0
APPID
  5
1F78
330
9
100
AcDbSymbolTableRecord
100
AcDbRegAppTableRecord
  2
GENIUS_GENDREL_13
 70
     0
  0
APPID
  5
27FE
330
9
100
AcDbSymbolTableRecord
100
AcDbRegAppTableRecord
  2
GENIUS_GENREC_14
 70
     0
  0
APPID
  5
2809
330
9
100
AcDbSymbolTableRecord
100
AcDbRegAppTableRecord
  2
GENIUS_GENOBJ-N-HTC_13
 70
     0
  0
APPID
  5
280A
330
9
100
AcDbSymbolTableRecord
100
AcDbRegAppTableRecord
  2
GENIUS_GENHATCH_13
 70
     0
  0
APPID
  5
2F0B
330
9
100
AcDbSymbolTableRecord
100
AcDbRegAppTableRecord
  2
GENIUS_GENOBJ-N-ZOO_13
 70
     0
  0
APPID
  5
2F0C
330
9
100
AcDbSymbolTableRecord
100
AcDbRegAppTableRecord
  2
GENIUS_GENZOO_17
 70
     0
  0
APPID
  5
3975
330
9
100
AcDbSymbolTableRecord
100
AcDbRegAppTableRecord
  2
GENIUS_AMGTXT_16
 70
     0
  0
APPID
  5
39A2
330
9
100
AcDbSymbolTableRecord
100
AcDbRegAppTableRecord
  2
GENIUS_GENZOO_16
 70
     0
  0
ENDTAB
  0
TABLE
  2
DIMSTYLE
  5
A
330
0
100
AcDbSymbolTable
 70
    23
100
AcDbDimStyleTable
 71
     1
340
76
  0
DIMSTYLE
105
76
102
{ACAD_REACTORS
330
2A78
330
2A4D
330
2A01
330
29DB
330
29AE
330
2166
330
2165
330
2164
330
2163
330
2162
330
2161
330
2160
330
215F
330
215E
330
215D
330
215C
330
215B
330
215A
102
}
330
A
100
AcDbSymbolTableRecord
100
AcDbDimStyleTableRecord
  2
IGS
 70
     0
  4
"
 40
10.0
 41
2.5
 42
1.0
 43
10.0
 44
1.0
 47
0.1
 48
0.1
 73
     0
 74
     0
 77
     3
 78
     8
 79
     2
140
4.5
141
0.0
143
0.0393701
146
0.71
147
1.5
172
     1
176
   256
177
   256
178
     2
271
     2
272
     2
283
     0
284
     8
340
11
341
77
342
77
371
    -1
372
    -1
  0
DIMSTYLE
105
7D
330
A
100
AcDbSymbolTableRecord
100
AcDbDimStyleTableRecord
  2
IGS$3
 70
     0
  4
"
 40
10.0
 41
2.5
 42
1.0
 43
10.0
 44
1.0
 47
0.1
 48
0.1
 73
     0
 77
     3
 78
     8
 79
     2
140
4.5
141
0.0
143
0.0393701
146
0.71
147
1.5
176
   256
177
   256
178
     2
271
     2
272
     2
283
     0
284
     8
288
     1
289
     0
340
11
341
77
342
77
371
    -1
372
    -1
  0
DIMSTYLE
105
7E
330
A
100
AcDbSymbolTableRecord
100
AcDbDimStyleTableRecord
  2
IGS$4
 70
     0
  4
"
 40
10.0
 41
2.5
 42
1.0
 43
10.0
 44
1.0
 47
0.1
 48
0.1
 73
     0
 77
     3
 78
     8
 79
     2
140
4.5
141
0.0
143
0.0393701
146
0.71
147
1.5
176
   256
177
   256
178
     2
271
     2
272
     2
283
     0
284
     8
288
     1
289
     0
340
11
341
77
342
77
371
    -1
372
    -1
  0
DIMSTYLE
105
7F
330
A
100
AcDbSymbolTableRecord
100
AcDbDimStyleTableRecord
  2
IGS$6
 70
     0
  4
"
 40
10.0
 41
2.5
 42
1.0
 43
10.0
 44
1.0
 47
0.1
 48
0.1
 73
     0
 74
     0
 78
     8
 79
     2
140
4.5
141
0.0
143
0.0393701
146
0.71
147
1.5
172
     1
176
   256
177
   256
178
     2
271
     2
272
     2
283
     0
284
     8
340
11
341
77
342
77
371
    -1
372
    -1
  0
DIMSTYLE
105
80
330
A
100
AcDbSymbolTableRecord
100
AcDbDimStyleTableRecord
  2
IGS$7
 70
     0
  4
"
 40
10.0
 41
2.5
 42
1.0
 43
10.0
 44
1.0
 47
0.1
 48
0.1
 73
     0
 74
     0
 77
     3
 78
     8
 79
     2
140
5.0
141
0.0
143
0.0393701
146
0.71
147
1.5
172
     1
176
   256
177
   256
178
     2
271
     2
272
     2
283
     0
284
     8
340
11
341
77
342
77
371
    -1
372
    -1
  0
DIMSTYLE
105
81
330
A
100
AcDbSymbolTableRecord
100
AcDbDimStyleTableRecord
  2
IGS$SF
 70
     0
  4
"
 40
10.0
 41
2.5
 42
1.0
 43
10.0
 44
1.0
 47
0.1
 48
0.1
 73
     0
 74
     0
 75
     1
 76
     1
 77
     3
 78
     8
 79
     2
140
3.5
141
0.0
143
0.0393701
146
0.71
147
1.5
172
     1
176
   256
177
   256
178
     2
271
     2
272
     3
274
     4
283
     0
284
     8
340
11
341
77
342
77
343
77
344
77
371
    -1
372
    -1
  0
DIMSTYLE
105
82
330
A
100
AcDbSymbolTableRecord
100
AcDbDimStyleTableRecord
  2
IGS$SH
 70
     0
  4
"
 40
10.0
 41
2.5
 42
1.0
 43
10.0
 44
1.0
 47
0.1
 48
0.1
 73
     0
 74
     0
 75
     1
 76
     1
 77
     3
 78
     8
 79
     2
140
3.5
141
0.0
143
0.0393701
144
2.0
146
0.71
147
1.5
172
     1
173
     1
176
   256
177
   256
178
     2
271
     2
272
     3
274
     4
283
     0
284
     8
340
11
341
77
342
77
343
83
344
77
371
    -1
372
    -1
  0
DIMSTYLE
105
9A
330
A
100
AcDbSymbolTableRecord
100
AcDbDimStyleTableRecord
  2
AM_ISO
 70
     0
  4
"
 40
10.0
 41
2.5
 42
1.0
 43
10.0
 44
1.0
 47
0.1
 48
0.1
 73
     0
 74
     0
 77
     1
 78
     8
 79
     2
140
3.5
141
0.0
143
0.0393701
146
0.71
147
1.5
172
     1
176
   256
177
   256
178
     2
271
     2
272
     3
274
     4
283
     0
284
     8
340
11
371
    -1
372
    -1
  0
DIMSTYLE
105
9B
330
A
100
AcDbSymbolTableRecord
100
AcDbDimStyleTableRecord
  2
AM_ISO$3
 70
     0
  4
"
 40
10.0
 41
2.5
 42
1.0
 43
10.0
 44
1.0
 47
0.1
 48
0.1
 73
     0
 77
     1
 78
     8
 79
     2
140
3.5
141
0.0
143
0.0393701
146
0.71
147
1.5
176
   256
177
   256
178
     2
271
     2
272
     3
274
     4
283
     0
284
     8
288
     1
289
     0
340
11
371
    -1
372
    -1
  0
DIMSTYLE
105
9C
330
A
100
AcDbSymbolTableRecord
100
AcDbDimStyleTableRecord
  2
AM_ISO$4
 70
     0
  4
"
 40
10.0
 41
2.5
 42
1.0
 43
10.0
 44
1.0
 47
0.1
 48
0.1
 73
     0
 77
     1
 78
     8
 79
     2
140
3.5
141
0.0
143
0.0393701
146
0.71
147
1.5
176
   256
177
   256
178
     2
271
     2
272
     3
274
     4
283
     0
284
     8
288
     1
289
     0
340
11
371
    -1
372
    -1
  0
DIMSTYLE
105
9D
330
A
100
AcDbSymbolTableRecord
100
AcDbDimStyleTableRecord
  2
AM_ISO$6
 70
     0
  4
"
 40
10.0
 41
2.5
 42
1.0
 43
10.0
 44
1.0
 47
0.1
 48
0.1
 73
     0
 74
     0
 78
     8
 79
     2
140
3.5
141
0.0
143
0.0393701
146
0.71
147
1.5
172
     1
176
   256
177
   256
178
     2
271
     2
272
     3
274
     4
283
     0
284
     8
340
11
371
    -1
372
    -1
  0
DIMSTYLE
105
9E
330
A
100
AcDbSymbolTableRecord
100
AcDbDimStyleTableRecord
  2
AM_ISO$7
 70
     0
  4
"
 40
10.0
 41
2.5
 42
1.0
 43
10.0
 44
1.0
 47
0.1
 48
0.1
 73
     0
 74
     0
 77
     1
 78
     8
 79
     2
140
5.0
141
0.0
143
0.0393701
146
0.71
147
1.5
172
     1
176
   256
177
   256
178
     2
271
     2
272
     3
274
     4
283
     0
284
     8
340
11
371
    -1
372
    -1
  0
DIMSTYLE
105
9F
330
A
100
AcDbSymbolTableRecord
100
AcDbDimStyleTableRecord
  2
AM_ISO$SF
 70
     0
  4
"
 40
10.0
 41
2.5
 42
1.0
 43
10.0
 44
1.0
 47
0.1
 48
0.1
 73
     0
 74
     0
 75
     1
 76
     1
 77
     1
 78
     8
 79
     2
140
3.5
141
0.0
143
0.0393701
146
0.71
147
1.5
172
     1
176
   256
177
   256
178
     2
271
     2
272
     3
274
     4
283
     0
284
     8
340
11
371
    -1
372
    -1
  0
DIMSTYLE
105
A0
330
A
100
AcDbSymbolTableRecord
100
AcDbDimStyleTableRecord
  2
AM_ISO$SH
 70
     0
  4
"
 40
10.0
 41
2.5
 42
1.0
 43
10.0
 44
1.0
 47
0.1
 48
0.1
 73
     0
 74
     0
 75
     1
 76
     1
 77
     1
 78
     8
 79
     2
140
3.5
141
0.0
143
0.0393701
144
2.0
146
0.71
147
1.5
172
     1
173
     1
176
   256
177
   256
178
     2
271
     2
272
     3
274
     4
283
     0
284
     8
340
11
343
83
371
    -1
372
    -1
  0
DIMSTYLE
105
317
330
A
100
AcDbSymbolTableRecord
100
AcDbDimStyleTableRecord
  2
STANDARD
 70
     0
340
11
  0
DIMSTYLE
105
A95
330
A
100
AcDbSymbolTableRecord
100
AcDbDimStyleTableRecord
  2
AM_ANSI
 70
     0
  4
mm
 41
0.1
 42
0.05
 43
0.5
 44
0.1
 47
0.1
 48
0.1
 78
     7
 79
     2
140
0.12
141
0.0
146
0.71
147
0.06
176
   256
177
   256
178
     2
274
     4
284
     7
340
11
371
    -1
372
    -1
  0
DIMSTYLE
105
A96
330
A
100
AcDbSymbolTableRecord
100
AcDbDimStyleTableRecord
  2
AM_ANSI$3
 70
     0
  4
mm
 41
0.1
 42
0.05
 43
0.5
 44
0.1
 47
0.1
 48
0.1
 78
     7
 79
     2
140
0.12
141
0.0
146
0.71
147
0.06
176
   256
177
   256
178
     2
274
     4
284
     7
288
     1
289
     0
340
11
371
    -1
372
    -1
  0
DIMSTYLE
105
A97
330
A
100
AcDbSymbolTableRecord
100
AcDbDimStyleTableRecord
  2
AM_ANSI$4
 70
     0
  4
mm
 41
0.1
 42
0.05
 43
0.5
 44
0.1
 47
0.1
 48
0.1
 78
     7
 79
     2
140
0.12
141
0.0
146
0.71
147
0.06
176
   256
177
   256
178
     2
274
     4
284
     7
288
     1
289
     0
340
11
371
    -1
372
    -1
  0
DIMSTYLE
105
A98
330
A
100
AcDbSymbolTableRecord
100
AcDbDimStyleTableRecord
  2
AM_ANSI$7
 70
     0
  4
mm
 41
0.1
 42
0.05
 43
0.5
 44
0.1
 47
0.1
 48
0.1
 78
     7
 79
     2
140
0.24
141
0.0
146
0.71
147
0.06
176
   256
177
   256
178
     2
274
     4
284
     7
340
11
371
    -1
372
    -1
  0
DIMSTYLE
105
A99
330
A
100
AcDbSymbolTableRecord
100
AcDbDimStyleTableRecord
  2
AM_ANSI$SF
 70
     0
  4
mm
 41
0.1
 42
0.05
 43
0.5
 44
0.1
 47
0.1
 48
0.1
 75
     1
 76
     1
 78
     7
 79
     2
140
0.12
141
0.0
146
0.71
147
0.06
176
   256
177
   256
178
     2
274
     4
284
     7
340
11
371
    -1
372
    -1
  0
DIMSTYLE
105
A9A
330
A
100
AcDbSymbolTableRecord
100
AcDbDimStyleTableRecord
  2
AM_ANSI$SH
 70
     0
  4
mm
 41
0.1
 42
0.05
 43
0.5
 44
0.1
 47
0.1
 48
0.1
 75
     1
 76
     1
 78
     7
 79
     2
140
0.12
141
0.0
146
0.71
147
0.06
173
     1
176
   256
177
   256
178
     2
274
     4
284
     7
340
11
343
83
371
    -1
372
    -1
  0
DIMSTYLE
105
1F70
330
A
100
AcDbSymbolTableRecord
100
AcDbDimStyleTableRecord
  2
GEN-ISO
 70
     0
 40
5.0
 41
2.5
 42
1.0
 43
10.0
 44
1.0
 47
0.1
 48
0.1
 73
     0
 74
     0
 77
     1
 78
     8
140
3.5
141
0.0
143
0.0393701
146
0.71
147
1.5
172
     1
176
   256
177
   256
178
   250
271
     2
272
     3
274
     4
283
     0
340
11
  0
DIMSTYLE
105
2F0A
102
{ACAD_REACTORS
330
35EC
330
3717
330
3716
330
3714
330
38B4
330
38B3
330
38B2
330
394B
102
}
330
A
100
AcDbSymbolTableRecord
100
AcDbDimStyleTableRecord
  2
IGS$0
 70
     0
  4
"
 40
10.0
 41
2.5
 42
1.0
 43
10.0
 44
1.0
 47
0.1
 48
0.1
 73
     0
 74
     0
 77
     3
 78
     8
 79
     2
140
3.0
141
0.0
143
0.0393701
146
0.71
147
1.5
172
     1
176
   256
177
   256
178
     2
271
     2
272
     2
283
     0
284
     8
340
11
341
77
342
77
371
    -1
372
    -1
  0
ENDTAB
  0
TABLE
  2
BLOCK_RECORD
  5
1
330
0
100
AcDbSymbolTable
 70
   110
  0
BLOCK_RECORD
  5
1F
102
{ACAD_XDICTIONARY
360
B1
102
}
330
1
100
AcDbSymbolTableRecord
100
AcDbBlockTableRecord
  2
*Model_Space
340
22
  0
BLOCK_RECORD
  5
1B
330
1
100
AcDbSymbolTableRecord
100
AcDbBlockTableRecord
  2
*Paper_Space
340
1E
  0
BLOCK_RECORD
  5
23
330
1
100
AcDbSymbolTableRecord
100
AcDbBlockTableRecord
  2
*Paper_Space0
340
26
  0
BLOCK_RECORD
  5
77
102
{ACAD_XDICTIONARY
360
30AE
102
}
330
1
100
AcDbSymbolTableRecord
100
AcDbBlockTableRecord
  2
_Open30
340
0
310
2800000020000000200000000100080000000000000400000000000000000000000000000000000000000000000080000080000000808000800000008000800080800000C0C0C000C0DCC000F0CAA6000020400000206000002080000020A0000020C0000020E00000400000004020000040400000406000004080000040A0
310
000040C0000040E00000600000006020000060400000606000006080000060A0000060C0000060E00000800000008020000080400000806000008080000080A0000080C0000080E00000A0000000A0200000A0400000A0600000A0800000A0A00000A0C00000A0E00000C0000000C0200000C0400000C0600000C0800000C0
310
A00000C0C00000C0E00000E0000000E0200000E0400000E0600000E0800000E0A00000E0C00000E0E00040000000400020004000400040006000400080004000A0004000C0004000E00040200000402020004020400040206000402080004020A0004020C0004020E000404000004040200040404000404060004040800040
310
40A0004040C0004040E00040600000406020004060400040606000406080004060A0004060C0004060E00040800000408020004080400040806000408080004080A0004080C0004080E00040A0000040A0200040A0400040A0600040A0800040A0A00040A0C00040A0E00040C0000040C0200040C0400040C0600040C08000
310
40C0A00040C0C00040C0E00040E0000040E0200040E0400040E0600040E0800040E0A00040E0C00040E0E00080000000800020008000400080006000800080008000A0008000C0008000E00080200000802020008020400080206000802080008020A0008020C0008020E00080400000804020008040400080406000804080
310
008040A0008040C0008040E00080600000806020008060400080606000806080008060A0008060C0008060E00080800000808020008080400080806000808080008080A0008080C0008080E00080A0000080A0200080A0400080A0600080A0800080A0A00080A0C00080A0E00080C0000080C0200080C0400080C0600080C0
310
800080C0A00080C0C00080C0E00080E0000080E0200080E0400080E0600080E0800080E0A00080E0C00080E0E000C0000000C0002000C0004000C0006000C0008000C000A000C000C000C000E000C0200000C0202000C0204000C0206000C0208000C020A000C020C000C020E000C0400000C0402000C0404000C0406000C0
310
408000C040A000C040C000C040E000C0600000C0602000C0604000C0606000C0608000C060A000C060C000C060E000C0800000C0802000C0804000C0806000C0808000C080A000C080C000C080E000C0A00000C0A02000C0A04000C0A06000C0A08000C0A0A000C0A0C000C0A0E000C0C00000C0C02000C0C04000C0C06000
310
C0C08000C0C0A000F0FBFF00A4A0A000808080000000FF0000FF000000FFFF00FF000000FF00FF00FFFF0000FFFFFF0000000000000000000000000000000000000000000000000000000000000000000000000000000000000000000000000000000000000000000000000000000000000000000000000000000000000000
310
00000000000000000000000000000000000000000000000000000000000000000000000000000000000000000000000000000000000000000000000000000000000000000000000000000000000000000000000000000000000000000000000000000000000000000000000000000000000000000000000000000000000000
310
000000000000000000000000000000000000000000000000000000000000000000000000000000000000000000000000000000FFFF0000000000000000000000000000000000000000000000000000000000000000FFFFFFFF0000000000000000000000000000000000000000000000000000000000000000FFFFFFFF0000
310
000000000000000000000000000000000000000000000000000000000000FFFFFF0000000000000000000000000000000000000000000000000000000000000000FFFFFFFF0000000000000000000000000000000000000000000000000000000000000000FFFFFF0000000000000000000000000000000000000000000000
310
000000000000000000FFFFFFFF0000000000000000000000000000000000000000000000000000000000000000FFFFFFFF00000000FFFFFFFFFFFFFFFFFFFFFFFFFFFFFFFFFFFFFFFFFFFFFFFFFFFFFFFFFFFF00000000000000000000000000000000000000000000000000FFFFFFFF000000000000000000000000000000
310
000000000000000000FFFFFFFF000000000000000000000000000000000000000000000000FFFFFFFF000000000000000000000000000000000000000000000000FFFFFFFF000000000000000000000000000000000000000000000000FFFFFFFF000000000000000000000000000000000000000000000000FFFFFFFF0000
310
0000000000000000000000000000000000000000000000FFFFFF0000000000000000000000000000000000000000000000000000000000000000000000000000000000000000000000000000000000000000000000000000000000000000000000000000000000000000000000000000000000000000000000000000000000
310
00000000000000000000000000000000000000000000000000000000000000000000000000000000000000000000000000000000000000000000000000000000000000000000000000000000000000000000000000000000000000000000000000000000000000000000000000000000000000000000000000000000000000
310
0000000000000000000000000000000000000000000000000000000000000000000000000000000000000000000000000000000000000000
102
{BLKREFS
331
2B69
331
2B6A
331
2B72
331
2B73
331
2C15
331
2C16
331
2C1E
331
2C1F
331
2C6D
331
2C6E
331
2C7B
331
2C7C
331
2C83
331
2C84
331
2C8E
331
2C8F
331
2C97
331
2C98
331
2CA0
331
2CA1
331
2CAC
331
2CAD
331
2CB4
331
2CB5
331
2CC0
331
2CC1
331
2CC8
331
2CC9
331
2CD1
331
2CD2
331
2CDA
331
2CDB
331
2D91
331
2D92
331
2D85
331
2D86
331
2D79
331
2D7A
331
2D6D
331
2D6E
331
2D61
331
2D62
331
2D55
331
2D56
331
2D47
331
2D48
331
2D3B
331
2D3C
331
2E99
331
2E9A
331
2E8B
331
2E8C
331
2E7F
331
2E80
331
2E68
331
2E69
331
2E5C
331
2E5D
331
2E4E
331
2E4F
331
2E42
331
2E43
331
2E30
331
2E22
331
2E11
331
2E12
331
2E03
331
2E04
331
2DF5
331
2DF6
331
2DE7
331
2DE8
331
2DDB
331
2DDC
331
2DCF
331
2DD0
331
2DC3
331
2DC4
331
2DB7
331
2DB8
331
2DAB
331
2DAC
331
2D9D
331
2D9E
331
2EFD
331
2EFE
331
2EF0
331
2EF1
331
339C
331
339D
331
33A8
331
33A9
331
33B2
331
33B3
331
33BB
331
33BC
331
33C4
331
33C5
331
33CD
331
33CE
331
33D8
331
33D9
331
33E1
331
33E2
331
33EC
331
33ED
331
33F8
331
3405
331
340F
331
3410
331
341A
331
341B
331
3425
331
3426
331
342E
331
342F
331
3437
331
3438
331
3440
331
3441
331
3449
331
344A
331
3452
331
3453
331
345D
331
345E
331
3466
331
3467
331
346F
331
3470
331
3478
331
3479
331
3481
331
3482
331
348A
331
348B
331
3493
331
3494
331
349E
331
349F
331
34A7
331
34A8
331
34B2
331
34B3
331
36D9
331
36DA
331
36E1
331
36E2
331
36F3
331
36F4
331
36FC
331
36FD
331
3895
331
38A2
331
38AC
331
38AD
331
38E4
331
38E5
331
38ED
331
38EE
331
391F
331
3920
331
396D
331
396E
102
}
  0
BLOCK_RECORD
  5
83
330
1
100
AcDbSymbolTableRecord
100
AcDbBlockTableRecord
  2
GENAXEH
340
0
310
2800000020000000200000000100080000000000000400000000000000000000000000000000000000000000000080000080000000808000800000008000800080800000C0C0C000C0DCC000F0CAA6000020400000206000002080000020A0000020C0000020E00000400000004020000040400000406000004080000040A0
310
000040C0000040E00000600000006020000060400000606000006080000060A0000060C0000060E00000800000008020000080400000806000008080000080A0000080C0000080E00000A0000000A0200000A0400000A0600000A0800000A0A00000A0C00000A0E00000C0000000C0200000C0400000C0600000C0800000C0
310
A00000C0C00000C0E00000E0000000E0200000E0400000E0600000E0800000E0A00000E0C00000E0E00040000000400020004000400040006000400080004000A0004000C0004000E00040200000402020004020400040206000402080004020A0004020C0004020E000404000004040200040404000404060004040800040
310
40A0004040C0004040E00040600000406020004060400040606000406080004060A0004060C0004060E00040800000408020004080400040806000408080004080A0004080C0004080E00040A0000040A0200040A0400040A0600040A0800040A0A00040A0C00040A0E00040C0000040C0200040C0400040C0600040C08000
310
40C0A00040C0C00040C0E00040E0000040E0200040E0400040E0600040E0800040E0A00040E0C00040E0E00080000000800020008000400080006000800080008000A0008000C0008000E00080200000802020008020400080206000802080008020A0008020C0008020E00080400000804020008040400080406000804080
310
008040A0008040C0008040E00080600000806020008060400080606000806080008060A0008060C0008060E00080800000808020008080400080806000808080008080A0008080C0008080E00080A0000080A0200080A0400080A0600080A0800080A0A00080A0C00080A0E00080C0000080C0200080C0400080C0600080C0
310
800080C0A00080C0C00080C0E00080E0000080E0200080E0400080E0600080E0800080E0A00080E0C00080E0E000C0000000C0002000C0004000C0006000C0008000C000A000C000C000C000E000C0200000C0202000C0204000C0206000C0208000C020A000C020C000C020E000C0400000C0402000C0404000C0406000C0
310
408000C040A000C040C000C040E000C0600000C0602000C0604000C0606000C0608000C060A000C060C000C060E000C0800000C0802000C0804000C0806000C0808000C080A000C080C000C080E000C0A00000C0A02000C0A04000C0A06000C0A08000C0A0A000C0A0C000C0A0E000C0C00000C0C02000C0C04000C0C06000
310
C0C08000C0C0A000F0FBFF00A4A0A000808080000000FF0000FF000000FFFF00FF000000FF00FF00FFFF0000FFFFFF0000000000000000000000000000000000000000000000000000000000000000000000000000000000000000000000000000000000000000000000000000000000000000000000000000000000000000
310
00000000000000000000000000000000000000000000000000000000000000000000000000000000000000000000000000000000000000000000000000000000000000000000000000000000000000000000000000000000000000000000000000000000000000000000000000000000000000000000000000000000000000
310
00000000000000000000000000000000000000000000000000000000000000000000000000000000000000000000000000000000000000000000000000000000000000000000000000000000000000000000000000000000000000000000000000000000000000000000000000000000000000000000000000000000000000
310
00000000000000000000000000000000000000000000000000000000000000000000000000000000000000000000000000000000000000000000000000000000000000000000000000000000000000000000000000000000000000000000000000000000000000000000000000000000000000000000000000000000000000
310
0000000000000000000000000000000000000000000000000000000000000000000000000000000000000000000000000000000000FFFFFFFFFFFFFFFFFFFFFFFFFFFFFFFFFFFFFFFFFFFFFFFFFFFFFFFFFFFF0000000000000000000000000000000000000000000000000000000000000000000000000000000000000000
310
00000000000000000000000000000000000000000000000000000000000000000000000000000000000000000000000000000000000000000000000000000000000000000000000000000000000000000000000000000000000000000000000000000000000000000000000000000000000000000000000000000000000000
310
00000000000000000000000000000000000000000000000000000000000000000000000000000000000000000000000000000000000000000000000000000000000000000000000000000000000000000000000000000000000000000000000000000000000000000000000000000000000000000000000000000000000000
310
00000000000000000000000000000000000000000000000000000000000000000000000000000000000000000000000000000000000000000000000000000000000000000000000000000000000000000000000000000000000000000000000000000000000000000000000000000000000000000000000000000000000000
310
0000000000000000000000000000000000000000000000000000000000000000000000000000000000000000000000000000000000000000
  0
BLOCK_RECORD
  5
335
330
1
100
AcDbSymbolTableRecord
100
AcDbBlockTableRecord
  2
IGS2
340
0
310
2800000020000000200000000100080000000000000400000000000000000000000000000000000000000000000080000080000000808000800000008000800080800000C0C0C000C0DCC000F0CAA6000020400000206000002080000020A0000020C0000020E00000400000004020000040400000406000004080000040A0
310
000040C0000040E00000600000006020000060400000606000006080000060A0000060C0000060E00000800000008020000080400000806000008080000080A0000080C0000080E00000A0000000A0200000A0400000A0600000A0800000A0A00000A0C00000A0E00000C0000000C0200000C0400000C0600000C0800000C0
310
A00000C0C00000C0E00000E0000000E0200000E0400000E0600000E0800000E0A00000E0C00000E0E00040000000400020004000400040006000400080004000A0004000C0004000E00040200000402020004020400040206000402080004020A0004020C0004020E000404000004040200040404000404060004040800040
310
40A0004040C0004040E00040600000406020004060400040606000406080004060A0004060C0004060E00040800000408020004080400040806000408080004080A0004080C0004080E00040A0000040A0200040A0400040A0600040A0800040A0A00040A0C00040A0E00040C0000040C0200040C0400040C0600040C08000
310
40C0A00040C0C00040C0E00040E0000040E0200040E0400040E0600040E0800040E0A00040E0C00040E0E00080000000800020008000400080006000800080008000A0008000C0008000E00080200000802020008020400080206000802080008020A0008020C0008020E00080400000804020008040400080406000804080
310
008040A0008040C0008040E00080600000806020008060400080606000806080008060A0008060C0008060E00080800000808020008080400080806000808080008080A0008080C0008080E00080A0000080A0200080A0400080A0600080A0800080A0A00080A0C00080A0E00080C0000080C0200080C0400080C0600080C0
310
800080C0A00080C0C00080C0E00080E0000080E0200080E0400080E0600080E0800080E0A00080E0C00080E0E000C0000000C0002000C0004000C0006000C0008000C000A000C000C000C000E000C0200000C0202000C0204000C0206000C0208000C020A000C020C000C020E000C0400000C0402000C0404000C0406000C0
310
408000C040A000C040C000C040E000C0600000C0602000C0604000C0606000C0608000C060A000C060C000C060E000C0800000C0802000C0804000C0806000C0808000C080A000C080C000C080E000C0A00000C0A02000C0A04000C0A06000C0A08000C0A0A000C0A0C000C0A0E000C0C00000C0C02000C0C04000C0C06000
310
C0C08000C0C0A000F0FBFF00A4A0A000808080000000FF0000FF000000FFFF00FF000000FF00FF00FFFF0000FFFFFF0000000000000000000000000000000000000000000000000000000000000000000000000000000000000000000000000000000000000000000000000000000000000000000000000000000000000000
310
00000000000000000000000000000000000000000000000000000000000000000000000000000000000000000000000000000000000000000000000000000000000000000000000000000000000000000000F9FBFBF9F9F9FBFBF9F9F9F90000000000000000000000000000000000000000F9F9FBFBFBFBFBFBFBF9F9F900
310
00000000000000000000000000000000000000F9FBFBFBFBFBFBFBFBF9F9F90000000000000000000000000000000000000000F9F9F9F9F9F9F9F9F9F9F9F900000000000000000000000000000000000000000000000000000000000000000000000000000000000000000000000000000000000000000000000000000000
310
00000000000000000000000000000000000000000000000000000000000000000000000000000000000000000000000000000000000000000000000000000000000000000000000000000000000000000000000000000000000000000000000000000000000000000000000000000000000000000000000000000000000000
310
00000000000000000000000000000000000000000000000000000000000000000000000000000000000000000000000000000000000000000000000000000000000000000000000000000000000000000000000000000000000000000000000000000000000000000000000000000000000000000000000000000000000000
310
00000000000000000000000000000000000000000000000000000000000000000000000000000000000000000000000000000000000000000000000000000000000000000000000000000000000000000000000000000000000000000000000000000000000000000000000000000000000000000000000000000000000000
310
00000000000000000000000000000000000000000000000000000000000000000000000000000000000000000000000000000000000000000000000000000000000000000000000000000000000000000000000000000000000000000000000000000000000000000000000000000000000000000000000000000000000000
310
00000000000000000000000000000000000000000000000000000000000000000000000000000000000000000000000000000000000000000000000000000000000000000000000000000000000000000000000000000000000000000000000000000000000000000000000000000000000000000000000000000000000000
310
0000000000000000000000000000000000000000000000000000000000000000000000000000000000000000000000000000000000000000
102
{BLKREFS
331
D50
102
}
  0
BLOCK_RECORD
  5
6A8
330
1
100
AcDbSymbolTableRecord
100
AcDbBlockTableRecord
  2
IGS_A3
340
0
310
2800000020000000200000000100080000000000000400000000000000000000000000000000000000000000000080000080000000808000800000008000800080800000C0C0C000C0DCC000F0CAA6000020400000206000002080000020A0000020C0000020E00000400000004020000040400000406000004080000040A0
310
000040C0000040E00000600000006020000060400000606000006080000060A0000060C0000060E00000800000008020000080400000806000008080000080A0000080C0000080E00000A0000000A0200000A0400000A0600000A0800000A0A00000A0C00000A0E00000C0000000C0200000C0400000C0600000C0800000C0
310
A00000C0C00000C0E00000E0000000E0200000E0400000E0600000E0800000E0A00000E0C00000E0E00040000000400020004000400040006000400080004000A0004000C0004000E00040200000402020004020400040206000402080004020A0004020C0004020E000404000004040200040404000404060004040800040
310
40A0004040C0004040E00040600000406020004060400040606000406080004060A0004060C0004060E00040800000408020004080400040806000408080004080A0004080C0004080E00040A0000040A0200040A0400040A0600040A0800040A0A00040A0C00040A0E00040C0000040C0200040C0400040C0600040C08000
310
40C0A00040C0C00040C0E00040E0000040E0200040E0400040E0600040E0800040E0A00040E0C00040E0E00080000000800020008000400080006000800080008000A0008000C0008000E00080200000802020008020400080206000802080008020A0008020C0008020E00080400000804020008040400080406000804080
310
008040A0008040C0008040E00080600000806020008060400080606000806080008060A0008060C0008060E00080800000808020008080400080806000808080008080A0008080C0008080E00080A0000080A0200080A0400080A0600080A0800080A0A00080A0C00080A0E00080C0000080C0200080C0400080C0600080C0
310
800080C0A00080C0C00080C0E00080E0000080E0200080E0400080E0600080E0800080E0A00080E0C00080E0E000C0000000C0002000C0004000C0006000C0008000C000A000C000C000C000E000C0200000C0202000C0204000C0206000C0208000C020A000C020C000C020E000C0400000C0402000C0404000C0406000C0
310
408000C040A000C040C000C040E000C0600000C0602000C0604000C0606000C0608000C060A000C060C000C060E000C0800000C0802000C0804000C0806000C0808000C080A000C080C000C080E000C0A00000C0A02000C0A04000C0A06000C0A08000C0A0A000C0A0C000C0A0E000C0C00000C0C02000C0C04000C0C06000
310
C0C08000C0C0A000F0FBFF00A4A0A000808080000000FF0000FF000000FFFF00FF000000FF00FF00FFFF0000FFFFFF0000000000000000000000000000000000000000000000000000000000000000000000000000000000000000000000000000000000000000000000000000000000000000000000000000000000000000
310
000000000000000000000000000000000000000000000000000000000000000000000000000000000000000000000000000000000000000000000000000000000000000000000000000000000000000000000000000000000000000000000000000000000000000000000000000000000000F9F9FFF9F9F9F9F9F9F9F9F9F9
310
F9F9F9F9F9F9F9F9F9F9F9F9F9F9F900000000F900FFFFFFFFFFFFFFFFFFFFFFFFFFFFFFFFFFFFFFFFFFFFFFFFFFF900000000F900FF0000000000000000000000000000000000000000000000FFF900000000F900FF0000000000000000000000000000000000000000000000FFF900000000F900FF000000000000000000
310
0000000000000000000000000000FFF900000000F900FF0000000000000000000000000000000000000000000000FFF900000000F900FF0000000000000000000000000000000000000000000000FFF900000000F900FF0000000000000000000000000000000000000000000000FFF900000000F900FF0000000000000000
310
000000000000000000000000000000FFF900000000F900FF0000000000000000000000000000000000000000000000FFF900000000F900FF0000000000000000000000000000000000000000000000FFF900000000F900FF0000000000000000000000000000000000000000000000FFF900000000F900FF00000000000000
310
00000000000000000000000000000000FFF900000000F900FF0000000000000000000000000000000000000000000000FFF900000000F900FF0000000000000000000000000000000000000000000000FFF900000000F900FF0000000000000000000000000000000000000000000000FFF900000000F900FF000000000000
310
0000000000000000000000000000000000FFF900000000F900FF0000000000000000000000000000000000000000000000FFF900000000F900FFFFFFFFFFFFFFFFFFFFFFFFFFFFFFFFFFFFFFFFFFFFFFFFFFF900000000F9F9F9F9F9F9F9F9F9F9F9F9F9F9F9F9F9F9F9F9F9F9F9F9F9F9F9F9000000000000000000000000
310
00000000000000000000000000000000000000000000000000000000000000000000000000000000000000000000000000000000000000000000000000000000000000000000000000000000000000000000000000000000000000000000000000000000000000000000000000000000000000000000000000000000000000
310
0000000000000000000000000000000000000000000000000000000000000000000000000000000000000000000000000000000000000000
102
{BLKREFS
331
D4F
102
}
  0
BLOCK_RECORD
  5
230D
330
1
100
AcDbSymbolTableRecord
100
AcDbBlockTableRecord
  2
*D7
340
0
  0
BLOCK_RECORD
  5
2319
330
1
100
AcDbSymbolTableRecord
100
AcDbBlockTableRecord
  2
*D8
340
0
  0
BLOCK_RECORD
  5
2325
330
1
100
AcDbSymbolTableRecord
100
AcDbBlockTableRecord
  2
*D9
340
0
  0
BLOCK_RECORD
  5
2331
330
1
100
AcDbSymbolTableRecord
100
AcDbBlockTableRecord
  2
*D10
340
0
  0
BLOCK_RECORD
  5
233D
330
1
100
AcDbSymbolTableRecord
100
AcDbBlockTableRecord
  2
*D11
340
0
  0
BLOCK_RECORD
  5
2349
330
1
100
AcDbSymbolTableRecord
100
AcDbBlockTableRecord
  2
*D12
340
0
  0
BLOCK_RECORD
  5
2355
330
1
100
AcDbSymbolTableRecord
100
AcDbBlockTableRecord
  2
*D13
340
0
  0
BLOCK_RECORD
  5
2363
330
1
100
AcDbSymbolTableRecord
100
AcDbBlockTableRecord
  2
*D14
340
0
  0
BLOCK_RECORD
  5
236F
330
1
100
AcDbSymbolTableRecord
100
AcDbBlockTableRecord
  2
*D15
340
0
  0
BLOCK_RECORD
  5
237D
330
1
100
AcDbSymbolTableRecord
100
AcDbBlockTableRecord
  2
*D16
340
0
  0
BLOCK_RECORD
  5
2389
330
1
100
AcDbSymbolTableRecord
100
AcDbBlockTableRecord
  2
*D17
340
0
  0
BLOCK_RECORD
  5
2397
330
1
100
AcDbSymbolTableRecord
100
AcDbBlockTableRecord
  2
*D18
340
0
  0
BLOCK_RECORD
  5
23A3
330
1
100
AcDbSymbolTableRecord
100
AcDbBlockTableRecord
  2
*D19
340
0
  0
BLOCK_RECORD
  5
29AF
330
1
100
AcDbSymbolTableRecord
100
AcDbBlockTableRecord
  2
*D20
340
0
  0
BLOCK_RECORD
  5
29DC
330
1
100
AcDbSymbolTableRecord
100
AcDbBlockTableRecord
  2
*D21
340
0
  0
BLOCK_RECORD
  5
2A02
330
1
100
AcDbSymbolTableRecord
100
AcDbBlockTableRecord
  2
*D22
340
0
  0
BLOCK_RECORD
  5
2A4E
330
1
100
AcDbSymbolTableRecord
100
AcDbBlockTableRecord
  2
*D23
340
0
  0
BLOCK_RECORD
  5
2A79
330
1
100
AcDbSymbolTableRecord
100
AcDbBlockTableRecord
  2
*D24
340
0
  0
BLOCK_RECORD
  5
2CE2
330
1
100
AcDbSymbolTableRecord
100
AcDbBlockTableRecord
  2
NAKAMURA
340
0
310
2800000020000000200000000100080000000000000400000000000000000000000000000000000000000000000080000080000000808000800000008000800080800000C0C0C000C0DCC000F0CAA6000020400000206000002080000020A0000020C0000020E00000400000004020000040400000406000004080000040A0
310
000040C0000040E00000600000006020000060400000606000006080000060A0000060C0000060E00000800000008020000080400000806000008080000080A0000080C0000080E00000A0000000A0200000A0400000A0600000A0800000A0A00000A0C00000A0E00000C0000000C0200000C0400000C0600000C0800000C0
310
A00000C0C00000C0E00000E0000000E0200000E0400000E0600000E0800000E0A00000E0C00000E0E00040000000400020004000400040006000400080004000A0004000C0004000E00040200000402020004020400040206000402080004020A0004020C0004020E000404000004040200040404000404060004040800040
310
40A0004040C0004040E00040600000406020004060400040606000406080004060A0004060C0004060E00040800000408020004080400040806000408080004080A0004080C0004080E00040A0000040A0200040A0400040A0600040A0800040A0A00040A0C00040A0E00040C0000040C0200040C0400040C0600040C08000
310
40C0A00040C0C00040C0E00040E0000040E0200040E0400040E0600040E0800040E0A00040E0C00040E0E00080000000800020008000400080006000800080008000A0008000C0008000E00080200000802020008020400080206000802080008020A0008020C0008020E00080400000804020008040400080406000804080
310
008040A0008040C0008040E00080600000806020008060400080606000806080008060A0008060C0008060E00080800000808020008080400080806000808080008080A0008080C0008080E00080A0000080A0200080A0400080A0600080A0800080A0A00080A0C00080A0E00080C0000080C0200080C0400080C0600080C0
310
800080C0A00080C0C00080C0E00080E0000080E0200080E0400080E0600080E0800080E0A00080E0C00080E0E000C0000000C0002000C0004000C0006000C0008000C000A000C000C000C000E000C0200000C0202000C0204000C0206000C0208000C020A000C020C000C020E000C0400000C0402000C0404000C0406000C0
310
408000C040A000C040C000C040E000C0600000C0602000C0604000C0606000C0608000C060A000C060C000C060E000C0800000C0802000C0804000C0806000C0808000C080A000C080C000C080E000C0A00000C0A02000C0A04000C0A06000C0A08000C0A0A000C0A0C000C0A0E000C0C00000C0C02000C0C04000C0C06000
310
C0C08000C0C0A000F0FBFF00A4A0A000808080000000FF0000FF000000FFFF00FF000000FF00FF00FFFF0000FFFFFF000000000000000000000000000000000000000000000000000000000000000000000000000000000000000000000000FFFFFF000000000000000000000000000000000000000000000000FFFFFFFFFF
310
000000FFFF0000000000000000000000000000000000000000FFFF00000000000000000000FFFFFF00000000000000000000000000000000FF00000000FF0000000000FF00FFFF00FFFF00000000000000000000000000FF0000000000FF0000000000FF0000FF000000FF0000000000000000000000FF000000FFFFFFFFFF
310
FF00FF00FF00FFFF00000000FF000000000000000000FF00000000FF0000FF00FF0000FFFFFFFFFF0000000000FF0000000000000000FF00000000FF0000FF00FF0000FFFFFFFFFF0000000000FF00000000000000FF0000000000FF0000FF00FF00FFFFFFFFFFFFFF0000000000FF000000000000FF0000000000FFFFFFFF
310
FFFF000000FF0000FF00000000000000FF00000000FF000000000000000000FF0000000000FF0000FF00000000000000FF00000000FFFFFFFFFFFFFFFFFFFFFFFFFFFFFFFFFFFFFFFFFFFFFFFFFFFFFFFF00000000FF0000000000000000000000000000000000000000000000000000FF000000FF00000000000000000000
310
000000000000000000000000000000000000FF0000FF00000000000000000000000000000000000000000000000000000000FF0000FF00000000000000000000000000000000000000000000000000000000FF0000FF00000000000000000000000000000000000000000000000000000000FF000000FF0000000000000000
310
000000000000000000000000000000000000FF00000000FF0000000000000000000000000000000000000000000000000000FF00000000FF0000000000000000000000000000000000000000000000000000FF0000000000FF00000000000000000000000000000000000000000000000000FF0000000000FFFFFFFFFFFFFF
310
FFFFFFFFFFFFFFFFFFFFFFFFFFFFFFFFFFFFFF00000000000000FF000000000000FFFF00FFFF00FFFF00FF000000000000FF0000000000000000FF000000000000FF00FFFF0000FFFF00FF000000000000FF000000000000000000FF00000000FFFF00FFFF0000FFFFFFFF0000000000FF0000000000000000000000FF0000
310
0000FFFFFF00FFFFFFFFFFFF00000000FF00000000000000000000000000FF0000FFFFFFFFFFFF00FFFFFFFFFF00FFFF000000000000000000000000000000FFFF00FFFFFFFFFFFFFFFFFFFFFFFF00000000000000000000000000000000000000FFFFFFFFFF0000FFFFFFFF00000000000000000000000000000000000000
310
00000000000000FFFFFF00000000000000000000000000000000000000000000000000000000000000000000000000000000000000000000
102
{BLKREFS
331
2CF7
331
2D0A
102
}
1001
ACAD
1000
DesignCenter Data
1002
{
1070
     1
1070
     4
1002
}
  0
BLOCK_RECORD
  5
2CEA
102
{ACAD_XDICTIONARY
360
2CF9
102
}
330
1
100
AcDbSymbolTableRecord
100
AcDbBlockTableRecord
  2
A$C617314DB
340
0
  0
BLOCK_RECORD
  5
2E36
330
1
100
AcDbSymbolTableRecord
100
AcDbBlockTableRecord
  2
GENDOT
340
0
102
{BLKREFS
331
2E2F
331
2E23
331
33F7
331
3406
331
3894
331
38A3
102
}
  0
BLOCK_RECORD
  5
2E6F
330
1
100
AcDbSymbolTableRecord
100
AcDbBlockTableRecord
  2
GENZOOGP67FD4
340
0
  0
BLOCK_RECORD
  5
2EA0
330
1
100
AcDbSymbolTableRecord
100
AcDbBlockTableRecord
  2
Y3sec
340
0
  0
BLOCK_RECORD
  5
2EA9
330
1
100
AcDbSymbolTableRecord
100
AcDbBlockTableRecord
  2
Y2sec
340
0
  0
BLOCK_RECORD
  5
2EB2
330
1
100
AcDbSymbolTableRecord
100
AcDbBlockTableRecord
  2
Y1sec
340
0
  0
BLOCK_RECORD
  5
2EBB
330
1
100
AcDbSymbolTableRecord
100
AcDbBlockTableRecord
  2
Ysec
340
0
  0
BLOCK_RECORD
  5
2EC4
330
1
100
AcDbSymbolTableRecord
100
AcDbBlockTableRecord
  2
X1sec
340
0
102
{BLKREFS
331
30CF
102
}
  0
BLOCK_RECORD
  5
2ECD
330
1
100
AcDbSymbolTableRecord
100
AcDbBlockTableRecord
  2
Xsec
340
0
  0
BLOCK_RECORD
  5
2ED6
330
1
100
AcDbSymbolTableRecord
100
AcDbBlockTableRecord
  2
X3sec
340
0
  0
BLOCK_RECORD
  5
2EDF
330
1
100
AcDbSymbolTableRecord
100
AcDbBlockTableRecord
  2
X2sec
340
0
  0
BLOCK_RECORD
  5
35F3
330
1
100
AcDbSymbolTableRecord
100
AcDbBlockTableRecord
  2
*D95
340
0
  0
BLOCK_RECORD
  5
371D
330
1
100
AcDbSymbolTableRecord
100
AcDbBlockTableRecord
  2
*D96
340
0
  0
BLOCK_RECORD
  5
3729
330
1
100
AcDbSymbolTableRecord
100
AcDbBlockTableRecord
  2
*D97
340
0
  0
BLOCK_RECORD
  5
3737
330
1
100
AcDbSymbolTableRecord
100
AcDbBlockTableRecord
  2
*D98
340
0
  0
BLOCK_RECORD
  5
3885
330
1
100
AcDbSymbolTableRecord
100
AcDbBlockTableRecord
  2
GENZOO33DNVH4
340
0
102
{BLKREFS
331
3888
102
}
  0
BLOCK_RECORD
  5
38B6
330
1
100
AcDbSymbolTableRecord
100
AcDbBlockTableRecord
  2
*D100
340
0
  0
BLOCK_RECORD
  5
38C2
330
1
100
AcDbSymbolTableRecord
100
AcDbBlockTableRecord
  2
*D101
340
0
  0
BLOCK_RECORD
  5
38CC
330
1
100
AcDbSymbolTableRecord
100
AcDbBlockTableRecord
  2
*D102
340
0
  0
BLOCK_RECORD
  5
394C
330
1
100
AcDbSymbolTableRecord
100
AcDbBlockTableRecord
  2
*D103
340
0
  0
BLOCK_RECORD
  5
39A3
330
1
100
AcDbSymbolTableRecord
100
AcDbBlockTableRecord
  2
*S104
340
0
  0
BLOCK_RECORD
  5
39BD
330
1
100
AcDbSymbolTableRecord
100
AcDbBlockTableRecord
  2
*S105
340
0
  0
BLOCK_RECORD
  5
39C4
330
1
100
AcDbSymbolTableRecord
100
AcDbBlockTableRecord
  2
*S106
340
0
  0
BLOCK_RECORD
  5
39CE
330
1
100
AcDbSymbolTableRecord
100
AcDbBlockTableRecord
  2
*S107
340
0
  0
BLOCK_RECORD
  5
39D7
330
1
100
AcDbSymbolTableRecord
100
AcDbBlockTableRecord
  2
*S108
340
0
  0
BLOCK_RECORD
  5
39E0
330
1
100
AcDbSymbolTableRecord
100
AcDbBlockTableRecord
  2
*S109
340
0
  0
ENDTAB
  0
ENDSEC
  0
SECTION
  2
BLOCKS
  0
BLOCK
  5
20
330
1F
100
AcDbEntity
  8
0
100
AcDbBlockBegin
  2
*Model_Space
 70
     0
 10
0.0
 20
0.0
 30
0.0
  3
*Model_Space
  1

  0
ENDBLK
  5
21
330
1F
100
AcDbEntity
  8
0
100
AcDbBlockEnd
  0
BLOCK
  5
1C
330
1B
100
AcDbEntity
 67
     1
  8
0
100
AcDbBlockBegin
  2
*Paper_Space
 70
     0
 10
0.0
 20
0.0
 30
0.0
  3
*Paper_Space
  1

  0
ENDBLK
  5
1D
330
1B
100
AcDbEntity
 67
     1
  8
0
100
AcDbBlockEnd
  0
BLOCK
  5
24
330
23
100
AcDbEntity
  8
0
100
AcDbBlockBegin
  2
*Paper_Space0
 70
     0
 10
0.0
 20
0.0
 30
0.0
  3
*Paper_Space0
  1

  0
ENDBLK
  5
25
330
23
100
AcDbEntity
  8
0
100
AcDbBlockEnd
  0
BLOCK
  5
7B
330
77
100
AcDbEntity
  8
0
100
AcDbBlockBegin
  2
_Open30
 70
     0
 10
0.0
 20
0.0
 30
0.0
  3
_Open30
  1

  0
LINE
  5
78
330
77
100
AcDbEntity
  8
0
  6
ByBlock
 62
     0
370
    -2
100
AcDbLine
 10
-1.0
 20
0.26794919
 30
0.0
 11
0.0
 21
0.0
 31
0.0
  0
LINE
  5
79
330
77
100
AcDbEntity
  8
0
  6
ByBlock
 62
     0
370
    -2
100
AcDbLine
 10
0.0
 20
0.0
 30
0.0
 11
-1.0
 21
-0.26794919
 31
0.0
  0
LINE
  5
7A
330
77
100
AcDbEntity
  8
0
  6
ByBlock
 62
     0
370
    -2
100
AcDbLine
 10
0.0
 20
0.0
 30
0.0
 11
-1.0
 21
0.0
 31
0.0
  0
ENDBLK
  5
7C
330
77
100
AcDbEntity
  8
0
100
AcDbBlockEnd
  0
BLOCK
  5
85
330
83
100
AcDbEntity
  8
0
100
AcDbBlockBegin
  2
GENAXEH
 70
     0
 10
0.0
 20
0.0
 30
0.0
  3
GENAXEH
  1

  0
LINE
  5
84
330
83
100
AcDbEntity
  8
0
100
AcDbLine
 10
-1.0
 20
0.0
 30
0.0
 11
1.0
 21
0.0
 31
0.0
  0
ENDBLK
  5
86
330
83
100
AcDbEntity
  8
0
100
AcDbBlockEnd
  0
BLOCK
  5
3B8
330
335
100
AcDbEntity
  8
0
100
AcDbBlockBegin
  2
IGS2
 70
     2
 10
0.0
 20
0.0
 30
0.0
  3
IGS2
  1

  0
POINT
  5
336
330
335
100
AcDbEntity
  8
0
 60
     1
100
AcDbPoint
 10
0.0
 20
0.0
 30
0.0
1001
GENIUS_GENODEF_13
1002
{
1000
HIER
1070
     1
1002
}
1002
{
1000
MANEDIT
1070
     0
1002
}
1002
{
1000
NOSEL
1070
     0
1002
}
1002
{
1000
BEHIND
1070
     0
1002
}
1002
{
1000
REACTOR
1002
}
1001
GENIUS_GENTITLE_13
1002
{
1000
SCALE
1000
1:1
1002
}
1002
{
1000
BORDER
1000
IGS-A4
1002
}
1002
{
1000
TITLE
1000
IGS-TITLE
1002
}
1002
{
1000
UNCHG
1002
{
1000
GEN-TITLE-SCA
1000
GEN-TITLE-SIZ
1002
}
1002
}
1002
{
1000
HRA
1005
0
1002
}
1002
{
1000
HTIT
1005
0
1002
}
1002
{
1000
GENIUSID
1005
336
1002
}
1001
GENIUS_GENOBJ-N-TIT_13
1002
{
1000
OWNER
1000
GEN
1002
}
1001
GENIUS_GENOENT_13
1002
{
1000
MYREF
1005
336
1002
}
1002
{
1000
GRP
1005
0
1002
}
1001
GENIUS_GENOLIS_13
1002
{
1000
ENT
1005
0
1005
0
1002
}
  0
LINE
  5
337
330
335
100
AcDbEntity
  8
RAHM3
100
AcDbLine
 10
-148.4080564410193
 20
8.825237325416161
 30
52.0
 11
-145.4319868410194
 21
8.825237325416161
 31
52.0
  0
ARC
  5
338
330
335
100
AcDbEntity
  8
RAHM3
100
AcDbCircle
 10
-141.4638940410194
 20
7.833214125416168
 30
52.0
 40
0.9920232
100
AcDbArc
 50
90.0
 51
180.0
  0
LINE
  5
339
330
335
100
AcDbEntity
  8
RAHM3
100
AcDbLine
 10
-137.6611384410193
 20
8.825237325416161
 30
52.0
 11
-141.4638940410194
 21
8.825237325416161
 31
52.0
  0
ARC
  5
33A
330
335
100
AcDbEntity
  8
RAHM3
100
AcDbCircle
 10
-137.6611384410193
 20
7.833214125416168
 30
52.0
 40
0.9920232
100
AcDbArc
 50
0.0
 51
90.0
  0
ARC
  5
33B
330
335
100
AcDbEntity
  8
RAHM3
100
AcDbCircle
 10
-129.0636040410194
 20
7.833214125416168
 30
52.0
 40
0.9920232
100
AcDbArc
 50
0.0
 51
90.0
  0
LINE
  5
33C
330
335
100
AcDbEntity
  8
RAHM3
100
AcDbLine
 10
-132.7010224410193
 20
8.825237325416161
 30
52.0
 11
-129.0636040410194
 21
8.825237325416161
 31
52.0
  0
ARC
  5
33D
330
335
100
AcDbEntity
  8
RAHM3
100
AcDbCircle
 10
-132.7010224410193
 20
7.833214125416168
 30
52.0
 40
0.9920232
100
AcDbArc
 50
90.0
 51
180.0
  0
LINE
  5
33E
330
335
100
AcDbEntity
  8
RAHM3
100
AcDbLine
 10
-148.4080564410193
 20
8.163888525416165
 30
52.0
 11
-147.5813704410193
 21
8.163888525416165
 31
52.0
  0
LINE
  5
33F
330
335
100
AcDbEntity
  8
RAHM3
100
AcDbLine
 10
-147.5813704410193
 20
8.163888525416165
 30
52.0
 11
-147.5813704410193
 21
3.865121325416145
 31
52.0
  0
LINE
  5
340
330
335
100
AcDbEntity
  8
RAHM3
100
AcDbLine
 10
-146.2586728410194
 20
3.865121325416145
 30
52.0
 11
-146.2586728410194
 21
8.163888525416165
 31
52.0
  0
LINE
  5
341
330
335
100
AcDbEntity
  8
RAHM3
100
AcDbLine
 10
-146.2586728410194
 20
8.163888525416165
 30
52.0
 11
-145.4319868410194
 21
8.163888525416165
 31
52.0
  0
LINE
  5
342
330
335
100
AcDbEntity
  8
RAHM3
100
AcDbLine
 10
-145.4319868410194
 20
8.825237325416161
 30
52.0
 11
-145.4319868410194
 21
8.163888525416165
 31
52.0
  0
LINE
  5
343
330
335
100
AcDbEntity
  8
RAHM3
100
AcDbLine
 10
-148.4080564410193
 20
8.163888525416165
 30
52.0
 11
-148.4080564410193
 21
8.825237325416161
 31
52.0
  0
LINE
  5
344
330
335
100
AcDbEntity
  8
RAHM3
100
AcDbLine
 10
-145.4319868410194
 20
3.203772525416149
 30
52.0
 11
-148.4080564410193
 21
3.203772525416149
 31
52.0
  0
CIRCLE
  5
345
330
335
100
AcDbEntity
  8
RAHM3
100
AcDbCircle
 10
-144.1092892410194
 20
3.865121325416145
 30
52.0
 40
0.6613488000000001
  0
LINE
  5
346
330
335
100
AcDbEntity
  8
RAHM3
100
AcDbLine
 10
-137.9918128410194
 20
3.865121325416145
 30
52.0
 11
-137.9918128410194
 21
3.203772525416149
 31
52.0
  0
LINE
  5
347
330
335
100
AcDbEntity
  8
RAHM3
100
AcDbLine
 10
-137.9918128410194
 20
3.203772525416149
 30
52.0
 11
-136.6691152410193
 21
3.203772525416149
 31
52.0
  0
ARC
  5
348
330
335
100
AcDbEntity
  8
RAHM3
100
AcDbCircle
 10
-141.4638940410194
 20
4.195795725416166
 30
52.0
 40
0.9920232
100
AcDbArc
 50
180.0
 51
270.0
  0
LINE
  5
349
330
335
100
AcDbEntity
  8
RAHM3
100
AcDbLine
 10
-141.4638940410194
 20
3.203772525416149
 30
52.0
 11
-141.1332196410193
 21
3.203772525416149
 31
52.0
  0
LINE
  5
34A
330
335
100
AcDbEntity
  8
RAHM3
100
AcDbLine
 10
-142.4559172410194
 20
4.195795725416166
 30
52.0
 11
-142.4559172410194
 21
7.833214125416168
 31
52.0
  0
CIRCLE
  5
34B
330
335
100
AcDbEntity
  8
RAHM3
100
AcDbCircle
 10
-135.5117548410193
 20
3.865121325416145
 30
52.0
 40
0.6613488000000001
  0
ARC
  5
34C
330
335
100
AcDbEntity
  8
RAHM3
100
AcDbCircle
 10
-132.7010224410193
 20
4.195795725416166
 30
52.0
 40
0.9920232
100
AcDbArc
 50
180.0
 51
270.0
  0
LINE
  5
34D
330
335
100
AcDbEntity
  8
RAHM3
100
AcDbLine
 10
-129.0636040410194
 20
3.203772525416149
 30
52.0
 11
-132.7010224410193
 21
3.203772525416149
 31
52.0
  0
ARC
  5
34E
330
335
100
AcDbEntity
  8
RAHM3
100
AcDbCircle
 10
-129.0636040410194
 20
4.195795725416166
 30
52.0
 40
0.9920232
100
AcDbArc
 50
270.0
 51
0.0
  0
LINE
  5
34F
330
335
100
AcDbEntity
  8
RAHM3
100
AcDbLine
 10
-133.6930456410194
 20
4.195795725416166
 30
52.0
 11
-133.6930456410194
 21
5.022481725416161
 31
52.0
  0
LINE
  5
350
330
335
100
AcDbEntity
  8
RAHM3
100
AcDbLine
 10
-128.0715808410194
 20
7.833214125416168
 30
52.0
 11
-128.0715808410194
 21
7.00652812541615
 31
52.0
  0
CIRCLE
  5
351
330
335
100
AcDbEntity
  8
RAHM3
100
AcDbCircle
 10
-126.9142204410194
 20
3.865121325416145
 30
52.0
 40
0.6613488000000001
  0
LINE
  5
352
330
335
100
AcDbEntity
  8
RAHM3
100
AcDbLine
 10
-136.6691152410193
 20
7.171865325416149
 30
52.0
 11
-137.8264756410194
 21
7.171865325416149
 31
52.0
  0
LINE
  5
353
330
335
100
AcDbEntity
  8
RAHM3
100
AcDbLine
 10
-137.8264756410194
 20
7.171865325416149
 30
52.0
 11
-137.8264756410194
 21
7.667876925416146
 31
52.0
  0
LINE
  5
354
330
335
100
AcDbEntity
  8
RAHM3
100
AcDbLine
 10
-137.8264756410194
 20
7.667876925416146
 30
52.0
 11
-141.2985568410193
 21
7.667876925416146
 31
52.0
  0
LINE
  5
355
330
335
100
AcDbEntity
  8
RAHM3
100
AcDbLine
 10
-141.2985568410193
 20
7.667876925416146
 30
52.0
 11
-141.2985568410193
 21
4.361132925416165
 31
52.0
  0
LINE
  5
356
330
335
100
AcDbEntity
  8
RAHM3
100
AcDbLine
 10
-137.8264756410194
 20
5.518493325416158
 30
52.0
 11
-139.4798476410193
 21
5.518493325416158
 31
52.0
  0
LINE
  5
357
330
335
100
AcDbEntity
  8
RAHM3
100
AcDbLine
 10
-139.4798476410193
 20
5.518493325416158
 30
52.0
 11
-139.4798476410193
 21
6.510516525416153
 31
52.0
  0
LINE
  5
358
330
335
100
AcDbEntity
  8
RAHM3
100
AcDbLine
 10
-136.6691152410193
 20
7.171865325416149
 30
52.0
 11
-136.6691152410193
 21
7.833214125416168
 31
52.0
  0
LINE
  5
359
330
335
100
AcDbEntity
  8
RAHM3
100
AcDbLine
 10
-137.8264756410194
 20
5.022481725416161
 30
52.0
 11
-137.8264756410194
 21
5.518493325416158
 31
52.0
  0
LINE
  5
35A
330
335
100
AcDbEntity
  8
RAHM3
100
AcDbLine
 10
-137.6611384410193
 20
6.510516525416153
 30
52.0
 11
-139.4798476410193
 21
6.510516525416153
 31
52.0
  0
LINE
  5
35B
330
335
100
AcDbEntity
  8
RAHM3
100
AcDbLine
 10
-136.6691152410193
 20
5.518493325416158
 30
52.0
 11
-136.6691152410193
 21
3.203772525416149
 31
52.0
  0
ARC
  5
35C
330
335
100
AcDbEntity
  8
RAHM3
100
AcDbCircle
 10
-137.6611384410193
 20
5.518493325416158
 30
52.0
 40
0.9920232
100
AcDbArc
 50
0.0
 51
90.0
  0
LINE
  5
35D
330
335
100
AcDbEntity
  8
RAHM3
100
AcDbLine
 10
-139.1930809214994
 20
5.022481725416161
 30
52.0
 11
-137.8264756410194
 21
5.022481725416161
 31
52.0
  0
ARC
  5
35E
330
335
100
AcDbEntity
  8
RAHM3
100
AcDbCircle
 10
-139.1930809214994
 20
4.030458525416167
 30
52.0
 40
0.9920232
100
AcDbArc
 50
90.0
 51
119.7448812969
  0
LINE
  5
35F
330
335
100
AcDbEntity
  8
RAHM3
100
AcDbLine
 10
-140.8773334868594
 20
4.361132925416165
 30
52.0
 11
-141.2985568410193
 21
4.361132925416165
 31
52.0
  0
LINE
  5
360
330
335
100
AcDbEntity
  8
RAHM3
100
AcDbLine
 10
-140.3851521495794
 20
4.491838785176161
 30
52.0
 11
-139.6852622587794
 21
4.891775865576152
 31
52.0
  0
ARC
  5
361
330
335
100
AcDbEntity
  8
RAHM3
100
AcDbCircle
 10
-140.8773334868594
 20
5.35315612541616
 30
52.0
 40
0.9920232
100
AcDbArc
 50
270.0
 51
299.7448812969
  0
ARC
  5
362
330
335
100
AcDbEntity
  8
RAHM3
100
AcDbCircle
 10
-138.8857271583794
 20
2.873098125416151
 30
52.0
 40
0.9920232
100
AcDbArc
 50
90.0
 51
119.7448812969
  0
LINE
  5
363
330
335
100
AcDbEntity
  8
RAHM3
100
AcDbLine
 10
-140.5699797237394
 20
3.203772525416149
 30
52.0
 11
-141.4638940410194
 21
3.203772525416149
 31
52.0
  0
ARC
  5
364
330
335
100
AcDbEntity
  8
RAHM3
100
AcDbCircle
 10
-140.5699797237394
 20
4.195795725416166
 30
52.0
 40
0.9920232
100
AcDbArc
 50
270.0
 51
299.7448812969
  0
LINE
  5
365
330
335
100
AcDbEntity
  8
RAHM3
100
AcDbLine
 10
-139.3779084956594
 20
3.734415465576159
 30
52.0
 11
-140.0777983864594
 21
3.334478385176168
 31
52.0
  0
LINE
  5
366
330
335
100
AcDbEntity
  8
RAHM3
100
AcDbLine
 10
-138.8857271583794
 20
3.865121325416145
 30
52.0
 11
-137.9918128410194
 21
3.865121325416145
 31
52.0
  0
LINE
  5
367
330
335
100
AcDbEntity
  8
RAHM3
100
AcDbLine
 10
-147.5813704410193
 20
3.865121325416145
 30
52.0
 11
-148.4080564410193
 21
3.865121325416145
 31
52.0
  0
LINE
  5
368
330
335
100
AcDbEntity
  8
RAHM3
100
AcDbLine
 10
-146.2586728410194
 20
3.865121325416145
 30
52.0
 11
-145.4319868410194
 21
3.865121325416145
 31
52.0
  0
LINE
  5
369
330
335
100
AcDbEntity
  8
RAHM3
100
AcDbLine
 10
-148.4080564410193
 20
3.203772525416149
 30
52.0
 11
-148.4080564410193
 21
3.865121325416145
 31
52.0
  0
LINE
  5
36A
330
335
100
AcDbEntity
  8
RAHM3
100
AcDbLine
 10
-145.4319868410194
 20
3.865121325416145
 30
52.0
 11
-145.4319868410194
 21
3.203772525416149
 31
52.0
  0
LINE
  5
36B
330
335
100
AcDbEntity
  8
RAHM3
100
AcDbLine
 10
-132.5356852410194
 20
7.667876925416146
 30
52.0
 11
-129.2289412410193
 21
7.667876925416146
 31
52.0
  0
LINE
  5
36C
330
335
100
AcDbEntity
  8
RAHM3
100
AcDbLine
 10
-129.2289412410193
 20
7.667876925416146
 30
52.0
 11
-129.2289412410193
 21
7.00652812541615
 31
52.0
  0
LINE
  5
36D
330
335
100
AcDbEntity
  8
RAHM3
100
AcDbLine
 10
-132.5356852410194
 20
5.022481725416161
 30
52.0
 11
-132.5356852410194
 21
4.361132925416165
 31
52.0
  0
LINE
  5
36E
330
335
100
AcDbEntity
  8
RAHM3
100
AcDbLine
 10
-132.5356852410194
 20
4.361132925416165
 30
52.0
 11
-129.2289412410193
 21
4.361132925416165
 31
52.0
  0
LINE
  5
36F
330
335
100
AcDbEntity
  8
RAHM3
100
AcDbLine
 10
-132.5356852410194
 20
5.022481725416161
 30
52.0
 11
-133.6930456410194
 21
5.022481725416161
 31
52.0
  0
LINE
  5
370
330
335
100
AcDbEntity
  8
RAHM3
100
AcDbLine
 10
-128.0715808410194
 20
7.00652812541615
 30
52.0
 11
-129.2289412410193
 21
7.00652812541615
 31
52.0
  0
LINE
  5
371
330
335
100
AcDbEntity
  8
RAHM3
100
AcDbLine
 10
-129.2289412410193
 20
4.361132925416165
 30
52.0
 11
-129.2289412410193
 21
5.518493325416158
 31
52.0
  0
LINE
  5
372
330
335
100
AcDbEntity
  8
RAHM3
100
AcDbLine
 10
-132.5356852410194
 20
6.510516525416153
 30
52.0
 11
-132.5356852410194
 21
7.667876925416146
 31
52.0
  0
LINE
  5
373
330
335
100
AcDbEntity
  8
RAHM3
100
AcDbLine
 10
-128.0715808410194
 20
5.518493325416158
 30
52.0
 11
-128.0715808410194
 21
4.195795725416166
 31
52.0
  0
LINE
  5
374
330
335
100
AcDbEntity
  8
RAHM3
100
AcDbLine
 10
-129.0636040410194
 20
6.510516525416153
 30
52.0
 11
-132.5356852410194
 21
6.510516525416153
 31
52.0
  0
ARC
  5
375
330
335
100
AcDbEntity
  8
RAHM3
100
AcDbCircle
 10
-129.0636040410194
 20
5.518493325416158
 30
52.0
 40
0.9920232
100
AcDbArc
 50
0.0
 51
90.0
  0
LINE
  5
376
330
335
100
AcDbEntity
  8
RAHM3
100
AcDbLine
 10
-132.7010224411794
 20
5.518493325416158
 30
52.0
 11
-129.2289412410193
 21
5.518493325416158
 31
52.0
  0
LINE
  5
377
330
335
100
AcDbEntity
  8
RAHM3
100
AcDbLine
 10
-133.6930456410194
 20
6.510516525416153
 30
52.0
 11
-133.6930456410194
 21
7.833214125416168
 31
52.0
  0
ARC
  5
378
330
335
100
AcDbEntity
  8
RAHM3
100
AcDbCircle
 10
-132.7010224411794
 20
6.510516525416153
 30
52.0
 40
0.9920232
100
AcDbArc
 50
180.0
 51
270.0
  0
POINT
  5
379
330
335
100
AcDbEntity
  8
0
 60
     1
100
AcDbPoint
 10
0.0
 20
0.0
 30
0.0
1001
GENIUS_GENODEF_13
1002
{
1000
HIER
1070
     1
1002
}
1002
{
1000
MANEDIT
1070
     0
1002
}
1002
{
1000
NOSEL
1070
     0
1002
}
1002
{
1000
BEHIND
1070
     0
1002
}
1002
{
1000
REACTOR
1002
}
1001
GENIUS_GENTITLE_13
1002
{
1000
SCALE
1000
1:1
1002
}
1002
{
1000
BORDER
1000
GEN_A4
1002
}
1002
{
1000
TITLE
1000
GENTITUS
1002
}
1002
{
1000
UNCHG
1002
{
1000
GEN-TITLE-SCA
1000
GEN-TITLE-SIZ
1002
}
1002
}
1002
{
1000
HRA
1005
0
1002
}
1002
{
1000
HTIT
1005
0
1002
}
1002
{
1000
GENIUSID
1005
379
1002
}
1001
GENIUS_GENOBJ-N-TIT_13
1002
{
1000
OWNER
1000
GEN
1002
}
1001
GENIUS_GENOENT_13
1002
{
1000
MYREF
1005
379
1002
}
1002
{
1000
GRP
1005
0
1002
}
1001
GENIUS_GENOLIS_13
1002
{
1000
ENT
1005
0
1005
0
1002
}
  0
TEXT
  5
37A
330
335
100
AcDbEntity
  8
0
 60
     1
100
AcDbText
 10
210.0
 20
297.0
 30
0.0
 40
3.5
  1
!GENTITLE-MAX
100
AcDbText
  0
TEXT
  5
37B
330
335
100
AcDbEntity
  8
0
 60
     1
100
AcDbText
 10
205.0
 20
287.0
 30
0.0
 40
3.5
  1
!GENTITLE-RU
100
AcDbText
  0
TEXT
  5
37C
330
335
100
AcDbEntity
  8
0
 60
     1
100
AcDbText
 10
15.0
 20
59.99
 30
0.0
 40
3.5
  1
!GENTITLE-LL
100
AcDbText
  0
TEXT
  5
37D
330
335
100
AcDbEntity
  8
0
 60
     1
100
AcDbText
 10
205.0
 20
5.0
 30
0.0
 40
3.5
  1
!GENTITLE-INSERT
100
AcDbText
  0
LINE
  5
37E
330
335
100
AcDbEntity
  8
RAHM2
100
AcDbLine
 10
-155.0
 20
12.0
 30
0.0
 11
0.0
 21
12.0
 31
0.0
  0
LINE
  5
37F
330
335
100
AcDbEntity
  8
RAHM2
100
AcDbLine
 10
-12.0
 20
12.0
 30
0.0
 11
-12.00000000000727
 21
0.0
 31
0.0
  0
LINE
  5
380
330
335
100
AcDbEntity
  8
RAHM2
100
AcDbLine
 10
-80.0
 20
19.99999999999272
 30
0.0
 11
0.0
 21
20.0
 31
0.0
  0
LINE
  5
381
330
335
100
AcDbEntity
  8
RAHM2
100
AcDbLine
 10
0.0
 20
27.0
 30
0.0
 11
-80.0
 21
27.0
 31
0.0
  0
MTEXT
  5
382
330
335
100
AcDbEntity
  8
RAHM2
100
AcDbMText
 10
-78.39748281353763
 20
37.79972226353243
 30
0.0
 40
2.5
 41
2.458156240282278
 71
     1
 72
     5
  1

 73
     1
 44
1.0
1001
ACAD
1000
MTEXTBEGIN
1070
    73
1070
     1
1070
    44
1040
1.0
1070
    74
1070
     0
1000
MTEXTEND
  0
TEXT
  5
383
330
335
100
AcDbEntity
  8
RAHM3
100
AcDbText
 10
-79.00900277736832
 20
36.89804600214973
 30
0.0
 40
2.299999999999999
  1
名称 ＴＩＴＬＥ
 41
0.8
100
AcDbText
  0
LINE
  5
384
330
335
100
AcDbEntity
  8
RAHM2
100
AcDbLine
 10
-80.0
 20
40.00000000000727
 30
0.0
 11
-80.0
 21
0.0
 31
0.0
  0
TEXT
  5
385
330
335
100
AcDbEntity
  8
RAHM3
100
AcDbText
 10
-79.00900277736832
 20
23.89804600216055
 30
0.0
 40
2.299999999999999
  1
符号 
 41
0.8
100
AcDbText
  0
TEXT
  5
386
330
335
100
AcDbEntity
  8
RAHM3
100
AcDbText
 10
-79.00900277736832
 20
16.89804600215146
 30
0.0
 40
2.299999999999999
  1
件名
 41
0.8
100
AcDbText
  0
TEXT
  5
387
330
335
100
AcDbEntity
  8
RAHM3
100
AcDbText
 10
-79.00900277736832
 20
8.898046002160548
 30
0.0
 40
2.299999999999999
  1
図番 ＤＲＡＷＩＮＧ ＮＯ．
 41
0.8
100
AcDbText
  0
CIRCLE
  5
388
330
335
100
AcDbEntity
  8
RAHM2
100
AcDbCircle
 10
-5.0
 20
5.0
 30
0.0
 40
4.5
  0
LINE
  5
389
330
335
100
AcDbEntity
  8
RAHM2
100
AcDbLine
 10
-130.0000000000018
 20
40.00000000000916
 30
0.0
 11
-130.0000000000018
 21
12.0
 31
0.0
  0
LINE
  5
38A
330
335
100
AcDbEntity
  8
RAHM2
100
AcDbLine
 10
-130.0000000000018
 20
26.00000000000458
 30
0.0
 11
-80.0
 21
25.99999999999818
 31
0.0
  0
LINE
  5
38B
330
335
100
AcDbEntity
  8
RAHM2
100
AcDbLine
 10
-105.0000000000018
 20
40.00000000000916
 30
0.0
 11
-105.0000000000018
 21
12.0
 31
0.0
  0
TEXT
  5
38C
330
335
100
AcDbEntity
  8
RAHM3
100
AcDbText
 10
-129.0090027773683
 20
36.89804600215881
 30
0.0
 40
2.299999999999999
  1
承認 ＡＰＰＤ
 41
0.8
100
AcDbText
  0
TEXT
  5
38D
330
335
100
AcDbEntity
  8
RAHM3
100
AcDbText
 10
-104.0090027773683
 20
36.8980460021551
 30
0.0
 40
2.299999999999999
  1
検図 ＣＨＫ
 41
0.8
100
AcDbText
  0
TEXT
  5
38E
330
335
100
AcDbEntity
  8
RAHM3
100
AcDbText
 10
-129.0090027773683
 20
22.89804600215422
 30
0.0
 40
2.299999999999999
  1
設計 ＥＮＧＲ
 41
0.8
100
AcDbText
  0
TEXT
  5
38F
330
335
100
AcDbEntity
  8
RAHM3
100
AcDbText
 10
-104.0090027773683
 20
22.89804600214964
 30
0.0
 40
2.299999999999999
  1
製図 ＤＲ ＤＡＴＥ
 41
0.8
100
AcDbText
  0
LINE
  5
390
330
335
100
AcDbEntity
  8
RAHM2
100
AcDbLine
 10
-155.0
 20
30.60000000000036
 30
0.0
 11
-130.0000000000018
 21
30.60000000000036
 31
0.0
  0
LINE
  5
391
330
335
100
AcDbEntity
  8
RAHM2
100
AcDbLine
 10
-155.0
 20
21.29999999999927
 30
0.0
 11
-130.0000000000018
 21
21.30000000000109
 31
0.0
  0
TEXT
  5
392
330
335
100
AcDbEntity
  8
RAHM3
100
AcDbText
 10
-121.7843516157921
 20
6.885079184961092
 30
0.0
 40
4.0
  1
伊藤鉄工株式会社
100
AcDbText
  0
TEXT
  5
393
330
335
100
AcDbEntity
  8
RAHM3
100
AcDbText
 10
-120.6675998914835
 20
3.578884653066273
 30
0.0
 40
2.0
  1
ITO TEKKO  CO.,LTD.
100
AcDbText
1001
GENIUS_GENTRA_14
1002
{
1070
     1
1000
/
1000
ITO TEKKO  CO.,LTD.
1000
JPN
1070
     0
1040
1.0
1070
     0
1002
}
  0
TEXT
  5
394
330
335
100
AcDbEntity
  8
RAHM3
100
AcDbText
 10
-120.6675998914835
 20
0.9279960228792472
 30
0.0
 40
2.0
  1
KAWAGUCHI  JAPAN
100
AcDbText
  0
TEXT
  5
395
330
335
100
AcDbEntity
  8
RAHM3
100
AcDbText
 10
-11.85206060358336
 20
9.69362381988742
 30
0.0
 40
1.8
  1
ＲＥＶ．ＭＡＲＫ
 41
0.6800000000000001
100
AcDbText
  0
TEXT
  5
396
330
335
100
AcDbEntity
  8
RAHM3
100
AcDbText
 10
-11.57052530051805
 20
7.425435269030799
 30
0.0
 40
1.8
  1
変
100
AcDbText
  0
TEXT
  5
397
330
335
100
AcDbEntity
  8
RAHM3
100
AcDbText
 10
-11.59004395148213
 20
4.996441785248862
 30
0.0
 40
1.8
  1
更
100
AcDbText
  0
TEXT
  5
398
330
335
100
AcDbEntity
  8
RAHM3
100
AcDbText
 10
-11.62938531906752
 20
2.617267270587205
 30
0.0
 40
1.8
  1
回
100
AcDbText
  0
TEXT
  5
399
330
335
100
AcDbEntity
  8
RAHM3
100
AcDbText
 10
-11.56556962136267
 20
0.3551115072955326
 30
0.0
 40
1.8
  1
数
100
AcDbText
  0
TEXT
  5
39A
330
335
100
AcDbEntity
  8
RAHM3
100
AcDbText
 10
-154.0090027773665
 20
36.89804600217056
 30
0.0
 40
2.299999999999999
  1
尺度 ＳＣＡＬＥ
 41
0.8
100
AcDbText
  0
TEXT
  5
39B
330
335
100
AcDbEntity
  8
RAHM3
100
AcDbText
 10
-154.0090027773665
 20
27.49804600215
 30
0.0
 40
2.299999999999999
  1
図面枚数 ＮＯ．  
 41
0.8
100
AcDbText
  0
LINE
  5
39C
330
335
100
AcDbEntity
  8
7A
100
AcDbLine
 10
-151.7551228444401
 20
16.64999999999988
 30
0.0
 11
-149.2551228444401
 21
16.64999999999988
 31
0.0
1001
GENIUS_GENOREF_13
1005
3A0
  0
LINE
  5
39D
330
335
100
AcDbEntity
  8
7A
100
AcDbLine
 10
-151.7551228444401
 20
16.64999999999988
 30
0.0
 11
-151.7551228444401
 21
19.14999999999988
 31
0.0
1001
GENIUS_GENOREF_13
1005
3A0
  0
LINE
  5
39E
330
335
100
AcDbEntity
  8
7A
100
AcDbLine
 10
-151.7551228444401
 20
16.64999999999988
 30
0.0
 11
-154.2551228444401
 21
16.64999999999988
 31
0.0
1001
GENIUS_GENOREF_13
1005
3A0
  0
LINE
  5
39F
330
335
100
AcDbEntity
  8
7A
100
AcDbLine
 10
-151.7551228444401
 20
16.64999999999988
 30
0.0
 11
-151.7551228444401
 21
14.14999999999988
 31
0.0
1001
GENIUS_GENOREF_13
1005
3A0
  0
POINT
  5
3A0
330
335
100
AcDbEntity
  8
0
 60
     1
100
AcDbPoint
 10
0.0
 20
0.0
 30
0.0
1001
GENIUS_GENODEF_13
1002
{
1000
HIER
1070
    10
1002
}
1002
{
1000
MANEDIT
1070
     0
1002
}
1002
{
1000
NOSEL
1070
     0
1002
}
1002
{
1000
BEHIND
1070
     0
1002
}
1002
{
1000
REACTOR
1002
}
1001
GENIUS_GENOBJ-N-CRS_13
1002
{
1000
OWNER
1000
GEN
1002
}
1001
GENIUS_GENOENT_13
1002
{
1000
MYREF
1005
3A0
1002
}
1002
{
1000
GRP
1005
0
1002
}
1001
GENIUS_GENOLIS_13
1002
{
1000
ENT
1005
39F
1005
39E
1005
39D
1005
39C
1002
}
  0
CIRCLE
  5
3A1
330
335
100
AcDbEntity
  8
RAHM3
100
AcDbCircle
 10
-151.7551228444401
 20
16.64999999999988
 30
0.0
 40
2.0
  0
CIRCLE
  5
3A2
330
335
100
AcDbEntity
  8
RAHM3
100
AcDbCircle
 10
-151.7551228444401
 20
16.64999999999952
 30
0.0
 40
1.0
  0
LINE
  5
3A3
330
335
100
AcDbEntity
  8
RAHM3
100
AcDbLine
 10
-147.7659442035316
 20
17.64999999999929
 30
0.0
 11
-147.7659442035316
 21
15.64999999999929
 31
0.0
  0
LINE
  5
3A4
330
335
100
AcDbEntity
  8
RAHM3
100
AcDbLine
 10
-147.7659442035316
 20
15.64999999999929
 30
0.0
 11
-143.7659442035316
 21
14.64999999999928
 31
0.0
  0
LINE
  5
3A5
330
335
100
AcDbEntity
  8
RAHM3
100
AcDbLine
 10
-143.7659442035316
 20
14.64999999999928
 30
0.0
 11
-143.7659442035316
 21
18.64999999999929
 31
0.0
  0
LINE
  5
3A6
330
335
100
AcDbEntity
  8
RAHM3
100
AcDbLine
 10
-143.7659442035316
 20
18.64999999999929
 30
0.0
 11
-147.7659442035316
 21
17.64999999999929
 31
0.0
  0
LINE
  5
3A7
330
335
100
AcDbEntity
  8
7A
100
AcDbLine
 10
-148.6350563849704
 20
16.64999999999929
 30
0.0
 11
-142.8462596443259
 21
16.64999999999929
 31
0.0
1001
GENIUS_GENODEF_13
1002
{
1000
HIER
1070
     0
1002
}
1002
{
1000
MANEDIT
1070
     0
1002
}
1002
{
1000
NOSEL
1070
     0
1002
}
1002
{
1000
BEHIND
1070
     0
1002
}
1002
{
1000
REACTOR
1002
}
1001
GENIUS_GENOBJ-N-CEN_13
1002
{
1000
OWNER
1000
GEN
1002
}
  0
TEXT
  5
3A8
330
335
100
AcDbEntity
  8
RAHM3
100
AcDbText
 10
-141.8454810851357
 20
18.28209750892168
 30
0.0
 40
2.1
  1
単位 ＵＮＩＴ
 41
0.7
100
AcDbText
  0
LINE
  5
3A9
330
335
100
AcDbEntity
  8
RAHM2
100
AcDbLine
 10
-142.5000000000009
 20
21.29999999999927
 30
0.0
 11
-142.5000000000009
 21
12.0
 31
0.0
  0
TEXT
  5
3AA
330
335
100
AcDbEntity
  8
RAHM3
100
AcDbText
 10
-139.6782849929894
 20
13.82826889824218
 30
0.0
 40
4.0
  1
ｍｍ
 41
0.8
100
AcDbText
  0
POLYLINE
  5
3AB
330
335
100
AcDbEntity
  8
RAHM2
100
AcDb2dPolyline
 66
     1
 10
0.0
 20
0.0
 30
0.0
 70
     1
  0
VERTEX
  5
3AC
330
3AB
100
AcDbEntity
  8
RAHM2
100
AcDbVertex
100
AcDb2dVertex
 10
-155.0
 20
-0.000000000001819
 30
0.0
  0
VERTEX
  5
3AD
330
3AB
100
AcDbEntity
  8
RAHM2
100
AcDbVertex
100
AcDb2dVertex
 10
-155.0
 20
40.00000000002091
 30
0.0
  0
VERTEX
  5
3AE
330
3AB
100
AcDbEntity
  8
RAHM2
100
AcDbVertex
100
AcDb2dVertex
 10
0.0
 20
39.99999999999273
 30
0.0
  0
VERTEX
  5
3AF
330
3AB
100
AcDbEntity
  8
RAHM2
100
AcDbVertex
100
AcDb2dVertex
 10
0.0
 20
0.0
 30
0.0
  0
SEQEND
  5
3B0
330
3AB
100
AcDbEntity
  8
RAHM2
  0
ATTDEF
  5
3B1
330
335
100
AcDbEntity
  8
RAHM3
100
AcDbText
 10
-147.2595867131855
 20
31.94728899818607
 30
0.0
 40
4.0
  1

100
AcDbAttributeDefinition
  3
尺度
  2
GEN-TITLE-SCA
 70
     0
  0
ATTDEF
  5
3B2
330
335
100
AcDbEntity
  8
RAHM3
100
AcDbText
 10
-73.09000000000001
 20
29.74
 30
0.0
 40
5.0
  1

100
AcDbAttributeDefinition
  3
名称
  2
ＴＩＴＬＥ
 70
     0
  0
ATTDEF
  5
3B3
330
335
100
AcDbEntity
  8
RAHM3
100
AcDbText
 10
-71.56287815584043
 20
21.80438312711384
 30
0.0
 40
3.0
  1

100
AcDbAttributeDefinition
  3
符号
  2
ｃｏｄｅ
 70
     0
  0
ATTDEF
  5
3B4
330
335
100
AcDbEntity
  8
RAHM3
100
AcDbText
 10
-70.74480649396313
 20
14.80438312710657
 30
0.0
 40
3.0
  1

100
AcDbAttributeDefinition
  3
件名
  2
件名
 70
     0
  0
ATTDEF
  5
3B5
330
335
100
AcDbEntity
  8
RAHM3
100
AcDbText
 10
-73.09000000000001
 20
1.739999999992722
 30
0.0
 40
5.0
  1

100
AcDbAttributeDefinition
  3
図面番号
  2
Ｎｏ．
 70
     0
  0
ATTDEF
  5
3B6
330
335
100
AcDbEntity
  8
RAHM3
100
AcDbText
 10
-100.45
 20
17.40708932112655
 30
0.0
 40
4.0
  1

100
AcDbAttributeDefinition
  3
製図者
  2
ＤＲ
 70
     0
  0
ATTDEF
  5
3B7
330
335
100
AcDbEntity
  8
RAHM3
100
AcDbText
 10
-103.7180853038729
 20
12.76999999999999
 30
0.0
 40
3.0
  1

 41
0.8
100
AcDbAttributeDefinition
  3
日付
  2
ｄａｔｅ
 70
     0
  0
ENDBLK
  5
3B9
330
335
100
AcDbEntity
  8
0
100
AcDbBlockEnd
  0
BLOCK
  5
6BE
330
6A8
100
AcDbEntity
  8
0
100
AcDbBlockBegin
  2
IGS_A3
 70
     0
 10
0.0
 20
0.0
 30
0.0
  3
IGS_A3
  1

  0
LINE
  5
6A9
330
6A8
100
AcDbEntity
  8
AM_BOR
100
AcDbLine
 10
0.0
 20
0.0
 30
0.0
 11
0.0
 21
10.0
 31
0.0
  0
LINE
  5
6AA
330
6A8
100
AcDbEntity
  8
AM_BOR
100
AcDbLine
 10
0.0
 20
297.0
 30
0.0
 11
10.0
 21
297.0
 31
0.0
  0
LINE
  5
6AB
330
6A8
100
AcDbEntity
  8
AM_BOR
100
AcDbLine
 10
420.0
 20
297.0
 30
0.0
 11
420.0
 21
287.0
 31
0.0
  0
LINE
  5
6AC
330
6A8
100
AcDbEntity
  8
AM_BOR
100
AcDbLine
 10
420.0
 20
0.0
 30
0.0
 11
410.0
 21
0.0
 31
0.0
  0
LINE
  5
6AD
330
6A8
100
AcDbEntity
  8
0
100
AcDbLine
 10
25.0
 20
10.0
 30
0.0
 11
25.0
 21
287.0
 31
0.0
  0
LINE
  5
6AE
330
6A8
100
AcDbEntity
  8
0
100
AcDbLine
 10
410.0
 20
10.0
 30
0.0
 11
25.0
 21
10.0
 31
0.0
  0
LINE
  5
6AF
330
6A8
100
AcDbEntity
  8
0
100
AcDbLine
 10
410.0
 20
287.0
 30
0.0
 11
410.0
 21
10.0
 31
0.0
  0
LINE
  5
6B0
330
6A8
100
AcDbEntity
  8
0
100
AcDbLine
 10
25.0
 20
287.0
 30
0.0
 11
410.0
 21
287.0
 31
0.0
  0
LINE
  5
6B1
330
6A8
100
AcDbEntity
  8
AM_BOR
100
AcDbLine
 10
0.0
 20
287.0
 30
0.0
 11
0.0
 21
297.0
 31
0.0
  0
LINE
  5
6B2
330
6A8
100
AcDbEntity
  8
AM_BOR
100
AcDbLine
 10
10.0
 20
0.0
 30
0.0
 11
0.0
 21
0.0
 31
0.0
  0
LINE
  5
6B3
330
6A8
100
AcDbEntity
  8
AM_BOR
100
AcDbLine
 10
420.0
 20
10.0
 30
0.0
 11
420.0
 21
0.0
 31
0.0
  0
LINE
  5
6B4
330
6A8
100
AcDbEntity
  8
AM_BOR
100
AcDbLine
 10
410.0
 20
297.0
 30
0.0
 11
420.0
 21
297.0
 31
0.0
  0
TEXT
  5
6B5
330
6A8
100
AcDbEntity
  8
0
 60
     1
100
AcDbText
 10
410.0
 20
287.0
 30
0.0
 40
3.5
  1
!GENTITLE-RU
  7
ACJISTS
100
AcDbText
  0
TEXT
  5
6B6
330
6A8
100
AcDbEntity
  8
0
 60
     1
100
AcDbText
 10
420.0
 20
297.0
 30
0.0
 40
3.5
  1
!GENTITLE-MAX
  7
ACJISTS
100
AcDbText
  0
TEXT
  5
6B7
330
6A8
100
AcDbEntity
  8
0
 60
     1
100
AcDbText
 10
410.0
 20
10.0
 30
0.0
 40
3.5
  1
!GENTITLE-INSERT
  7
ACJISTS
100
AcDbText
  0
TEXT
  5
6B8
330
6A8
100
AcDbEntity
  8
0
 60
     1
100
AcDbText
 10
25.0
 20
10.0
 30
0.0
 40
3.5
  1
!GENTITLE-LL
  7
ACJISTS
100
AcDbText
  0
LINE
  5
6B9
330
6A8
100
AcDbEntity
  8
AM_BOR
 62
     1
370
    25
100
AcDbLine
 10
0.0
 20
297.0
 30
0.0
 11
420.0
 21
297.0
 31
0.0
  0
LINE
  5
6BA
330
6A8
100
AcDbEntity
  8
AM_BOR
 62
     1
370
    25
100
AcDbLine
 10
420.0
 20
297.0
 30
0.0
 11
420.0
 21
0.0
 31
0.0
  0
LINE
  5
6BB
330
6A8
100
AcDbEntity
  8
AM_BOR
 62
     1
370
    25
100
AcDbLine
 10
420.0
 20
0.0
 30
0.0
 11
0.0
 21
0.0
 31
0.0
  0
LINE
  5
6BC
330
6A8
100
AcDbEntity
  8
AM_BOR
 62
     1
370
    25
100
AcDbLine
 10
0.0
 20
0.0
 30
0.0
 11
0.0
 21
297.0
 31
0.0
  0
TEXT
  5
6BD
330
6A8
100
AcDbEntity
  8
DEFPOINTS
100
AcDbText
 10
19.5941472374451
 20
2.504073349097552
 30
0.0
 40
5.0
  1
A3
100
AcDbText
  0
ENDBLK
  5
6BF
330
6A8
100
AcDbEntity
  8
0
100
AcDbBlockEnd
  0
BLOCK
  5
2317
330
230D
100
AcDbEntity
  8
0
100
AcDbBlockBegin
  2
*D7
 70
     1
 10
0.0
 20
0.0
 30
0.0
  3
*D7
  1

  0
LINE
  5
36F9
330
230D
100
AcDbEntity
  8
5
100
AcDbLine
 10
1871.894136799568
 20
936.7421748149684
 30
0.0
 11
1871.894136799568
 21
496.7443423089634
 31
0.0
  0
LINE
  5
36FA
330
230D
100
AcDbEntity
  8
5
100
AcDbLine
 10
2056.894136799567
 20
1264.682174814961
 30
0.0
 11
2056.894136799567
 21
496.7443423089634
 31
0.0
  0
LINE
  5
36FB
330
230D
100
AcDbEntity
  8
5
100
AcDbLine
 10
1896.894136799568
 20
506.7443423089635
 30
0.0
 11
2031.894136799567
 21
506.7443423089635
 31
0.0
  0
INSERT
  5
36FC
330
230D
100
AcDbEntity
  8
5
100
AcDbBlockReference
  2
_Open30
 10
1871.894136799568
 20
506.7443423089635
 30
0.0
 41
25.0
 42
25.0
 43
25.0
 50
180.0
  0
INSERT
  5
36FD
330
230D
100
AcDbEntity
  8
5
100
AcDbBlockReference
  2
_Open30
 10
2056.894136799567
 20
506.7443423089635
 30
0.0
 41
25.0
 42
25.0
 43
25.0
  0
MTEXT
  5
36FE
330
230D
100
AcDbEntity
  8
5
 62
     2
100
AcDbMText
 10
1964.394136799567
 20
536.7443423089635
 30
0.0
 40
30.0
 41
0.0
 71
     5
 72
     1
  1
185
 73
     1
 44
1.0
1001
ACAD
1000
MTEXTBEGIN
1070
    73
1070
     1
1070
    44
1040
1.0
1070
    74
1070
     0
1000
MTEXTEND
  0
POINT
  5
36FF
330
230D
100
AcDbEntity
  8
DEFPOINTS
 62
     0
100
AcDbPoint
 10
1871.894136799568
 20
946.7421748149684
 30
0.0
  0
POINT
  5
3700
330
230D
100
AcDbEntity
  8
DEFPOINTS
 62
     0
100
AcDbPoint
 10
2056.894136799567
 20
1274.682174814961
 30
0.0
  0
POINT
  5
3701
330
230D
100
AcDbEntity
  8
DEFPOINTS
 62
     0
100
AcDbPoint
 10
2056.894136799567
 20
506.7443423089635
 30
0.0
  0
ENDBLK
  5
2318
330
230D
100
AcDbEntity
  8
0
100
AcDbBlockEnd
  0
BLOCK
  5
2323
330
2319
100
AcDbEntity
  8
0
100
AcDbBlockBegin
  2
*D8
 70
     1
 10
0.0
 20
0.0
 30
0.0
  3
*D8
  1

  0
LINE
  5
36F0
330
2319
100
AcDbEntity
  8
5
100
AcDbLine
 10
1241.894136799565
 20
936.7421748149684
 30
0.0
 11
1241.894136799565
 21
496.7443423089634
 31
0.0
  0
LINE
  5
36F1
330
2319
100
AcDbEntity
  8
5
100
AcDbLine
 10
1871.894136799568
 20
936.7421748149684
 30
0.0
 11
1871.894136799568
 21
496.7443423089634
 31
0.0
  0
LINE
  5
36F2
330
2319
100
AcDbEntity
  8
5
100
AcDbLine
 10
1266.894136799565
 20
506.7443423089635
 30
0.0
 11
1846.894136799568
 21
506.7443423089635
 31
0.0
  0
INSERT
  5
36F3
330
2319
100
AcDbEntity
  8
5
100
AcDbBlockReference
  2
_Open30
 10
1241.894136799565
 20
506.7443423089635
 30
0.0
 41
25.0
 42
25.0
 43
25.0
 50
180.0
  0
INSERT
  5
36F4
330
2319
100
AcDbEntity
  8
5
100
AcDbBlockReference
  2
_Open30
 10
1871.894136799568
 20
506.7443423089635
 30
0.0
 41
25.0
 42
25.0
 43
25.0
  0
MTEXT
  5
36F5
330
2319
100
AcDbEntity
  8
5
 62
     2
100
AcDbMText
 10
1556.894136799567
 20
536.7443423089635
 30
0.0
 40
30.0
 41
0.0
 71
     5
 72
     1
  1
630
 73
     1
 44
1.0
1001
ACAD
1000
MTEXTBEGIN
1070
    73
1070
     1
1070
    44
1040
1.0
1070
    74
1070
     0
1000
MTEXTEND
  0
POINT
  5
36F6
330
2319
100
AcDbEntity
  8
DEFPOINTS
 62
     0
100
AcDbPoint
 10
1241.894136799565
 20
946.7421748149684
 30
0.0
  0
POINT
  5
36F7
330
2319
100
AcDbEntity
  8
DEFPOINTS
 62
     0
100
AcDbPoint
 10
1871.894136799568
 20
946.7421748149684
 30
0.0
  0
POINT
  5
36F8
330
2319
100
AcDbEntity
  8
DEFPOINTS
 62
     0
100
AcDbPoint
 10
1871.894136799568
 20
506.7443423089635
 30
0.0
  0
ENDBLK
  5
2324
330
2319
100
AcDbEntity
  8
0
100
AcDbBlockEnd
  0
BLOCK
  5
232F
330
2325
100
AcDbEntity
  8
0
100
AcDbBlockBegin
  2
*D9
 70
     1
 10
0.0
 20
0.0
 30
0.0
  3
*D9
  1

  0
LINE
  5
36DE
330
2325
100
AcDbEntity
  8
5
100
AcDbLine
 10
1056.894136799567
 20
1264.682174814969
 30
0.0
 11
1056.894136799567
 21
496.7443423089634
 31
0.0
  0
LINE
  5
36DF
330
2325
100
AcDbEntity
  8
5
100
AcDbLine
 10
1241.894136799565
 20
936.7421748149684
 30
0.0
 11
1241.894136799565
 21
496.7443423089634
 31
0.0
  0
LINE
  5
36E0
330
2325
100
AcDbEntity
  8
5
100
AcDbLine
 10
1081.894136799567
 20
506.7443423089635
 30
0.0
 11
1216.894136799565
 21
506.7443423089635
 31
0.0
  0
INSERT
  5
36E1
330
2325
100
AcDbEntity
  8
5
100
AcDbBlockReference
  2
_Open30
 10
1056.894136799567
 20
506.7443423089635
 30
0.0
 41
25.0
 42
25.0
 43
25.0
 50
180.0
  0
INSERT
  5
36E2
330
2325
100
AcDbEntity
  8
5
100
AcDbBlockReference
  2
_Open30
 10
1241.894136799565
 20
506.7443423089635
 30
0.0
 41
25.0
 42
25.0
 43
25.0
  0
MTEXT
  5
36E3
330
2325
100
AcDbEntity
  8
5
 62
     2
100
AcDbMText
 10
1149.394136799566
 20
536.7443423089635
 30
0.0
 40
30.0
 41
0.0
 71
     5
 72
     1
  1
185
 73
     1
 44
1.0
1001
ACAD
1000
MTEXTBEGIN
1070
    73
1070
     1
1070
    44
1040
1.0
1070
    74
1070
     0
1000
MTEXTEND
  0
POINT
  5
36E4
330
2325
100
AcDbEntity
  8
DEFPOINTS
 62
     0
100
AcDbPoint
 10
1056.894136799567
 20
1274.682174814969
 30
0.0
  0
POINT
  5
36E5
330
2325
100
AcDbEntity
  8
DEFPOINTS
 62
     0
100
AcDbPoint
 10
1241.894136799565
 20
946.7421748149684
 30
0.0
  0
POINT
  5
36E6
330
2325
100
AcDbEntity
  8
DEFPOINTS
 62
     0
100
AcDbPoint
 10
1241.894136799565
 20
506.7443423089635
 30
0.0
  0
ENDBLK
  5
2330
330
2325
100
AcDbEntity
  8
0
100
AcDbBlockEnd
  0
BLOCK
  5
233B
330
2331
100
AcDbEntity
  8
0
100
AcDbBlockBegin
  2
*D10
 70
     1
 10
0.0
 20
0.0
 30
0.0
  3
*D10
  1

  0
LINE
  5
2CD7
330
2331
100
AcDbEntity
  8
5
100
AcDbLine
 10
1216.894136799563
 20
974.6821748149686
 30
0.0
 11
746.2252867729668
 21
974.6821748149688
 31
0.0
  0
LINE
  5
2CD8
330
2331
100
AcDbEntity
  8
5
100
AcDbLine
 10
1046.894136799567
 20
2004.682174814969
 30
0.0
 11
746.2252867729671
 21
2004.682174814969
 31
0.0
  0
LINE
  5
2CD9
330
2331
100
AcDbEntity
  8
5
100
AcDbLine
 10
756.2252867729669
 20
999.6821748149688
 30
0.0
 11
756.2252867729671
 21
1979.682174814968
 31
0.0
  0
INSERT
  5
2CDA
330
2331
100
AcDbEntity
  8
5
100
AcDbBlockReference
  2
_Open30
 10
756.2252867729669
 20
974.6821748149688
 30
0.0
 41
25.0
 42
25.0
 43
25.0
 50
270.0
  0
INSERT
  5
2CDB
330
2331
100
AcDbEntity
  8
5
100
AcDbBlockReference
  2
_Open30
 10
756.2252867729671
 20
2004.682174814969
 30
0.0
 41
25.0
 42
25.0
 43
25.0
 50
90.0
  0
MTEXT
  5
2CDC
330
2331
100
AcDbEntity
  8
5
 62
     2
100
AcDbMText
 10
726.2252867729667
 20
1489.682174814969
 30
0.0
 40
30.0
 41
0.0
 71
     5
 72
     1
  1
1030
 11
0.0000000000000001
 21
1.0
 31
0.0
 73
     1
 44
1.0
1001
ACAD
1000
MTEXTBEGIN
1070
    73
1070
     1
1070
    44
1040
1.0
1070
    74
1070
     0
1000
MTEXTEND
  0
POINT
  5
2CDD
330
2331
100
AcDbEntity
  8
DEFPOINTS
 62
     0
100
AcDbPoint
 10
1226.894136799563
 20
974.6821748149686
 30
0.0
  0
POINT
  5
2CDE
330
2331
100
AcDbEntity
  8
DEFPOINTS
 62
     0
100
AcDbPoint
 10
1056.894136799567
 20
2004.682174814969
 30
0.0
  0
POINT
  5
2CDF
330
2331
100
AcDbEntity
  8
DEFPOINTS
 62
     0
100
AcDbPoint
 10
756.2252867729671
 20
2004.682174814969
 30
0.0
  0
ENDBLK
  5
233C
330
2331
100
AcDbEntity
  8
0
100
AcDbBlockEnd
  0
BLOCK
  5
2347
330
233D
100
AcDbEntity
  8
0
100
AcDbBlockBegin
  2
*D11
 70
     1
 10
0.0
 20
0.0
 30
0.0
  3
*D11
  1

  0
LINE
  5
2CCE
330
233D
100
AcDbEntity
  8
5
100
AcDbLine
 10
931.449709751776
 20
1174.682174814968
 30
0.0
 11
831.6023080362151
 21
1174.682174814968
 31
0.0
  0
LINE
  5
2CCF
330
233D
100
AcDbEntity
  8
5
100
AcDbLine
 10
1216.894136799567
 20
974.6821748149686
 30
0.0
 11
831.6023080362151
 21
974.6821748149686
 31
0.0
  0
LINE
  5
2CD0
330
233D
100
AcDbEntity
  8
5
100
AcDbLine
 10
841.6023080362151
 20
1149.682174814969
 30
0.0
 11
841.6023080362151
 21
999.6821748149686
 31
0.0
  0
INSERT
  5
2CD1
330
233D
100
AcDbEntity
  8
5
100
AcDbBlockReference
  2
_Open30
 10
841.6023080362151
 20
1174.682174814968
 30
0.0
 41
25.0
 42
25.0
 43
25.0
 50
90.0
  0
INSERT
  5
2CD2
330
233D
100
AcDbEntity
  8
5
100
AcDbBlockReference
  2
_Open30
 10
841.6023080362151
 20
974.6821748149686
 30
0.0
 41
25.0
 42
25.0
 43
25.0
 50
270.0
  0
MTEXT
  5
2CD3
330
233D
100
AcDbEntity
  8
5
 62
     2
100
AcDbMText
 10
811.5993552803095
 20
1074.682174814969
 30
0.0
 40
30.0
 41
0.0
 71
     5
 72
     1
  1
200
 11
0.0000000000000001
 21
1.0
 31
0.0
 73
     1
 44
1.0
1001
ACAD
1000
MTEXTBEGIN
1070
    73
1070
     1
1070
    44
1040
1.0
1070
    74
1070
     0
1000
MTEXTEND
  0
POINT
  5
2CD4
330
233D
100
AcDbEntity
  8
DEFPOINTS
 62
     0
100
AcDbPoint
 10
941.4497097517759
 20
1174.682174814968
 30
0.0
  0
POINT
  5
2CD5
330
233D
100
AcDbEntity
  8
DEFPOINTS
 62
     0
100
AcDbPoint
 10
1226.894136799567
 20
974.6821748149686
 30
0.0
  0
POINT
  5
2CD6
330
233D
100
AcDbEntity
  8
DEFPOINTS
 62
     0
100
AcDbPoint
 10
841.6023080362151
 20
974.6821748149686
 30
0.0
  0
ENDBLK
  5
2348
330
233D
100
AcDbEntity
  8
0
100
AcDbBlockEnd
  0
BLOCK
  5
2353
330
2349
100
AcDbEntity
  8
0
100
AcDbBlockBegin
  2
*D12
 70
     1
 10
0.0
 20
0.0
 30
0.0
  3
*D12
  1

  0
LINE
  5
2CC5
330
2349
100
AcDbEntity
  8
5
100
AcDbLine
 10
1046.894136799567
 20
2004.682174814969
 30
0.0
 11
831.6023080362153
 21
2004.682174814969
 31
0.0
  0
LINE
  5
2CC6
330
2349
100
AcDbEntity
  8
5
100
AcDbLine
 10
1046.894136799567
 20
1274.682174814969
 30
0.0
 11
831.6023080362151
 21
1274.682174814969
 31
0.0
  0
LINE
  5
2CC7
330
2349
100
AcDbEntity
  8
5
100
AcDbLine
 10
841.6023080362153
 20
1979.682174814968
 30
0.0
 11
841.6023080362153
 21
1299.682174814968
 31
0.0
  0
INSERT
  5
2CC8
330
2349
100
AcDbEntity
  8
5
100
AcDbBlockReference
  2
_Open30
 10
841.6023080362153
 20
2004.682174814969
 30
0.0
 41
25.0
 42
25.0
 43
25.0
 50
90.0
  0
INSERT
  5
2CC9
330
2349
100
AcDbEntity
  8
5
100
AcDbBlockReference
  2
_Open30
 10
841.6023080362151
 20
1274.682174814969
 30
0.0
 41
25.0
 42
25.0
 43
25.0
 50
270.0
  0
MTEXT
  5
2CCA
330
2349
100
AcDbEntity
  8
5
 62
     2
100
AcDbMText
 10
811.602308036215
 20
1639.682174814969
 30
0.0
 40
30.0
 41
0.0
 71
     5
 72
     1
  1
730
 11
0.0000000000000001
 21
1.0
 31
0.0
 73
     1
 44
1.0
1001
ACAD
1000
MTEXTBEGIN
1070
    73
1070
     1
1070
    44
1040
1.0
1070
    74
1070
     0
1000
MTEXTEND
  0
POINT
  5
2CCB
330
2349
100
AcDbEntity
  8
DEFPOINTS
 62
     0
100
AcDbPoint
 10
1056.894136799567
 20
2004.682174814969
 30
0.0
  0
POINT
  5
2CCC
330
2349
100
AcDbEntity
  8
DEFPOINTS
 62
     0
100
AcDbPoint
 10
1056.894136799567
 20
1274.682174814969
 30
0.0
  0
POINT
  5
2CCD
330
2349
100
AcDbEntity
  8
DEFPOINTS
 62
     0
100
AcDbPoint
 10
841.6023080362151
 20
1274.682174814969
 30
0.0
  0
ENDBLK
  5
2354
330
2349
100
AcDbEntity
  8
0
100
AcDbBlockEnd
  0
BLOCK
  5
2361
330
2355
100
AcDbEntity
  8
0
100
AcDbBlockBegin
  2
*D13
 70
     1
 10
0.0
 20
0.0
 30
0.0
  3
*D13
  1

  0
LINE
  5
2CBA
330
2355
100
AcDbEntity
  8
5
100
AcDbLine
 10
1076.894136799567
 20
1304.682174814969
 30
0.0
 11
912.2138544097857
 21
1304.682174814969
 31
0.0
  0
LINE
  5
2CBB
330
2355
100
AcDbEntity
  8
5
100
AcDbLine
 10
1046.894136799567
 20
1274.682174814969
 30
0.0
 11
912.2138544097856
 21
1274.682174814969
 31
0.0
  0
LINE
  5
2CBC
330
2355
100
AcDbEntity
  8
5
100
AcDbLine
 10
922.2138544097857
 20
1329.682174814968
 30
0.0
 11
922.2138544097857
 21
1354.682174814969
 31
0.0
  0
LINE
  5
2CBD
330
2355
100
AcDbEntity
  8
5
100
AcDbLine
 10
922.2138544097857
 20
1249.682174814968
 30
0.0
 11
922.2138544097857
 21
1224.682174814968
 31
0.0
  0
MTEXT
  5
2CBE
330
2355
100
AcDbEntity
  8
5
 62
     2
100
AcDbMText
 10
892.8377724247638
 20
1295.85436661011
 30
0.0
 40
30.0
 41
0.0
 71
     5
 72
     1
  1
30
 11
0.0000000000000001
 21
1.0
 31
0.0
 73
     1
 44
1.0
1001
ACAD
1000
MTEXTBEGIN
1070
    73
1070
     1
1070
    44
1040
1.0
1070
    74
1070
     0
1000
MTEXTEND
  0
LINE
  5
2CBF
330
2355
100
AcDbEntity
  8
5
100
AcDbLine
 10
922.2138544097857
 20
1304.682174814969
 30
0.0
 11
922.2138544097857
 21
1274.682174814969
 31
0.0
  0
INSERT
  5
2CC0
330
2355
100
AcDbEntity
  8
5
100
AcDbBlockReference
  2
_Open30
 10
922.2138544097857
 20
1304.682174814969
 30
0.0
 41
25.0
 42
25.0
 43
25.0
 50
270.0
  0
INSERT
  5
2CC1
330
2355
100
AcDbEntity
  8
5
100
AcDbBlockReference
  2
_Open30
 10
922.2138544097857
 20
1274.682174814969
 30
0.0
 41
25.0
 42
25.0
 43
25.0
 50
90.0
  0
POINT
  5
2CC2
330
2355
100
AcDbEntity
  8
DEFPOINTS
 62
     0
100
AcDbPoint
 10
1086.894136799567
 20
1304.682174814969
 30
0.0
  0
POINT
  5
2CC3
330
2355
100
AcDbEntity
  8
DEFPOINTS
 62
     0
100
AcDbPoint
 10
1056.894136799567
 20
1274.682174814969
 30
0.0
  0
POINT
  5
2CC4
330
2355
100
AcDbEntity
  8
DEFPOINTS
 62
     0
100
AcDbPoint
 10
922.2138544097857
 20
1274.682174814969
 30
0.0
  0
ENDBLK
  5
2362
330
2355
100
AcDbEntity
  8
0
100
AcDbBlockEnd
  0
BLOCK
  5
236D
330
2363
100
AcDbEntity
  8
0
100
AcDbBlockBegin
  2
*D14
 70
     1
 10
0.0
 20
0.0
 30
0.0
  3
*D14
  1

  0
LINE
  5
2CB1
330
2363
100
AcDbEntity
  8
5
100
AcDbLine
 10
1076.894136799567
 20
1974.682174814932
 30
0.0
 11
912.2138544097857
 21
1974.682174814932
 31
0.0
  0
LINE
  5
2CB2
330
2363
100
AcDbEntity
  8
5
100
AcDbLine
 10
1076.894136799567
 20
1304.682174814969
 30
0.0
 11
912.2138544097856
 21
1304.682174814969
 31
0.0
  0
LINE
  5
2CB3
330
2363
100
AcDbEntity
  8
5
100
AcDbLine
 10
922.2138544097857
 20
1949.682174814932
 30
0.0
 11
922.2138544097857
 21
1329.682174814968
 31
0.0
  0
INSERT
  5
2CB4
330
2363
100
AcDbEntity
  8
5
100
AcDbBlockReference
  2
_Open30
 10
922.2138544097857
 20
1974.682174814932
 30
0.0
 41
25.0
 42
25.0
 43
25.0
 50
90.0
  0
INSERT
  5
2CB5
330
2363
100
AcDbEntity
  8
5
100
AcDbBlockReference
  2
_Open30
 10
922.2138544097857
 20
1304.682174814969
 30
0.0
 41
25.0
 42
25.0
 43
25.0
 50
270.0
  0
MTEXT
  5
2CB6
330
2363
100
AcDbEntity
  8
5
 62
     2
100
AcDbMText
 10
892.2138544097855
 20
1639.682174814951
 30
0.0
 40
30.0
 41
0.0
 71
     5
 72
     1
  1
670
 11
0.0000000000000001
 21
1.0
 31
0.0
 73
     1
 44
1.0
1001
ACAD
1000
MTEXTBEGIN
1070
    73
1070
     1
1070
    44
1040
1.0
1070
    74
1070
     0
1000
MTEXTEND
  0
POINT
  5
2CB7
330
2363
100
AcDbEntity
  8
DEFPOINTS
 62
     0
100
AcDbPoint
 10
1086.894136799567
 20
1974.682174814932
 30
0.0
  0
POINT
  5
2CB8
330
2363
100
AcDbEntity
  8
DEFPOINTS
 62
     0
100
AcDbPoint
 10
1086.894136799567
 20
1304.682174814969
 30
0.0
  0
POINT
  5
2CB9
330
2363
100
AcDbEntity
  8
DEFPOINTS
 62
     0
100
AcDbPoint
 10
922.2138544097857
 20
1304.682174814969
 30
0.0
  0
ENDBLK
  5
236E
330
2363
100
AcDbEntity
  8
0
100
AcDbBlockEnd
  0
BLOCK
  5
237B
330
236F
100
AcDbEntity
  8
0
100
AcDbBlockBegin
  2
*D15
 70
     1
 10
0.0
 20
0.0
 30
0.0
  3
*D15
  1

  0
LINE
  5
2CA6
330
236F
100
AcDbEntity
  8
5
100
AcDbLine
 10
1046.894136799567
 20
2004.682174814969
 30
0.0
 11
912.2138544097856
 21
2004.682174814969
 31
0.0
  0
LINE
  5
2CA7
330
236F
100
AcDbEntity
  8
5
100
AcDbLine
 10
1076.894136799567
 20
1974.682174814932
 30
0.0
 11
912.2138544097856
 21
1974.682174814932
 31
0.0
  0
LINE
  5
2CA8
330
236F
100
AcDbEntity
  8
5
100
AcDbLine
 10
922.2138544097857
 20
2029.682174814968
 30
0.0
 11
922.2138544097857
 21
2054.682174814969
 31
0.0
  0
LINE
  5
2CA9
330
236F
100
AcDbEntity
  8
5
100
AcDbLine
 10
922.2138544097857
 20
1949.682174814932
 30
0.0
 11
922.2138544097857
 21
1924.682174814932
 31
0.0
  0
MTEXT
  5
2CAA
330
236F
100
AcDbEntity
  8
5
 62
     2
100
AcDbMText
 10
892.2138544097858
 20
1974.682174814932
 30
0.0
 40
30.0
 41
0.0
 71
     5
 72
     1
  1
30
 11
0.0000000000000001
 21
1.0
 31
0.0
 73
     1
 44
1.0
1001
ACAD
1000
MTEXTBEGIN
1070
    73
1070
     1
1070
    44
1040
1.0
1070
    74
1070
     0
1000
MTEXTEND
  0
LINE
  5
2CAB
330
236F
100
AcDbEntity
  8
5
100
AcDbLine
 10
922.2138544097857
 20
2004.682174814969
 30
0.0
 11
922.2138544097857
 21
1974.682174814932
 31
0.0
  0
INSERT
  5
2CAC
330
236F
100
AcDbEntity
  8
5
100
AcDbBlockReference
  2
_Open30
 10
922.2138544097857
 20
2004.682174814969
 30
0.0
 41
25.0
 42
25.0
 43
25.0
 50
270.0
  0
INSERT
  5
2CAD
330
236F
100
AcDbEntity
  8
5
100
AcDbBlockReference
  2
_Open30
 10
922.2138544097857
 20
1974.682174814932
 30
0.0
 41
25.0
 42
25.0
 43
25.0
 50
90.0
  0
POINT
  5
2CAE
330
236F
100
AcDbEntity
  8
DEFPOINTS
 62
     0
100
AcDbPoint
 10
1056.894136799567
 20
2004.682174814969
 30
0.0
  0
POINT
  5
2CAF
330
236F
100
AcDbEntity
  8
DEFPOINTS
 62
     0
100
AcDbPoint
 10
1086.894136799567
 20
1974.682174814932
 30
0.0
  0
POINT
  5
2CB0
330
236F
100
AcDbEntity
  8
DEFPOINTS
 62
     0
100
AcDbPoint
 10
922.2138544097857
 20
1974.682174814932
 30
0.0
  0
ENDBLK
  5
237C
330
236F
100
AcDbEntity
  8
0
100
AcDbBlockEnd
  0
BLOCK
  5
2387
330
237D
100
AcDbEntity
  8
0
100
AcDbBlockBegin
  2
*D16
 70
     1
 10
0.0
 20
0.0
 30
0.0
  3
*D16
  1

  0
LINE
  5
2C94
330
237D
100
AcDbEntity
  8
5
100
AcDbLine
 10
2056.894136799567
 20
2014.682174814969
 30
0.0
 11
2056.894136799567
 21
2219.472956793738
 31
0.0
  0
LINE
  5
2C95
330
237D
100
AcDbEntity
  8
5
100
AcDbLine
 10
1056.894136799567
 20
2014.682174814969
 30
0.0
 11
1056.894136799567
 21
2219.472956793738
 31
0.0
  0
LINE
  5
2C96
330
237D
100
AcDbEntity
  8
5
100
AcDbLine
 10
2031.894136799567
 20
2209.472956793737
 30
0.0
 11
1081.894136799567
 21
2209.472956793737
 31
0.0
  0
INSERT
  5
2C97
330
237D
100
AcDbEntity
  8
5
100
AcDbBlockReference
  2
_Open30
 10
2056.894136799567
 20
2209.472956793737
 30
0.0
 41
25.0
 42
25.0
 43
25.0
  0
INSERT
  5
2C98
330
237D
100
AcDbEntity
  8
5
100
AcDbBlockReference
  2
_Open30
 10
1056.894136799567
 20
2209.472956793737
 30
0.0
 41
25.0
 42
25.0
 43
25.0
 50
180.0
  0
MTEXT
  5
2C99
330
237D
100
AcDbEntity
  8
5
 62
     2
100
AcDbMText
 10
1556.894136799567
 20
2239.472956793738
 30
0.0
 40
30.0
 41
0.0
 71
     5
 72
     1
  1
1000
 73
     1
 44
1.0
1001
ACAD
1000
MTEXTBEGIN
1070
    73
1070
     1
1070
    44
1040
1.0
1070
    74
1070
     0
1000
MTEXTEND
  0
POINT
  5
2C9A
330
237D
100
AcDbEntity
  8
DEFPOINTS
 62
     0
100
AcDbPoint
 10
2056.894136799567
 20
2004.682174814969
 30
0.0
  0
POINT
  5
2C9B
330
237D
100
AcDbEntity
  8
DEFPOINTS
 62
     0
100
AcDbPoint
 10
1056.894136799567
 20
2004.682174814969
 30
0.0
  0
POINT
  5
2C9C
330
237D
100
AcDbEntity
  8
DEFPOINTS
 62
     0
100
AcDbPoint
 10
1056.894136799567
 20
2209.472956793737
 30
0.0
  0
ENDBLK
  5
2388
330
237D
100
AcDbEntity
  8
0
100
AcDbBlockEnd
  0
BLOCK
  5
2395
330
2389
100
AcDbEntity
  8
0
100
AcDbBlockBegin
  2
*D17
 70
     1
 10
0.0
 20
0.0
 30
0.0
  3
*D17
  1

  0
LINE
  5
2C89
330
2389
100
AcDbEntity
  8
5
100
AcDbLine
 10
2026.894136799567
 20
1984.682174814969
 30
0.0
 11
2026.894136799567
 21
2143.263894121534
 31
0.0
  0
LINE
  5
2C8A
330
2389
100
AcDbEntity
  8
5
100
AcDbLine
 10
2056.894136799567
 20
2014.682174814969
 30
0.0
 11
2056.894136799567
 21
2143.263894121534
 31
0.0
  0
LINE
  5
2C8B
330
2389
100
AcDbEntity
  8
5
100
AcDbLine
 10
2001.894136799567
 20
2133.263894121534
 30
0.0
 11
1976.894136799567
 21
2133.263894121534
 31
0.0
  0
LINE
  5
2C8C
330
2389
100
AcDbEntity
  8
5
100
AcDbLine
 10
2081.894136799567
 20
2133.263894121534
 30
0.0
 11
2169.917758846811
 21
2133.263894121534
 31
0.0
  0
LINE
  5
2C8D
330
2389
100
AcDbEntity
  8
5
100
AcDbLine
 10
2026.894136799567
 20
2133.263894121534
 30
0.0
 11
2056.894136799567
 21
2133.263894121534
 31
0.0
  0
INSERT
  5
2C8E
330
2389
100
AcDbEntity
  8
5
100
AcDbBlockReference
  2
_Open30
 10
2026.894136799567
 20
2133.263894121534
 30
0.0
 41
25.0
 42
25.0
 43
25.0
  0
INSERT
  5
2C8F
330
2389
100
AcDbEntity
  8
5
100
AcDbBlockReference
  2
_Open30
 10
2056.894136799567
 20
2133.263894121534
 30
0.0
 41
25.0
 42
25.0
 43
25.0
 50
180.0
  0
MTEXT
  5
2C90
330
2389
100
AcDbEntity
  8
5
 62
     2
100
AcDbMText
 10
2138.405947823189
 20
2163.263894121534
 30
0.0
 40
30.0
 41
0.0
 71
     5
 72
     1
  1
30
 73
     1
 44
1.0
1001
ACAD
1000
MTEXTBEGIN
1070
    73
1070
     1
1070
    44
1040
1.0
1070
    74
1070
     0
1000
MTEXTEND
  0
POINT
  5
2C91
330
2389
100
AcDbEntity
  8
DEFPOINTS
 62
     0
100
AcDbPoint
 10
2026.894136799567
 20
1974.682174814969
 30
0.0
  0
POINT
  5
2C92
330
2389
100
AcDbEntity
  8
DEFPOINTS
 62
     0
100
AcDbPoint
 10
2056.894136799567
 20
2004.682174814969
 30
0.0
  0
POINT
  5
2C93
330
2389
100
AcDbEntity
  8
DEFPOINTS
 62
     0
100
AcDbPoint
 10
2056.894136799567
 20
2133.263894121534
 30
0.0
  0
ENDBLK
  5
2396
330
2389
100
AcDbEntity
  8
0
100
AcDbBlockEnd
  0
BLOCK
  5
23A1
330
2397
100
AcDbEntity
  8
0
100
AcDbBlockBegin
  2
*D18
 70
     1
 10
0.0
 20
0.0
 30
0.0
  3
*D18
  1

  0
LINE
  5
2C80
330
2397
100
AcDbEntity
  8
5
100
AcDbLine
 10
1086.894136799567
 20
1984.682174814961
 30
0.0
 11
1086.894136799567
 21
2143.263894121534
 31
0.0
  0
LINE
  5
2C81
330
2397
100
AcDbEntity
  8
5
100
AcDbLine
 10
2026.894136799567
 20
1984.682174814969
 30
0.0
 11
2026.894136799567
 21
2143.263894121534
 31
0.0
  0
LINE
  5
2C82
330
2397
100
AcDbEntity
  8
5
100
AcDbLine
 10
1111.894136799567
 20
2133.263894121534
 30
0.0
 11
2001.894136799567
 21
2133.263894121534
 31
0.0
  0
INSERT
  5
2C83
330
2397
100
AcDbEntity
  8
5
100
AcDbBlockReference
  2
_Open30
 10
1086.894136799567
 20
2133.263894121534
 30
0.0
 41
25.0
 42
25.0
 43
25.0
 50
180.0
  0
INSERT
  5
2C84
330
2397
100
AcDbEntity
  8
5
100
AcDbBlockReference
  2
_Open30
 10
2026.894136799567
 20
2133.263894121534
 30
0.0
 41
25.0
 42
25.0
 43
25.0
  0
MTEXT
  5
2C85
330
2397
100
AcDbEntity
  8
5
 62
     2
100
AcDbMText
 10
1556.894136799567
 20
2163.263894121534
 30
0.0
 40
30.0
 41
0.0
 71
     5
 72
     1
  1
940
 73
     1
 44
1.0
1001
ACAD
1000
MTEXTBEGIN
1070
    73
1070
     1
1070
    44
1040
1.0
1070
    74
1070
     0
1000
MTEXTEND
  0
POINT
  5
2C86
330
2397
100
AcDbEntity
  8
DEFPOINTS
 62
     0
100
AcDbPoint
 10
1086.894136799567
 20
1974.682174814962
 30
0.0
  0
POINT
  5
2C87
330
2397
100
AcDbEntity
  8
DEFPOINTS
 62
     0
100
AcDbPoint
 10
2026.894136799567
 20
1974.682174814969
 30
0.0
  0
POINT
  5
2C88
330
2397
100
AcDbEntity
  8
DEFPOINTS
 62
     0
100
AcDbPoint
 10
2026.894136799567
 20
2133.263894121534
 30
0.0
  0
ENDBLK
  5
23A2
330
2397
100
AcDbEntity
  8
0
100
AcDbBlockEnd
  0
BLOCK
  5
23AF
330
23A3
100
AcDbEntity
  8
0
100
AcDbBlockBegin
  2
*D19
 70
     1
 10
0.0
 20
0.0
 30
0.0
  3
*D19
  1

  0
LINE
  5
2C73
330
23A3
100
AcDbEntity
  8
5
100
AcDbLine
 10
1056.894136799567
 20
2014.682174814969
 30
0.0
 11
1056.894136799567
 21
2143.263894121534
 31
0.0
  0
LINE
  5
2C74
330
23A3
100
AcDbEntity
  8
5
100
AcDbLine
 10
1086.894136799567
 20
1984.682174814961
 30
0.0
 11
1086.894136799567
 21
2143.263894121534
 31
0.0
  0
LINE
  5
2C75
330
23A3
100
AcDbEntity
  8
5
100
AcDbLine
 10
1031.894136799567
 20
2133.263894121534
 30
0.0
 11
1006.894136799567
 21
2133.263894121534
 31
0.0
  0
LINE
  5
2C76
330
23A3
100
AcDbEntity
  8
5
100
AcDbLine
 10
1111.894136799567
 20
2133.263894121534
 30
0.0
 11
1136.894136799567
 21
2133.263894121534
 31
0.0
  0
LINE
  5
2C77
330
23A3
100
AcDbEntity
  8
5
100
AcDbLine
 10
937.9203555914624
 20
2133.263894121534
 30
0.0
 11
1056.894136799567
 21
2133.263894121534
 31
0.0
  0
MTEXT
  5
2C78
330
23A3
100
AcDbEntity
  8
5
 62
     2
100
AcDbMText
 10
969.4321666150845
 20
2163.263894121534
 30
0.0
 40
30.0
 41
0.0
 71
     5
 72
     1
  1
30
 73
     1
 44
1.0
1001
ACAD
1000
MTEXTBEGIN
1070
    73
1070
     1
1070
    44
1040
1.0
1070
    74
1070
     0
1000
MTEXTEND
  0
LINE
  5
2C79
330
23A3
100
AcDbEntity
  8
5
100
AcDbLine
 10
1056.894136799567
 20
2133.263894121534
 30
0.0
 11
1086.894136799567
 21
2133.263894121534
 31
0.0
  0
LINE
  5
2C7A
330
23A3
100
AcDbEntity
  8
5
100
AcDbLine
 10
1056.894136799567
 20
2133.263894121534
 30
0.0
 11
1086.894136799567
 21
2133.263894121534
 31
0.0
  0
INSERT
  5
2C7B
330
23A3
100
AcDbEntity
  8
5
100
AcDbBlockReference
  2
_Open30
 10
1056.894136799567
 20
2133.263894121534
 30
0.0
 41
25.0
 42
25.0
 43
25.0
  0
INSERT
  5
2C7C
330
23A3
100
AcDbEntity
  8
5
100
AcDbBlockReference
  2
_Open30
 10
1086.894136799567
 20
2133.263894121534
 30
0.0
 41
25.0
 42
25.0
 43
25.0
 50
180.0
  0
POINT
  5
2C7D
330
23A3
100
AcDbEntity
  8
DEFPOINTS
 62
     0
100
AcDbPoint
 10
1056.894136799567
 20
2004.682174814969
 30
0.0
  0
POINT
  5
2C7E
330
23A3
100
AcDbEntity
  8
DEFPOINTS
 62
     0
100
AcDbPoint
 10
1086.894136799567
 20
1974.682174814962
 30
0.0
  0
POINT
  5
2C7F
330
23A3
100
AcDbEntity
  8
DEFPOINTS
 62
     0
100
AcDbPoint
 10
1086.894136799567
 20
2133.263894121534
 30
0.0
  0
ENDBLK
  5
23B0
330
23A3
100
AcDbEntity
  8
0
100
AcDbBlockEnd
  0
BLOCK
  5
29C8
330
29AF
100
AcDbEntity
  8
0
100
AcDbBlockBegin
  2
*D20
 70
     1
 10
0.0
 20
0.0
 30
0.0
  3
*D20
  1

  0
LINE
  5
2C9D
330
29AF
100
AcDbEntity
  8
AM_5
100
AcDbLine
 10
1046.894136799567
 20
1274.682174814969
 30
0.0
 11
831.602308036215
 21
1274.682174814969
 31
0.0
  0
LINE
  5
2C9E
330
29AF
100
AcDbEntity
  8
AM_5
100
AcDbLine
 10
931.4497097517758
 20
1174.682174814968
 30
0.0
 11
831.602308036215
 21
1174.682174814968
 31
0.0
  0
LINE
  5
2C9F
330
29AF
100
AcDbEntity
  8
AM_5
100
AcDbLine
 10
841.6023080362149
 20
1249.682174814968
 30
0.0
 11
841.6023080362149
 21
1199.682174814968
 31
0.0
  0
INSERT
  5
2CA0
330
29AF
100
AcDbEntity
  8
AM_5
100
AcDbBlockReference
  2
_Open30
 10
841.6023080362149
 20
1274.682174814969
 30
0.0
 41
25.0
 42
25.0
 43
25.0
 50
90.0
  0
INSERT
  5
2CA1
330
29AF
100
AcDbEntity
  8
AM_5
100
AcDbBlockReference
  2
_Open30
 10
841.6023080362149
 20
1174.682174814968
 30
0.0
 41
25.0
 42
25.0
 43
25.0
 50
270.0
  0
MTEXT
  5
2CA2
330
29AF
100
AcDbEntity
  8
AM_5
 62
     2
100
AcDbMText
 10
811.6023080362149
 20
1224.682174814969
 30
0.0
 40
30.0
 41
0.0
 71
     5
 72
     1
  1
100
 11
0.0000000000000001
 21
1.0
 31
0.0
 73
     1
 44
1.0
1001
ACAD
1000
MTEXTBEGIN
1070
    73
1070
     1
1070
    44
1040
1.0
1070
    74
1070
     0
1000
MTEXTEND
  0
POINT
  5
2CA3
330
29AF
100
AcDbEntity
  8
DEFPOINTS
 62
     0
100
AcDbPoint
 10
1056.894136799567
 20
1274.682174814969
 30
0.0
  0
POINT
  5
2CA4
330
29AF
100
AcDbEntity
  8
DEFPOINTS
 62
     0
100
AcDbPoint
 10
941.4497097517759
 20
1174.682174814968
 30
0.0
  0
POINT
  5
2CA5
330
29AF
100
AcDbEntity
  8
DEFPOINTS
 62
     0
100
AcDbPoint
 10
841.6023080362149
 20
1174.682174814968
 30
0.0
  0
ENDBLK
  5
29C9
330
29AF
100
AcDbEntity
  8
0
100
AcDbBlockEnd
  0
BLOCK
  5
2A1B
330
29DC
100
AcDbEntity
  8
0
100
AcDbBlockBegin
  2
*D21
 70
     1
 10
0.0
 20
0.0
 30
0.0
  3
*D21
  1

  0
LINE
  5
2B6F
330
29DC
100
AcDbEntity
  8
AM_5
100
AcDbLine
 10
2155.637046712604
 20
1174.682174814968
 30
0.0
 11
2275.637046712604
 21
1174.682174814968
 31
0.0
  0
LINE
  5
2B70
330
29DC
100
AcDbEntity
  8
AM_5
100
AcDbLine
 10
2031.894136799569
 20
874.6821748149754
 30
0.0
 11
2275.637046712603
 21
874.6821748149754
 31
0.0
  0
LINE
  5
2B71
330
29DC
100
AcDbEntity
  8
AM_5
100
AcDbLine
 10
2265.637046712603
 20
1149.682174814969
 30
0.0
 11
2265.637046712603
 21
899.6821748149754
 31
0.0
  0
INSERT
  5
2B72
330
29DC
100
AcDbEntity
  8
AM_5
100
AcDbBlockReference
  2
_Open30
 10
2265.637046712603
 20
1174.682174814968
 30
0.0
 41
25.0
 42
25.0
 43
25.0
 50
90.0
  0
INSERT
  5
2B73
330
29DC
100
AcDbEntity
  8
AM_5
100
AcDbBlockReference
  2
_Open30
 10
2265.637046712603
 20
874.6821748149754
 30
0.0
 41
25.0
 42
25.0
 43
25.0
 50
270.0
  0
MTEXT
  5
2B74
330
29DC
100
AcDbEntity
  8
AM_5
 62
     2
100
AcDbMText
 10
2235.637046712603
 20
1024.682174814972
 30
0.0
 40
30.0
 41
0.0
 71
     5
 72
     1
  1
300
 11
0.0000000000000001
 21
1.0
 31
0.0
 73
     1
 44
1.0
1001
ACAD
1000
MTEXTBEGIN
1070
    73
1070
     1
1070
    44
1040
1.0
1070
    74
1070
     0
1000
MTEXTEND
  0
POINT
  5
2B75
330
29DC
100
AcDbEntity
  8
DEFPOINTS
 62
     0
100
AcDbPoint
 10
2145.637046712604
 20
1174.682174814968
 30
0.0
  0
POINT
  5
2B76
330
29DC
100
AcDbEntity
  8
DEFPOINTS
 62
     0
100
AcDbPoint
 10
2021.894136799569
 20
874.6821748149754
 30
0.0
  0
POINT
  5
2B77
330
29DC
100
AcDbEntity
  8
DEFPOINTS
 62
     0
100
AcDbPoint
 10
2265.637046712603
 20
874.6821748149754
 30
0.0
  0
ENDBLK
  5
2A1C
330
29DC
100
AcDbEntity
  8
0
100
AcDbBlockEnd
  0
BLOCK
  5
2A1D
330
2A02
100
AcDbEntity
  8
0
100
AcDbBlockBegin
  2
*D22
 70
     1
 10
0.0
 20
0.0
 30
0.0
  3
*D22
  1

  0
LINE
  5
2B66
330
2A02
100
AcDbEntity
  8
AM_5
100
AcDbLine
 10
2031.894136799569
 20
774.6821748149755
 30
0.0
 11
2275.637046712603
 21
774.6821748149755
 31
0.0
  0
LINE
  5
2B67
330
2A02
100
AcDbEntity
  8
AM_5
100
AcDbLine
 10
2031.894136799569
 20
874.6821748149754
 30
0.0
 11
2275.637046712603
 21
874.6821748149754
 31
0.0
  0
LINE
  5
2B68
330
2A02
100
AcDbEntity
  8
AM_5
100
AcDbLine
 10
2265.637046712603
 20
799.6821748149755
 30
0.0
 11
2265.637046712603
 21
849.6821748149754
 31
0.0
  0
INSERT
  5
2B69
330
2A02
100
AcDbEntity
  8
AM_5
100
AcDbBlockReference
  2
_Open30
 10
2265.637046712603
 20
774.6821748149755
 30
0.0
 41
25.0
 42
25.0
 43
25.0
 50
270.0
  0
INSERT
  5
2B6A
330
2A02
100
AcDbEntity
  8
AM_5
100
AcDbBlockReference
  2
_Open30
 10
2265.637046712603
 20
874.6821748149754
 30
0.0
 41
25.0
 42
25.0
 43
25.0
 50
90.0
  0
MTEXT
  5
2B6B
330
2A02
100
AcDbEntity
  8
AM_5
 62
     2
100
AcDbMText
 10
2235.637046712603
 20
824.6821748149757
 30
0.0
 40
30.0
 41
0.0
 71
     5
 72
     1
  1
100
 11
0.0000000000000001
 21
1.0
 31
0.0
 73
     1
 44
1.0
1001
ACAD
1000
MTEXTBEGIN
1070
    73
1070
     1
1070
    44
1040
1.0
1070
    74
1070
     0
1000
MTEXTEND
  0
POINT
  5
2B6C
330
2A02
100
AcDbEntity
  8
DEFPOINTS
 62
     0
100
AcDbPoint
 10
2021.894136799569
 20
774.6821748149755
 30
0.0
  0
POINT
  5
2B6D
330
2A02
100
AcDbEntity
  8
DEFPOINTS
 62
     0
100
AcDbPoint
 10
2021.894136799569
 20
874.6821748149754
 30
0.0
  0
POINT
  5
2B6E
330
2A02
100
AcDbEntity
  8
DEFPOINTS
 62
     0
100
AcDbPoint
 10
2265.637046712603
 20
874.6821748149754
 30
0.0
  0
ENDBLK
  5
2A1E
330
2A02
100
AcDbEntity
  8
0
100
AcDbBlockEnd
  0
BLOCK
  5
2A8F
330
2A4E
100
AcDbEntity
  8
0
100
AcDbBlockBegin
  2
*D23
 70
     1
 10
0.0
 20
0.0
 30
0.0
  3
*D23
  1

  0
LINE
  5
2C12
330
2A4E
100
AcDbEntity
  8
AM_5
100
AcDbLine
 10
1771.894136799567
 20
864.6821748149754
 30
0.0
 11
1771.894136799567
 21
659.272659134137
 31
0.0
  0
LINE
  5
2C13
330
2A4E
100
AcDbEntity
  8
AM_5
100
AcDbLine
 10
1971.894136799567
 20
864.6821748149754
 30
0.0
 11
1971.894136799567
 21
659.272659134137
 31
0.0
  0
LINE
  5
2C14
330
2A4E
100
AcDbEntity
  8
AM_5
100
AcDbLine
 10
1796.894136799567
 20
669.272659134137
 30
0.0
 11
1946.894136799567
 21
669.272659134137
 31
0.0
  0
INSERT
  5
2C15
330
2A4E
100
AcDbEntity
  8
AM_5
100
AcDbBlockReference
  2
_Open30
 10
1771.894136799567
 20
669.272659134137
 30
0.0
 41
25.0
 42
25.0
 43
25.0
 50
180.0
  0
INSERT
  5
2C16
330
2A4E
100
AcDbEntity
  8
AM_5
100
AcDbBlockReference
  2
_Open30
 10
1971.894136799567
 20
669.272659134137
 30
0.0
 41
25.0
 42
25.0
 43
25.0
  0
MTEXT
  5
2C17
330
2A4E
100
AcDbEntity
  8
AM_5
 62
     2
100
AcDbMText
 10
1871.894136799567
 20
699.2756118900425
 30
0.0
 40
30.0
 41
0.0
 71
     5
 72
     1
  1
{\Famgdt|c128;o}200
 73
     1
 44
1.0
1001
ACAD
1000
MTEXTBEGIN
1070
    73
1070
     1
1070
    44
1040
1.0
1070
    74
1070
     0
1000
MTEXTEND
  0
POINT
  5
2C18
330
2A4E
100
AcDbEntity
  8
DEFPOINTS
 62
     0
100
AcDbPoint
 10
1771.894136799567
 20
874.6821748149754
 30
0.0
  0
POINT
  5
2C19
330
2A4E
100
AcDbEntity
  8
DEFPOINTS
 62
     0
100
AcDbPoint
 10
1971.894136799567
 20
874.6821748149754
 30
0.0
  0
POINT
  5
2C1A
330
2A4E
100
AcDbEntity
  8
DEFPOINTS
 62
     0
100
AcDbPoint
 10
1971.894136799567
 20
669.272659134137
 30
0.0
  0
ENDBLK
  5
2A90
330
2A4E
100
AcDbEntity
  8
0
100
AcDbBlockEnd
  0
BLOCK
  5
2A91
330
2A79
100
AcDbEntity
  8
0
100
AcDbBlockBegin
  2
*D24
 70
     1
 10
0.0
 20
0.0
 30
0.0
  3
*D24
  1

  0
LINE
  5
2C1B
330
2A79
100
AcDbEntity
  8
AM_5
100
AcDbLine
 10
1721.894136799569
 20
764.6821748149754
 30
0.0
 11
1721.894136799569
 21
579.2115179537804
 31
0.0
  0
LINE
  5
2C1C
330
2A79
100
AcDbEntity
  8
AM_5
100
AcDbLine
 10
2021.894136799569
 20
764.6821748149754
 30
0.0
 11
2021.894136799569
 21
579.2115179537804
 31
0.0
  0
LINE
  5
2C1D
330
2A79
100
AcDbEntity
  8
AM_5
100
AcDbLine
 10
1746.894136799569
 20
589.2115179537804
 30
0.0
 11
1996.894136799569
 21
589.2115179537804
 31
0.0
  0
INSERT
  5
2C1E
330
2A79
100
AcDbEntity
  8
AM_5
100
AcDbBlockReference
  2
_Open30
 10
1721.894136799569
 20
589.2115179537804
 30
0.0
 41
25.0
 42
25.0
 43
25.0
 50
180.0
  0
INSERT
  5
2C1F
330
2A79
100
AcDbEntity
  8
AM_5
100
AcDbBlockReference
  2
_Open30
 10
2021.894136799569
 20
589.2115179537804
 30
0.0
 41
25.0
 42
25.0
 43
25.0
  0
MTEXT
  5
2C20
330
2A79
100
AcDbEntity
  8
AM_5
 62
     2
100
AcDbMText
 10
1871.894136799569
 20
619.2115179537804
 30
0.0
 40
30.0
 41
0.0
 71
     5
 72
     1
  1
{\Famgdt|c128;o}300
 73
     1
 44
1.0
1001
ACAD
1000
MTEXTBEGIN
1070
    73
1070
     1
1070
    44
1040
1.0
1070
    74
1070
     0
1000
MTEXTEND
  0
POINT
  5
2C21
330
2A79
100
AcDbEntity
  8
DEFPOINTS
 62
     0
100
AcDbPoint
 10
1721.894136799569
 20
774.6821748149755
 30
0.0
  0
POINT
  5
2C22
330
2A79
100
AcDbEntity
  8
DEFPOINTS
 62
     0
100
AcDbPoint
 10
2021.894136799569
 20
774.6821748149755
 30
0.0
  0
POINT
  5
2C23
330
2A79
100
AcDbEntity
  8
DEFPOINTS
 62
     0
100
AcDbPoint
 10
2021.894136799569
 20
589.2115179537804
 30
0.0
  0
ENDBLK
  5
2A92
330
2A79
100
AcDbEntity
  8
0
100
AcDbBlockEnd
  0
BLOCK
  5
2CE3
330
2CE2
100
AcDbEntity
  8
0
100
AcDbBlockBegin
  2
NAKAMURA
 70
     0
 10
0.0
 20
0.0
 30
0.0
  3
NAKAMURA
  1

  0
CIRCLE
  5
2CE4
330
2CE2
100
AcDbEntity
  8
0
100
AcDbCircle
 10
0.0
 20
-0.0000000000000071
 30
0.0
 40
5.75
  0
LINE
  5
2CE5
330
2CE2
100
AcDbEntity
  8
0
100
AcDbLine
 10
5.390964663212002
 20
2.0
 30
0.0
 11
-5.390964663211889
 21
1.999999999999985
 31
0.0
  0
TEXT
  5
2CE6
330
2CE2
100
AcDbEntity
  8
0
100
AcDbText
 10
-1.40956822548013
 20
2.272712767880801
 30
0.0
 40
2.875000000632499
  1
藤
 50
0.000000000000708
 72
     4
 11
-0.0679015585183152
 21
3.710212768197067
 31
0.0
100
AcDbText
  0
TEXT
  5
2CE7
330
2CE2
100
AcDbEntity
  8
0
100
AcDbText
 10
-1.227410318497265
 20
-5.354429741660606
 30
0.0
 40
2.875000000632499
  1
繁
 50
0.000000000000708
 72
     4
 11
0.1142563484645507
 21
-3.91692974134434
 31
0.0
100
AcDbText
  0
LINE
  5
2CE8
330
2CE2
100
AcDbEntity
  8
0
100
AcDbLine
 10
5.390964663212002
 20
-1.999999999999964
 30
0.0
 11
-5.390964663211889
 21
-2.000000000000021
 31
0.0
  0
ENDBLK
  5
2CE9
330
2CE2
100
AcDbEntity
  8
0
100
AcDbBlockEnd
  0
BLOCK
  5
2CFA
330
2CEA
100
AcDbEntity
  8
0
100
AcDbBlockBegin
  2
A$C617314DB
 70
     0
 10
0.0
 20
0.0
 30
0.0
  3
A$C617314DB
  1

  0
CIRCLE
  5
2CEB
330
2CEA
100
AcDbEntity
  8
0
100
AcDbCircle
 10
-138.5200456962357
 20
196.5431103274875
 30
0.0
 40
49.99999998900111
  0
LINE
  5
2CEC
330
2CEA
100
AcDbEntity
  8
0
100
AcDbLine
 10
-91.6420921134013
 20
213.9344146714877
 30
0.0
 11
-185.39799927907
 21
213.9344146714877
 31
0.0
  0
TEXT
  5
2CED
330
2CEA
100
AcDbEntity
  8
0
100
AcDbText
 10
-150.777160697713
 20
216.3058300438426
 30
0.0
 40
25.00000000000055
  1
梅
 72
     4
 11
-139.110494031046
 21
228.8058300438428
 31
0.0
100
AcDbText
  0
TEXT
  5
2CEE
330
2CEA
100
AcDbEntity
  8
0
100
AcDbText
 10
-149.1931788982137
 20
149.982851714594
 30
0.0
 40
25.00000000000055
  1
村
 72
     4
 11
-137.5265122315468
 21
162.4828517145943
 31
0.0
100
AcDbText
  0
LINE
  5
2CEF
330
2CEA
100
AcDbEntity
  8
0
100
AcDbLine
 10
-91.6420921134013
 20
179.1518059834869
 30
0.0
 11
-185.39799927907
 21
179.1518059834869
 31
0.0
  0
TEXT
  5
2CF0
330
2CEA
100
AcDbEntity
  8
TEXT
100
AcDbText
 10
-182.1986786625384
 20
183.4996320694869
 30
0.0
 40
26.086956516
  1
05.07.20
 41
0.6972296058015834
 72
     5
 11
-97.60737433331451
 21
183.4996320694869
 31
0.0
100
AcDbText
  0
LINE
  5
2CF1
330
2CEA
100
AcDbEntity
  8
0
100
AcDbLine
 10
-90.52285701775872
 20
41.78865880027217
 30
0.0
 11
-184.2787641834275
 21
41.7886588002716
 31
0.0
  0
LINE
  5
2CF2
330
2CEA
100
AcDbEntity
  8
0
100
AcDbLine
 10
-90.52285701775872
 20
76.57126748827295
 30
0.0
 11
-184.2787641834275
 21
76.57126748827295
 31
0.0
  0
CIRCLE
  5
2CF3
330
2CEA
100
AcDbEntity
  8
0
100
AcDbCircle
 10
-137.4008106005931
 20
59.17996314427227
 30
0.0
 40
49.99999998900111
  0
TEXT
  5
2CF4
330
2CEA
100
AcDbEntity
  8
TEXT
100
AcDbText
 10
-181.0794435668958
 20
46.13648488627177
 30
0.0
 40
26.086956516
  1
05.07.20
 41
0.6972296058015834
 72
     5
 11
-96.48813923767193
 21
46.13648488627177
 31
0.0
100
AcDbText
  0
TEXT
  5
2CF5
330
2CEA
100
AcDbEntity
  8
0
100
AcDbText
 10
-148.0739438025711
 20
12.61970453137878
 30
0.0
 40
25.00000000000055
  1
本
 72
     4
 11
-136.4072771359042
 21
25.11970453137906
 31
0.0
100
AcDbText
  0
TEXT
  5
2CF6
330
2CEA
100
AcDbEntity
  8
0
100
AcDbText
 10
-149.6579256020749
 20
78.94268286062782
 30
0.0
 40
25.00000000000055
  1
松
 72
     4
 11
-137.991258935408
 21
91.44268286062811
 31
0.0
100
AcDbText
  0
INSERT
  5
2CF7
330
2CEA
100
AcDbEntity
  8
0
100
AcDbBlockReference
  2
NAKAMURA
 10
115.1974641699153
 20
199.1799631443262
 30
0.0
 41
8.695652172000336
 42
8.695652172000336
 43
8.695652172
  0
TEXT
  5
2CF8
330
2CEA
100
AcDbEntity
  8
TEXT
100
AcDbText
 10
71.51883120361208
 20
186.1364848863254
 30
0.0
 40
26.086956516
  1
05.07.20
 41
0.6972296058015833
 72
     5
 11
156.110135532836
 21
186.1364848863254
 31
0.0
100
AcDbText
  0
ENDBLK
  5
2CFB
330
2CEA
100
AcDbEntity
  8
0
100
AcDbBlockEnd
  0
BLOCK
  5
2E37
330
2E36
100
AcDbEntity
  8
0
100
AcDbBlockBegin
  2
GENDOT
 70
     0
 10
0.0
 20
0.0
 30
0.0
  3
GENDOT
  1

  0
LINE
  5
2E38
330
2E36
100
AcDbEntity
  8
0
100
AcDbLine
 10
0.0
 20
0.0
 30
0.0
 11
-1.0
 21
0.0
 31
0.0
  0
LWPOLYLINE
  5
2E39
330
2E36
100
AcDbEntity
  8
0
100
AcDbPolyline
 90
        2
 70
     1
 43
0.25
 10
-0.125
 20
0.0
 42
1.0
 10
0.125
 20
0.0
 42
1.0
  0
ENDBLK
  5
2E3A
330
2E36
100
AcDbEntity
  8
0
100
AcDbBlockEnd
  0
BLOCK
  5
2E70
330
2E6F
100
AcDbEntity
  8
0
100
AcDbBlockBegin
  2
GENZOOGP67FD4
 70
     0
 10
0.0
 20
0.0
 30
0.0
  3
GENZOOGP67FD4
  1

  0
HATCH
  5
2E71
330
2E6F
100
AcDbEntity
  8
AM_4
100
AcDbHatch
 10
0.0
 20
0.0
 30
0.0
210
0.0
220
0.0
230
1.0
  2
LINE
 70
     0
 71
     0
 91
        1
 92
        1
 93
        7
 72
     1
 10
41.53140241784785
 20
-2.318036567782655
 11
41.53140241784785
 21
12.68196343221734
 72
     1
 10
41.53140241784785
 20
12.68196343221734
 11
-0.1280093540717644
 21
12.68196343221734
 72
     1
 10
-0.1280093540717644
 20
12.68196343221734
 11
-30.12800935407176
 21
12.68196343221734
 72
     1
 10
-30.12800935407176
 20
12.68196343221734
 11
-28.62800935407177
 21
-7.318036567782655
 72
     1
 10
-28.62800935407177
 20
-7.318036567782655
 11
-1.628009354071764
 21
-7.318036567782883
 72
     1
 10
-1.628009354071764
 20
-7.318036567782883
 11
-1.253009354071764
 21
-2.318036567782655
 72
     1
 10
-1.253009354071764
 20
-2.318036567782655
 11
41.53140241784785
 21
-2.318036567782655
 97
        0
 75
     0
 76
     1
 52
45.0
 41
1.0
 77
     0
 78
     1
 53
45.0
 43
-4339.483905316103
 44
-1617.260011402769
 45
-2.245064030267287
 46
2.245064030267288
 79
     0
 98
        1
 10
-4339.483905316103
 20
-1617.260011402769
  0
LINE
  5
2E72
330
2E6F
100
AcDbEntity
  8
AM_3
100
AcDbLine
 10
-1.253009354071764
 20
-2.318036567782655
 30
0.0
 11
-0.1280093540717644
 21
12.68196343221734
 31
0.0
1001
GENIUS_GENREC_14
1002
{
1000
PYDIR
1011
-30.12800935407176
1021
12.68196343221734
1031
0.0
1002
}
1002
{
1000
PXDIR
1011
-1.628009354071764
1021
-7.318036567782655
1031
0.0
1002
}
1002
{
1000
PORI
1011
-28.62800935407177
1021
-7.318036567782655
1031
0.0
1002
}
1002
{
1000
PINS
1011
-15.12800935407176
1021
-7.318036567782655
1031
0.0
1002
}
1002
{
1000
HVAL
1000
20
1002
}
1002
{
1000
H
1070
     2
1002
}
1002
{
1000
WVAL
1000
30
1002
}
1002
{
1000
W
1070
     2
1002
}
1002
{
1000
C
1070
     2
1002
}
1001
GENIUS_GENOBJ-N-REC_13
1002
{
1000
OWNER
1000
GEN
1002
}
1001
GENIUS_GENODEF_13
1002
{
1000
HIER
1070
     0
1002
}
1002
{
1000
MANEDIT
1070
     0
1002
}
1002
{
1000
NOSEL
1070
     0
1002
}
1002
{
1000
BEHIND
1070
     0
1002
}
1002
{
1000
OTHER
1070
     0
1002
}
1002
{
1000
REACTOR
1002
}
  0
LINE
  5
2E73
330
2E6F
100
AcDbEntity
  8
AM_0
100
AcDbLine
 10
-1.253009354071764
 20
-2.318036567782655
 30
0.0
 11
41.53140241784785
 21
-2.318036567782655
 31
0.0
  0
LINE
  5
2E74
330
2E6F
100
AcDbEntity
  8
AM_0
100
AcDbLine
 10
-0.1280093540717644
 20
12.68196343221734
 30
0.0
 11
41.53140241784785
 21
12.68196343221734
 31
0.0
  0
LINE
  5
2E75
330
2E6F
100
AcDbEntity
  8
AM_0
100
AcDbLine
 10
-30.12800935407176
 20
12.68196343221734
 30
0.0
 11
-28.62800935407177
 21
-7.318036567782655
 31
0.0
1001
GENIUS_GENREC_14
1002
{
1000
PYDIR
1011
-30.12800935407176
1021
12.68196343221734
1031
0.0
1002
}
1002
{
1000
PXDIR
1011
-1.628009354071764
1021
-7.318036567782655
1031
0.0
1002
}
1002
{
1000
PORI
1011
-28.62800935407177
1021
-7.318036567782655
1031
0.0
1002
}
1002
{
1000
PINS
1011
-15.12800935407176
1021
-7.318036567782655
1031
0.0
1002
}
1002
{
1000
HVAL
1000
20
1002
}
1002
{
1000
H
1070
     2
1002
}
1002
{
1000
WVAL
1000
30
1002
}
1002
{
1000
W
1070
     2
1002
}
1002
{
1000
C
1070
     2
1002
}
1001
GENIUS_GENOBJ-N-REC_13
1002
{
1000
OWNER
1000
GEN
1002
}
1001
GENIUS_GENODEF_13
1002
{
1000
HIER
1070
     0
1002
}
1002
{
1000
MANEDIT
1070
     0
1002
}
1002
{
1000
NOSEL
1070
     0
1002
}
1002
{
1000
BEHIND
1070
     0
1002
}
1002
{
1000
OTHER
1070
     0
1002
}
1002
{
1000
REACTOR
1002
}
  0
LINE
  5
2E76
330
2E6F
100
AcDbEntity
  8
AM_0
100
AcDbLine
 10
-0.1280093540717644
 20
12.68196343221734
 30
0.0
 11
-30.12800935407176
 21
12.68196343221734
 31
0.0
1001
GENIUS_GENREC_14
1002
{
1000
PYDIR
1011
-30.12800935407176
1021
12.68196343221734
1031
0.0
1002
}
1002
{
1000
PXDIR
1011
-1.628009354071764
1021
-7.318036567782655
1031
0.0
1002
}
1002
{
1000
PORI
1011
-28.62800935407177
1021
-7.318036567782655
1031
0.0
1002
}
1002
{
1000
PINS
1011
-15.12800935407176
1021
-7.318036567782655
1031
0.0
1002
}
1002
{
1000
HVAL
1000
20
1002
}
1002
{
1000
H
1070
     2
1002
}
1002
{
1000
WVAL
1000
30
1002
}
1002
{
1000
W
1070
     2
1002
}
1002
{
1000
C
1070
     2
1002
}
1001
GENIUS_GENOBJ-N-REC_13
1002
{
1000
OWNER
1000
GEN
1002
}
1001
GENIUS_GENODEF_13
1002
{
1000
HIER
1070
     0
1002
}
1002
{
1000
MANEDIT
1070
     0
1002
}
1002
{
1000
NOSEL
1070
     0
1002
}
1002
{
1000
BEHIND
1070
     0
1002
}
1002
{
1000
OTHER
1070
     0
1002
}
1002
{
1000
REACTOR
1002
}
  0
LINE
  5
2E77
330
2E6F
100
AcDbEntity
  8
AM_0
100
AcDbLine
 10
-1.628009354071764
 20
-7.318036567782655
 30
0.0
 11
-1.253009354071764
 21
-2.318036567782655
 31
0.0
1001
GENIUS_GENREC_14
1002
{
1000
PYDIR
1011
-30.12800935407176
1021
12.68196343221734
1031
0.0
1002
}
1002
{
1000
PXDIR
1011
-1.628009354071764
1021
-7.318036567782655
1031
0.0
1002
}
1002
{
1000
PORI
1011
-28.62800935407177
1021
-7.318036567782655
1031
0.0
1002
}
1002
{
1000
PINS
1011
-15.12800935407176
1021
-7.318036567782655
1031
0.0
1002
}
1002
{
1000
HVAL
1000
20
1002
}
1002
{
1000
H
1070
     2
1002
}
1002
{
1000
WVAL
1000
30
1002
}
1002
{
1000
W
1070
     2
1002
}
1002
{
1000
C
1070
     2
1002
}
1001
GENIUS_GENOBJ-N-REC_13
1002
{
1000
OWNER
1000
GEN
1002
}
1001
GENIUS_GENODEF_13
1002
{
1000
HIER
1070
     0
1002
}
1002
{
1000
MANEDIT
1070
     0
1002
}
1002
{
1000
NOSEL
1070
     0
1002
}
1002
{
1000
BEHIND
1070
     0
1002
}
1002
{
1000
OTHER
1070
     0
1002
}
1002
{
1000
REACTOR
1002
}
  0
LINE
  5
2E78
330
2E6F
100
AcDbEntity
  8
AM_0
100
AcDbLine
 10
-28.62800935407177
 20
-7.318036567782655
 30
0.0
 11
-1.628009354071764
 21
-7.318036567782655
 31
0.0
1001
GENIUS_GENREC_14
1002
{
1000
PYDIR
1011
-30.12800935407176
1021
12.68196343221734
1031
0.0
1002
}
1002
{
1000
PXDIR
1011
-1.628009354071764
1021
-7.318036567782655
1031
0.0
1002
}
1002
{
1000
PORI
1011
-28.62800935407177
1021
-7.318036567782655
1031
0.0
1002
}
1002
{
1000
PINS
1011
-15.12800935407176
1021
-7.318036567782655
1031
0.0
1002
}
1002
{
1000
HVAL
1000
20
1002
}
1002
{
1000
H
1070
     2
1002
}
1002
{
1000
WVAL
1000
30
1002
}
1002
{
1000
W
1070
     2
1002
}
1002
{
1000
C
1070
     2
1002
}
1001
GENIUS_GENOBJ-N-REC_13
1002
{
1000
OWNER
1000
GEN
1002
}
1001
GENIUS_GENODEF_13
1002
{
1000
HIER
1070
     0
1002
}
1002
{
1000
MANEDIT
1070
     0
1002
}
1002
{
1000
NOSEL
1070
     0
1002
}
1002
{
1000
BEHIND
1070
     0
1002
}
1002
{
1000
OTHER
1070
     0
1002
}
1002
{
1000
REACTOR
1002
}
  0
ENDBLK
  5
2E79
330
2E6F
100
AcDbEntity
  8
0
100
AcDbBlockEnd
  0
BLOCK
  5
2EA1
330
2EA0
100
AcDbEntity
  8
0
100
AcDbBlockBegin
  2
Y3sec
 70
     2
 10
0.0
 20
0.0
 30
0.0
  3
Y3sec
  1

  0
ATTDEF
  5
2EA2
330
2EA0
100
AcDbEntity
  8
0
  6
Continuous
 62
     7
100
AcDbText
 10
2.0
 20
4.999999999999985
 30
0.0
 40
3.2
  1

 41
1.199999999999999
  7
MSG
 72
     4
 11
2.0
 21
4.999999999999985
 31
0.0
100
AcDbAttributeDefinition
  3
MARK
  2
Y3SEC
 70
     0
  0
CIRCLE
  5
2EA3
330
2EA0
100
AcDbEntity
  8
0
  6
Continuous
 62
     7
100
AcDbCircle
 10
2.0
 20
4.999999999999985
 30
0.0
 40
4.0
  0
LINE
  5
2EA4
330
2EA0
100
AcDbEntity
  8
0
  6
Continuous
 62
     7
100
AcDbLine
 10
4.0
 20
0.0
 30
0.0
 11
0.0
 21
0.0
 31
0.0
  0
LINE
  5
2EA5
330
2EA0
100
AcDbEntity
  8
0
  6
Continuous
 62
     7
100
AcDbLine
 10
0.0
 20
0.0
 30
0.0
 11
0.0
 21
-5.0
 31
0.0
  0
LINE
  5
2EA6
330
2EA0
100
AcDbEntity
  8
0
  6
Continuous
 62
     7
100
AcDbLine
 10
4.0
 20
0.0
 30
0.0
 11
0.0
 21
-2.0
 31
0.0
  0
SOLID
  5
2EA7
330
2EA0
100
AcDbEntity
  8
0
  6
Continuous
 62
     7
100
AcDbTrace
 10
0.0
 20
-2.0
 30
0.0
 11
0.0
 21
0.0
 31
0.0
 12
4.0
 22
0.0
 32
0.0
 13
4.0
 23
0.0
 33
0.0
  0
ENDBLK
  5
2EA8
330
2EA0
100
AcDbEntity
  8
0
100
AcDbBlockEnd
  0
BLOCK
  5
2EAA
330
2EA9
100
AcDbEntity
  8
0
100
AcDbBlockBegin
  2
Y2sec
 70
     2
 10
0.0
 20
0.0
 30
0.0
  3
Y2sec
  1

  0
SOLID
  5
2EAB
330
2EA9
100
AcDbEntity
  8
0
  6
Continuous
 62
     7
100
AcDbTrace
 10
0.0
 20
2.0
 30
0.0
 11
0.0
 21
0.0
 31
0.0
 12
4.0
 22
0.0
 32
0.0
 13
4.0
 23
0.0
 33
0.0
  0
LINE
  5
2EAC
330
2EA9
100
AcDbEntity
  8
0
  6
Continuous
 62
     7
100
AcDbLine
 10
4.0
 20
0.0
 30
0.0
 11
0.0
 21
2.0
 31
0.0
  0
LINE
  5
2EAD
330
2EA9
100
AcDbEntity
  8
0
  6
Continuous
 62
     7
100
AcDbLine
 10
0.0
 20
0.0
 30
0.0
 11
0.0
 21
5.0
 31
0.0
  0
LINE
  5
2EAE
330
2EA9
100
AcDbEntity
  8
0
  6
Continuous
 62
     7
100
AcDbLine
 10
4.0
 20
0.0
 30
0.0
 11
0.0
 21
0.0
 31
0.0
  0
CIRCLE
  5
2EAF
330
2EA9
100
AcDbEntity
  8
0
  6
Continuous
 62
     7
100
AcDbCircle
 10
2.0
 20
-5.0
 30
0.0
 40
4.0
  0
ATTDEF
  5
2EB0
330
2EA9
100
AcDbEntity
  8
0
  6
Continuous
 62
     7
100
AcDbText
 10
2.0
 20
-5.0
 30
0.0
 40
3.2
  1

 41
1.199999999999999
  7
MSG
 72
     4
 11
2.0
 21
-5.0
 31
0.0
100
AcDbAttributeDefinition
  3
MARK
  2
Y2SEC
 70
     0
  0
ENDBLK
  5
2EB1
330
2EA9
100
AcDbEntity
  8
0
100
AcDbBlockEnd
  0
BLOCK
  5
2EB3
330
2EB2
100
AcDbEntity
  8
0
100
AcDbBlockBegin
  2
Y1sec
 70
     2
 10
0.0
 20
0.0
 30
0.0
  3
Y1sec
  1

  0
ATTDEF
  5
2EB4
330
2EB2
100
AcDbEntity
  8
0
  6
Continuous
 62
     7
100
AcDbText
 10
-2.0
 20
3.399999999999985
 30
0.0
 40
3.2
  1

 41
1.199999999999999
  7
MSG
 72
     1
 11
-2.0
 21
4.999999999999985
 31
0.0
100
AcDbAttributeDefinition
  3
MARK
  2
Y1SEC
 70
     0
 74
     2
  0
LINE
  5
2EB5
330
2EB2
100
AcDbEntity
  8
0
  6
Continuous
 62
     7
100
AcDbLine
 10
-4.0
 20
0.0
 30
0.0
 11
0.0
 21
-2.0
 31
0.0
  0
LINE
  5
2EB6
330
2EB2
100
AcDbEntity
  8
0
  6
Continuous
 62
     7
100
AcDbLine
 10
0.0
 20
0.0
 30
0.0
 11
0.0
 21
-5.0
 31
0.0
  0
LINE
  5
2EB7
330
2EB2
100
AcDbEntity
  8
0
  6
Continuous
 62
     7
100
AcDbLine
 10
-4.0
 20
0.0
 30
0.0
 11
0.0
 21
0.0
 31
0.0
  0
CIRCLE
  5
2EB8
330
2EB2
100
AcDbEntity
  8
0
  6
Continuous
 62
     7
100
AcDbCircle
 10
-2.0
 20
4.999999999999985
 30
0.0
 40
4.0
  0
SOLID
  5
2EB9
330
2EB2
100
AcDbEntity
  8
0
  6
Continuous
 62
     7
100
AcDbTrace
 10
-4.0
 20
0.0
 30
0.0
 11
0.0
 21
0.0
 31
0.0
 12
0.0
 22
-2.0
 32
0.0
 13
0.0
 23
-2.0
 33
0.0
  0
ENDBLK
  5
2EBA
330
2EB2
100
AcDbEntity
  8
0
100
AcDbBlockEnd
  0
BLOCK
  5
2EBC
330
2EBB
100
AcDbEntity
  8
0
100
AcDbBlockBegin
  2
Ysec
 70
     2
 10
0.0
 20
0.0
 30
0.0
  3
Ysec
  1

  0
SOLID
  5
2EBD
330
2EBB
100
AcDbEntity
  8
0
  6
Continuous
 62
     7
100
AcDbTrace
 10
-4.0
 20
0.0
 30
0.0
 11
0.0
 21
0.0
 31
0.0
 12
0.0
 22
2.0
 32
0.0
 13
0.0
 23
2.0
 33
0.0
  0
ATTDEF
  5
2EBE
330
2EBB
100
AcDbEntity
  8
0
  6
Continuous
 62
     7
100
AcDbText
 10
-2.0
 20
-6.599999999999999
 30
0.0
 40
3.2
  1

 41
1.199999999999999
  7
MSG
 72
     1
 11
-2.0
 21
-5.0
 31
0.0
100
AcDbAttributeDefinition
  3
MARK
  2
YSEC
 70
     0
 74
     2
  0
CIRCLE
  5
2EBF
330
2EBB
100
AcDbEntity
  8
0
  6
Continuous
 62
     7
100
AcDbCircle
 10
-2.0
 20
-5.0
 30
0.0
 40
4.0
  0
LINE
  5
2EC0
330
2EBB
100
AcDbEntity
  8
0
  6
Continuous
 62
     7
100
AcDbLine
 10
-4.0
 20
0.0
 30
0.0
 11
0.0
 21
0.0
 31
0.0
  0
LINE
  5
2EC1
330
2EBB
100
AcDbEntity
  8
0
  6
Continuous
 62
     7
100
AcDbLine
 10
0.0
 20
0.0
 30
0.0
 11
0.0
 21
5.0
 31
0.0
  0
LINE
  5
2EC2
330
2EBB
100
AcDbEntity
  8
0
  6
Continuous
 62
     7
100
AcDbLine
 10
-4.0
 20
0.0
 30
0.0
 11
0.0
 21
2.0
 31
0.0
  0
ENDBLK
  5
2EC3
330
2EBB
100
AcDbEntity
  8
0
100
AcDbBlockEnd
  0
BLOCK
  5
2EC5
330
2EC4
100
AcDbEntity
  8
0
100
AcDbBlockBegin
  2
X1sec
 70
     2
 10
0.0
 20
0.0
 30
0.0
  3
X1sec
  1

  0
ATTDEF
  5
2EC6
330
2EC4
100
AcDbEntity
  8
0
  6
Continuous
 62
     7
100
AcDbText
 10
-5.0
 20
-1.999999999999943
 30
0.0
 40
3.2
  1

 41
1.199999999999999
  7
MSG
 72
     4
 11
-5.0
 21
-1.999999999999943
 31
0.0
100
AcDbAttributeDefinition
  3
MARK
  2
X1SEC
 70
     0
  0
CIRCLE
  5
2EC7
330
2EC4
100
AcDbEntity
  8
0
  6
Continuous
 62
     7
100
AcDbCircle
 10
-5.0
 20
-2.0
 30
0.0
 40
4.0
  0
LINE
  5
2EC8
330
2EC4
100
AcDbEntity
  8
0
  6
Continuous
 62
     7
100
AcDbLine
 10
0.0
 20
-4.0
 30
0.0
 11
0.0
 21
0.0
 31
0.0
  0
LINE
  5
2EC9
330
2EC4
100
AcDbEntity
  8
0
  6
Continuous
 62
     7
100
AcDbLine
 10
0.0
 20
-4.0
 30
0.0
 11
2.0
 21
0.0
 31
0.0
  0
SOLID
  5
2ECA
330
2EC4
100
AcDbEntity
  8
0
  6
Continuous
 62
     7
100
AcDbTrace
 10
2.0
 20
0.0
 30
0.0
 11
0.0
 21
0.0
 31
0.0
 12
0.0
 22
-4.0
 32
0.0
 13
0.0
 23
-4.0
 33
0.0
  0
LINE
  5
2ECB
330
2EC4
100
AcDbEntity
  8
0
  6
Continuous
 62
     7
100
AcDbLine
 10
0.0
 20
0.0
 30
0.0
 11
5.0
 21
0.0
 31
0.0
  0
ENDBLK
  5
2ECC
330
2EC4
100
AcDbEntity
  8
0
100
AcDbBlockEnd
  0
BLOCK
  5
2ECE
330
2ECD
100
AcDbEntity
  8
0
100
AcDbBlockBegin
  2
Xsec
 70
     2
 10
0.0
 20
0.0
 30
0.0
  3
Xsec
  1

  0
SOLID
  5
2ECF
330
2ECD
100
AcDbEntity
  8
0
  6
Continuous
 62
     7
100
AcDbTrace
 10
-2.0
 20
0.0
 30
0.0
 11
0.0
 21
0.0
 31
0.0
 12
0.0
 22
-4.0
 32
0.0
 13
0.0
 23
-4.0
 33
0.0
  0
LINE
  5
2ED0
330
2ECD
100
AcDbEntity
  8
0
  6
Continuous
 62
     7
100
AcDbLine
 10
0.0
 20
-4.0
 30
0.0
 11
-2.0
 21
0.0
 31
0.0
  0
LINE
  5
2ED1
330
2ECD
100
AcDbEntity
  8
0
  6
Continuous
 62
     7
100
AcDbLine
 10
0.0
 20
0.0
 30
0.0
 11
-5.0
 21
0.0
 31
0.0
  0
LINE
  5
2ED2
330
2ECD
100
AcDbEntity
  8
0
  6
Continuous
 62
     7
100
AcDbLine
 10
0.0
 20
-4.0
 30
0.0
 11
0.0
 21
0.0
 31
0.0
  0
CIRCLE
  5
2ED3
330
2ECD
100
AcDbEntity
  8
0
  6
Continuous
 62
     7
100
AcDbCircle
 10
5.0
 20
-2.0
 30
0.0
 40
4.0
  0
ATTDEF
  5
2ED4
330
2ECD
100
AcDbEntity
  8
0
  6
Continuous
 62
     7
100
AcDbText
 10
5.0
 20
-1.999999999999943
 30
0.0
 40
3.2
  1

 41
1.199999999999999
  7
MSG
 72
     4
 11
5.0
 21
-1.999999999999943
 31
0.0
100
AcDbAttributeDefinition
  3
MARK
  2
XSEC
 70
     0
  0
ENDBLK
  5
2ED5
330
2ECD
100
AcDbEntity
  8
0
100
AcDbBlockEnd
  0
BLOCK
  5
2ED7
330
2ED6
100
AcDbEntity
  8
0
100
AcDbBlockBegin
  2
X3sec
 70
     2
 10
0.0
 20
0.0
 30
0.0
  3
X3sec
  1

  0
ATTDEF
  5
2ED8
330
2ED6
100
AcDbEntity
  8
0
  6
Continuous
 62
     7
100
AcDbText
 10
-5.0
 20
2.000000000000056
 30
0.0
 40
3.2
  1

 41
1.199999999999999
  7
MSG
 72
     4
 11
-5.0
 21
2.000000000000056
 31
0.0
100
AcDbAttributeDefinition
  3
MARK
  2
X3SEC
 70
     0
  0
LINE
  5
2ED9
330
2ED6
100
AcDbEntity
  8
0
  6
Continuous
 62
     7
100
AcDbLine
 10
0.0
 20
4.0
 30
0.0
 11
2.0
 21
0.0
 31
0.0
  0
LINE
  5
2EDA
330
2ED6
100
AcDbEntity
  8
0
  6
Continuous
 62
     7
100
AcDbLine
 10
0.0
 20
0.0
 30
0.0
 11
5.0
 21
0.0
 31
0.0
  0
LINE
  5
2EDB
330
2ED6
100
AcDbEntity
  8
0
  6
Continuous
 62
     7
100
AcDbLine
 10
0.0
 20
4.0
 30
0.0
 11
0.0
 21
0.0
 31
0.0
  0
CIRCLE
  5
2EDC
330
2ED6
100
AcDbEntity
  8
0
  6
Continuous
 62
     7
100
AcDbCircle
 10
-5.0
 20
2.0
 30
0.0
 40
4.0
  0
SOLID
  5
2EDD
330
2ED6
100
AcDbEntity
  8
0
  6
Continuous
 62
     7
100
AcDbTrace
 10
0.0
 20
4.0
 30
0.0
 11
0.0
 21
0.0
 31
0.0
 12
2.0
 22
0.0
 32
0.0
 13
2.0
 23
0.0
 33
0.0
  0
ENDBLK
  5
2EDE
330
2ED6
100
AcDbEntity
  8
0
100
AcDbBlockEnd
  0
BLOCK
  5
2EE0
330
2EDF
100
AcDbEntity
  8
0
100
AcDbBlockBegin
  2
X2sec
 70
     2
 10
0.0
 20
0.0
 30
0.0
  3
X2sec
  1

  0
SOLID
  5
2EE1
330
2EDF
100
AcDbEntity
  8
0
  6
Continuous
 62
     7
100
AcDbTrace
 10
0.0
 20
4.0
 30
0.0
 11
0.0
 21
0.0
 31
0.0
 12
-2.0
 22
0.0
 32
0.0
 13
-2.0
 23
0.0
 33
0.0
  0
LINE
  5
2EE2
330
2EDF
100
AcDbEntity
  8
0
  6
Continuous
 62
     7
100
AcDbLine
 10
0.0
 20
4.0
 30
0.0
 11
0.0
 21
0.0
 31
0.0
  0
LINE
  5
2EE3
330
2EDF
100
AcDbEntity
  8
0
  6
Continuous
 62
     7
100
AcDbLine
 10
0.0
 20
4.0
 30
0.0
 11
-2.0
 21
0.0
 31
0.0
  0
ATTDEF
  5
2EE4
330
2EDF
100
AcDbEntity
  8
0
  6
Continuous
 62
     7
100
AcDbText
 10
5.0
 20
2.000000000000056
 30
0.0
 40
3.2
  1

 41
1.199999999999999
  7
MSG
 72
     4
 11
5.0
 21
2.000000000000056
 31
0.0
100
AcDbAttributeDefinition
  3
MARK
  2
X2SEC
 70
     0
  0
CIRCLE
  5
2EE5
330
2EDF
100
AcDbEntity
  8
0
  6
Continuous
 62
     7
100
AcDbCircle
 10
5.0
 20
2.0
 30
0.0
 40
4.0
  0
LINE
  5
2EE6
330
2EDF
100
AcDbEntity
  8
0
  6
Continuous
 62
     7
100
AcDbLine
 10
0.0
 20
0.0
 30
0.0
 11
-5.0
 21
0.0
 31
0.0
  0
ENDBLK
  5
2EE7
330
2EDF
100
AcDbEntity
  8
0
100
AcDbBlockEnd
  0
BLOCK
  5
360A
330
35F3
100
AcDbEntity
  8
0
100
AcDbBlockBegin
  2
*D95
 70
     1
 10
0.0
 20
0.0
 30
0.0
  3
*D95
  1

  0
LINE
  5
36D3
330
35F3
100
AcDbEntity
  8
AM_5
100
AcDbLine
 10
1444.407739507612
 20
1817.940150773961
 30
0.0
 11
1442.638502247568
 21
1817.447931892088
 31
0.0
  0
LINE
  5
36D4
330
35F3
100
AcDbEntity
  8
AM_5
100
AcDbLine
 10
1438.779107206435
 20
1838.171772024325
 30
0.0
 11
1437.00986994639
 21
1837.679553142452
 31
0.0
  0
LINE
  5
36D5
330
35F3
100
AcDbEntity
  8
AM_5
100
AcDbLine
 10
1458.97336034438
 20
1796.042969594597
 30
0.0
 11
1465.674113083877
 21
1771.957706201307
 31
0.0
  0
LINE
  5
36D6
330
35F3
100
AcDbEntity
  8
AM_5
100
AcDbLine
 10
1439.94322256421
 20
1864.445117631539
 30
0.0
 11
1433.242469824713
 21
1888.530381024829
 31
0.0
  0
MTEXT
  5
36D7
330
35F3
100
AcDbEntity
  8
AM_5
 62
     2
100
AcDbMText
 10
1405.665799335439
 20
1876.893077075029
 30
0.0
 40
30.0
 41
0.0
 71
     5
 72
     1
  1
約21
 11
0.2680301095798619
 21
-0.9634105357315785
 31
0.0
 73
     1
 44
1.0
1001
ACAD
1000
MTEXTBEGIN
1070
    73
1070
     1
1070
    44
1040
1.0
1070
    74
1070
     0
1000
MTEXTEND
  0
LINE
  5
36D8
330
35F3
100
AcDbEntity
  8
AM_5
100
AcDbLine
 10
1452.272607604883
 20
1820.128232987886
 30
0.0
 11
1446.643975303706
 21
1840.359854238251
 31
0.0
  0
INSERT
  5
36D9
330
35F3
100
AcDbEntity
  8
AM_5
100
AcDbBlockReference
  2
_Open30
 10
1452.272607604883
 20
1820.128232987886
 30
0.0
 41
25.0
 42
25.0
 43
25.0
 50
105.5470804573945
  0
INSERT
  5
36DA
330
35F3
100
AcDbEntity
  8
AM_5
100
AcDbBlockReference
  2
_Open30
 10
1446.643975303706
 20
1840.359854238251
 30
0.0
 41
25.0
 42
25.0
 43
25.0
 50
285.5470804573945
  0
POINT
  5
36DB
330
35F3
100
AcDbEntity
  8
DEFPOINTS
 62
     0
100
AcDbPoint
 10
1454.041844864928
 20
1820.62045186976
 30
0.0
  0
POINT
  5
36DC
330
35F3
100
AcDbEntity
  8
DEFPOINTS
 62
     0
100
AcDbPoint
 10
1448.413212563751
 20
1840.852073120123
 30
0.0
  0
POINT
  5
36DD
330
35F3
100
AcDbEntity
  8
DEFPOINTS
 62
     0
100
AcDbPoint
 10
1446.643975303706
 20
1840.359854238251
 30
0.0
  0
ENDBLK
  5
360B
330
35F3
100
AcDbEntity
  8
0
100
AcDbBlockEnd
  0
BLOCK
  5
3766
330
371D
100
AcDbEntity
  8
0
100
AcDbBlockBegin
  2
*D96
 70
     1
 10
0.0
 20
0.0
 30
0.0
  3
*D96
  1

  0
LINE
  5
388F
330
371D
100
AcDbEntity
  8
AM_5
100
AcDbLine
 10
3163.147852876842
 20
964.6821748149683
 30
0.0
 11
3163.147852876842
 21
672.5590677563319
 31
0.0
  0
LINE
  5
3890
330
371D
100
AcDbEntity
  8
AM_5
100
AcDbLine
 10
3183.147852876842
 20
964.6821748149683
 30
0.0
 11
3183.147852876842
 21
672.5590677563319
 31
0.0
  0
LINE
  5
3891
330
371D
100
AcDbEntity
  8
AM_5
100
AcDbLine
 10
3138.147852876842
 20
682.5590677563319
 30
0.0
 11
3113.147852876843
 21
682.5590677563319
 31
0.0
  0
LINE
  5
3892
330
371D
100
AcDbEntity
  8
AM_5
100
AcDbLine
 10
3208.147852876842
 20
682.5590677563319
 30
0.0
 11
3233.147852876842
 21
682.5590677563319
 31
0.0
  0
LINE
  5
3893
330
371D
100
AcDbEntity
  8
AM_5
100
AcDbLine
 10
3163.147852876842
 20
682.5590677563319
 30
0.0
 11
3183.147852876842
 21
682.5590677563319
 31
0.0
  0
INSERT
  5
3894
330
371D
100
AcDbEntity
  8
AM_5
100
AcDbBlockReference
  2
GENDOT
 10
3163.147852876842
 20
682.5590677563319
 30
0.0
 41
25.0
 42
25.0
 43
25.0
  0
INSERT
  5
3895
330
371D
100
AcDbEntity
  8
AM_5
100
AcDbBlockReference
  2
_Open30
 10
3183.147852876842
 20
682.5590677563319
 30
0.0
 41
25.0
 42
25.0
 43
25.0
 50
180.0
  0
MTEXT
  5
3896
330
371D
100
AcDbEntity
  8
AM_5
 62
     2
100
AcDbMText
 10
3173.147852876842
 20
712.5620205122374
 30
0.0
 40
30.0
 41
0.0
 71
     5
 72
     1
  1
20
 73
     1
 44
1.0
1001
ACAD
1000
MTEXTBEGIN
1070
    73
1070
     1
1070
    44
1040
1.0
1070
    74
1070
     0
1000
MTEXTEND
  0
POINT
  5
3897
330
371D
100
AcDbEntity
  8
DEFPOINTS
 62
     0
100
AcDbPoint
 10
3163.147852876842
 20
974.6821748149683
 30
0.0
  0
POINT
  5
3898
330
371D
100
AcDbEntity
  8
DEFPOINTS
 62
     0
100
AcDbPoint
 10
3183.147852876842
 20
974.6821748149683
 30
0.0
  0
POINT
  5
3899
330
371D
100
AcDbEntity
  8
DEFPOINTS
 62
     0
100
AcDbPoint
 10
3183.147852876842
 20
682.5590677563319
 30
0.0
  0
ENDBLK
  5
3767
330
371D
100
AcDbEntity
  8
0
100
AcDbBlockEnd
  0
BLOCK
  5
3768
330
3729
100
AcDbEntity
  8
0
100
AcDbBlockBegin
  2
*D97
 70
     1
 10
0.0
 20
0.0
 30
0.0
  3
*D97
  1

  0
LINE
  5
389A
330
3729
100
AcDbEntity
  8
AM_5
100
AcDbLine
 10
3158.147852876842
 20
979.6821748149685
 30
0.0
 11
3158.147852876842
 21
672.5590677563319
 31
0.0
  0
LINE
  5
389B
330
3729
100
AcDbEntity
  8
AM_5
100
AcDbLine
 10
3163.147852876842
 20
964.6821748149683
 30
0.0
 11
3163.147852876842
 21
672.5590677563319
 31
0.0
  0
LINE
  5
389C
330
3729
100
AcDbEntity
  8
AM_5
100
AcDbLine
 10
3133.147852876842
 20
682.5590677563319
 30
0.0
 11
3108.147852876842
 21
682.5590677563319
 31
0.0
  0
LINE
  5
389D
330
3729
100
AcDbEntity
  8
AM_5
100
AcDbLine
 10
3188.147852876842
 20
682.5590677563319
 30
0.0
 11
3213.147852876842
 21
682.5590677563319
 31
0.0
  0
LINE
  5
389E
330
3729
100
AcDbEntity
  8
AM_5
100
AcDbLine
 10
3054.369326399074
 20
682.5590677563319
 30
0.0
 11
3158.147852876842
 21
682.5590677563319
 31
0.0
  0
MTEXT
  5
389F
330
3729
100
AcDbEntity
  8
AM_5
 62
     2
100
AcDbMText
 10
3075.990646742634
 20
712.5590677563319
 30
0.0
 40
30.0
 41
0.0
 71
     5
 72
     1
  1
5
 73
     1
 44
1.0
1001
ACAD
1000
MTEXTBEGIN
1070
    73
1070
     1
1070
    44
1040
1.0
1070
    74
1070
     0
1000
MTEXTEND
  0
LINE
  5
38A0
330
3729
100
AcDbEntity
  8
AM_5
100
AcDbLine
 10
3158.147852876842
 20
682.5590677563319
 30
0.0
 11
3163.147852876842
 21
682.5590677563319
 31
0.0
  0
LINE
  5
38A1
330
3729
100
AcDbEntity
  8
AM_5
100
AcDbLine
 10
3158.147852876842
 20
682.5590677563319
 30
0.0
 11
3163.147852876842
 21
682.5590677563319
 31
0.0
  0
INSERT
  5
38A2
330
3729
100
AcDbEntity
  8
AM_5
100
AcDbBlockReference
  2
_Open30
 10
3158.147852876842
 20
682.5590677563319
 30
0.0
 41
25.0
 42
25.0
 43
25.0
  0
INSERT
  5
38A3
330
3729
100
AcDbEntity
  8
AM_5
100
AcDbBlockReference
  2
GENDOT
 10
3163.147852876842
 20
682.5590677563319
 30
0.0
 41
25.0
 42
25.0
 43
25.0
 50
180.0
  0
POINT
  5
38A4
330
3729
100
AcDbEntity
  8
DEFPOINTS
 62
     0
100
AcDbPoint
 10
3158.147852876842
 20
989.6821748149685
 30
0.0
  0
POINT
  5
38A5
330
3729
100
AcDbEntity
  8
DEFPOINTS
 62
     0
100
AcDbPoint
 10
3163.147852876842
 20
974.6821748149683
 30
0.0
  0
POINT
  5
38A6
330
3729
100
AcDbEntity
  8
DEFPOINTS
 62
     0
100
AcDbPoint
 10
3163.147852876842
 20
682.5590677563319
 30
0.0
  0
ENDBLK
  5
3769
330
3729
100
AcDbEntity
  8
0
100
AcDbBlockEnd
  0
BLOCK
  5
376A
330
3737
100
AcDbEntity
  8
0
100
AcDbBlockBegin
  2
*D98
 70
     1
 10
0.0
 20
0.0
 30
0.0
  3
*D98
  1

  0
LINE
  5
38A7
330
3737
100
AcDbEntity
  8
AM_5
100
AcDbLine
 10
3163.147852876842
 20
2014.682174814968
 30
0.0
 11
3163.147852876842
 21
2076.945322418199
 31
0.0
  0
LINE
  5
38A8
330
3737
100
AcDbEntity
  8
AM_5
100
AcDbLine
 10
3183.147852876842
 20
2014.682174814968
 30
0.0
 11
3183.147852876842
 21
2076.945322418199
 31
0.0
  0
LINE
  5
38A9
330
3737
100
AcDbEntity
  8
AM_5
100
AcDbLine
 10
3138.147852876842
 20
2066.945322418199
 30
0.0
 11
3113.147852876843
 21
2066.945322418199
 31
0.0
  0
LINE
  5
38AA
330
3737
100
AcDbEntity
  8
AM_5
100
AcDbLine
 10
3208.147852876842
 20
2066.945322418199
 30
0.0
 11
3296.933285947709
 21
2066.945322418199
 31
0.0
  0
LINE
  5
38AB
330
3737
100
AcDbEntity
  8
AM_5
100
AcDbLine
 10
3163.147852876842
 20
2066.945322418199
 30
0.0
 11
3183.147852876842
 21
2066.945322418199
 31
0.0
  0
INSERT
  5
38AC
330
3737
100
AcDbEntity
  8
AM_5
100
AcDbBlockReference
  2
_Open30
 10
3163.147852876842
 20
2066.945322418199
 30
0.0
 41
25.0
 42
25.0
 43
25.0
  0
INSERT
  5
38AD
330
3737
100
AcDbEntity
  8
AM_5
100
AcDbBlockReference
  2
_Open30
 10
3183.147852876842
 20
2066.945322418199
 30
0.0
 41
25.0
 42
25.0
 43
25.0
 50
180.0
  0
MTEXT
  5
38AE
330
3737
100
AcDbEntity
  8
AM_5
 62
     2
100
AcDbMText
 10
3265.040569412275
 20
2096.948275174105
 30
0.0
 40
30.0
 41
0.0
 71
     5
 72
     1
  1
20
 73
     1
 44
1.0
1001
ACAD
1000
MTEXTBEGIN
1070
    73
1070
     1
1070
    44
1040
1.0
1070
    74
1070
     0
1000
MTEXTEND
  0
POINT
  5
38AF
330
3737
100
AcDbEntity
  8
DEFPOINTS
 62
     0
100
AcDbPoint
 10
3163.147852876842
 20
2004.682174814968
 30
0.0
  0
POINT
  5
38B0
330
3737
100
AcDbEntity
  8
DEFPOINTS
 62
     0
100
AcDbPoint
 10
3183.147852876842
 20
2004.682174814968
 30
0.0
  0
POINT
  5
38B1
330
3737
100
AcDbEntity
  8
DEFPOINTS
 62
     0
100
AcDbPoint
 10
3183.147852876842
 20
2066.945322418199
 30
0.0
  0
ENDBLK
  5
376B
330
3737
100
AcDbEntity
  8
0
100
AcDbBlockEnd
  0
BLOCK
  5
3886
330
3885
100
AcDbEntity
  8
0
100
AcDbBlockBegin
  2
GENZOO33DNVH4
 70
     0
 10
0.0
 20
0.0
 30
0.0
  3
GENZOO33DNVH4
  1

  0
HATCH
  5
3882
330
3885
100
AcDbEntity
  8
AM_4
100
AcDbHatch
 10
0.0
 20
0.0
 30
0.0
210
0.0
220
0.0
230
1.0
  2
LINE
 70
     0
 71
     0
 91
        1
 92
        1
 93
        7
 72
     1
 10
33.46945260928078
 20
-4.351538878973769
 11
33.46945260928078
 21
10.64846112102623
 72
     1
 10
33.46945260928078
 20
10.64846112102623
 11
8.207050405520931
 21
10.64846112102623
 72
     1
 10
8.207050405520931
 20
10.64846112102623
 11
-21.79294959447907
 21
10.64846112102623
 72
     1
 10
-21.79294959447907
 20
10.64846112102623
 11
-20.29294959447907
 21
-9.351538878973769
 72
     1
 10
-20.29294959447907
 20
-9.351538878973769
 11
6.707050405520931
 21
-9.351538878973997
 72
     1
 10
6.707050405520931
 20
-9.351538878973997
 11
7.082050405520931
 21
-4.351538878973769
 72
     1
 10
7.082050405520931
 20
-4.351538878973769
 11
33.46945260928078
 21
-4.351538878973769
 97
        0
 75
     0
 76
     1
 52
45.0
 41
1.0
 77
     0
 78
     1
 53
45.0
 43
-4279.200503105838
 44
-1605.277323599082
 45
-2.245064030267287
 46
2.245064030267288
 79
     0
 98
        1
 10
-4279.200503105838
 20
-1605.277323599082
  0
LINE
  5
387A
330
3885
100
AcDbEntity
  8
AM_3
100
AcDbLine
 10
7.082050405520931
 20
-4.351538878973769
 30
0.0
 11
8.207050405520931
 21
10.64846112102623
 31
0.0
1001
GENIUS_GENREC_14
1002
{
1000
PYDIR
1011
-21.79294959447907
1021
10.64846112102623
1031
0.0
1002
}
1002
{
1000
PXDIR
1011
6.707050405520931
1021
-9.351538878973769
1031
0.0
1002
}
1002
{
1000
PORI
1011
-20.29294959447907
1021
-9.351538878973769
1031
0.0
1002
}
1002
{
1000
PINS
1011
-6.792949594479068
1021
-9.351538878973769
1031
0.0
1002
}
1002
{
1000
HVAL
1000
20
1002
}
1002
{
1000
H
1070
     2
1002
}
1002
{
1000
WVAL
1000
30
1002
}
1002
{
1000
W
1070
     2
1002
}
1002
{
1000
C
1070
     2
1002
}
1001
GENIUS_GENOBJ-N-REC_13
1002
{
1000
OWNER
1000
GEN
1002
}
1001
GENIUS_GENODEF_13
1002
{
1000
HIER
1070
     0
1002
}
1002
{
1000
MANEDIT
1070
     0
1002
}
1002
{
1000
NOSEL
1070
     0
1002
}
1002
{
1000
BEHIND
1070
     0
1002
}
1002
{
1000
OTHER
1070
     0
1002
}
1002
{
1000
REACTOR
1002
}
  0
LINE
  5
3883
330
3885
100
AcDbEntity
  8
AM_0
100
AcDbLine
 10
7.082050405520931
 20
-4.351538878973769
 30
0.0
 11
33.46945260928078
 21
-4.351538878973769
 31
0.0
  0
LINE
  5
3884
330
3885
100
AcDbEntity
  8
AM_0
100
AcDbLine
 10
8.207050405520931
 20
10.64846112102623
 30
0.0
 11
33.46945260928078
 21
10.64846112102623
 31
0.0
  0
LINE
  5
387D
330
3885
100
AcDbEntity
  8
AM_0
100
AcDbLine
 10
-21.79294959447907
 20
10.64846112102623
 30
0.0
 11
-20.29294959447907
 21
-9.351538878973769
 31
0.0
1001
GENIUS_GENREC_14
1002
{
1000
PYDIR
1011
-21.79294959447907
1021
10.64846112102623
1031
0.0
1002
}
1002
{
1000
PXDIR
1011
6.707050405520931
1021
-9.351538878973769
1031
0.0
1002
}
1002
{
1000
PORI
1011
-20.29294959447907
1021
-9.351538878973769
1031
0.0
1002
}
1002
{
1000
PINS
1011
-6.792949594479068
1021
-9.351538878973769
1031
0.0
1002
}
1002
{
1000
HVAL
1000
20
1002
}
1002
{
1000
H
1070
     2
1002
}
1002
{
1000
WVAL
1000
30
1002
}
1002
{
1000
W
1070
     2
1002
}
1002
{
1000
C
1070
     2
1002
}
1001
GENIUS_GENOBJ-N-REC_13
1002
{
1000
OWNER
1000
GEN
1002
}
1001
GENIUS_GENODEF_13
1002
{
1000
HIER
1070
     0
1002
}
1002
{
1000
MANEDIT
1070
     0
1002
}
1002
{
1000
NOSEL
1070
     0
1002
}
1002
{
1000
BEHIND
1070
     0
1002
}
1002
{
1000
OTHER
1070
     0
1002
}
1002
{
1000
REACTOR
1002
}
  0
LINE
  5
387E
330
3885
100
AcDbEntity
  8
AM_0
100
AcDbLine
 10
8.207050405520931
 20
10.64846112102623
 30
0.0
 11
-21.79294959447907
 21
10.64846112102623
 31
0.0
1001
GENIUS_GENREC_14
1002
{
1000
PYDIR
1011
-21.79294959447907
1021
10.64846112102623
1031
0.0
1002
}
1002
{
1000
PXDIR
1011
6.707050405520931
1021
-9.351538878973769
1031
0.0
1002
}
1002
{
1000
PORI
1011
-20.29294959447907
1021
-9.351538878973769
1031
0.0
1002
}
1002
{
1000
PINS
1011
-6.792949594479068
1021
-9.351538878973769
1031
0.0
1002
}
1002
{
1000
HVAL
1000
20
1002
}
1002
{
1000
H
1070
     2
1002
}
1002
{
1000
WVAL
1000
30
1002
}
1002
{
1000
W
1070
     2
1002
}
1002
{
1000
C
1070
     2
1002
}
1001
GENIUS_GENOBJ-N-REC_13
1002
{
1000
OWNER
1000
GEN
1002
}
1001
GENIUS_GENODEF_13
1002
{
1000
HIER
1070
     0
1002
}
1002
{
1000
MANEDIT
1070
     0
1002
}
1002
{
1000
NOSEL
1070
     0
1002
}
1002
{
1000
BEHIND
1070
     0
1002
}
1002
{
1000
OTHER
1070
     0
1002
}
1002
{
1000
REACTOR
1002
}
  0
LINE
  5
387F
330
3885
100
AcDbEntity
  8
AM_0
100
AcDbLine
 10
6.707050405520931
 20
-9.351538878973769
 30
0.0
 11
7.082050405520931
 21
-4.351538878973769
 31
0.0
1001
GENIUS_GENREC_14
1002
{
1000
PYDIR
1011
-21.79294959447907
1021
10.64846112102623
1031
0.0
1002
}
1002
{
1000
PXDIR
1011
6.707050405520931
1021
-9.351538878973769
1031
0.0
1002
}
1002
{
1000
PORI
1011
-20.29294959447907
1021
-9.351538878973769
1031
0.0
1002
}
1002
{
1000
PINS
1011
-6.792949594479068
1021
-9.351538878973769
1031
0.0
1002
}
1002
{
1000
HVAL
1000
20
1002
}
1002
{
1000
H
1070
     2
1002
}
1002
{
1000
WVAL
1000
30
1002
}
1002
{
1000
W
1070
     2
1002
}
1002
{
1000
C
1070
     2
1002
}
1001
GENIUS_GENOBJ-N-REC_13
1002
{
1000
OWNER
1000
GEN
1002
}
1001
GENIUS_GENODEF_13
1002
{
1000
HIER
1070
     0
1002
}
1002
{
1000
MANEDIT
1070
     0
1002
}
1002
{
1000
NOSEL
1070
     0
1002
}
1002
{
1000
BEHIND
1070
     0
1002
}
1002
{
1000
OTHER
1070
     0
1002
}
1002
{
1000
REACTOR
1002
}
  0
LINE
  5
3880
330
3885
100
AcDbEntity
  8
AM_0
100
AcDbLine
 10
-20.29294959447907
 20
-9.351538878973769
 30
0.0
 11
6.707050405520931
 21
-9.351538878973769
 31
0.0
1001
GENIUS_GENREC_14
1002
{
1000
PYDIR
1011
-21.79294959447907
1021
10.64846112102623
1031
0.0
1002
}
1002
{
1000
PXDIR
1011
6.707050405520931
1021
-9.351538878973769
1031
0.0
1002
}
1002
{
1000
PORI
1011
-20.29294959447907
1021
-9.351538878973769
1031
0.0
1002
}
1002
{
1000
PINS
1011
-6.792949594479068
1021
-9.351538878973769
1031
0.0
1002
}
1002
{
1000
HVAL
1000
20
1002
}
1002
{
1000
H
1070
     2
1002
}
1002
{
1000
WVAL
1000
30
1002
}
1002
{
1000
W
1070
     2
1002
}
1002
{
1000
C
1070
     2
1002
}
1001
GENIUS_GENOBJ-N-REC_13
1002
{
1000
OWNER
1000
GEN
1002
}
1001
GENIUS_GENODEF_13
1002
{
1000
HIER
1070
     0
1002
}
1002
{
1000
MANEDIT
1070
     0
1002
}
1002
{
1000
NOSEL
1070
     0
1002
}
1002
{
1000
BEHIND
1070
     0
1002
}
1002
{
1000
OTHER
1070
     0
1002
}
1002
{
1000
REACTOR
1002
}
  0
ENDBLK
  5
3887
330
3885
100
AcDbEntity
  8
0
100
AcDbBlockEnd
  0
BLOCK
  5
38F3
330
38B6
100
AcDbEntity
  8
0
100
AcDbBlockBegin
  2
*D100
 70
     1
 10
0.0
 20
0.0
 30
0.0
  3
*D100
  1

  0
LINE
  5
391A
330
38B6
100
AcDbEntity
  8
AM_5
100
AcDbLine
 10
2785.017087385912
 20
2189.742747042747
 30
0.0
 11
2879.004502065855
 21
2189.742747042747
 31
0.0
  0
LINE
  5
391B
330
38B6
100
AcDbEntity
  8
AM_5
100
AcDbLine
 10
2785.017087385912
 20
2264.742747042747
 30
0.0
 11
2879.004502065855
 21
2264.742747042747
 31
0.0
  0
LINE
  5
391C
330
38B6
100
AcDbEntity
  8
AM_5
100
AcDbLine
 10
2869.004502065855
 20
2164.742747042748
 30
0.0
 11
2869.004502065855
 21
2139.742747042747
 31
0.0
  0
LINE
  5
391D
330
38B6
100
AcDbEntity
  8
AM_5
100
AcDbLine
 10
2869.004502065855
 20
2289.742747042748
 30
0.0
 11
2869.004502065855
 21
2314.742747042747
 31
0.0
  0
LINE
  5
391E
330
38B6
100
AcDbEntity
  8
AM_5
100
AcDbLine
 10
2869.004502065855
 20
2189.742747042747
 30
0.0
 11
2869.004502065855
 21
2264.742747042747
 31
0.0
  0
INSERT
  5
391F
330
38B6
100
AcDbEntity
  8
AM_5
100
AcDbBlockReference
  2
_Open30
 10
2869.004502065855
 20
2189.742747042747
 30
0.0
 41
25.0
 42
25.0
 43
25.0
 50
90.0
  0
INSERT
  5
3920
330
38B6
100
AcDbEntity
  8
AM_5
100
AcDbBlockReference
  2
_Open30
 10
2869.004502065855
 20
2264.742747042747
 30
0.0
 41
25.0
 42
25.0
 43
25.0
 50
270.0
  0
MTEXT
  5
3921
330
38B6
100
AcDbEntity
  8
AM_5
 62
     2
100
AcDbMText
 10
2839.004502065854
 20
2227.242747042748
 30
0.0
 40
30.0
 41
0.0
 71
     5
 72
     1
  1
15
 11
0.0000000000000001
 21
1.0
 31
0.0
 73
     1
 44
1.0
1001
ACAD
1000
MTEXTBEGIN
1070
    73
1070
     1
1070
    44
1040
1.0
1070
    74
1070
     0
1000
MTEXTEND
  0
POINT
  5
3922
330
38B6
100
AcDbEntity
  8
DEFPOINTS
 62
     0
100
AcDbPoint
 10
2775.017087385912
 20
2189.742747042747
 30
0.0
  0
POINT
  5
3923
330
38B6
100
AcDbEntity
  8
DEFPOINTS
 62
     0
100
AcDbPoint
 10
2775.017087385912
 20
2264.742747042747
 30
0.0
  0
POINT
  5
3924
330
38B6
100
AcDbEntity
  8
DEFPOINTS
 62
     0
100
AcDbPoint
 10
2869.004502065855
 20
2264.742747042747
 30
0.0
  0
ENDBLK
  5
38F4
330
38B6
100
AcDbEntity
  8
0
100
AcDbBlockEnd
  0
BLOCK
  5
38F5
330
38C2
100
AcDbEntity
  8
0
100
AcDbBlockBegin
  2
*D101
 70
     1
 10
0.0
 20
0.0
 30
0.0
  3
*D101
  1

  0
LINE
  5
38E1
330
38C2
100
AcDbEntity
  8
AM_5
100
AcDbLine
 10
2498.705076367113
 20
2274.742747042747
 30
0.0
 11
2498.705076367113
 21
2332.639734268513
 31
0.0
  0
LINE
  5
38E2
330
38C2
100
AcDbEntity
  8
AM_5
100
AcDbLine
 10
2648.705076367113
 20
2274.742747042747
 30
0.0
 11
2648.705076367113
 21
2332.639734268513
 31
0.0
  0
LINE
  5
38E3
330
38C2
100
AcDbEntity
  8
AM_5
100
AcDbLine
 10
2523.705076367113
 20
2322.639734268512
 30
0.0
 11
2623.705076367113
 21
2322.639734268512
 31
0.0
  0
INSERT
  5
38E4
330
38C2
100
AcDbEntity
  8
AM_5
100
AcDbBlockReference
  2
_Open30
 10
2498.705076367113
 20
2322.639734268512
 30
0.0
 41
25.0
 42
25.0
 43
25.0
 50
180.0
  0
INSERT
  5
38E5
330
38C2
100
AcDbEntity
  8
AM_5
100
AcDbBlockReference
  2
_Open30
 10
2648.705076367113
 20
2322.639734268512
 30
0.0
 41
25.0
 42
25.0
 43
25.0
  0
MTEXT
  5
38E6
330
38C2
100
AcDbEntity
  8
AM_5
 62
     2
100
AcDbMText
 10
2573.705076367112
 20
2352.639734268512
 30
0.0
 40
30.0
 41
0.0
 71
     5
 72
     1
  1
30
 73
     1
 44
1.0
1001
ACAD
1000
MTEXTBEGIN
1070
    73
1070
     1
1070
    44
1040
1.0
1070
    74
1070
     0
1000
MTEXTEND
  0
POINT
  5
38E7
330
38C2
100
AcDbEntity
  8
DEFPOINTS
 62
     0
100
AcDbPoint
 10
2498.705076367113
 20
2264.742747042747
 30
0.0
  0
POINT
  5
38E8
330
38C2
100
AcDbEntity
  8
DEFPOINTS
 62
     0
100
AcDbPoint
 10
2648.705076367113
 20
2264.742747042747
 30
0.0
  0
POINT
  5
38E9
330
38C2
100
AcDbEntity
  8
DEFPOINTS
 62
     0
100
AcDbPoint
 10
2648.705076367113
 20
2322.639734268512
 30
0.0
  0
ENDBLK
  5
38F6
330
38C2
100
AcDbEntity
  8
0
100
AcDbBlockEnd
  0
BLOCK
  5
38F7
330
38CC
100
AcDbEntity
  8
0
100
AcDbBlockBegin
  2
*D102
 70
     1
 10
0.0
 20
0.0
 30
0.0
  3
*D102
  1

  0
LINE
  5
38EA
330
38CC
100
AcDbEntity
  8
AM_5
100
AcDbLine
 10
2496.205076367112
 20
2164.742747042748
 30
0.0
 11
2432.021906653894
 21
2164.742747042748
 31
0.0
  0
LINE
  5
38EB
330
38CC
100
AcDbEntity
  8
AM_5
100
AcDbLine
 10
2488.705076367113
 20
2264.742747042747
 30
0.0
 11
2432.021906653894
 21
2264.742747042747
 31
0.0
  0
LINE
  5
38EC
330
38CC
100
AcDbEntity
  8
AM_5
100
AcDbLine
 10
2442.021906653894
 20
2189.742747042747
 30
0.0
 11
2442.021906653894
 21
2239.742747042747
 31
0.0
  0
INSERT
  5
38ED
330
38CC
100
AcDbEntity
  8
AM_5
100
AcDbBlockReference
  2
_Open30
 10
2442.021906653894
 20
2164.742747042748
 30
0.0
 41
25.0
 42
25.0
 43
25.0
 50
270.0
  0
INSERT
  5
38EE
330
38CC
100
AcDbEntity
  8
AM_5
100
AcDbBlockReference
  2
_Open30
 10
2442.021906653894
 20
2264.742747042747
 30
0.0
 41
25.0
 42
25.0
 43
25.0
 50
90.0
  0
MTEXT
  5
38EF
330
38CC
100
AcDbEntity
  8
AM_5
 62
     2
100
AcDbMText
 10
2412.018953897988
 20
2214.742747042748
 30
0.0
 40
30.0
 41
0.0
 71
     5
 72
     1
  1
20
 11
0.0000000000000001
 21
1.0
 31
0.0
 73
     1
 44
1.0
1001
ACAD
1000
MTEXTBEGIN
1070
    73
1070
     1
1070
    44
1040
1.0
1070
    74
1070
     0
1000
MTEXTEND
  0
POINT
  5
38F0
330
38CC
100
AcDbEntity
  8
DEFPOINTS
 62
     0
100
AcDbPoint
 10
2506.205076367113
 20
2164.742747042748
 30
0.0
  0
POINT
  5
38F1
330
38CC
100
AcDbEntity
  8
DEFPOINTS
 62
     0
100
AcDbPoint
 10
2498.705076367113
 20
2264.742747042747
 30
0.0
  0
POINT
  5
38F2
330
38CC
100
AcDbEntity
  8
DEFPOINTS
 62
     0
100
AcDbPoint
 10
2442.021906653894
 20
2264.742747042747
 30
0.0
  0
ENDBLK
  5
38F8
330
38CC
100
AcDbEntity
  8
0
100
AcDbBlockEnd
  0
BLOCK
  5
3966
330
394C
100
AcDbEntity
  8
0
100
AcDbBlockBegin
  2
*D103
 70
     1
 10
0.0
 20
0.0
 30
0.0
  3
*D103
  1

  0
LINE
  5
3968
330
394C
100
AcDbEntity
  8
AM_5
100
AcDbLine
 10
1891.894136799568
 20
1048.350666363003
 30
0.0
 11
1891.894136799568
 21
1052.747948533948
 31
0.0
  0
LINE
  5
3969
330
394C
100
AcDbEntity
  8
AM_5
100
AcDbLine
 10
1851.894136799568
 20
1048.350666363003
 30
0.0
 11
1851.894136799568
 21
1052.747948533948
 31
0.0
  0
LINE
  5
396A
330
394C
100
AcDbEntity
  8
AM_5
100
AcDbLine
 10
1916.894136799568
 20
1042.747948533948
 30
0.0
 11
1941.894136799568
 21
1042.747948533948
 31
0.0
  0
LINE
  5
396B
330
394C
100
AcDbEntity
  8
AM_5
100
AcDbLine
 10
1826.894136799568
 20
1042.747948533948
 30
0.0
 11
1690.48200388037
 21
1042.747948533948
 31
0.0
  0
LINE
  5
396C
330
394C
100
AcDbEntity
  8
AM_5
100
AcDbLine
 10
1891.894136799568
 20
1042.747948533948
 30
0.0
 11
1851.894136799568
 21
1042.747948533948
 31
0.0
  0
INSERT
  5
396D
330
394C
100
AcDbEntity
  8
AM_5
100
AcDbBlockReference
  2
_Open30
 10
1891.894136799568
 20
1042.747948533948
 30
0.0
 41
25.0
 42
25.0
 43
25.0
 50
180.0
  0
INSERT
  5
396E
330
394C
100
AcDbEntity
  8
AM_5
100
AcDbBlockReference
  2
_Open30
 10
1851.894136799568
 20
1042.747948533948
 30
0.0
 41
25.0
 42
25.0
 43
25.0
  0
MTEXT
  5
396F
330
394C
100
AcDbEntity
  8
AM_5
 62
     2
100
AcDbMText
 10
1723.493814903991
 20
1072.747948533948
 30
0.0
 40
30.0
 41
0.0
 71
     5
 72
     1
  1
40
 73
     1
 44
1.0
1001
ACAD
1000
MTEXTBEGIN
1070
    73
1070
     1
1070
    44
1040
1.0
1070
    74
1070
     0
1000
MTEXTEND
  0
POINT
  5
3970
330
394C
100
AcDbEntity
  8
DEFPOINTS
 62
     0
100
AcDbPoint
 10
1891.894136799568
 20
1038.350666363003
 30
0.0
  0
POINT
  5
3971
330
394C
100
AcDbEntity
  8
DEFPOINTS
 62
     0
100
AcDbPoint
 10
1851.894136799568
 20
1038.350666363003
 30
0.0
  0
POINT
  5
3972
330
394C
100
AcDbEntity
  8
DEFPOINTS
 62
     0
100
AcDbPoint
 10
1851.894136799568
 20
1042.747948533948
 30
0.0
  0
ENDBLK
  5
3967
330
394C
100
AcDbEntity
  8
0
100
AcDbBlockEnd
  0
BLOCK
  5
39BA
330
39A3
100
AcDbEntity
  8
0
100
AcDbBlockBegin
  2
*S104
 70
     1
 10
0.0
 20
0.0
 30
0.0
  3
*S104
  1

  0
MTEXT
  5
39A4
330
39A3
100
AcDbEntity
  8
0
 62
     7
100
AcDbMText
 10
2761.5
 20
2782.25
 30
0.0
 40
45.0
 41
98.99999999999998
 71
     2
 72
     5
  1
1
  7
ACJISTS
 73
     1
 44
1.0
1001
ACAD
1000
MTEXTBEGIN
1070
    73
1070
     1
1070
    44
1040
1.0
1070
    74
1070
     0
1000
MTEXTEND
  0
LINE
  5
39A5
330
39A3
100
AcDbEntity
  8
0
 62
     1
100
AcDbLine
 10
2820.0
 20
2795.75
 30
0.0
 11
2820.0
 21
2721.5
 31
0.0
  0
MTEXT
  5
39A6
330
39A3
100
AcDbEntity
  8
0
 62
     7
100
AcDbMText
 10
3045.0
 20
2782.25
 30
0.0
 40
45.0
 41
432.0
 71
     2
 72
     5
  1
フェンス
  7
ACJISTS
 73
     1
 44
1.0
1001
ACAD
1000
MTEXTBEGIN
1070
    73
1070
     1
1070
    44
1040
1.0
1070
    74
1070
     0
1000
MTEXTEND
  0
LINE
  5
39A7
330
39A3
100
AcDbEntity
  8
0
 62
     1
100
AcDbLine
 10
3270.0
 20
2795.75
 30
0.0
 11
3270.0
 21
2721.5
 31
0.0
  0
MTEXT
  5
39A8
330
39A3
100
AcDbEntity
  8
0
 62
     7
100
AcDbMText
 10
3385.0
 20
2782.25
 30
0.0
 40
45.0
 41
212.0
 71
     2
 72
     5
  1
FCD450
  7
ACJISTS
 73
     1
 44
1.0
1001
ACAD
1000
MTEXTBEGIN
1070
    73
1070
     1
1070
    44
1040
1.0
1070
    74
1070
     0
1000
MTEXTEND
  0
LINE
  5
39A9
330
39A3
100
AcDbEntity
  8
0
 62
     1
100
AcDbLine
 10
3500.0
 20
2795.75
 30
0.0
 11
3500.0
 21
2721.5
 31
0.0
  0
MTEXT
  5
39AA
330
39A3
100
AcDbEntity
  8
0
 62
     7
100
AcDbMText
 10
3600.0
 20
2782.25
 30
0.0
 40
45.0
 41
182.0
 71
     2
 72
     5
  1
34
  7
ACJISTS
 73
     1
 44
1.0
1001
ACAD
1000
MTEXTBEGIN
1070
    73
1070
     1
1070
    44
1040
1.0
1070
    74
1070
     0
1000
MTEXTEND
  0
LINE
  5
39AB
330
39A3
100
AcDbEntity
  8
0
 62
     1
100
AcDbLine
 10
3700.0
 20
2795.75
 30
0.0
 11
3700.0
 21
2721.5
 31
0.0
  0
LINE
  5
39AC
330
39A3
100
AcDbEntity
  8
0
 62
     1
100
AcDbLine
 10
2703.0
 20
2795.75
 30
0.0
 11
4100.0
 21
2795.75
 31
0.0
  0
MTEXT
  5
39AD
330
39A3
100
AcDbEntity
  8
0
 62
     7
100
AcDbMText
 10
2761.5
 20
2856.5
 30
0.0
 40
45.0
 41
98.99999999999998
 71
     2
 72
     5
  1
部番
  7
ACJISTS
 73
     1
 44
1.0
1001
ACAD
1000
MTEXTBEGIN
1070
    73
1070
     1
1070
    44
1040
1.0
1070
    74
1070
     0
1000
MTEXTEND
  0
LINE
  5
39AE
330
39A3
100
AcDbEntity
  8
0
 62
     1
100
AcDbLine
 10
2820.0
 20
2870.0
 30
0.0
 11
2820.0
 21
2795.75
 31
0.0
  0
MTEXT
  5
39AF
330
39A3
100
AcDbEntity
  8
0
 62
     7
100
AcDbMText
 10
3045.0
 20
2856.5
 30
0.0
 40
45.0
 41
432.0
 71
     2
 72
     5
  1
部  品  名
  7
ACJISTS
 73
     1
 44
1.0
1001
ACAD
1000
MTEXTBEGIN
1070
    73
1070
     1
1070
    44
1040
1.0
1070
    74
1070
     0
1000
MTEXTEND
  0
LINE
  5
39B0
330
39A3
100
AcDbEntity
  8
0
 62
     1
100
AcDbLine
 10
3270.0
 20
2870.0
 30
0.0
 11
3270.0
 21
2795.75
 31
0.0
  0
MTEXT
  5
39B1
330
39A3
100
AcDbEntity
  8
0
 62
     7
100
AcDbMText
 10
3385.0
 20
2856.5
 30
0.0
 40
45.0
 41
212.0
 71
     2
 72
     5
  1
材  質
  7
ACJISTS
 73
     1
 44
1.0
1001
ACAD
1000
MTEXTBEGIN
1070
    73
1070
     1
1070
    44
1040
1.0
1070
    74
1070
     0
1000
MTEXTEND
  0
LINE
  5
39B2
330
39A3
100
AcDbEntity
  8
0
 62
     1
100
AcDbLine
 10
3500.0
 20
2870.0
 30
0.0
 11
3500.0
 21
2795.75
 31
0.0
  0
MTEXT
  5
39B3
330
39A3
100
AcDbEntity
  8
0
 62
     7
100
AcDbMText
 10
3600.0
 20
2856.5
 30
0.0
 40
45.0
 41
182.0
 71
     2
 72
     5
  1
単重
  7
ACJISTS
 73
     1
 44
1.0
1001
ACAD
1000
MTEXTBEGIN
1070
    73
1070
     1
1070
    44
1040
1.0
1070
    74
1070
     0
1000
MTEXTEND
  0
LINE
  5
39B4
330
39A3
100
AcDbEntity
  8
0
 62
     1
100
AcDbLine
 10
3700.0
 20
2870.0
 30
0.0
 11
3700.0
 21
2795.75
 31
0.0
  0
MTEXT
  5
39B5
330
39A3
100
AcDbEntity
  8
0
 62
     7
100
AcDbMText
 10
3900.0
 20
2856.5
 30
0.0
 40
45.0
 41
382.0
 71
     2
 72
     5
  1
備　　考
  7
ACJISTS
 73
     1
 44
1.0
1001
ACAD
1000
MTEXTBEGIN
1070
    73
1070
     1
1070
    44
1040
1.0
1070
    74
1070
     0
1000
MTEXTEND
  0
LINE
  5
39B6
330
39A3
100
AcDbEntity
  8
0
 62
     7
100
AcDbLine
 10
2703.0
 20
2870.0
 30
0.0
 11
4100.0
 21
2870.0
 31
0.0
  0
LINE
  5
39B7
330
39A3
100
AcDbEntity
  8
0
 62
     7
100
AcDbLine
 10
4100.0
 20
2870.0
 30
0.0
 11
4100.0
 21
2721.5
 31
0.0
  0
LINE
  5
39B8
330
39A3
100
AcDbEntity
  8
0
 62
     7
100
AcDbLine
 10
4100.0
 20
2721.5
 30
0.0
 11
2703.0
 21
2721.5
 31
0.0
  0
LINE
  5
39B9
330
39A3
100
AcDbEntity
  8
0
 62
     7
100
AcDbLine
 10
2703.0
 20
2721.5
 30
0.0
 11
2703.0
 21
2870.0
 31
0.0
  0
ENDBLK
  5
39BB
330
39A3
100
AcDbEntity
  8
0
100
AcDbBlockEnd
  0
BLOCK
  5
39C1
330
39BD
100
AcDbEntity
  8
0
100
AcDbBlockBegin
  2
*S105
 70
     1
 10
0.0
 20
0.0
 30
0.0
  3
*S105
  1

  0
CIRCLE
  5
39BE
330
39BD
100
AcDbEntity
  8
AM_12
 62
     4
100
AcDbCircle
 10
2056.894136799568
 20
1739.485735513936
 30
0.0
 40
15.75
  0
LINE
  5
39BF
330
39BD
100
AcDbEntity
  8
AM_12
 62
     4
100
AcDbLine
 10
2041.144136799568
 20
1723.735735513935
 30
0.0
 11
2072.644136799568
 21
1755.235735513936
 31
0.0
  0
LINE
  5
39C0
330
39BD
100
AcDbEntity
  8
AM_12
 62
     4
100
AcDbLine
 10
2041.144136799568
 20
1755.235735513936
 30
0.0
 11
2072.644136799568
 21
1723.735735513935
 31
0.0
  0
ENDBLK
  5
39C2
330
39BD
100
AcDbEntity
  8
0
100
AcDbBlockEnd
  0
BLOCK
  5
39CB
330
39C4
100
AcDbEntity
  8
0
100
AcDbBlockBegin
  2
*S106
 70
     1
 10
0.0
 20
0.0
 30
0.0
  3
*S106
  1

  0
LINE
  5
39C5
330
39C4
100
AcDbEntity
  8
AM_5
100
AcDbLine
 10
2749.764545463077
 20
930.5718982145222
 30
0.0
 11
3002.739545463077
 21
930.5718982145222
 31
0.0
  0
LINE
  5
39C6
330
39C4
100
AcDbEntity
  8
AM_5
100
AcDbLine
 10
3002.739545463077
 20
930.5718982145222
 30
0.0
 11
3129.101074464315
 21
983.5908099924305
 31
0.0
  0
LINE
  5
39C7
330
39C4
100
AcDbEntity
  8
AM_5
100
AcDbLine
 10
3129.101074464315
 20
983.5908099924305
 30
0.0
 11
3158.147852876842
 21
995.7782897915327
 31
0.0
  0
LINE
  5
39C8
330
39C4
100
AcDbEntity
  8
AM_5
100
AcDbLine
 10
3130.705586612004
 20
979.7667290846156
 30
0.0
 11
3158.147852876842
 21
995.7782897915327
 31
0.0
  0
LINE
  5
39C9
330
39C4
100
AcDbEntity
  8
AM_5
100
AcDbLine
 10
3158.147852876842
 20
995.7782897915327
 30
0.0
 11
3127.496562316626
 21
987.4148909002455
 31
0.0
  0
MTEXT
  5
39CA
330
39C4
100
AcDbEntity
  8
AM_5
 62
     2
100
AcDbMText
 10
2971.239545463077
 20
946.3218982145223
 30
0.0
 40
31.5
 41
0.0
 71
     9
 72
     5
  1
抜け止め突起
  7
ACJISTS
 73
     1
 44
1.0
1001
ACAD
1000
MTEXTBEGIN
1070
    73
1070
     1
1070
    44
1040
1.0
1070
    74
1070
     0
1000
MTEXTEND
  0
ENDBLK
  5
39CC
330
39C4
100
AcDbEntity
  8
0
100
AcDbBlockEnd
  0
BLOCK
  5
39D4
330
39CE
100
AcDbEntity
  8
0
100
AcDbBlockBegin
  2
*S107
 70
     1
 10
0.0
 20
0.0
 30
0.0
  3
*S107
  1

  0
MTEXT
  5
39CF
330
39CE
100
AcDbEntity
  8
AM_4
 62
     7
100
AcDbMText
 10
4279.200503105838
 20
1675.325630026687
 30
0.0
 40
45.0
 41
0.0
 71
     5
 72
     5
  1
A
  7
ACJISTS
 73
     1
 44
1.0
1001
ACAD
1000
MTEXTBEGIN
1070
    73
1070
     1
1070
    44
1040
1.0
1070
    74
1070
     0
1000
MTEXTEND
  0
LINE
  5
39D0
330
39CE
100
AcDbEntity
  8
AM_4
  6
Continuous
100
AcDbLine
 10
4245.731050496557
 20
1630.325630026687
 30
0.0
 11
4312.669955715119
 21
1630.325630026687
 31
0.0
  0
LINE
  5
39D1
330
39CE
100
AcDbEntity
  8
AM_4
  6
Continuous
100
AcDbLine
 10
4312.669955715119
 20
1630.325630026687
 30
0.0
 11
4312.669955715119
 21
1580.229017171477
 31
0.0
  0
LINE
  5
39D2
330
39CE
100
AcDbEntity
  8
AM_4
  6
Continuous
100
AcDbLine
 10
4312.669955715119
 20
1580.229017171477
 30
0.0
 11
4245.731050496557
 21
1580.229017171477
 31
0.0
  0
LINE
  5
39D3
330
39CE
100
AcDbEntity
  8
AM_4
  6
Continuous
100
AcDbLine
 10
4245.731050496557
 20
1580.229017171477
 30
0.0
 11
4245.731050496557
 21
1630.325630026687
 31
0.0
  0
ENDBLK
  5
39D5
330
39CE
100
AcDbEntity
  8
0
100
AcDbBlockEnd
  0
BLOCK
  5
39DD
330
39D7
100
AcDbEntity
  8
0
100
AcDbBlockBegin
  2
*S108
 70
     1
 10
0.0
 20
0.0
 30
0.0
  3
*S108
  1

  0
MTEXT
  5
39D8
330
39D7
100
AcDbEntity
  8
AM_4
 62
     7
100
AcDbMText
 10
4279.200503105838
 20
1675.325630026687
 30
0.0
 40
45.0
 41
0.0
 71
     5
 72
     5
  1
A
  7
ACJISTS
 73
     1
 44
1.0
1001
ACAD
1000
MTEXTBEGIN
1070
    73
1070
     1
1070
    44
1040
1.0
1070
    74
1070
     0
1000
MTEXTEND
  0
LINE
  5
39D9
330
39D7
100
AcDbEntity
  8
AM_4
  6
Continuous
100
AcDbLine
 10
4245.731050496557
 20
1630.325630026687
 30
0.0
 11
4312.669955715119
 21
1630.325630026687
 31
0.0
  0
LINE
  5
39DA
330
39D7
100
AcDbEntity
  8
AM_4
  6
Continuous
100
AcDbLine
 10
4312.669955715119
 20
1630.325630026687
 30
0.0
 11
4312.669955715119
 21
1580.229017171477
 31
0.0
  0
LINE
  5
39DB
330
39D7
100
AcDbEntity
  8
AM_4
  6
Continuous
100
AcDbLine
 10
4312.669955715119
 20
1580.229017171477
 30
0.0
 11
4245.731050496557
 21
1580.229017171477
 31
0.0
  0
LINE
  5
39DC
330
39D7
100
AcDbEntity
  8
AM_4
  6
Continuous
100
AcDbLine
 10
4245.731050496557
 20
1580.229017171477
 30
0.0
 11
4245.731050496557
 21
1630.325630026687
 31
0.0
  0
ENDBLK
  5
39DE
330
39D7
100
AcDbEntity
  8
0
100
AcDbBlockEnd
  0
BLOCK
  5
39E5
330
39E0
100
AcDbEntity
  8
0
100
AcDbBlockBegin
  2
*S109
 70
     1
 10
0.0
 20
0.0
 30
0.0
  3
*S109
  1

  0
LINE
  5
39E1
330
39E0
100
AcDbEntity
  8
AM_5
100
AcDbLine
 10
2221.938853286135
 20
1861.200366289004
 30
0.0
 11
2082.245857486639
 21
1758.181731293907
 31
0.0
  0
TRACE
  5
39E2
330
39E0
100
AcDbEntity
  8
AM_5
100
AcDbTrace
 10
2079.784482958304
 20
1761.519348625607
 30
0.0
 11
2084.707232014974
 21
1754.844113962208
 31
0.0
 12
2056.894136799568
 22
1739.485735513936
 32
0.0
 13
2056.894136799568
 23
1739.485735513936
 33
0.0
  0
MTEXT
  5
39E3
330
39E0
100
AcDbEntity
  8
AM_5
 62
     2
100
AcDbMText
 10
2262.079077707331
 20
1890.802359607292
 30
0.0
 40
35.0
 41
0.0
 71
     5
 72
     5
  1
1
  7
ACJISTS
 73
     1
 44
1.0
1001
ACAD
1000
MTEXTBEGIN
1070
    73
1070
     1
1070
    44
1040
1.0
1070
    74
1070
     0
1000
MTEXTEND
  0
CIRCLE
  5
39E4
330
39E0
100
AcDbEntity
  8
AM_5
 62
     3
100
AcDbCircle
 10
2262.079077707331
 20
1890.802359607292
 30
0.0
 40
49.875
  0
ENDBLK
  5
39E6
330
39E0
100
AcDbEntity
  8
0
100
AcDbBlockEnd
  0
ENDSEC
  0
SECTION
  2
ENTITIES
  0
INSERT
  5
D4F
330
1F
100
AcDbEntity
  8
0
370
     0
100
AcDbBlockReference
  2
IGS_A3
 10
0.0
 20
0.0
 30
0.0
 41
10.0
 42
10.0
 43
10.0
1001
GENIUS_GENOREF_13
1005
D59
1001
GENIUS_GENOBJ-N-SDF_13
1002
{
1000
OWNER
1000
GEN
1002
}
1001
GENIUS_GENODEF_13
1002
{
1000
HIER
1070
     0
1002
}
1002
{
1000
MANEDIT
1070
     0
1002
}
1002
{
1000
NOSEL
1070
     0
1002
}
1002
{
1000
BEHIND
1070
     0
1002
}
1002
{
1000
OTHER
1070
     0
1002
}
1002
{
1000
REACTOR
1002
}
1001
GENIUS_GENSCREG_15
1040
10.0
1040
1.0
1011
0.0
1021
0.0
1031
0.0
1011
4200.0
1021
2970.0
1031
0.0
1070
     5
  0
INSERT
  5
D50
330
1F
100
AcDbEntity
  8
0
370
     0
100
AcDbBlockReference
 66
     1
  2
IGS2
 10
4100.0
 20
100.0
 30
0.0
 41
10.0
 42
10.0
 43
10.0
1001
GENIUS_GENOREF_13
1005
D59
  0
ATTRIB
  5
D52
330
D50
100
AcDbEntity
  8
RAHM3
100
AcDbText
 10
2627.404132868145
 20
419.4728899818606
 30
0.0
 40
40.0
  1
1:10
100
AcDbAttribute
  2
GEN-TITLE-SCA
 70
     0
  0
ATTRIB
  5
D53
330
D50
100
AcDbEntity
  8
RAHM3
100
AcDbText
 10
3369.1
 20
397.4
 30
0.0
 40
50.0
  1
フェンス
100
AcDbAttribute
  2
ＴＩＴＬＥ
 70
     0
  0
ATTRIB
  5
D54
330
D50
100
AcDbEntity
  8
RAHM3
100
AcDbText
 10
3384.371218441596
 20
318.0438312711385
 30
0.0
 40
30.0
  1

100
AcDbAttribute
  2
ｃｏｄｅ
 70
     0
  0
ATTRIB
  5
D55
330
D50
100
AcDbEntity
  8
RAHM3
100
AcDbText
 10
3392.551935060369
 20
248.0438312710658
 30
0.0
 40
30.0
  1
IF-8
100
AcDbAttribute
  2
件名
 70
     0
  0
ATTRIB
  5
D56
330
D50
100
AcDbEntity
  8
RAHM3
100
AcDbText
 10
3369.1
 20
117.3999999999272
 30
0.0
 40
50.0
  1
Ｔ２４Ｚ０５００５
100
AcDbAttribute
  2
Ｎｏ．
 70
     0
  0
ATTRIB
  5
D57
330
D50
100
AcDbEntity
  8
RAHM3
100
AcDbText
 10
3095.5
 20
274.0708932112656
 30
0.0
 40
40.0
  1

100
AcDbAttribute
  2
ＤＲ
 70
     0
  0
ATTRIB
  5
D58
330
D50
100
AcDbEntity
  8
RAHM3
100
AcDbText
 10
3062.819146961271
 20
227.6999999999999
 30
0.0
 40
30.0
  1

 41
0.8000000000000001
100
AcDbAttribute
  2
ｄａｔｅ
 70
     0
  0
SEQEND
  5
D51
330
D50
100
AcDbEntity
  8
0
370
     0
  0
POINT
  5
D59
330
1F
100
AcDbEntity
  8
0
 60
     1
100
AcDbPoint
 10
0.0
 20
0.0
 30
0.0
1001
GENIUS_GENOBJ-N-TIT_13
1002
{
1000
OWNER
1000
GEN
1002
}
1001
GENIUS_GENODEF_13
1002
{
1000
HIER
1070
     1
1002
}
1002
{
1000
MANEDIT
1070
     0
1002
}
1002
{
1000
NOSEL
1070
     0
1002
}
1002
{
1000
BEHIND
1070
     0
1002
}
1002
{
1000
OTHER
1070
     0
1002
}
1002
{
1000
REACTOR
1002
}
1001
GENIUS_GENOLIS_13
1002
{
1000
ENT
1005
D50
1005
D4F
1002
}
1001
GENIUS_GENOENT_13
1002
{
1000
MYREF
1005
D59
1002
}
1002
{
1000
GRP
1005
0
1002
}
1001
GENIUS_GENTITLE_13
1002
{
1000
BORDER
1000
C:\WINNT\Profiles\Administrator\Application Data\Autodesk\AutoCAD\Recent\format\igs_a3
1002
}
1002
{
1000
TITLE
1000
C:\WINNT\Profiles\Administrator\Application Data\Autodesk\AutoCAD\Recent\format\IGS2
1002
}
1002
{
1000
SCALE
1000
1:10
1002
}
1002
{
1000
TITLESTD
1000
IGS
1002
}
1002
{
1000
HRA
1005
D4F
1002
}
1002
{
1000
HTIT
1005
D50
1002
}
1002
{
1000
UNCHG
1002
{
1000
GEN-TITLE-SIZ
1000
GEN-TITLE-SCA
1002
}
1002
}
1002
{
1000
GENIUSID
1005
D59
1002
}
  0
AMDTACMWBLOCKBOMENTITY
  5
1610
330
1F
100
AcDbEntity
  8
0
 92
        8
310
0800000000000000
  0
AMDTACMWBLOCKBOMENTITY
  5
1611
330
1F
100
AcDbEntity
  8
AM_5
 92
        8
310
0800000000000000
  0
AMDTACMWBLOCKBOMENTITY
  5
1613
330
1F
100
AcDbEntity
  8
AM_5
 92
        8
310
0800000000000000
  0
TEXT
  5
1617
330
1F
100
AcDbEntity
  8
0
100
AcDbText
 10
3150.342074397907
 20
298.9426828606278
 30
0.0
 40
25.00000000000055
  1
松
 72
     4
 11
3162.008741064574
 21
311.4426828606281
 31
0.0
100
AcDbText
  0
TEXT
  5
1618
330
1F
100
AcDbEntity
  8
0
100
AcDbText
 10
3151.926056197411
 20
232.6197045313788
 30
0.0
 40
25.00000000000055
  1
本
 72
     4
 11
3163.592722864078
 21
245.1197045313791
 31
0.0
100
AcDbText
  0
TEXT
  5
1619
330
1F
100
AcDbEntity
  8
TEXT
100
AcDbText
 10
3118.920556433086
 20
266.1364848862718
 30
0.0
 40
26.086956516
  1
05.07.22
 41
0.6884556284158219
 72
     5
 11
3203.51186076231
 21
266.1364848862718
 31
0.0
100
AcDbText
  0
CIRCLE
  5
161A
330
1F
100
AcDbEntity
  8
0
100
AcDbCircle
 10
3162.599189399389
 20
279.1799631442723
 30
0.0
 40
49.99999998900111
  0
LINE
  5
161B
330
1F
100
AcDbEntity
  8
0
100
AcDbLine
 10
3209.477142982223
 20
296.571267488273
 30
0.0
 11
3115.721235816554
 21
296.571267488273
 31
0.0
  0
LINE
  5
161C
330
1F
100
AcDbEntity
  8
0
100
AcDbLine
 10
3209.477142982223
 20
261.7886588002722
 30
0.0
 11
3115.721235816554
 21
261.7886588002716
 31
0.0
  0
INSERT
  5
1D81
102
{ACAD_REACTORS
330
1D6C
102
}
330
1F
100
AcDbEntity
  8
0
100
AcDbBlockReference
  2
*S104
 10
0.0
 20
0.0
 30
0.0
  0
POLYLINE
  5
2146
330
1F
100
AcDbEntity
  8
0
100
AcDb2dPolyline
 66
     1
 10
0.0
 20
0.0
 30
0.0
 70
     1
1001
GENIUS_GENODEF_13
1002
{
1000
HIER
1070
     0
1002
}
1002
{
1000
MANEDIT
1070
     0
1002
}
1002
{
1000
NOSEL
1070
     0
1002
}
1002
{
1000
BEHIND
1070
     0
1002
}
1002
{
1000
REACTOR
1002
}
1001
GENIUS_GENOBJ-N-REC_13
1002
{
1000
OWNER
1000
GEN
1002
}
  0
VERTEX
  5
2147
330
2146
100
AcDbEntity
  8
0
100
AcDbVertex
100
AcDb2dVertex
 10
1056.894136799567
 20
2514.366151766671
 30
0.0
  0
VERTEX
  5
2148
330
2146
100
AcDbEntity
  8
0
100
AcDbVertex
100
AcDb2dVertex
 10
2056.894136799567
 20
2514.366151766671
 30
0.0
  0
VERTEX
  5
2149
330
2146
100
AcDbEntity
  8
0
100
AcDbVertex
100
AcDb2dVertex
 10
2056.894136799567
 20
2534.366151766671
 30
0.0
  0
VERTEX
  5
214A
330
2146
100
AcDbEntity
  8
0
100
AcDbVertex
100
AcDb2dVertex
 10
1056.894136799567
 20
2534.366151766671
 30
0.0
  0
SEQEND
  5
214B
330
2146
100
AcDbEntity
  8
0
  0
DIMENSION
  5
215A
330
1F
100
AcDbEntity
  8
5
100
AcDbDimension
  2
*D7
 10
2056.894136799567
 20
506.7443423089635
 30
0.0
 11
1964.394136799567
 21
536.7443423089635
 31
0.0
 70
    32
  1
<>
 71
     5
 42
184.9999999999991
  3
IGS
100
AcDbAlignedDimension
 13
1871.894136799568
 23
946.7421748149684
 33
0.0
 14
2056.894136799567
 24
1274.682174814961
 34
0.0
100
AcDbRotatedDimension
1001
GENIUS_GENDREL_13
1005
215B
1005
0
1040
0.0
1001
GENIUS_GENDTOL_13
1000

1000
JS7
1000

1040
0.0
1001
ACAD
1000
DSTYLE
1002
{
1070
   140
1040
3.0
1002
}
  0
DIMENSION
  5
215B
330
1F
100
AcDbEntity
  8
5
100
AcDbDimension
  2
*D8
 10
1871.894136799568
 20
506.7443423089635
 30
0.0
 11
1556.894136799567
 21
536.7443423089635
 31
0.0
 70
    32
  1
<>
 71
     5
 42
630.0000000000027
  3
IGS
100
AcDbAlignedDimension
 13
1241.894136799565
 23
946.7421748149684
 33
0.0
 14
1871.894136799568
 24
946.7421748149684
 34
0.0
100
AcDbRotatedDimension
1001
GENIUS_GENDREL_13
1005
215C
1005
215A
1040
0.0
1001
GENIUS_GENDTOL_13
1000

1000
JS7
1000

1040
0.0
1001
ACAD
1000
DSTYLE
1002
{
1070
   140
1040
3.0
1002
}
  0
DIMENSION
  5
215C
330
1F
100
AcDbEntity
  8
5
100
AcDbDimension
  2
*D9
 10
1241.894136799565
 20
506.7443423089635
 30
0.0
 11
1149.394136799566
 21
536.7443423089635
 31
0.0
 70
    32
  1
<>
 71
     5
 42
184.9999999999982
  3
IGS
100
AcDbAlignedDimension
 13
1056.894136799567
 23
1274.682174814969
 33
0.0
 14
1241.894136799565
 24
946.7421748149684
 34
0.0
100
AcDbRotatedDimension
1001
GENIUS_GENDREL_13
1005
0
1005
215B
1040
0.0
1001
GENIUS_GENDTOL_13
1000

1000
JS7
1000

1040
0.0
1001
ACAD
1000
DSTYLE
1002
{
1070
   140
1040
3.0
1002
}
  0
DIMENSION
  5
215D
330
1F
100
AcDbEntity
  8
5
100
AcDbDimension
  2
*D10
 10
756.2252867729671
 20
2004.682174814969
 30
0.0
 11
726.2252867729667
 21
1489.682174814969
 31
0.0
 70
    32
  1
<>
 71
     5
 42
1030.0
  3
IGS
100
AcDbAlignedDimension
 13
1226.894136799563
 23
974.6821748149686
 33
0.0
 14
1056.894136799567
 24
2004.682174814969
 34
0.0
 50
90.0
100
AcDbRotatedDimension
1001
GENIUS_GENDREL_13
1005
215F
1005
0
1040
10.0
1001
GENIUS_GENDTOL_13
1000

1000
JS7
1000

1040
0.0
1001
ACAD
1000
DSTYLE
1002
{
1070
   140
1040
3.0
1002
}
  0
DIMENSION
  5
215E
330
1F
100
AcDbEntity
  8
5
100
AcDbDimension
  2
*D11
 10
841.6023080362151
 20
974.6821748149686
 30
0.0
 11
811.5993552803095
 21
1074.682174814969
 31
0.0
 70
    32
  1
<>
 71
     5
 42
200.0
  3
IGS
100
AcDbAlignedDimension
 13
941.4497097517759
 23
1174.682174814968
 33
0.0
 14
1226.894136799567
 24
974.6821748149686
 34
0.0
 50
90.0
100
AcDbRotatedDimension
1001
GENIUS_GENDREL_13
1005
215F
1005
0
1040
0.0
1001
GENIUS_GENDTOL_13
1000

1000
JS7
1000

1040
0.0
1001
ACAD
1000
DSTYLE
1002
{
1070
   140
1040
3.0
1002
}
  0
DIMENSION
  5
215F
330
1F
100
AcDbEntity
  8
5
100
AcDbDimension
  2
*D12
 10
841.6023080362151
 20
1274.682174814969
 30
0.0
 11
811.602308036215
 21
1639.682174814969
 31
0.0
 70
    32
  1
<>
 71
     5
 42
730.0
  3
IGS
100
AcDbAlignedDimension
 13
1056.894136799567
 23
2004.682174814969
 33
0.0
 14
1056.894136799567
 24
1274.682174814969
 34
0.0
 50
90.0
100
AcDbRotatedDimension
1001
GENIUS_GENDREL_13
1005
2161
1005
215D
1040
10.0
1001
GENIUS_GENDTOL_13
1000

1000
JS7
1000

1040
0.0
1001
ACAD
1000
DSTYLE
1002
{
1070
   140
1040
3.0
1002
}
  0
DIMENSION
  5
2160
330
1F
100
AcDbEntity
  8
5
100
AcDbDimension
  2
*D13
 10
922.2138544097857
 20
1274.682174814969
 30
0.0
 11
922.8377724247639
 21
1295.85436661011
 31
0.0
 70
   160
  1
<>
 71
     5
 42
30.0
  3
IGS
100
AcDbAlignedDimension
 13
1086.894136799567
 23
1304.682174814969
 33
0.0
 14
1056.894136799567
 24
1274.682174814969
 34
0.0
 50
90.0
100
AcDbRotatedDimension
1001
GENIUS_GENDREL_13
1005
2161
1005
0
1040
0.0
1001
GENIUS_GENDTOL_13
1000

1000
JS7
1000

1040
0.0
1001
ACAD
1000
DSTYLE
1002
{
1070
   140
1040
3.0
1070
   279
1070
     1
1002
}
  0
DIMENSION
  5
2161
330
1F
100
AcDbEntity
  8
5
100
AcDbDimension
  2
*D14
 10
922.2138544097857
 20
1304.682174814969
 30
0.0
 11
892.2138544097855
 21
1639.682174814951
 31
0.0
 70
    32
  1
<>
 71
     5
 42
669.9999999999638
  3
IGS
100
AcDbAlignedDimension
 13
1086.894136799567
 23
1974.682174814932
 33
0.0
 14
1086.894136799567
 24
1304.682174814969
 34
0.0
 50
90.0
100
AcDbRotatedDimension
1001
GENIUS_GENDREL_13
1005
2162
1005
215F
1040
0.0
1001
GENIUS_GENDTOL_13
1000

1000
JS7
1000

1040
0.0
1001
ACAD
1000
DSTYLE
1002
{
1070
   140
1040
3.0
1002
}
  0
DIMENSION
  5
2162
330
1F
100
AcDbEntity
  8
5
100
AcDbDimension
  2
*D15
 10
922.2138544097857
 20
1974.682174814932
 30
0.0
 11
922.2138544097857
 21
1974.682174814932
 31
0.0
 70
   160
  1
<>
 71
     5
 42
30.00000000003615
  3
IGS
100
AcDbAlignedDimension
 13
1056.894136799567
 23
2004.682174814969
 33
0.0
 14
1086.894136799567
 24
1974.682174814932
 34
0.0
 50
90.0
100
AcDbRotatedDimension
1001
GENIUS_GENDREL_13
1005
0
1005
2161
1040
0.0
1001
GENIUS_GENDTOL_13
1000

1000
JS7
1000

1040
0.0
1001
ACAD
1000
DSTYLE
1002
{
1070
   140
1040
3.0
1070
   279
1070
     1
1002
}
  0
DIMENSION
  5
2163
330
1F
100
AcDbEntity
  8
5
100
AcDbDimension
  2
*D16
 10
1056.894136799567
 20
2209.472956793737
 30
0.0
 11
1556.894136799567
 21
2239.472956793738
 31
0.0
 70
    32
  1
<>
 71
     5
 42
1000.0
  3
IGS
100
AcDbAlignedDimension
 13
2056.894136799567
 23
2004.682174814969
 33
0.0
 14
1056.894136799567
 24
2004.682174814969
 34
0.0
100
AcDbRotatedDimension
1001
GENIUS_GENDREL_13
1005
2165
1005
0
1040
10.0
1001
GENIUS_GENDTOL_13
1000

1000
JS7
1000

1040
0.0
1001
ACAD
1000
DSTYLE
1002
{
1070
   140
1040
3.0
1002
}
  0
DIMENSION
  5
2164
330
1F
100
AcDbEntity
  8
5
100
AcDbDimension
  2
*D17
 10
2056.894136799567
 20
2133.263894121534
 30
0.0
 11
2138.405947823189
 21
2163.263894121534
 31
0.0
 70
    32
  1
<>
 71
     5
 42
30.0
  3
IGS
100
AcDbAlignedDimension
 13
2026.894136799567
 23
1974.682174814969
 33
0.0
 14
2056.894136799567
 24
2004.682174814969
 34
0.0
100
AcDbRotatedDimension
1001
GENIUS_GENDREL_13
1005
2165
1005
0
1040
0.0
1001
GENIUS_GENDTOL_13
1000

1000
JS7
1000

1040
0.0
1001
ACAD
1000
DSTYLE
1002
{
1070
   140
1040
3.0
1002
}
  0
DIMENSION
  5
2165
330
1F
100
AcDbEntity
  8
5
100
AcDbDimension
  2
*D18
 10
2026.894136799567
 20
2133.263894121534
 30
0.0
 11
1556.894136799567
 21
2163.263894121534
 31
0.0
 70
    32
  1
<>
 71
     5
 42
940.0
  3
IGS
100
AcDbAlignedDimension
 13
1086.894136799567
 23
1974.682174814962
 33
0.0
 14
2026.894136799567
 24
1974.682174814969
 34
0.0
100
AcDbRotatedDimension
1001
GENIUS_GENDREL_13
1005
2166
1005
2163
1040
0.0
1001
GENIUS_GENDTOL_13
1000

1000
JS7
1000

1040
0.0
1001
ACAD
1000
DSTYLE
1002
{
1070
   140
1040
3.0
1002
}
  0
DIMENSION
  5
2166
330
1F
100
AcDbEntity
  8
5
100
AcDbDimension
  2
*D19
 10
1086.894136799567
 20
2133.263894121534
 30
0.0
 11
969.4321666150845
 21
2136.150451484371
 31
0.0
 70
   160
  1
<>
 71
     5
 42
30.0
  3
IGS
100
AcDbAlignedDimension
 13
1056.894136799567
 23
2004.682174814969
 33
0.0
 14
1086.894136799567
 24
1974.682174814962
 34
0.0
100
AcDbRotatedDimension
1001
GENIUS_GENDREL_13
1005
0
1005
2165
1040
0.0
1001
GENIUS_GENDTOL_13
1000

1000
JS7
1000

1040
0.0
1001
ACAD
1000
DSTYLE
1002
{
1070
   140
1040
3.0
1070
   279
1070
     1
1002
}
  0
LINE
  5
2842
330
1F
100
AcDbEntity
  8
0
100
AcDbLine
 10
941.4497097517759
 20
1174.682174814968
 30
0.0
 11
2145.637046712604
 21
1174.682174814968
 31
0.0
  0
DIMENSION
  5
29AE
330
1F
100
AcDbEntity
  8
AM_5
100
AcDbDimension
  2
*D20
 10
841.6023080362149
 20
1174.682174814968
 30
0.0
 11
811.6023080362149
 21
1224.682174814969
 31
0.0
 70
    32
 71
     5
 42
100.0
  3
IGS
100
AcDbAlignedDimension
 13
1056.894136799567
 23
1274.682174814969
 33
0.0
 14
941.4497097517759
 24
1174.682174814968
 34
0.0
 50
90.0
100
AcDbRotatedDimension
1001
ACAD
1000
DSTYLE
1002
{
1070
   140
1040
3.0
1002
}
  0
DIMENSION
  5
29DB
330
1F
100
AcDbEntity
  8
AM_5
100
AcDbDimension
  2
*D21
 10
2265.637046712603
 20
874.6821748149754
 30
0.0
 11
2235.637046712603
 21
1024.682174814972
 31
0.0
 70
    32
 71
     5
 42
299.9999999999932
  3
IGS
100
AcDbAlignedDimension
 13
2145.637046712604
 23
1174.682174814968
 33
0.0
 14
2021.894136799569
 24
874.6821748149754
 34
0.0
 50
90.00000000000003
100
AcDbRotatedDimension
1001
ACAD
1000
DSTYLE
1002
{
1070
   140
1040
3.0
1002
}
  0
DIMENSION
  5
2A01
330
1F
100
AcDbEntity
  8
AM_5
100
AcDbDimension
  2
*D22
 10
2265.637046712603
 20
874.6821748149754
 30
0.0
 11
2235.637046712603
 21
824.6821748149757
 31
0.0
 70
    32
 71
     5
 42
100.0
  3
IGS
100
AcDbAlignedDimension
 13
2021.894136799569
 23
774.6821748149755
 33
0.0
 14
2021.894136799569
 24
874.6821748149754
 34
0.0
 50
90.0
100
AcDbRotatedDimension
1001
ACAD
1000
DSTYLE
1002
{
1070
   140
1040
3.0
1002
}
  0
DIMENSION
  5
2A4D
330
1F
100
AcDbEntity
  8
AM_5
100
AcDbDimension
  2
*D23
 10
1971.894136799567
 20
669.272659134137
 30
0.0
 11
1871.894136799567
 21
699.2756118900425
 31
0.0
 70
    32
  1
{\Famgdt;o}<>
 71
     5
 42
200.0
  3
IGS
100
AcDbAlignedDimension
 13
1771.894136799567
 23
874.6821748149754
 33
0.0
 14
1971.894136799567
 24
874.6821748149754
 34
0.0
 50
0.0000000000001132
100
AcDbRotatedDimension
1001
ACAD
1000
DSTYLE
1002
{
1070
   140
1040
3.0
1002
}
  0
DIMENSION
  5
2A78
330
1F
100
AcDbEntity
  8
AM_5
100
AcDbDimension
  2
*D24
 10
2021.894136799569
 20
589.2115179537804
 30
0.0
 11
1871.894136799569
 21
619.2115179537804
 31
0.0
 70
    32
  1
{\Famgdt;o}<>
 71
     5
 42
300.0
  3
IGS
100
AcDbAlignedDimension
 13
1721.894136799569
 23
774.6821748149755
 33
0.0
 14
2021.894136799569
 24
774.6821748149755
 34
0.0
 50
0.0000000000001132
100
AcDbRotatedDimension
1001
ACAD
1000
DSTYLE
1002
{
1070
   140
1040
3.0
1002
}
  0
TEXT
  5
2CE0
330
1F
100
AcDbEntity
  8
0
100
AcDbText
 10
954.1503344489534
 20
1182.525222859792
 30
0.0
 40
50.0
  1
G.L
 11
954.1503344489534
 21
1182.525222859792
 31
0.0
100
AcDbText
 73
     1
  0
CIRCLE
  5
2CFE
330
1F
100
AcDbEntity
  8
0
100
AcDbCircle
 10
2911.479954303747
 20
416.5431103274875
 30
0.0
 40
49.99999998900111
  0
LINE
  5
2CFF
330
1F
100
AcDbEntity
  8
0
100
AcDbLine
 10
2958.357907886581
 20
433.9344146714877
 30
0.0
 11
2864.602000720912
 21
433.9344146714877
 31
0.0
  0
TEXT
  5
2D00
330
1F
100
AcDbEntity
  8
0
100
AcDbText
 10
2899.222839302269
 20
436.3058300438425
 30
0.0
 40
25.00000000000055
  1
梅
 72
     4
 11
2910.889505968936
 21
448.8058300438428
 31
0.0
100
AcDbText
  0
TEXT
  5
2D01
330
1F
100
AcDbEntity
  8
0
100
AcDbText
 10
2900.806821101768
 20
369.9828517145941
 30
0.0
 40
25.00000000000055
  1
村
 72
     4
 11
2912.473487768435
 21
382.4828517145943
 31
0.0
100
AcDbText
  0
LINE
  5
2D02
330
1F
100
AcDbEntity
  8
0
100
AcDbLine
 10
2958.357907886581
 20
399.1518059834869
 30
0.0
 11
2864.602000720912
 21
399.1518059834869
 31
0.0
  0
LINE
  5
2D04
330
1F
100
AcDbEntity
  8
0
100
AcDbLine
 10
2959.477142982223
 20
261.7886588002722
 30
0.0
 11
2865.721235816554
 21
261.7886588002716
 31
0.0
  0
LINE
  5
2D05
330
1F
100
AcDbEntity
  8
0
100
AcDbLine
 10
2959.477142982223
 20
296.571267488273
 30
0.0
 11
2865.721235816554
 21
296.571267488273
 31
0.0
  0
CIRCLE
  5
2D06
330
1F
100
AcDbEntity
  8
0
100
AcDbCircle
 10
2912.599189399389
 20
279.1799631442723
 30
0.0
 40
49.99999998900111
  0
TEXT
  5
2D08
330
1F
100
AcDbEntity
  8
0
100
AcDbText
 10
2901.926056197411
 20
232.6197045313788
 30
0.0
 40
25.00000000000055
  1
本
 72
     4
 11
2913.592722864078
 21
245.1197045313791
 31
0.0
100
AcDbText
  0
TEXT
  5
2D09
330
1F
100
AcDbEntity
  8
0
100
AcDbText
 10
2900.342074397907
 20
298.9426828606278
 30
0.0
 40
25.00000000000055
  1
松
 72
     4
 11
2912.008741064574
 21
311.4426828606281
 31
0.0
100
AcDbText
  0
INSERT
  5
2D0A
330
1F
100
AcDbEntity
  8
0
100
AcDbBlockReference
  2
NAKAMURA
 10
3165.197464169897
 20
419.1799631443261
 30
0.0
 41
8.695652172000336
 42
8.695652172000336
 43
8.695652172
  0
TEXT
  5
2D0C
330
1F
100
AcDbEntity
  8
TEXT
100
AcDbText
 10
2868.920556433087
 20
266.1364848862717
 30
0.0
 40
26.086956516
  1
05.07.22
 41
0.6884556284158219
 72
     5
 11
2953.511860762311
 21
266.1364848862717
 31
0.0
100
AcDbText
  0
TEXT
  5
2D0D
330
1F
100
AcDbEntity
  8
TEXT
100
AcDbText
 10
2867.801321337444
 20
403.4996320694871
 30
0.0
 40
26.086956516
  1
05.07.22
 41
0.6884556284158219
 72
     5
 11
2952.392625666668
 21
403.4996320694871
 31
0.0
100
AcDbText
  0
TEXT
  5
2D0E
330
1F
100
AcDbEntity
  8
TEXT
100
AcDbText
 10
3121.518831203594
 20
406.1364848863254
 30
0.0
 40
26.086956516
  1
05.07.22
 41
0.6884556284158219
 72
     5
 11
3206.110135532818
 21
406.1364848863254
 31
0.0
100
AcDbText
  0
MTEXT
  5
30CB
330
1F
100
AcDbEntity
  8
0
100
AcDbMText
 10
1726.088025591774
 20
283.4212955617224
 30
0.0
 40
30.0
 41
762.0867774636082
 71
     1
 72
     5
  1
注記\P　1.表面仕上げ：防錆塗装後 樹脂系塗料塗装\P　2.基礎寸法は参考値とします
 73
     1
 44
1.0
1001
ACAD
1000
MTEXTBEGIN
1070
    73
1070
     1
1070
    44
1040
1.0
1070
    74
1070
     0
1000
MTEXTEND
  0
AMDTACMWBLOCKBOMENTITY
  5
30CC
330
1F
100
AcDbEntity
  8
AM_5
 92
        8
310
0800000000000000
  0
AMDTACMWBLOCKBOMENTITY
  5
30CD
330
1F
100
AcDbEntity
  8
AM_0
 92
        8
310
0800000000000000
  0
INSERT
  5
30CF
330
1F
100
AcDbEntity
  8
SUNPO
100
AcDbBlockReference
 66
     1
  2
X1sec
 10
1024.456150087109
 20
1854.638134451097
 30
0.0
 41
10.0
 42
10.0
 43
10.0
  0
ATTRIB
  5
30D0
330
30CF
100
AcDbEntity
  8
0
  6
Continuous
 62
     7
100
AcDbText
 10
961.9810231835558
 20
1818.80057099932
 30
0.0
 40
32.0
  1
A
 41
1.199999999999999
  7
MSG
 72
     4
 11
974.4561500871091
 21
1834.638134451097
 31
0.0
100
AcDbAttribute
  2
X1SEC
 70
     0
  0
SEQEND
  5
30D1
330
30CF
100
AcDbEntity
  8
SUNPO
  0
INSERT
  5
314A
102
{ACAD_REACTORS
330
30B3
102
}
330
1F
100
AcDbEntity
  8
AM_12
100
AcDbBlockReference
  2
*S105
 10
0.0
 20
0.0
 30
0.0
  0
ARC
  5
34F2
330
1F
100
AcDbEntity
  8
0
100
AcDbCircle
 10
1978.579554646554
 20
1823.849810448756
 30
0.0
 40
50.0
100
AcDbArc
 50
304.4008961830706
 51
317.7645909943387
1001
GENIUS_GENODEF_13
1002
{
1000
HIER
1070
     0
1002
}
1002
{
1000
MANEDIT
1070
     0
1002
}
1002
{
1000
NOSEL
1070
     0
1002
}
1002
{
1000
BEHIND
1070
     0
1002
}
1002
{
1000
REACTOR
1002
}
1001
GENIUS_GENOBJ-N-FIL_13
1002
{
1000
OWNER
1000
GEN
1002
}
  0
ARC
  5
34F3
330
1F
100
AcDbEntity
  8
0
100
AcDbCircle
 10
2017.674332829988
 20
1726.220043060032
 30
0.0
 40
50.0
100
AcDbArc
 50
132.1311233091877
 51
148.6157702538058
1001
GENIUS_GENODEF_13
1002
{
1000
HIER
1070
     0
1002
}
1002
{
1000
MANEDIT
1070
     0
1002
}
1002
{
1000
NOSEL
1070
     0
1002
}
1002
{
1000
BEHIND
1070
     0
1002
}
1002
{
1000
REACTOR
1002
}
1001
GENIUS_GENOBJ-N-FIL_13
1002
{
1000
OWNER
1000
GEN
1002
}
  0
ARC
  5
34F4
330
1F
100
AcDbEntity
  8
0
100
AcDbCircle
 10
1908.803321833727
 20
1739.771878469402
 30
0.0
 40
50.0
100
AcDbArc
 50
316.8596077616187
 51
328.6157702538058
1001
GENIUS_GENODEF_13
1002
{
1000
HIER
1070
     0
1002
}
1002
{
1000
MANEDIT
1070
     0
1002
}
1002
{
1000
NOSEL
1070
     0
1002
}
1002
{
1000
BEHIND
1070
     0
1002
}
1002
{
1000
REACTOR
1002
}
1001
GENIUS_GENOBJ-N-FIL_13
1002
{
1000
OWNER
1000
GEN
1002
}
  0
ARC
  5
34F5
330
1F
100
AcDbEntity
  8
0
100
AcDbCircle
 10
1906.662337177918
 20
1704.106534408279
 30
0.0
 40
50.0
100
AcDbArc
 50
317.3866007549185
 51
329.8969452032287
1001
GENIUS_GENODEF_13
1002
{
1000
HIER
1070
     0
1002
}
1002
{
1000
MANEDIT
1070
     0
1002
}
1002
{
1000
NOSEL
1070
     0
1002
}
1002
{
1000
BEHIND
1070
     0
1002
}
1002
{
1000
REACTOR
1002
}
1001
GENIUS_GENOBJ-N-FIL_13
1002
{
1000
OWNER
1000
GEN
1002
}
  0
ARC
  5
34F6
330
1F
100
AcDbEntity
  8
AM_1
100
AcDbCircle
 10
1256.588064646377
 20
1629.996736320801
 30
0.0
 40
10.0
100
AcDbArc
 50
123.5079219119273
 51
187.1500142323601
1001
GENIUS_GENODEF_13
1002
{
1000
HIER
1070
     0
1002
}
1002
{
1000
MANEDIT
1070
     0
1002
}
1002
{
1000
NOSEL
1070
     0
1002
}
1002
{
1000
BEHIND
1070
     0
1002
}
1002
{
1000
REACTOR
1002
}
1001
GENIUS_GENOBJ-N-FIL_13
1002
{
1000
OWNER
1000
GEN
1002
}
  0
ARC
  5
34F7
330
1F
100
AcDbEntity
  8
0
100
AcDbCircle
 10
1593.05655805181
 20
1472.229989890633
 30
0.0
 40
50.0
100
AcDbArc
 50
3.611093082158776
 51
12.10032309800704
1001
GENIUS_GENODEF_13
1002
{
1000
HIER
1070
     0
1002
}
1002
{
1000
MANEDIT
1070
     0
1002
}
1002
{
1000
NOSEL
1070
     0
1002
}
1002
{
1000
BEHIND
1070
     0
1002
}
1002
{
1000
REACTOR
1002
}
1001
GENIUS_GENOBJ-N-FIL_13
1002
{
1000
OWNER
1000
GEN
1002
}
  0
ARC
  5
34F8
330
1F
100
AcDbEntity
  8
0
100
AcDbCircle
 10
1586.999918448514
 20
1500.480912245556
 30
0.0
 40
50.0
100
AcDbArc
 50
12.10032309800704
 51
19.68383111820411
1001
GENIUS_GENODEF_13
1002
{
1000
HIER
1070
     0
1002
}
1002
{
1000
MANEDIT
1070
     0
1002
}
1002
{
1000
NOSEL
1070
     0
1002
}
1002
{
1000
BEHIND
1070
     0
1002
}
1002
{
1000
REACTOR
1002
}
1001
GENIUS_GENOBJ-N-FIL_13
1002
{
1000
OWNER
1000
GEN
1002
}
  0
ARC
  5
34F9
330
1F
100
AcDbEntity
  8
0
100
AcDbCircle
 10
1757.770723672143
 20
1755.05954223027
 30
0.0
 40
100.0
100
AcDbArc
 50
199.9602687044296
 51
218.2133967533906
1001
GENIUS_GENODEF_13
1002
{
1000
HIER
1070
     0
1002
}
1002
{
1000
MANEDIT
1070
     0
1002
}
1002
{
1000
NOSEL
1070
     0
1002
}
1002
{
1000
BEHIND
1070
     0
1002
}
1002
{
1000
REACTOR
1002
}
1001
GENIUS_GENOBJ-N-FIL_13
1002
{
1000
OWNER
1000
GEN
1002
}
  0
ARC
  5
34FA
330
1F
100
AcDbEntity
  8
0
100
AcDbCircle
 10
1755.441808171655
 20
1761.472017099438
 30
0.0
 40
100.0
100
AcDbArc
 50
174.6414304935759
 51
199.9602687044296
1001
GENIUS_GENODEF_13
1002
{
1000
HIER
1070
     0
1002
}
1002
{
1000
MANEDIT
1070
     0
1002
}
1002
{
1000
NOSEL
1070
     0
1002
}
1002
{
1000
BEHIND
1070
     0
1002
}
1002
{
1000
REACTOR
1002
}
1001
GENIUS_GENOBJ-N-FIL_13
1002
{
1000
OWNER
1000
GEN
1002
}
  0
ARC
  5
34FB
330
1F
100
AcDbEntity
  8
0
100
AcDbCircle
 10
1726.093919769991
 20
1688.403142837887
 30
0.0
 40
50.0
100
AcDbArc
 50
10.4886421298192
 51
22.82919009061501
1001
GENIUS_GENODEF_13
1002
{
1000
HIER
1070
     0
1002
}
1002
{
1000
MANEDIT
1070
     0
1002
}
1002
{
1000
NOSEL
1070
     0
1002
}
1002
{
1000
BEHIND
1070
     0
1002
}
1002
{
1000
REACTOR
1002
}
1001
GENIUS_GENOBJ-N-FIL_13
1002
{
1000
OWNER
1000
GEN
1002
}
  0
ARC
  5
34FC
330
1F
100
AcDbEntity
  8
0
100
AcDbCircle
 10
1817.245502732466
 20
1927.190691756299
 30
0.0
 40
50.0
100
AcDbArc
 50
302.2390122847474
 51
312.9391684286275
1001
GENIUS_GENODEF_13
1002
{
1000
HIER
1070
     0
1002
}
1002
{
1000
MANEDIT
1070
     0
1002
}
1002
{
1000
NOSEL
1070
     0
1002
}
1002
{
1000
BEHIND
1070
     0
1002
}
1002
{
1000
REACTOR
1002
}
1001
GENIUS_GENOBJ-N-FIL_13
1002
{
1000
OWNER
1000
GEN
1002
}
  0
ARC
  5
34FD
330
1F
100
AcDbEntity
  8
0
100
AcDbCircle
 10
1827.776080025274
 20
1936.989731853291
 30
0.0
 40
50.0
100
AcDbArc
 50
312.9391684286275
 51
324.3347131121331
1001
GENIUS_GENODEF_13
1002
{
1000
HIER
1070
     0
1002
}
1002
{
1000
MANEDIT
1070
     0
1002
}
1002
{
1000
NOSEL
1070
     0
1002
}
1002
{
1000
BEHIND
1070
     0
1002
}
1002
{
1000
REACTOR
1002
}
1001
GENIUS_GENOBJ-N-FIL_13
1002
{
1000
OWNER
1000
GEN
1002
}
  0
LINE
  5
34FE
330
1F
100
AcDbEntity
  8
0
100
AcDbLine
 10
1909.371467535956
 20
1974.682174814968
 30
0.0
 11
1901.593858726446
 21
1956.228370067177
 31
0.0
  0
LINE
  5
34FF
330
1F
100
AcDbEntity
  8
0
100
AcDbLine
 10
1056.894136799566
 20
1274.682174814969
 30
0.0
 11
1216.894136799565
 21
1274.682174814969
 31
0.0
  0
LINE
  5
3500
330
1F
100
AcDbEntity
  8
0
100
AcDbLine
 10
2056.894136799567
 20
2004.682174814968
 30
0.0
 11
1056.894136799567
 21
2004.682174814969
 31
0.0
  0
LINE
  5
3501
330
1F
100
AcDbEntity
  8
0
100
AcDbLine
 10
2026.894136799566
 20
1304.682174814969
 30
0.0
 11
2026.894136799567
 21
1974.682174814968
 31
0.0
  0
LINE
  5
3502
330
1F
100
AcDbEntity
  8
0
100
AcDbLine
 10
1086.894136799566
 20
1304.682174814969
 30
0.0
 11
1086.894136799567
 21
1974.682174814969
 31
0.0
  0
LINE
  5
3503
330
1F
100
AcDbEntity
  8
0
100
AcDbLine
 10
2056.894136799567
 20
1274.682174814969
 30
0.0
 11
2056.894136799567
 21
2004.682174814968
 31
0.0
  0
LINE
  5
3504
330
1F
100
AcDbEntity
  8
0
100
AcDbLine
 10
1056.894136799566
 20
1274.682174814969
 30
0.0
 11
1056.894136799567
 21
2004.682174814969
 31
0.0
  0
LINE
  5
3505
330
1F
100
AcDbEntity
  8
0
100
AcDbLine
 10
2026.894136799567
 20
1974.682174814968
 30
0.0
 11
1086.490828963527
 21
1974.682174814969
 31
0.0
  0
LINE
  5
3506
330
1F
100
AcDbEntity
  8
0
100
AcDbLine
 10
1086.894136799566
 20
1304.682174814969
 30
0.0
 11
2026.894136799566
 21
1304.682174814969
 31
0.0
  0
LINE
  5
3507
330
1F
100
AcDbEntity
  8
0
100
AcDbLine
 10
1742.503737030823
 20
1974.682219231565
 30
0.0
 11
1735.241144316215
 21
1952.551150583152
 31
0.0
  0
LINE
  5
3508
330
1F
100
AcDbEntity
  8
0
100
AcDbLine
 10
1861.837154495306
 20
1900.385863124057
 30
0.0
 11
1851.306577202498
 21
1890.586823027065
 31
0.0
  0
LINE
  5
3509
330
1F
100
AcDbEntity
  8
0
100
AcDbLine
 10
1894.921831918627
 20
1944.796429351657
 30
0.0
 11
1868.397926075101
 21
1907.837277008043
 31
0.0
  0
LINE
  5
350A
330
1F
100
AcDbEntity
  8
0
100
AcDbLine
 10
1995.981870301214
 20
1774.018725090998
 30
0.0
 11
1984.132854608231
 21
1763.300620707897
 31
0.0
  0
ARC
  5
350B
330
1F
100
AcDbEntity
  8
0
100
AcDbCircle
 10
2063.817569688981
 20
1699.367006044621
 30
0.0
 40
100.8691081722529
100
AcDbArc
 50
124.4008961830705
 51
132.2612649436649
  0
LINE
  5
350C
330
1F
100
AcDbEntity
  8
0
100
AcDbLine
 10
2026.894136799566
 20
1802.682213488543
 30
0.0
 11
2015.599021097228
 21
1790.240896397459
 31
0.0
  0
LINE
  5
350D
330
1F
100
AcDbEntity
  8
0
100
AcDbLine
 10
1886.991071741378
 20
1784.765161538185
 30
0.0
 11
1880.103026802842
 21
1780.124057539516
 31
0.0
  0
LINE
  5
350E
330
1F
100
AcDbEntity
  8
0
100
AcDbLine
 10
1945.287341960978
 20
1705.582460876317
 30
0.0
 11
1918.236964013123
 21
1676.716612816391
 31
0.0
  0
LINE
  5
350F
330
1F
100
AcDbEntity
  8
0
100
AcDbLine
 10
1974.989624374031
 20
1752.258776977599
 30
0.0
 11
1951.488030289685
 21
1713.733144551833
 31
0.0
  0
ARC
  5
3510
330
1F
100
AcDbEntity
  8
0
100
AcDbCircle
 10
1708.551946566576
 20
2087.591849585601
 30
0.0
 40
351.489040634305
100
AcDbArc
 50
300.508507768625
 51
334.9517782698626
  0
LINE
  5
3511
330
1F
100
AcDbEntity
  8
0
100
AcDbLine
 10
1761.022548457929
 20
1734.300472499786
 30
0.0
 11
1772.177200121688
 21
1707.802402412076
 31
0.0
  0
LINE
  5
3512
330
1F
100
AcDbEntity
  8
0
100
AcDbLine
 10
1808.722828508278
 20
1699.590015145077
 30
0.0
 11
1803.141560830448
 21
1687.677196735403
 31
0.0
  0
LINE
  5
3513
330
1F
100
AcDbEntity
  8
0
100
AcDbLine
 10
1775.25847042996
 20
1697.505173292863
 30
0.0
 11
1776.412950323208
 21
1691.269258627642
 31
0.0
  0
LINE
  5
3514
330
1F
100
AcDbEntity
  8
0
100
AcDbLine
 10
1661.448851577453
 20
1727.335173210752
 30
0.0
 11
1663.777767077943
 21
1720.922698341584
 31
0.0
  0
ARC
  5
3515
330
1F
100
AcDbEntity
  8
0
100
AcDbCircle
 10
1798.331846509221
 20
1757.44900350982
 30
0.0
 40
143.0783011148311
100
AcDbArc
 50
144.1005957963706
 51
174.6414304935759
  0
ARC
  5
3516
330
1F
100
AcDbEntity
  8
0
100
AcDbCircle
 10
1871.156691389179
 20
1764.996708202335
 30
0.0
 40
117.5749816929555
100
AcDbArc
 50
117.8071935477116
 51
174.8127942235528
  0
LINE
  5
3517
330
1F
100
AcDbEntity
  8
0
100
AcDbLine
 10
1843.91811869999
 20
1884.899184837664
 30
0.0
 11
1836.423977685057
 21
1880.489155801351
 31
0.0
  0
LINE
  5
3518
330
1F
100
AcDbEntity
  8
0
100
AcDbLine
 10
1883.362006724762
 20
1629.867767014786
 30
0.0
 11
1876.947914685622
 21
1618.563287971886
 31
0.0
  0
LINE
  5
3519
330
1F
100
AcDbEntity
  8
0
100
AcDbLine
 10
1899.62788476085
 20
1653.365947365456
 30
0.0
 11
1883.362006724762
 21
1629.867767014786
 31
0.0
  0
LINE
  5
351A
330
1F
100
AcDbEntity
  8
0
100
AcDbLine
 10
1876.947914685622
 20
1618.563287971886
 30
0.0
 11
1854.401146329356
 21
1569.173696920374
 31
0.0
  0
LINE
  5
351B
330
1F
100
AcDbEntity
  8
0
100
AcDbLine
 10
1827.34571933309
 20
1514.787361259611
 30
0.0
 11
1825.209144874978
 21
1511.535808319287
 31
0.0
  0
LINE
  5
351C
330
1F
100
AcDbEntity
  8
0
100
AcDbLine
 10
1840.023579558302
 20
1492.341475635425
 30
0.0
 11
1839.871200756254
 21
1474.884184048382
 31
0.0
  0
LINE
  5
351D
330
1F
100
AcDbEntity
  8
0
100
AcDbLine
 10
1854.401146329356
 20
1569.173696920374
 30
0.0
 11
1853.451757158214
 21
1566.769458245121
 31
0.0
  0
LINE
  5
351E
330
1F
100
AcDbEntity
  8
0
100
AcDbLine
 10
1791.49422299776
 20
1666.929074229568
 30
0.0
 11
1779.639731518587
 21
1645.425378579385
 31
0.0
  0
LINE
  5
351F
330
1F
100
AcDbEntity
  8
0
100
AcDbLine
 10
1779.639731518587
 20
1645.425378579385
 30
0.0
 11
1767.970759166693
 21
1622.561977316543
 31
0.0
  0
LINE
  5
3520
330
1F
100
AcDbEntity
  8
0
100
AcDbLine
 10
1756.716826797144
 20
1646.841632065279
 30
0.0
 11
1737.371320165506
 21
1606.680549653606
 31
0.0
  0
LINE
  5
3521
330
1F
100
AcDbEntity
  8
0
100
AcDbLine
 10
1767.970759166693
 20
1622.561977316543
 30
0.0
 11
1752.354810568485
 21
1588.93508519968
 31
0.0
  0
ARC
  5
3522
330
1F
100
AcDbEntity
  8
0
100
AcDbCircle
 10
1441.61990203416
 20
1491.845443571195
 30
0.0
 40
189.7971282777479
100
AcDbArc
 50
20.0367936499126
 51
49.72274498576268
  0
LINE
  5
3523
330
1F
100
AcDbEntity
  8
0
100
AcDbLine
 10
1817.122087830628
 20
1457.861712903618
 30
0.0
 11
1790.464844515559
 21
1417.760832691534
 31
0.0
  0
LINE
  5
3524
330
1F
100
AcDbEntity
  8
0
100
AcDbLine
 10
1808.020213961086
 20
1482.242854358388
 30
0.0
 11
1781.13526515526
 21
1442.063316666579
 31
0.0
  0
LINE
  5
3525
330
1F
100
AcDbEntity
  8
0
100
AcDbLine
 10
1635.88902118241
 20
1510.962116082644
 30
0.0
 11
1641.945660785706
 21
1482.711193727721
 31
0.0
  0
LINE
  5
3526
330
1F
100
AcDbEntity
  8
0
100
AcDbLine
 10
1644.052653046726
 20
1458.022436642394
 30
0.0
 11
1643.852457208833
 21
1435.086981909394
 31
0.0
  0
LINE
  5
3527
330
1F
100
AcDbEntity
  8
0
100
AcDbLine
 10
1642.957285691787
 20
1475.379177246257
 30
0.0
 11
1644.052653046726
 21
1458.022436642394
 31
0.0
  0
LINE
  5
3528
330
1F
100
AcDbEntity
  8
0
100
AcDbLine
 10
1619.929122936449
 20
1556.874396659602
 30
0.0
 11
1634.078200232524
 21
1517.322390335836
 31
0.0
  0
LINE
  5
3529
330
1F
100
AcDbEntity
  8
0
100
AcDbLine
 10
1752.354810568485
 20
1588.93508519968
 30
0.0
 11
1739.009458513393
 21
1559.355836026046
 31
0.0
  0
LINE
  5
352A
330
1F
100
AcDbEntity
  8
0
100
AcDbLine
 10
1825.209144874978
 20
1511.535808319287
 30
0.0
 11
1808.020213961086
 21
1482.242854358388
 31
0.0
  0
ARC
  5
352B
330
1F
100
AcDbEntity
  8
0
100
AcDbCircle
 10
2023.993490444352
 20
1596.164356508488
 30
0.0
 40
109.430590843105
100
AcDbArc
 50
137.3866007549186
 51
170.8126166185896
  0
ARC
  5
352C
330
1F
100
AcDbEntity
  8
0
100
AcDbCircle
 10
1816.409010976887
 20
1791.277462575633
 30
0.0
 40
188.6170909396128
100
AcDbArc
 50
202.1487607472625
 51
224.7419045968866
  0
LINE
  5
352D
330
1F
100
AcDbEntity
  8
0
100
AcDbLine
 10
1792.176976214412
 20
1668.021918735626
 30
0.0
 11
1791.49422299776
 21
1666.929074229568
 31
0.0
  0
LINE
  5
352E
330
1F
100
AcDbEntity
  8
0
100
AcDbLine
 10
1679.199495970364
 20
1693.200329679227
 30
0.0
 11
1680.641438862767
 21
1691.36882845799
 31
0.0
  0
LINE
  5
352F
330
1F
100
AcDbEntity
  8
0
100
AcDbLine
 10
1918.236964013123
 20
1676.716612816391
 30
0.0
 11
1899.62788476085
 21
1653.365947365456
 31
0.0
  0
LINE
  5
3530
330
1F
100
AcDbEntity
  8
0
100
AcDbLine
 10
1735.241144316215
 20
1952.551150583152
 30
0.0
 11
1720.94042905159
 21
1915.477035478312
 31
0.0
  0
LINE
  5
3531
330
1F
100
AcDbEntity
  8
0
100
AcDbLine
 10
1499.816684936995
 20
1727.093901374147
 30
0.0
 11
1506.728935043858
 21
1711.400809872682
 31
0.0
  0
LINE
  5
3532
330
1F
100
AcDbEntity
  8
0
100
AcDbLine
 10
1492.486467152657
 20
1745.142875738921
 30
0.0
 11
1499.816684936995
 21
1727.093901374147
 31
0.0
  0
LINE
  5
3533
330
1F
100
AcDbEntity
  8
AM_1
100
AcDbLine
 10
1353.612241047972
 20
1600.842499719499
 30
0.0
 11
1334.957604268165
 21
1553.054113484491
 31
0.0
  0
ARC
  5
3534
330
1F
100
AcDbEntity
  8
0
100
AcDbCircle
 10
1167.440729802325
 20
1771.07105520881
 30
0.0
 40
157.0858481457475
100
AcDbArc
 50
250.650980812228
 51
289.1895142531149
  0
LINE
  5
3535
330
1F
100
AcDbEntity
  8
0
100
AcDbLine
 10
1508.517814573893
 20
1707.942015906137
 30
0.0
 11
1521.275785581994
 21
1686.939192564151
 31
0.0
  0
LINE
  5
3536
330
1F
100
AcDbEntity
  8
0
100
AcDbLine
 10
1559.306091421804
 20
1640.930810560022
 30
0.0
 11
1564.321249902439
 21
1636.646396949597
 31
0.0
  0
LINE
  5
3537
330
1F
100
AcDbEntity
  8
0
100
AcDbLine
 10
1764.158632574757
 20
1367.689949044716
 30
0.0
 11
1756.71188946539
 21
1354.39350517634
 31
0.0
  0
ARC
  5
3538
330
1F
100
AcDbEntity
  8
0
100
AcDbCircle
 10
1840.738031941176
 20
1343.088569547651
 30
0.0
 40
80.43400571186749
100
AcDbArc
 50
143.6334499587023
 51
162.1902170531037
  0
LINE
  5
3539
330
1F
100
AcDbEntity
  8
0
100
AcDbLine
 10
1749.607994988327
 20
1388.133561509339
 30
0.0
 11
1738.222686245417
 21
1365.962881758363
 31
0.0
  0
LINE
  5
353A
330
1F
100
AcDbEntity
  8
0
100
AcDbLine
 10
1720.937218469996
 20
1339.909708862319
 30
0.0
 11
1695.757162860498
 21
1304.682174814969
 31
0.0
  0
LINE
  5
353B
330
1F
100
AcDbEntity
  8
AM_1
100
AcDbLine
 10
1756.71188946539
 20
1354.39350517634
 30
0.0
 11
1723.298081247012
 21
1304.682174814969
 31
0.0
  0
LINE
  5
353C
330
1F
100
AcDbEntity
  8
0
100
AcDbLine
 10
1738.222686245417
 20
1365.962881758363
 30
0.0
 11
1720.937218469996
 21
1339.909708862319
 31
0.0
  0
LINE
  5
353D
330
1F
100
AcDbEntity
  8
0
100
AcDbLine
 10
1790.464844515559
 20
1417.760832691534
 30
0.0
 11
1775.969365504273
 21
1390.781807757275
 31
0.0
  0
LINE
  5
353E
330
1F
100
AcDbEntity
  8
0
100
AcDbLine
 10
1781.13526515526
 20
1442.063316666579
 30
0.0
 11
1749.607994988327
 21
1388.133561509339
 31
0.0
  0
LINE
  5
353F
330
1F
100
AcDbEntity
  8
AM_1
100
AcDbLine
 10
1960.610630414423
 20
1691.222905487222
 30
0.0
 11
1953.009380710005
 21
1683.111502406042
 31
0.0
  0
LINE
  5
3540
330
1F
100
AcDbEntity
  8
0
100
AcDbLine
 10
1992.917201925532
 20
1741.322508732222
 30
0.0
 11
1969.415607841186
 21
1702.796876306456
 31
0.0
  0
LINE
  5
3541
330
1F
100
AcDbEntity
  8
AM_1
100
AcDbLine
 10
1992.917201925532
 20
1741.322508732222
 30
0.0
 11
1969.415607841186
 21
1702.796876306456
 31
0.0
  0
ARC
  5
3542
330
1F
100
AcDbEntity
  8
AM_1
100
AcDbCircle
 10
1908.803321833727
 20
1739.771878469402
 30
0.0
 40
71.0
100
AcDbArc
 50
316.8596077616187
 51
328.6157702538058
1001
GENIUS_GENODEF_13
1002
{
1000
HIER
1070
     0
1002
}
1002
{
1000
MANEDIT
1070
     0
1002
}
1002
{
1000
NOSEL
1070
     0
1002
}
1002
{
1000
BEHIND
1070
     0
1002
}
1002
{
1000
REACTOR
1002
}
1001
GENIUS_GENOBJ-N-FIL_13
1002
{
1000
OWNER
1000
GEN
1002
}
  0
ARC
  5
3543
330
1F
100
AcDbEntity
  8
AM_1
100
AcDbCircle
 10
2017.674332829988
 20
1726.220043060032
 30
0.0
 40
29.0
100
AcDbArc
 50
132.1311233091877
 51
148.6157702538058
1001
GENIUS_GENODEF_13
1002
{
1000
HIER
1070
     0
1002
}
1002
{
1000
MANEDIT
1070
     0
1002
}
1002
{
1000
NOSEL
1070
     0
1002
}
1002
{
1000
BEHIND
1070
     0
1002
}
1002
{
1000
REACTOR
1002
}
1001
GENIUS_GENOBJ-N-FIL_13
1002
{
1000
OWNER
1000
GEN
1002
}
  0
LINE
  5
3544
330
1F
100
AcDbEntity
  8
AM_1
100
AcDbLine
 10
2010.069291154353
 20
1758.444882478895
 30
0.0
 11
1998.220275461369
 21
1747.726778095795
 31
0.0
  0
ARC
  5
3545
330
1F
100
AcDbEntity
  8
AM_1
100
AcDbCircle
 10
2063.817569688981
 20
1699.367006044621
 30
0.0
 40
79.8691081722529
100
AcDbArc
 50
124.4008961830705
 51
132.2612649436649
  0
ARC
  5
3546
330
1F
100
AcDbEntity
  8
AM_1
100
AcDbCircle
 10
1978.579554646554
 20
1823.849810448756
 30
0.0
 40
71.0
100
AcDbArc
 50
304.4008961830706
 51
312.8817163468181
1001
GENIUS_GENODEF_13
1002
{
1000
HIER
1070
     0
1002
}
1002
{
1000
MANEDIT
1070
     0
1002
}
1002
{
1000
NOSEL
1070
     0
1002
}
1002
{
1000
BEHIND
1070
     0
1002
}
1002
{
1000
REACTOR
1002
}
1001
GENIUS_GENOBJ-N-FIL_13
1002
{
1000
OWNER
1000
GEN
1002
}
  0
ARC
  5
3547
330
1F
100
AcDbEntity
  8
AM_1
100
AcDbCircle
 10
1714.770576010023
 20
1860.254041828015
 30
0.0
 40
296.8791123298196
100
AcDbArc
 50
322.3790493243768
 51
323.3673407073149
  0
ARC
  5
3548
330
1F
100
AcDbEntity
  8
AM_1
100
AcDbCircle
 10
1425.963879268724
 20
1217.559086327018
 30
0.0
 40
610.9754453105095
100
AcDbArc
 50
10.40403037431048
 51
27.53732259581892
  0
ARC
  5
3549
330
1F
100
AcDbEntity
  8
AM_1
100
AcDbCircle
 10
1847.410217098405
 20
1440.832442699489
 30
0.0
 40
134.0862794366241
100
AcDbArc
 50
26.19847286286967
 51
49.69936623489433
  0
ARC
  5
354A
330
1F
100
AcDbEntity
  8
AM_1
100
AcDbCircle
 10
1985.326701086128
 20
1590.758970710952
 30
0.0
 40
69.94466634091278
100
AcDbArc
 50
196.448054763973
 51
222.9574310307851
  0
ARC
  5
354B
330
1F
100
AcDbEntity
  8
AM_1
100
AcDbCircle
 10
1986.974570574444
 20
1596.023885628435
 30
0.0
 40
73.15952065339086
100
AcDbArc
 50
166.0696562941264
 51
200.0395375921859
  0
ARC
  5
354C
330
1F
100
AcDbEntity
  8
AM_1
100
AcDbCircle
 10
1425.963879268724
 20
1217.559086327018
 30
0.0
 40
589.9754453105095
100
AcDbArc
 50
8.492062594238829
 51
27.53732259581892
  0
ARC
  5
354D
330
1F
100
AcDbEntity
  8
AM_1
100
AcDbCircle
 10
1847.410217098405
 20
1440.832442699489
 30
0.0
 40
113.0862794366241
100
AcDbArc
 50
26.19847286286967
 51
49.69936623489433
  0
ARC
  5
354E
330
1F
100
AcDbEntity
  8
AM_1
100
AcDbCircle
 10
1978.380293814882
 20
1592.286015700685
 30
0.0
 40
87.15397384058425
100
AcDbArc
 50
198.1480467221851
 51
228.4331651185169
  0
ARC
  5
354F
330
1F
100
AcDbEntity
  8
AM_1
100
AcDbCircle
 10
2002.692532853936
 20
1599.612123168578
 30
0.0
 40
112.5403433622401
100
AcDbArc
 50
185.3986274255373
 51
197.837004300035
  0
ARC
  5
3550
330
1F
100
AcDbEntity
  8
AM_1
100
AcDbCircle
 10
1414.066438104609
 20
1754.887647335766
 30
0.0
 40
477.9622492065465
100
AcDbArc
 50
329.844964535594
 51
336.822322675037
  0
ARC
  5
3551
330
1F
100
AcDbEntity
  8
AM_1
100
AcDbCircle
 10
1464.987568439033
 20
1730.27577881404
 30
0.0
 40
442.4094189267669
100
AcDbArc
 50
328.8675635235938
 51
337.4270516353068
  0
LINE
  5
3552
330
1F
100
AcDbEntity
  8
AM_1
100
AcDbLine
 10
1886.840880292567
 20
1589.666221168652
 30
0.0
 11
1873.504689923369
 21
1560.452766800731
 31
0.0
  0
LINE
  5
3553
330
1F
100
AcDbEntity
  8
AM_1
100
AcDbLine
 10
1843.678761033191
 20
1501.542146379423
 30
0.0
 11
1841.22814331891
 21
1497.013078975939
 31
0.0
  0
ARC
  5
3554
330
1F
100
AcDbEntity
  8
AM_1
100
AcDbCircle
 10
1850.023198632345
 20
1492.254192337909
 30
0.0
 40
10.0
100
AcDbArc
 50
151.5827733796602
 51
179.4998971929446
1001
GENIUS_GENODEF_13
1002
{
1000
HIER
1070
     0
1002
}
1002
{
1000
MANEDIT
1070
     0
1002
}
1002
{
1000
NOSEL
1070
     0
1002
}
1002
{
1000
BEHIND
1070
     0
1002
}
1002
{
1000
OTHER
1070
     0
1002
}
1002
{
1000
REACTOR
1002
}
1001
GENIUS_GENOBJ-N-FIL_13
1002
{
1000
OWNER
1000
GEN
1002
}
  0
ARC
  5
3555
330
1F
100
AcDbEntity
  8
AM_1
100
AcDbCircle
 10
2127.185925854572
 20
1499.899867351438
 30
0.0
 40
288.40169151626
100
AcDbArc
 50
184.9760334200529
 51
210.438238721242
  0
ARC
  5
3556
330
1F
100
AcDbEntity
  8
AM_1
100
AcDbCircle
 10
1789.40446247811
 20
1301.421511849856
 30
0.0
 40
103.3762744330195
100
AcDbArc
 50
1.80750582072843
 51
30.43823872124186
  0
ARC
  5
3557
330
1F
100
AcDbEntity
  8
AM_1
100
AcDbCircle
 10
2127.185925854572
 20
1499.899867351438
 30
0.0
 40
309.40169151626
100
AcDbArc
 50
187.9640694558233
 51
210.438238721242
  0
ARC
  5
3558
330
1F
100
AcDbEntity
  8
AM_1
100
AcDbCircle
 10
1789.40446247811
 20
1301.421511849856
 30
0.0
 40
82.37627443301958
100
AcDbArc
 50
2.268505669433755
 51
30.43823872124186
  0
ARC
  5
3559
330
1F
100
AcDbEntity
  8
AM_1
100
AcDbCircle
 10
1818.787656834872
 20
1456.754518299176
 30
0.0
 40
2.0
100
AcDbArc
 50
7.964069455823388
 51
146.3858453064603
1001
GENIUS_GENODEF_13
1002
{
1000
HIER
1070
     0
1002
}
1002
{
1000
MANEDIT
1070
     0
1002
}
1002
{
1000
NOSEL
1070
     0
1002
}
1002
{
1000
BEHIND
1070
     0
1002
}
1002
{
1000
OTHER
1070
     0
1002
}
1002
{
1000
REACTOR
1002
}
1001
GENIUS_GENOBJ-N-FIL_13
1002
{
1000
OWNER
1000
GEN
1002
}
  0
ARC
  5
355A
330
1F
100
AcDbEntity
  8
AM_1
100
AcDbCircle
 10
1888.660265396758
 20
1588.835656395353
 30
0.0
 40
2.0
100
AcDbArc
 50
5.398627425537396
 51
155.4628990275543
1001
GENIUS_GENOBJ-N-FIL_13
1002
{
1000
OWNER
1000
GEN
1002
}
1001
GENIUS_GENODEF_13
1002
{
1000
HIER
1070
     0
1002
}
1002
{
1000
MANEDIT
1070
     0
1002
}
1002
{
1000
NOSEL
1070
     0
1002
}
1002
{
1000
BEHIND
1070
     0
1002
}
1002
{
1000
OTHER
1070
     0
1002
}
1002
{
1000
REACTOR
1002
}
  0
ARC
  5
355B
330
1F
100
AcDbEntity
  8
AM_1
100
AcDbCircle
 10
2010.744371547062
 20
1592.431536583496
 30
0.0
 40
228.6824072363322
100
AcDbArc
 50
123.1040568772079
 51
152.057137046998
  0
ARC
  5
355C
330
1F
100
AcDbEntity
  8
AM_1
100
AcDbCircle
 10
1145.267569231096
 20
1791.484917776008
 30
0.0
 40
637.50556207973
100
AcDbArc
 50
310.2169112965653
 51
338.6465102634112
  0
ARC
  5
355D
330
1F
100
AcDbEntity
  8
AM_1
100
AcDbCircle
 10
2010.744371547062
 20
1592.431536583496
 30
0.0
 40
249.6824072363322
100
AcDbArc
 50
123.1040568772079
 51
152.057137046998
  0
LINE
  5
355E
330
1F
100
AcDbEntity
  8
AM_1
100
AcDbLine
 10
1780.14294205742
 20
1690.689737067978
 30
0.0
 11
1790.171106689857
 21
1709.43042253359
 31
0.0
  0
ARC
  5
355F
330
1F
100
AcDbEntity
  8
AM_1
100
AcDbCircle
 10
1778.379532349606
 20
1691.63333984584
 30
0.0
 40
2.0
100
AcDbArc
 50
190.4886421298192
 51
331.8487077409303
1001
GENIUS_GENODEF_13
1002
{
1000
HIER
1070
     0
1002
}
1002
{
1000
MANEDIT
1070
     0
1002
}
1002
{
1000
NOSEL
1070
     0
1002
}
1002
{
1000
BEHIND
1070
     0
1002
}
1002
{
1000
OTHER
1070
     0
1002
}
1002
{
1000
REACTOR
1002
}
1001
GENIUS_GENOBJ-N-FIL_13
1002
{
1000
OWNER
1000
GEN
1002
}
  0
ARC
  5
3560
330
1F
100
AcDbEntity
  8
AM_1
100
AcDbCircle
 10
1707.522671554693
 20
2088.277228087719
 30
0.0
 40
331.7117419886715
100
AcDbArc
 50
300.1994434815547
 51
332.6800023594455
  0
ARC
  5
3561
330
1F
100
AcDbEntity
  8
AM_1
100
AcDbCircle
 10
1915.371657709215
 20
1980.446133128736
 30
0.0
 40
97.55756776899604
100
AcDbArc
 50
332.9202087694814
 51
356.6128417088838
  0
ARC
  5
3562
330
1F
100
AcDbEntity
  8
AM_1
100
AcDbCircle
 10
1491.016914771915
 20
1848.908244089208
 30
0.0
 40
351.3079066972015
100
AcDbArc
 50
329.0096314513859
 51
332.6809414255835
  0
ARC
  5
3563
330
1F
100
AcDbEntity
  8
AM_1
100
AcDbCircle
 10
1145.267569231096
 20
1791.484917776008
 30
0.0
 40
616.50556207973
100
AcDbArc
 50
307.8503462465666
 51
320.0600814785961
  0
ARC
  5
3564
330
1F
100
AcDbEntity
  8
AM_1
100
AcDbCircle
 10
1145.267569231096
 20
1791.484917776008
 30
0.0
 40
616.50556207973
100
AcDbArc
 50
324.5492093863703
 51
335.3106074659678
  0
ARC
  5
3565
330
1F
100
AcDbEntity
  8
AM_1
100
AcDbCircle
 10
1605.471190693149
 20
1579.918116951979
 30
0.0
 40
110.0
100
AcDbArc
 50
335.3106074659678
 51
45.5978182637187
1001
GENIUS_GENODEF_13
1002
{
1000
HIER
1070
     0
1002
}
1002
{
1000
MANEDIT
1070
     0
1002
}
1002
{
1000
NOSEL
1070
     0
1002
}
1002
{
1000
BEHIND
1070
     0
1002
}
1002
{
1000
OTHER
1070
     0
1002
}
1002
{
1000
REACTOR
1002
}
1001
GENIUS_GENOBJ-N-FIL_13
1002
{
1000
OWNER
1000
GEN
1002
}
  0
ARC
  5
3566
330
1F
100
AcDbEntity
  8
AM_1
100
AcDbCircle
 10
1645.852381023642
 20
1435.069525249891
 30
0.0
 40
2.0
100
AcDbArc
 50
179.4998971929446
 51
324.5492093863244
1001
GENIUS_GENODEF_13
1002
{
1000
HIER
1070
     0
1002
}
1002
{
1000
MANEDIT
1070
     0
1002
}
1002
{
1000
NOSEL
1070
     0
1002
}
1002
{
1000
BEHIND
1070
     0
1002
}
1002
{
1000
OTHER
1070
     0
1002
}
1002
{
1000
REACTOR
1002
}
1001
GENIUS_GENOBJ-N-FIL_13
1002
{
1000
OWNER
1000
GEN
1002
}
  0
ARC
  5
3567
330
1F
100
AcDbEntity
  8
AM_1
100
AcDbCircle
 10
1605.471190693149
 20
1579.918116951979
 30
0.0
 40
131.0
100
AcDbArc
 50
11.9903662253935
 51
45.5978182637187
1001
GENIUS_GENODEF_13
1002
{
1000
HIER
1070
     0
1002
}
1002
{
1000
MANEDIT
1070
     0
1002
}
1002
{
1000
NOSEL
1070
     0
1002
}
1002
{
1000
BEHIND
1070
     0
1002
}
1002
{
1000
OTHER
1070
     0
1002
}
1002
{
1000
REACTOR
1002
}
1001
GENIUS_GENOBJ-N-FIL_13
1002
{
1000
OWNER
1000
GEN
1002
}
  0
ARC
  5
3568
330
1F
100
AcDbEntity
  8
AM_1
100
AcDbCircle
 10
1735.569469231941
 20
1607.548497355493
 30
0.0
 40
2.0
100
AcDbArc
 50
191.9903662253936
 51
334.27998361971
1001
GENIUS_GENOBJ-N-FIL_13
1002
{
1000
OWNER
1000
GEN
1002
}
1001
GENIUS_GENODEF_13
1002
{
1000
HIER
1070
     0
1002
}
1002
{
1000
MANEDIT
1070
     0
1002
}
1002
{
1000
NOSEL
1070
     0
1002
}
1002
{
1000
BEHIND
1070
     0
1002
}
1002
{
1000
OTHER
1070
     0
1002
}
1002
{
1000
REACTOR
1002
}
  0
ARC
  5
3569
330
1F
100
AcDbEntity
  8
AM_1
100
AcDbCircle
 10
1774.75431257196
 20
1761.725046166909
 30
0.0
 40
117.5041717051237
100
AcDbArc
 50
216.7807875221893
 51
228.6540889961433
  0
ARC
  5
356A
330
1F
100
AcDbEntity
  8
0
100
AcDbCircle
 10
1755.441808171655
 20
1761.472017099438
 30
0.0
 40
121.0
100
AcDbArc
 50
174.6414304935759
 51
199.9602687044296
1001
GENIUS_GENODEF_13
1002
{
1000
HIER
1070
     0
1002
}
1002
{
1000
MANEDIT
1070
     0
1002
}
1002
{
1000
NOSEL
1070
     0
1002
}
1002
{
1000
BEHIND
1070
     0
1002
}
1002
{
1000
REACTOR
1002
}
1001
GENIUS_GENOBJ-N-FIL_13
1002
{
1000
OWNER
1000
GEN
1002
}
  0
ARC
  5
356B
330
1F
100
AcDbEntity
  8
0
100
AcDbCircle
 10
1798.331846509221
 20
1757.44900350982
 30
0.0
 40
164.0783011148311
100
AcDbArc
 50
148.1576673033473
 51
174.6414304935759
  0
ARC
  5
356C
330
1F
100
AcDbEntity
  8
AM_1
100
AcDbCircle
 10
1324.621510431514
 20
2074.281879858171
 30
0.0
 40
426.9515942758594
100
AcDbArc
 50
326.9355849783455
 51
338.1640420480203
  0
ARC
  5
356D
330
1F
100
AcDbEntity
  8
AM_1
100
AcDbCircle
 10
1324.621510431514
 20
2074.281879858171
 30
0.0
 40
405.9515942758594
100
AcDbArc
 50
325.4427210301837
 51
338.1640420480203
  0
LINE
  5
356E
330
1F
100
AcDbEntity
  8
AM_1
100
AcDbLine
 10
1715.45525528411
 20
1959.608496090962
 30
0.0
 11
1701.347518338999
 21
1923.034670677792
 31
0.0
  0
LINE
  5
356F
330
1F
100
AcDbEntity
  8
AM_1
100
AcDbLine
 10
1720.401875396427
 20
1974.68217481497
 30
0.0
 11
1715.45525528411
 21
1959.608496090962
 31
0.0
  0
ARC
  5
3570
330
1F
100
AcDbEntity
  8
AM_1
100
AcDbCircle
 10
1887.580742138657
 20
1776.861920334402
 30
0.0
 40
133.523231048037
100
AcDbArc
 50
180.5300558054813
 51
198.5877625919078
  0
ARC
  5
3571
330
1F
100
AcDbEntity
  8
AM_1
100
AcDbCircle
 10
1272.10418815185
 20
2844.697610744548
 30
0.0
 40
1117.208471791523
100
AcDbArc
 50
299.150843380343
 51
300.3390479585487
  0
ARC
  5
3572
330
1F
100
AcDbEntity
  8
AM_1
100
AcDbCircle
 10
1873.236555993216
 20
1775.943056106705
 30
0.0
 40
140.1737510827796
100
AcDbArc
 50
180.1521034051521
 51
194.2047396770844
  0
LINE
  5
3573
330
1F
100
AcDbEntity
  8
AM_1
100
AcDbLine
 10
1737.348609777267
 20
1741.546158487469
 30
0.0
 11
1741.667570710216
 21
1726.152783478625
 31
0.0
  0
ARC
  5
3574
330
1F
100
AcDbEntity
  8
AM_1
100
AcDbCircle
 10
1870.924892662603
 20
1765.237923609581
 30
0.0
 40
138.2482918757584
100
AcDbArc
 50
117.972938533587
 51
175.7135770459979
  0
ARC
  5
3575
330
1F
100
AcDbEntity
  8
AM_1
100
AcDbCircle
 10
1272.10418815185
 20
2844.697610744548
 30
0.0
 40
1096.208471791523
100
AcDbArc
 50
299.150843380343
 51
300.3390479585487
  0
LINE
  5
3576
330
1F
100
AcDbEntity
  8
AM_1
100
AcDbLine
 10
1847.531503217891
 20
1915.759487990334
 30
0.0
 11
1837.000925925083
 21
1905.960447893343
 31
0.0
  0
ARC
  5
3577
330
1F
100
AcDbEntity
  8
AM_1
100
AcDbCircle
 10
1827.776080025274
 20
1936.989731853291
 30
0.0
 40
29.0
100
AcDbArc
 50
312.9391684286275
 51
324.3347131121331
1001
GENIUS_GENODEF_13
1002
{
1000
HIER
1070
     0
1002
}
1002
{
1000
MANEDIT
1070
     0
1002
}
1002
{
1000
NOSEL
1070
     0
1002
}
1002
{
1000
BEHIND
1070
     0
1002
}
1002
{
1000
REACTOR
1002
}
1001
GENIUS_GENOBJ-N-FIL_13
1002
{
1000
OWNER
1000
GEN
1002
}
  0
LINE
  5
3578
330
1F
100
AcDbEntity
  8
AM_1
100
AcDbLine
 10
1877.375004318584
 20
1956.333709844668
 30
0.0
 11
1851.336750734175
 21
1920.081308043048
 31
0.0
  0
LINE
  5
3579
330
1F
100
AcDbEntity
  8
AM_1
100
AcDbLine
 10
1886.614147941163
 20
1974.682174814968
 30
0.0
 11
1882.918258107843
 21
1965.831595646867
 31
0.0
  0
ARC
  5
357A
330
1F
100
AcDbEntity
  8
AM_1
100
AcDbCircle
 10
1791.204873579914
 20
2012.99175602325
 30
0.0
 40
124.128199966323
100
AcDbArc
 50
326.6745300325912
 51
332.7872101150057
  0
ARC
  5
357B
330
1F
100
AcDbEntity
  8
AM_1
100
AcDbCircle
 10
1791.204873579914
 20
2012.99175602325
 30
0.0
 40
103.128199966323
100
AcDbArc
 50
326.6745300325912
 51
332.7872101150057
  0
LINE
  5
357C
330
1F
100
AcDbEntity
  8
AM_1
100
AcDbLine
 10
1832.715619993632
 20
1902.661617743491
 30
0.0
 11
1825.773485637228
 21
1898.587968445808
 31
0.0
  0
ARC
  5
357D
330
1F
100
AcDbEntity
  8
AM_1
100
AcDbCircle
 10
1817.245502732466
 20
1927.190691756299
 30
0.0
 40
29.0
100
AcDbArc
 50
302.2390122847474
 51
312.9391684286275
1001
GENIUS_GENODEF_13
1002
{
1000
HIER
1070
     0
1002
}
1002
{
1000
MANEDIT
1070
     0
1002
}
1002
{
1000
NOSEL
1070
     0
1002
}
1002
{
1000
BEHIND
1070
     0
1002
}
1002
{
1000
REACTOR
1002
}
1001
GENIUS_GENOBJ-N-FIL_13
1002
{
1000
OWNER
1000
GEN
1002
}
  0
LINE
  5
357E
330
1F
100
AcDbEntity
  8
0
100
AcDbLine
 10
1741.667570710216
 20
1726.152783478625
 30
0.0
 11
1757.753833809716
 21
1687.939584186645
 31
0.0
  0
ARC
  5
357F
330
1F
100
AcDbEntity
  8
0
100
AcDbCircle
 10
1711.670553458018
 20
1668.540324612453
 30
0.0
 40
50.0
100
AcDbArc
 50
334.2799836197119
 51
22.82919009061493
1001
GENIUS_GENODEF_13
1002
{
1000
HIER
1070
     0
1002
}
1002
{
1000
MANEDIT
1070
     0
1002
}
1002
{
1000
NOSEL
1070
     0
1002
}
1002
{
1000
BEHIND
1070
     0
1002
}
1002
{
1000
OTHER
1070
     0
1002
}
1002
{
1000
REACTOR
1002
}
1001
GENIUS_GENOBJ-N-FIL_13
1002
{
1000
OWNER
1000
GEN
1002
}
  0
ARC
  5
3580
330
1F
100
AcDbEntity
  8
AM_1
100
AcDbCircle
 10
1432.034047657712
 20
1990.081124194919
 30
0.0
 40
190.7307512332185
100
AcDbArc
 50
317.2329649729587
 51
355.3690691373073
  0
ARC
  5
3581
330
1F
100
AcDbEntity
  8
AM_1
100
AcDbCircle
 10
1401.010531425334
 20
2018.776077890267
 30
0.0
 40
232.9901753537474
100
AcDbArc
 50
305.2847034252578
 51
317.2329649729587
  0
ARC
  5
3582
330
1F
100
AcDbEntity
  8
AM_1
100
AcDbCircle
 10
1641.181291526592
 20
1679.378655303361
 30
0.0
 40
182.7893388917839
100
AcDbArc
 50
125.2847034252577
 51
140.4362978516424
  0
ARC
  5
3583
330
1F
100
AcDbEntity
  8
AM_1
100
AcDbCircle
 10
1538.811745095375
 20
1763.956929622384
 30
0.0
 40
50.0
100
AcDbArc
 50
140.4362978516424
 51
202.1035134081991
1001
GENIUS_GENODEF_13
1002
{
1000
HIER
1070
     0
1002
}
1002
{
1000
MANEDIT
1070
     0
1002
}
1002
{
1000
NOSEL
1070
     0
1002
}
1002
{
1000
BEHIND
1070
     0
1002
}
1002
{
1000
OTHER
1070
     0
1002
}
1002
{
1000
REACTOR
1002
}
1001
GENIUS_GENOBJ-N-FIL_13
1002
{
1000
OWNER
1000
GEN
1002
}
  0
ARC
  5
3584
330
1F
100
AcDbEntity
  8
AM_1
100
AcDbCircle
 10
1432.034047657712
 20
1990.081124194919
 30
0.0
 40
169.7307512332185
100
AcDbArc
 50
317.2329649729587
 51
355.3690691373073
  0
ARC
  5
3585
330
1F
100
AcDbEntity
  8
AM_1
100
AcDbCircle
 10
1401.010531425334
 20
2018.776077890267
 30
0.0
 40
211.9901753537474
100
AcDbArc
 50
311.6739082610327
 51
317.2329649729587
  0
ARC
  5
3586
330
1F
100
AcDbEntity
  8
AM_1
100
AcDbCircle
 10
1538.811745095375
 20
1763.956929622384
 30
0.0
 40
71.0
100
AcDbArc
 50
140.4362978516424
 51
165.9305247340272
1001
GENIUS_GENODEF_13
1002
{
1000
HIER
1070
     0
1002
}
1002
{
1000
MANEDIT
1070
     0
1002
}
1002
{
1000
NOSEL
1070
     0
1002
}
1002
{
1000
BEHIND
1070
     0
1002
}
1002
{
1000
OTHER
1070
     0
1002
}
1002
{
1000
REACTOR
1002
}
1001
GENIUS_GENOBJ-N-FIL_13
1002
{
1000
OWNER
1000
GEN
1002
}
  0
ARC
  5
3587
330
1F
100
AcDbEntity
  8
AM_1
100
AcDbCircle
 10
1641.181291526592
 20
1679.378655303361
 30
0.0
 40
203.789338891784
100
AcDbArc
 50
134.2746983591345
 51
140.4362978516424
  0
ARC
  5
3588
330
1F
100
AcDbEntity
  8
AM_1
100
AcDbCircle
 10
1497.519924929057
 20
1826.72404460634
 30
0.0
 40
2.0
100
AcDbArc
 50
314.2746983591346
 51
98.99760523714036
1001
GENIUS_GENOBJ-N-FIL_13
1002
{
1000
OWNER
1000
GEN
1002
}
1001
GENIUS_GENODEF_13
1002
{
1000
HIER
1070
     0
1002
}
1002
{
1000
MANEDIT
1070
     0
1002
}
1002
{
1000
NOSEL
1070
     0
1002
}
1002
{
1000
BEHIND
1070
     0
1002
}
1002
{
1000
OTHER
1070
     0
1002
}
1002
{
1000
REACTOR
1002
}
  0
ARC
  5
3589
330
1F
100
AcDbEntity
  8
AM_1
100
AcDbCircle
 10
1211.955866434798
 20
1866.607339059946
 30
0.0
 40
271.7502134189466
100
AcDbArc
 50
329.8419441721391
 51
341.6860277784049
  0
ARC
  5
358A
330
1F
100
AcDbEntity
  8
AM_1
100
AcDbCircle
 10
1699.908471569495
 20
1795.87408169344
 30
0.0
 40
209.2282164831489
100
AcDbArc
 50
211.17647063263
 51
227.7780092561721
  0
ARC
  5
358B
330
1F
100
AcDbEntity
  8
AM_1
100
AcDbCircle
 10
1539.954704244459
 20
1726.393095061158
 30
0.0
 40
36.45161661907692
100
AcDbArc
 50
204.2860684585525
 51
210.4097144978424
  0
LINE
  5
358C
330
1F
100
AcDbEntity
  8
AM_1
100
AcDbLine
 10
1475.112853094756
 20
1731.082828502576
 30
0.0
 11
1487.510611752516
 21
1702.93582021708
 31
0.0
  0
ARC
  5
358D
330
1F
100
AcDbEntity
  8
AM_1
100
AcDbCircle
 10
1539.954704244459
 20
1726.393095061158
 30
0.0
 40
57.45161661907692
100
AcDbArc
 50
204.2860684585525
 51
210.4097144978424
  0
LINE
  5
358E
330
1F
100
AcDbEntity
  8
AM_1
100
AcDbLine
 10
1490.406829539106
 20
1697.312235989802
 30
0.0
 11
1502.930522395508
 21
1676.690529119177
 31
0.0
  0
ARC
  5
358F
330
1F
100
AcDbEntity
  8
AM_1
100
AcDbCircle
 10
1699.908471569495
 20
1795.87408169344
 30
0.0
 40
230.2282164831489
100
AcDbArc
 50
211.17647063263
 51
227.7780092561721
  0
ARC
  5
3590
330
1F
100
AcDbEntity
  8
AM_1
100
AcDbCircle
 10
1439.50048450014
 20
1490.744105288045
 30
0.0
 40
171.1658858189684
100
AcDbArc
 50
20.14006551770075
 51
51.86680829433856
  0
LINE
  5
3591
330
1F
100
AcDbEntity
  8
AM_1
100
AcDbLine
 10
1600.156244587165
 20
1549.800975861685
 30
0.0
 11
1613.836528277903
 21
1511.559424435779
 31
0.0
  0
LINE
  5
3592
330
1F
100
AcDbEntity
  8
AM_1
100
AcDbLine
 10
1615.355598034175
 20
1506.560010471067
 30
0.0
 11
1621.085520699351
 21
1479.833044543376
 31
0.0
  0
LINE
  5
3593
330
1F
100
AcDbEntity
  8
AM_1
100
AcDbLine
 10
1622.097145605432
 20
1472.501028061909
 30
0.0
 11
1622.933842360078
 21
1459.243075404259
 31
0.0
  0
LINE
  5
3594
330
1F
100
AcDbEntity
  8
AM_1
100
AcDbLine
 10
1623.031210090319
 20
1455.657471561056
 30
0.0
 11
1622.618395624329
 21
1408.363343983247
 31
0.0
  0
ARC
  5
3595
330
1F
100
AcDbEntity
  8
AM_1
100
AcDbCircle
 10
1566.758246493893
 20
1494.7179463455
 30
0.0
 40
50.0
100
AcDbArc
 50
12.10032309800704
 51
19.68383111820459
1001
GENIUS_GENOBJ-N-FIL_13
1002
{
1000
OWNER
1000
GEN
1002
}
1001
GENIUS_GENODEF_13
1002
{
1000
HIER
1070
     0
1002
}
1002
{
1000
MANEDIT
1070
     0
1002
}
1002
{
1000
NOSEL
1070
     0
1002
}
1002
{
1000
BEHIND
1070
     0
1002
}
1002
{
1000
OTHER
1070
     0
1002
}
1002
{
1000
REACTOR
1002
}
  0
ARC
  5
3596
330
1F
100
AcDbEntity
  8
AM_1
100
AcDbCircle
 10
1572.196417965454
 20
1469.351840706288
 30
0.0
 40
50.0
100
AcDbArc
 50
3.611093082158776
 51
12.10032309800704
1001
GENIUS_GENODEF_13
1002
{
1000
HIER
1070
     0
1002
}
1002
{
1000
MANEDIT
1070
     0
1002
}
1002
{
1000
NOSEL
1070
     0
1002
}
1002
{
1000
BEHIND
1070
     0
1002
}
1002
{
1000
OTHER
1070
     0
1002
}
1002
{
1000
REACTOR
1002
}
1001
GENIUS_GENOBJ-N-FIL_13
1002
{
1000
OWNER
1000
GEN
1002
}
  0
ARC
  5
3597
330
1F
100
AcDbEntity
  8
AM_1
100
AcDbCircle
 10
1573.033114720101
 20
1456.093888048638
 30
0.0
 40
50.0
100
AcDbArc
 50
359.4998971929447
 51
3.611093082158776
1001
GENIUS_GENODEF_13
1002
{
1000
HIER
1070
     0
1002
}
1002
{
1000
MANEDIT
1070
     0
1002
}
1002
{
1000
NOSEL
1070
     0
1002
}
1002
{
1000
BEHIND
1070
     0
1002
}
1002
{
1000
OTHER
1070
     0
1002
}
1002
{
1000
REACTOR
1002
}
1001
GENIUS_GENOBJ-N-FIL_13
1002
{
1000
OWNER
1000
GEN
1002
}
  0
ARC
  5
3598
330
1F
100
AcDbEntity
  8
AM_1
100
AcDbCircle
 10
1602.619157476242
 20
1408.53791057828
 30
0.0
 40
20.0
100
AcDbArc
 50
320.060081478596
 51
359.4998971929447
1001
GENIUS_GENOBJ-N-FIL_13
1002
{
1000
OWNER
1000
GEN
1002
}
1001
GENIUS_GENODEF_13
1002
{
1000
HIER
1070
     0
1002
}
1002
{
1000
MANEDIT
1070
     0
1002
}
1002
{
1000
NOSEL
1070
     0
1002
}
1002
{
1000
BEHIND
1070
     0
1002
}
1002
{
1000
OTHER
1070
     0
1002
}
1002
{
1000
REACTOR
1002
}
  0
ARC
  5
3599
330
1F
100
AcDbEntity
  8
AM_1
100
AcDbCircle
 10
1211.955866434798
 20
1866.607339059946
 30
0.0
 40
292.7502134189466
100
AcDbArc
 50
329.8419441721391
 51
332.4495408097582
  0
ARC
  5
359A
330
1F
100
AcDbEntity
  8
AM_1
100
AcDbCircle
 10
1473.282536590819
 20
1730.276639011567
 30
0.0
 40
2.0
100
AcDbArc
 50
23.77178907302254
 51
152.449540809758
1001
GENIUS_GENOBJ-N-FIL_13
1002
{
1000
OWNER
1000
GEN
1002
}
1001
GENIUS_GENODEF_13
1002
{
1000
HIER
1070
     0
1002
}
1002
{
1000
MANEDIT
1070
     0
1002
}
1002
{
1000
NOSEL
1070
     0
1002
}
1002
{
1000
BEHIND
1070
     0
1002
}
1002
{
1000
OTHER
1070
     0
1002
}
1002
{
1000
REACTOR
1002
}
  0
ARC
  5
359B
330
1F
100
AcDbEntity
  8
AM_1
100
AcDbCircle
 10
1252.775908369243
 20
1827.628760673474
 30
0.0
 40
238.2388141510948
100
AcDbArc
 50
311.090794061444
 51
333.0169504797433
  0
ARC
  5
359C
330
1F
100
AcDbEntity
  8
AM_1
100
AcDbCircle
 10
1481.386336229117
 20
1561.343724245112
 30
0.0
 40
112.7399441578193
100
AcDbArc
 50
129.7081436811809
 51
164.4049015109386
  0
ARC
  5
359D
330
1F
100
AcDbEntity
  8
AM_1
100
AcDbCircle
 10
1252.775908369243
 20
1827.628760673474
 30
0.0
 40
217.2388141510948
100
AcDbArc
 50
311.090794061444
 51
333.0169504797433
  0
ARC
  5
359E
330
1F
100
AcDbEntity
  8
AM_1
100
AcDbCircle
 10
1481.386336229117
 20
1561.343724245112
 30
0.0
 40
133.7399441578194
100
AcDbArc
 50
129.7081436811809
 51
162.8220644932906
  0
LINE
  5
359F
330
1F
100
AcDbEntity
  8
AM_1
100
AcDbLine
 10
1354.393600861944
 20
1545.094037852537
 30
0.0
 11
1338.290480956831
 21
1507.558436553546
 31
0.0
  0
LINE
  5
35A0
330
1F
100
AcDbEntity
  8
AM_1
100
AcDbLine
 10
1357.954039851106
 20
1554.21496770974
 30
0.0
 11
1354.393600861944
 21
1545.094037852537
 31
0.0
  0
LINE
  5
35A1
330
1F
100
AcDbEntity
  8
AM_1
100
AcDbLine
 10
1334.957604268165
 20
1553.054113484491
 30
0.0
 11
1317.705320979789
 21
1512.839867374079
 31
0.0
  0
ARC
  5
35A2
330
1F
100
AcDbEntity
  8
AM_1
100
AcDbCircle
 10
1337.979469668804
 20
1624.20637623232
 30
0.0
 40
91.4267159947391
100
AcDbArc
 50
177.150111894706
 51
232.5333117012096
  0
ARC
  5
35A3
330
1F
100
AcDbEntity
  8
AM_1
100
AcDbCircle
 10
1216.240948369073
 20
1465.362512759505
 30
0.0
 40
108.7023436922919
100
AcDbArc
 50
25.8487418838539
 51
52.53331170120944
  0
ARC
  5
35A4
330
1F
100
AcDbEntity
  8
AM_1
100
AcDbCircle
 10
1315.8673224033
 20
1513.628385752322
 30
0.0
 40
2.0
100
AcDbArc
 50
205.8487418838536
 51
336.7802204065544
1001
GENIUS_GENOBJ-N-FIL_13
1002
{
1000
OWNER
1000
GEN
1002
}
1001
GENIUS_GENODEF_13
1002
{
1000
HIER
1070
     0
1002
}
1002
{
1000
MANEDIT
1070
     0
1002
}
1002
{
1000
NOSEL
1070
     0
1002
}
1002
{
1000
BEHIND
1070
     0
1002
}
1002
{
1000
OTHER
1070
     0
1002
}
1002
{
1000
REACTOR
1002
}
  0
ARC
  5
35A5
330
1F
100
AcDbEntity
  8
AM_1
100
AcDbCircle
 10
1216.240948369073
 20
1465.362512759505
 30
0.0
 40
87.70234369229191
100
AcDbArc
 50
14.16163527768322
 51
52.53331170120944
  0
ARC
  5
35A6
330
1F
100
AcDbEntity
  8
AM_1
100
AcDbCircle
 10
1337.979469668804
 20
1624.20637623232
 30
0.0
 40
112.4267159947391
100
AcDbArc
 50
183.0339479234174
 51
232.5333117012096
  0
ARC
  5
35A7
330
1F
100
AcDbEntity
  8
AM_1
100
AcDbCircle
 10
1291.58187029096
 20
1484.373028250543
 30
0.0
 40
10.0
100
AcDbArc
 50
310.1528295966037
 51
14.16163527768322
1001
GENIUS_GENODEF_13
1002
{
1000
HIER
1070
     0
1002
}
1002
{
1000
MANEDIT
1070
     0
1002
}
1002
{
1000
NOSEL
1070
     0
1002
}
1002
{
1000
BEHIND
1070
     0
1002
}
1002
{
1000
OTHER
1070
     0
1002
}
1002
{
1000
REACTOR
1002
}
1001
GENIUS_GENOBJ-N-FIL_13
1002
{
1000
OWNER
1000
GEN
1002
}
  0
ARC
  5
35A8
330
1F
100
AcDbEntity
  8
AM_1
100
AcDbCircle
 10
1220.717344800714
 20
1617.991257510225
 30
0.0
 40
5.0
100
AcDbArc
 50
3.033947923417326
 51
109.1895142531158
1001
GENIUS_GENOBJ-N-FIL_13
1002
{
1000
OWNER
1000
GEN
1002
}
1001
GENIUS_GENODEF_13
1002
{
1000
HIER
1070
     0
1002
}
1002
{
1000
MANEDIT
1070
     0
1002
}
1002
{
1000
NOSEL
1070
     0
1002
}
1002
{
1000
BEHIND
1070
     0
1002
}
1002
{
1000
OTHER
1070
     0
1002
}
1002
{
1000
REACTOR
1002
}
  0
ARC
  5
35A9
330
1F
100
AcDbEntity
  8
AM_1
100
AcDbCircle
 10
1209.177231994692
 20
1551.288249029602
 30
0.0
 40
115.9905644274888
100
AcDbArc
 50
276.7528426008007
 51
319.9992295911096
  0
ARC
  5
35AA
330
1F
100
AcDbEntity
  8
AM_1
100
AcDbCircle
 10
1236.061782516231
 20
1324.238336252567
 30
0.0
 40
112.6454824872621
100
AcDbArc
 50
96.75284260080097
 51
121.3686119138426
  0
ARC
  5
35AB
330
1F
100
AcDbEntity
  8
AM_1
100
AcDbCircle
 10
1226.277877949164
 20
1327.904986453409
 30
0.0
 40
102.1970801082957
100
AcDbArc
 50
159.4558361600674
 51
193.1343725677084
  0
ARC
  5
35AC
330
1F
100
AcDbEntity
  8
AM_1
100
AcDbCircle
 10
1236.061782516231
 20
1324.238336252567
 30
0.0
 40
91.64548248726211
100
AcDbArc
 50
96.75284260080097
 51
159.4558361600675
  0
ARC
  5
35AD
330
1F
100
AcDbEntity
  8
AM_1
100
AcDbCircle
 10
1226.277877949164
 20
1327.904986453409
 30
0.0
 40
81.19708010829569
100
AcDbArc
 50
159.4558361600674
 51
196.618961629093
  0
ARC
  5
35AE
330
1F
100
AcDbEntity
  8
AM_1
100
AcDbCircle
 10
1209.177231994692
 20
1551.288249029602
 30
0.0
 40
136.9905644274888
100
AcDbArc
 50
276.7528426008007
 51
289.5802433679443
  0
ARC
  5
35AF
330
1F
100
AcDbEntity
  8
AM_1
100
AcDbCircle
 10
1114.155666304144
 20
1601.033221841143
 30
0.0
 40
242.8455283178115
100
AcDbArc
 50
325.4275385014194
 51
337.3615624201223
  0
ARC
  5
35B0
330
1F
100
AcDbEntity
  8
AM_1
100
AcDbCircle
 10
1209.177231994692
 20
1551.288249029602
 30
0.0
 40
136.9905644274888
100
AcDbArc
 50
305.7351443356258
 51
319.9992295911096
  0
ARC
  5
35B1
330
1F
100
AcDbEntity
  8
AM_1
100
AcDbCircle
 10
1295.025486721313
 20
1431.972268578093
 30
0.0
 40
10.0
100
AcDbArc
 50
125.735144335626
 51
199.3642711109647
1001
GENIUS_GENOBJ-N-FIL_13
1002
{
1000
OWNER
1000
GEN
1002
}
1001
GENIUS_GENODEF_13
1002
{
1000
HIER
1070
     0
1002
}
1002
{
1000
MANEDIT
1070
     0
1002
}
1002
{
1000
NOSEL
1070
     0
1002
}
1002
{
1000
BEHIND
1070
     0
1002
}
1002
{
1000
OTHER
1070
     0
1002
}
1002
{
1000
REACTOR
1002
}
  0
ARC
  5
35B2
330
1F
100
AcDbEntity
  8
AM_1
100
AcDbCircle
 10
1236.061782516231
 20
1324.238336252567
 30
0.0
 40
112.6454824872621
100
AcDbArc
 50
139.4619297697976
 51
159.4558361600675
  0
ARC
  5
35B3
330
1F
100
AcDbEntity
  8
AM_1
100
AcDbCircle
 10
1246.895617423289
 20
1603.294802656498
 30
0.0
 40
159.9824315002213
100
AcDbArc
 50
147.9619265605875
 51
205.8377668035323
  0
ARC
  5
35B4
330
1F
100
AcDbEntity
  8
AM_1
100
AcDbCircle
 10
1246.895617423289
 20
1603.294802656498
 30
0.0
 40
138.9824315002213
100
AcDbArc
 50
147.9619265605875
 51
160.2517203902726
  0
ARC
  5
35B5
330
1F
100
AcDbEntity
  8
AM_1
100
AcDbCircle
 10
1088.894136799566
 20
1567.603904160734
 30
0.0
 40
2.0
100
AcDbArc
 50
12.7288910261942
 51
180.0
1001
GENIUS_GENODEF_13
1002
{
1000
HIER
1070
     0
1002
}
1002
{
1000
MANEDIT
1070
     0
1002
}
1002
{
1000
NOSEL
1070
     0
1002
}
1002
{
1000
BEHIND
1070
     0
1002
}
1002
{
1000
OTHER
1070
     0
1002
}
1002
{
1000
REACTOR
1002
}
1001
GENIUS_GENOBJ-N-FIL_13
1002
{
1000
OWNER
1000
GEN
1002
}
  0
ARC
  5
35B6
330
1F
100
AcDbEntity
  8
AM_1
100
AcDbCircle
 10
1088.894136799566
 20
1638.985701152263
 30
0.0
 40
2.0
100
AcDbArc
 50
180.0
 51
347.2711089738057
1001
GENIUS_GENODEF_13
1002
{
1000
HIER
1070
     0
1002
}
1002
{
1000
MANEDIT
1070
     0
1002
}
1002
{
1000
NOSEL
1070
     0
1002
}
1002
{
1000
BEHIND
1070
     0
1002
}
1002
{
1000
OTHER
1070
     0
1002
}
1002
{
1000
REACTOR
1002
}
1001
GENIUS_GENOBJ-N-FIL_13
1002
{
1000
OWNER
1000
GEN
1002
}
  0
ARC
  5
35B7
330
1F
100
AcDbEntity
  8
AM_1
100
AcDbCircle
 10
1213.146629360378
 20
1583.586466737533
 30
0.0
 40
100.0637683490774
100
AcDbArc
 50
204.1028364617992
 51
220.3640952068434
  0
ARC
  5
35B8
330
1F
100
AcDbEntity
  8
AM_1
100
AcDbCircle
 10
1016.628627833932
 20
1416.548773005486
 30
0.0
 40
157.8527221110512
100
AcDbArc
 50
1.999725411176154
 51
40.36409520684345
  0
ARC
  5
35B9
330
1F
100
AcDbEntity
  8
AM_1
100
AcDbCircle
 10
1016.628627833932
 20
1416.548773005486
 30
0.0
 40
136.8527221110512
100
AcDbArc
 50
354.301072346654
 51
40.36409520684345
  0
ARC
  5
35BA
330
1F
100
AcDbEntity
  8
AM_1
100
AcDbCircle
 10
1213.146629360378
 20
1583.586466737533
 30
0.0
 40
121.0637683490774
100
AcDbArc
 50
204.1028364617992
 51
220.3640952068434
  0
ARC
  5
35BB
330
1F
100
AcDbEntity
  8
AM_1
100
AcDbCircle
 10
1176.3839987201
 20
1422.126786929444
 30
0.0
 40
2.0
100
AcDbArc
 50
181.9997254111762
 51
301.3686119138449
1001
GENIUS_GENOBJ-N-FIL_13
1002
{
1000
OWNER
1000
GEN
1002
}
1001
GENIUS_GENODEF_13
1002
{
1000
HIER
1070
     0
1002
}
1002
{
1000
MANEDIT
1070
     0
1002
}
1002
{
1000
NOSEL
1070
     0
1002
}
1002
{
1000
BEHIND
1070
     0
1002
}
1002
{
1000
OTHER
1070
     0
1002
}
1002
{
1000
REACTOR
1002
}
  0
ARC
  5
35BC
330
1F
100
AcDbEntity
  8
AM_1
100
AcDbCircle
 10
1142.854371315437
 20
1403.952154827389
 30
0.0
 40
10.0
100
AcDbArc
 50
319.4619297697976
 51
354.301072346654
1001
GENIUS_GENODEF_13
1002
{
1000
HIER
1070
     0
1002
}
1002
{
1000
MANEDIT
1070
     0
1002
}
1002
{
1000
NOSEL
1070
     0
1002
}
1002
{
1000
BEHIND
1070
     0
1002
}
1002
{
1000
OTHER
1070
     0
1002
}
1002
{
1000
REACTOR
1002
}
1001
GENIUS_GENOBJ-N-FIL_13
1002
{
1000
OWNER
1000
GEN
1002
}
  0
ARC
  5
35BD
330
1F
100
AcDbEntity
  8
AM_1
100
AcDbCircle
 10
1246.895617423289
 20
1603.294802656498
 30
0.0
 40
138.9824315002213
100
AcDbArc
 50
173.6385183581334
 51
205.8377668035323
  0
ARC
  5
35BE
330
1F
100
AcDbEntity
  8
AM_1
100
AcDbCircle
 10
1113.73816505272
 20
1618.140166541932
 30
0.0
 40
5.0
100
AcDbArc
 50
70.65098081222777
 51
173.6385183581334
1001
GENIUS_GENODEF_13
1002
{
1000
HIER
1070
     0
1002
}
1002
{
1000
MANEDIT
1070
     0
1002
}
1002
{
1000
NOSEL
1070
     0
1002
}
1002
{
1000
BEHIND
1070
     0
1002
}
1002
{
1000
OTHER
1070
     0
1002
}
1002
{
1000
REACTOR
1002
}
1001
GENIUS_GENOBJ-N-FIL_13
1002
{
1000
OWNER
1000
GEN
1002
}
  0
ARC
  5
35BF
330
1F
100
AcDbEntity
  8
AM_1
100
AcDbCircle
 10
1167.440729802325
 20
1771.07105520881
 30
0.0
 40
136.0858481457475
100
AcDbArc
 50
249.154160390167
 51
289.1895142531149
  0
ARC
  5
35C0
330
1F
100
AcDbEntity
  8
AM_1
100
AcDbCircle
 10
1120.793207040656
 20
1648.56591978874
 30
0.0
 40
5.0
100
AcDbArc
 50
160.2517203902726
 51
249.1541603901663
1001
GENIUS_GENODEF_13
1002
{
1000
HIER
1070
     0
1002
}
1002
{
1000
MANEDIT
1070
     0
1002
}
1002
{
1000
NOSEL
1070
     0
1002
}
1002
{
1000
BEHIND
1070
     0
1002
}
1002
{
1000
OTHER
1070
     0
1002
}
1002
{
1000
REACTOR
1002
}
1001
GENIUS_GENOBJ-N-FIL_13
1002
{
1000
OWNER
1000
GEN
1002
}
  0
ARC
  5
35C1
330
1F
100
AcDbEntity
  8
AM_1
100
AcDbCircle
 10
1522.302433994733
 20
1575.263798298305
 30
0.0
 40
254.67507824703
100
AcDbArc
 50
95.65501594343015
 51
142.9204922579208
  0
ARC
  5
35C2
330
1F
100
AcDbEntity
  8
AM_1
100
AcDbCircle
 10
1412.858033196416
 20
1657.97443218382
 30
0.0
 40
117.492259265037
100
AcDbArc
 50
142.9204922579208
 51
155.3095053907538
  0
ARC
  5
35C3
330
1F
100
AcDbEntity
  8
AM_1
100
AcDbCircle
 10
1140.806140433095
 20
1783.049644766835
 30
0.0
 40
181.9339272297178
100
AcDbArc
 50
307.3045735272887
 51
335.3095053907538
  0
ARC
  5
35C4
330
1F
100
AcDbEntity
  8
AM_1
100
AcDbCircle
 10
1140.806140433095
 20
1783.049644766835
 30
0.0
 40
160.9339272297178
100
AcDbArc
 50
307.3045735272887
 51
335.3095053907538
  0
ARC
  5
35C5
330
1F
100
AcDbEntity
  8
AM_1
100
AcDbCircle
 10
1412.858033196416
 20
1657.97443218382
 30
0.0
 40
138.492259265037
100
AcDbArc
 50
142.9204922579208
 51
155.3095053907538
  0
ARC
  5
35C6
330
1F
100
AcDbEntity
  8
AM_1
100
AcDbCircle
 10
1522.302433994733
 20
1575.263798298305
 30
0.0
 40
275.67507824703
100
AcDbArc
 50
95.65501594343015
 51
142.9204922579208
  0
ARC
  5
35C7
330
1F
100
AcDbEntity
  8
AM_1
100
AcDbCircle
 10
1166.81859133369
 20
1771.209865659618
 30
0.0
 40
136.4225153236204
100
AcDbArc
 50
289.4171247403032
 51
301.6189298470824
  0
ARC
  5
35C8
330
1F
100
AcDbEntity
  8
AM_1
100
AcDbCircle
 10
1477.011823023676
 20
2147.901348243596
 30
0.0
 40
298.8543084151335
100
AcDbArc
 50
273.4772177864101
 51
279.635818146558
  0
ARC
  5
35C9
330
1F
100
AcDbEntity
  8
AM_1
100
AcDbCircle
 10
1522.014029446076
 20
1882.840146687247
 30
0.0
 40
30.0
100
AcDbArc
 50
279.635818146558
 51
311.6739082610325
1001
GENIUS_GENODEF_13
1002
{
1000
HIER
1070
     0
1002
}
1002
{
1000
MANEDIT
1070
     0
1002
}
1002
{
1000
NOSEL
1070
     0
1002
}
1002
{
1000
BEHIND
1070
     0
1002
}
1002
{
1000
OTHER
1070
     0
1002
}
1002
{
1000
REACTOR
1002
}
1001
GENIUS_GENOBJ-N-FIL_13
1002
{
1000
OWNER
1000
GEN
1002
}
  0
ARC
  5
35CA
330
1F
100
AcDbEntity
  8
AM_1
100
AcDbCircle
 10
1273.708665744963
 20
1569.170537292756
 30
0.0
 40
180.4141967792622
100
AcDbArc
 50
119.7947776768976
 51
143.2873328888597
  0
ARC
  5
35CB
330
1F
100
AcDbEntity
  8
AM_1
100
AcDbCircle
 10
1112.230092707571
 20
1851.187621831678
 30
0.0
 40
144.5611338568127
100
AcDbArc
 50
299.7947776768977
 51
339.0224804730256
  0
ARC
  5
35CC
330
1F
100
AcDbEntity
  8
AM_1
100
AcDbCircle
 10
1365.406228332818
 20
1754.116364711102
 30
0.0
 40
126.5863990641101
100
AcDbArc
 50
118.0061659531319
 51
159.0224804730256
  0
ARC
  5
35CD
330
1F
100
AcDbEntity
  8
AM_1
100
AcDbCircle
 10
1221.058992216672
 20
2025.523565879335
 30
0.0
 40
180.8188601952988
100
AcDbArc
 50
298.0061659531317
 51
326.1647086198353
  0
ARC
  5
35CE
330
1F
100
AcDbEntity
  8
AM_1
100
AcDbCircle
 10
1262.607150844585
 20
1997.672422097102
 30
0.0
 40
130.7995069872775
100
AcDbArc
 50
326.1647086198351
 51
349.8766936083139
  0
ARC
  5
35CF
330
1F
100
AcDbEntity
  8
AM_1
100
AcDbCircle
 10
1273.708665744963
 20
1569.170537292756
 30
0.0
 40
201.4141967792622
100
AcDbArc
 50
119.7947776768976
 51
143.2873328888597
  0
ARC
  5
35D0
330
1F
100
AcDbEntity
  8
AM_1
100
AcDbCircle
 10
1112.230092707571
 20
1851.187621831678
 30
0.0
 40
123.5611338568127
100
AcDbArc
 50
299.7947776768977
 51
339.0224804730256
  0
ARC
  5
35D1
330
1F
100
AcDbEntity
  8
AM_1
100
AcDbCircle
 10
1365.406228332818
 20
1754.116364711102
 30
0.0
 40
147.5863990641101
100
AcDbArc
 50
118.0061659531319
 51
159.0224804730256
  0
ARC
  5
35D2
330
1F
100
AcDbEntity
  8
AM_1
100
AcDbCircle
 10
1221.058992216672
 20
2025.523565879335
 30
0.0
 40
159.8188601952988
100
AcDbArc
 50
298.0061659531317
 51
326.1647086198353
  0
ARC
  5
35D3
330
1F
100
AcDbEntity
  8
AM_1
100
AcDbCircle
 10
1262.607150844585
 20
1997.672422097102
 30
0.0
 40
109.7995069872775
100
AcDbArc
 50
326.1647086198351
 51
347.9137512482099
  0
ARC
  5
35D4
330
1F
100
AcDbEntity
  8
AM_1
100
AcDbCircle
 10
701.822624666875
 20
1969.302657662595
 30
0.0
 40
496.6833448340436
100
AcDbArc
 50
325.5258350979948
 51
325.7234243514978
  0
ARC
  5
35D5
330
1F
100
AcDbEntity
  8
AM_1
100
AcDbCircle
 10
1329.994928560374
 20
945.3728067408313
 30
0.0
 40
931.2356584735875
100
AcDbArc
 50
101.7631469670037
 51
105.1324843704832
  0
ARC
  5
35D6
330
1F
100
AcDbEntity
  8
AM_1
100
AcDbCircle
 10
1125.095579844879
 20
1929.33193139814
 30
0.0
 40
73.83115627079172
100
AcDbArc
 50
281.7631469670037
 51
346.0337271939267
  0
ARC
  5
35D7
330
1F
100
AcDbEntity
  8
AM_1
100
AcDbCircle
 10
405.8287735020453
 20
2108.215636621517
 30
0.0
 40
815.0086779894845
100
AcDbArc
 50
346.0337271939267
 51
348.1811339080688
  0
ARC
  5
35D8
330
1F
100
AcDbEntity
  8
AM_1
100
AcDbCircle
 10
1251.042043836727
 20
1931.350910503778
 30
0.0
 40
48.51121390331494
100
AcDbArc
 50
116.7190936691449
 51
168.1811339080687
  0
ARC
  5
35D9
330
1F
100
AcDbEntity
  8
AM_1
100
AcDbCircle
 10
1251.042043836727
 20
1931.350910503778
 30
0.0
 40
69.51121390331493
100
AcDbArc
 50
141.4372883683399
 51
168.1811339080687
  0
ARC
  5
35DA
330
1F
100
AcDbEntity
  8
AM_1
100
AcDbCircle
 10
405.8287735020453
 20
2108.215636621517
 30
0.0
 40
794.0086779894844
100
AcDbArc
 50
346.0337271939267
 51
348.1811339080688
  0
ARC
  5
35DB
330
1F
100
AcDbEntity
  8
AM_1
100
AcDbCircle
 10
1125.095579844879
 20
1929.33193139814
 30
0.0
 40
52.83115627079173
100
AcDbArc
 50
281.7631469670037
 51
346.0337271939267
  0
ARC
  5
35DC
330
1F
100
AcDbEntity
  8
AM_1
100
AcDbCircle
 10
1329.994928560374
 20
945.3728067408313
 30
0.0
 40
952.2356584735874
100
AcDbArc
 50
101.7631469670037
 51
104.7910528737198
  0
ARC
  5
35DD
330
1F
100
AcDbEntity
  8
AM_1
100
AcDbCircle
 10
1242.372509499667
 20
1355.732635497555
 30
0.0
 40
278.4797007841217
100
AcDbArc
 50
349.4368912085334
 51
11.21070829901661
  0
ARC
  5
35DE
330
1F
100
AcDbEntity
  8
AM_1
100
AcDbCircle
 10
1403.764417873329
 20
1387.72044099954
 30
0.0
 40
113.9483427111833
100
AcDbArc
 50
11.21070829901661
 51
63.67298443539122
  0
ARC
  5
35DF
330
1F
100
AcDbEntity
  8
AM_1
100
AcDbCircle
 10
1530.387648260144
 20
1643.619239665118
 30
0.0
 40
171.5645950553527
100
AcDbArc
 50
220.8416910546441
 51
243.6729844353912
  0
ARC
  5
35E0
330
1F
100
AcDbEntity
  8
AM_1
100
AcDbCircle
 10
1493.753850157365
 20
1611.951246673816
 30
0.0
 40
123.1404590947362
100
AcDbArc
 50
190.5560394592504
 51
220.8416910546441
  0
ARC
  5
35E1
330
1F
100
AcDbEntity
  8
AM_1
100
AcDbCircle
 10
1493.753850157365
 20
1611.951246673816
 30
0.0
 40
144.1404590947362
100
AcDbArc
 50
203.5813297988398
 51
220.8416910546441
  0
ARC
  5
35E2
330
1F
100
AcDbEntity
  8
AM_1
100
AcDbCircle
 10
1530.387648260144
 20
1643.619239665118
 30
0.0
 40
192.5645950553528
100
AcDbArc
 50
220.8416910546441
 51
243.6729844353912
  0
ARC
  5
35E3
330
1F
100
AcDbEntity
  8
AM_1
100
AcDbCircle
 10
1403.764417873329
 20
1387.72044099954
 30
0.0
 40
92.94834271118331
100
AcDbArc
 50
11.21070829901661
 51
63.67298443539122
  0
ARC
  5
35E4
330
1F
100
AcDbEntity
  8
AM_1
100
AcDbCircle
 10
1242.372509499667
 20
1355.732635497555
 30
0.0
 40
257.4797007841217
100
AcDbArc
 50
348.5641974439649
 51
11.21070829901661
  0
ARC
  5
35E5
330
1F
100
AcDbEntity
  8
AM_1
100
AcDbCircle
 10
1359.817122324458
 20
1553.487696304083
 30
0.0
 40
2.0
100
AcDbArc
 50
23.58132979883965
 51
158.6763543804641
1001
GENIUS_GENOBJ-N-FIL_13
1002
{
1000
OWNER
1000
GEN
1002
}
1001
GENIUS_GENODEF_13
1002
{
1000
HIER
1070
     0
1002
}
1002
{
1000
MANEDIT
1070
     0
1002
}
1002
{
1000
NOSEL
1070
     0
1002
}
1002
{
1000
BEHIND
1070
     0
1002
}
1002
{
1000
OTHER
1070
     0
1002
}
1002
{
1000
REACTOR
1002
}
  0
ARC
  5
35E6
330
1F
100
AcDbEntity
  8
AM_1
100
AcDbCircle
 10
1377.612776844536
 20
1590.308253238086
 30
0.0
 40
5.0
100
AcDbArc
 50
164.4049015109386
 51
190.5560394592504
1001
GENIUS_GENODEF_13
1002
{
1000
HIER
1070
     0
1002
}
1002
{
1000
MANEDIT
1070
     0
1002
}
1002
{
1000
NOSEL
1070
     0
1002
}
1002
{
1000
BEHIND
1070
     0
1002
}
1002
{
1000
OTHER
1070
     0
1002
}
1002
{
1000
REACTOR
1002
}
1001
GENIUS_GENOBJ-N-FIL_13
1002
{
1000
OWNER
1000
GEN
1002
}
  0
ARC
  5
35E7
330
1F
100
AcDbEntity
  8
AM_1
100
AcDbCircle
 10
1391.21005305433
 20
1465.776798421881
 30
0.0
 40
111.9520330284295
100
AcDbArc
 50
199.3642711109646
 51
239.5149185033636
  0
ARC
  5
35E8
330
1F
100
AcDbEntity
  8
AM_1
100
AcDbCircle
 10
1239.305107548094
 20
1207.739761494791
 30
0.0
 40
187.4777999798483
100
AcDbArc
 50
31.13708389529462
 51
59.51491850336357
  0
ARC
  5
35E9
330
1F
100
AcDbEntity
  8
AM_1
100
AcDbCircle
 10
1391.21005305433
 20
1465.776798421881
 30
0.0
 40
132.9520330284296
100
AcDbArc
 50
201.7530902660598
 51
239.5149185033636
  0
ARC
  5
35EA
330
1F
100
AcDbEntity
  8
AM_1
100
AcDbCircle
 10
1239.305107548094
 20
1207.739761494791
 30
0.0
 40
166.4777999798483
100
AcDbArc
 50
35.6134874742041
 51
59.51491850336357
  0
ARC
  5
35EB
330
1F
100
AcDbEntity
  8
AM_1
100
AcDbCircle
 10
1258.437696426513
 20
1412.79769817983
 30
0.0
 40
10.0
100
AcDbArc
 50
21.75309026605981
 51
109.5802433679439
1001
GENIUS_GENODEF_13
1002
{
1000
HIER
1070
     0
1002
}
1002
{
1000
MANEDIT
1070
     0
1002
}
1002
{
1000
NOSEL
1070
     0
1002
}
1002
{
1000
BEHIND
1070
     0
1002
}
1002
{
1000
OTHER
1070
     0
1002
}
1002
{
1000
REACTOR
1002
}
1001
GENIUS_GENOBJ-N-FIL_13
1002
{
1000
OWNER
1000
GEN
1002
}
  0
DIMENSION
  5
35EC
330
1F
100
AcDbEntity
  8
AM_5
100
AcDbDimension
  2
*D95
 10
1446.643975303706
 20
1840.359854238251
 30
0.0
 11
1405.665799335439
 21
1876.893077075029
 31
0.0
 70
   161
  1
約<>
 71
     5
 42
21.00000000000068
  3
IGS$0
100
AcDbAlignedDimension
 13
1454.041844864928
 23
1820.62045186976
 33
0.0
 14
1448.413212563751
 24
1840.852073120123
 34
0.0
1001
ACAD
1000
DSTYLE
1002
{
1070
   279
1070
     2
1002
}
  0
LINE
  5
3634
330
1F
100
AcDbEntity
  8
0
100
AcDbLine
 10
1221.894136799565
 20
974.6821748149685
 30
0.0
 11
1261.894136799565
 21
974.6821748149685
 31
0.0
1001
GENIUS_GENREC_14
1002
{
1000
PYDIR
1011
1221.894136799565
1021
1274.682174814968
1031
0.0
1002
}
1002
{
1000
PXDIR
1011
1261.894136799565
1021
974.6821748149685
1031
0.0
1002
}
1002
{
1000
PORI
1011
1221.894136799565
1021
974.6821748149685
1031
0.0
1002
}
1002
{
1000
PINS
1011
1241.894136799565
1021
974.6821748149685
1031
0.0
1002
}
1002
{
1000
HVAL
1000
300
1002
}
1002
{
1000
H
1070
     2
1002
}
1002
{
1000
WVAL
1000
40
1002
}
1002
{
1000
W
1070
     2
1002
}
1002
{
1000
C
1070
     2
1002
}
1001
GENIUS_GENODEF_13
1002
{
1000
HIER
1070
     0
1002
}
1002
{
1000
MANEDIT
1070
     0
1002
}
1002
{
1000
NOSEL
1070
     0
1002
}
1002
{
1000
BEHIND
1070
     0
1002
}
1002
{
1000
OTHER
1070
     0
1002
}
1002
{
1000
REACTOR
1002
}
1001
GENIUS_GENOBJ-N-REC_13
1002
{
1000
OWNER
1000
GEN
1002
}
  0
LINE
  5
3635
330
1F
100
AcDbEntity
  8
0
100
AcDbLine
 10
1261.894136799565
 20
974.6821748149685
 30
0.0
 11
1261.894136799565
 21
1269.682174814969
 31
0.0
1001
GENIUS_GENREC_14
1002
{
1000
PYDIR
1011
1221.894136799565
1021
1274.682174814968
1031
0.0
1002
}
1002
{
1000
PXDIR
1011
1261.894136799565
1021
974.6821748149685
1031
0.0
1002
}
1002
{
1000
PORI
1011
1221.894136799565
1021
974.6821748149685
1031
0.0
1002
}
1002
{
1000
PINS
1011
1241.894136799565
1021
974.6821748149685
1031
0.0
1002
}
1002
{
1000
HVAL
1000
300
1002
}
1002
{
1000
H
1070
     2
1002
}
1002
{
1000
WVAL
1000
40
1002
}
1002
{
1000
W
1070
     2
1002
}
1002
{
1000
C
1070
     2
1002
}
1001
GENIUS_GENODEF_13
1002
{
1000
HIER
1070
     0
1002
}
1002
{
1000
MANEDIT
1070
     0
1002
}
1002
{
1000
NOSEL
1070
     0
1002
}
1002
{
1000
BEHIND
1070
     0
1002
}
1002
{
1000
OTHER
1070
     0
1002
}
1002
{
1000
REACTOR
1002
}
1001
GENIUS_GENOBJ-N-REC_13
1002
{
1000
OWNER
1000
GEN
1002
}
  0
LINE
  5
3637
330
1F
100
AcDbEntity
  8
0
100
AcDbLine
 10
1221.894136799565
 20
1269.682174814969
 30
0.0
 11
1221.894136799565
 21
974.6821748149685
 31
0.0
1001
GENIUS_GENREC_14
1002
{
1000
PYDIR
1011
1221.894136799565
1021
1274.682174814968
1031
0.0
1002
}
1002
{
1000
PXDIR
1011
1261.894136799565
1021
974.6821748149685
1031
0.0
1002
}
1002
{
1000
PORI
1011
1221.894136799565
1021
974.6821748149685
1031
0.0
1002
}
1002
{
1000
PINS
1011
1241.894136799565
1021
974.6821748149685
1031
0.0
1002
}
1002
{
1000
HVAL
1000
300
1002
}
1002
{
1000
H
1070
     2
1002
}
1002
{
1000
WVAL
1000
40
1002
}
1002
{
1000
W
1070
     2
1002
}
1002
{
1000
C
1070
     2
1002
}
1001
GENIUS_GENODEF_13
1002
{
1000
HIER
1070
     0
1002
}
1002
{
1000
MANEDIT
1070
     0
1002
}
1002
{
1000
NOSEL
1070
     0
1002
}
1002
{
1000
BEHIND
1070
     0
1002
}
1002
{
1000
OTHER
1070
     0
1002
}
1002
{
1000
REACTOR
1002
}
1001
GENIUS_GENOBJ-N-REC_13
1002
{
1000
OWNER
1000
GEN
1002
}
  0
LINE
  5
3638
330
1F
100
AcDbEntity
  8
0
100
AcDbLine
 10
1266.894136799565
 20
1274.682174814969
 30
0.0
 11
1846.894136799568
 21
1274.682174814969
 31
0.0
  0
ARC
  5
363D
330
1F
100
AcDbEntity
  8
0
100
AcDbCircle
 10
1216.894136799565
 20
1269.682174814969
 30
0.0
 40
5.0
100
AcDbArc
 50
0.0
 51
90.0
1001
GENIUS_GENREC_14
1002
{
1000
PYDIR
1011
1221.894136799565
1021
1274.682174814968
1031
0.0
1002
}
1002
{
1000
PXDIR
1011
1261.894136799565
1021
974.6821748149685
1031
0.0
1002
}
1002
{
1000
PORI
1011
1221.894136799565
1021
974.6821748149685
1031
0.0
1002
}
1002
{
1000
PINS
1011
1241.894136799565
1021
974.6821748149685
1031
0.0
1002
}
1002
{
1000
HVAL
1000
300
1002
}
1002
{
1000
H
1070
     2
1002
}
1002
{
1000
WVAL
1000
40
1002
}
1002
{
1000
W
1070
     2
1002
}
1002
{
1000
C
1070
     2
1002
}
1001
GENIUS_GENOBJ-N-REC_13
1002
{
1000
OWNER
1000
GEN
1002
}
1001
GENIUS_GENODEF_13
1002
{
1000
HIER
1070
     0
1002
}
1002
{
1000
MANEDIT
1070
     0
1002
}
1002
{
1000
NOSEL
1070
     0
1002
}
1002
{
1000
BEHIND
1070
     0
1002
}
1002
{
1000
OTHER
1070
     0
1002
}
1002
{
1000
REACTOR
1002
}
1001
GENIUS_GENOBJ-N-FIL_13
1002
{
1000
OWNER
1000
GEN
1002
}
  0
ARC
  5
363F
330
1F
100
AcDbEntity
  8
0
100
AcDbCircle
 10
1266.894136799565
 20
1269.682174814969
 30
0.0
 40
5.0
100
AcDbArc
 50
90.0
 51
180.0
1001
GENIUS_GENODEF_13
1002
{
1000
HIER
1070
     0
1002
}
1002
{
1000
MANEDIT
1070
     0
1002
}
1002
{
1000
NOSEL
1070
     0
1002
}
1002
{
1000
BEHIND
1070
     0
1002
}
1002
{
1000
OTHER
1070
     0
1002
}
1002
{
1000
REACTOR
1002
}
1001
GENIUS_GENOBJ-N-FIL_13
1002
{
1000
OWNER
1000
GEN
1002
}
  0
LINE
  5
3646
330
1F
100
AcDbEntity
  8
AM_7
100
AcDbLine
 10
1241.894136799565
 20
1297.622174814969
 30
0.0
 11
1241.894136799565
 21
946.7421748149684
 31
0.0
1001
GENIUS_GENOBJ-N-CEN_13
1002
{
1000
OWNER
1000
GEN
1002
}
1001
GENIUS_GENODEF_13
1002
{
1000
HIER
1070
     0
1002
}
1002
{
1000
MANEDIT
1070
     0
1002
}
1002
{
1000
NOSEL
1070
     0
1002
}
1002
{
1000
BEHIND
1070
     0
1002
}
1002
{
1000
OTHER
1070
     0
1002
}
1002
{
1000
REACTOR
1002
}
  0
LINE
  5
3648
330
1F
100
AcDbEntity
  8
AM_7
100
AcDbLine
 10
1871.894136799568
 20
1297.622174814969
 30
0.0
 11
1871.894136799568
 21
946.7421748149684
 31
0.0
1001
GENIUS_GENOBJ-N-CEN_13
1002
{
1000
OWNER
1000
GEN
1002
}
1001
GENIUS_GENODEF_13
1002
{
1000
HIER
1070
     0
1002
}
1002
{
1000
MANEDIT
1070
     0
1002
}
1002
{
1000
NOSEL
1070
     0
1002
}
1002
{
1000
BEHIND
1070
     0
1002
}
1002
{
1000
OTHER
1070
     0
1002
}
1002
{
1000
REACTOR
1002
}
  0
ARC
  5
3649
330
1F
100
AcDbEntity
  8
0
100
AcDbCircle
 10
1846.894136799568
 20
1269.682174814969
 30
0.0
 40
5.0
100
AcDbArc
 50
0.000000000000007
 51
90.0
1001
GENIUS_GENODEF_13
1002
{
1000
HIER
1070
     0
1002
}
1002
{
1000
MANEDIT
1070
     0
1002
}
1002
{
1000
NOSEL
1070
     0
1002
}
1002
{
1000
BEHIND
1070
     0
1002
}
1002
{
1000
OTHER
1070
     0
1002
}
1002
{
1000
REACTOR
1002
}
1001
GENIUS_GENOBJ-N-FIL_13
1002
{
1000
OWNER
1000
GEN
1002
}
  0
ARC
  5
364A
330
1F
100
AcDbEntity
  8
0
100
AcDbCircle
 10
1896.894136799568
 20
1269.682174814969
 30
0.0
 40
5.0
100
AcDbArc
 50
90.0
 51
180.0
1001
GENIUS_GENREC_14
1002
{
1000
PYDIR
1011
1891.894136799568
1021
1274.682174814968
1031
0.0
1002
}
1002
{
1000
PXDIR
1011
1851.894136799568
1021
974.6821748149685
1031
0.0
1002
}
1002
{
1000
PORI
1011
1891.894136799568
1021
974.6821748149685
1031
0.0
1002
}
1002
{
1000
PINS
1011
1871.894136799568
1021
974.6821748149685
1031
0.0
1002
}
1002
{
1000
HVAL
1000
300
1002
}
1002
{
1000
H
1070
     2
1002
}
1002
{
1000
WVAL
1000
40
1002
}
1002
{
1000
W
1070
     2
1002
}
1002
{
1000
C
1070
     2
1002
}
1001
GENIUS_GENOBJ-N-REC_13
1002
{
1000
OWNER
1000
GEN
1002
}
1001
GENIUS_GENODEF_13
1002
{
1000
HIER
1070
     0
1002
}
1002
{
1000
MANEDIT
1070
     0
1002
}
1002
{
1000
NOSEL
1070
     0
1002
}
1002
{
1000
BEHIND
1070
     0
1002
}
1002
{
1000
OTHER
1070
     0
1002
}
1002
{
1000
REACTOR
1002
}
1001
GENIUS_GENOBJ-N-FIL_13
1002
{
1000
OWNER
1000
GEN
1002
}
  0
LINE
  5
364B
330
1F
100
AcDbEntity
  8
0
100
AcDbLine
 10
1891.894136799568
 20
1269.682174814969
 30
0.0
 11
1891.894136799568
 21
974.6821748149685
 31
0.0
1001
GENIUS_GENREC_14
1002
{
1000
PYDIR
1011
1891.894136799568
1021
1274.682174814968
1031
0.0
1002
}
1002
{
1000
PXDIR
1011
1851.894136799568
1021
974.6821748149685
1031
0.0
1002
}
1002
{
1000
PORI
1011
1891.894136799568
1021
974.6821748149685
1031
0.0
1002
}
1002
{
1000
PINS
1011
1871.894136799568
1021
974.6821748149685
1031
0.0
1002
}
1002
{
1000
HVAL
1000
300
1002
}
1002
{
1000
H
1070
     2
1002
}
1002
{
1000
WVAL
1000
40
1002
}
1002
{
1000
W
1070
     2
1002
}
1002
{
1000
C
1070
     2
1002
}
1001
GENIUS_GENODEF_13
1002
{
1000
HIER
1070
     0
1002
}
1002
{
1000
MANEDIT
1070
     0
1002
}
1002
{
1000
NOSEL
1070
     0
1002
}
1002
{
1000
BEHIND
1070
     0
1002
}
1002
{
1000
OTHER
1070
     0
1002
}
1002
{
1000
REACTOR
1002
}
1001
GENIUS_GENOBJ-N-REC_13
1002
{
1000
OWNER
1000
GEN
1002
}
  0
LINE
  5
364C
330
1F
100
AcDbEntity
  8
0
100
AcDbLine
 10
1851.894136799568
 20
974.6821748149685
 30
0.0
 11
1851.894136799568
 21
1269.682174814969
 31
0.0
1001
GENIUS_GENREC_14
1002
{
1000
PYDIR
1011
1891.894136799568
1021
1274.682174814968
1031
0.0
1002
}
1002
{
1000
PXDIR
1011
1851.894136799568
1021
974.6821748149685
1031
0.0
1002
}
1002
{
1000
PORI
1011
1891.894136799568
1021
974.6821748149685
1031
0.0
1002
}
1002
{
1000
PINS
1011
1871.894136799568
1021
974.6821748149685
1031
0.0
1002
}
1002
{
1000
HVAL
1000
300
1002
}
1002
{
1000
H
1070
     2
1002
}
1002
{
1000
WVAL
1000
40
1002
}
1002
{
1000
W
1070
     2
1002
}
1002
{
1000
C
1070
     2
1002
}
1001
GENIUS_GENODEF_13
1002
{
1000
HIER
1070
     0
1002
}
1002
{
1000
MANEDIT
1070
     0
1002
}
1002
{
1000
NOSEL
1070
     0
1002
}
1002
{
1000
BEHIND
1070
     0
1002
}
1002
{
1000
OTHER
1070
     0
1002
}
1002
{
1000
REACTOR
1002
}
1001
GENIUS_GENOBJ-N-REC_13
1002
{
1000
OWNER
1000
GEN
1002
}
  0
LINE
  5
364D
330
1F
100
AcDbEntity
  8
0
100
AcDbLine
 10
1891.894136799568
 20
974.6821748149685
 30
0.0
 11
1851.894136799568
 21
974.6821748149685
 31
0.0
1001
GENIUS_GENREC_14
1002
{
1000
PYDIR
1011
1891.894136799568
1021
1274.682174814968
1031
0.0
1002
}
1002
{
1000
PXDIR
1011
1851.894136799568
1021
974.6821748149685
1031
0.0
1002
}
1002
{
1000
PORI
1011
1891.894136799568
1021
974.6821748149685
1031
0.0
1002
}
1002
{
1000
PINS
1011
1871.894136799568
1021
974.6821748149685
1031
0.0
1002
}
1002
{
1000
HVAL
1000
300
1002
}
1002
{
1000
H
1070
     2
1002
}
1002
{
1000
WVAL
1000
40
1002
}
1002
{
1000
W
1070
     2
1002
}
1002
{
1000
C
1070
     2
1002
}
1001
GENIUS_GENODEF_13
1002
{
1000
HIER
1070
     0
1002
}
1002
{
1000
MANEDIT
1070
     0
1002
}
1002
{
1000
NOSEL
1070
     0
1002
}
1002
{
1000
BEHIND
1070
     0
1002
}
1002
{
1000
OTHER
1070
     0
1002
}
1002
{
1000
REACTOR
1002
}
1001
GENIUS_GENOBJ-N-REC_13
1002
{
1000
OWNER
1000
GEN
1002
}
  0
LINE
  5
364E
330
1F
100
AcDbEntity
  8
0
100
AcDbLine
 10
1896.894136799568
 20
1274.682174814969
 30
0.0
 11
2056.894136799567
 21
1274.682174814969
 31
0.0
  0
LINE
  5
366F
330
1F
100
AcDbEntity
  8
AM_7
  6
AM_ISO08W050x2
100
AcDbLine
 10
1203.954136799565
 20
999.6821748149685
 30
0.0
 11
1279.834136799565
 21
999.6821748149685
 31
0.0
1001
GENIUS_GENODEF_13
1002
{
1000
HIER
1070
     0
1002
}
1002
{
1000
MANEDIT
1070
     0
1002
}
1002
{
1000
NOSEL
1070
     0
1002
}
1002
{
1000
BEHIND
1070
     0
1002
}
1002
{
1000
OTHER
1070
     0
1002
}
1002
{
1000
REACTOR
1002
}
1001
GENIUS_GENOBJ-N-CEN_13
1002
{
1000
OWNER
1000
GEN
1002
}
  0
CIRCLE
  5
3670
330
1F
100
AcDbEntity
  8
AM_0
100
AcDbCircle
 10
1241.894136799564
 20
999.6821748149685
 30
0.0
 40
10.0
  0
LINE
  5
3671
330
1F
100
AcDbEntity
  8
AM_7
  6
AM_ISO08W050x2
100
AcDbLine
 10
1833.954136799567
 20
999.6821748149685
 30
0.0
 11
1909.834136799567
 21
999.6821748149685
 31
0.0
1001
GENIUS_GENODEF_13
1002
{
1000
HIER
1070
     0
1002
}
1002
{
1000
MANEDIT
1070
     0
1002
}
1002
{
1000
NOSEL
1070
     0
1002
}
1002
{
1000
BEHIND
1070
     0
1002
}
1002
{
1000
OTHER
1070
     0
1002
}
1002
{
1000
REACTOR
1002
}
1001
GENIUS_GENOBJ-N-CEN_13
1002
{
1000
OWNER
1000
GEN
1002
}
  0
CIRCLE
  5
3672
330
1F
100
AcDbEntity
  8
AM_0
100
AcDbCircle
 10
1871.894136799567
 20
999.6821748149685
 30
0.0
 40
10.0
  0
LINE
  5
3673
330
1F
100
AcDbEntity
  8
AM_4
100
AcDbLine
 10
1369.762310508078
 20
854.1684155079305
 30
0.0
 11
1357.91868605007
 21
874.6821748149663
 31
0.0
  0
LINE
  5
3674
330
1F
100
AcDbEntity
  8
AM_4
100
AcDbLine
 10
1323.870908047123
 20
774.6821748149664
 30
0.0
 11
1381.605934966086
 21
874.6821748149663
 31
0.0
  0
LINE
  5
3675
330
1F
100
AcDbEntity
  8
AM_4
100
AcDbLine
 10
1347.000039514729
 20
774.6821748149664
 30
0.0
 11
1335.435473780926
 21
794.7125902333823
 31
0.0
  0
LINE
  5
3676
330
1F
100
AcDbEntity
  8
AM_4
100
AcDbLine
 10
1299.762310508078
 20
854.1684155079314
 30
0.0
 11
1287.91868605007
 21
874.6821748149672
 31
0.0
  0
LINE
  5
3677
330
1F
100
AcDbEntity
  8
AM_4
100
AcDbLine
 10
1253.870908047123
 20
774.6821748149673
 30
0.0
 11
1311.605934966086
 21
874.6821748149672
 31
0.0
  0
LINE
  5
3678
330
1F
100
AcDbEntity
  8
AM_4
100
AcDbLine
 10
1277.000039514729
 20
774.6821748149673
 30
0.0
 11
1265.435473780926
 21
794.7125902333832
 31
0.0
  0
LINE
  5
3679
330
1F
100
AcDbEntity
  8
AM_4
100
AcDbLine
 10
1207.000039514729
 20
774.6821748149679
 30
0.0
 11
1195.435473780927
 21
794.7125902333839
 31
0.0
  0
LINE
  5
367A
330
1F
100
AcDbEntity
  8
AM_4
100
AcDbLine
 10
1183.870908047124
 20
774.6821748149679
 30
0.0
 11
1241.605934966087
 21
874.6821748149679
 31
0.0
  0
LINE
  5
367B
330
1F
100
AcDbEntity
  8
AM_4
100
AcDbLine
 10
1229.762310508079
 20
854.1684155079321
 30
0.0
 11
1217.918686050071
 21
874.6821748149679
 31
0.0
  0
LINE
  5
367C
330
1F
100
AcDbEntity
  8
AM_4
100
AcDbLine
 10
1159.762310508079
 20
854.1684155079321
 30
0.0
 11
1147.918686050071
 21
874.6821748149679
 31
0.0
  0
LINE
  5
367D
330
1F
100
AcDbEntity
  8
AM_4
100
AcDbLine
 10
1113.870908047124
 20
774.6821748149679
 30
0.0
 11
1171.605934966087
 21
874.6821748149679
 31
0.0
  0
LINE
  5
367E
330
1F
100
AcDbEntity
  8
AM_4
100
AcDbLine
 10
1137.000039514729
 20
774.6821748149679
 30
0.0
 11
1125.435473780926
 21
794.7125902333839
 31
0.0
  0
LWPOLYLINE
  5
367F
330
1F
100
AcDbEntity
  8
0
100
AcDbPolyline
 90
        4
 70
     1
 43
0.0
 10
1091.894136799569
 20
774.6821748149689
 10
1391.894136799569
 20
774.6821748149689
 10
1391.894136799569
 20
874.6821748149688
 10
1091.894136799569
 20
874.6821748149688
1001
GENIUS_GENREC_14
1002
{
1000
PYDIR
1011
1091.894136799569
1021
874.6821748149688
1031
0.0
1002
}
1002
{
1000
PXDIR
1011
1391.894136799569
1021
774.6821748149689
1031
0.0
1002
}
1002
{
1000
PORI
1011
1091.894136799569
1021
774.6821748149689
1031
0.0
1002
}
1002
{
1000
PINS
1011
1241.894136799569
1021
774.6821748149689
1031
0.0
1002
}
1002
{
1000
HVAL
1000
100
1002
}
1002
{
1000
H
1070
     2
1002
}
1002
{
1000
WVAL
1000
300
1002
}
1002
{
1000
W
1070
     2
1002
}
1002
{
1000
C
1070
     2
1002
}
1001
GENIUS_GENOBJ-N-REC_13
1002
{
1000
OWNER
1000
GEN
1002
}
1001
GENIUS_GENODEF_13
1002
{
1000
HIER
1070
     0
1002
}
1002
{
1000
MANEDIT
1070
     0
1002
}
1002
{
1000
NOSEL
1070
     0
1002
}
1002
{
1000
BEHIND
1070
     0
1002
}
1002
{
1000
OTHER
1070
     0
1002
}
1002
{
1000
REACTOR
1002
}
  0
LWPOLYLINE
  5
3680
330
1F
100
AcDbEntity
  8
0
100
AcDbPolyline
 90
        4
 70
     1
 43
0.0
 10
1141.894136799567
 20
874.6821748149688
 10
1341.894136799567
 20
874.6821748149688
 10
1341.894136799567
 20
1174.682174814969
 10
1141.894136799567
 20
1174.682174814969
1001
GENIUS_GENREC_14
1002
{
1000
PYDIR
1011
1141.894136799567
1021
1174.682174814969
1031
0.0
1002
}
1002
{
1000
PXDIR
1011
1341.894136799567
1021
874.6821748149688
1031
0.0
1002
}
1002
{
1000
PORI
1011
1141.894136799567
1021
874.6821748149688
1031
0.0
1002
}
1002
{
1000
PINS
1011
1241.894136799567
1021
874.6821748149688
1031
0.0
1002
}
1002
{
1000
HVAL
1000
300
1002
}
1002
{
1000
H
1070
     2
1002
}
1002
{
1000
WVAL
1000
200
1002
}
1002
{
1000
W
1070
     2
1002
}
1002
{
1000
C
1070
     2
1002
}
1001
GENIUS_GENOBJ-N-REC_13
1002
{
1000
OWNER
1000
GEN
1002
}
1001
GENIUS_GENODEF_13
1002
{
1000
HIER
1070
     0
1002
}
1002
{
1000
MANEDIT
1070
     0
1002
}
1002
{
1000
NOSEL
1070
     0
1002
}
1002
{
1000
BEHIND
1070
     0
1002
}
1002
{
1000
OTHER
1070
     0
1002
}
1002
{
1000
REACTOR
1002
}
  0
HATCH
  5
36AA
330
1F
100
AcDbEntity
  8
AM_4
100
AcDbHatch
 10
0.0
 20
0.0
 30
0.0
210
0.0
220
0.0
230
1.0
  2
PLAST
 70
     0
 71
     0
 91
        1
 92
        7
 72
     0
 73
     1
 93
        8
 10
1221.894136799566
 20
1174.682174814969
 10
1141.894136799567
 20
1174.682174814969
 10
1141.894136799567
 20
874.6821748149688
 10
1341.894136799568
 20
874.682174814969
 10
1341.894136799567
 20
1174.682174814969
 10
1261.894136799566
 20
1174.682174814969
 10
1261.894136799564
 20
974.6821748149685
 10
1221.894136799566
 20
974.6821748149686
 97
        0
 75
     0
 76
     1
 52
45.0
 41
10.0
 77
     0
 78
     3
 53
45.0
 43
-1694.692408816289
 44
0.0
 45
-44.90128060534575
 46
44.90128060534576
 79
     0
 53
45.0
 43
-1700.305068891957
 44
5.612660075668221
 45
-44.90128060534575
 46
44.90128060534576
 79
     0
 53
45.0
 43
-1705.917728967625
 44
11.22532015133644
 45
-44.90128060534575
 46
44.90128060534576
 79
     0
 47
1.907308997679199
 98
        1
 10
1200.651243052343
 20
1094.059349261955
  0
HATCH
  5
36B9
330
1F
100
AcDbEntity
  8
AM_4
100
AcDbHatch
 10
0.0
 20
0.0
 30
0.0
210
0.0
220
0.0
230
1.0
  2
PLAST
 70
     0
 71
     0
 91
        1
 92
        7
 72
     0
 73
     1
 93
        8
 10
1851.894136799569
 20
1174.682174814969
 10
1771.89413679957
 20
1174.682174814969
 10
1771.89413679957
 20
874.6821748149688
 10
1971.89413679957
 20
874.682174814969
 10
1971.894136799569
 20
1174.682174814969
 10
1891.894136799568
 20
1174.682174814969
 10
1891.894136799567
 20
974.6821748149685
 10
1851.894136799569
 20
974.6821748149686
 97
        0
 75
     0
 76
     1
 52
45.0
 41
10.0
 77
     0
 78
     3
 53
45.0
 43
-1064.692408816286
 44
0.0
 45
-44.90128060534575
 46
44.90128060534576
 79
     0
 53
45.0
 43
-1070.305068891955
 44
5.612660075668221
 45
-44.90128060534575
 46
44.90128060534576
 79
     0
 53
45.0
 43
-1075.917728967622
 44
11.22532015133644
 45
-44.90128060534575
 46
44.90128060534576
 79
     0
 47
1.907308997679199
 98
        1
 10
1830.651243052346
 20
1094.059349261955
  0
LWPOLYLINE
  5
36BA
330
1F
100
AcDbEntity
  8
0
100
AcDbPolyline
 90
        4
 70
     1
 43
0.0
 10
1771.89413679957
 20
874.6821748149688
 10
1971.89413679957
 20
874.6821748149688
 10
1971.89413679957
 20
1174.682174814969
 10
1771.89413679957
 20
1174.682174814969
1001
GENIUS_GENREC_14
1002
{
1000
PYDIR
1011
1771.89413679957
1021
1174.682174814969
1031
0.0
1002
}
1002
{
1000
PXDIR
1011
1971.89413679957
1021
874.6821748149688
1031
0.0
1002
}
1002
{
1000
PORI
1011
1771.89413679957
1021
874.6821748149688
1031
0.0
1002
}
1002
{
1000
PINS
1011
1871.89413679957
1021
874.6821748149688
1031
0.0
1002
}
1002
{
1000
HVAL
1000
300
1002
}
1002
{
1000
H
1070
     2
1002
}
1002
{
1000
WVAL
1000
200
1002
}
1002
{
1000
W
1070
     2
1002
}
1002
{
1000
C
1070
     2
1002
}
1001
GENIUS_GENOBJ-N-REC_13
1002
{
1000
OWNER
1000
GEN
1002
}
1001
GENIUS_GENODEF_13
1002
{
1000
HIER
1070
     0
1002
}
1002
{
1000
MANEDIT
1070
     0
1002
}
1002
{
1000
NOSEL
1070
     0
1002
}
1002
{
1000
BEHIND
1070
     0
1002
}
1002
{
1000
OTHER
1070
     0
1002
}
1002
{
1000
REACTOR
1002
}
  0
LWPOLYLINE
  5
36BB
330
1F
100
AcDbEntity
  8
0
100
AcDbPolyline
 90
        4
 70
     1
 43
0.0
 10
1721.894136799572
 20
774.6821748149689
 10
2021.894136799572
 20
774.6821748149689
 10
2021.894136799572
 20
874.6821748149688
 10
1721.894136799572
 20
874.6821748149688
1001
GENIUS_GENREC_14
1002
{
1000
PYDIR
1011
1721.894136799572
1021
874.6821748149688
1031
0.0
1002
}
1002
{
1000
PXDIR
1011
2021.894136799572
1021
774.6821748149689
1031
0.0
1002
}
1002
{
1000
PORI
1011
1721.894136799572
1021
774.6821748149689
1031
0.0
1002
}
1002
{
1000
PINS
1011
1871.894136799572
1021
774.6821748149689
1031
0.0
1002
}
1002
{
1000
HVAL
1000
100
1002
}
1002
{
1000
H
1070
     2
1002
}
1002
{
1000
WVAL
1000
300
1002
}
1002
{
1000
W
1070
     2
1002
}
1002
{
1000
C
1070
     2
1002
}
1001
GENIUS_GENOBJ-N-REC_13
1002
{
1000
OWNER
1000
GEN
1002
}
1001
GENIUS_GENODEF_13
1002
{
1000
HIER
1070
     0
1002
}
1002
{
1000
MANEDIT
1070
     0
1002
}
1002
{
1000
NOSEL
1070
     0
1002
}
1002
{
1000
BEHIND
1070
     0
1002
}
1002
{
1000
OTHER
1070
     0
1002
}
1002
{
1000
REACTOR
1002
}
  0
LINE
  5
36BC
330
1F
100
AcDbEntity
  8
AM_4
100
AcDbLine
 10
1767.000039514732
 20
774.6821748149679
 30
0.0
 11
1755.435473780929
 21
794.7125902333839
 31
0.0
  0
LINE
  5
36BD
330
1F
100
AcDbEntity
  8
AM_4
100
AcDbLine
 10
1743.870908047126
 20
774.6821748149679
 30
0.0
 11
1801.605934966089
 21
874.6821748149679
 31
0.0
  0
LINE
  5
36BE
330
1F
100
AcDbEntity
  8
AM_4
100
AcDbLine
 10
1789.762310508081
 20
854.1684155079321
 30
0.0
 11
1777.918686050074
 21
874.6821748149679
 31
0.0
  0
LINE
  5
36BF
330
1F
100
AcDbEntity
  8
AM_4
100
AcDbLine
 10
1859.762310508082
 20
854.1684155079321
 30
0.0
 11
1847.918686050073
 21
874.6821748149679
 31
0.0
  0
LINE
  5
36C0
330
1F
100
AcDbEntity
  8
AM_4
100
AcDbLine
 10
1813.870908047127
 20
774.6821748149679
 30
0.0
 11
1871.605934966089
 21
874.6821748149679
 31
0.0
  0
LINE
  5
36C1
330
1F
100
AcDbEntity
  8
AM_4
100
AcDbLine
 10
1837.000039514732
 20
774.6821748149679
 30
0.0
 11
1825.435473780929
 21
794.7125902333839
 31
0.0
  0
LINE
  5
36C2
330
1F
100
AcDbEntity
  8
AM_4
100
AcDbLine
 10
1907.000039514732
 20
774.6821748149673
 30
0.0
 11
1895.435473780929
 21
794.7125902333832
 31
0.0
  0
LINE
  5
36C3
330
1F
100
AcDbEntity
  8
AM_4
100
AcDbLine
 10
1883.870908047126
 20
774.6821748149673
 30
0.0
 11
1941.605934966089
 21
874.6821748149672
 31
0.0
  0
LINE
  5
36C4
330
1F
100
AcDbEntity
  8
AM_4
100
AcDbLine
 10
1929.762310508081
 20
854.1684155079314
 30
0.0
 11
1917.918686050073
 21
874.6821748149672
 31
0.0
  0
LINE
  5
36C5
330
1F
100
AcDbEntity
  8
AM_4
100
AcDbLine
 10
1977.000039514731
 20
774.6821748149664
 30
0.0
 11
1965.435473780928
 21
794.7125902333823
 31
0.0
  0
LINE
  5
36C6
330
1F
100
AcDbEntity
  8
AM_4
100
AcDbLine
 10
1953.870908047125
 20
774.6821748149664
 30
0.0
 11
2011.605934966089
 21
874.6821748149663
 31
0.0
  0
LINE
  5
36C7
330
1F
100
AcDbEntity
  8
AM_4
100
AcDbLine
 10
1999.76231050808
 20
854.1684155079305
 30
0.0
 11
1987.918686050073
 21
874.6821748149663
 31
0.0
  0
LINE
  5
3702
330
1F
100
AcDbEntity
  8
AM_0
100
AcDbLine
 10
3163.147852876842
 20
974.6821748149683
 30
0.0
 11
3183.147852876842
 21
974.6821748149683
 31
0.0
  0
LWPOLYLINE
  5
3703
330
1F
100
AcDbEntity
  8
0
100
AcDbPolyline
 90
        4
 70
     1
 43
0.0
 10
3073.147852876842
 20
874.6821748149688
 10
3273.147852876842
 20
874.6821748149688
 10
3273.147852876842
 20
1174.682174814968
 10
3073.147852876842
 20
1174.682174814968
1001
GENIUS_GENODEF_13
1002
{
1000
HIER
1070
     0
1002
}
1002
{
1000
MANEDIT
1070
     0
1002
}
1002
{
1000
NOSEL
1070
     0
1002
}
1002
{
1000
BEHIND
1070
     0
1002
}
1002
{
1000
OTHER
1070
     0
1002
}
1002
{
1000
REACTOR
1002
}
1001
GENIUS_GENOBJ-N-REC_13
1002
{
1000
OWNER
1000
GEN
1002
}
1001
GENIUS_GENREC_14
1002
{
1000
PYDIR
1011
3073.147852876842
1021
1174.682174814968
1031
0.0
1002
}
1002
{
1000
PXDIR
1011
3273.147852876842
1021
874.6821748149688
1031
0.0
1002
}
1002
{
1000
PORI
1011
3073.147852876842
1021
874.6821748149688
1031
0.0
1002
}
1002
{
1000
PINS
1011
3173.147852876842
1021
874.6821748149688
1031
0.0
1002
}
1002
{
1000
HVAL
1000
400
1002
}
1002
{
1000
H
1070
     2
1002
}
1002
{
1000
WVAL
1000
200
1002
}
1002
{
1000
W
1070
     2
1002
}
1002
{
1000
C
1070
     2
1002
}
  0
LINE
  5
3704
330
1F
100
AcDbEntity
  8
AM_0
100
AcDbLine
 10
2953.112120764543
 20
1174.682174814968
 30
0.0
 11
3393.183584989142
 21
1174.682174814968
 31
0.0
  0
TEXT
  5
3705
330
1F
100
AcDbEntity
  8
0
100
AcDbText
 10
2958.333782918039
 20
1182.525222859792
 30
0.0
 40
50.0
  1
G.L
 11
2958.333782918039
 21
1182.525222859792
 31
0.0
100
AcDbText
 73
     1
  0
LWPOLYLINE
  5
3706
330
1F
100
AcDbEntity
  8
AM_0
100
AcDbPolyline
 90
        4
 70
     1
 43
0.0
 10
3023.147852876842
 20
774.6821748149689
 10
3323.147852876842
 20
774.6821748149689
 10
3323.147852876842
 20
874.6821748149688
 10
3023.147852876842
 20
874.6821748149688
1001
GENIUS_GENREC_14
1002
{
1000
PYDIR
1011
3023.147852876842
1021
874.6821748149688
1031
0.0
1002
}
1002
{
1000
PXDIR
1011
3323.147852876842
1021
774.6821748149689
1031
0.0
1002
}
1002
{
1000
PORI
1011
3023.147852876842
1021
774.6821748149689
1031
0.0
1002
}
1002
{
1000
PINS
1011
3173.147852876842
1021
774.6821748149689
1031
0.0
1002
}
1002
{
1000
HVAL
1000
100
1002
}
1002
{
1000
H
1070
     2
1002
}
1002
{
1000
WVAL
1000
300
1002
}
1002
{
1000
W
1070
     2
1002
}
1002
{
1000
C
1070
     2
1002
}
1001
GENIUS_GENOBJ-N-REC_13
1002
{
1000
OWNER
1000
GEN
1002
}
1001
GENIUS_GENODEF_13
1002
{
1000
HIER
1070
     0
1002
}
1002
{
1000
MANEDIT
1070
     0
1002
}
1002
{
1000
NOSEL
1070
     0
1002
}
1002
{
1000
BEHIND
1070
     0
1002
}
1002
{
1000
OTHER
1070
     0
1002
}
1002
{
1000
REACTOR
1002
}
  0
LINE
  5
3707
330
1F
100
AcDbEntity
  8
AM_4
100
AcDbLine
 10
3286.704827529034
 20
854.168415507933
 30
0.0
 11
3274.861203071026
 21
874.6821748149688
 31
0.0
  0
LINE
  5
3708
330
1F
100
AcDbEntity
  8
AM_4
100
AcDbLine
 10
3186.704827529034
 20
854.168415507933
 30
0.0
 11
3174.861203071026
 21
874.6821748149688
 31
0.0
  0
LINE
  5
3709
330
1F
100
AcDbEntity
  8
AM_4
100
AcDbLine
 10
3086.704827529034
 20
854.168415507933
 30
0.0
 11
3074.861203071026
 21
874.6821748149688
 31
0.0
  0
LINE
  5
370A
330
1F
100
AcDbEntity
  8
AM_4
100
AcDbLine
 10
3140.813425068079
 20
774.6821748149689
 30
0.0
 11
3198.548451987042
 21
874.6821748149688
 31
0.0
  0
LINE
  5
370B
330
1F
100
AcDbEntity
  8
AM_4
100
AcDbLine
 10
3040.813425068079
 20
774.6821748149689
 30
0.0
 11
3098.548451987042
 21
874.6821748149688
 31
0.0
  0
LINE
  5
370C
330
1F
100
AcDbEntity
  8
AM_4
100
AcDbLine
 10
3163.942556535684
 20
774.6821748149689
 30
0.0
 11
3152.377990801881
 21
794.7125902333848
 31
0.0
  0
LINE
  5
370D
330
1F
100
AcDbEntity
  8
AM_4
100
AcDbLine
 10
3063.942556535684
 20
774.6821748149689
 30
0.0
 11
3052.377990801881
 21
794.7125902333848
 31
0.0
  0
LINE
  5
370E
330
1F
100
AcDbEntity
  8
AM_4
100
AcDbLine
 10
3240.813425068079
 20
774.6821748149689
 30
0.0
 11
3298.548451987042
 21
874.6821748149688
 31
0.0
  0
LINE
  5
370F
330
1F
100
AcDbEntity
  8
AM_4
100
AcDbLine
 10
3263.942556535685
 20
774.6821748149689
 30
0.0
 11
3252.377990801882
 21
794.7125902333848
 31
0.0
  0
LINE
  5
3710
330
1F
100
AcDbEntity
  8
AM_0
100
AcDbLine
 10
3163.147852876842
 20
1009.682174814968
 30
0.0
 11
3158.147852876842
 21
1009.682174814968
 31
0.0
  0
LINE
  5
3711
330
1F
100
AcDbEntity
  8
AM_0
100
AcDbLine
 10
3158.147852876842
 20
1009.682174814968
 30
0.0
 11
3158.147852876842
 21
989.6821748149687
 31
0.0
  0
LINE
  5
3712
330
1F
100
AcDbEntity
  8
AM_0
100
AcDbLine
 10
3158.147852876842
 20
989.6821748149687
 30
0.0
 11
3163.147852876842
 21
989.6821748149687
 31
0.0
  0
LINE
  5
3713
330
1F
100
AcDbEntity
  8
AM_7
  6
AM_ISO08W050x2
100
AcDbLine
 10
3150.46436182102
 20
999.6821748149686
 30
0.0
 11
3170.776107348932
 21
999.6821748149686
 31
0.0
1001
GENIUS_GENODEF_13
1002
{
1000
HIER
1070
     0
1002
}
1002
{
1000
MANEDIT
1070
     0
1002
}
1002
{
1000
NOSEL
1070
     0
1002
}
1002
{
1000
BEHIND
1070
     0
1002
}
1002
{
1000
OTHER
1070
     0
1002
}
1002
{
1000
REACTOR
1002
}
1001
GENIUS_GENOBJ-N-CEN_13
1002
{
1000
OWNER
1000
GEN
1002
}
  0
DIMENSION
  5
3714
330
1F
100
AcDbEntity
  8
AM_5
100
AcDbDimension
  2
*D98
 10
3183.147852876842
 20
2066.945322418199
 30
0.0
 11
3265.040569412275
 21
2096.948275174105
 31
0.0
 70
    32
 71
     5
 42
20.0
  3
IGS$0
100
AcDbAlignedDimension
 13
3163.147852876842
 23
2004.682174814968
 33
0.0
 14
3183.147852876842
 24
2004.682174814968
 34
0.0
100
AcDbRotatedDimension
  0
INSERT
  5
3715
330
1F
100
AcDbEntity
  8
AM_5
100
AcDbBlockReference
  2
*S106
 10
0.0
 20
0.0
 30
0.0
  0
DIMENSION
  5
3716
330
1F
100
AcDbEntity
  8
AM_5
100
AcDbDimension
  2
*D97
 10
3163.147852876842
 20
682.5590677563319
 30
0.0
 11
3075.990646742634
 21
691.4076250463473
 31
0.0
 70
   160
 71
     5
 42
5.0
  3
IGS$0
100
AcDbAlignedDimension
 13
3158.147852876842
 23
989.6821748149685
 33
0.0
 14
3163.147852876842
 24
974.6821748149683
 34
0.0
100
AcDbRotatedDimension
1001
ACAD
1000
DSTYLE
1002
{
1070
   173
1070
     1
1070
   174
1070
     1
1070
   279
1070
     1
1070
   343
1005
77
1070
   344
1005
2E36
1002
}
  0
DIMENSION
  5
3717
330
1F
100
AcDbEntity
  8
AM_5
100
AcDbDimension
  2
*D96
 10
3183.147852876842
 20
682.5590677563319
 30
0.0
 11
3173.147852876842
 21
712.5620205122374
 31
0.0
 70
    32
 71
     5
 42
20.0
  3
IGS$0
100
AcDbAlignedDimension
 13
3163.147852876842
 23
974.6821748149683
 33
0.0
 14
3183.147852876842
 24
974.6821748149683
 34
0.0
100
AcDbRotatedDimension
1001
ACAD
1000
DSTYLE
1002
{
1070
   173
1070
     1
1070
   174
1070
     1
1070
   343
1005
2E36
1070
   344
1005
77
1002
}
  0
LINE
  5
3718
330
1F
100
AcDbEntity
  8
AM_0
100
AcDbLine
 10
3163.147852876842
 20
1274.682174814969
 30
0.0
 11
3183.147852876842
 21
1274.682174814969
 31
0.0
1001
GENIUS_GENREC_14
1002
{
1000
PYDIR
1011
3163.147852876842
1021
2274.682174814969
1031
0.0
1002
}
1002
{
1000
PXDIR
1011
3183.147852876842
1021
1274.682174814969
1031
0.0
1002
}
1002
{
1000
PORI
1011
3163.147852876842
1021
1274.682174814969
1031
0.0
1002
}
1002
{
1000
PINS
1011
3173.147852876842
1021
1274.682174814969
1031
0.0
1002
}
1002
{
1000
HVAL
1000
1000
1002
}
1002
{
1000
H
1070
     2
1002
}
1002
{
1000
WVAL
1000
20
1002
}
1002
{
1000
W
1070
     2
1002
}
1002
{
1000
C
1070
     2
1002
}
1001
GENIUS_GENOBJ-N-REC_13
1002
{
1000
OWNER
1000
GEN
1002
}
1001
GENIUS_GENODEF_13
1002
{
1000
HIER
1070
     0
1002
}
1002
{
1000
MANEDIT
1070
     0
1002
}
1002
{
1000
NOSEL
1070
     0
1002
}
1002
{
1000
BEHIND
1070
     0
1002
}
1002
{
1000
OTHER
1070
     0
1002
}
1002
{
1000
REACTOR
1002
}
  0
LINE
  5
3719
330
1F
100
AcDbEntity
  8
AM_0
100
AcDbLine
 10
3183.147852876842
 20
974.6821748149683
 30
0.0
 11
3183.147852876842
 21
2004.682174814968
 31
0.0
1001
GENIUS_GENREC_14
1002
{
1000
PYDIR
1011
3163.147852876842
1021
2004.682174814968
1031
0.0
1002
}
1002
{
1000
PXDIR
1011
3183.147852876842
1021
1279.682174814969
1031
0.0
1002
}
1002
{
1000
PORI
1011
3163.147852876842
1021
1279.682174814969
1031
0.0
1002
}
1002
{
1000
PINS
1011
3173.147852876842
1021
1279.682174814969
1031
0.0
1002
}
1002
{
1000
HVAL
1000
1000
1002
}
1002
{
1000
H
1070
     2
1002
}
1002
{
1000
WVAL
1000
20
1002
}
1002
{
1000
W
1070
     2
1002
}
1002
{
1000
C
1070
     2
1002
}
1001
GENIUS_GENOBJ-N-REC_13
1002
{
1000
OWNER
1000
GEN
1002
}
1001
GENIUS_GENODEF_13
1002
{
1000
HIER
1070
     0
1002
}
1002
{
1000
MANEDIT
1070
     0
1002
}
1002
{
1000
NOSEL
1070
     0
1002
}
1002
{
1000
BEHIND
1070
     0
1002
}
1002
{
1000
OTHER
1070
     0
1002
}
1002
{
1000
REACTOR
1002
}
  0
LINE
  5
371A
330
1F
100
AcDbEntity
  8
AM_0
100
AcDbLine
 10
3183.147852876842
 20
2004.682174814968
 30
0.0
 11
3163.147852876842
 21
2004.682174814968
 31
0.0
1001
GENIUS_GENREC_14
1002
{
1000
PYDIR
1011
3163.147852876842
1021
2004.682174814968
1031
0.0
1002
}
1002
{
1000
PXDIR
1011
3183.147852876842
1021
1279.682174814969
1031
0.0
1002
}
1002
{
1000
PORI
1011
3163.147852876842
1021
1279.682174814969
1031
0.0
1002
}
1002
{
1000
PINS
1011
3173.147852876842
1021
1279.682174814969
1031
0.0
1002
}
1002
{
1000
HVAL
1000
1000
1002
}
1002
{
1000
H
1070
     2
1002
}
1002
{
1000
WVAL
1000
20
1002
}
1002
{
1000
W
1070
     2
1002
}
1002
{
1000
C
1070
     2
1002
}
1001
GENIUS_GENOBJ-N-REC_13
1002
{
1000
OWNER
1000
GEN
1002
}
1001
GENIUS_GENODEF_13
1002
{
1000
HIER
1070
     0
1002
}
1002
{
1000
MANEDIT
1070
     0
1002
}
1002
{
1000
NOSEL
1070
     0
1002
}
1002
{
1000
BEHIND
1070
     0
1002
}
1002
{
1000
OTHER
1070
     0
1002
}
1002
{
1000
REACTOR
1002
}
  0
LINE
  5
371B
330
1F
100
AcDbEntity
  8
AM_0
100
AcDbLine
 10
3163.147852876842
 20
2004.682174814968
 30
0.0
 11
3163.147852876842
 21
974.6821748149683
 31
0.0
1001
GENIUS_GENREC_14
1002
{
1000
PYDIR
1011
3163.147852876842
1021
2004.682174814968
1031
0.0
1002
}
1002
{
1000
PXDIR
1011
3183.147852876842
1021
1279.682174814969
1031
0.0
1002
}
1002
{
1000
PORI
1011
3163.147852876842
1021
1279.682174814969
1031
0.0
1002
}
1002
{
1000
PINS
1011
3173.147852876842
1021
1279.682174814969
1031
0.0
1002
}
1002
{
1000
HVAL
1000
1000
1002
}
1002
{
1000
H
1070
     2
1002
}
1002
{
1000
WVAL
1000
20
1002
}
1002
{
1000
W
1070
     2
1002
}
1002
{
1000
C
1070
     2
1002
}
1001
GENIUS_GENOBJ-N-REC_13
1002
{
1000
OWNER
1000
GEN
1002
}
1001
GENIUS_GENODEF_13
1002
{
1000
HIER
1070
     0
1002
}
1002
{
1000
MANEDIT
1070
     0
1002
}
1002
{
1000
NOSEL
1070
     0
1002
}
1002
{
1000
BEHIND
1070
     0
1002
}
1002
{
1000
OTHER
1070
     0
1002
}
1002
{
1000
REACTOR
1002
}
  0
HATCH
  5
3855
330
1F
100
AcDbEntity
  8
AM_4
100
AcDbHatch
 10
0.0
 20
0.0
 30
0.0
210
0.0
220
0.0
230
1.0
  2
PLAST
 70
     0
 71
     0
 91
        1
 92
        7
 72
     0
 73
     1
 93
       12
 10
3073.147852876842
 20
874.6821748149688
 10
3273.147852876842
 20
874.6821748149688
 10
3273.147852876843
 20
1174.682174814968
 10
3183.147852876842
 20
1174.682174814968
 10
3183.147852876842
 20
974.6821748149683
 10
3163.147852876843
 20
974.6821748149685
 10
3163.147852876842
 20
989.6821748149687
 10
3158.147852876842
 20
989.6821748149687
 10
3158.147852876842
 20
1009.682174814968
 10
3163.147852876843
 20
1009.682174814968
 10
3163.147852876841
 20
1174.682174814968
 10
3073.147852876842
 20
1174.682174814969
 97
        0
 75
     0
 76
     1
 52
45.0
 41
10.0
 77
     0
 78
     3
 53
45.0
 43
-338.5604800196343
 44
-75.24129486431047
 45
-44.90128060534575
 46
44.90128060534576
 79
     0
 53
45.0
 43
-344.1731400953025
 44
-69.62863478864226
 45
-44.90128060534575
 46
44.90128060534576
 79
     0
 53
45.0
 43
-349.7858001709707
 44
-64.01597471297403
 45
-44.90128060534575
 46
44.90128060534576
 79
     0
 47
0.9244216198760009
 98
        1
 10
3100.42941830225
 20
1093.578336867773
  0
LINE
  5
385D
102
{ACAD_REACTORS
330
3865
102
}
330
1F
100
AcDbEntity
  8
AM_0
100
AcDbLine
 10
4258.907553511359
 20
1595.925784720109
 30
0.0
 11
4285.907553511359
 21
1595.925784720109
 31
0.0
1001
GENIUS_GENREC_14
1002
{
1000
PYDIR
1011
4257.407553511359
1021
1615.925784720109
1031
0.0
1002
}
1002
{
1000
PXDIR
1011
4285.907553511359
1021
1595.925784720109
1031
0.0
1002
}
1002
{
1000
PORI
1011
4258.907553511359
1021
1595.925784720109
1031
0.0
1002
}
1002
{
1000
PINS
1011
4272.407553511359
1021
1595.925784720109
1031
0.0
1002
}
1002
{
1000
HVAL
1000
20
1002
}
1002
{
1000
H
1070
     2
1002
}
1002
{
1000
WVAL
1000
30
1002
}
1002
{
1000
W
1070
     2
1002
}
1002
{
1000
C
1070
     2
1002
}
1001
GENIUS_GENOBJ-N-REC_13
1002
{
1000
OWNER
1000
GEN
1002
}
1001
GENIUS_GENODEF_13
1002
{
1000
HIER
1070
     0
1002
}
1002
{
1000
MANEDIT
1070
     0
1002
}
1002
{
1000
NOSEL
1070
     0
1002
}
1002
{
1000
BEHIND
1070
     0
1002
}
1002
{
1000
OTHER
1070
     0
1002
}
1002
{
1000
REACTOR
1002
}
  0
LINE
  5
385E
102
{ACAD_REACTORS
330
3865
102
}
330
1F
100
AcDbEntity
  8
AM_0
100
AcDbLine
 10
4285.907553511359
 20
1595.925784720109
 30
0.0
 11
4286.282553511358
 21
1600.925784720109
 31
0.0
1001
GENIUS_GENREC_14
1002
{
1000
PYDIR
1011
4257.407553511359
1021
1615.925784720109
1031
0.0
1002
}
1002
{
1000
PXDIR
1011
4285.907553511359
1021
1595.925784720109
1031
0.0
1002
}
1002
{
1000
PORI
1011
4258.907553511359
1021
1595.925784720109
1031
0.0
1002
}
1002
{
1000
PINS
1011
4272.407553511359
1021
1595.925784720109
1031
0.0
1002
}
1002
{
1000
HVAL
1000
20
1002
}
1002
{
1000
H
1070
     2
1002
}
1002
{
1000
WVAL
1000
30
1002
}
1002
{
1000
W
1070
     2
1002
}
1002
{
1000
C
1070
     2
1002
}
1001
GENIUS_GENOBJ-N-REC_13
1002
{
1000
OWNER
1000
GEN
1002
}
1001
GENIUS_GENODEF_13
1002
{
1000
HIER
1070
     0
1002
}
1002
{
1000
MANEDIT
1070
     0
1002
}
1002
{
1000
NOSEL
1070
     0
1002
}
1002
{
1000
BEHIND
1070
     0
1002
}
1002
{
1000
OTHER
1070
     0
1002
}
1002
{
1000
REACTOR
1002
}
  0
LINE
  5
385F
102
{ACAD_REACTORS
330
3865
102
}
330
1F
100
AcDbEntity
  8
AM_0
100
AcDbLine
 10
4287.407553511359
 20
1615.925784720109
 30
0.0
 11
4257.407553511359
 21
1615.925784720109
 31
0.0
1001
GENIUS_GENREC_14
1002
{
1000
PYDIR
1011
4257.407553511359
1021
1615.925784720109
1031
0.0
1002
}
1002
{
1000
PXDIR
1011
4285.907553511359
1021
1595.925784720109
1031
0.0
1002
}
1002
{
1000
PORI
1011
4258.907553511359
1021
1595.925784720109
1031
0.0
1002
}
1002
{
1000
PINS
1011
4272.407553511359
1021
1595.925784720109
1031
0.0
1002
}
1002
{
1000
HVAL
1000
20
1002
}
1002
{
1000
H
1070
     2
1002
}
1002
{
1000
WVAL
1000
30
1002
}
1002
{
1000
W
1070
     2
1002
}
1002
{
1000
C
1070
     2
1002
}
1001
GENIUS_GENOBJ-N-REC_13
1002
{
1000
OWNER
1000
GEN
1002
}
1001
GENIUS_GENODEF_13
1002
{
1000
HIER
1070
     0
1002
}
1002
{
1000
MANEDIT
1070
     0
1002
}
1002
{
1000
NOSEL
1070
     0
1002
}
1002
{
1000
BEHIND
1070
     0
1002
}
1002
{
1000
OTHER
1070
     0
1002
}
1002
{
1000
REACTOR
1002
}
  0
LINE
  5
3860
102
{ACAD_REACTORS
330
3865
102
}
330
1F
100
AcDbEntity
  8
AM_0
100
AcDbLine
 10
4257.407553511359
 20
1615.925784720109
 30
0.0
 11
4258.907553511359
 21
1595.925784720109
 31
0.0
1001
GENIUS_GENREC_14
1002
{
1000
PYDIR
1011
4257.407553511359
1021
1615.925784720109
1031
0.0
1002
}
1002
{
1000
PXDIR
1011
4285.907553511359
1021
1595.925784720109
1031
0.0
1002
}
1002
{
1000
PORI
1011
4258.907553511359
1021
1595.925784720109
1031
0.0
1002
}
1002
{
1000
PINS
1011
4272.407553511359
1021
1595.925784720109
1031
0.0
1002
}
1002
{
1000
HVAL
1000
20
1002
}
1002
{
1000
H
1070
     2
1002
}
1002
{
1000
WVAL
1000
30
1002
}
1002
{
1000
W
1070
     2
1002
}
1002
{
1000
C
1070
     2
1002
}
1001
GENIUS_GENOBJ-N-REC_13
1002
{
1000
OWNER
1000
GEN
1002
}
1001
GENIUS_GENODEF_13
1002
{
1000
HIER
1070
     0
1002
}
1002
{
1000
MANEDIT
1070
     0
1002
}
1002
{
1000
NOSEL
1070
     0
1002
}
1002
{
1000
BEHIND
1070
     0
1002
}
1002
{
1000
OTHER
1070
     0
1002
}
1002
{
1000
REACTOR
1002
}
  0
LINE
  5
3861
102
{ACAD_REACTORS
330
3865
102
}
330
1F
100
AcDbEntity
  8
AM_0
100
AcDbLine
 10
4287.407553511359
 20
1615.925784720109
 30
0.0
 11
4365.487928251263
 21
1615.925784720109
 31
0.0
  0
LINE
  5
3862
102
{ACAD_REACTORS
330
3865
102
}
330
1F
100
AcDbEntity
  8
AM_0
100
AcDbLine
 10
4286.282553511358
 20
1600.925784720109
 30
0.0
 11
4365.487928251263
 21
1600.925784720109
 31
0.0
  0
LINE
  5
3863
102
{ACAD_REACTORS
330
3865
102
}
330
1F
100
AcDbEntity
  8
AM_3
100
AcDbLine
 10
4286.282553511358
 20
1600.925784720109
 30
0.0
 11
4287.407553511359
 21
1615.925784720109
 31
0.0
1001
GENIUS_GENREC_14
1002
{
1000
PYDIR
1011
4257.407553511359
1021
1615.925784720109
1031
0.0
1002
}
1002
{
1000
PXDIR
1011
4285.907553511359
1021
1595.925784720109
1031
0.0
1002
}
1002
{
1000
PORI
1011
4258.907553511359
1021
1595.925784720109
1031
0.0
1002
}
1002
{
1000
PINS
1011
4272.407553511359
1021
1595.925784720109
1031
0.0
1002
}
1002
{
1000
HVAL
1000
20
1002
}
1002
{
1000
H
1070
     2
1002
}
1002
{
1000
WVAL
1000
30
1002
}
1002
{
1000
W
1070
     2
1002
}
1002
{
1000
C
1070
     2
1002
}
1001
GENIUS_GENOBJ-N-REC_13
1002
{
1000
OWNER
1000
GEN
1002
}
1001
GENIUS_GENODEF_13
1002
{
1000
HIER
1070
     0
1002
}
1002
{
1000
MANEDIT
1070
     0
1002
}
1002
{
1000
NOSEL
1070
     0
1002
}
1002
{
1000
BEHIND
1070
     0
1002
}
1002
{
1000
OTHER
1070
     0
1002
}
1002
{
1000
REACTOR
1002
}
  0
LINE
  5
3864
102
{ACAD_REACTORS
330
3865
102
}
330
1F
100
AcDbEntity
  8
AM_0
100
AcDbLine
 10
4365.487928251263
 20
1600.925784720109
 30
0.0
 11
4365.487928251263
 21
1615.925784720109
 31
0.0
  0
HATCH
  5
3865
330
1F
100
AcDbEntity
  8
AM_4
100
AcDbHatch
 10
0.0
 20
0.0
 30
0.0
210
0.0
220
0.0
230
1.0
  2
LINE
 70
     0
 71
     1
 91
        2
 92
        7
 72
     0
 73
     1
 93
        4
 10
4365.487928251263
 20
1600.925784720109
 10
4365.487928251263
 20
1615.925784720109
 10
4287.407553511359
 20
1615.925784720109
 10
4286.282553511358
 20
1600.925784720109
 97
        4
330
3861
330
3863
330
3862
330
3864
 92
        7
 72
     0
 73
     1
 93
        5
 10
4285.907553511359
 20
1595.925784720108
 10
4286.282553511358
 20
1600.925784720109
 10
4287.407553511359
 20
1615.925784720109
 10
4257.407553511359
 20
1615.925784720109
 10
4258.907553511359
 20
1595.925784720109
 97
        5
330
385F
330
3860
330
385D
330
385E
330
3863
 75
     0
 76
     1
 52
45.0
 41
1.0
 77
     0
 78
     1
 53
45.0
 43
2091.450924578742
 44
-375.0583488536822
 45
-2.245064030267287
 46
2.245064030267288
 79
     0
 47
0.3237463254055763
 98
        2
 10
4322.082034985349
 20
1605.039023637578
 10
4276.74590180226
 20
1605.039023637578
  0
INSERT
  5
3877
330
1F
100
AcDbEntity
  8
AM_4
100
AcDbBlockReference
  2
*S107
 10
0.0
 20
0.0
 30
0.0
1001
GENIUS_GENODEF_13
1002
{
1000
HIER
1070
     0
1002
}
1002
{
1000
MANEDIT
1070
     0
1002
}
1002
{
1000
NOSEL
1070
     0
1002
}
1002
{
1000
BEHIND
1070
     0
1002
}
1002
{
1000
OTHER
1070
     0
1002
}
1002
{
1000
REACTOR
1002
}
1001
GENIUS_GENOBJ-N-ZOO_13
1002
{
1000
OWNER
1000
GEN
1002
}
1001
GENIUS_GENZOO_16
1002
{
1000
TYP
1070
     1
1002
}
1002
{
1000
OBJ
1005
3888
1002
}
1002
{
1000
SSYM
1005
3877
1002
}
1002
{
1000
DSYM
1005
388E
1002
}
1002
{
1000
SIZE
1040
3353.412419685873
1002
}
1002
{
1000
ORIGIN
1010
4279.200503105838
1020
1605.277323599082
1030
0.0
1002
}
  0
INSERT
  5
3888
330
1F
100
AcDbEntity
  8
AM_0
100
AcDbBlockReference
  2
GENZOO33DNVH4
 10
2607.669824339508
 20
2211.500441437616
 30
0.0
 41
5.0
 42
5.0
 43
5.0
  0
INSERT
  5
388E
330
1F
100
AcDbEntity
  8
AM_4
100
AcDbBlockReference
  2
*S108
 10
0.0
 20
0.0
 30
0.0
1001
GENIUS_GENOBJ-N-SDF_13
1002
{
1000
OWNER
1000
GEN
1002
}
1001
GENIUS_GENOBJ-N-ZOO_13
1002
{
1000
OWNER
1000
GEN
1002
}
1001
GENIUS_GENODEF_13
1002
{
1000
HIER
1070
     0
1002
}
1002
{
1000
MANEDIT
1070
     0
1002
}
1002
{
1000
NOSEL
1070
     0
1002
}
1002
{
1000
BEHIND
1070
     0
1002
}
1002
{
1000
OTHER
1070
     0
1002
}
1002
{
1000
REACTOR
1002
}
1001
GENIUS_GENSCREG_15
1040
10.0
1040
0.2
1011
2440.322561293104
1021
2086.258909299592
1031
0.0
1011
2775.017087385912
1021
2336.741973575641
1031
0.0
1070
     2
  0
DIMENSION
  5
38B2
330
1F
100
AcDbEntity
  8
AM_5
100
AcDbDimension
  2
*D102
 10
2442.021906653894
 20
2264.742747042747
 30
0.0
 11
2412.018953897988
 21
2214.742747042748
 31
0.0
 70
    32
 71
     5
 42
20.0
  3
IGS$0
100
AcDbAlignedDimension
 13
2506.205076367113
 23
2164.742747042748
 33
0.0
 14
2498.705076367113
 24
2264.742747042747
 34
0.0
 50
90.0
100
AcDbRotatedDimension
1001
ACAD
1000
DSTYLE
1002
{
1070
   144
1040
0.2
1002
}
  0
DIMENSION
  5
38B3
330
1F
100
AcDbEntity
  8
AM_5
100
AcDbDimension
  2
*D101
 10
2648.705076367113
 20
2322.639734268512
 30
0.0
 11
2573.705076367112
 21
2352.639734268512
 31
0.0
 70
    32
 71
     5
 42
30.0
  3
IGS$0
100
AcDbAlignedDimension
 13
2498.705076367113
 23
2264.742747042747
 33
0.0
 14
2648.705076367113
 24
2264.742747042747
 34
0.0
100
AcDbRotatedDimension
1001
ACAD
1000
DSTYLE
1002
{
1070
   144
1040
0.2
1002
}
  0
DIMENSION
  5
38B4
330
1F
100
AcDbEntity
  8
AM_5
100
AcDbDimension
  2
*D100
 10
2869.004502065855
 20
2264.742747042747
 30
0.0
 11
2839.004502065854
 21
2227.242747042748
 31
0.0
 70
    32
 71
     5
 42
15.0
  3
IGS$0
100
AcDbAlignedDimension
 13
2775.017087385912
 23
2189.742747042747
 33
0.0
 14
2775.017087385912
 24
2264.742747042747
 34
0.0
 50
90.0
100
AcDbRotatedDimension
1001
ACAD
1000
DSTYLE
1002
{
1070
   144
1040
0.2
1002
}
  0
MTEXT
  5
38B5
330
1F
100
AcDbEntity
  8
AM_0
100
AcDbMText
 10
2492.636517445875
 20
2101.422105510765
 30
0.0
 40
50.0
 41
427.9286028506248
 71
     1
 72
     5
  1
A矢視図 S=1/2
 73
     1
 44
1.0
1001
ACAD
1000
MTEXTBEGIN
1070
    73
1070
     1
1070
    44
1040
1.0
1070
    74
1070
     0
1000
MTEXTEND
  0
INSERT
  5
3938
102
{ACAD_REACTORS
330
3256
102
}
330
1F
100
AcDbEntity
  8
AM_5
100
AcDbBlockReference
  2
*S109
 10
0.0
 20
0.0
 30
0.0
  0
DIMENSION
  5
394B
330
1F
100
AcDbEntity
  8
AM_5
100
AcDbDimension
  2
*D103
 10
1851.894136799568
 20
1042.747948533948
 30
0.0
 11
1723.493814903991
 21
1042.747948533948
 31
0.0
 70
   160
 71
     5
 42
40.00000000000023
  3
IGS$0
100
AcDbAlignedDimension
 13
1891.894136799568
 23
1038.350666363003
 33
0.0
 14
1851.894136799568
 24
1038.350666363003
 34
0.0
100
AcDbRotatedDimension
  0
MTEXT
  5
397D
330
1F
100
AcDbEntity
  8
建築-AM_6
100
AcDbMText
 10
4050.0
 20
150.0
 30
0.0
 40
35.0
 41
23.97544090576776
 71
     5
 72
     5
  1
1
 73
     1
 44
1.0
1001
GENIUS_AMGTXT_16
1040
3.5
1040
0.12
1001
ACAD
1000
MTEXTBEGIN
1070
    73
1070
     1
1070
    44
1040
1.0
1070
    74
1070
     0
1000
MTEXTEND
  0
ENDSEC
  0
SECTION
  2
OBJECTS
  0
DICTIONARY
  5
C
330
0
100
AcDbDictionary
281
     1
  3
ACAD_COLOR
350
985
  3
ACAD_GROUP
350
D
  3
ACAD_LAYOUT
350
1A
  3
ACAD_MATERIAL
350
984
  3
ACAD_MLINESTYLE
350
17
  3
ACAD_PLOTSETTINGS
350
19
  3
ACAD_PLOTSTYLENAME
350
E
  3
ACDBHEADERROUNDTRIPXREC
350
39EC
  3
AcDbVariableDictionary
350
43
  3
AcmDictionary
350
55
  3
AMG
350
2B
  3
AMGSNAPSETTINGS
350
A8
  3
ASE_INDEX_DICTIONARY
350
942
  3
DWGPROPS
350
39EB
  0
DICTIONARY
  5
1050
330
2
100
AcDbDictionary
280
     1
281
     1
  3
ACAD_LAYERSTATES
360
1051
  3
AMLAYER_GROUPCOLORS
360
27DF
  0
DICTIONARY
  5
B1
330
1F
100
AcDbDictionary
280
     1
281
     1
  3
ACAD_INDEX
360
B2
  0
DICTIONARY
  5
30AE
330
77
100
AcDbDictionary
280
     1
281
     1
  3
ACAD_SORTENTS
360
3979
  0
DICTIONARY
  5
2CF9
330
2CEA
100
AcDbDictionary
280
     1
281
     1
  0
DICTIONARY
  5
985
102
{ACAD_REACTORS
330
C
102
}
330
C
100
AcDbDictionary
281
     1
  0
DICTIONARY
  5
D
102
{ACAD_REACTORS
330
C
102
}
330
C
100
AcDbDictionary
281
     1
  0
DICTIONARY
  5
1A
102
{ACAD_REACTORS
330
C
102
}
330
C
100
AcDbDictionary
281
     1
  3
Model
350
22
  3
ﾚｲｱｳﾄ1
350
1E
  3
ﾚｲｱｳﾄ2
350
26
  0
DICTIONARY
  5
984
102
{ACAD_REACTORS
330
C
102
}
330
C
100
AcDbDictionary
281
     1
  0
DICTIONARY
  5
17
102
{ACAD_REACTORS
330
C
102
}
330
C
100
AcDbDictionary
281
     1
  3
Standard
350
18
  0
DICTIONARY
  5
19
102
{ACAD_REACTORS
330
C
102
}
330
C
100
AcDbDictionary
281
     1
  0
ACDBDICTIONARYWDFLT
  5
E
102
{ACAD_REACTORS
330
C
102
}
330
C
100
AcDbDictionary
281
     1
  3
Normal
350
F
100
AcDbDictionaryWithDefault
340
F
  0
DICTIONARY
  5
39EC
102
{ACAD_REACTORS
330
C
102
}
330
C
100
AcDbDictionary
281
     1
  3
COLORDICT
350
39EE
  3
MATERIALDICT
350
39ED
  0
DICTIONARY
  5
43
102
{ACAD_REACTORS
330
C
102
}
330
C
100
AcDbDictionary
281
     1
  3
DIMASSOC
350
39E8
  3
INDEXCTL
350
44
  3
PROJECTNAME
350
39E9
  3
SORTENTS
350
774
  0
DICTIONARY
  5
55
102
{ACAD_REACTORS
330
C
102
}
330
C
100
AcDbDictionary
281
     1
  3
AcmBOM
350
3D1
  3
AcmStdDictionary
350
59
  3
AMDTSECTSYM_ARROWCOLOR
350
98E
  0
DICTIONARY
  5
2B
102
{ACAD_REACTORS
330
C
102
}
330
C
100
AcDbDictionary
281
     1
  0
DICTIONARY
  5
A8
102
{ACAD_REACTORS
330
C
102
}
330
C
100
AcDbDictionary
281
     1
  0
DICTIONARY
  5
942
102
{ACAD_REACTORS
330
C
102
}
330
C
100
AcDbDictionary
281
     1
  3
ASEBlockHierarchyIndexRecord
350
944
1001
DCO15
1040
1418113613.734
  0
XRECORD
  5
39EB
102
{ACAD_REACTORS
330
C
102
}
330
C
100
AcDbXrecord
280
     1
  1
DWGPROPS COOKIE
  2

  3

  4

  6

  7

  8

  9

300
AmdtFileType=84
301
=
302
=
303
=
304
=
305
=
306
=
307
=
308
=
309
=
 40
0.0309711226851852
 41
2453572.413664097
 42
2456247.392182975
  1

 90
        1
  0
DICTIONARY
  5
1051
102
{ACAD_REACTORS
330
1050
102
}
330
1050
100
AcDbDictionary
281
     1
  0
DICTIONARY
  5
27DF
102
{ACAD_REACTORS
330
1050
102
}
330
1050
100
AcDbDictionary
280
     1
281
     1
  0
DICTIONARY
  5
B2
102
{ACAD_REACTORS
330
B1
102
}
330
B1
100
AcDbDictionary
281
     1
  3
*A1
350
B3
  0
SORTENTSTABLE
  5
3979
102
{ACAD_REACTORS
330
30AE
102
}
330
30AE
100
AcDbSortentsTable
330
77
  0
LAYOUT
  5
22
102
{ACAD_XDICTIONARY
360
39F1
102
}
102
{ACAD_REACTORS
330
1A
102
}
330
1A
100
AcDbPlotSettings
  1

  2
\\PC01\CASIO SPEEDIA N4
  4
A3
  6
AM_VIEW1
 40
5.873749732971191
 41
5.958403587341308
 42
5.958404541015625
 43
5.873748779296875
 44
296.9259948730469
 45
419.9466552734374
 46
9.609999999999999
 47
0.0
 48
0.0
 49
0.0
140
0.0
141
0.0
142
1.0
143
3.458210785390119
 70
 11956
 72
     1
 73
     1
 74
     0
  7
monochrome.ctb
 75
     0
147
0.2891668732931762
148
295.8822165187813
149
247.9752015480118
100
AcDbLayout
  1
Model
 70
     1
 71
     0
 10
0.0
 20
0.0
 11
12.0
 21
9.0
 12
0.0
 22
0.0
 32
0.0
 14
0.0
 24
0.0
 34
0.0
 15
0.0
 25
0.0
 35
0.0
146
0.0
 13
0.0
 23
0.0
 33
0.0
 16
1.0
 26
0.0
 36
0.0
 17
0.0
 27
1.0
 37
0.0
 76
     0
330
1F
  0
LAYOUT
  5
1E
102
{ACAD_XDICTIONARY
360
39EF
102
}
102
{ACAD_REACTORS
330
1A
102
}
330
1A
100
AcDbPlotSettings
  1

  2
MUTOH RL-803C(ﾌﾟﾛｯﾀﾓｰﾄﾞ)
  4

  6

 40
0.0
 41
0.0
 42
0.0
 43
0.0
 44
0.0
 45
0.0
 46
0.0
 47
0.0
 48
0.0
 49
0.0
140
0.0
141
0.0
142
1.0
143
1.0
 70
   688
 72
     0
 73
     0
 74
     5
  7
monochrome.ctb
 75
    16
147
1.0
148
0.0
149
0.0
100
AcDbLayout
  1
ﾚｲｱｳﾄ1
 70
     1
 71
     1
 10
0.0
 20
0.0
 11
420.0
 21
297.0
 12
0.0
 22
0.0
 32
0.0
 14
1.000000000000000E+20
 24
1.000000000000000E+20
 34
1.000000000000000E+20
 15
-1.000000000000000E+20
 25
-1.000000000000000E+20
 35
-1.000000000000000E+20
146
0.0
 13
0.0
 23
0.0
 33
0.0
 16
1.0
 26
0.0
 36
0.0
 17
0.0
 27
1.0
 37
0.0
 76
     0
330
1B
  0
LAYOUT
  5
26
102
{ACAD_XDICTIONARY
360
39F3
102
}
102
{ACAD_REACTORS
330
1A
102
}
330
1A
100
AcDbPlotSettings
  1

  2
MUTOH RL-803C(ﾌﾟﾛｯﾀﾓｰﾄﾞ)
  4

  6

 40
0.0
 41
0.0
 42
0.0
 43
0.0
 44
0.0
 45
0.0
 46
0.0
 47
0.0
 48
0.0
 49
0.0
140
0.0
141
0.0
142
1.0
143
1.0
 70
   688
 72
     0
 73
     0
 74
     5
  7
monochrome.ctb
 75
    16
147
1.0
148
0.0
149
0.0
100
AcDbLayout
  1
ﾚｲｱｳﾄ2
 70
     1
 71
     2
 10
0.0
 20
0.0
 11
12.0
 21
9.0
 12
0.0
 22
0.0
 32
0.0
 14
0.0
 24
0.0
 34
0.0
 15
0.0
 25
0.0
 35
0.0
146
0.0
 13
0.0
 23
0.0
 33
0.0
 16
1.0
 26
0.0
 36
0.0
 17
0.0
 27
1.0
 37
0.0
 76
     0
330
23
  0
MLINESTYLE
  5
18
102
{ACAD_REACTORS
330
17
102
}
330
17
100
AcDbMlineStyle
  2
STANDARD
 70
     0
  3

 62
   256
 51
90.0
 52
90.0
 71
     2
 49
0.5
 62
   256
  6
BYLAYER
 49
-0.5
 62
   256
  6
BYLAYER
  0
ACDBPLACEHOLDER
  5
F
102
{ACAD_REACTORS
330
E
102
}
330
E
  0
XRECORD
  5
39EE
102
{ACAD_REACTORS
330
39EC
102
}
330
39EC
100
AcDbXrecord
280
     1
340
985
  0
XRECORD
  5
39ED
102
{ACAD_REACTORS
330
39EC
102
}
330
39EC
100
AcDbXrecord
280
     1
340
984
  0
DICTIONARYVAR
  5
39E8
102
{ACAD_REACTORS
330
43
102
}
330
43
100
DictionaryVariables
280
     0
  1
1
  0
DICTIONARYVAR
  5
44
102
{ACAD_REACTORS
330
43
102
}
330
43
100
DictionaryVariables
280
     0
  1
1
  0
DICTIONARYVAR
  5
39E9
102
{ACAD_REACTORS
330
43
102
}
330
43
100
DictionaryVariables
280
     0
  1

  0
DICTIONARYVAR
  5
774
102
{ACAD_REACTORS
330
43
102
}
330
43
100
DictionaryVariables
280
     0
  1
103
  0
DICTIONARY
  5
3D1
102
{ACAD_REACTORS
330
55
102
}
330
55
100
AcDbDictionary
281
     1
  0
DICTIONARY
  5
59
102
{ACAD_REACTORS
330
55
102
}
330
55
100
AcDbDictionary
281
     1
  0
XRECORD
  5
98E
102
{ACAD_REACTORS
330
55
102
}
330
55
100
AcDbXrecord
280
     1
 90
-1023410169
  0
XRECORD
  5
944
102
{ACAD_REACTORS
330
942
102
}
330
942
100
AcDbXrecord
280
     1
330
0
330
0
330
0
330
0
  0
LAYER_INDEX
  5
B3
102
{ACAD_REACTORS
330
B2
102
}
330
B2
100
AcDbIndex
 40
2456247.392182975
100
AcDbLayerIndex
  8
0
360
B4
 90
      122
  8
RAHM2
360
156
 90
        0
  8
AM_BOR
360
4B6
 90
        0
  8
RAHM3
360
4B7
 90
        0
  8
DEFPOINTS
360
4B8
 90
        0
  8
7A
360
4B9
 90
        0
  8
AM_5
360
4BD
 90
       18
  8
6
360
1D6F
 90
        0
  8
TEXT
360
1D70
 90
        4
  8
AM_12
360
1D71
 90
        1
  8
AM_PAREF
360
1D72
 90
        0
  8
5
360
2439
 90
       13
  8
7
360
243A
 90
        0
  8
3A
360
243B
 90
        0
  8
AM_CL
360
2D0F
 90
        0
  8
AM_0
360
2D10
 90
       22
  8
AM_1
360
37AA
 90
      171
  8
AM_7
360
37AB
 90
        5
  8
AM_4
360
37AC
 90
       39
  8
AM_3
360
37AD
 90
        1
  8
SUNPO
360
37AE
 90
        1
  8
AM_9
360
397E
 90
        0
  8
建築-AM_6
360
397F
 90
        1
  0
DICTIONARY
  5
39F1
330
22
100
AcDbDictionary
280
     1
281
     1
  3
ACAD_XREC_ROUNDTRIP
360
39F2
  0
DICTIONARY
  5
39EF
330
1E
100
AcDbDictionary
280
     1
281
     1
  3
ACAD_XREC_ROUNDTRIP
360
39F0
  0
DICTIONARY
  5
39F3
330
26
100
AcDbDictionary
280
     1
281
     1
  3
ACAD_XREC_ROUNDTRIP
360
39F4
  0
IDBUFFER
  5
B4
330
0
100
AcDbIdBuffer
330
D4F
330
D50
330
D59
330
1610
330
1617
330
1618
330
161A
330
161B
330
161C
330
1D81
330
2146
330
2842
330
2CE0
330
2CFE
330
2CFF
330
2D00
330
2D01
330
2D02
330
2D04
330
2D05
330
2D06
330
2D08
330
2D09
330
2D0A
330
3705
330
3703
330
36BB
330
36BA
330
3680
330
367F
330
364E
330
364D
330
30CB
330
364C
330
364B
330
364A
330
3649
330
363F
330
363D
330
3638
330
3637
330
3635
330
3634
330
357F
330
357E
330
356B
330
356A
330
3540
330
353E
330
353D
330
353C
330
353A
330
3539
330
3538
330
3537
330
3536
330
3535
330
3534
330
3532
330
3531
330
3530
330
352F
330
352E
330
352D
330
352C
330
352B
330
352A
330
3529
330
3528
330
3527
330
3526
330
3525
330
3524
330
3523
330
3522
330
3521
330
3520
330
351F
330
351E
330
351D
330
351C
330
351B
330
351A
330
3519
330
3518
330
3517
330
3516
330
3515
330
3514
330
3513
330
3512
330
3511
330
3510
330
350F
330
350E
330
350D
330
350C
330
350B
330
350A
330
3509
330
3508
330
3507
330
3506
330
3505
330
3504
330
3503
330
3502
330
3501
330
3500
330
34FF
330
34FE
330
34FD
330
34FC
330
34FB
330
34FA
330
34F9
330
34F8
330
34F7
330
34F5
330
34F4
330
34F3
330
34F2
  0
IDBUFFER
  5
156
330
0
100
AcDbIdBuffer
  0
IDBUFFER
  5
4B6
330
0
100
AcDbIdBuffer
  0
IDBUFFER
  5
4B7
330
0
100
AcDbIdBuffer
  0
IDBUFFER
  5
4B8
330
0
100
AcDbIdBuffer
  0
IDBUFFER
  5
4B9
330
0
100
AcDbIdBuffer
  0
IDBUFFER
  5
4BD
330
0
100
AcDbIdBuffer
330
394B
330
3938
330
38B4
330
38B3
330
38B2
330
3717
330
3716
330
3715
330
3714
330
35EC
330
1611
330
1613
330
29AE
330
29DB
330
2A01
330
2A4D
330
2A78
330
30CC
  0
IDBUFFER
  5
1D6F
330
0
100
AcDbIdBuffer
  0
IDBUFFER
  5
1D70
330
0
100
AcDbIdBuffer
330
1619
330
2D0C
330
2D0D
330
2D0E
  0
IDBUFFER
  5
1D71
330
0
100
AcDbIdBuffer
330
314A
  0
IDBUFFER
  5
1D72
330
0
100
AcDbIdBuffer
  0
IDBUFFER
  5
2439
330
0
100
AcDbIdBuffer
330
2166
330
215A
330
215B
330
215C
330
215D
330
215E
330
215F
330
2160
330
2161
330
2162
330
2163
330
2164
330
2165
  0
IDBUFFER
  5
243A
330
0
100
AcDbIdBuffer
  0
IDBUFFER
  5
243B
330
0
100
AcDbIdBuffer
  0
IDBUFFER
  5
2D0F
330
0
100
AcDbIdBuffer
  0
IDBUFFER
  5
2D10
330
0
100
AcDbIdBuffer
330
3672
330
3702
330
3704
330
3706
330
3710
330
3711
330
3712
330
3718
330
3719
330
371A
330
371B
330
385D
330
385E
330
385F
330
3860
330
3861
330
3862
330
3864
330
3888
330
38B5
330
3670
330
30CD
  0
IDBUFFER
  5
37AA
330
0
100
AcDbIdBuffer
330
3586
330
3587
330
3588
330
3589
330
358A
330
358B
330
358C
330
358D
330
358E
330
358F
330
3590
330
3591
330
3592
330
3593
330
3594
330
3595
330
3596
330
3597
330
3598
330
3599
330
359A
330
359B
330
359C
330
359D
330
359E
330
359F
330
35A0
330
35A1
330
35A2
330
35A3
330
35A4
330
35A5
330
35A6
330
35A7
330
35A8
330
35A9
330
35AA
330
35AB
330
35AC
330
35AD
330
35AE
330
35AF
330
35B0
330
35B1
330
35B2
330
35B3
330
35B4
330
35B5
330
35B6
330
35B7
330
35B8
330
35B9
330
35BA
330
35BB
330
35BC
330
35BD
330
35BE
330
35BF
330
35C0
330
35C1
330
35C2
330
35C3
330
35C4
330
35C5
330
35C6
330
35C7
330
35C8
330
35C9
330
35CA
330
35CB
330
35CC
330
35CD
330
35CE
330
35CF
330
35D0
330
35D1
330
35D2
330
35D3
330
35D4
330
35D5
330
35D6
330
35D7
330
35D8
330
35D9
330
35DA
330
35DB
330
35DC
330
35DD
330
35DE
330
35DF
330
35E0
330
35E1
330
35E2
330
35E3
330
35E4
330
35E5
330
35E6
330
35E7
330
35E8
330
35E9
330
35EA
330
35EB
330
34F6
330
3533
330
353B
330
353F
330
3541
330
3542
330
3543
330
3544
330
3545
330
3546
330
3547
330
3548
330
3549
330
354A
330
354B
330
354C
330
354D
330
354E
330
354F
330
3550
330
3551
330
3552
330
3553
330
3554
330
3555
330
3556
330
3557
330
3558
330
3559
330
355A
330
355B
330
355C
330
355D
330
355E
330
355F
330
3560
330
3561
330
3562
330
3563
330
3564
330
3565
330
3566
330
3567
330
3568
330
3569
330
356C
330
356D
330
356E
330
356F
330
3570
330
3571
330
3572
330
3573
330
3574
330
3575
330
3576
330
3577
330
3578
330
3579
330
357A
330
357B
330
357C
330
357D
330
3580
330
3581
330
3582
330
3583
330
3584
330
3585
  0
IDBUFFER
  5
37AB
330
0
100
AcDbIdBuffer
330
3713
330
3671
330
366F
330
3648
330
3646
  0
IDBUFFER
  5
37AC
330
0
100
AcDbIdBuffer
330
36B9
330
36BC
330
36BD
330
36BE
330
36BF
330
36C0
330
36C1
330
36C2
330
36C3
330
36C4
330
36C5
330
36C6
330
36C7
330
3707
330
3708
330
3709
330
370A
330
370B
330
370C
330
370D
330
370E
330
370F
330
388E
330
3855
330
3865
330
3877
330
36AA
330
367E
330
367D
330
367C
330
367B
330
367A
330
3679
330
3678
330
3677
330
3676
330
3675
330
3674
330
3673
  0
IDBUFFER
  5
37AD
330
0
100
AcDbIdBuffer
330
3863
  0
IDBUFFER
  5
37AE
330
0
100
AcDbIdBuffer
330
30CF
  0
IDBUFFER
  5
397E
330
0
100
AcDbIdBuffer
  0
IDBUFFER
  5
397F
330
0
100
AcDbIdBuffer
330
397D
  0
XRECORD
  5
39F2
102
{ACAD_REACTORS
330
39F1
102
}
330
39F1
100
AcDbXrecord
280
     1
102
SHADEPLOT
 70
     0
102
SHADEPLOTRESLEVEL
 70
     2
102
SHADEPLOTCUSTOMDPI
 70
   300
  0
XRECORD
  5
39F0
102
{ACAD_REACTORS
330
39EF
102
}
330
39EF
100
AcDbXrecord
280
     1
102
SHADEPLOT
 70
     0
102
SHADEPLOTRESLEVEL
 70
     2
102
SHADEPLOTCUSTOMDPI
 70
   300
  0
XRECORD
  5
39F4
102
{ACAD_REACTORS
330
39F3
102
}
330
39F3
100
AcDbXrecord
280
     1
102
SHADEPLOT
 70
     0
102
SHADEPLOTRESLEVEL
 70
     2
102
SHADEPLOTCUSTOMDPI
 70
   300
  0
ENDSEC
  0
EOF
