  0
SECTION
  2
HEADER
  9
$ACADVER
  1
AC1018
  9
$ACADMAINTVER
 70
     2
  9
$DWGCODEPAGE
  3
ANSI_932
  9
$TITLE
  1

  9
$SUBJECT
  1

  9
$AUTHOR
  1

  9
$KEYWORDS
  1

  9
$COMMENTS
  1

  9
$LASTSAVEDBY
  1

  9
$REVISIONNUMBER
  1

  9
$CUSTOMPROPERTYTAG
  1
AmdtFileType
  9
$CUSTOMPROPERTY
  1
84
  9
$INSBASE
 10
0.0
 20
0.0
 30
0.0
  9
$EXTMIN
 10
0.0
 20
0.0
 30
0.0
  9
$EXTMAX
 10
4200.0
 20
2970.0
 30
520.0
  9
$LIMMIN
 10
-33.60421398484141
 20
500.8088123138259
  9
$LIMMAX
 10
4166.395786015158
 20
3470.808812313826
  9
$ORTHOMODE
 70
     1
  9
$REGENMODE
 70
     1
  9
$FILLMODE
 70
     1
  9
$QTEXTMODE
 70
     0
  9
$MIRRTEXT
 70
     1
  9
$LTSCALE
 40
10.0
  9
$ATTMODE
 70
     1
  9
$TEXTSIZE
 40
2.5
  9
$TRACEWID
 40
1.0
  9
$TEXTSTYLE
  7
STANDARD
  9
$CLAYER
  8
0
  9
$CELTYPE
  6
ByLayer
  9
$CECOLOR
 62
   256
  9
$CELTSCALE
 40
1.0
  9
$DISPSILH
 70
     0
  9
$DIMSCALE
 40
10.0
  9
$DIMASZ
 40
2.5
  9
$DIMEXO
 40
1.0
  9
$DIMDLI
 40
10.0
  9
$DIMRND
 40
0.0
  9
$DIMDLE
 40
0.0
  9
$DIMEXE
 40
1.0
  9
$DIMTP
 40
0.1
  9
$DIMTM
 40
0.1
  9
$DIMTXT
 40
4.5
  9
$DIMCEN
 40
0.0
  9
$DIMTSZ
 40
0.0
  9
$DIMTOL
 70
     0
  9
$DIMLIM
 70
     0
  9
$DIMTIH
 70
     0
  9
$DIMTOH
 70
     0
  9
$DIMSE1
 70
     0
  9
$DIMSE2
 70
     0
  9
$DIMTAD
 70
     3
  9
$DIMZIN
 70
     8
  9
$DIMBLK
  1
Open30
  9
$DIMASO
 70
     1
  9
$DIMSHO
 70
     1
  9
$DIMPOST
  1

  9
$DIMAPOST
  1
"
  9
$DIMALT
 70
     0
  9
$DIMALTD
 70
     2
  9
$DIMALTF
 40
0.0393701
  9
$DIMLFAC
 40
1.0
  9
$DIMTOFL
 70
     1
  9
$DIMTVP
 40
0.0
  9
$DIMTIX
 70
     0
  9
$DIMSOXD
 70
     0
  9
$DIMSAH
 70
     0
  9
$DIMBLK1
  1

  9
$DIMBLK2
  1

  9
$DIMSTYLE
  2
IGS
  9
$DIMCLRD
 70
   256
  9
$DIMCLRE
 70
   256
  9
$DIMCLRT
 70
     2
  9
$DIMTFAC
 40
0.71
  9
$DIMGAP
 40
1.5
  9
$DIMJUST
 70
     0
  9
$DIMSD1
 70
     0
  9
$DIMSD2
 70
     0
  9
$DIMTOLJ
 70
     0
  9
$DIMTZIN
 70
     8
  9
$DIMALTZ
 70
     0
  9
$DIMALTTZ
 70
     0
  9
$DIMUPT
 70
     0
  9
$DIMDEC
 70
     2
  9
$DIMTDEC
 70
     2
  9
$DIMALTU
 70
     2
  9
$DIMALTTD
 70
     2
  9
$DIMTXSTY
  7
STANDARD
  9
$DIMAUNIT
 70
     0
  9
$DIMADEC
 70
     0
  9
$DIMALTRND
 40
0.0
  9
$DIMAZIN
 70
     2
  9
$DIMDSEP
 70
    46
  9
$DIMATFIT
 70
     3
  9
$DIMFRAC
 70
     0
  9
$DIMLDRBLK
  1
Open30
  9
$DIMLUNIT
 70
     2
  9
$DIMLWD
 70
    -1
  9
$DIMLWE
 70
    -1
  9
$DIMTMOVE
 70
     0
  9
$LUNITS
 70
     2
  9
$LUPREC
 70
     2
  9
$SKETCHINC
 40
1.0
  9
$FILLETRAD
 40
0.0
  9
$AUNITS
 70
     0
  9
$AUPREC
 70
     0
  9
$MENU
  1
.
  9
$ELEVATION
 40
0.0
  9
$PELEVATION
 40
0.0
  9
$THICKNESS
 40
0.0
  9
$LIMCHECK
 70
     0
  9
$CHAMFERA
 40
25.0
  9
$CHAMFERB
 40
25.0
  9
$CHAMFERC
 40
20.0
  9
$CHAMFERD
 40
0.0
  9
$SKPOLY
 70
     0
  9
$TDCREATE
 40
2453572.413664097
  9
$TDUCREATE
 40
2453572.038664098
  9
$TDUPDATE
 40
2454718.704895833
  9
$TDUUPDATE
 40
2454718.329895833
  9
$TDINDWG
 40
0.0248744792
  9
$TDUSRTIMER
 40
0.0248744792
  9
$USRTIMER
 70
     1
  9
$ANGBASE
 50
0.0
  9
$ANGDIR
 70
     0
  9
$PDMODE
 70
     0
  9
$PDSIZE
 40
0.0
  9
$PLINEWID
 40
0.0
  9
$SPLFRAME
 70
     0
  9
$SPLINETYPE
 70
     6
  9
$SPLINESEGS
 70
     8
  9
$HANDSEED
  5
321D
  9
$SURFTAB1
 70
     6
  9
$SURFTAB2
 70
     6
  9
$SURFTYPE
 70
     6
  9
$SURFU
 70
     6
  9
$SURFV
 70
     6
  9
$UCSBASE
  2

  9
$UCSNAME
  2

  9
$UCSORG
 10
0.0
 20
0.0
 30
0.0
  9
$UCSXDIR
 10
1.0
 20
0.0
 30
0.0
  9
$UCSYDIR
 10
0.0
 20
1.0
 30
0.0
  9
$UCSORTHOREF
  2

  9
$UCSORTHOVIEW
 70
     0
  9
$UCSORGTOP
 10
0.0
 20
0.0
 30
0.0
  9
$UCSORGBOTTOM
 10
0.0
 20
0.0
 30
0.0
  9
$UCSORGLEFT
 10
0.0
 20
0.0
 30
0.0
  9
$UCSORGRIGHT
 10
0.0
 20
0.0
 30
0.0
  9
$UCSORGFRONT
 10
0.0
 20
0.0
 30
0.0
  9
$UCSORGBACK
 10
0.0
 20
0.0
 30
0.0
  9
$PUCSBASE
  2

  9
$PUCSNAME
  2

  9
$PUCSORG
 10
0.0
 20
0.0
 30
0.0
  9
$PUCSXDIR
 10
1.0
 20
0.0
 30
0.0
  9
$PUCSYDIR
 10
0.0
 20
1.0
 30
0.0
  9
$PUCSORTHOREF
  2

  9
$PUCSORTHOVIEW
 70
     0
  9
$PUCSORGTOP
 10
0.0
 20
0.0
 30
0.0
  9
$PUCSORGBOTTOM
 10
0.0
 20
0.0
 30
0.0
  9
$PUCSORGLEFT
 10
0.0
 20
0.0
 30
0.0
  9
$PUCSORGRIGHT
 10
0.0
 20
0.0
 30
0.0
  9
$PUCSORGFRONT
 10
0.0
 20
0.0
 30
0.0
  9
$PUCSORGBACK
 10
0.0
 20
0.0
 30
0.0
  9
$USERI1
 70
     0
  9
$USERI2
 70
     0
  9
$USERI3
 70
     0
  9
$USERI4
 70
     0
  9
$USERI5
 70
     0
  9
$USERR1
 40
0.0
  9
$USERR2
 40
0.0
  9
$USERR3
 40
0.0
  9
$USERR4
 40
0.0
  9
$USERR5
 40
0.0
  9
$WORLDVIEW
 70
     1
  9
$SHADEDGE
 70
     3
  9
$SHADEDIF
 70
    70
  9
$TILEMODE
 70
     1
  9
$MAXACTVP
 70
    64
  9
$PINSBASE
 10
0.0
 20
0.0
 30
0.0
  9
$PLIMCHECK
 70
     0
  9
$PEXTMIN
 10
1.000000000000000E+20
 20
1.000000000000000E+20
 30
1.000000000000000E+20
  9
$PEXTMAX
 10
-1.000000000000000E+20
 20
-1.000000000000000E+20
 30
-1.000000000000000E+20
  9
$PLIMMIN
 10
0.0
 20
0.0
  9
$PLIMMAX
 10
420.0
 20
297.0
  9
$UNITMODE
 70
     0
  9
$VISRETAIN
 70
     1
  9
$PLINEGEN
 70
     0
  9
$PSLTSCALE
 70
     1
  9
$TREEDEPTH
 70
  3020
  9
$CMLSTYLE
  2
Standard
  9
$CMLJUST
 70
     0
  9
$CMLSCALE
 40
20.0
  9
$PROXYGRAPHICS
 70
     1
  9
$MEASUREMENT
 70
     1
  9
$CELWEIGHT
370
    -1
  9
$ENDCAPS
280
     0
  9
$JOINSTYLE
280
     0
  9
$LWDISPLAY
290
     0
  9
$INSUNITS
 70
     4
  9
$HYPERLINKBASE
  1

  9
$STYLESHEET
  1
monochrome.ctb
  9
$XEDIT
290
     1
  9
$CEPSNTYPE
380
     0
  9
$PSTYLEMODE
290
     1
  9
$FINGERPRINTGUID
  2
{A179640A-E7AE-11D4-BDB4-00B0D0A1239A}
  9
$VERSIONGUID
  2
{73067498-F487-43E4-B93D-DEF8581D6535}
  9
$EXTNAMES
290
     1
  9
$PSVPSCALE
 40
0.0
  9
$OLESTARTUP
290
     0
  9
$SORTENTS
280
   103
  9
$INDEXCTL
280
     1
  9
$HIDETEXT
280
     0
  9
$XCLIPFRAME
290
     0
  9
$HALOGAP
280
     0
  9
$OBSCOLOR
 70
   257
  9
$OBSLTYPE
280
     0
  9
$INTERSECTIONDISPLAY
280
     0
  9
$INTERSECTIONCOLOR
 70
   257
  9
$DIMASSOC
280
     1
  9
$PROJECTNAME
  1

  0
ENDSEC
  0
SECTION
  2
CLASSES
  0
CLASS
  1
ACDBDICTIONARYWDFLT
  2
AcDbDictionaryWithDefault
  3
ObjectDBX Classes
 90
        0
 91
        1
280
     0
281
     0
  0
CLASS
  1
ACDBPLACEHOLDER
  2
AcDbPlaceHolder
  3
ObjectDBX Classes
 90
        0
 91
        1
280
     0
281
     0
  0
CLASS
  1
LAYOUT
  2
AcDbLayout
  3
ObjectDBX Classes
 90
        0
 91
        3
280
     0
281
     0
  0
CLASS
  1
AMGSETTINGSOBJ
  2
AmgSettingsObj
  3
"AcadM|Product Description: AutoCAD Mechanical 2000|Company: Autodesk"
 90
        0
 91
       12
280
     0
281
     0
  0
CLASS
  1
AMGOBJPROPCFG
  2
AmgObjPropCfg
  3
"AmgLay|Product Description: AutoCAD Mechanical 2000|Company: Autodesk"
 90
        1
 91
        3
280
     0
281
     0
  0
CLASS
  1
ACME_DOCUMENT
  2
AcMeDbDoc
  3
AcMeServices
 90
        0
 91
        2
280
     0
281
     0
  0
CLASS
  1
ACMESCOPE
  2
AcMeScope
  3
AcMeServices
 90
        0
 91
        3
280
     0
281
     0
  0
CLASS
  1
ACMECOMMANDHISTORY
  2
AcMeCommandHistory
  3
AcMeServices
 90
        0
 91
        3
280
     0
281
     0
  0
CLASS
  1
DICTIONARYVAR
  2
AcDbDictionaryVar
  3
ObjectDBX Classes
 90
        0
 91
        4
280
     0
281
     0
  0
CLASS
  1
ACIMSYSVARMAN
  2
AcImSysVarManager
  3
AcMeServices
 90
        0
 91
       15
280
     0
281
     0
  0
CLASS
  1
ACIMREALSYSVAR
  2
AcImRealSysVar
  3
AcMeServices
 90
        0
 91
        9
280
     0
281
     0
  0
CLASS
  1
ACIMINTSYSVAR
  2
AcImIntSysVar
  3
AcMeServices
 90
        0
 91
       81
280
     0
281
     0
  0
CLASS
  1
ACMEDRAWINGMAN
  2
AcMeDrawingMan
  3
AcMeServices
 90
        0
 91
        3
280
     0
281
     0
  0
CLASS
  1
ACMEVIEW
  2
AcMeView
  3
AcMeServices
 90
        0
 91
        3
280
     0
281
     0
  0
CLASS
  1
ACDBENTITYCACHE
  2
AcMeEntityCache
  3
AcMeServices
 90
        0
 91
        1
280
     0
281
     0
  0
CLASS
  1
GSMANAGER
  2
AcMeGSManager
  3
AcMeServices
 90
        0
 91
        1
280
     0
281
     0
  0
CLASS
  1
AMDTINTERNALREACTOR
  2
AmdtInternalReactor
  3
AcMeServices
 90
        0
 91
        4
280
     0
281
     0
  0
CLASS
  1
ACMESTATEMGR
  2
AcMeStateMgr
  3
AcMeServices
 90
        0
 91
        3
280
     0
281
     0
  0
CLASS
  1
ACGREFMASTER
  2
AcGrefMaster
  3
AcAttribServices
 90
        0
 91
        3
280
     0
281
     0
  0
CLASS
  1
ACME_DATABASE
  2
AcMeDbDatabase
  3
AcMeServices
 90
        0
 91
        1
280
     0
281
     0
  0
CLASS
  1
ACRFINSADJUSTERMGR
  2
AcRfInsAdjusterMgr
  3
AcMeServices
 90
        0
 91
        1
280
     0
281
     0
  0
CLASS
  1
ACGREFACADMASTER
  2
AcGrefacadMaster
  3
AcGrefServices
 90
        0
 91
        3
280
     0
281
     0
  0
CLASS
  1
AMIMASTER
  2
AmiMaster
  3
AmiServices
 90
        0
 91
        3
280
     0
281
     0
  0
CLASS
  1
ACMDATADICTIONARY
  2
AcmDataDictionary
  3
"AcmSymBB|Product Description: AutoCAD Mechanical 2004 DX|Company: Autodesk"
 90
        0
 91
        3
280
     0
281
     0
  0
CLASS
  1
ACMDATAENTRYBLOCK
  2
AcmDataEntryBlock
  3
"AcmSymBB|Product Description: AutoCAD Mechanical 2004 DX|Company: Autodesk"
 90
        0
 91
        3
280
     0
281
     0
  0
CLASS
  1
ACMSTANDARDJIS
  2
AcmStandardJIS
  3
"Amdt_StdImp|Product Description: AutoCAD Mechanical 2004 DX|Company: Autodesk"
 90
        0
 91
        6
280
     0
281
     0
  0
CLASS
  1
ACMSURFSTANDARDJIS
  2
AcmSurfTextStdJIS
  3
"Amdt_StdImp|Product Description: AutoCAD Mechanical 2004 DX|Company: Autodesk"
 90
        0
 91
        6
280
     0
281
     0
  0
CLASS
  1
ACMFCFSTANDARDJIS
  2
AcmFCFStdJIS
  3
"Amdt_StdImp|Product Description: AutoCAD Mechanical 2004 DX|Company: Autodesk"
 90
        0
 91
        3
280
     0
281
     0
  0
CLASS
  1
ACMWELDSTANDARDJIS
  2
AcmWeldingStdJIS
  3
"Amdt_StdImp|Product Description: AutoCAD Mechanical 2004 DX|Company: Autodesk"
 90
        0
 91
        6
280
     0
281
     0
  0
CLASS
  1
ACMIDSTANDARDJIS
  2
AcmIdStdJIS
  3
"Amdt_StdImp|Product Description: AutoCAD Mechanical 2004 DX|Company: Autodesk"
 90
        0
 91
        6
280
     0
281
     0
  0
CLASS
  1
ACMDATUMSTANDARDJIS
  2
AcmDatumStdJIS
  3
"Amdt_StdImp|Product Description: AutoCAD Mechanical 2004 DX|Company: Autodesk"
 90
        0
 91
        6
280
     0
281
     0
  0
CLASS
  1
ACMBOMSTANDARDJIS
  2
AcmBOMStdJIS
  3
"Amdt_StdImp|Product Description: AutoCAD Mechanical 2004 DX|Company: Autodesk"
 90
        0
 91
        6
280
     0
281
     0
  0
CLASS
  1
ACMDETAILSTANDARDJIS
  2
AmdtDetailSymStdJIS
  3
"Amdt_StdImp|Product Description: AutoCAD Mechanical 2004 DX|Company: Autodesk"
 90
        0
 91
        6
280
     0
281
     0
  0
CLASS
  1
ACMSECTIONSTANDARDJIS
  2
AmdtSectionSymStdJIS
  3
"Amdt_StdImp|Product Description: AutoCAD Mechanical 2004 DX|Company: Autodesk"
 90
        0
 91
        6
280
     0
281
     0
  0
CLASS
  1
ACMCENTERLINESTANDARDJIS
  2
AmdtCenterLineStdJIS
  3
"Amdt_StdImp|Product Description: AutoCAD Mechanical 2004 DX|Company: Autodesk"
 90
        0
 91
        6
280
     0
281
     0
  0
CLASS
  1
ACAMGLAYSTD
  2
AcAmgLayStd
  3
"AcAmgLayStd|Product Description: AutoCAD Mechanical 2000|Company: Autodesk"
 90
        0
 91
       12
280
     0
281
     0
  0
CLASS
  1
ACAMGDIMSTD
  2
AcAmgDimStd
  3
"AcAmgDimStd|Product Description: AutoCAD Mechanical 2000|Company: Autodesk"
 90
        0
 91
       12
280
     0
281
     0
  0
CLASS
  1
ACAMGTITLESTD
  2
AcAmgTitleStd
  3
"TITLEAPP"
 90
        0
 91
       12
280
     0
281
     0
  0
CLASS
  1
ACMSTANDARDISO
  2
AcmStandardISO
  3
"Amdt_StdImp|Product Description: AutoCAD Mechanical 2004 DX|Company: Autodesk"
 90
        0
 91
        3
280
     0
281
     0
  0
CLASS
  1
AMDTEDGESTANDARDISO
  2
AmdtEdgeStdISO
  3
"Amdt_StdImp|Product Description: AutoCAD Mechanical 2004 DX|Company: Autodesk"
 90
        0
 91
        3
280
     0
281
     0
  0
CLASS
  1
ACMSURFSTANDARDISO
  2
AcmSurfTextStdISO
  3
"Amdt_StdImp|Product Description: AutoCAD Mechanical 2004 DX|Company: Autodesk"
 90
        0
 91
        3
280
     0
281
     0
  0
CLASS
  1
ACMFCFSTANDARDISO
  2
AcmFCFStdISO
  3
"Amdt_StdImp|Product Description: AutoCAD Mechanical 2004 DX|Company: Autodesk"
 90
        0
 91
        3
280
     0
281
     0
  0
CLASS
  1
ACMWELDSTANDARDISO
  2
AcmWeldingStdISO
  3
"Amdt_StdImp|Product Description: AutoCAD Mechanical 2004 DX|Company: Autodesk"
 90
        0
 91
        3
280
     0
281
     0
  0
CLASS
  1
ACMIDSTANDARDISO
  2
AcmIdStdISO
  3
"Amdt_StdImp|Product Description: AutoCAD Mechanical 2004 DX|Company: Autodesk"
 90
        0
 91
        3
280
     0
281
     0
  0
CLASS
  1
ACMDATUMSTANDARDISO
  2
AcmDatumStdISO
  3
"Amdt_StdImp|Product Description: AutoCAD Mechanical 2004 DX|Company: Autodesk"
 90
        0
 91
        3
280
     0
281
     0
  0
CLASS
  1
ACMBOMSTANDARDISO
  2
AcmBOMStdISO
  3
"Amdt_StdImp|Product Description: AutoCAD Mechanical 2004 DX|Company: Autodesk"
 90
        0
 91
        3
280
     0
281
     0
  0
CLASS
  1
ACMDETAILSTANDARDISO
  2
AmdtDetailSymStdISO
  3
"Amdt_StdImp|Product Description: AutoCAD Mechanical 2004 DX|Company: Autodesk"
 90
        0
 91
        3
280
     0
281
     0
  0
CLASS
  1
ACMSECTIONSTANDARDISO
  2
AmdtSectionSymStdISO
  3
"Amdt_StdImp|Product Description: AutoCAD Mechanical 2004 DX|Company: Autodesk"
 90
        0
 91
        3
280
     0
281
     0
  0
CLASS
  1
ACMCENTERLINESTANDARDISO
  2
AmdtCenterLineStdISO
  3
"Amdt_StdImp|Product Description: AutoCAD Mechanical 2004 DX|Company: Autodesk"
 90
        0
 91
        3
280
     0
281
     0
  0
CLASS
  1
ACIMSTRSYSVAR
  2
AcImStrSysVar
  3
AcMeServices
 90
        0
 91
       15
280
     0
281
     0
  0
CLASS
  1
ACAMGFILTERDAT
  2
AcAmgFilterDat
  3
"AcadM|Product Description: AutoCAD Mechanical 2000|Company: Autodesk"
 90
        0
 91
       18
280
     0
281
     0
  0
CLASS
  1
LAYER_INDEX
  2
AcDbLayerIndex
  3
ObjectDBX Classes
 90
        0
 91
        1
280
     0
281
     0
  0
CLASS
  1
IDBUFFER
  2
AcDbIdBuffer
  3
ObjectDBX Classes
 90
        0
 91
       16
280
     0
281
     0
  0
CLASS
  1
AMDTFORMULAUPDATEDISPATCHER
  2
AmdtFormulaUpdateDispatcher
  3
AcMeServices
 90
        0
 91
        3
280
     0
281
     0
  0
CLASS
  1
ACMDATAENTRYPART
  2
AcmDataEntryPart
  3
"AcmSymBB|Product Description: AutoCAD Mechanical 2004 DX|Company: Autodesk"
 90
        0
 91
        3
280
     0
281
     0
  0
CLASS
  1
ACMPARTREF
  2
AcmPartRef
  3
"AcmSymBB|Product Description: AutoCAD Mechanical 2004 DX|Company: Autodesk"
 90
     1023
 91
        3
280
     0
281
     1
  0
CLASS
  1
ACMDATAENTRY
  2
AcmDataEntry
  3
"AcmSymBB|Product Description: AutoCAD Mechanical 2004 DX|Company: Autodesk"
 90
        0
 91
       15
280
     0
281
     0
  0
CLASS
  1
ACMBOM
  2
AcmBom
  3
"AcmSymBB|Product Description: AutoCAD Mechanical 2004 DX|Company: Autodesk"
 90
        0
 91
        6
280
     0
281
     0
  0
CLASS
  1
ACMBOMROW
  2
AcmBomRow
  3
"AcmSymBB|Product Description: AutoCAD Mechanical 2004 DX|Company: Autodesk"
 90
        0
 91
        6
280
     0
281
     0
  0
CLASS
  1
ACMBALLOON
  2
AcmBalloon
  3
"AcmSymBB|Product Description: AutoCAD Mechanical 2004 DX|Company: Autodesk"
 90
     1023
 91
        3
280
     0
281
     1
  0
CLASS
  1
ACMPARTLIST
  2
AcmPartList
  3
"AcmSymBB|Product Description: AutoCAD Mechanical 2004 DX|Company: Autodesk"
 90
     1023
 91
        3
280
     0
281
     1
  0
CLASS
  1
ACDBLINERES
  2
AcDbLineRes
  3
AcGrefServices
 90
        0
 91
        6
280
     0
281
     0
  0
CLASS
  1
ACRFINSADJ
  2
AcRfInsAdjuster
  3
AcMeServices
 90
        0
 91
        3
280
     0
281
     0
  0
CLASS
  1
STDPART2D
  2
AmgStdPart
  3
"AmgStdPart|Product Description: AutoCAD Mechanical 2000|Company: Autodesk"
 90
     1023
 91
        0
280
     0
281
     1
  0
CLASS
  1
ACDBSTDPARTRES_ARC
  2
AcDbStdPartRes_Arc
  3
"AcDbStdPartRes_Arc|Product Description: AutoCAD Mechanical 2000|Company: Autodesk"
 90
        0
 91
        0
280
     0
281
     0
  0
CLASS
  1
ACMPICKOBJ
  2
AcmPickEnt
  3
"AcmSymBB|Product Description: AutoCAD Mechanical 2004 DX|Company: Autodesk"
 90
        0
 91
        0
280
     0
281
     1
  0
CLASS
  1
ACDBSTDPARTRES_LINE
  2
AcDbStdPartRes_Line
  3
"AcDbStdPartRes_Line|Product Description: AutoCAD Mechanical 2000|Company: Autodesk"
 90
        0
 91
        0
280
     0
281
     0
  0
CLASS
  1
AM_DRAWING_MGR
  2
AcDmDwgMgr
  3
AcMechDwgViewMgmt
 90
        0
 91
        3
280
     0
281
     0
  0
CLASS
  1
AM_DWG_DOCUMENT
  2
AcDmDwgDocument
  3
AcMechDwgViewMgmt
 90
        0
 91
        3
280
     0
281
     0
  0
CLASS
  1
AM_DWG_SHEET
  2
AcDmSheet
  3
AcMechDwgViewMgmt
 90
        0
 91
        6
280
     0
281
     0
  0
CLASS
  1
AM_VIEWDIMPARMAP
  2
AcDmViewDimParMap
  3
AcMechDwgViewMgmt
 90
        0
 91
        6
280
     0
281
     0
  0
CLASS
  1
AM_DWGMGR_NAME
  2
AcDmDwgMgrName
  3
AcMechDwgViewMgmt
 90
        0
 91
        3
280
     0
281
     0
  0
CLASS
  1
AMDTMENUSTATEMGR
  2
AmdtMenuStateMgr
  3
McadcomServices
 90
        0
 91
        1
280
     0
281
     0
  0
CLASS
  1
AMDTMCOMMENUSTATE
  2
AmdtMcomMenuState
  3
McadcomServices
 90
        0
 91
        1
280
     0
281
     0
  0
CLASS
  1
MAPIAMMOUDLE
  2
MApiAmModule
  3
MApiAmServices
 90
        0
 91
        3
280
     0
281
     0
  0
CLASS
  1
AMDTADMENUSTATE
  2
AmdtAdMenuState
  3
DesignerServices
 90
        0
 91
        1
280
     0
281
     0
  0
CLASS
  1
ADAPPL
  2
AcAdAppl
  3
DesignerServices
 90
        0
 91
        3
280
     0
281
     0
  0
CLASS
  1
DEPMGR
  2
AcAdDepMgr
  3
DesignerServices
 90
        0
 91
        3
280
     0
281
     0
  0
CLASS
  1
PARAMMGR
  2
AcAdParamMgr
  3
DesignerServices
 90
        0
 91
        3
280
     0
281
     0
  0
CLASS
  1
PARAMSCOPE
  2
AcAdParamScope
  3
DesignerServices
 90
        0
 91
        3
280
     0
281
     0
  0
CLASS
  1
NAMEDAPPL
  2
AcAdNamedAppl
  3
DesignerServices
 90
        0
 91
        3
280
     0
281
     0
  0
CLASS
  1
AMDTDMMENUSTATE
  2
AmdtDmMenuState
  3
AcMechDwgViewMgmt
 90
        0
 91
        1
280
     0
281
     0
  0
CLASS
  1
AMDTAMMENUSTATE
  2
AmdtAmMenuState
  3
DesignerAssemblies
 90
        0
 91
        1
280
     0
281
     0
  0
CLASS
  1
ACAMPROJECT
  2
AcAmProject
  3
DesignerAssemblies
 90
        0
 91
        3
280
     0
281
     0
  0
CLASS
  1
ACAMGRCOMPDEF
  2
AcAmGrCompDef
  3
DesignerAssemblies
 90
        0
 91
        3
280
     0
281
     0
  0
CLASS
  1
ACCMCONTEXT
  2
AcCmContext
  3
DesignerAssemblies
 90
        0
 91
        3
280
     0
281
     0
  0
CLASS
  1
ACAMCOMPDEF
  2
AcAmCompDef
  3
DesignerAssemblies
 90
        0
 91
        3
280
     0
281
     0
  0
CLASS
  1
ACAMCOMPDEFMGR
  2
AcAmCompDefMgr
  3
DesignerAssemblies
 90
        0
 91
        3
280
     0
281
     0
  0
CLASS
  1
AMCONTEXTMGR
  2
AcAmContextMgr
  3
DesignerAssemblies
 90
        0
 91
        3
280
     0
281
     0
  0
CLASS
  1
ACAMCONTEXTMODELER
  2
AcAmContextModeler
  3
DesignerAssemblies
 90
        0
 91
        3
280
     0
281
     0
  0
CLASS
  1
ACMTHREADLINESTANDARDJIS
  2
AmdtThreadLineStdJIS
  3
"Amdt_StdImp|Product Description: AutoCAD Mechanical 2004 DX|Company: Autodesk"
 90
        0
 91
        6
280
     0
281
     0
  0
CLASS
  1
ACMNOTESTANDARDJIS
  2
AmdtNoteStdJIS
  3
"Amdt_StdImp|Product Description: AutoCAD Mechanical 2004 DX|Company: Autodesk"
 90
        0
 91
        6
280
     0
281
     0
  0
CLASS
  1
AMDTNOTETEMPLATEDB
  2
AmdtNoteTemplateDB
  3
AMDT_STDIMP_MODULE_NAME
 90
        0
 91
       48
280
     0
281
     0
  0
CLASS
  1
ACMTHREADLINESTANDARDISO
  2
AmdtThreadLineStdISO
  3
"Amdt_StdImp|Product Description: AutoCAD Mechanical 2004 DX|Company: Autodesk"
 90
        0
 91
        3
280
     0
281
     0
  0
CLASS
  1
ACMNOTESTANDARDISO
  2
AmdtNoteStdISO
  3
"Amdt_StdImp|Product Description: AutoCAD Mechanical 2004 DX|Company: Autodesk"
 90
        0
 91
        3
280
     0
281
     0
  0
CLASS
  1
CATALOGSTATE
  2
AcAmCatalogState
  3
DesignerAssemblies
 90
        0
 91
        3
280
     0
281
     0
  0
CLASS
  1
ACAMGRCOMPDEFSET
  2
AcAmGrCompDefSet
  3
DesignerAssemblies
 90
        0
 91
        1
280
     0
281
     0
  0
CLASS
  1
AMDTBROWSERDBTAB
  2
AmdtBrowserDbTab
  3
McadcomServices
 90
        0
 91
        1
280
     0
281
     0
  0
CLASS
  1
CBROWSERAPPOBJECT
  2
CBrowserAppObject
  3
McadcomServices
 90
        0
 91
        3
280
     0
281
     0
  0
CLASS
  1
DM_PLACEHOLDER
  2
AcDmSelsetPlaceholder
  3
AcMechDwgViewMgmt
 90
        0
 91
        1
280
     0
281
     0
  0
CLASS
  1
ACMSTANDARDANSI
  2
AcmStandardANSI
  3
"Amdt_StdImp|Product Description: AutoCAD Mechanical 2004 DX|Company: Autodesk"
 90
        0
 91
        3
280
     0
281
     0
  0
CLASS
  1
ACMSURFSTANDARDANSI
  2
AcmSurfTextStdANSI
  3
"Amdt_StdImp|Product Description: AutoCAD Mechanical 2004 DX|Company: Autodesk"
 90
        0
 91
        3
280
     0
281
     0
  0
CLASS
  1
ACMFCFSTANDARDANSI
  2
AcmFCFStdANSI
  3
"Amdt_StdImp|Product Description: AutoCAD Mechanical 2004 DX|Company: Autodesk"
 90
        0
 91
        3
280
     0
281
     0
  0
CLASS
  1
ACMWELDSTANDARDANSI
  2
AcmWeldingStdANSI
  3
"Amdt_StdImp|Product Description: AutoCAD Mechanical 2004 DX|Company: Autodesk"
 90
        0
 91
        3
280
     0
281
     0
  0
CLASS
  1
ACMIDSTANDARDANSI
  2
AcmIdStdANSI
  3
"Amdt_StdImp|Product Description: AutoCAD Mechanical 2004 DX|Company: Autodesk"
 90
        0
 91
        3
280
     0
281
     0
  0
CLASS
  1
ACMDATUMSTANDARDANSI
  2
AcmDatumStdANSI
  3
"Amdt_StdImp|Product Description: AutoCAD Mechanical 2004 DX|Company: Autodesk"
 90
        0
 91
        3
280
     0
281
     0
  0
CLASS
  1
ACMBOMSTANDARDANSI
  2
AcmBOMStdANSI
  3
"Amdt_StdImp|Product Description: AutoCAD Mechanical 2004 DX|Company: Autodesk"
 90
        0
 91
        3
280
     0
281
     0
  0
CLASS
  1
ACMDETAILSTANDARDANSI
  2
AmdtDetailSymStdANSI
  3
"Amdt_StdImp|Product Description: AutoCAD Mechanical 2004 DX|Company: Autodesk"
 90
        0
 91
        3
280
     0
281
     0
  0
CLASS
  1
ACMSECTIONSTANDARDANSI
  2
AmdtSectionSymStdANSI
  3
"Amdt_StdImp|Product Description: AutoCAD Mechanical 2004 DX|Company: Autodesk"
 90
        0
 91
        3
280
     0
281
     0
  0
CLASS
  1
ACMCENTERLINESTANDARDANSI
  2
AmdtCenterLineStdANSI
  3
"Amdt_StdImp|Product Description: AutoCAD Mechanical 2004 DX|Company: Autodesk"
 90
        0
 91
        3
280
     0
281
     0
  0
CLASS
  1
ACMTHREADLINESTANDARDANSI
  2
AmdtThreadLineStdANSI
  3
"Amdt_StdImp|Product Description: AutoCAD Mechanical 2004 DX|Company: Autodesk"
 90
        0
 91
        3
280
     0
281
     0
  0
CLASS
  1
ACMNOTESTANDARDANSI
  2
AmdtNoteStdANSI
  3
"Amdt_StdImp|Product Description: AutoCAD Mechanical 2004 DX|Company: Autodesk"
 90
        0
 91
        3
280
     0
281
     0
  0
CLASS
  1
ACAMGHOLECHARTSTDANSI
  2
AcAmgHoleChartStdANSI
  3
ACMSYMBB_MODULE_NAME
 90
        0
 91
        3
280
     0
281
     0
  0
CLASS
  1
AMDTACMWBLOCKBOMENTITY
  2
AmdtAcmWblockBomEntity
  3
"AcmSymBB|Product Description: AutoCAD Mechanical 2004 DX|Company: Autodesk"
 90
     1023
 91
        9
280
     0
281
     1
  0
CLASS
  1
ACDBCIRCARCRES
  2
AcDbCircArcRes
  3
AcGrefServices
 90
        0
 91
        3
280
     0
281
     0
  0
CLASS
  1
ACMFCFSTANDARDJIS98
  2
AcmFCFStdJIS98
  3
"Amdt_StdImp|Product Description: AutoCAD Mechanical 2004 DX|Company: Autodesk"
 90
        0
 91
        3
280
     0
281
     0
  0
CLASS
  1
ACAMGHOLECHARTSTDJIS
  2
AcAmgHoleChartStdJIS
  3
ACMSYMBB_MODULE_NAME
 90
        0
 91
        3
280
     0
281
     0
  0
ENDSEC
  0
SECTION
  2
TABLES
  0
TABLE
  2
VPORT
  5
8
330
0
100
AcDbSymbolTable
 70
     3
  0
VPORT
  5
321C
330
8
100
AcDbSymbolTableRecord
100
AcDbViewportTableRecord
  2
*Active
 70
     0
 10
0.0
 20
0.0
 11
1.0
 21
1.0
 12
2125.941037931255
 22
1485.017880771237
 13
0.0
 23
0.0
 14
25.0
 24
25.0
 15
100.0
 25
100.0
 16
0.0
 26
0.0
 36
1.0
 17
0.0
 27
0.0
 37
0.0
 40
2992.334823751706
 41
1.498730964467005
 42
50.0
 43
0.0
 44
0.0
 50
0.0
 51
0.0
 71
    16
 72
   100
 73
     1
 74
     3
 75
     0
 76
     0
 77
     0
 78
     0
281
     0
 65
     1
110
0.0
120
0.0
130
0.0
111
1.0
121
0.0
131
0.0
112
0.0
122
1.0
132
0.0
 79
     0
146
0.0
  0
ENDTAB
  0
TABLE
  2
LTYPE
  5
5
330
0
100
AcDbSymbolTable
 70
    19
  0
LTYPE
  5
14
330
5
100
AcDbSymbolTableRecord
100
AcDbLinetypeTableRecord
  2
ByBlock
 70
     0
  3

 72
    65
 73
     0
 40
0.0
  0
LTYPE
  5
15
330
5
100
AcDbSymbolTableRecord
100
AcDbLinetypeTableRecord
  2
ByLayer
 70
     0
  3

 72
    65
 73
     0
 40
0.0
  0
LTYPE
  5
16
330
5
100
AcDbSymbolTableRecord
100
AcDbLinetypeTableRecord
  2
Continuous
 70
     0
  3
Solid line
 72
    65
 73
     0
 40
0.0
  0
LTYPE
  5
35
330
5
100
AcDbSymbolTableRecord
100
AcDbLinetypeTableRecord
  2
AM_ISO02W050
 70
     0
  3
__ __ __ __ __ __ __ __ __ __ __ __ __ __ __
 72
    65
 73
     2
 40
7.5
 49
6.0
 74
     0
 49
-1.5
 74
     0
  0
LTYPE
  5
36
330
5
100
AcDbSymbolTableRecord
100
AcDbLinetypeTableRecord
  2
AM_ISO08W050
 70
     0
  3
____ . ____ . ____ . ____ . ____ . ____ . ____
 72
    65
 73
     4
 40
18.0
 49
12.0
 74
     0
 49
-1.5
 74
     0
 49
3.0
 74
     0
 49
-1.5
 74
     0
  0
LTYPE
  5
37
330
5
100
AcDbSymbolTableRecord
100
AcDbLinetypeTableRecord
  2
AM_ISO09W050
 70
     0
  3
_____ . . _____ . . _____ . . ____ .. ____
 72
    65
 73
     6
 40
22.5
 49
12.0
 74
     0
 49
-1.5
 74
     0
 49
3.0
 74
     0
 49
-1.5
 74
     0
 49
3.0
 74
     0
 49
-1.5
 74
     0
  0
LTYPE
  5
38
330
5
100
AcDbSymbolTableRecord
100
AcDbLinetypeTableRecord
  2
Amconstr
 70
     0
  3
_______________________
 72
    65
 73
     2
 40
9999.0
 49
9999.0
 74
     0
 49
0.0
 74
     0
  0
LTYPE
  5
39
330
5
100
AcDbSymbolTableRecord
100
AcDbLinetypeTableRecord
  2
AM_ISO08W050x2
 70
     0
  3
__ . __ . __ . __ . __ . __
 72
    65
 73
     4
 40
9.0
 49
6.0
 74
     0
 49
-0.75
 74
     0
 49
1.5
 74
     0
 49
-0.75
 74
     0
  0
LTYPE
  5
3A
330
5
100
AcDbSymbolTableRecord
100
AcDbLinetypeTableRecord
  2
AM_ISO02W050x2
 70
     0
  3
 _ _ _ _ _ _ _ _ _ _ _ _
 72
    65
 73
     2
 40
3.75
 49
3.0
 74
     0
 49
-0.75
 74
     0
  0
LTYPE
  5
3B
330
5
100
AcDbSymbolTableRecord
100
AcDbLinetypeTableRecord
  2
Amzigzag
 70
     0
  3
/\/-/\/-/\/-/\/-/\/-/\/
 72
    65
 73
     2
 40
11.0001
 49
0.0001
 74
     4
 75
   135
340
3C
 46
0.04
 50
0.0
 44
0.0
 45
0.0
 49
-11.0
 74
     0
  0
LTYPE
  5
64
330
5
100
AcDbSymbolTableRecord
100
AcDbLinetypeTableRecord
  2
ACJISTGB
 70
     0
  3
__ . . __ . .
 72
    65
 73
     6
 40
9.0
 49
4.0
 74
     0
 49
-1.0
 74
     0
 49
1.0
 74
     0
 49
-1.0
 74
     0
 49
1.0
 74
     0
 49
-1.0
 74
     0
  0
LTYPE
  5
65
330
5
100
AcDbSymbolTableRecord
100
AcDbLinetypeTableRecord
  2
ACJISTGL
 70
     0
  3
_ _ _ _ _
 72
    65
 73
     2
 40
3.0
 49
2.0
 74
     0
 49
-1.0
 74
     0
  0
LTYPE
  5
69
330
5
100
AcDbSymbolTableRecord
100
AcDbLinetypeTableRecord
  2
CENTER
 70
     0
  3
__ . __
 72
    65
 73
     4
 40
7.0
 49
4.0
 74
     0
 49
-1.0
 74
     0
 49
1.0
 74
     0
 49
-1.0
 74
     0
  0
LTYPE
  5
8F
330
5
100
AcDbSymbolTableRecord
100
AcDbLinetypeTableRecord
  2
ACISOWELD
 70
     0
  3
_ _ _ _ _
 72
    65
 73
     2
 40
2.0
 49
2.0
 74
     0
 49
-1.0
 74
     0
  0
LTYPE
  5
92
330
5
100
AcDbSymbolTableRecord
100
AcDbLinetypeTableRecord
  2
ACISOTGB
 70
     0
  3
__ . . __ . .
 72
    65
 73
     6
 40
9.0
 49
4.0
 74
     0
 49
-1.0
 74
     0
 49
1.0
 74
     0
 49
-1.0
 74
     0
 49
1.0
 74
     0
 49
-1.0
 74
     0
  0
LTYPE
  5
93
330
5
100
AcDbSymbolTableRecord
100
AcDbLinetypeTableRecord
  2
ACISOTGL
 70
     0
  3
_ _ _ _ _
 72
    65
 73
     2
 40
3.0
 49
2.0
 74
     0
 49
-1.0
 74
     0
  0
LTYPE
  5
309
330
5
100
AcDbSymbolTableRecord
100
AcDbLinetypeTableRecord
  2
HIDDEN
 70
     0
  3
_ _ _ _ _ _ _ _ _ _ _ _ _ _ _ _ _ _ _ _ _ _ _
 72
    65
 73
     2
 40
1.5
 49
1.0
 74
     0
 49
-0.5
 74
     0
  0
LTYPE
  5
30F
330
5
100
AcDbSymbolTableRecord
100
AcDbLinetypeTableRecord
  2
GEN7A
 70
     0
  3
__ . __ . __
 72
    65
 73
     4
 40
6.875
 49
5.0
 74
     0
 49
-0.625
 74
     0
 49
0.625
 74
     0
 49
-0.625
 74
     0
  0
LTYPE
  5
9B5
330
5
100
AcDbSymbolTableRecord
100
AcDbLinetypeTableRecord
  2
PHANTOM2
 70
     0
  3
Phantom (.5x) ___ _ _ ___ _ _ ___ _ _ ___ _ _
 72
    65
 73
     6
 40
31.75
 49
15.875
 74
     0
 49
-3.174999999999999
 74
     0
 49
3.174999999999999
 74
     0
 49
-3.174999999999999
 74
     0
 49
3.174999999999999
 74
     0
 49
-3.174999999999999
 74
     0
  0
LTYPE
  5
A91
330
5
100
AcDbSymbolTableRecord
100
AcDbLinetypeTableRecord
  2
ACANSTGB
 70
     0
  3
__ . . __ . .
 72
    65
 73
     6
 40
0.35433070866
 49
0.15748031496
 74
     0
 49
-0.03937007874
 74
     0
 49
0.03937007874
 74
     0
 49
-0.03937007874
 74
     0
 49
0.03937007874
 74
     0
 49
-0.03937007874
 74
     0
  0
LTYPE
  5
A92
330
5
100
AcDbSymbolTableRecord
100
AcDbLinetypeTableRecord
  2
ACANSTGL
 70
     0
  3
_ _ _ _ _
 72
    65
 73
     2
 40
0.11811023622
 49
0.07874015748
 74
     0
 49
-0.03937007874
 74
     0
  0
ENDTAB
  0
TABLE
  2
LAYER
  5
2
102
{ACAD_XDICTIONARY
360
1050
102
}
330
0
100
AcDbSymbolTable
 70
    16
  0
LAYER
  5
10
330
2
100
AcDbSymbolTableRecord
100
AcDbLayerTableRecord
  2
0
 70
     0
 62
     7
  6
Continuous
370
    -3
390
F
  0
LAYER
  5
F5
330
2
100
AcDbSymbolTableRecord
100
AcDbLayerTableRecord
  2
RAHM2
 70
     0
 62
     1
  6
Continuous
370
    -3
390
F
  0
LAYER
  5
1EF
330
2
100
AcDbSymbolTableRecord
100
AcDbLayerTableRecord
  2
AM_BOR
 70
     0
 62
     7
  6
Continuous
370
    50
390
F
  0
LAYER
  5
310
330
2
100
AcDbSymbolTableRecord
100
AcDbLayerTableRecord
  2
RAHM3
 70
     0
 62
     2
  6
Continuous
370
    -3
390
F
  0
LAYER
  5
313
330
2
100
AcDbSymbolTableRecord
100
AcDbLayerTableRecord
  2
DEFPOINTS
 70
     0
 62
     7
  6
Continuous
290
     0
370
    -3
390
F
  0
LAYER
  5
316
330
2
100
AcDbSymbolTableRecord
100
AcDbLayerTableRecord
  2
7A
 70
     0
 62
     4
  6
GEN7A
370
    -3
390
F
  0
LAYER
  5
D60
330
2
100
AcDbSymbolTableRecord
100
AcDbLayerTableRecord
  2
AM_5
 70
     0
 62
     3
  6
Continuous
370
    25
390
F
  0
LAYER
  5
1045
330
2
100
AcDbSymbolTableRecord
100
AcDbLayerTableRecord
  2
6
 70
     0
 62
     2
  6
Continuous
370
    -3
390
F
  0
LAYER
  5
104A
330
2
100
AcDbSymbolTableRecord
100
AcDbLayerTableRecord
  2
TEXT
 70
     0
 62
     7
  6
Continuous
370
    -3
390
F
  0
LAYER
  5
104B
330
2
100
AcDbSymbolTableRecord
100
AcDbLayerTableRecord
  2
AM_12
 70
     0
 62
     7
  6
Continuous
290
     0
370
    50
390
F
  0
LAYER
  5
104C
330
2
100
AcDbSymbolTableRecord
100
AcDbLayerTableRecord
  2
AM_PAREF
 70
     0
 62
     4
  6
Continuous
290
     0
370
    25
390
F
  0
LAYER
  5
2912
330
2
100
AcDbSymbolTableRecord
100
AcDbLayerTableRecord
  2
1
 70
     0
 62
     7
  6
Continuous
370
    -3
390
F
  0
LAYER
  5
2C1C
330
2
100
AcDbSymbolTableRecord
100
AcDbLayerTableRecord
  2
AM_7
 70
     0
 62
     4
  6
AM_ISO08W050
370
    25
390
F
  0
LAYER
  5
2D24
330
2
100
AcDbSymbolTableRecord
100
AcDbLayerTableRecord
  2
AM_3
 70
     0
 62
     6
  6
AM_ISO02W050
370
    25
390
F
  0
LAYER
  5
2FB3
330
2
100
AcDbSymbolTableRecord
100
AcDbLayerTableRecord
  2
AM_CL
 70
     0
 62
     1
  6
Amconstr
370
    25
390
F
  0
LAYER
  5
301A
330
2
100
AcDbSymbolTableRecord
100
AcDbLayerTableRecord
  2
AM_0
 70
     0
 62
     7
  6
Continuous
370
    50
390
F
  0
ENDTAB
  0
TABLE
  2
STYLE
  5
3
330
0
100
AcDbSymbolTable
 70
     8
  0
STYLE
  5
11
330
3
100
AcDbSymbolTableRecord
100
AcDbTextStyleTableRecord
  2
STANDARD
 70
     0
 40
0.0
 41
1.0
 50
0.0
 71
     0
 42
2.5
  3
ISOCP.SHX
  4
EXTFONT.SHX
  0
STYLE
  5
3C
330
3
100
AcDbSymbolTableRecord
100
AcDbTextStyleTableRecord
  2

 70
     1
 40
0.0
 41
1.0
 50
0.0
 71
     0
 42
2.5
  3
ltypeshp.shx
  4

  0
STYLE
  5
5D
330
3
100
AcDbSymbolTableRecord
100
AcDbTextStyleTableRecord
  2
ACJISTS
 70
     0
 40
1.0
 41
1.0
 50
0.0
 71
     0
 42
2.5
  3
isocp.shx
  4
extfont.shx
  0
STYLE
  5
60
330
3
100
AcDbSymbolTableRecord
100
AcDbTextStyleTableRecord
  2
ACJISGDT
 70
     0
 40
0.0
 41
1.0
 50
0.0
 71
     0
 42
2.5
  3
amgdt.shx
  4

  0
STYLE
  5
89
330
3
100
AcDbSymbolTableRecord
100
AcDbTextStyleTableRecord
  2
ACISOTS
 70
     0
 40
1.0
 41
1.0
 50
0.0
 71
     0
 42
2.5
  3
isocp.shx
  4
extfont.shx
  0
STYLE
  5
8D
330
3
100
AcDbSymbolTableRecord
100
AcDbTextStyleTableRecord
  2
ACISOGDT
 70
     0
 40
0.0
 41
1.0
 50
0.0
 71
     0
 42
2.5
  3
amgdt.shx
  4

  0
STYLE
  5
A93
330
3
100
AcDbSymbolTableRecord
100
AcDbTextStyleTableRecord
  2
ACANSTS
 70
     0
 40
1.0
 41
1.0
 50
0.0
 71
     0
 42
40.0
  3
romans.shx
  4
extfont.shx
  0
STYLE
  5
A94
330
3
100
AcDbSymbolTableRecord
100
AcDbTextStyleTableRecord
  2
ACANSGDT
 70
     0
 40
0.0
 41
1.0
 50
0.0
 71
     0
 42
40.0
  3
amgdtans.shx
  4

  0
ENDTAB
  0
TABLE
  2
VIEW
  5
6
330
0
100
AcDbSymbolTable
 70
     6
  0
VIEW
  5
3C5
330
6
100
AcDbSymbolTableRecord
100
AcDbViewTableRecord
  2
AM_VIEW1
 70
     0
 40
1485.0
 10
1052.865434577459
 20
2728.308812313826
 41
2172.939297124601
 11
0.0
 21
0.0
 31
1.0
 12
0.0
 22
0.0
 32
0.0
 42
50.0
 43
0.0
 44
0.0
 50
0.0
 71
    16
281
     0
 72
     0
  0
VIEW
  5
3C6
330
6
100
AcDbSymbolTableRecord
100
AcDbViewTableRecord
  2
AM_VIEW2
 70
     0
 40
1485.0
 10
3079.926137452858
 20
2728.308812313826
 41
2172.939297124601
 11
0.0
 21
0.0
 31
1.0
 12
0.0
 22
0.0
 32
0.0
 42
50.0
 43
0.0
 44
0.0
 50
0.0
 71
    16
281
     0
 72
     0
  0
VIEW
  5
3C7
330
6
100
AcDbSymbolTableRecord
100
AcDbViewTableRecord
  2
AM_VIEW3
 70
     0
 40
1485.0
 10
1052.865434577459
 20
1243.308812313826
 41
2172.939297124601
 11
0.0
 21
0.0
 31
1.0
 12
0.0
 22
0.0
 32
0.0
 42
50.0
 43
0.0
 44
0.0
 50
0.0
 71
    16
281
     0
 72
     0
  0
VIEW
  5
3C8
330
6
100
AcDbSymbolTableRecord
100
AcDbViewTableRecord
  2
AM_VIEW4
 70
     0
 40
1485.0
 10
3079.926137452858
 20
1243.308812313826
 41
2172.939297124601
 11
0.0
 21
0.0
 31
1.0
 12
0.0
 22
0.0
 32
0.0
 42
50.0
 43
0.0
 44
0.0
 50
0.0
 71
    16
281
     0
 72
     0
  0
VIEW
  5
3C9
330
6
100
AcDbSymbolTableRecord
100
AcDbViewTableRecord
  2
AM_VIEW5
 70
     0
 40
1485.0
 10
2066.395786015159
 20
1985.808812313826
 41
2172.939297124601
 11
0.0
 21
0.0
 31
1.0
 12
0.0
 22
0.0
 32
0.0
 42
50.0
 43
0.0
 44
0.0
 50
0.0
 71
    16
281
     0
 72
     0
  0
VIEW
  5
3CA
330
6
100
AcDbSymbolTableRecord
100
AcDbViewTableRecord
  2
AM_VIEW6
 70
     0
 40
2969.9703
 10
2066.395786015159
 20
1985.808812313826
 41
4345.835135463257
 11
0.0
 21
0.0
 31
1.0
 12
0.0
 22
0.0
 32
0.0
 42
50.0
 43
0.0
 44
0.0
 50
0.0
 71
    16
281
     0
 72
     0
  0
ENDTAB
  0
TABLE
  2
UCS
  5
7
330
0
100
AcDbSymbolTable
 70
     0
  0
ENDTAB
  0
TABLE
  2
APPID
  5
9
330
0
100
AcDbSymbolTable
 70
    53
  0
APPID
  5
12
330
9
100
AcDbSymbolTableRecord
100
AcDbRegAppTableRecord
  2
ACAD
 70
     0
  0
APPID
  5
2D
330
9
100
AcDbSymbolTableRecord
100
AcDbRegAppTableRecord
  2
MCAD_NO_VIS
 70
     0
  0
APPID
  5
2E
330
9
100
AcDbSymbolTableRecord
100
AcDbRegAppTableRecord
  2
ACAD_TEMP_GRAPHIC
 70
     0
  0
APPID
  5
2F
330
9
100
AcDbSymbolTableRecord
100
AcDbRegAppTableRecord
  2
ACATTRIBSERVICES
 70
     0
  0
APPID
  5
1F0
330
9
100
AcDbSymbolTableRecord
100
AcDbRegAppTableRecord
  2
GENIUS_GENBLLY_14
 70
     0
  0
APPID
  5
321
330
9
100
AcDbSymbolTableRecord
100
AcDbRegAppTableRecord
  2
GENIUS_GENCFG_13
 70
     0
  0
APPID
  5
322
330
9
100
AcDbSymbolTableRecord
100
AcDbRegAppTableRecord
  2
GENIUS_GENOBJ_13
 70
     0
  0
APPID
  5
323
330
9
100
AcDbSymbolTableRecord
100
AcDbRegAppTableRecord
  2
GENIUS_GENODEF_13
 70
     0
  0
APPID
  5
324
330
9
100
AcDbSymbolTableRecord
100
AcDbRegAppTableRecord
  2
GENIUS_GENOENT_13
 70
     0
  0
APPID
  5
325
330
9
100
AcDbSymbolTableRecord
100
AcDbRegAppTableRecord
  2
GENIUS_GENOLIS_13
 70
     0
  0
APPID
  5
326
330
9
100
AcDbSymbolTableRecord
100
AcDbRegAppTableRecord
  2
GENIUS_GENOREF_13
 70
     0
  0
APPID
  5
327
330
9
100
AcDbSymbolTableRecord
100
AcDbRegAppTableRecord
  2
GENIUS_GENOBJ-N-TIT_13
 70
     0
  0
APPID
  5
328
330
9
100
AcDbSymbolTableRecord
100
AcDbRegAppTableRecord
  2
GENIUS_GENTITLE_13
 70
     0
  0
APPID
  5
329
330
9
100
AcDbSymbolTableRecord
100
AcDbRegAppTableRecord
  2
GENIUS_GENZVEED_13
 70
     0
  0
APPID
  5
32A
330
9
100
AcDbSymbolTableRecord
100
AcDbRegAppTableRecord
  2
GENIUS_GENOBJ-N-SDF_13
 70
     0
  0
APPID
  5
32B
330
9
100
AcDbSymbolTableRecord
100
AcDbRegAppTableRecord
  2
GENIUS_GENSCREG_13
 70
     0
  0
APPID
  5
32C
330
9
100
AcDbSymbolTableRecord
100
AcDbRegAppTableRecord
  2
GENIUS_GENCFG0_13
 70
     0
  0
APPID
  5
32D
330
9
100
AcDbSymbolTableRecord
100
AcDbRegAppTableRecord
  2
GENIUS_GENCFG1_13
 70
     0
  0
APPID
  5
32E
330
9
100
AcDbSymbolTableRecord
100
AcDbRegAppTableRecord
  2
GENIUS_GENCFG2_13
 70
     0
  0
APPID
  5
32F
330
9
100
AcDbSymbolTableRecord
100
AcDbRegAppTableRecord
  2
GENIUS_GENCFG3_13
 70
     0
  0
APPID
  5
330
330
9
100
AcDbSymbolTableRecord
100
AcDbRegAppTableRecord
  2
GENIUS_GENCFG4_13
 70
     0
  0
APPID
  5
331
330
9
100
AcDbSymbolTableRecord
100
AcDbRegAppTableRecord
  2
GENIUS_GEVCFG0_13
 70
     0
  0
APPID
  5
332
330
9
100
AcDbSymbolTableRecord
100
AcDbRegAppTableRecord
  2
GENIUS_GENOBJ-N-CRS_13
 70
     0
  0
APPID
  5
333
330
9
100
AcDbSymbolTableRecord
100
AcDbRegAppTableRecord
  2
GENIUS_GENOBJ-N-CEN_13
 70
     0
  0
APPID
  5
334
330
9
100
AcDbSymbolTableRecord
100
AcDbRegAppTableRecord
  2
GENIUS_GEFCFG0_13
 70
     0
  0
APPID
  5
3BA
330
9
100
AcDbSymbolTableRecord
100
AcDbRegAppTableRecord
  2
GENIUS_GENTRA_14
 70
     0
  0
APPID
  5
3CB
330
9
100
AcDbSymbolTableRecord
100
AcDbRegAppTableRecord
  2
GENIUS_GENSCREG_15
 70
     0
  0
APPID
  5
436
330
9
100
AcDbSymbolTableRecord
100
AcDbRegAppTableRecord
  2
GEVID984623613
 70
     0
  0
APPID
  5
437
330
9
100
AcDbSymbolTableRecord
100
AcDbRegAppTableRecord
  2
GEVDC
 70
     0
  0
APPID
  5
438
330
9
100
AcDbSymbolTableRecord
100
AcDbRegAppTableRecord
  2
GEVCON
 70
     0
  0
APPID
  5
43C
330
9
100
AcDbSymbolTableRecord
100
AcDbRegAppTableRecord
  2
GENIUS_GENBH_13
 70
     0
  0
APPID
  5
43E
330
9
100
AcDbSymbolTableRecord
100
AcDbRegAppTableRecord
  2
GENIUS_GENOBJ-NBEHI-BHF_13
 70
     0
  0
APPID
  5
440
330
9
100
AcDbSymbolTableRecord
100
AcDbRegAppTableRecord
  2
GENIUS_GENOBJ-NBEHI-BHB_13
 70
     0
  0
APPID
  5
455
330
9
100
AcDbSymbolTableRecord
100
AcDbRegAppTableRecord
  2
GENIUS_GENOBJ-F-SCPASSM_13
 70
     0
  0
APPID
  5
47B
330
9
100
AcDbSymbolTableRecord
100
AcDbRegAppTableRecord
  2
GEVID984623614
 70
     0
  0
APPID
  5
48B
330
9
100
AcDbSymbolTableRecord
100
AcDbRegAppTableRecord
  2
GEVID984623615
 70
     0
  0
APPID
  5
54A
330
9
100
AcDbSymbolTableRecord
100
AcDbRegAppTableRecord
  2
GENIUS_GENOBJ-N-REV_13
 70
     0
  0
APPID
  5
54B
330
9
100
AcDbSymbolTableRecord
100
AcDbRegAppTableRecord
  2
GENIUS_GENOBJ-N-RSSYM_13
 70
     0
  0
APPID
  5
54C
330
9
100
AcDbSymbolTableRecord
100
AcDbRegAppTableRecord
  2
GENIUS_GENSYMENT_13
 70
     0
  0
APPID
  5
54D
330
9
100
AcDbSymbolTableRecord
100
AcDbRegAppTableRecord
  2
GENIUS_GENSCSYM_13
 70
     0
  0
APPID
  5
943
330
9
100
AcDbSymbolTableRecord
100
AcDbRegAppTableRecord
  2
DCO15
 70
     0
  0
APPID
  5
9B7
330
9
100
AcDbSymbolTableRecord
100
AcDbRegAppTableRecord
  2
AD_DRAW
 70
     0
  0
APPID
  5
9D5
330
9
100
AcDbSymbolTableRecord
100
AcDbRegAppTableRecord
  2
DESIGNERASSEMBLIES
 70
     0
  0
APPID
  5
9E5
330
9
100
AcDbSymbolTableRecord
100
AcDbRegAppTableRecord
  2
ACADM_DIM_EDIT
 70
     0
  0
APPID
  5
9E6
330
9
100
AcDbSymbolTableRecord
100
AcDbRegAppTableRecord
  2
AMDT_DM_ADJ
 70
     0
  0
APPID
  5
DC3
330
9
100
AcDbSymbolTableRecord
100
AcDbRegAppTableRecord
  2
GENIUS_GENDIMSH_14
 70
     0
  0
APPID
  5
104E
330
9
100
AcDbSymbolTableRecord
100
AcDbRegAppTableRecord
  2
GENIUS_GENOBJ-N-REC_13
 70
     0
  0
APPID
  5
104F
330
9
100
AcDbSymbolTableRecord
100
AcDbRegAppTableRecord
  2
GENIUS_GENOBJ-N-FIL_13
 70
     0
  0
APPID
  5
1F77
330
9
100
AcDbSymbolTableRecord
100
AcDbRegAppTableRecord
  2
GENIUS_GENDTOL_13
 70
     0
  0
APPID
  5
1F78
330
9
100
AcDbSymbolTableRecord
100
AcDbRegAppTableRecord
  2
GENIUS_GENDREL_13
 70
     0
  0
APPID
  5
27FE
330
9
100
AcDbSymbolTableRecord
100
AcDbRegAppTableRecord
  2
GENIUS_GENREC_14
 70
     0
  0
APPID
  5
2809
330
9
100
AcDbSymbolTableRecord
100
AcDbRegAppTableRecord
  2
GENIUS_GENOBJ-N-HTC_13
 70
     0
  0
APPID
  5
280A
330
9
100
AcDbSymbolTableRecord
100
AcDbRegAppTableRecord
  2
GENIUS_GENHATCH_13
 70
     0
  0
ENDTAB
  0
TABLE
  2
DIMSTYLE
  5
A
330
0
100
AcDbSymbolTable
 70
    28
100
AcDbDimStyleTable
 71
     1
340
76
  0
DIMSTYLE
105
76
102
{ACAD_REACTORS
330
2C30
330
2C5C
330
2C8A
330
2CAB
330
2CE2
330
2D04
330
2D42
330
2D68
330
2D82
330
2DAE
330
2DDA
330
2DF4
330
2E15
330
2E4C
330
3082
330
30AD
330
30D3
330
3100
330
312B
102
}
330
A
100
AcDbSymbolTableRecord
100
AcDbDimStyleTableRecord
  2
IGS
 70
     0
  4
"
 40
10.0
 41
2.5
 42
1.0
 43
10.0
 44
1.0
 47
0.1
 48
0.1
 73
     0
 74
     0
 77
     3
 78
     8
 79
     2
140
4.5
141
0.0
143
0.0393701
146
0.71
147
1.5
172
     1
176
   256
177
   256
178
     2
271
     2
272
     2
283
     0
284
     8
340
11
341
77
342
77
371
    -1
372
    -1
  0
DIMSTYLE
105
7D
330
A
100
AcDbSymbolTableRecord
100
AcDbDimStyleTableRecord
  2
IGS$3
 70
     0
  4
"
 40
10.0
 41
2.5
 42
1.0
 43
10.0
 44
1.0
 47
0.1
 48
0.1
 73
     0
 77
     3
 78
     8
 79
     2
140
4.5
141
0.0
143
0.0393701
146
0.71
147
1.5
176
   256
177
   256
178
     2
271
     2
272
     2
283
     0
284
     8
288
     1
289
     0
340
11
341
77
342
77
371
    -1
372
    -1
  0
DIMSTYLE
105
7E
330
A
100
AcDbSymbolTableRecord
100
AcDbDimStyleTableRecord
  2
IGS$4
 70
     0
  4
"
 40
10.0
 41
2.5
 42
1.0
 43
10.0
 44
1.0
 47
0.1
 48
0.1
 73
     0
 77
     3
 78
     8
 79
     2
140
4.5
141
0.0
143
0.0393701
146
0.71
147
1.5
176
   256
177
   256
178
     2
271
     2
272
     2
283
     0
284
     8
288
     1
289
     0
340
11
341
77
342
77
371
    -1
372
    -1
  0
DIMSTYLE
105
7F
330
A
100
AcDbSymbolTableRecord
100
AcDbDimStyleTableRecord
  2
IGS$6
 70
     0
  4
"
 40
10.0
 41
2.5
 42
1.0
 43
10.0
 44
1.0
 47
0.1
 48
0.1
 73
     0
 74
     0
 78
     8
 79
     2
140
4.5
141
0.0
143
0.0393701
146
0.71
147
1.5
172
     1
176
   256
177
   256
178
     2
271
     2
272
     2
283
     0
284
     8
340
11
341
77
342
77
371
    -1
372
    -1
  0
DIMSTYLE
105
80
330
A
100
AcDbSymbolTableRecord
100
AcDbDimStyleTableRecord
  2
IGS$7
 70
     0
  4
"
 40
10.0
 41
2.5
 42
1.0
 43
10.0
 44
1.0
 47
0.1
 48
0.1
 73
     0
 74
     0
 77
     3
 78
     8
 79
     2
140
5.0
141
0.0
143
0.0393701
146
0.71
147
1.5
172
     1
176
   256
177
   256
178
     2
271
     2
272
     2
283
     0
284
     8
340
11
341
77
342
77
371
    -1
372
    -1
  0
DIMSTYLE
105
81
330
A
100
AcDbSymbolTableRecord
100
AcDbDimStyleTableRecord
  2
IGS$SF
 70
     0
  4
"
 40
10.0
 41
2.5
 42
1.0
 43
10.0
 44
1.0
 47
0.1
 48
0.1
 73
     0
 74
     0
 75
     1
 76
     1
 77
     3
 78
     8
 79
     2
140
3.5
141
0.0
143
0.0393701
146
0.71
147
1.5
172
     1
176
   256
177
   256
178
     2
271
     2
272
     3
274
     4
283
     0
284
     8
340
11
341
77
342
77
343
77
344
77
371
    -1
372
    -1
  0
DIMSTYLE
105
82
330
A
100
AcDbSymbolTableRecord
100
AcDbDimStyleTableRecord
  2
IGS$SH
 70
     0
  4
"
 40
10.0
 41
2.5
 42
1.0
 43
10.0
 44
1.0
 47
0.1
 48
0.1
 73
     0
 74
     0
 75
     1
 76
     1
 77
     3
 78
     8
 79
     2
140
3.5
141
0.0
143
0.0393701
144
2.0
146
0.71
147
1.5
172
     1
173
     1
176
   256
177
   256
178
     2
271
     2
272
     3
274
     4
283
     0
284
     8
340
11
341
77
342
77
343
83
344
77
371
    -1
372
    -1
  0
DIMSTYLE
105
9A
330
A
100
AcDbSymbolTableRecord
100
AcDbDimStyleTableRecord
  2
AM_ISO
 70
     0
  4
"
 40
10.0
 41
2.5
 42
1.0
 43
10.0
 44
1.0
 47
0.1
 48
0.1
 73
     0
 74
     0
 77
     1
 78
     8
 79
     2
140
3.5
141
0.0
143
0.0393701
146
0.71
147
1.5
172
     1
176
   256
177
   256
178
     2
271
     2
272
     3
274
     4
283
     0
284
     8
340
11
371
    -1
372
    -1
  0
DIMSTYLE
105
9B
330
A
100
AcDbSymbolTableRecord
100
AcDbDimStyleTableRecord
  2
AM_ISO$3
 70
     0
  4
"
 40
10.0
 41
2.5
 42
1.0
 43
10.0
 44
1.0
 47
0.1
 48
0.1
 73
     0
 77
     1
 78
     8
 79
     2
140
3.5
141
0.0
143
0.0393701
146
0.71
147
1.5
176
   256
177
   256
178
     2
271
     2
272
     3
274
     4
283
     0
284
     8
288
     1
289
     0
340
11
371
    -1
372
    -1
  0
DIMSTYLE
105
9C
330
A
100
AcDbSymbolTableRecord
100
AcDbDimStyleTableRecord
  2
AM_ISO$4
 70
     0
  4
"
 40
10.0
 41
2.5
 42
1.0
 43
10.0
 44
1.0
 47
0.1
 48
0.1
 73
     0
 77
     1
 78
     8
 79
     2
140
3.5
141
0.0
143
0.0393701
146
0.71
147
1.5
176
   256
177
   256
178
     2
271
     2
272
     3
274
     4
283
     0
284
     8
288
     1
289
     0
340
11
371
    -1
372
    -1
  0
DIMSTYLE
105
9D
330
A
100
AcDbSymbolTableRecord
100
AcDbDimStyleTableRecord
  2
AM_ISO$6
 70
     0
  4
"
 40
10.0
 41
2.5
 42
1.0
 43
10.0
 44
1.0
 47
0.1
 48
0.1
 73
     0
 74
     0
 78
     8
 79
     2
140
3.5
141
0.0
143
0.0393701
146
0.71
147
1.5
172
     1
176
   256
177
   256
178
     2
271
     2
272
     3
274
     4
283
     0
284
     8
340
11
371
    -1
372
    -1
  0
DIMSTYLE
105
9E
330
A
100
AcDbSymbolTableRecord
100
AcDbDimStyleTableRecord
  2
AM_ISO$7
 70
     0
  4
"
 40
10.0
 41
2.5
 42
1.0
 43
10.0
 44
1.0
 47
0.1
 48
0.1
 73
     0
 74
     0
 77
     1
 78
     8
 79
     2
140
5.0
141
0.0
143
0.0393701
146
0.71
147
1.5
172
     1
176
   256
177
   256
178
     2
271
     2
272
     3
274
     4
283
     0
284
     8
340
11
371
    -1
372
    -1
  0
DIMSTYLE
105
9F
330
A
100
AcDbSymbolTableRecord
100
AcDbDimStyleTableRecord
  2
AM_ISO$SF
 70
     0
  4
"
 40
10.0
 41
2.5
 42
1.0
 43
10.0
 44
1.0
 47
0.1
 48
0.1
 73
     0
 74
     0
 75
     1
 76
     1
 77
     1
 78
     8
 79
     2
140
3.5
141
0.0
143
0.0393701
146
0.71
147
1.5
172
     1
176
   256
177
   256
178
     2
271
     2
272
     3
274
     4
283
     0
284
     8
340
11
371
    -1
372
    -1
  0
DIMSTYLE
105
A0
330
A
100
AcDbSymbolTableRecord
100
AcDbDimStyleTableRecord
  2
AM_ISO$SH
 70
     0
  4
"
 40
10.0
 41
2.5
 42
1.0
 43
10.0
 44
1.0
 47
0.1
 48
0.1
 73
     0
 74
     0
 75
     1
 76
     1
 77
     1
 78
     8
 79
     2
140
3.5
141
0.0
143
0.0393701
144
2.0
146
0.71
147
1.5
172
     1
173
     1
176
   256
177
   256
178
     2
271
     2
272
     3
274
     4
283
     0
284
     8
340
11
343
83
371
    -1
372
    -1
  0
DIMSTYLE
105
317
330
A
100
AcDbSymbolTableRecord
100
AcDbDimStyleTableRecord
  2
STANDARD
 70
     0
340
11
  0
DIMSTYLE
105
A95
330
A
100
AcDbSymbolTableRecord
100
AcDbDimStyleTableRecord
  2
AM_ANSI
 70
     0
  4
mm
 41
0.1
 42
0.05
 43
0.5
 44
0.1
 47
0.1
 48
0.1
 78
     7
 79
     2
140
0.12
141
0.0
146
0.71
147
0.06
176
   256
177
   256
178
     2
274
     4
284
     7
340
11
371
    -1
372
    -1
  0
DIMSTYLE
105
A96
330
A
100
AcDbSymbolTableRecord
100
AcDbDimStyleTableRecord
  2
AM_ANSI$3
 70
     0
  4
mm
 41
0.1
 42
0.05
 43
0.5
 44
0.1
 47
0.1
 48
0.1
 78
     7
 79
     2
140
0.12
141
0.0
146
0.71
147
0.06
176
   256
177
   256
178
     2
274
     4
284
     7
288
     1
289
     0
340
11
371
    -1
372
    -1
  0
DIMSTYLE
105
A97
330
A
100
AcDbSymbolTableRecord
100
AcDbDimStyleTableRecord
  2
AM_ANSI$4
 70
     0
  4
mm
 41
0.1
 42
0.05
 43
0.5
 44
0.1
 47
0.1
 48
0.1
 78
     7
 79
     2
140
0.12
141
0.0
146
0.71
147
0.06
176
   256
177
   256
178
     2
274
     4
284
     7
288
     1
289
     0
340
11
371
    -1
372
    -1
  0
DIMSTYLE
105
A98
330
A
100
AcDbSymbolTableRecord
100
AcDbDimStyleTableRecord
  2
AM_ANSI$7
 70
     0
  4
mm
 41
0.1
 42
0.05
 43
0.5
 44
0.1
 47
0.1
 48
0.1
 78
     7
 79
     2
140
0.24
141
0.0
146
0.71
147
0.06
176
   256
177
   256
178
     2
274
     4
284
     7
340
11
371
    -1
372
    -1
  0
DIMSTYLE
105
A99
330
A
100
AcDbSymbolTableRecord
100
AcDbDimStyleTableRecord
  2
AM_ANSI$SF
 70
     0
  4
mm
 41
0.1
 42
0.05
 43
0.5
 44
0.1
 47
0.1
 48
0.1
 75
     1
 76
     1
 78
     7
 79
     2
140
0.12
141
0.0
146
0.71
147
0.06
176
   256
177
   256
178
     2
274
     4
284
     7
340
11
371
    -1
372
    -1
  0
DIMSTYLE
105
A9A
330
A
100
AcDbSymbolTableRecord
100
AcDbDimStyleTableRecord
  2
AM_ANSI$SH
 70
     0
  4
mm
 41
0.1
 42
0.05
 43
0.5
 44
0.1
 47
0.1
 48
0.1
 75
     1
 76
     1
 78
     7
 79
     2
140
0.12
141
0.0
146
0.71
147
0.06
173
     1
176
   256
177
   256
178
     2
274
     4
284
     7
340
11
343
83
371
    -1
372
    -1
  0
DIMSTYLE
105
2913
330
A
100
AcDbSymbolTableRecord
100
AcDbDimStyleTableRecord
  2
AM_JIS
 70
     0
  4
"
 40
5.0
 41
2.5
 42
1.0
 43
10.0
 44
1.0
 47
0.1
 48
0.1
 73
     0
 74
     0
 77
     3
 78
     8
 79
     2
140
3.5
141
0.0
143
0.0393701
146
0.71
147
1.5
172
     1
176
   256
177
   256
178
     2
271
     2
272
     3
274
     4
283
     0
284
     8
340
11
341
77
342
77
343
77
344
77
371
    -1
372
    -1
  0
DIMSTYLE
105
2914
330
A
100
AcDbSymbolTableRecord
100
AcDbDimStyleTableRecord
  2
AM_JIS$3
 70
     0
  4
"
 40
5.0
 41
2.5
 42
1.0
 43
10.0
 44
1.0
 47
0.1
 48
0.1
 73
     0
 77
     3
 78
     8
 79
     2
140
3.5
141
0.0
143
0.0393701
146
0.71
147
1.5
176
   256
177
   256
178
     2
271
     2
272
     3
274
     4
283
     0
284
     8
288
     1
289
     0
340
11
341
77
342
77
343
77
344
77
371
    -1
372
    -1
  0
DIMSTYLE
105
2915
330
A
100
AcDbSymbolTableRecord
100
AcDbDimStyleTableRecord
  2
AM_JIS$4
 70
     0
  4
"
 40
5.0
 41
2.5
 42
1.0
 43
10.0
 44
1.0
 47
0.1
 48
0.1
 73
     0
 77
     3
 78
     8
 79
     2
140
3.5
141
0.0
143
0.0393701
146
0.71
147
1.5
176
   256
177
   256
178
     2
271
     2
272
     3
274
     4
283
     0
284
     8
288
     1
289
     0
340
11
341
77
342
77
343
77
344
77
371
    -1
372
    -1
  0
DIMSTYLE
105
2916
330
A
100
AcDbSymbolTableRecord
100
AcDbDimStyleTableRecord
  2
AM_JIS$6
 70
     0
  4
"
 40
5.0
 41
2.5
 42
1.0
 43
10.0
 44
1.0
 47
0.1
 48
0.1
 73
     0
 74
     0
 78
     8
 79
     2
140
3.5
141
0.0
143
0.0393701
146
0.71
147
1.5
172
     1
176
   256
177
   256
178
     2
271
     2
272
     3
274
     4
283
     0
284
     8
340
11
341
77
342
77
343
77
344
77
371
    -1
372
    -1
  0
DIMSTYLE
105
2917
330
A
100
AcDbSymbolTableRecord
100
AcDbDimStyleTableRecord
  2
AM_JIS$7
 70
     0
  4
"
 40
5.0
 41
2.5
 42
1.0
 43
10.0
 44
1.0
 47
0.1
 48
0.1
 73
     0
 74
     0
 77
     3
 78
     8
 79
     2
140
5.0
141
0.0
143
0.0393701
146
0.71
147
1.5
172
     1
176
   256
177
   256
178
     2
271
     2
272
     3
274
     4
283
     0
284
     8
340
11
341
77
342
77
343
77
344
77
371
    -1
372
    -1
  0
DIMSTYLE
105
2918
330
A
100
AcDbSymbolTableRecord
100
AcDbDimStyleTableRecord
  2
AM_JIS$SF
 70
     0
  4
"
 40
5.0
 41
2.5
 42
1.0
 43
10.0
 44
1.0
 47
0.1
 48
0.1
 73
     0
 74
     0
 75
     1
 76
     1
 77
     3
 78
     8
 79
     2
140
3.5
141
0.0
143
0.0393701
146
0.71
147
1.5
172
     1
176
   256
177
   256
178
     2
271
     2
272
     3
274
     4
283
     0
284
     8
340
11
341
77
342
77
343
77
344
77
371
    -1
372
    -1
  0
DIMSTYLE
105
2919
330
A
100
AcDbSymbolTableRecord
100
AcDbDimStyleTableRecord
  2
AM_JIS$SH
 70
     0
  4
"
 40
5.0
 41
2.5
 42
1.0
 43
10.0
 44
1.0
 47
0.1
 48
0.1
 73
     0
 74
     0
 75
     1
 76
     1
 77
     3
 78
     8
 79
     2
140
3.5
141
0.0
143
0.0393701
144
2.0
146
0.71
147
1.5
172
     1
173
     1
176
   256
177
   256
178
     2
271
     2
272
     3
274
     4
283
     0
284
     8
340
11
341
77
342
77
343
83
344
77
371
    -1
372
    -1
  0
ENDTAB
  0
TABLE
  2
BLOCK_RECORD
  5
1
330
0
100
AcDbSymbolTable
 70
    29
  0
BLOCK_RECORD
  5
1F
102
{ACAD_XDICTIONARY
360
B1
102
}
330
1
100
AcDbSymbolTableRecord
100
AcDbBlockTableRecord
  2
*Model_Space
340
22
  0
BLOCK_RECORD
  5
1B
330
1
100
AcDbSymbolTableRecord
100
AcDbBlockTableRecord
  2
*Paper_Space
340
1E
  0
BLOCK_RECORD
  5
23
330
1
100
AcDbSymbolTableRecord
100
AcDbBlockTableRecord
  2
*Paper_Space0
340
26
  0
BLOCK_RECORD
  5
77
330
1
100
AcDbSymbolTableRecord
100
AcDbBlockTableRecord
  2
_Open30
340
0
310
2800000020000000200000000100080000000000000400000000000000000000000000000000000000000000000080000080000000808000800000008000800080800000C0C0C000C0DCC000F0CAA6000020400000206000002080000020A0000020C0000020E00000400000004020000040400000406000004080000040A0
310
000040C0000040E00000600000006020000060400000606000006080000060A0000060C0000060E00000800000008020000080400000806000008080000080A0000080C0000080E00000A0000000A0200000A0400000A0600000A0800000A0A00000A0C00000A0E00000C0000000C0200000C0400000C0600000C0800000C0
310
A00000C0C00000C0E00000E0000000E0200000E0400000E0600000E0800000E0A00000E0C00000E0E00040000000400020004000400040006000400080004000A0004000C0004000E00040200000402020004020400040206000402080004020A0004020C0004020E000404000004040200040404000404060004040800040
310
40A0004040C0004040E00040600000406020004060400040606000406080004060A0004060C0004060E00040800000408020004080400040806000408080004080A0004080C0004080E00040A0000040A0200040A0400040A0600040A0800040A0A00040A0C00040A0E00040C0000040C0200040C0400040C0600040C08000
310
40C0A00040C0C00040C0E00040E0000040E0200040E0400040E0600040E0800040E0A00040E0C00040E0E00080000000800020008000400080006000800080008000A0008000C0008000E00080200000802020008020400080206000802080008020A0008020C0008020E00080400000804020008040400080406000804080
310
008040A0008040C0008040E00080600000806020008060400080606000806080008060A0008060C0008060E00080800000808020008080400080806000808080008080A0008080C0008080E00080A0000080A0200080A0400080A0600080A0800080A0A00080A0C00080A0E00080C0000080C0200080C0400080C0600080C0
310
800080C0A00080C0C00080C0E00080E0000080E0200080E0400080E0600080E0800080E0A00080E0C00080E0E000C0000000C0002000C0004000C0006000C0008000C000A000C000C000C000E000C0200000C0202000C0204000C0206000C0208000C020A000C020C000C020E000C0400000C0402000C0404000C0406000C0
310
408000C040A000C040C000C040E000C0600000C0602000C0604000C0606000C0608000C060A000C060C000C060E000C0800000C0802000C0804000C0806000C0808000C080A000C080C000C080E000C0A00000C0A02000C0A04000C0A06000C0A08000C0A0A000C0A0C000C0A0E000C0C00000C0C02000C0C04000C0C06000
310
C0C08000C0C0A000F0FBFF00A4A0A000808080000000FF0000FF000000FFFF00FF000000FF00FF00FFFF0000FFFFFF0000000000000000000000000000000000000000000000000000000000000000000000000000000000000000000000000000000000000000000000000000000000000000000000000000000000000000
310
00000000000000000000000000000000000000000000000000000000000000000000000000000000000000000000000000000000000000000000000000000000000000000000000000000000000000000000000000000000000000000000000000000000000000000000000000000000000000000000000000000000000000
310
000000000000000000000000000000000000000000000000000000000000000000000000000000000000000000000000000000FFFF0000000000000000000000000000000000000000000000000000000000000000FFFFFFFF0000000000000000000000000000000000000000000000000000000000000000FFFFFFFF0000
310
000000000000000000000000000000000000000000000000000000000000FFFFFF0000000000000000000000000000000000000000000000000000000000000000FFFFFFFF0000000000000000000000000000000000000000000000000000000000000000FFFFFF0000000000000000000000000000000000000000000000
310
000000000000000000FFFFFFFF0000000000000000000000000000000000000000000000000000000000000000FFFFFFFF00000000FFFFFFFFFFFFFFFFFFFFFFFFFFFFFFFFFFFFFFFFFFFFFFFFFFFFFFFFFFFF00000000000000000000000000000000000000000000000000FFFFFFFF000000000000000000000000000000
310
000000000000000000FFFFFFFF000000000000000000000000000000000000000000000000FFFFFFFF000000000000000000000000000000000000000000000000FFFFFFFF000000000000000000000000000000000000000000000000FFFFFFFF000000000000000000000000000000000000000000000000FFFFFFFF0000
310
0000000000000000000000000000000000000000000000FFFFFF0000000000000000000000000000000000000000000000000000000000000000000000000000000000000000000000000000000000000000000000000000000000000000000000000000000000000000000000000000000000000000000000000000000000
310
00000000000000000000000000000000000000000000000000000000000000000000000000000000000000000000000000000000000000000000000000000000000000000000000000000000000000000000000000000000000000000000000000000000000000000000000000000000000000000000000000000000000000
310
0000000000000000000000000000000000000000000000000000000000000000000000000000000000000000000000000000000000000000
102
{BLKREFS
331
2F05
331
2F06
331
2F0E
331
2F0F
331
2F19
331
2F1A
331
2F22
331
2F23
331
2F2D
331
2F2E
331
2F51
331
2F52
331
2F6E
331
2F6F
331
2F77
331
2F78
331
2F82
331
2F83
331
3069
331
306A
331
307C
331
307D
331
3093
331
3094
331
30CD
331
30CE
331
30E4
331
30E5
331
3117
331
3118
331
314A
331
314B
331
3153
331
3154
331
315C
331
315D
331
3165
331
3166
102
}
  0
BLOCK_RECORD
  5
83
330
1
100
AcDbSymbolTableRecord
100
AcDbBlockTableRecord
  2
GENAXEH
340
0
310
2800000020000000200000000100080000000000000400000000000000000000000000000000000000000000000080000080000000808000800000008000800080800000C0C0C000C0DCC000F0CAA6000020400000206000002080000020A0000020C0000020E00000400000004020000040400000406000004080000040A0
310
000040C0000040E00000600000006020000060400000606000006080000060A0000060C0000060E00000800000008020000080400000806000008080000080A0000080C0000080E00000A0000000A0200000A0400000A0600000A0800000A0A00000A0C00000A0E00000C0000000C0200000C0400000C0600000C0800000C0
310
A00000C0C00000C0E00000E0000000E0200000E0400000E0600000E0800000E0A00000E0C00000E0E00040000000400020004000400040006000400080004000A0004000C0004000E00040200000402020004020400040206000402080004020A0004020C0004020E000404000004040200040404000404060004040800040
310
40A0004040C0004040E00040600000406020004060400040606000406080004060A0004060C0004060E00040800000408020004080400040806000408080004080A0004080C0004080E00040A0000040A0200040A0400040A0600040A0800040A0A00040A0C00040A0E00040C0000040C0200040C0400040C0600040C08000
310
40C0A00040C0C00040C0E00040E0000040E0200040E0400040E0600040E0800040E0A00040E0C00040E0E00080000000800020008000400080006000800080008000A0008000C0008000E00080200000802020008020400080206000802080008020A0008020C0008020E00080400000804020008040400080406000804080
310
008040A0008040C0008040E00080600000806020008060400080606000806080008060A0008060C0008060E00080800000808020008080400080806000808080008080A0008080C0008080E00080A0000080A0200080A0400080A0600080A0800080A0A00080A0C00080A0E00080C0000080C0200080C0400080C0600080C0
310
800080C0A00080C0C00080C0E00080E0000080E0200080E0400080E0600080E0800080E0A00080E0C00080E0E000C0000000C0002000C0004000C0006000C0008000C000A000C000C000C000E000C0200000C0202000C0204000C0206000C0208000C020A000C020C000C020E000C0400000C0402000C0404000C0406000C0
310
408000C040A000C040C000C040E000C0600000C0602000C0604000C0606000C0608000C060A000C060C000C060E000C0800000C0802000C0804000C0806000C0808000C080A000C080C000C080E000C0A00000C0A02000C0A04000C0A06000C0A08000C0A0A000C0A0C000C0A0E000C0C00000C0C02000C0C04000C0C06000
310
C0C08000C0C0A000F0FBFF00A4A0A000808080000000FF0000FF000000FFFF00FF000000FF00FF00FFFF0000FFFFFF0000000000000000000000000000000000000000000000000000000000000000000000000000000000000000000000000000000000000000000000000000000000000000000000000000000000000000
310
00000000000000000000000000000000000000000000000000000000000000000000000000000000000000000000000000000000000000000000000000000000000000000000000000000000000000000000000000000000000000000000000000000000000000000000000000000000000000000000000000000000000000
310
00000000000000000000000000000000000000000000000000000000000000000000000000000000000000000000000000000000000000000000000000000000000000000000000000000000000000000000000000000000000000000000000000000000000000000000000000000000000000000000000000000000000000
310
00000000000000000000000000000000000000000000000000000000000000000000000000000000000000000000000000000000000000000000000000000000000000000000000000000000000000000000000000000000000000000000000000000000000000000000000000000000000000000000000000000000000000
310
0000000000000000000000000000000000000000000000000000000000000000000000000000000000000000000000000000000000FFFFFFFFFFFFFFFFFFFFFFFFFFFFFFFFFFFFFFFFFFFFFFFFFFFFFFFFFFFF0000000000000000000000000000000000000000000000000000000000000000000000000000000000000000
310
00000000000000000000000000000000000000000000000000000000000000000000000000000000000000000000000000000000000000000000000000000000000000000000000000000000000000000000000000000000000000000000000000000000000000000000000000000000000000000000000000000000000000
310
00000000000000000000000000000000000000000000000000000000000000000000000000000000000000000000000000000000000000000000000000000000000000000000000000000000000000000000000000000000000000000000000000000000000000000000000000000000000000000000000000000000000000
310
00000000000000000000000000000000000000000000000000000000000000000000000000000000000000000000000000000000000000000000000000000000000000000000000000000000000000000000000000000000000000000000000000000000000000000000000000000000000000000000000000000000000000
310
0000000000000000000000000000000000000000000000000000000000000000000000000000000000000000000000000000000000000000
  0
BLOCK_RECORD
  5
335
330
1
100
AcDbSymbolTableRecord
100
AcDbBlockTableRecord
  2
IGS2
340
0
310
2800000020000000200000000100080000000000000400000000000000000000000000000000000000000000000080000080000000808000800000008000800080800000C0C0C000C0DCC000F0CAA6000020400000206000002080000020A0000020C0000020E00000400000004020000040400000406000004080000040A0
310
000040C0000040E00000600000006020000060400000606000006080000060A0000060C0000060E00000800000008020000080400000806000008080000080A0000080C0000080E00000A0000000A0200000A0400000A0600000A0800000A0A00000A0C00000A0E00000C0000000C0200000C0400000C0600000C0800000C0
310
A00000C0C00000C0E00000E0000000E0200000E0400000E0600000E0800000E0A00000E0C00000E0E00040000000400020004000400040006000400080004000A0004000C0004000E00040200000402020004020400040206000402080004020A0004020C0004020E000404000004040200040404000404060004040800040
310
40A0004040C0004040E00040600000406020004060400040606000406080004060A0004060C0004060E00040800000408020004080400040806000408080004080A0004080C0004080E00040A0000040A0200040A0400040A0600040A0800040A0A00040A0C00040A0E00040C0000040C0200040C0400040C0600040C08000
310
40C0A00040C0C00040C0E00040E0000040E0200040E0400040E0600040E0800040E0A00040E0C00040E0E00080000000800020008000400080006000800080008000A0008000C0008000E00080200000802020008020400080206000802080008020A0008020C0008020E00080400000804020008040400080406000804080
310
008040A0008040C0008040E00080600000806020008060400080606000806080008060A0008060C0008060E00080800000808020008080400080806000808080008080A0008080C0008080E00080A0000080A0200080A0400080A0600080A0800080A0A00080A0C00080A0E00080C0000080C0200080C0400080C0600080C0
310
800080C0A00080C0C00080C0E00080E0000080E0200080E0400080E0600080E0800080E0A00080E0C00080E0E000C0000000C0002000C0004000C0006000C0008000C000A000C000C000C000E000C0200000C0202000C0204000C0206000C0208000C020A000C020C000C020E000C0400000C0402000C0404000C0406000C0
310
408000C040A000C040C000C040E000C0600000C0602000C0604000C0606000C0608000C060A000C060C000C060E000C0800000C0802000C0804000C0806000C0808000C080A000C080C000C080E000C0A00000C0A02000C0A04000C0A06000C0A08000C0A0A000C0A0C000C0A0E000C0C00000C0C02000C0C04000C0C06000
310
C0C08000C0C0A000F0FBFF00A4A0A000808080000000FF0000FF000000FFFF00FF000000FF00FF00FFFF0000FFFFFF0000000000000000000000000000000000000000000000000000000000000000000000000000000000000000000000000000000000000000000000000000000000000000000000000000000000000000
310
00000000000000000000000000000000000000000000000000000000000000000000000000000000000000000000000000000000000000000000000000000000000000000000000000000000000000000000F9FBFBF9F9F9FBFBF9F9F9F90000000000000000000000000000000000000000F9F9FBFBFBFBFBFBFBF9F9F900
310
00000000000000000000000000000000000000F9FBFBFBFBFBFBFBFBF9F9F90000000000000000000000000000000000000000F9F9F9F9F9F9F9F9F9F9F9F900000000000000000000000000000000000000000000000000000000000000000000000000000000000000000000000000000000000000000000000000000000
310
00000000000000000000000000000000000000000000000000000000000000000000000000000000000000000000000000000000000000000000000000000000000000000000000000000000000000000000000000000000000000000000000000000000000000000000000000000000000000000000000000000000000000
310
00000000000000000000000000000000000000000000000000000000000000000000000000000000000000000000000000000000000000000000000000000000000000000000000000000000000000000000000000000000000000000000000000000000000000000000000000000000000000000000000000000000000000
310
00000000000000000000000000000000000000000000000000000000000000000000000000000000000000000000000000000000000000000000000000000000000000000000000000000000000000000000000000000000000000000000000000000000000000000000000000000000000000000000000000000000000000
310
00000000000000000000000000000000000000000000000000000000000000000000000000000000000000000000000000000000000000000000000000000000000000000000000000000000000000000000000000000000000000000000000000000000000000000000000000000000000000000000000000000000000000
310
00000000000000000000000000000000000000000000000000000000000000000000000000000000000000000000000000000000000000000000000000000000000000000000000000000000000000000000000000000000000000000000000000000000000000000000000000000000000000000000000000000000000000
310
0000000000000000000000000000000000000000000000000000000000000000000000000000000000000000000000000000000000000000
102
{BLKREFS
331
D50
102
}
  0
BLOCK_RECORD
  5
6A8
330
1
100
AcDbSymbolTableRecord
100
AcDbBlockTableRecord
  2
IGS_A3
340
0
310
2800000020000000200000000100080000000000000400000000000000000000000000000000000000000000000080000080000000808000800000008000800080800000C0C0C000C0DCC000F0CAA6000020400000206000002080000020A0000020C0000020E00000400000004020000040400000406000004080000040A0
310
000040C0000040E00000600000006020000060400000606000006080000060A0000060C0000060E00000800000008020000080400000806000008080000080A0000080C0000080E00000A0000000A0200000A0400000A0600000A0800000A0A00000A0C00000A0E00000C0000000C0200000C0400000C0600000C0800000C0
310
A00000C0C00000C0E00000E0000000E0200000E0400000E0600000E0800000E0A00000E0C00000E0E00040000000400020004000400040006000400080004000A0004000C0004000E00040200000402020004020400040206000402080004020A0004020C0004020E000404000004040200040404000404060004040800040
310
40A0004040C0004040E00040600000406020004060400040606000406080004060A0004060C0004060E00040800000408020004080400040806000408080004080A0004080C0004080E00040A0000040A0200040A0400040A0600040A0800040A0A00040A0C00040A0E00040C0000040C0200040C0400040C0600040C08000
310
40C0A00040C0C00040C0E00040E0000040E0200040E0400040E0600040E0800040E0A00040E0C00040E0E00080000000800020008000400080006000800080008000A0008000C0008000E00080200000802020008020400080206000802080008020A0008020C0008020E00080400000804020008040400080406000804080
310
008040A0008040C0008040E00080600000806020008060400080606000806080008060A0008060C0008060E00080800000808020008080400080806000808080008080A0008080C0008080E00080A0000080A0200080A0400080A0600080A0800080A0A00080A0C00080A0E00080C0000080C0200080C0400080C0600080C0
310
800080C0A00080C0C00080C0E00080E0000080E0200080E0400080E0600080E0800080E0A00080E0C00080E0E000C0000000C0002000C0004000C0006000C0008000C000A000C000C000C000E000C0200000C0202000C0204000C0206000C0208000C020A000C020C000C020E000C0400000C0402000C0404000C0406000C0
310
408000C040A000C040C000C040E000C0600000C0602000C0604000C0606000C0608000C060A000C060C000C060E000C0800000C0802000C0804000C0806000C0808000C080A000C080C000C080E000C0A00000C0A02000C0A04000C0A06000C0A08000C0A0A000C0A0C000C0A0E000C0C00000C0C02000C0C04000C0C06000
310
C0C08000C0C0A000F0FBFF00A4A0A000808080000000FF0000FF000000FFFF00FF000000FF00FF00FFFF0000FFFFFF0000000000000000000000000000000000000000000000000000000000000000000000000000000000000000000000000000000000000000000000000000000000000000000000000000000000000000
310
000000000000000000000000000000000000000000000000000000000000000000000000000000000000000000000000000000000000000000000000000000000000000000000000000000000000000000000000000000000000000000000000000000000000000000000000000000000000F9F9FFF9F9F9F9F9F9F9F9F9F9
310
F9F9F9F9F9F9F9F9F9F9F9F9F9F9F900000000F900FFFFFFFFFFFFFFFFFFFFFFFFFFFFFFFFFFFFFFFFFFFFFFFFFFF900000000F900FF0000000000000000000000000000000000000000000000FFF900000000F900FF0000000000000000000000000000000000000000000000FFF900000000F900FF000000000000000000
310
0000000000000000000000000000FFF900000000F900FF0000000000000000000000000000000000000000000000FFF900000000F900FF0000000000000000000000000000000000000000000000FFF900000000F900FF0000000000000000000000000000000000000000000000FFF900000000F900FF0000000000000000
310
000000000000000000000000000000FFF900000000F900FF0000000000000000000000000000000000000000000000FFF900000000F900FF0000000000000000000000000000000000000000000000FFF900000000F900FF0000000000000000000000000000000000000000000000FFF900000000F900FF00000000000000
310
00000000000000000000000000000000FFF900000000F900FF0000000000000000000000000000000000000000000000FFF900000000F900FF0000000000000000000000000000000000000000000000FFF900000000F900FF0000000000000000000000000000000000000000000000FFF900000000F900FF000000000000
310
0000000000000000000000000000000000FFF900000000F900FF0000000000000000000000000000000000000000000000FFF900000000F900FFFFFFFFFFFFFFFFFFFFFFFFFFFFFFFFFFFFFFFFFFFFFFFFFFF900000000F9F9F9F9F9F9F9F9F9F9F9F9F9F9F9F9F9F9F9F9F9F9F9F9F9F9F9F9000000000000000000000000
310
00000000000000000000000000000000000000000000000000000000000000000000000000000000000000000000000000000000000000000000000000000000000000000000000000000000000000000000000000000000000000000000000000000000000000000000000000000000000000000000000000000000000000
310
0000000000000000000000000000000000000000000000000000000000000000000000000000000000000000000000000000000000000000
102
{BLKREFS
331
D4F
102
}
  0
BLOCK_RECORD
  5
2C31
330
1
100
AcDbSymbolTableRecord
100
AcDbBlockTableRecord
  2
*D6
340
0
  0
BLOCK_RECORD
  5
2C5D
330
1
100
AcDbSymbolTableRecord
100
AcDbBlockTableRecord
  2
*D7
340
0
  0
BLOCK_RECORD
  5
2C8B
330
1
100
AcDbSymbolTableRecord
100
AcDbBlockTableRecord
  2
*D8
340
0
  0
BLOCK_RECORD
  5
2CAC
330
1
100
AcDbSymbolTableRecord
100
AcDbBlockTableRecord
  2
*D9
340
0
  0
BLOCK_RECORD
  5
2CE3
330
1
100
AcDbSymbolTableRecord
100
AcDbBlockTableRecord
  2
*D10
340
0
  0
BLOCK_RECORD
  5
2D05
330
1
100
AcDbSymbolTableRecord
100
AcDbBlockTableRecord
  2
*D11
340
0
  0
BLOCK_RECORD
  5
2D43
330
1
100
AcDbSymbolTableRecord
100
AcDbBlockTableRecord
  2
*D12
340
0
  0
BLOCK_RECORD
  5
2D69
330
1
100
AcDbSymbolTableRecord
100
AcDbBlockTableRecord
  2
*D13
340
0
  0
BLOCK_RECORD
  5
2D83
330
1
100
AcDbSymbolTableRecord
100
AcDbBlockTableRecord
  2
*D14
340
0
  0
BLOCK_RECORD
  5
2DAF
330
1
100
AcDbSymbolTableRecord
100
AcDbBlockTableRecord
  2
*D15
340
0
  0
BLOCK_RECORD
  5
2DDB
330
1
100
AcDbSymbolTableRecord
100
AcDbBlockTableRecord
  2
*D16
340
0
  0
BLOCK_RECORD
  5
2DF5
330
1
100
AcDbSymbolTableRecord
100
AcDbBlockTableRecord
  2
*D17
340
0
  0
BLOCK_RECORD
  5
2E16
330
1
100
AcDbSymbolTableRecord
100
AcDbBlockTableRecord
  2
*D18
340
0
  0
BLOCK_RECORD
  5
2E4D
330
1
100
AcDbSymbolTableRecord
100
AcDbBlockTableRecord
  2
*D19
340
0
  0
BLOCK_RECORD
  5
3083
330
1
100
AcDbSymbolTableRecord
100
AcDbBlockTableRecord
  2
*D20
340
0
  0
BLOCK_RECORD
  5
30AE
330
1
100
AcDbSymbolTableRecord
100
AcDbBlockTableRecord
  2
*D21
340
0
  0
BLOCK_RECORD
  5
30D4
330
1
100
AcDbSymbolTableRecord
100
AcDbBlockTableRecord
  2
*D22
340
0
  0
BLOCK_RECORD
  5
3101
330
1
100
AcDbSymbolTableRecord
100
AcDbBlockTableRecord
  2
*D23
340
0
  0
BLOCK_RECORD
  5
312C
330
1
100
AcDbSymbolTableRecord
100
AcDbBlockTableRecord
  2
*D24
340
0
  0
BLOCK_RECORD
  5
316F
330
1
100
AcDbSymbolTableRecord
100
AcDbBlockTableRecord
  2
NAKAMURA
340
0
310
2800000020000000200000000100080000000000000400000000000000000000000000000000000000000000000080000080000000808000800000008000800080800000C0C0C000C0DCC000F0CAA6000020400000206000002080000020A0000020C0000020E00000400000004020000040400000406000004080000040A0
310
000040C0000040E00000600000006020000060400000606000006080000060A0000060C0000060E00000800000008020000080400000806000008080000080A0000080C0000080E00000A0000000A0200000A0400000A0600000A0800000A0A00000A0C00000A0E00000C0000000C0200000C0400000C0600000C0800000C0
310
A00000C0C00000C0E00000E0000000E0200000E0400000E0600000E0800000E0A00000E0C00000E0E00040000000400020004000400040006000400080004000A0004000C0004000E00040200000402020004020400040206000402080004020A0004020C0004020E000404000004040200040404000404060004040800040
310
40A0004040C0004040E00040600000406020004060400040606000406080004060A0004060C0004060E00040800000408020004080400040806000408080004080A0004080C0004080E00040A0000040A0200040A0400040A0600040A0800040A0A00040A0C00040A0E00040C0000040C0200040C0400040C0600040C08000
310
40C0A00040C0C00040C0E00040E0000040E0200040E0400040E0600040E0800040E0A00040E0C00040E0E00080000000800020008000400080006000800080008000A0008000C0008000E00080200000802020008020400080206000802080008020A0008020C0008020E00080400000804020008040400080406000804080
310
008040A0008040C0008040E00080600000806020008060400080606000806080008060A0008060C0008060E00080800000808020008080400080806000808080008080A0008080C0008080E00080A0000080A0200080A0400080A0600080A0800080A0A00080A0C00080A0E00080C0000080C0200080C0400080C0600080C0
310
800080C0A00080C0C00080C0E00080E0000080E0200080E0400080E0600080E0800080E0A00080E0C00080E0E000C0000000C0002000C0004000C0006000C0008000C000A000C000C000C000E000C0200000C0202000C0204000C0206000C0208000C020A000C020C000C020E000C0400000C0402000C0404000C0406000C0
310
408000C040A000C040C000C040E000C0600000C0602000C0604000C0606000C0608000C060A000C060C000C060E000C0800000C0802000C0804000C0806000C0808000C080A000C080C000C080E000C0A00000C0A02000C0A04000C0A06000C0A08000C0A0A000C0A0C000C0A0E000C0C00000C0C02000C0C04000C0C06000
310
C0C08000C0C0A000F0FBFF00A4A0A000808080000000FF0000FF000000FFFF00FF000000FF00FF00FFFF0000FFFFFF000000000000000000000000000000000000000000000000000000000000000000000000000000000000000000000000FFFFFF000000000000000000000000000000000000000000000000FFFFFFFFFF
310
000000FFFF0000000000000000000000000000000000000000FFFF00000000000000000000FFFFFF00000000000000000000000000000000FF00000000FF0000000000FF00FFFF00FFFF00000000000000000000000000FF0000000000FF0000000000FF0000FF000000FF0000000000000000000000FF000000FFFFFFFFFF
310
FF00FF00FF00FFFF00000000FF000000000000000000FF00000000FF0000FF00FF0000FFFFFFFFFF0000000000FF0000000000000000FF00000000FF0000FF00FF0000FFFFFFFFFF0000000000FF00000000000000FF0000000000FF0000FF00FF00FFFFFFFFFFFFFF0000000000FF000000000000FF0000000000FFFFFFFF
310
FFFF000000FF0000FF00000000000000FF00000000FF000000000000000000FF0000000000FF0000FF00000000000000FF00000000FFFFFFFFFFFFFFFFFFFFFFFFFFFFFFFFFFFFFFFFFFFFFFFFFFFFFFFF00000000FF0000000000000000000000000000000000000000000000000000FF000000FF00000000000000000000
310
000000000000000000000000000000000000FF0000FF00000000000000000000000000000000000000000000000000000000FF0000FF00000000000000000000000000000000000000000000000000000000FF0000FF00000000000000000000000000000000000000000000000000000000FF000000FF0000000000000000
310
000000000000000000000000000000000000FF00000000FF0000000000000000000000000000000000000000000000000000FF00000000FF0000000000000000000000000000000000000000000000000000FF0000000000FF00000000000000000000000000000000000000000000000000FF0000000000FFFFFFFFFFFFFF
310
FFFFFFFFFFFFFFFFFFFFFFFFFFFFFFFFFFFFFF00000000000000FF000000000000FFFF00FFFF00FFFF00FF000000000000FF0000000000000000FF000000000000FF00FFFF0000FFFF00FF000000000000FF000000000000000000FF00000000FFFF00FFFF0000FFFFFFFF0000000000FF0000000000000000000000FF0000
310
0000FFFFFF00FFFFFFFFFFFF00000000FF00000000000000000000000000FF0000FFFFFFFFFFFF00FFFFFFFFFF00FFFF000000000000000000000000000000FFFF00FFFFFFFFFFFFFFFFFFFFFFFF00000000000000000000000000000000000000FFFFFFFFFF0000FFFFFFFF00000000000000000000000000000000000000
310
00000000000000FFFFFF00000000000000000000000000000000000000000000000000000000000000000000000000000000000000000000
102
{BLKREFS
331
3196
102
}
1001
ACAD
1000
DesignCenter Data
1002
{
1070
     1
1070
     4
1002
}
  0
BLOCK_RECORD
  5
31EF
330
1
100
AcDbSymbolTableRecord
100
AcDbBlockTableRecord
  2
*S26
340
0
  0
BLOCK_RECORD
  5
31F6
330
1
100
AcDbSymbolTableRecord
100
AcDbBlockTableRecord
  2
*S27
340
0
  0
BLOCK_RECORD
  5
31FE
330
1
100
AcDbSymbolTableRecord
100
AcDbBlockTableRecord
  2
*S28
340
0
  0
ENDTAB
  0
ENDSEC
  0
SECTION
  2
BLOCKS
  0
BLOCK
  5
20
330
1F
100
AcDbEntity
  8
0
100
AcDbBlockBegin
  2
*Model_Space
 70
     0
 10
0.0
 20
0.0
 30
0.0
  3
*Model_Space
  1

  0
ENDBLK
  5
21
330
1F
100
AcDbEntity
  8
0
100
AcDbBlockEnd
  0
BLOCK
  5
1C
330
1B
100
AcDbEntity
 67
     1
  8
0
100
AcDbBlockBegin
  2
*Paper_Space
 70
     0
 10
0.0
 20
0.0
 30
0.0
  3
*Paper_Space
  1

  0
ENDBLK
  5
1D
330
1B
100
AcDbEntity
 67
     1
  8
0
100
AcDbBlockEnd
  0
BLOCK
  5
24
330
23
100
AcDbEntity
  8
0
100
AcDbBlockBegin
  2
*Paper_Space0
 70
     0
 10
0.0
 20
0.0
 30
0.0
  3
*Paper_Space0
  1

  0
ENDBLK
  5
25
330
23
100
AcDbEntity
  8
0
100
AcDbBlockEnd
  0
BLOCK
  5
7B
330
77
100
AcDbEntity
  8
0
100
AcDbBlockBegin
  2
_Open30
 70
     0
 10
0.0
 20
0.0
 30
0.0
  3
_Open30
  1

  0
LINE
  5
78
330
77
100
AcDbEntity
  8
0
  6
ByBlock
 62
     0
370
    -2
100
AcDbLine
 10
-1.0
 20
0.26794919
 30
0.0
 11
0.0
 21
0.0
 31
0.0
  0
LINE
  5
79
330
77
100
AcDbEntity
  8
0
  6
ByBlock
 62
     0
370
    -2
100
AcDbLine
 10
0.0
 20
0.0
 30
0.0
 11
-1.0
 21
-0.26794919
 31
0.0
  0
LINE
  5
7A
330
77
100
AcDbEntity
  8
0
  6
ByBlock
 62
     0
370
    -2
100
AcDbLine
 10
0.0
 20
0.0
 30
0.0
 11
-1.0
 21
0.0
 31
0.0
  0
ENDBLK
  5
7C
330
77
100
AcDbEntity
  8
0
100
AcDbBlockEnd
  0
BLOCK
  5
85
330
83
100
AcDbEntity
  8
0
100
AcDbBlockBegin
  2
GENAXEH
 70
     0
 10
0.0
 20
0.0
 30
0.0
  3
GENAXEH
  1

  0
LINE
  5
84
330
83
100
AcDbEntity
  8
0
100
AcDbLine
 10
-1.0
 20
0.0
 30
0.0
 11
1.0
 21
0.0
 31
0.0
  0
ENDBLK
  5
86
330
83
100
AcDbEntity
  8
0
100
AcDbBlockEnd
  0
BLOCK
  5
3B8
330
335
100
AcDbEntity
  8
0
100
AcDbBlockBegin
  2
IGS2
 70
     2
 10
0.0
 20
0.0
 30
0.0
  3
IGS2
  1

  0
POINT
  5
336
330
335
100
AcDbEntity
  8
0
 60
     1
100
AcDbPoint
 10
0.0
 20
0.0
 30
0.0
1001
GENIUS_GENODEF_13
1002
{
1000
HIER
1070
     1
1002
}
1002
{
1000
MANEDIT
1070
     0
1002
}
1002
{
1000
NOSEL
1070
     0
1002
}
1002
{
1000
BEHIND
1070
     0
1002
}
1002
{
1000
REACTOR
1002
}
1001
GENIUS_GENTITLE_13
1002
{
1000
SCALE
1000
1:1
1002
}
1002
{
1000
BORDER
1000
IGS-A4
1002
}
1002
{
1000
TITLE
1000
IGS-TITLE
1002
}
1002
{
1000
UNCHG
1002
{
1000
GEN-TITLE-SCA
1000
GEN-TITLE-SIZ
1002
}
1002
}
1002
{
1000
HRA
1005
0
1002
}
1002
{
1000
HTIT
1005
0
1002
}
1002
{
1000
GENIUSID
1005
336
1002
}
1001
GENIUS_GENOBJ-N-TIT_13
1002
{
1000
OWNER
1000
GEN
1002
}
1001
GENIUS_GENOENT_13
1002
{
1000
MYREF
1005
336
1002
}
1002
{
1000
GRP
1005
0
1002
}
1001
GENIUS_GENOLIS_13
1002
{
1000
ENT
1005
0
1005
0
1002
}
  0
LINE
  5
337
330
335
100
AcDbEntity
  8
RAHM3
100
AcDbLine
 10
-148.4080564410193
 20
8.825237325416161
 30
52.0
 11
-145.4319868410194
 21
8.825237325416161
 31
52.0
  0
ARC
  5
338
330
335
100
AcDbEntity
  8
RAHM3
100
AcDbCircle
 10
-141.4638940410194
 20
7.833214125416168
 30
52.0
 40
0.9920232
100
AcDbArc
 50
90.0
 51
180.0
  0
LINE
  5
339
330
335
100
AcDbEntity
  8
RAHM3
100
AcDbLine
 10
-137.6611384410193
 20
8.825237325416161
 30
52.0
 11
-141.4638940410194
 21
8.825237325416161
 31
52.0
  0
ARC
  5
33A
330
335
100
AcDbEntity
  8
RAHM3
100
AcDbCircle
 10
-137.6611384410193
 20
7.833214125416168
 30
52.0
 40
0.9920232
100
AcDbArc
 50
0.0
 51
90.0
  0
ARC
  5
33B
330
335
100
AcDbEntity
  8
RAHM3
100
AcDbCircle
 10
-129.0636040410194
 20
7.833214125416168
 30
52.0
 40
0.9920232
100
AcDbArc
 50
0.0
 51
90.0
  0
LINE
  5
33C
330
335
100
AcDbEntity
  8
RAHM3
100
AcDbLine
 10
-132.7010224410193
 20
8.825237325416161
 30
52.0
 11
-129.0636040410194
 21
8.825237325416161
 31
52.0
  0
ARC
  5
33D
330
335
100
AcDbEntity
  8
RAHM3
100
AcDbCircle
 10
-132.7010224410193
 20
7.833214125416168
 30
52.0
 40
0.9920232
100
AcDbArc
 50
90.0
 51
180.0
  0
LINE
  5
33E
330
335
100
AcDbEntity
  8
RAHM3
100
AcDbLine
 10
-148.4080564410193
 20
8.163888525416165
 30
52.0
 11
-147.5813704410193
 21
8.163888525416165
 31
52.0
  0
LINE
  5
33F
330
335
100
AcDbEntity
  8
RAHM3
100
AcDbLine
 10
-147.5813704410193
 20
8.163888525416165
 30
52.0
 11
-147.5813704410193
 21
3.865121325416145
 31
52.0
  0
LINE
  5
340
330
335
100
AcDbEntity
  8
RAHM3
100
AcDbLine
 10
-146.2586728410194
 20
3.865121325416145
 30
52.0
 11
-146.2586728410194
 21
8.163888525416165
 31
52.0
  0
LINE
  5
341
330
335
100
AcDbEntity
  8
RAHM3
100
AcDbLine
 10
-146.2586728410194
 20
8.163888525416165
 30
52.0
 11
-145.4319868410194
 21
8.163888525416165
 31
52.0
  0
LINE
  5
342
330
335
100
AcDbEntity
  8
RAHM3
100
AcDbLine
 10
-145.4319868410194
 20
8.825237325416161
 30
52.0
 11
-145.4319868410194
 21
8.163888525416165
 31
52.0
  0
LINE
  5
343
330
335
100
AcDbEntity
  8
RAHM3
100
AcDbLine
 10
-148.4080564410193
 20
8.163888525416165
 30
52.0
 11
-148.4080564410193
 21
8.825237325416161
 31
52.0
  0
LINE
  5
344
330
335
100
AcDbEntity
  8
RAHM3
100
AcDbLine
 10
-145.4319868410194
 20
3.203772525416149
 30
52.0
 11
-148.4080564410193
 21
3.203772525416149
 31
52.0
  0
CIRCLE
  5
345
330
335
100
AcDbEntity
  8
RAHM3
100
AcDbCircle
 10
-144.1092892410194
 20
3.865121325416145
 30
52.0
 40
0.6613488000000001
  0
LINE
  5
346
330
335
100
AcDbEntity
  8
RAHM3
100
AcDbLine
 10
-137.9918128410194
 20
3.865121325416145
 30
52.0
 11
-137.9918128410194
 21
3.203772525416149
 31
52.0
  0
LINE
  5
347
330
335
100
AcDbEntity
  8
RAHM3
100
AcDbLine
 10
-137.9918128410194
 20
3.203772525416149
 30
52.0
 11
-136.6691152410193
 21
3.203772525416149
 31
52.0
  0
ARC
  5
348
330
335
100
AcDbEntity
  8
RAHM3
100
AcDbCircle
 10
-141.4638940410194
 20
4.195795725416166
 30
52.0
 40
0.9920232
100
AcDbArc
 50
180.0
 51
270.0
  0
LINE
  5
349
330
335
100
AcDbEntity
  8
RAHM3
100
AcDbLine
 10
-141.4638940410194
 20
3.203772525416149
 30
52.0
 11
-141.1332196410193
 21
3.203772525416149
 31
52.0
  0
LINE
  5
34A
330
335
100
AcDbEntity
  8
RAHM3
100
AcDbLine
 10
-142.4559172410194
 20
4.195795725416166
 30
52.0
 11
-142.4559172410194
 21
7.833214125416168
 31
52.0
  0
CIRCLE
  5
34B
330
335
100
AcDbEntity
  8
RAHM3
100
AcDbCircle
 10
-135.5117548410193
 20
3.865121325416145
 30
52.0
 40
0.6613488000000001
  0
ARC
  5
34C
330
335
100
AcDbEntity
  8
RAHM3
100
AcDbCircle
 10
-132.7010224410193
 20
4.195795725416166
 30
52.0
 40
0.9920232
100
AcDbArc
 50
180.0
 51
270.0
  0
LINE
  5
34D
330
335
100
AcDbEntity
  8
RAHM3
100
AcDbLine
 10
-129.0636040410194
 20
3.203772525416149
 30
52.0
 11
-132.7010224410193
 21
3.203772525416149
 31
52.0
  0
ARC
  5
34E
330
335
100
AcDbEntity
  8
RAHM3
100
AcDbCircle
 10
-129.0636040410194
 20
4.195795725416166
 30
52.0
 40
0.9920232
100
AcDbArc
 50
270.0
 51
0.0
  0
LINE
  5
34F
330
335
100
AcDbEntity
  8
RAHM3
100
AcDbLine
 10
-133.6930456410194
 20
4.195795725416166
 30
52.0
 11
-133.6930456410194
 21
5.022481725416161
 31
52.0
  0
LINE
  5
350
330
335
100
AcDbEntity
  8
RAHM3
100
AcDbLine
 10
-128.0715808410194
 20
7.833214125416168
 30
52.0
 11
-128.0715808410194
 21
7.00652812541615
 31
52.0
  0
CIRCLE
  5
351
330
335
100
AcDbEntity
  8
RAHM3
100
AcDbCircle
 10
-126.9142204410194
 20
3.865121325416145
 30
52.0
 40
0.6613488000000001
  0
LINE
  5
352
330
335
100
AcDbEntity
  8
RAHM3
100
AcDbLine
 10
-136.6691152410193
 20
7.171865325416149
 30
52.0
 11
-137.8264756410194
 21
7.171865325416149
 31
52.0
  0
LINE
  5
353
330
335
100
AcDbEntity
  8
RAHM3
100
AcDbLine
 10
-137.8264756410194
 20
7.171865325416149
 30
52.0
 11
-137.8264756410194
 21
7.667876925416146
 31
52.0
  0
LINE
  5
354
330
335
100
AcDbEntity
  8
RAHM3
100
AcDbLine
 10
-137.8264756410194
 20
7.667876925416146
 30
52.0
 11
-141.2985568410193
 21
7.667876925416146
 31
52.0
  0
LINE
  5
355
330
335
100
AcDbEntity
  8
RAHM3
100
AcDbLine
 10
-141.2985568410193
 20
7.667876925416146
 30
52.0
 11
-141.2985568410193
 21
4.361132925416165
 31
52.0
  0
LINE
  5
356
330
335
100
AcDbEntity
  8
RAHM3
100
AcDbLine
 10
-137.8264756410194
 20
5.518493325416158
 30
52.0
 11
-139.4798476410193
 21
5.518493325416158
 31
52.0
  0
LINE
  5
357
330
335
100
AcDbEntity
  8
RAHM3
100
AcDbLine
 10
-139.4798476410193
 20
5.518493325416158
 30
52.0
 11
-139.4798476410193
 21
6.510516525416153
 31
52.0
  0
LINE
  5
358
330
335
100
AcDbEntity
  8
RAHM3
100
AcDbLine
 10
-136.6691152410193
 20
7.171865325416149
 30
52.0
 11
-136.6691152410193
 21
7.833214125416168
 31
52.0
  0
LINE
  5
359
330
335
100
AcDbEntity
  8
RAHM3
100
AcDbLine
 10
-137.8264756410194
 20
5.022481725416161
 30
52.0
 11
-137.8264756410194
 21
5.518493325416158
 31
52.0
  0
LINE
  5
35A
330
335
100
AcDbEntity
  8
RAHM3
100
AcDbLine
 10
-137.6611384410193
 20
6.510516525416153
 30
52.0
 11
-139.4798476410193
 21
6.510516525416153
 31
52.0
  0
LINE
  5
35B
330
335
100
AcDbEntity
  8
RAHM3
100
AcDbLine
 10
-136.6691152410193
 20
5.518493325416158
 30
52.0
 11
-136.6691152410193
 21
3.203772525416149
 31
52.0
  0
ARC
  5
35C
330
335
100
AcDbEntity
  8
RAHM3
100
AcDbCircle
 10
-137.6611384410193
 20
5.518493325416158
 30
52.0
 40
0.9920232
100
AcDbArc
 50
0.0
 51
90.0
  0
LINE
  5
35D
330
335
100
AcDbEntity
  8
RAHM3
100
AcDbLine
 10
-139.1930809214994
 20
5.022481725416161
 30
52.0
 11
-137.8264756410194
 21
5.022481725416161
 31
52.0
  0
ARC
  5
35E
330
335
100
AcDbEntity
  8
RAHM3
100
AcDbCircle
 10
-139.1930809214994
 20
4.030458525416167
 30
52.0
 40
0.9920232
100
AcDbArc
 50
90.0
 51
119.7448812969
  0
LINE
  5
35F
330
335
100
AcDbEntity
  8
RAHM3
100
AcDbLine
 10
-140.8773334868594
 20
4.361132925416165
 30
52.0
 11
-141.2985568410193
 21
4.361132925416165
 31
52.0
  0
LINE
  5
360
330
335
100
AcDbEntity
  8
RAHM3
100
AcDbLine
 10
-140.3851521495794
 20
4.491838785176161
 30
52.0
 11
-139.6852622587794
 21
4.891775865576152
 31
52.0
  0
ARC
  5
361
330
335
100
AcDbEntity
  8
RAHM3
100
AcDbCircle
 10
-140.8773334868594
 20
5.35315612541616
 30
52.0
 40
0.9920232
100
AcDbArc
 50
270.0
 51
299.7448812969
  0
ARC
  5
362
330
335
100
AcDbEntity
  8
RAHM3
100
AcDbCircle
 10
-138.8857271583794
 20
2.873098125416151
 30
52.0
 40
0.9920232
100
AcDbArc
 50
90.0
 51
119.7448812969
  0
LINE
  5
363
330
335
100
AcDbEntity
  8
RAHM3
100
AcDbLine
 10
-140.5699797237394
 20
3.203772525416149
 30
52.0
 11
-141.4638940410194
 21
3.203772525416149
 31
52.0
  0
ARC
  5
364
330
335
100
AcDbEntity
  8
RAHM3
100
AcDbCircle
 10
-140.5699797237394
 20
4.195795725416166
 30
52.0
 40
0.9920232
100
AcDbArc
 50
270.0
 51
299.7448812969
  0
LINE
  5
365
330
335
100
AcDbEntity
  8
RAHM3
100
AcDbLine
 10
-139.3779084956594
 20
3.734415465576159
 30
52.0
 11
-140.0777983864594
 21
3.334478385176168
 31
52.0
  0
LINE
  5
366
330
335
100
AcDbEntity
  8
RAHM3
100
AcDbLine
 10
-138.8857271583794
 20
3.865121325416145
 30
52.0
 11
-137.9918128410194
 21
3.865121325416145
 31
52.0
  0
LINE
  5
367
330
335
100
AcDbEntity
  8
RAHM3
100
AcDbLine
 10
-147.5813704410193
 20
3.865121325416145
 30
52.0
 11
-148.4080564410193
 21
3.865121325416145
 31
52.0
  0
LINE
  5
368
330
335
100
AcDbEntity
  8
RAHM3
100
AcDbLine
 10
-146.2586728410194
 20
3.865121325416145
 30
52.0
 11
-145.4319868410194
 21
3.865121325416145
 31
52.0
  0
LINE
  5
369
330
335
100
AcDbEntity
  8
RAHM3
100
AcDbLine
 10
-148.4080564410193
 20
3.203772525416149
 30
52.0
 11
-148.4080564410193
 21
3.865121325416145
 31
52.0
  0
LINE
  5
36A
330
335
100
AcDbEntity
  8
RAHM3
100
AcDbLine
 10
-145.4319868410194
 20
3.865121325416145
 30
52.0
 11
-145.4319868410194
 21
3.203772525416149
 31
52.0
  0
LINE
  5
36B
330
335
100
AcDbEntity
  8
RAHM3
100
AcDbLine
 10
-132.5356852410194
 20
7.667876925416146
 30
52.0
 11
-129.2289412410193
 21
7.667876925416146
 31
52.0
  0
LINE
  5
36C
330
335
100
AcDbEntity
  8
RAHM3
100
AcDbLine
 10
-129.2289412410193
 20
7.667876925416146
 30
52.0
 11
-129.2289412410193
 21
7.00652812541615
 31
52.0
  0
LINE
  5
36D
330
335
100
AcDbEntity
  8
RAHM3
100
AcDbLine
 10
-132.5356852410194
 20
5.022481725416161
 30
52.0
 11
-132.5356852410194
 21
4.361132925416165
 31
52.0
  0
LINE
  5
36E
330
335
100
AcDbEntity
  8
RAHM3
100
AcDbLine
 10
-132.5356852410194
 20
4.361132925416165
 30
52.0
 11
-129.2289412410193
 21
4.361132925416165
 31
52.0
  0
LINE
  5
36F
330
335
100
AcDbEntity
  8
RAHM3
100
AcDbLine
 10
-132.5356852410194
 20
5.022481725416161
 30
52.0
 11
-133.6930456410194
 21
5.022481725416161
 31
52.0
  0
LINE
  5
370
330
335
100
AcDbEntity
  8
RAHM3
100
AcDbLine
 10
-128.0715808410194
 20
7.00652812541615
 30
52.0
 11
-129.2289412410193
 21
7.00652812541615
 31
52.0
  0
LINE
  5
371
330
335
100
AcDbEntity
  8
RAHM3
100
AcDbLine
 10
-129.2289412410193
 20
4.361132925416165
 30
52.0
 11
-129.2289412410193
 21
5.518493325416158
 31
52.0
  0
LINE
  5
372
330
335
100
AcDbEntity
  8
RAHM3
100
AcDbLine
 10
-132.5356852410194
 20
6.510516525416153
 30
52.0
 11
-132.5356852410194
 21
7.667876925416146
 31
52.0
  0
LINE
  5
373
330
335
100
AcDbEntity
  8
RAHM3
100
AcDbLine
 10
-128.0715808410194
 20
5.518493325416158
 30
52.0
 11
-128.0715808410194
 21
4.195795725416166
 31
52.0
  0
LINE
  5
374
330
335
100
AcDbEntity
  8
RAHM3
100
AcDbLine
 10
-129.0636040410194
 20
6.510516525416153
 30
52.0
 11
-132.5356852410194
 21
6.510516525416153
 31
52.0
  0
ARC
  5
375
330
335
100
AcDbEntity
  8
RAHM3
100
AcDbCircle
 10
-129.0636040410194
 20
5.518493325416158
 30
52.0
 40
0.9920232
100
AcDbArc
 50
0.0
 51
90.0
  0
LINE
  5
376
330
335
100
AcDbEntity
  8
RAHM3
100
AcDbLine
 10
-132.7010224411794
 20
5.518493325416158
 30
52.0
 11
-129.2289412410193
 21
5.518493325416158
 31
52.0
  0
LINE
  5
377
330
335
100
AcDbEntity
  8
RAHM3
100
AcDbLine
 10
-133.6930456410194
 20
6.510516525416153
 30
52.0
 11
-133.6930456410194
 21
7.833214125416168
 31
52.0
  0
ARC
  5
378
330
335
100
AcDbEntity
  8
RAHM3
100
AcDbCircle
 10
-132.7010224411794
 20
6.510516525416153
 30
52.0
 40
0.9920232
100
AcDbArc
 50
180.0
 51
270.0
  0
POINT
  5
379
330
335
100
AcDbEntity
  8
0
 60
     1
100
AcDbPoint
 10
0.0
 20
0.0
 30
0.0
1001
GENIUS_GENODEF_13
1002
{
1000
HIER
1070
     1
1002
}
1002
{
1000
MANEDIT
1070
     0
1002
}
1002
{
1000
NOSEL
1070
     0
1002
}
1002
{
1000
BEHIND
1070
     0
1002
}
1002
{
1000
REACTOR
1002
}
1001
GENIUS_GENTITLE_13
1002
{
1000
SCALE
1000
1:1
1002
}
1002
{
1000
BORDER
1000
GEN_A4
1002
}
1002
{
1000
TITLE
1000
GENTITUS
1002
}
1002
{
1000
UNCHG
1002
{
1000
GEN-TITLE-SCA
1000
GEN-TITLE-SIZ
1002
}
1002
}
1002
{
1000
HRA
1005
0
1002
}
1002
{
1000
HTIT
1005
0
1002
}
1002
{
1000
GENIUSID
1005
379
1002
}
1001
GENIUS_GENOBJ-N-TIT_13
1002
{
1000
OWNER
1000
GEN
1002
}
1001
GENIUS_GENOENT_13
1002
{
1000
MYREF
1005
379
1002
}
1002
{
1000
GRP
1005
0
1002
}
1001
GENIUS_GENOLIS_13
1002
{
1000
ENT
1005
0
1005
0
1002
}
  0
TEXT
  5
37A
330
335
100
AcDbEntity
  8
0
 60
     1
100
AcDbText
 10
210.0
 20
297.0
 30
0.0
 40
3.5
  1
!GENTITLE-MAX
100
AcDbText
  0
TEXT
  5
37B
330
335
100
AcDbEntity
  8
0
 60
     1
100
AcDbText
 10
205.0
 20
287.0
 30
0.0
 40
3.5
  1
!GENTITLE-RU
100
AcDbText
  0
TEXT
  5
37C
330
335
100
AcDbEntity
  8
0
 60
     1
100
AcDbText
 10
15.0
 20
59.99
 30
0.0
 40
3.5
  1
!GENTITLE-LL
100
AcDbText
  0
TEXT
  5
37D
330
335
100
AcDbEntity
  8
0
 60
     1
100
AcDbText
 10
205.0
 20
5.0
 30
0.0
 40
3.5
  1
!GENTITLE-INSERT
100
AcDbText
  0
LINE
  5
37E
330
335
100
AcDbEntity
  8
RAHM2
100
AcDbLine
 10
-155.0
 20
12.0
 30
0.0
 11
0.0
 21
12.0
 31
0.0
  0
LINE
  5
37F
330
335
100
AcDbEntity
  8
RAHM2
100
AcDbLine
 10
-12.0
 20
12.0
 30
0.0
 11
-12.00000000000727
 21
0.0
 31
0.0
  0
LINE
  5
380
330
335
100
AcDbEntity
  8
RAHM2
100
AcDbLine
 10
-80.0
 20
19.99999999999272
 30
0.0
 11
0.0
 21
20.0
 31
0.0
  0
LINE
  5
381
330
335
100
AcDbEntity
  8
RAHM2
100
AcDbLine
 10
0.0
 20
27.0
 30
0.0
 11
-80.0
 21
27.0
 31
0.0
  0
MTEXT
  5
382
330
335
100
AcDbEntity
  8
RAHM2
100
AcDbMText
 10
-78.39748281353763
 20
37.79972226353243
 30
0.0
 40
2.5
 41
2.458156240282278
 71
     1
 72
     5
  1

 73
     1
 44
1.0
  0
TEXT
  5
383
330
335
100
AcDbEntity
  8
RAHM3
100
AcDbText
 10
-79.00900277736832
 20
36.89804600214973
 30
0.0
 40
2.299999999999999
  1
名称 ＴＩＴＬＥ
 41
0.8
100
AcDbText
  0
LINE
  5
384
330
335
100
AcDbEntity
  8
RAHM2
100
AcDbLine
 10
-80.0
 20
40.00000000000727
 30
0.0
 11
-80.0
 21
0.0
 31
0.0
  0
TEXT
  5
385
330
335
100
AcDbEntity
  8
RAHM3
100
AcDbText
 10
-79.00900277736832
 20
23.89804600216055
 30
0.0
 40
2.299999999999999
  1
符号 
 41
0.8
100
AcDbText
  0
TEXT
  5
386
330
335
100
AcDbEntity
  8
RAHM3
100
AcDbText
 10
-79.00900277736832
 20
16.89804600215146
 30
0.0
 40
2.299999999999999
  1
件名
 41
0.8
100
AcDbText
  0
TEXT
  5
387
330
335
100
AcDbEntity
  8
RAHM3
100
AcDbText
 10
-79.00900277736832
 20
8.898046002160548
 30
0.0
 40
2.299999999999999
  1
図番 ＤＲＡＷＩＮＧ ＮＯ．
 41
0.8
100
AcDbText
  0
CIRCLE
  5
388
330
335
100
AcDbEntity
  8
RAHM2
100
AcDbCircle
 10
-5.0
 20
5.0
 30
0.0
 40
4.5
  0
LINE
  5
389
330
335
100
AcDbEntity
  8
RAHM2
100
AcDbLine
 10
-130.0000000000018
 20
40.00000000000916
 30
0.0
 11
-130.0000000000018
 21
12.0
 31
0.0
  0
LINE
  5
38A
330
335
100
AcDbEntity
  8
RAHM2
100
AcDbLine
 10
-130.0000000000018
 20
26.00000000000458
 30
0.0
 11
-80.0
 21
25.99999999999818
 31
0.0
  0
LINE
  5
38B
330
335
100
AcDbEntity
  8
RAHM2
100
AcDbLine
 10
-105.0000000000018
 20
40.00000000000916
 30
0.0
 11
-105.0000000000018
 21
12.0
 31
0.0
  0
TEXT
  5
38C
330
335
100
AcDbEntity
  8
RAHM3
100
AcDbText
 10
-129.0090027773683
 20
36.89804600215881
 30
0.0
 40
2.299999999999999
  1
承認 ＡＰＰＤ
 41
0.8
100
AcDbText
  0
TEXT
  5
38D
330
335
100
AcDbEntity
  8
RAHM3
100
AcDbText
 10
-104.0090027773683
 20
36.8980460021551
 30
0.0
 40
2.299999999999999
  1
検図 ＣＨＫ
 41
0.8
100
AcDbText
  0
TEXT
  5
38E
330
335
100
AcDbEntity
  8
RAHM3
100
AcDbText
 10
-129.0090027773683
 20
22.89804600215422
 30
0.0
 40
2.299999999999999
  1
設計 ＥＮＧＲ
 41
0.8
100
AcDbText
  0
TEXT
  5
38F
330
335
100
AcDbEntity
  8
RAHM3
100
AcDbText
 10
-104.0090027773683
 20
22.89804600214964
 30
0.0
 40
2.299999999999999
  1
製図 ＤＲ ＤＡＴＥ
 41
0.8
100
AcDbText
  0
LINE
  5
390
330
335
100
AcDbEntity
  8
RAHM2
100
AcDbLine
 10
-155.0
 20
30.60000000000036
 30
0.0
 11
-130.0000000000018
 21
30.60000000000036
 31
0.0
  0
LINE
  5
391
330
335
100
AcDbEntity
  8
RAHM2
100
AcDbLine
 10
-155.0
 20
21.29999999999927
 30
0.0
 11
-130.0000000000018
 21
21.30000000000109
 31
0.0
  0
TEXT
  5
392
330
335
100
AcDbEntity
  8
RAHM3
100
AcDbText
 10
-121.7843516157921
 20
6.885079184961092
 30
0.0
 40
4.0
  1
伊藤鉄工株式会社
100
AcDbText
  0
TEXT
  5
393
330
335
100
AcDbEntity
  8
RAHM3
100
AcDbText
 10
-120.6675998914835
 20
3.578884653066273
 30
0.0
 40
2.0
  1
ITO TEKKO  CO.,LTD.
100
AcDbText
1001
GENIUS_GENTRA_14
1002
{
1070
     1
1000
/
1000
ITO TEKKO  CO.,LTD.
1000
JPN
1070
     0
1040
1.0
1070
     0
1002
}
  0
TEXT
  5
394
330
335
100
AcDbEntity
  8
RAHM3
100
AcDbText
 10
-120.6675998914835
 20
0.9279960228792472
 30
0.0
 40
2.0
  1
KAWAGUCHI  JAPAN
100
AcDbText
  0
TEXT
  5
395
330
335
100
AcDbEntity
  8
RAHM3
100
AcDbText
 10
-11.85206060358336
 20
9.69362381988742
 30
0.0
 40
1.8
  1
ＲＥＶ．ＭＡＲＫ
 41
0.6800000000000001
100
AcDbText
  0
TEXT
  5
396
330
335
100
AcDbEntity
  8
RAHM3
100
AcDbText
 10
-11.57052530051805
 20
7.425435269030799
 30
0.0
 40
1.8
  1
変
100
AcDbText
  0
TEXT
  5
397
330
335
100
AcDbEntity
  8
RAHM3
100
AcDbText
 10
-11.59004395148213
 20
4.996441785248862
 30
0.0
 40
1.8
  1
更
100
AcDbText
  0
TEXT
  5
398
330
335
100
AcDbEntity
  8
RAHM3
100
AcDbText
 10
-11.62938531906752
 20
2.617267270587205
 30
0.0
 40
1.8
  1
回
100
AcDbText
  0
TEXT
  5
399
330
335
100
AcDbEntity
  8
RAHM3
100
AcDbText
 10
-11.56556962136267
 20
0.3551115072955326
 30
0.0
 40
1.8
  1
数
100
AcDbText
  0
TEXT
  5
39A
330
335
100
AcDbEntity
  8
RAHM3
100
AcDbText
 10
-154.0090027773665
 20
36.89804600217056
 30
0.0
 40
2.299999999999999
  1
尺度 ＳＣＡＬＥ
 41
0.8
100
AcDbText
  0
TEXT
  5
39B
330
335
100
AcDbEntity
  8
RAHM3
100
AcDbText
 10
-154.0090027773665
 20
27.49804600215
 30
0.0
 40
2.299999999999999
  1
図面枚数 ＮＯ．  
 41
0.8
100
AcDbText
  0
LINE
  5
39C
330
335
100
AcDbEntity
  8
7A
100
AcDbLine
 10
-151.7551228444401
 20
16.64999999999988
 30
0.0
 11
-149.2551228444401
 21
16.64999999999988
 31
0.0
1001
GENIUS_GENOREF_13
1005
3A0
  0
LINE
  5
39D
330
335
100
AcDbEntity
  8
7A
100
AcDbLine
 10
-151.7551228444401
 20
16.64999999999988
 30
0.0
 11
-151.7551228444401
 21
19.14999999999988
 31
0.0
1001
GENIUS_GENOREF_13
1005
3A0
  0
LINE
  5
39E
330
335
100
AcDbEntity
  8
7A
100
AcDbLine
 10
-151.7551228444401
 20
16.64999999999988
 30
0.0
 11
-154.2551228444401
 21
16.64999999999988
 31
0.0
1001
GENIUS_GENOREF_13
1005
3A0
  0
LINE
  5
39F
330
335
100
AcDbEntity
  8
7A
100
AcDbLine
 10
-151.7551228444401
 20
16.64999999999988
 30
0.0
 11
-151.7551228444401
 21
14.14999999999988
 31
0.0
1001
GENIUS_GENOREF_13
1005
3A0
  0
POINT
  5
3A0
330
335
100
AcDbEntity
  8
0
 60
     1
100
AcDbPoint
 10
0.0
 20
0.0
 30
0.0
1001
GENIUS_GENODEF_13
1002
{
1000
HIER
1070
    10
1002
}
1002
{
1000
MANEDIT
1070
     0
1002
}
1002
{
1000
NOSEL
1070
     0
1002
}
1002
{
1000
BEHIND
1070
     0
1002
}
1002
{
1000
REACTOR
1002
}
1001
GENIUS_GENOBJ-N-CRS_13
1002
{
1000
OWNER
1000
GEN
1002
}
1001
GENIUS_GENOENT_13
1002
{
1000
MYREF
1005
3A0
1002
}
1002
{
1000
GRP
1005
0
1002
}
1001
GENIUS_GENOLIS_13
1002
{
1000
ENT
1005
39F
1005
39E
1005
39D
1005
39C
1002
}
  0
CIRCLE
  5
3A1
330
335
100
AcDbEntity
  8
RAHM3
100
AcDbCircle
 10
-151.7551228444401
 20
16.64999999999988
 30
0.0
 40
2.0
  0
CIRCLE
  5
3A2
330
335
100
AcDbEntity
  8
RAHM3
100
AcDbCircle
 10
-151.7551228444401
 20
16.64999999999952
 30
0.0
 40
1.0
  0
LINE
  5
3A3
330
335
100
AcDbEntity
  8
RAHM3
100
AcDbLine
 10
-147.7659442035316
 20
17.64999999999929
 30
0.0
 11
-147.7659442035316
 21
15.64999999999929
 31
0.0
  0
LINE
  5
3A4
330
335
100
AcDbEntity
  8
RAHM3
100
AcDbLine
 10
-147.7659442035316
 20
15.64999999999929
 30
0.0
 11
-143.7659442035316
 21
14.64999999999928
 31
0.0
  0
LINE
  5
3A5
330
335
100
AcDbEntity
  8
RAHM3
100
AcDbLine
 10
-143.7659442035316
 20
14.64999999999928
 30
0.0
 11
-143.7659442035316
 21
18.64999999999929
 31
0.0
  0
LINE
  5
3A6
330
335
100
AcDbEntity
  8
RAHM3
100
AcDbLine
 10
-143.7659442035316
 20
18.64999999999929
 30
0.0
 11
-147.7659442035316
 21
17.64999999999929
 31
0.0
  0
LINE
  5
3A7
330
335
100
AcDbEntity
  8
7A
100
AcDbLine
 10
-148.6350563849704
 20
16.64999999999929
 30
0.0
 11
-142.8462596443259
 21
16.64999999999929
 31
0.0
1001
GENIUS_GENODEF_13
1002
{
1000
HIER
1070
     0
1002
}
1002
{
1000
MANEDIT
1070
     0
1002
}
1002
{
1000
NOSEL
1070
     0
1002
}
1002
{
1000
BEHIND
1070
     0
1002
}
1002
{
1000
REACTOR
1002
}
1001
GENIUS_GENOBJ-N-CEN_13
1002
{
1000
OWNER
1000
GEN
1002
}
  0
TEXT
  5
3A8
330
335
100
AcDbEntity
  8
RAHM3
100
AcDbText
 10
-141.8454810851357
 20
18.28209750892168
 30
0.0
 40
2.1
  1
単位 ＵＮＩＴ
 41
0.7
100
AcDbText
  0
LINE
  5
3A9
330
335
100
AcDbEntity
  8
RAHM2
100
AcDbLine
 10
-142.5000000000009
 20
21.29999999999927
 30
0.0
 11
-142.5000000000009
 21
12.0
 31
0.0
  0
TEXT
  5
3AA
330
335
100
AcDbEntity
  8
RAHM3
100
AcDbText
 10
-139.6782849929894
 20
13.82826889824218
 30
0.0
 40
4.0
  1
ｍｍ
 41
0.8
100
AcDbText
  0
POLYLINE
  5
3AB
330
335
100
AcDbEntity
  8
RAHM2
100
AcDb2dPolyline
 66
     1
 10
0.0
 20
0.0
 30
0.0
 70
     1
  0
VERTEX
  5
3AC
330
3AB
100
AcDbEntity
  8
RAHM2
100
AcDbVertex
100
AcDb2dVertex
 10
-155.0
 20
-0.000000000001819
 30
0.0
  0
VERTEX
  5
3AD
330
3AB
100
AcDbEntity
  8
RAHM2
100
AcDbVertex
100
AcDb2dVertex
 10
-155.0
 20
40.00000000002091
 30
0.0
  0
VERTEX
  5
3AE
330
3AB
100
AcDbEntity
  8
RAHM2
100
AcDbVertex
100
AcDb2dVertex
 10
0.0
 20
39.99999999999273
 30
0.0
  0
VERTEX
  5
3AF
330
3AB
100
AcDbEntity
  8
RAHM2
100
AcDbVertex
100
AcDb2dVertex
 10
0.0
 20
0.0
 30
0.0
  0
SEQEND
  5
3B0
330
3AB
100
AcDbEntity
  8
RAHM2
  0
ATTDEF
  5
3B1
330
335
100
AcDbEntity
  8
RAHM3
100
AcDbText
 10
-147.2595867131855
 20
31.94728899818607
 30
0.0
 40
4.0
  1

100
AcDbAttributeDefinition
  3
尺度
  2
GEN-TITLE-SCA
 70
     0
  0
ATTDEF
  5
3B2
330
335
100
AcDbEntity
  8
RAHM3
100
AcDbText
 10
-73.09000000000001
 20
29.74
 30
0.0
 40
5.0
  1

100
AcDbAttributeDefinition
  3
名称
  2
ＴＩＴＬＥ
 70
     0
  0
ATTDEF
  5
3B3
330
335
100
AcDbEntity
  8
RAHM3
100
AcDbText
 10
-71.56287815584043
 20
21.80438312711384
 30
0.0
 40
3.0
  1

100
AcDbAttributeDefinition
  3
符号
  2
ｃｏｄｅ
 70
     0
  0
ATTDEF
  5
3B4
330
335
100
AcDbEntity
  8
RAHM3
100
AcDbText
 10
-70.74480649396313
 20
14.80438312710657
 30
0.0
 40
3.0
  1

100
AcDbAttributeDefinition
  3
件名
  2
件名
 70
     0
  0
ATTDEF
  5
3B5
330
335
100
AcDbEntity
  8
RAHM3
100
AcDbText
 10
-73.09000000000001
 20
1.739999999992722
 30
0.0
 40
5.0
  1

100
AcDbAttributeDefinition
  3
図面番号
  2
Ｎｏ．
 70
     0
  0
ATTDEF
  5
3B6
330
335
100
AcDbEntity
  8
RAHM3
100
AcDbText
 10
-100.45
 20
17.40708932112655
 30
0.0
 40
4.0
  1

100
AcDbAttributeDefinition
  3
製図者
  2
ＤＲ
 70
     0
  0
ATTDEF
  5
3B7
330
335
100
AcDbEntity
  8
RAHM3
100
AcDbText
 10
-103.7180853038729
 20
12.76999999999999
 30
0.0
 40
3.0
  1

 41
0.8
100
AcDbAttributeDefinition
  3
日付
  2
ｄａｔｅ
 70
     0
  0
ENDBLK
  5
3B9
330
335
100
AcDbEntity
  8
0
100
AcDbBlockEnd
  0
BLOCK
  5
6BE
330
6A8
100
AcDbEntity
  8
0
100
AcDbBlockBegin
  2
IGS_A3
 70
     0
 10
0.0
 20
0.0
 30
0.0
  3
IGS_A3
  1

  0
LINE
  5
6A9
330
6A8
100
AcDbEntity
  8
AM_BOR
100
AcDbLine
 10
0.0
 20
0.0
 30
0.0
 11
0.0
 21
10.0
 31
0.0
  0
LINE
  5
6AA
330
6A8
100
AcDbEntity
  8
AM_BOR
100
AcDbLine
 10
0.0
 20
297.0
 30
0.0
 11
10.0
 21
297.0
 31
0.0
  0
LINE
  5
6AB
330
6A8
100
AcDbEntity
  8
AM_BOR
100
AcDbLine
 10
420.0
 20
297.0
 30
0.0
 11
420.0
 21
287.0
 31
0.0
  0
LINE
  5
6AC
330
6A8
100
AcDbEntity
  8
AM_BOR
100
AcDbLine
 10
420.0
 20
0.0
 30
0.0
 11
410.0
 21
0.0
 31
0.0
  0
LINE
  5
6AD
330
6A8
100
AcDbEntity
  8
0
100
AcDbLine
 10
25.0
 20
10.0
 30
0.0
 11
25.0
 21
287.0
 31
0.0
  0
LINE
  5
6AE
330
6A8
100
AcDbEntity
  8
0
100
AcDbLine
 10
410.0
 20
10.0
 30
0.0
 11
25.0
 21
10.0
 31
0.0
  0
LINE
  5
6AF
330
6A8
100
AcDbEntity
  8
0
100
AcDbLine
 10
410.0
 20
287.0
 30
0.0
 11
410.0
 21
10.0
 31
0.0
  0
LINE
  5
6B0
330
6A8
100
AcDbEntity
  8
0
100
AcDbLine
 10
25.0
 20
287.0
 30
0.0
 11
410.0
 21
287.0
 31
0.0
  0
LINE
  5
6B1
330
6A8
100
AcDbEntity
  8
AM_BOR
100
AcDbLine
 10
0.0
 20
287.0
 30
0.0
 11
0.0
 21
297.0
 31
0.0
  0
LINE
  5
6B2
330
6A8
100
AcDbEntity
  8
AM_BOR
100
AcDbLine
 10
10.0
 20
0.0
 30
0.0
 11
0.0
 21
0.0
 31
0.0
  0
LINE
  5
6B3
330
6A8
100
AcDbEntity
  8
AM_BOR
100
AcDbLine
 10
420.0
 20
10.0
 30
0.0
 11
420.0
 21
0.0
 31
0.0
  0
LINE
  5
6B4
330
6A8
100
AcDbEntity
  8
AM_BOR
100
AcDbLine
 10
410.0
 20
297.0
 30
0.0
 11
420.0
 21
297.0
 31
0.0
  0
TEXT
  5
6B5
330
6A8
100
AcDbEntity
  8
0
 60
     1
100
AcDbText
 10
410.0
 20
287.0
 30
0.0
 40
3.5
  1
!GENTITLE-RU
  7
ACJISTS
100
AcDbText
  0
TEXT
  5
6B6
330
6A8
100
AcDbEntity
  8
0
 60
     1
100
AcDbText
 10
420.0
 20
297.0
 30
0.0
 40
3.5
  1
!GENTITLE-MAX
  7
ACJISTS
100
AcDbText
  0
TEXT
  5
6B7
330
6A8
100
AcDbEntity
  8
0
 60
     1
100
AcDbText
 10
410.0
 20
10.0
 30
0.0
 40
3.5
  1
!GENTITLE-INSERT
  7
ACJISTS
100
AcDbText
  0
TEXT
  5
6B8
330
6A8
100
AcDbEntity
  8
0
 60
     1
100
AcDbText
 10
25.0
 20
10.0
 30
0.0
 40
3.5
  1
!GENTITLE-LL
  7
ACJISTS
100
AcDbText
  0
LINE
  5
6B9
330
6A8
100
AcDbEntity
  8
AM_BOR
 62
     1
370
    25
100
AcDbLine
 10
0.0
 20
297.0
 30
0.0
 11
420.0
 21
297.0
 31
0.0
  0
LINE
  5
6BA
330
6A8
100
AcDbEntity
  8
AM_BOR
 62
     1
370
    25
100
AcDbLine
 10
420.0
 20
297.0
 30
0.0
 11
420.0
 21
0.0
 31
0.0
  0
LINE
  5
6BB
330
6A8
100
AcDbEntity
  8
AM_BOR
 62
     1
370
    25
100
AcDbLine
 10
420.0
 20
0.0
 30
0.0
 11
0.0
 21
0.0
 31
0.0
  0
LINE
  5
6BC
330
6A8
100
AcDbEntity
  8
AM_BOR
 62
     1
370
    25
100
AcDbLine
 10
0.0
 20
0.0
 30
0.0
 11
0.0
 21
297.0
 31
0.0
  0
TEXT
  5
6BD
330
6A8
100
AcDbEntity
  8
DEFPOINTS
100
AcDbText
 10
19.5941472374451
 20
2.504073349097552
 30
0.0
 40
5.0
  1
A3
100
AcDbText
  0
ENDBLK
  5
6BF
330
6A8
100
AcDbEntity
  8
0
100
AcDbBlockEnd
  0
BLOCK
  5
2CCB
330
2C31
100
AcDbEntity
  8
0
100
AcDbBlockBegin
  2
*D6
 70
     1
 10
0.0
 20
0.0
 30
0.0
  3
*D6
  1

  0
LINE
  5
2F7D
330
2C31
100
AcDbEntity
  8
AM_5
100
AcDbLine
 10
1006.894136799566
 20
1819.784312224468
 30
0.0
 11
876.8941357995664
 21
1819.784312224468
 31
0.0
  0
LINE
  5
2F7E
330
2C31
100
AcDbEntity
  8
AM_5
100
AcDbLine
 10
1036.894136799566
 20
1789.784312224467
 30
0.0
 11
876.8941357995663
 21
1789.784312224467
 31
0.0
  0
LINE
  5
2F7F
330
2C31
100
AcDbEntity
  8
AM_5
100
AcDbLine
 10
886.8941357995664
 20
1844.784312224468
 30
0.0
 11
886.8941357995664
 21
1869.784312224467
 31
0.0
  0
LINE
  5
2F80
330
2C31
100
AcDbEntity
  8
AM_5
100
AcDbLine
 10
886.8941357995664
 20
1764.784312224468
 30
0.0
 11
886.8941357995664
 21
1739.784312224468
 31
0.0
  0
LINE
  5
2F81
330
2C31
100
AcDbEntity
  8
AM_5
100
AcDbLine
 10
886.8941357995664
 20
1819.784312224468
 30
0.0
 11
886.8941357995664
 21
1789.784312224467
 31
0.0
  0
INSERT
  5
2F82
330
2C31
100
AcDbEntity
  8
AM_5
100
AcDbBlockReference
  2
_Open30
 10
886.8941357995664
 20
1819.784312224468
 30
0.0
 41
25.0
 42
25.0
 43
25.0
 50
270.0
  0
INSERT
  5
2F83
330
2C31
100
AcDbEntity
  8
AM_5
100
AcDbBlockReference
  2
_Open30
 10
886.8941357995664
 20
1789.784312224467
 30
0.0
 41
25.0
 42
25.0
 43
25.0
 50
90.0
  0
MTEXT
  5
2F84
330
2C31
100
AcDbEntity
  8
AM_5
 62
     2
100
AcDbMText
 10
849.3941357995661
 20
1804.784312224468
 30
0.0
 40
45.0
 41
0.0
 71
     5
 72
     1
  1
30
 11
0.0000000000000001
 21
1.0
 31
0.0
 73
     1
 44
1.0
  0
POINT
  5
2F85
330
2C31
100
AcDbEntity
  8
DEFPOINTS
 62
     0
100
AcDbPoint
 10
1016.894136799566
 20
1819.784312224468
 30
0.0
  0
POINT
  5
2F86
330
2C31
100
AcDbEntity
  8
DEFPOINTS
 62
     0
100
AcDbPoint
 10
1046.894136799566
 20
1789.784312224467
 30
0.0
  0
POINT
  5
2F87
330
2C31
100
AcDbEntity
  8
DEFPOINTS
 62
     0
100
AcDbPoint
 10
886.8941357995664
 20
1789.784312224467
 30
0.0
  0
ENDBLK
  5
2CCC
330
2C31
100
AcDbEntity
  8
0
100
AcDbBlockEnd
  0
BLOCK
  5
2CCD
330
2C5D
100
AcDbEntity
  8
0
100
AcDbBlockBegin
  2
*D7
 70
     1
 10
0.0
 20
0.0
 30
0.0
  3
*D7
  1

  0
LINE
  5
2F74
330
2C5D
100
AcDbEntity
  8
AM_5
100
AcDbLine
 10
1036.894136799566
 20
1789.784312224467
 30
0.0
 11
876.8941357995663
 21
1789.784312224467
 31
0.0
  0
LINE
  5
2F75
330
2C5D
100
AcDbEntity
  8
AM_5
100
AcDbLine
 10
1036.894136799566
 20
1299.784312224467
 30
0.0
 11
876.8941357995663
 21
1299.784312224467
 31
0.0
  0
LINE
  5
2F76
330
2C5D
100
AcDbEntity
  8
AM_5
100
AcDbLine
 10
886.8941357995664
 20
1764.784312224468
 30
0.0
 11
886.8941357995664
 21
1324.784312224468
 31
0.0
  0
INSERT
  5
2F77
330
2C5D
100
AcDbEntity
  8
AM_5
100
AcDbBlockReference
  2
_Open30
 10
886.8941357995664
 20
1789.784312224467
 30
0.0
 41
25.0
 42
25.0
 43
25.0
 50
90.0
  0
INSERT
  5
2F78
330
2C5D
100
AcDbEntity
  8
AM_5
100
AcDbBlockReference
  2
_Open30
 10
886.8941357995664
 20
1299.784312224467
 30
0.0
 41
25.0
 42
25.0
 43
25.0
 50
270.0
  0
MTEXT
  5
2F79
330
2C5D
100
AcDbEntity
  8
AM_5
 62
     2
100
AcDbMText
 10
849.3941357995661
 20
1544.784312224468
 30
0.0
 40
45.0
 41
0.0
 71
     5
 72
     1
  1
490
 11
0.0000000000000001
 21
1.0
 31
0.0
 73
     1
 44
1.0
  0
POINT
  5
2F7A
330
2C5D
100
AcDbEntity
  8
DEFPOINTS
 62
     0
100
AcDbPoint
 10
1046.894136799566
 20
1789.784312224467
 30
0.0
  0
POINT
  5
2F7B
330
2C5D
100
AcDbEntity
  8
DEFPOINTS
 62
     0
100
AcDbPoint
 10
1046.894136799566
 20
1299.784312224467
 30
0.0
  0
POINT
  5
2F7C
330
2C5D
100
AcDbEntity
  8
DEFPOINTS
 62
     0
100
AcDbPoint
 10
886.8941357995664
 20
1299.784312224467
 30
0.0
  0
ENDBLK
  5
2CCE
330
2C5D
100
AcDbEntity
  8
0
100
AcDbBlockEnd
  0
BLOCK
  5
2CCF
330
2C8B
100
AcDbEntity
  8
0
100
AcDbBlockBegin
  2
*D8
 70
     1
 10
0.0
 20
0.0
 30
0.0
  3
*D8
  1

  0
LINE
  5
2F69
330
2C8B
100
AcDbEntity
  8
AM_5
100
AcDbLine
 10
1036.894136799566
 20
1299.784312224467
 30
0.0
 11
876.8941357995664
 21
1299.784312224467
 31
0.0
  0
LINE
  5
2F6A
330
2C8B
100
AcDbEntity
  8
AM_5
100
AcDbLine
 10
1006.894136799566
 20
1269.784312224468
 30
0.0
 11
876.8941357995663
 21
1269.784312224468
 31
0.0
  0
LINE
  5
2F6B
330
2C8B
100
AcDbEntity
  8
AM_5
100
AcDbLine
 10
886.8941357995664
 20
1324.784312224468
 30
0.0
 11
886.8941357995664
 21
1349.784312224467
 31
0.0
  0
LINE
  5
2F6C
330
2C8B
100
AcDbEntity
  8
AM_5
100
AcDbLine
 10
886.8941357995664
 20
1244.784312224467
 30
0.0
 11
886.8941357995664
 21
1219.784312224468
 31
0.0
  0
LINE
  5
2F6D
330
2C8B
100
AcDbEntity
  8
AM_5
100
AcDbLine
 10
886.8941357995664
 20
1299.784312224467
 30
0.0
 11
886.8941357995664
 21
1269.784312224468
 31
0.0
  0
INSERT
  5
2F6E
330
2C8B
100
AcDbEntity
  8
AM_5
100
AcDbBlockReference
  2
_Open30
 10
886.8941357995664
 20
1299.784312224467
 30
0.0
 41
25.0
 42
25.0
 43
25.0
 50
270.0
  0
INSERT
  5
2F6F
330
2C8B
100
AcDbEntity
  8
AM_5
100
AcDbBlockReference
  2
_Open30
 10
886.8941357995664
 20
1269.784312224468
 30
0.0
 41
25.0
 42
25.0
 43
25.0
 50
90.0
  0
MTEXT
  5
2F70
330
2C8B
100
AcDbEntity
  8
AM_5
 62
     2
100
AcDbMText
 10
849.3941357995662
 20
1284.784312224468
 30
0.0
 40
45.0
 41
0.0
 71
     5
 72
     1
  1
30
 11
0.0000000000000001
 21
1.0
 31
0.0
 73
     1
 44
1.0
  0
POINT
  5
2F71
330
2C8B
100
AcDbEntity
  8
DEFPOINTS
 62
     0
100
AcDbPoint
 10
1046.894136799566
 20
1299.784312224467
 30
0.0
  0
POINT
  5
2F72
330
2C8B
100
AcDbEntity
  8
DEFPOINTS
 62
     0
100
AcDbPoint
 10
1016.894136799566
 20
1269.784312224468
 30
0.0
  0
POINT
  5
2F73
330
2C8B
100
AcDbEntity
  8
DEFPOINTS
 62
     0
100
AcDbPoint
 10
886.8941357995664
 20
1269.784312224468
 30
0.0
  0
ENDBLK
  5
2CD0
330
2C8B
100
AcDbEntity
  8
0
100
AcDbBlockEnd
  0
BLOCK
  5
2CD1
330
2CAC
100
AcDbEntity
  8
0
100
AcDbBlockBegin
  2
*D9
 70
     1
 10
0.0
 20
0.0
 30
0.0
  3
*D9
  1

  0
LINE
  5
3079
330
2CAC
100
AcDbEntity
  8
AM_5
100
AcDbLine
 10
1006.894136799566
 20
1819.784312224468
 30
0.0
 11
776.8941357995665
 21
1819.784312224468
 31
0.0
  0
LINE
  5
307A
330
2CAC
100
AcDbEntity
  8
AM_5
100
AcDbLine
 10
1006.894136799566
 20
1269.784312224468
 30
0.0
 11
776.8941357995664
 21
1269.784312224468
 31
0.0
  0
LINE
  5
307B
330
2CAC
100
AcDbEntity
  8
AM_5
100
AcDbLine
 10
786.8941357995666
 20
1794.784312224467
 30
0.0
 11
786.8941357995664
 21
1294.784312224467
 31
0.0
  0
INSERT
  5
307C
330
2CAC
100
AcDbEntity
  8
AM_5
100
AcDbBlockReference
  2
_Open30
 10
786.8941357995666
 20
1819.784312224468
 30
0.0
 41
25.0
 42
25.0
 43
25.0
 50
90.0
  0
INSERT
  5
307D
330
2CAC
100
AcDbEntity
  8
AM_5
100
AcDbBlockReference
  2
_Open30
 10
786.8941357995663
 20
1269.784312224468
 30
0.0
 41
25.0
 42
25.0
 43
25.0
 50
270.0
  0
MTEXT
  5
307E
330
2CAC
100
AcDbEntity
  8
AM_5
 62
     2
100
AcDbMText
 10
749.3941357995662
 20
1544.784312224468
 30
0.0
 40
45.0
 41
0.0
 71
     5
 72
     1
  1
550
 11
0.0000000000000001
 21
1.0
 31
0.0
 73
     1
 44
1.0
  0
POINT
  5
307F
330
2CAC
100
AcDbEntity
  8
DEFPOINTS
 62
     0
100
AcDbPoint
 10
1016.894136799566
 20
1819.784312224468
 30
0.0
  0
POINT
  5
3080
330
2CAC
100
AcDbEntity
  8
DEFPOINTS
 62
     0
100
AcDbPoint
 10
1016.894136799566
 20
1269.784312224468
 30
0.0
  0
POINT
  5
3081
330
2CAC
100
AcDbEntity
  8
DEFPOINTS
 62
     0
100
AcDbPoint
 10
786.8941357995663
 20
1269.784312224468
 30
0.0
  0
ENDBLK
  5
2CD2
330
2CAC
100
AcDbEntity
  8
0
100
AcDbBlockEnd
  0
BLOCK
  5
2D1B
330
2CE3
100
AcDbEntity
  8
0
100
AcDbBlockBegin
  2
*D10
 70
     1
 10
0.0
 20
0.0
 30
0.0
  3
*D10
  1

  0
LINE
  5
3066
330
2CE3
100
AcDbEntity
  8
AM_5
100
AcDbLine
 10
864.5909332865395
 20
1169.784312224467
 30
0.0
 11
776.8941357995654
 21
1169.784312224467
 31
0.0
  0
LINE
  5
3067
330
2CE3
100
AcDbEntity
  8
AM_5
100
AcDbLine
 10
1244.394136799567
 20
969.7843122244675
 30
0.0
 11
776.8941357995654
 21
969.7843122244675
 31
0.0
  0
LINE
  5
3068
330
2CE3
100
AcDbEntity
  8
AM_5
100
AcDbLine
 10
786.8941357995654
 20
1144.784312224467
 30
0.0
 11
786.8941357995654
 21
994.7843122244675
 31
0.0
  0
INSERT
  5
3069
330
2CE3
100
AcDbEntity
  8
AM_5
100
AcDbBlockReference
  2
_Open30
 10
786.8941357995654
 20
1169.784312224467
 30
0.0
 41
25.0
 42
25.0
 43
25.0
 50
90.0
  0
INSERT
  5
306A
330
2CE3
100
AcDbEntity
  8
AM_5
100
AcDbBlockReference
  2
_Open30
 10
786.8941357995654
 20
969.7843122244675
 30
0.0
 41
25.0
 42
25.0
 43
25.0
 50
270.0
  0
MTEXT
  5
306B
330
2CE3
100
AcDbEntity
  8
AM_5
 62
     2
100
AcDbMText
 10
749.389706665707
 20
1069.784312224468
 30
0.0
 40
45.0
 41
0.0
 71
     5
 72
     1
  1
200
 11
0.0000000000000001
 21
1.0
 31
0.0
 73
     1
 44
1.0
  0
POINT
  5
306C
330
2CE3
100
AcDbEntity
  8
DEFPOINTS
 62
     0
100
AcDbPoint
 10
874.5909332865394
 20
1169.784312224467
 30
0.0
  0
POINT
  5
306D
330
2CE3
100
AcDbEntity
  8
DEFPOINTS
 62
     0
100
AcDbPoint
 10
1254.394136799567
 20
969.7843122244675
 30
0.0
  0
POINT
  5
306E
330
2CE3
100
AcDbEntity
  8
DEFPOINTS
 62
     0
100
AcDbPoint
 10
786.8941357995654
 20
969.7843122244675
 30
0.0
  0
ENDBLK
  5
2D1C
330
2CE3
100
AcDbEntity
  8
0
100
AcDbBlockEnd
  0
BLOCK
  5
2D1D
330
2D05
100
AcDbEntity
  8
0
100
AcDbBlockBegin
  2
*D11
 70
     1
 10
0.0
 20
0.0
 30
0.0
  3
*D11
  1

  0
LINE
  5
2F4E
330
2D05
100
AcDbEntity
  8
AM_5
100
AcDbLine
 10
1244.394136799567
 20
969.7843122244675
 30
0.0
 11
676.8941357995652
 21
969.7843122244677
 31
0.0
  0
LINE
  5
2F4F
330
2D05
100
AcDbEntity
  8
AM_5
100
AcDbLine
 10
1006.894136799566
 20
1819.784312224468
 30
0.0
 11
676.8941357995654
 21
1819.784312224468
 31
0.0
  0
LINE
  5
2F50
330
2D05
100
AcDbEntity
  8
AM_5
100
AcDbLine
 10
686.8941357995652
 20
994.7843122244677
 30
0.0
 11
686.8941357995654
 21
1794.784312224467
 31
0.0
  0
INSERT
  5
2F51
330
2D05
100
AcDbEntity
  8
AM_5
100
AcDbBlockReference
  2
_Open30
 10
686.8941357995652
 20
969.7843122244677
 30
0.0
 41
25.0
 42
25.0
 43
25.0
 50
270.0
  0
INSERT
  5
2F52
330
2D05
100
AcDbEntity
  8
AM_5
100
AcDbBlockReference
  2
_Open30
 10
686.8941357995654
 20
1819.784312224468
 30
0.0
 41
25.0
 42
25.0
 43
25.0
 50
90.0
  0
MTEXT
  5
2F53
330
2D05
100
AcDbEntity
  8
AM_5
 62
     2
100
AcDbMText
 10
649.3941357995651
 20
1394.784312224468
 30
0.0
 40
45.0
 41
0.0
 71
     5
 72
     1
  1
850
 11
0.0000000000000001
 21
1.0
 31
0.0
 73
     1
 44
1.0
  0
POINT
  5
2F54
330
2D05
100
AcDbEntity
  8
DEFPOINTS
 62
     0
100
AcDbPoint
 10
1254.394136799567
 20
969.7843122244675
 30
0.0
  0
POINT
  5
2F55
330
2D05
100
AcDbEntity
  8
DEFPOINTS
 62
     0
100
AcDbPoint
 10
1016.894136799566
 20
1819.784312224468
 30
0.0
  0
POINT
  5
2F56
330
2D05
100
AcDbEntity
  8
DEFPOINTS
 62
     0
100
AcDbPoint
 10
686.8941357995654
 20
1819.784312224468
 30
0.0
  0
ENDBLK
  5
2D1E
330
2D05
100
AcDbEntity
  8
0
100
AcDbBlockEnd
  0
BLOCK
  5
2D99
330
2D43
100
AcDbEntity
  8
0
100
AcDbBlockBegin
  2
*D12
 70
     1
 10
0.0
 20
0.0
 30
0.0
  3
*D12
  1

  0
LINE
  5
3162
330
2D43
100
AcDbEntity
  8
AM_5
100
AcDbLine
 10
1006.894136799566
 20
1269.784312224468
 30
0.0
 11
1006.894136799566
 21
396.7182112143328
 31
0.0
  0
LINE
  5
3163
330
2D43
100
AcDbEntity
  8
AM_5
100
AcDbLine
 10
1269.394136799566
 20
938.1786725676674
 30
0.0
 11
1269.394136799566
 21
396.7182112143328
 31
0.0
  0
LINE
  5
3164
330
2D43
100
AcDbEntity
  8
AM_5
100
AcDbLine
 10
1031.894136799566
 20
406.7182112143327
 30
0.0
 11
1244.394136799567
 21
406.7182112143327
 31
0.0
  0
INSERT
  5
3165
330
2D43
100
AcDbEntity
  8
AM_5
100
AcDbBlockReference
  2
_Open30
 10
1006.894136799566
 20
406.7182112143327
 30
0.0
 41
25.0
 42
25.0
 43
25.0
 50
180.0
  0
INSERT
  5
3166
330
2D43
100
AcDbEntity
  8
AM_5
100
AcDbBlockReference
  2
_Open30
 10
1269.394136799566
 20
406.7182112143327
 30
0.0
 41
25.0
 42
25.0
 43
25.0
  0
MTEXT
  5
3167
330
2D43
100
AcDbEntity
  8
AM_5
 62
     2
100
AcDbMText
 10
1138.144136799566
 20
444.2226403481909
 30
0.0
 40
45.0
 41
0.0
 71
     5
 72
     1
  1
262.5
 73
     1
 44
1.0
  0
POINT
  5
3168
330
2D43
100
AcDbEntity
  8
DEFPOINTS
 62
     0
100
AcDbPoint
 10
1006.894136799566
 20
1279.784312224468
 30
0.0
  0
POINT
  5
3169
330
2D43
100
AcDbEntity
  8
DEFPOINTS
 62
     0
100
AcDbPoint
 10
1269.394136799566
 20
948.1786725676675
 30
0.0
  0
POINT
  5
316A
330
2D43
100
AcDbEntity
  8
DEFPOINTS
 62
     0
100
AcDbPoint
 10
1269.394136799566
 20
406.7182112143327
 30
0.0
  0
ENDBLK
  5
2D9A
330
2D43
100
AcDbEntity
  8
0
100
AcDbBlockEnd
  0
BLOCK
  5
2D9B
330
2D69
100
AcDbEntity
  8
0
100
AcDbBlockBegin
  2
*D13
 70
     1
 10
0.0
 20
0.0
 30
0.0
  3
*D13
  1

  0
LINE
  5
3159
330
2D69
100
AcDbEntity
  8
AM_5
100
AcDbLine
 10
1269.394136799566
 20
938.1786725676674
 30
0.0
 11
1269.394136799566
 21
396.7182112143337
 31
0.0
  0
LINE
  5
315A
330
2D69
100
AcDbEntity
  8
AM_5
100
AcDbLine
 10
1844.394136799566
 20
938.1786725676674
 30
0.0
 11
1844.394136799566
 21
396.7182112143337
 31
0.0
  0
LINE
  5
315B
330
2D69
100
AcDbEntity
  8
AM_5
100
AcDbLine
 10
1294.394136799567
 20
406.7182112143337
 30
0.0
 11
1819.394136799567
 21
406.7182112143337
 31
0.0
  0
INSERT
  5
315C
330
2D69
100
AcDbEntity
  8
AM_5
100
AcDbBlockReference
  2
_Open30
 10
1269.394136799566
 20
406.7182112143337
 30
0.0
 41
25.0
 42
25.0
 43
25.0
 50
180.0
  0
INSERT
  5
315D
330
2D69
100
AcDbEntity
  8
AM_5
100
AcDbBlockReference
  2
_Open30
 10
1844.394136799566
 20
406.7182112143337
 30
0.0
 41
25.0
 42
25.0
 43
25.0
  0
MTEXT
  5
315E
330
2D69
100
AcDbEntity
  8
AM_5
 62
     2
100
AcDbMText
 10
1556.894136799567
 20
444.2182112143337
 30
0.0
 40
45.0
 41
0.0
 71
     5
 72
     1
  1
575
 73
     1
 44
1.0
  0
POINT
  5
315F
330
2D69
100
AcDbEntity
  8
DEFPOINTS
 62
     0
100
AcDbPoint
 10
1269.394136799566
 20
948.1786725676675
 30
0.0
  0
POINT
  5
3160
330
2D69
100
AcDbEntity
  8
DEFPOINTS
 62
     0
100
AcDbPoint
 10
1844.394136799566
 20
948.1786725676675
 30
0.0
  0
POINT
  5
3161
330
2D69
100
AcDbEntity
  8
DEFPOINTS
 62
     0
100
AcDbPoint
 10
1844.394136799566
 20
406.7182112143337
 30
0.0
  0
ENDBLK
  5
2D9C
330
2D69
100
AcDbEntity
  8
0
100
AcDbBlockEnd
  0
BLOCK
  5
2D9D
330
2D83
100
AcDbEntity
  8
0
100
AcDbBlockBegin
  2
*D14
 70
     1
 10
0.0
 20
0.0
 30
0.0
  3
*D14
  1

  0
LINE
  5
3150
330
2D83
100
AcDbEntity
  8
AM_5
100
AcDbLine
 10
1844.394136799566
 20
938.1786725676674
 30
0.0
 11
1844.394136799566
 21
396.7182112143346
 31
0.0
  0
LINE
  5
3151
330
2D83
100
AcDbEntity
  8
AM_5
100
AcDbLine
 10
2106.894136799567
 20
1269.784312224468
 30
0.0
 11
2106.894136799567
 21
396.7182112143346
 31
0.0
  0
LINE
  5
3152
330
2D83
100
AcDbEntity
  8
AM_5
100
AcDbLine
 10
1869.394136799567
 20
406.7182112143346
 30
0.0
 11
2081.894136799567
 21
406.7182112143346
 31
0.0
  0
INSERT
  5
3153
330
2D83
100
AcDbEntity
  8
AM_5
100
AcDbBlockReference
  2
_Open30
 10
1844.394136799566
 20
406.7182112143346
 30
0.0
 41
25.0
 42
25.0
 43
25.0
 50
180.0
  0
INSERT
  5
3154
330
2D83
100
AcDbEntity
  8
AM_5
100
AcDbBlockReference
  2
_Open30
 10
2106.894136799567
 20
406.7182112143346
 30
0.0
 41
25.0
 42
25.0
 43
25.0
  0
MTEXT
  5
3155
330
2D83
100
AcDbEntity
  8
AM_5
 62
     2
100
AcDbMText
 10
1975.644136799567
 20
444.2226403481928
 30
0.0
 40
45.0
 41
0.0
 71
     5
 72
     1
  1
262.5
 73
     1
 44
1.0
  0
POINT
  5
3156
330
2D83
100
AcDbEntity
  8
DEFPOINTS
 62
     0
100
AcDbPoint
 10
1844.394136799566
 20
948.1786725676675
 30
0.0
  0
POINT
  5
3157
330
2D83
100
AcDbEntity
  8
DEFPOINTS
 62
     0
100
AcDbPoint
 10
2106.894136799567
 20
1279.784312224468
 30
0.0
  0
POINT
  5
3158
330
2D83
100
AcDbEntity
  8
DEFPOINTS
 62
     0
100
AcDbPoint
 10
2106.894136799567
 20
406.7182112143346
 30
0.0
  0
ENDBLK
  5
2D9E
330
2D83
100
AcDbEntity
  8
0
100
AcDbBlockEnd
  0
BLOCK
  5
2E35
330
2DAF
100
AcDbEntity
  8
0
100
AcDbBlockBegin
  2
*D15
 70
     1
 10
0.0
 20
0.0
 30
0.0
  3
*D15
  1

  0
LINE
  5
2F28
330
2DAF
100
AcDbEntity
  8
AM_5
100
AcDbLine
 10
1006.894136799566
 20
1819.784312224468
 30
0.0
 11
1006.894136799566
 21
1949.784313224468
 31
0.0
  0
LINE
  5
2F29
330
2DAF
100
AcDbEntity
  8
AM_5
100
AcDbLine
 10
1036.894136799566
 20
1789.784312224467
 30
0.0
 11
1036.894136799566
 21
1949.784313224468
 31
0.0
  0
LINE
  5
2F2A
330
2DAF
100
AcDbEntity
  8
AM_5
100
AcDbLine
 10
981.8941367995666
 20
1939.784313224468
 30
0.0
 11
956.8941367995666
 21
1939.784313224468
 31
0.0
  0
LINE
  5
2F2B
330
2DAF
100
AcDbEntity
  8
AM_5
100
AcDbLine
 10
1061.894136799566
 20
1939.784313224468
 30
0.0
 11
1086.894136799567
 21
1939.784313224468
 31
0.0
  0
LINE
  5
2F2C
330
2DAF
100
AcDbEntity
  8
AM_5
100
AcDbLine
 10
1006.894136799566
 20
1939.784313224468
 30
0.0
 11
1036.894136799566
 21
1939.784313224468
 31
0.0
  0
INSERT
  5
2F2D
330
2DAF
100
AcDbEntity
  8
AM_5
100
AcDbBlockReference
  2
_Open30
 10
1006.894136799566
 20
1939.784313224468
 30
0.0
 41
25.0
 42
25.0
 43
25.0
  0
INSERT
  5
2F2E
330
2DAF
100
AcDbEntity
  8
AM_5
100
AcDbBlockReference
  2
_Open30
 10
1036.894136799566
 20
1939.784313224468
 30
0.0
 41
25.0
 42
25.0
 43
25.0
 50
180.0
  0
MTEXT
  5
2F2F
330
2DAF
100
AcDbEntity
  8
AM_5
 62
     2
100
AcDbMText
 10
1021.894136799566
 20
1977.284313224468
 30
0.0
 40
45.0
 41
0.0
 71
     5
 72
     1
  1
30
 73
     1
 44
1.0
  0
POINT
  5
2F30
330
2DAF
100
AcDbEntity
  8
DEFPOINTS
 62
     0
100
AcDbPoint
 10
1006.894136799566
 20
1809.784312224467
 30
0.0
  0
POINT
  5
2F31
330
2DAF
100
AcDbEntity
  8
DEFPOINTS
 62
     0
100
AcDbPoint
 10
1036.894136799566
 20
1779.784312224467
 30
0.0
  0
POINT
  5
2F32
330
2DAF
100
AcDbEntity
  8
DEFPOINTS
 62
     0
100
AcDbPoint
 10
1036.894136799566
 20
1939.784313224468
 30
0.0
  0
ENDBLK
  5
2E36
330
2DAF
100
AcDbEntity
  8
0
100
AcDbBlockEnd
  0
BLOCK
  5
2E37
330
2DDB
100
AcDbEntity
  8
0
100
AcDbBlockBegin
  2
*D16
 70
     1
 10
0.0
 20
0.0
 30
0.0
  3
*D16
  1

  0
LINE
  5
2F1F
330
2DDB
100
AcDbEntity
  8
AM_5
100
AcDbLine
 10
2076.894136799567
 20
1789.784312224467
 30
0.0
 11
2076.894136799567
 21
1949.784313224467
 31
0.0
  0
LINE
  5
2F20
330
2DDB
100
AcDbEntity
  8
AM_5
100
AcDbLine
 10
1036.894136799566
 20
1789.784312224467
 30
0.0
 11
1036.894136799566
 21
1949.784313224467
 31
0.0
  0
LINE
  5
2F21
330
2DDB
100
AcDbEntity
  8
AM_5
100
AcDbLine
 10
2051.894136799567
 20
1939.784313224467
 30
0.0
 11
1061.894136799566
 21
1939.784313224467
 31
0.0
  0
INSERT
  5
2F22
330
2DDB
100
AcDbEntity
  8
AM_5
100
AcDbBlockReference
  2
_Open30
 10
2076.894136799567
 20
1939.784313224467
 30
0.0
 41
25.0
 42
25.0
 43
25.0
  0
INSERT
  5
2F23
330
2DDB
100
AcDbEntity
  8
AM_5
100
AcDbBlockReference
  2
_Open30
 10
1036.894136799566
 20
1939.784313224467
 30
0.0
 41
25.0
 42
25.0
 43
25.0
 50
180.0
  0
MTEXT
  5
2F24
330
2DDB
100
AcDbEntity
  8
AM_5
 62
     2
100
AcDbMText
 10
1556.894136799567
 20
1977.284313224467
 30
0.0
 40
45.0
 41
0.0
 71
     5
 72
     1
  1
1040
 73
     1
 44
1.0
  0
POINT
  5
2F25
330
2DDB
100
AcDbEntity
  8
DEFPOINTS
 62
     0
100
AcDbPoint
 10
2076.894136799567
 20
1779.784312224467
 30
0.0
  0
POINT
  5
2F26
330
2DDB
100
AcDbEntity
  8
DEFPOINTS
 62
     0
100
AcDbPoint
 10
1036.894136799566
 20
1779.784312224467
 30
0.0
  0
POINT
  5
2F27
330
2DDB
100
AcDbEntity
  8
DEFPOINTS
 62
     0
100
AcDbPoint
 10
1036.894136799566
 20
1939.784313224467
 30
0.0
  0
ENDBLK
  5
2E38
330
2DDB
100
AcDbEntity
  8
0
100
AcDbBlockEnd
  0
BLOCK
  5
2E39
330
2DF5
100
AcDbEntity
  8
0
100
AcDbBlockBegin
  2
*D17
 70
     1
 10
0.0
 20
0.0
 30
0.0
  3
*D17
  1

  0
LINE
  5
2F14
330
2DF5
100
AcDbEntity
  8
AM_5
100
AcDbLine
 10
2106.894136799567
 20
1819.784312224467
 30
0.0
 11
2106.894136799567
 21
1949.784313224468
 31
0.0
  0
LINE
  5
2F15
330
2DF5
100
AcDbEntity
  8
AM_5
100
AcDbLine
 10
2076.894136799567
 20
1789.784312224467
 30
0.0
 11
2076.894136799567
 21
1949.784313224468
 31
0.0
  0
LINE
  5
2F16
330
2DF5
100
AcDbEntity
  8
AM_5
100
AcDbLine
 10
2131.894136799567
 20
1939.784313224468
 30
0.0
 11
2156.894136799567
 21
1939.784313224468
 31
0.0
  0
LINE
  5
2F17
330
2DF5
100
AcDbEntity
  8
AM_5
100
AcDbLine
 10
2051.894136799567
 20
1939.784313224468
 30
0.0
 11
2026.894136799567
 21
1939.784313224468
 31
0.0
  0
LINE
  5
2F18
330
2DF5
100
AcDbEntity
  8
AM_5
100
AcDbLine
 10
2106.894136799567
 20
1939.784313224468
 30
0.0
 11
2076.894136799567
 21
1939.784313224468
 31
0.0
  0
INSERT
  5
2F19
330
2DF5
100
AcDbEntity
  8
AM_5
100
AcDbBlockReference
  2
_Open30
 10
2106.894136799567
 20
1939.784313224468
 30
0.0
 41
25.0
 42
25.0
 43
25.0
 50
180.0
  0
INSERT
  5
2F1A
330
2DF5
100
AcDbEntity
  8
AM_5
100
AcDbBlockReference
  2
_Open30
 10
2076.894136799567
 20
1939.784313224468
 30
0.0
 41
25.0
 42
25.0
 43
25.0
  0
MTEXT
  5
2F1B
330
2DF5
100
AcDbEntity
  8
AM_5
 62
     2
100
AcDbMText
 10
2091.894136799567
 20
1977.284313224468
 30
0.0
 40
45.0
 41
0.0
 71
     5
 72
     1
  1
30
 73
     1
 44
1.0
  0
POINT
  5
2F1C
330
2DF5
100
AcDbEntity
  8
DEFPOINTS
 62
     0
100
AcDbPoint
 10
2106.894136799567
 20
1809.784312224467
 30
0.0
  0
POINT
  5
2F1D
330
2DF5
100
AcDbEntity
  8
DEFPOINTS
 62
     0
100
AcDbPoint
 10
2076.894136799567
 20
1779.784312224467
 30
0.0
  0
POINT
  5
2F1E
330
2DF5
100
AcDbEntity
  8
DEFPOINTS
 62
     0
100
AcDbPoint
 10
2076.894136799567
 20
1939.784313224468
 30
0.0
  0
ENDBLK
  5
2E3A
330
2DF5
100
AcDbEntity
  8
0
100
AcDbBlockEnd
  0
BLOCK
  5
2E3B
330
2E16
100
AcDbEntity
  8
0
100
AcDbBlockBegin
  2
*D18
 70
     1
 10
0.0
 20
0.0
 30
0.0
  3
*D18
  1

  0
LINE
  5
2F0B
330
2E16
100
AcDbEntity
  8
AM_5
100
AcDbLine
 10
1006.894136799566
 20
1819.784312224468
 30
0.0
 11
1006.894136799566
 21
2049.784313224468
 31
0.0
  0
LINE
  5
2F0C
330
2E16
100
AcDbEntity
  8
AM_5
100
AcDbLine
 10
2106.894136799567
 20
1819.784312224468
 30
0.0
 11
2106.894136799567
 21
2049.784313224468
 31
0.0
  0
LINE
  5
2F0D
330
2E16
100
AcDbEntity
  8
AM_5
100
AcDbLine
 10
1031.894136799566
 20
2039.784313224468
 30
0.0
 11
2081.894136799567
 21
2039.784313224468
 31
0.0
  0
INSERT
  5
2F0E
330
2E16
100
AcDbEntity
  8
AM_5
100
AcDbBlockReference
  2
_Open30
 10
1006.894136799566
 20
2039.784313224468
 30
0.0
 41
25.0
 42
25.0
 43
25.0
 50
180.0
  0
INSERT
  5
2F0F
330
2E16
100
AcDbEntity
  8
AM_5
100
AcDbBlockReference
  2
_Open30
 10
2106.894136799567
 20
2039.784313224468
 30
0.0
 41
25.0
 42
25.0
 43
25.0
  0
MTEXT
  5
2F10
330
2E16
100
AcDbEntity
  8
AM_5
 62
     2
100
AcDbMText
 10
1556.894136799567
 20
2077.284313224468
 30
0.0
 40
45.0
 41
0.0
 71
     5
 72
     1
  1
1100
 73
     1
 44
1.0
  0
POINT
  5
2F11
330
2E16
100
AcDbEntity
  8
DEFPOINTS
 62
     0
100
AcDbPoint
 10
1006.894136799566
 20
1809.784312224468
 30
0.0
  0
POINT
  5
2F12
330
2E16
100
AcDbEntity
  8
DEFPOINTS
 62
     0
100
AcDbPoint
 10
2106.894136799567
 20
1809.784312224467
 30
0.0
  0
POINT
  5
2F13
330
2E16
100
AcDbEntity
  8
DEFPOINTS
 62
     0
100
AcDbPoint
 10
2106.894136799567
 20
2039.784313224468
 30
0.0
  0
ENDBLK
  5
2E3C
330
2E16
100
AcDbEntity
  8
0
100
AcDbBlockEnd
  0
BLOCK
  5
2E67
330
2E4D
100
AcDbEntity
  8
0
100
AcDbBlockBegin
  2
*D19
 70
     1
 10
0.0
 20
0.0
 30
0.0
  3
*D19
  1

  0
LINE
  5
2F00
330
2E4D
100
AcDbEntity
  8
AM_5
100
AcDbLine
 10
996.8941367995666
 20
2232.185699226989
 30
0.0
 11
876.8941357995663
 21
2232.185699226989
 31
0.0
  0
LINE
  5
2F01
330
2E4D
100
AcDbEntity
  8
AM_5
100
AcDbLine
 10
996.8941367995666
 20
2252.185699226989
 30
0.0
 11
876.8941357995663
 21
2252.185699226989
 31
0.0
  0
LINE
  5
2F02
330
2E4D
100
AcDbEntity
  8
AM_5
100
AcDbLine
 10
886.8941357995664
 20
2207.185699226989
 30
0.0
 11
886.8941357995664
 21
2182.185699226989
 31
0.0
  0
LINE
  5
2F03
330
2E4D
100
AcDbEntity
  8
AM_5
100
AcDbLine
 10
886.8941357995664
 20
2277.185699226988
 30
0.0
 11
886.8941357995664
 21
2382.863848833288
 31
0.0
  0
LINE
  5
2F04
330
2E4D
100
AcDbEntity
  8
AM_5
100
AcDbLine
 10
886.8941357995664
 20
2232.185699226989
 30
0.0
 11
886.8941357995664
 21
2252.185699226989
 31
0.0
  0
INSERT
  5
2F05
330
2E4D
100
AcDbEntity
  8
AM_5
100
AcDbBlockReference
  2
_Open30
 10
886.8941357995664
 20
2232.185699226989
 30
0.0
 41
25.0
 42
25.0
 43
25.0
 50
90.0
  0
INSERT
  5
2F06
330
2E4D
100
AcDbEntity
  8
AM_5
100
AcDbBlockReference
  2
_Open30
 10
886.8941357995664
 20
2252.185699226989
 30
0.0
 41
25.0
 42
25.0
 43
25.0
 50
270.0
  0
MTEXT
  5
2F07
330
2E4D
100
AcDbEntity
  8
AM_5
 62
     2
100
AcDbMText
 10
849.3897066657078
 20
2342.524774030138
 30
0.0
 40
45.0
 41
0.0
 71
     5
 72
     1
  1
20
 11
0.0000000000000001
 21
1.0
 31
0.0
 73
     1
 44
1.0
  0
POINT
  5
2F08
330
2E4D
100
AcDbEntity
  8
DEFPOINTS
 62
     0
100
AcDbPoint
 10
1006.894136799566
 20
2232.185699226989
 30
0.0
  0
POINT
  5
2F09
330
2E4D
100
AcDbEntity
  8
DEFPOINTS
 62
     0
100
AcDbPoint
 10
1006.894136799566
 20
2252.185699226989
 30
0.0
  0
POINT
  5
2F0A
330
2E4D
100
AcDbEntity
  8
DEFPOINTS
 62
     0
100
AcDbPoint
 10
886.8941357995664
 20
2252.185699226989
 30
0.0
  0
ENDBLK
  5
2E68
330
2E4D
100
AcDbEntity
  8
0
100
AcDbBlockEnd
  0
BLOCK
  5
309C
330
3083
100
AcDbEntity
  8
0
100
AcDbBlockBegin
  2
*D20
 70
     1
 10
0.0
 20
0.0
 30
0.0
  3
*D20
  1

  0
LINE
  5
308E
330
3083
100
AcDbEntity
  8
AM_5
100
AcDbLine
 10
1006.894136799567
 20
1269.784312224468
 30
0.0
 11
776.8941357995664
 21
1269.784312224468
 31
0.0
  0
LINE
  5
308F
330
3083
100
AcDbEntity
  8
AM_5
100
AcDbLine
 10
864.5909332865395
 20
1169.784312224467
 30
0.0
 11
776.8941357995664
 21
1169.784312224467
 31
0.0
  0
LINE
  5
3090
330
3083
100
AcDbEntity
  8
AM_5
100
AcDbLine
 10
786.8941357995666
 20
1294.784312224467
 30
0.0
 11
786.8941357995666
 21
1319.784312224468
 31
0.0
  0
LINE
  5
3091
330
3083
100
AcDbEntity
  8
AM_5
100
AcDbLine
 10
786.8941357995664
 20
1144.784312224467
 30
0.0
 11
786.8941357995664
 21
1119.784312224467
 31
0.0
  0
LINE
  5
3092
330
3083
100
AcDbEntity
  8
AM_5
100
AcDbLine
 10
786.8941357995664
 20
1269.784312224468
 30
0.0
 11
786.8941357995664
 21
1169.784312224467
 31
0.0
  0
INSERT
  5
3093
330
3083
100
AcDbEntity
  8
AM_5
100
AcDbBlockReference
  2
_Open30
 10
786.8941357995664
 20
1269.784312224468
 30
0.0
 41
25.0
 42
25.0
 43
25.0
 50
270.0
  0
INSERT
  5
3094
330
3083
100
AcDbEntity
  8
AM_5
100
AcDbBlockReference
  2
_Open30
 10
786.8941357995664
 20
1169.784312224467
 30
0.0
 41
25.0
 42
25.0
 43
25.0
 50
90.0
  0
MTEXT
  5
3095
330
3083
100
AcDbEntity
  8
AM_5
 62
     2
100
AcDbMText
 10
749.3941357995663
 20
1219.784312224468
 30
0.0
 40
45.0
 41
0.0
 71
     5
 72
     1
  1
100
 11
0.0000000000000001
 21
1.0
 31
0.0
 73
     1
 44
1.0
  0
POINT
  5
3096
330
3083
100
AcDbEntity
  8
DEFPOINTS
 62
     0
100
AcDbPoint
 10
1016.894136799566
 20
1269.784312224468
 30
0.0
  0
POINT
  5
3097
330
3083
100
AcDbEntity
  8
DEFPOINTS
 62
     0
100
AcDbPoint
 10
874.5909332865394
 20
1169.784312224467
 30
0.0
  0
POINT
  5
3098
330
3083
100
AcDbEntity
  8
DEFPOINTS
 62
     0
100
AcDbPoint
 10
786.8941357995664
 20
1169.784312224467
 30
0.0
  0
ENDBLK
  5
309D
330
3083
100
AcDbEntity
  8
0
100
AcDbBlockEnd
  0
BLOCK
  5
30ED
330
30AE
100
AcDbEntity
  8
0
100
AcDbBlockBegin
  2
*D21
 70
     1
 10
0.0
 20
0.0
 30
0.0
  3
*D21
  1

  0
LINE
  5
30CA
330
30AE
100
AcDbEntity
  8
AM_5
100
AcDbLine
 10
2183.394636164722
 20
1169.784312224467
 30
0.0
 11
2303.394636164721
 21
1169.784312224467
 31
0.0
  0
LINE
  5
30CB
330
30AE
100
AcDbEntity
  8
AM_5
100
AcDbLine
 10
2004.394136799567
 20
869.7843122244675
 30
0.0
 11
2303.394636164721
 21
869.7843122244675
 31
0.0
  0
LINE
  5
30CC
330
30AE
100
AcDbEntity
  8
AM_5
100
AcDbLine
 10
2293.394636164721
 20
1144.784312224467
 30
0.0
 11
2293.394636164721
 21
894.7843122244675
 31
0.0
  0
INSERT
  5
30CD
330
30AE
100
AcDbEntity
  8
AM_5
100
AcDbBlockReference
  2
_Open30
 10
2293.394636164721
 20
1169.784312224467
 30
0.0
 41
25.0
 42
25.0
 43
25.0
 50
90.0
  0
INSERT
  5
30CE
330
30AE
100
AcDbEntity
  8
AM_5
100
AcDbBlockReference
  2
_Open30
 10
2293.394636164721
 20
869.7843122244675
 30
0.0
 41
25.0
 42
25.0
 43
25.0
 50
270.0
  0
MTEXT
  5
30CF
330
30AE
100
AcDbEntity
  8
AM_5
 62
     2
100
AcDbMText
 10
2255.894636164721
 20
1019.784312224468
 30
0.0
 40
45.0
 41
0.0
 71
     5
 72
     1
  1
300
 11
0.0000000000000001
 21
1.0
 31
0.0
 73
     1
 44
1.0
  0
POINT
  5
30D0
330
30AE
100
AcDbEntity
  8
DEFPOINTS
 62
     0
100
AcDbPoint
 10
2173.394636164721
 20
1169.784312224467
 30
0.0
  0
POINT
  5
30D1
330
30AE
100
AcDbEntity
  8
DEFPOINTS
 62
     0
100
AcDbPoint
 10
1994.394136799567
 20
869.7843122244675
 30
0.0
  0
POINT
  5
30D2
330
30AE
100
AcDbEntity
  8
DEFPOINTS
 62
     0
100
AcDbPoint
 10
2293.394636164721
 20
869.7843122244675
 30
0.0
  0
ENDBLK
  5
30EE
330
30AE
100
AcDbEntity
  8
0
100
AcDbBlockEnd
  0
BLOCK
  5
30EF
330
30D4
100
AcDbEntity
  8
0
100
AcDbBlockBegin
  2
*D22
 70
     1
 10
0.0
 20
0.0
 30
0.0
  3
*D22
  1

  0
LINE
  5
30DF
330
30D4
100
AcDbEntity
  8
AM_5
100
AcDbLine
 10
2004.394136799567
 20
769.7843122244676
 30
0.0
 11
2303.39463616472
 21
769.7843122244676
 31
0.0
  0
LINE
  5
30E0
330
30D4
100
AcDbEntity
  8
AM_5
100
AcDbLine
 10
2004.394136799567
 20
869.7843122244675
 30
0.0
 11
2303.39463616472
 21
869.7843122244675
 31
0.0
  0
LINE
  5
30E1
330
30D4
100
AcDbEntity
  8
AM_5
100
AcDbLine
 10
2293.394636164721
 20
744.7843122244676
 30
0.0
 11
2293.394636164721
 21
719.7843122244676
 31
0.0
  0
LINE
  5
30E2
330
30D4
100
AcDbEntity
  8
AM_5
100
AcDbLine
 10
2293.394636164721
 20
894.7843122244675
 30
0.0
 11
2293.394636164721
 21
919.7843122244675
 31
0.0
  0
LINE
  5
30E3
330
30D4
100
AcDbEntity
  8
AM_5
100
AcDbLine
 10
2293.394636164721
 20
769.7843122244676
 30
0.0
 11
2293.394636164721
 21
869.7843122244675
 31
0.0
  0
INSERT
  5
30E4
330
30D4
100
AcDbEntity
  8
AM_5
100
AcDbBlockReference
  2
_Open30
 10
2293.394636164721
 20
769.7843122244676
 30
0.0
 41
25.0
 42
25.0
 43
25.0
 50
90.0
  0
INSERT
  5
30E5
330
30D4
100
AcDbEntity
  8
AM_5
100
AcDbBlockReference
  2
_Open30
 10
2293.394636164721
 20
869.7843122244675
 30
0.0
 41
25.0
 42
25.0
 43
25.0
 50
270.0
  0
MTEXT
  5
30E6
330
30D4
100
AcDbEntity
  8
AM_5
 62
     2
100
AcDbMText
 10
2255.89463616472
 20
819.7843122244679
 30
0.0
 40
45.0
 41
0.0
 71
     5
 72
     1
  1
100
 11
0.0000000000000001
 21
1.0
 31
0.0
 73
     1
 44
1.0
  0
POINT
  5
30E7
330
30D4
100
AcDbEntity
  8
DEFPOINTS
 62
     0
100
AcDbPoint
 10
1994.394136799567
 20
769.7843122244676
 30
0.0
  0
POINT
  5
30E8
330
30D4
100
AcDbEntity
  8
DEFPOINTS
 62
     0
100
AcDbPoint
 10
1994.394136799567
 20
869.7843122244675
 30
0.0
  0
POINT
  5
30E9
330
30D4
100
AcDbEntity
  8
DEFPOINTS
 62
     0
100
AcDbPoint
 10
2293.394636164721
 20
869.7843122244675
 30
0.0
  0
ENDBLK
  5
30F0
330
30D4
100
AcDbEntity
  8
0
100
AcDbBlockEnd
  0
BLOCK
  5
3142
330
3101
100
AcDbEntity
  8
0
100
AcDbBlockBegin
  2
*D23
 70
     1
 10
0.0
 20
0.0
 30
0.0
  3
*D23
  1

  0
LINE
  5
3114
330
3101
100
AcDbEntity
  8
AM_5
100
AcDbLine
 10
1744.394136799567
 20
859.7843122244675
 30
0.0
 11
1744.394136799567
 21
639.7843112244649
 31
0.0
  0
LINE
  5
3115
330
3101
100
AcDbEntity
  8
AM_5
100
AcDbLine
 10
1944.394136799567
 20
859.7843122244675
 30
0.0
 11
1944.394136799567
 21
639.7843112244649
 31
0.0
  0
LINE
  5
3116
330
3101
100
AcDbEntity
  8
AM_5
100
AcDbLine
 10
1769.394136799567
 20
649.784311224465
 30
0.0
 11
1919.394136799567
 21
649.784311224465
 31
0.0
  0
INSERT
  5
3117
330
3101
100
AcDbEntity
  8
AM_5
100
AcDbBlockReference
  2
_Open30
 10
1744.394136799567
 20
649.784311224465
 30
0.0
 41
25.0
 42
25.0
 43
25.0
 50
180.0
  0
INSERT
  5
3118
330
3101
100
AcDbEntity
  8
AM_5
100
AcDbBlockReference
  2
_Open30
 10
1944.394136799567
 20
649.784311224465
 30
0.0
 41
25.0
 42
25.0
 43
25.0
  0
MTEXT
  5
3119
330
3101
100
AcDbEntity
  8
AM_5
 62
     2
100
AcDbMText
 10
1844.394136799567
 20
687.2887403583233
 30
0.0
 40
45.0
 41
0.0
 71
     5
 72
     1
  1
{\Famgdt|c128;o}200
 73
     1
 44
1.0
  0
POINT
  5
311A
330
3101
100
AcDbEntity
  8
DEFPOINTS
 62
     0
100
AcDbPoint
 10
1744.394136799567
 20
869.7843122244675
 30
0.0
  0
POINT
  5
311B
330
3101
100
AcDbEntity
  8
DEFPOINTS
 62
     0
100
AcDbPoint
 10
1944.394136799567
 20
869.7843122244675
 30
0.0
  0
POINT
  5
311C
330
3101
100
AcDbEntity
  8
DEFPOINTS
 62
     0
100
AcDbPoint
 10
1944.394136799567
 20
649.784311224465
 30
0.0
  0
ENDBLK
  5
3143
330
3101
100
AcDbEntity
  8
0
100
AcDbBlockEnd
  0
BLOCK
  5
3144
330
312C
100
AcDbEntity
  8
0
100
AcDbBlockBegin
  2
*D24
 70
     1
 10
0.0
 20
0.0
 30
0.0
  3
*D24
  1

  0
LINE
  5
3147
330
312C
100
AcDbEntity
  8
AM_5
100
AcDbLine
 10
1694.394136799567
 20
759.7843122244675
 30
0.0
 11
1694.394136799567
 21
530.5344443529884
 31
0.0
  0
LINE
  5
3148
330
312C
100
AcDbEntity
  8
AM_5
100
AcDbLine
 10
1994.394136799567
 20
759.7843122244675
 30
0.0
 11
1994.394136799567
 21
530.5344443529884
 31
0.0
  0
LINE
  5
3149
330
312C
100
AcDbEntity
  8
AM_5
100
AcDbLine
 10
1719.394136799567
 20
540.5344443529884
 30
0.0
 11
1969.394136799566
 21
540.5344443529884
 31
0.0
  0
INSERT
  5
314A
330
312C
100
AcDbEntity
  8
AM_5
100
AcDbBlockReference
  2
_Open30
 10
1694.394136799567
 20
540.5344443529884
 30
0.0
 41
25.0
 42
25.0
 43
25.0
 50
180.0
  0
INSERT
  5
314B
330
312C
100
AcDbEntity
  8
AM_5
100
AcDbBlockReference
  2
_Open30
 10
1994.394136799567
 20
540.5344443529884
 30
0.0
 41
25.0
 42
25.0
 43
25.0
  0
MTEXT
  5
314C
330
312C
100
AcDbEntity
  8
AM_5
 62
     2
100
AcDbMText
 10
1844.394136799566
 20
578.0344443529884
 30
0.0
 40
45.0
 41
0.0
 71
     5
 72
     1
  1
{\Famgdt|c128;o}300
 73
     1
 44
1.0
  0
POINT
  5
314D
330
312C
100
AcDbEntity
  8
DEFPOINTS
 62
     0
100
AcDbPoint
 10
1694.394136799567
 20
769.7843122244676
 30
0.0
  0
POINT
  5
314E
330
312C
100
AcDbEntity
  8
DEFPOINTS
 62
     0
100
AcDbPoint
 10
1994.394136799567
 20
769.7843122244676
 30
0.0
  0
POINT
  5
314F
330
312C
100
AcDbEntity
  8
DEFPOINTS
 62
     0
100
AcDbPoint
 10
1994.394136799567
 20
540.5344443529884
 30
0.0
  0
ENDBLK
  5
3145
330
312C
100
AcDbEntity
  8
0
100
AcDbBlockEnd
  0
BLOCK
  5
3170
330
316F
100
AcDbEntity
  8
0
100
AcDbBlockBegin
  2
NAKAMURA
 70
     0
 10
0.0
 20
0.0
 30
0.0
  3
NAKAMURA
  1

  0
CIRCLE
  5
3171
330
316F
100
AcDbEntity
  8
0
100
AcDbCircle
 10
0.0
 20
-0.0000000000000071
 30
0.0
 40
5.75
  0
LINE
  5
3172
330
316F
100
AcDbEntity
  8
0
100
AcDbLine
 10
5.390964663212002
 20
2.0
 30
0.0
 11
-5.390964663211889
 21
1.999999999999985
 31
0.0
  0
TEXT
  5
3173
330
316F
100
AcDbEntity
  8
0
100
AcDbText
 10
-1.40956822548013
 20
2.272712767880801
 30
0.0
 40
2.875000000632499
  1
藤
 50
0.000000000000708
 72
     4
 11
-0.0679015585183152
 21
3.710212768197067
 31
0.0
100
AcDbText
  0
TEXT
  5
3174
330
316F
100
AcDbEntity
  8
0
100
AcDbText
 10
-1.227410318497265
 20
-5.354429741660606
 30
0.0
 40
2.875000000632499
  1
繁
 50
0.000000000000708
 72
     4
 11
0.1142563484645507
 21
-3.91692974134434
 31
0.0
100
AcDbText
  0
LINE
  5
3175
330
316F
100
AcDbEntity
  8
0
100
AcDbLine
 10
5.390964663212002
 20
-1.999999999999964
 30
0.0
 11
-5.390964663211889
 21
-2.000000000000021
 31
0.0
  0
ENDBLK
  5
3176
330
316F
100
AcDbEntity
  8
0
100
AcDbBlockEnd
  0
BLOCK
  5
31F3
330
31EF
100
AcDbEntity
  8
0
100
AcDbBlockBegin
  2
*S26
 70
     1
 10
0.0
 20
0.0
 30
0.0
  3
*S26
  1

  0
CIRCLE
  5
31F0
330
31EF
100
AcDbEntity
  8
AM_12
 62
     4
100
AcDbCircle
 10
2105.405974025376
 20
1658.841180164796
 30
0.0
 40
15.75
  0
LINE
  5
31F1
330
31EF
100
AcDbEntity
  8
AM_12
 62
     4
100
AcDbLine
 10
2089.655974025376
 20
1643.091180164796
 30
0.0
 11
2121.155974025376
 21
1674.591180164796
 31
0.0
  0
LINE
  5
31F2
330
31EF
100
AcDbEntity
  8
AM_12
 62
     4
100
AcDbLine
 10
2089.655974025376
 20
1674.591180164796
 30
0.0
 11
2121.155974025376
 21
1643.091180164796
 31
0.0
  0
ENDBLK
  5
31F4
330
31EF
100
AcDbEntity
  8
0
100
AcDbBlockEnd
  0
BLOCK
  5
31FB
330
31F6
100
AcDbEntity
  8
0
100
AcDbBlockBegin
  2
*S27
 70
     1
 10
0.0
 20
0.0
 30
0.0
  3
*S27
  1

  0
LINE
  5
31F7
330
31F6
100
AcDbEntity
  8
AM_5
100
AcDbLine
 10
2324.891342176618
 20
1907.40494773826
 30
0.0
 11
2126.255834781384
 21
1682.453323363901
 31
0.0
  0
TRACE
  5
31F8
330
31F6
100
AcDbEntity
  8
AM_5
100
AcDbTrace
 10
2123.147237169701
 20
1685.198259594532
 30
0.0
 11
2129.364432393068
 21
1679.708387133271
 31
0.0
 12
2105.405974025376
 22
1658.841180164796
 32
0.0
 13
2105.405974025376
 23
1658.841180164796
 33
0.0
  0
MTEXT
  5
31F9
330
31F6
100
AcDbEntity
  8
AM_5
 62
     2
100
AcDbMText
 10
2357.903621706964
 20
1944.790841136843
 30
0.0
 40
35.0
 41
0.0
 71
     5
 72
     5
  1
1
  7
ACJISTS
 73
     1
 44
1.0
  0
CIRCLE
  5
31FA
330
31F6
100
AcDbEntity
  8
AM_5
 62
     3
100
AcDbCircle
 10
2357.903621706964
 20
1944.790841136843
 30
0.0
 40
49.875
  0
ENDBLK
  5
31FC
330
31F6
100
AcDbEntity
  8
0
100
AcDbBlockEnd
  0
BLOCK
  5
3219
330
31FE
100
AcDbEntity
  8
0
100
AcDbBlockBegin
  2
*S28
 70
     1
 10
0.0
 20
0.0
 30
0.0
  3
*S28
  1

  0
MTEXT
  5
31FF
330
31FE
100
AcDbEntity
  8
0
 62
     7
100
AcDbMText
 10
2644.5
 20
2782.25
 30
0.0
 40
45.0
 41
98.99999999999998
 71
     2
 72
     5
  1
1
  7
ACJISTS
 73
     1
 44
1.0
  0
LINE
  5
3200
330
31FE
100
AcDbEntity
  8
0
 62
     1
100
AcDbLine
 10
2703.0
 20
2795.75
 30
0.0
 11
2703.0
 21
2721.5
 31
0.0
  0
MTEXT
  5
3201
330
31FE
100
AcDbEntity
  8
0
 62
     7
100
AcDbMText
 10
2928.0
 20
2782.25
 30
0.0
 40
45.0
 41
432.0
 71
     2
 72
     5
  1
フェンス
  7
ACJISTS
 73
     1
 44
1.0
  0
LINE
  5
3202
330
31FE
100
AcDbEntity
  8
0
 62
     1
100
AcDbLine
 10
3153.0
 20
2795.75
 30
0.0
 11
3153.0
 21
2721.5
 31
0.0
  0
MTEXT
  5
3203
330
31FE
100
AcDbEntity
  8
0
 62
     7
100
AcDbMText
 10
3211.5
 20
2782.25
 30
0.0
 40
45.0
 41
99.0
 71
     2
 72
     5
  1
1
  7
ACJISTS
 73
     1
 44
1.0
  0
LINE
  5
3204
330
31FE
100
AcDbEntity
  8
0
 62
     1
100
AcDbLine
 10
3270.0
 20
2795.75
 30
0.0
 11
3270.0
 21
2721.5
 31
0.0
  0
MTEXT
  5
3205
330
31FE
100
AcDbEntity
  8
0
 62
     7
100
AcDbMText
 10
3385.0
 20
2782.25
 30
0.0
 40
45.0
 41
212.0
 71
     2
 72
     5
  1
FCD
  7
ACJISTS
 73
     1
 44
1.0
  0
LINE
  5
3206
330
31FE
100
AcDbEntity
  8
0
 62
     1
100
AcDbLine
 10
3500.0
 20
2795.75
 30
0.0
 11
3500.0
 21
2721.5
 31
0.0
  0
MTEXT
  5
3207
330
31FE
100
AcDbEntity
  8
0
 62
     7
100
AcDbMText
 10
3600.0
 20
2782.25
 30
0.0
 40
45.0
 41
182.0
 71
     2
 72
     5
  1
32
  7
ACJISTS
 73
     1
 44
1.0
  0
LINE
  5
3208
330
31FE
100
AcDbEntity
  8
0
 62
     1
100
AcDbLine
 10
3700.0
 20
2795.75
 30
0.0
 11
3700.0
 21
2721.5
 31
0.0
  0
LINE
  5
3209
330
31FE
100
AcDbEntity
  8
0
 62
     1
100
AcDbLine
 10
2586.0
 20
2795.75
 30
0.0
 11
4100.0
 21
2795.75
 31
0.0
  0
MTEXT
  5
320A
330
31FE
100
AcDbEntity
  8
0
 62
     7
100
AcDbMText
 10
2644.5
 20
2856.5
 30
0.0
 40
45.0
 41
98.99999999999998
 71
     2
 72
     5
  1
部番
  7
ACJISTS
 73
     1
 44
1.0
  0
LINE
  5
320B
330
31FE
100
AcDbEntity
  8
0
 62
     1
100
AcDbLine
 10
2703.0
 20
2870.0
 30
0.0
 11
2703.0
 21
2795.75
 31
0.0
  0
MTEXT
  5
320C
330
31FE
100
AcDbEntity
  8
0
 62
     7
100
AcDbMText
 10
2928.0
 20
2856.5
 30
0.0
 40
45.0
 41
432.0
 71
     2
 72
     5
  1
部  品  名
  7
ACJISTS
 73
     1
 44
1.0
  0
LINE
  5
320D
330
31FE
100
AcDbEntity
  8
0
 62
     1
100
AcDbLine
 10
3153.0
 20
2870.0
 30
0.0
 11
3153.0
 21
2795.75
 31
0.0
  0
MTEXT
  5
320E
330
31FE
100
AcDbEntity
  8
0
 62
     7
100
AcDbMText
 10
3211.5
 20
2856.5
 30
0.0
 40
45.0
 41
99.0
 71
     2
 72
     5
  1
数量
  7
ACJISTS
 73
     1
 44
1.0
  0
LINE
  5
320F
330
31FE
100
AcDbEntity
  8
0
 62
     1
100
AcDbLine
 10
3270.0
 20
2870.0
 30
0.0
 11
3270.0
 21
2795.75
 31
0.0
  0
MTEXT
  5
3210
330
31FE
100
AcDbEntity
  8
0
 62
     7
100
AcDbMText
 10
3385.0
 20
2856.5
 30
0.0
 40
45.0
 41
212.0
 71
     2
 72
     5
  1
材  質
  7
ACJISTS
 73
     1
 44
1.0
  0
LINE
  5
3211
330
31FE
100
AcDbEntity
  8
0
 62
     1
100
AcDbLine
 10
3500.0
 20
2870.0
 30
0.0
 11
3500.0
 21
2795.75
 31
0.0
  0
MTEXT
  5
3212
330
31FE
100
AcDbEntity
  8
0
 62
     7
100
AcDbMText
 10
3600.0
 20
2856.5
 30
0.0
 40
45.0
 41
182.0
 71
     2
 72
     5
  1
単重
  7
ACJISTS
 73
     1
 44
1.0
  0
LINE
  5
3213
330
31FE
100
AcDbEntity
  8
0
 62
     1
100
AcDbLine
 10
3700.0
 20
2870.0
 30
0.0
 11
3700.0
 21
2795.75
 31
0.0
  0
MTEXT
  5
3214
330
31FE
100
AcDbEntity
  8
0
 62
     7
100
AcDbMText
 10
3900.000000000001
 20
2856.5
 30
0.0
 40
45.0
 41
382.0
 71
     2
 72
     5
  1
備　　考
  7
ACJISTS
 73
     1
 44
1.0
  0
LINE
  5
3215
330
31FE
100
AcDbEntity
  8
0
 62
     7
100
AcDbLine
 10
2586.0
 20
2870.0
 30
0.0
 11
4100.0
 21
2870.0
 31
0.0
  0
LINE
  5
3216
330
31FE
100
AcDbEntity
  8
0
 62
     7
100
AcDbLine
 10
4100.0
 20
2870.0
 30
0.0
 11
4100.0
 21
2721.5
 31
0.0
  0
LINE
  5
3217
330
31FE
100
AcDbEntity
  8
0
 62
     7
100
AcDbLine
 10
4100.0
 20
2721.5
 30
0.0
 11
2586.0
 21
2721.5
 31
0.0
  0
LINE
  5
3218
330
31FE
100
AcDbEntity
  8
0
 62
     7
100
AcDbLine
 10
2586.0
 20
2721.5
 30
0.0
 11
2586.0
 21
2870.0
 31
0.0
  0
ENDBLK
  5
321A
330
31FE
100
AcDbEntity
  8
0
100
AcDbBlockEnd
  0
ENDSEC
  0
SECTION
  2
ENTITIES
  0
INSERT
  5
D4F
330
1F
100
AcDbEntity
  8
0
370
     0
100
AcDbBlockReference
  2
IGS_A3
 10
0.0
 20
0.0
 30
0.0
 41
10.0
 42
10.0
 43
10.0
1001
GENIUS_GENOREF_13
1005
D59
1001
GENIUS_GENOBJ-N-SDF_13
1002
{
1000
OWNER
1000
GEN
1002
}
1001
GENIUS_GENODEF_13
1002
{
1000
HIER
1070
     0
1002
}
1002
{
1000
MANEDIT
1070
     0
1002
}
1002
{
1000
NOSEL
1070
     0
1002
}
1002
{
1000
BEHIND
1070
     0
1002
}
1002
{
1000
OTHER
1070
     0
1002
}
1002
{
1000
REACTOR
1002
}
1001
GENIUS_GENSCREG_15
1040
10.0
1040
1.0
1011
0.0
1021
0.0
1031
0.0
1011
4200.0
1021
2970.0
1031
0.0
1070
     5
  0
INSERT
  5
D50
330
1F
100
AcDbEntity
  8
0
370
     0
100
AcDbBlockReference
 66
     1
  2
IGS2
 10
4100.0
 20
100.0
 30
0.0
 41
10.0
 42
10.0
 43
10.0
1001
GENIUS_GENOREF_13
1005
D59
  0
ATTRIB
  5
D52
330
D50
100
AcDbEntity
  8
RAHM3
100
AcDbText
 10
2627.404132868145
 20
419.4728899818606
 30
0.0
 40
40.0
  1
1:10
100
AcDbAttribute
  2
GEN-TITLE-SCA
 70
     0
  0
ATTRIB
  5
D53
330
D50
100
AcDbEntity
  8
RAHM3
100
AcDbText
 10
3369.1
 20
397.4
 30
0.0
 40
50.0
  1
フェンス
100
AcDbAttribute
  2
ＴＩＴＬＥ
 70
     0
  0
ATTRIB
  5
D54
330
D50
100
AcDbEntity
  8
RAHM3
100
AcDbText
 10
3384.371218441596
 20
318.0438312711385
 30
0.0
 40
30.0
  1

100
AcDbAttribute
  2
ｃｏｄｅ
 70
     0
  0
ATTRIB
  5
D55
330
D50
100
AcDbEntity
  8
RAHM3
100
AcDbText
 10
3392.551935060369
 20
248.0438312710658
 30
0.0
 40
30.0
  1
IF-9
100
AcDbAttribute
  2
件名
 70
     0
  0
ATTRIB
  5
D56
330
D50
100
AcDbEntity
  8
RAHM3
100
AcDbText
 10
3369.1
 20
117.3999999999272
 30
0.0
 40
50.0
  1
Ｔ２４Ｚ０５００６
100
AcDbAttribute
  2
Ｎｏ．
 70
     0
  0
ATTRIB
  5
D57
330
D50
100
AcDbEntity
  8
RAHM3
100
AcDbText
 10
3095.5
 20
274.0708932112656
 30
0.0
 40
40.0
  1

100
AcDbAttribute
  2
ＤＲ
 70
     0
  0
ATTRIB
  5
D58
330
D50
100
AcDbEntity
  8
RAHM3
100
AcDbText
 10
3062.819146961271
 20
227.6999999999999
 30
0.0
 40
30.0
  1

 41
0.8000000000000001
100
AcDbAttribute
  2
ｄａｔｅ
 70
     0
  0
SEQEND
  5
D51
330
D50
100
AcDbEntity
  8
0
370
     0
  0
POINT
  5
D59
330
1F
100
AcDbEntity
  8
0
 60
     1
100
AcDbPoint
 10
0.0
 20
0.0
 30
0.0
1001
GENIUS_GENOBJ-N-TIT_13
1002
{
1000
OWNER
1000
GEN
1002
}
1001
GENIUS_GENODEF_13
1002
{
1000
HIER
1070
     1
1002
}
1002
{
1000
MANEDIT
1070
     0
1002
}
1002
{
1000
NOSEL
1070
     0
1002
}
1002
{
1000
BEHIND
1070
     0
1002
}
1002
{
1000
OTHER
1070
     0
1002
}
1002
{
1000
REACTOR
1002
}
1001
GENIUS_GENOLIS_13
1002
{
1000
ENT
1005
D50
1005
D4F
1002
}
1001
GENIUS_GENOENT_13
1002
{
1000
MYREF
1005
D59
1002
}
1002
{
1000
GRP
1005
0
1002
}
1001
GENIUS_GENTITLE_13
1002
{
1000
BORDER
1000
C:\WINNT\Profiles\Administrator\Application Data\Autodesk\AutoCAD\Recent\format\igs_a3
1002
}
1002
{
1000
TITLE
1000
C:\WINNT\Profiles\Administrator\Application Data\Autodesk\AutoCAD\Recent\format\IGS2
1002
}
1002
{
1000
SCALE
1000
1:10
1002
}
1002
{
1000
TITLESTD
1000
IGS
1002
}
1002
{
1000
HRA
1005
D4F
1002
}
1002
{
1000
HTIT
1005
D50
1002
}
1002
{
1000
UNCHG
1002
{
1000
GEN-TITLE-SIZ
1000
GEN-TITLE-SCA
1002
}
1002
}
1002
{
1000
GENIUSID
1005
D59
1002
}
  0
AMDTACMWBLOCKBOMENTITY
  5
1610
330
1F
100
AcDbEntity
  8
0
 92
        8
310
0800000000000000
1001
ACAD
1000
AcRTDxfName
1000
AMDTACMWBLOCKBOMENTITY
  0
AMDTACMWBLOCKBOMENTITY
  5
1611
330
1F
100
AcDbEntity
  8
AM_5
 92
        8
310
0800000000000000
1001
ACAD
1000
AcRTDxfName
1000
AMDTACMWBLOCKBOMENTITY
  0
AMDTACMWBLOCKBOMENTITY
  5
1613
330
1F
100
AcDbEntity
  8
AM_5
 92
        8
310
0800000000000000
1001
ACAD
1000
AcRTDxfName
1000
AMDTACMWBLOCKBOMENTITY
  0
TEXT
  5
1617
330
1F
100
AcDbEntity
  8
0
100
AcDbText
 10
3150.342074397907
 20
298.9426828606278
 30
0.0
 40
25.00000000000055
  1
松
 72
     4
 11
3162.008741064574
 21
311.4426828606281
 31
0.0
100
AcDbText
  0
TEXT
  5
1618
330
1F
100
AcDbEntity
  8
0
100
AcDbText
 10
3151.926056197411
 20
232.6197045313788
 30
0.0
 40
25.00000000000055
  1
本
 72
     4
 11
3163.592722864078
 21
245.1197045313791
 31
0.0
100
AcDbText
  0
TEXT
  5
1619
330
1F
100
AcDbEntity
  8
TEXT
100
AcDbText
 10
3118.920556433086
 20
266.1364848862718
 30
0.0
 40
26.086956516
  1
05.07.22
 41
0.6884556284158219
 72
     5
 11
3203.51186076231
 21
266.1364848862718
 31
0.0
100
AcDbText
  0
CIRCLE
  5
161A
330
1F
100
AcDbEntity
  8
0
100
AcDbCircle
 10
3162.599189399389
 20
279.1799631442723
 30
0.0
 40
49.99999998900111
  0
LINE
  5
161B
330
1F
100
AcDbEntity
  8
0
100
AcDbLine
 10
3209.477142982223
 20
296.571267488273
 30
0.0
 11
3115.721235816554
 21
296.571267488273
 31
0.0
  0
LINE
  5
161C
330
1F
100
AcDbEntity
  8
0
100
AcDbLine
 10
3209.477142982223
 20
261.7886588002722
 30
0.0
 11
3115.721235816554
 21
261.7886588002716
 31
0.0
  0
TEXT
  5
1627
330
1F
100
AcDbEntity
  8
6
100
AcDbText
 10
2987.659339780318
 20
2641.832497848615
 30
0.0
 40
40.0
  1
表面処理：さび止め塗装の上、樹脂系塗料塗装
 11
2987.659339780318
 21
2641.832497848615
 31
0.0
100
AcDbText
 73
     1
  0
INSERT
  5
1D69
102
{ACAD_REACTORS
330
1D68
102
}
330
1F
100
AcDbEntity
  8
AM_12
100
AcDbBlockReference
  2
*S26
 10
0.0
 20
0.0
 30
0.0
1001
ACAD
1000
AcRTDxfName
1000
ACMPARTREF
  0
INSERT
  5
1D6E
102
{ACAD_REACTORS
330
1D6D
102
}
330
1F
100
AcDbEntity
  8
AM_5
100
AcDbBlockReference
  2
*S27
 10
0.0
 20
0.0
 30
0.0
1001
ACAD
1000
AcRTDxfName
1000
ACMBALLOON
  0
INSERT
  5
1D81
102
{ACAD_REACTORS
330
1D6C
102
}
330
1F
100
AcDbEntity
  8
0
100
AcDbBlockReference
  2
*S28
 10
0.0
 20
0.0
 30
0.0
1001
ACAD
1000
AcRTDxfName
1000
ACMPARTLIST
  0
LINE
  5
29DF
330
1F
100
AcDbEntity
  8
AM_3
100
AcDbLine
 10
1859.394136799567
 20
2232.185699226989
 30
0.0
 11
1859.394136799567
 21
2252.185699226989
 31
0.0
  0
LINE
  5
29E0
330
1F
100
AcDbEntity
  8
AM_3
100
AcDbLine
 10
1829.394136799567
 20
2252.185699226989
 30
0.0
 11
1829.394136799567
 21
2232.185699226989
 31
0.0
  0
LINE
  5
29E1
330
1F
100
AcDbEntity
  8
AM_3
100
AcDbLine
 10
1284.394136799567
 20
2232.185699226989
 30
0.0
 11
1284.394136799567
 21
2252.185699226989
 31
0.0
  0
LINE
  5
29E2
330
1F
100
AcDbEntity
  8
AM_3
100
AcDbLine
 10
1254.394136799567
 20
2252.185699226989
 30
0.0
 11
1254.394136799567
 21
2232.185699226989
 31
0.0
  0
LINE
  5
2A32
330
1F
100
AcDbEntity
  8
1
  6
Continuous
 62
     7
100
AcDbLine
 10
1006.894136799566
 20
2252.185699226989
 30
0.0
 11
1006.894136799566
 21
2232.185699226989
 31
0.0
  0
LINE
  5
2A33
330
1F
100
AcDbEntity
  8
1
  6
Continuous
 62
     7
100
AcDbLine
 10
2106.894136799567
 20
2252.185699226989
 30
0.0
 11
1006.894136799566
 21
2252.185699226989
 31
0.0
  0
LINE
  5
2A34
330
1F
100
AcDbEntity
  8
1
  6
Continuous
 62
     7
100
AcDbLine
 10
2106.894136799567
 20
2232.185699226989
 30
0.0
 11
2106.894136799567
 21
2252.185699226989
 31
0.0
  0
LINE
  5
2A35
330
1F
100
AcDbEntity
  8
1
  6
Continuous
 62
     7
100
AcDbLine
 10
1006.894136799566
 20
2232.185699226989
 30
0.0
 11
2106.894136799567
 21
2232.185699226989
 31
0.0
  0
LINE
  5
2A3A
330
1F
100
AcDbEntity
  8
AM_7
100
AcDbLine
 10
1556.894136799567
 20
1832.466373887067
 30
0.0
 11
1556.894136799567
 21
1224.407979726467
 31
0.0
  0
LINE
  5
2A43
330
1F
100
AcDbEntity
  8
AM_7
100
AcDbLine
 10
1844.394136799566
 20
948.1786725676675
 30
0.0
 11
1844.394136799566
 21
1285.865299683667
 31
0.0
  0
LINE
  5
2A44
330
1F
100
AcDbEntity
  8
AM_7
100
AcDbLine
 10
1269.394136799566
 20
1279.081416549668
 30
0.0
 11
1269.394136799566
 21
948.1786725676675
 31
0.0
  0
ARC
  5
2A48
330
1F
100
AcDbEntity
  8
1
  6
Continuous
 62
     7
100
AcDbCircle
 10
1556.894136799567
 20
987.7843122244676
 30
0.0
 40
600.0
100
AcDbArc
 50
31.33225149758848
 51
148.6677485024115
  0
ARC
  5
2A49
330
1F
100
AcDbEntity
  8
1
  6
Continuous
 62
     7
100
AcDbCircle
 10
1556.894136799567
 20
987.7843122244676
 30
0.0
 40
580.0
100
AcDbArc
 50
32.54290615949153
 51
147.4570938405084
  0
ARC
  5
2A4A
330
1F
100
AcDbEntity
  8
1
  6
Continuous
 62
     7
100
AcDbCircle
 10
1556.894136799567
 20
914.7843122244676
 30
0.0
 40
600.0
100
AcDbArc
 50
39.91621119820865
 51
140.0837888017913
  0
ARC
  5
2A4B
330
1F
100
AcDbEntity
  8
1
  6
Continuous
 62
     7
100
AcDbCircle
 10
1556.894136799567
 20
914.7843122244676
 30
0.0
 40
580.0
100
AcDbArc
 50
41.589802069304
 51
138.410197930696
  0
ARC
  5
2A4C
330
1F
100
AcDbEntity
  8
1
  6
Continuous
 62
     7
100
AcDbCircle
 10
1556.894136799567
 20
841.7843122244676
 30
0.0
 40
600.0
100
AcDbArc
 50
49.75894501499227
 51
130.2410549850077
  0
ARC
  5
2A4D
330
1F
100
AcDbEntity
  8
1
  6
Continuous
 62
     7
100
AcDbCircle
 10
1556.894136799567
 20
841.7843122244676
 30
0.0
 40
580.0
100
AcDbArc
 50
52.15329849090105
 51
127.8467015090989
  0
ARC
  5
2A4E
330
1F
100
AcDbEntity
  8
1
  6
Continuous
 62
     7
100
AcDbCircle
 10
1556.894136799567
 20
1060.784312224467
 30
0.0
 40
580.0
100
AcDbArc
 50
26.29155527469036
 51
153.7084447253096
  0
ARC
  5
2A4F
330
1F
100
AcDbEntity
  8
1
  6
Continuous
 62
     7
100
AcDbCircle
 10
1556.894136799567
 20
1060.784312224467
 30
0.0
 40
600.0
100
AcDbArc
 50
29.92643486660021
 51
150.0735651333998
  0
ARC
  5
2A50
330
1F
100
AcDbEntity
  8
1
  6
Continuous
 62
     7
100
AcDbCircle
 10
1556.894136799567
 20
1136.784312224468
 30
0.0
 40
580.0
100
AcDbArc
 50
26.29155527469036
 51
153.7084447253096
  0
ARC
  5
2A51
330
1F
100
AcDbEntity
  8
1
  6
Continuous
 62
     7
100
AcDbCircle
 10
1556.894136799567
 20
1136.784312224468
 30
0.0
 40
600.0
100
AcDbArc
 50
29.92643486660021
 51
150.0735651333998
  0
ARC
  5
2A52
330
1F
100
AcDbEntity
  8
1
  6
Continuous
 62
     7
100
AcDbCircle
 10
1556.894136799567
 20
773.1499514009674
 30
0.0
 40
600.0
100
AcDbArc
 50
61.36901016311158
 51
118.6309898368884
  0
ARC
  5
2A53
330
1F
100
AcDbEntity
  8
1
  6
Continuous
 62
     7
100
AcDbCircle
 10
1556.894136799567
 20
773.1499514009674
 30
0.0
 40
580.0
100
AcDbArc
 50
65.22908358780878
 51
114.7709164121912
  0
ARC
  5
2A54
330
1F
100
AcDbEntity
  8
1
  6
Continuous
 62
     7
100
AcDbCircle
 10
1556.894136799567
 20
1279.784312224468
 30
0.0
 40
580.0
100
AcDbArc
 50
118.4407176790128
 51
153.7084447253096
  0
ARC
  5
2A55
330
1F
100
AcDbEntity
  8
1
  6
Continuous
 62
     7
100
AcDbCircle
 10
1556.894136799567
 20
1279.784312224468
 30
0.0
 40
580.0
100
AcDbArc
 50
26.29155527469036
 51
61.55928232098715
  0
ARC
  5
2A56
330
1F
100
AcDbEntity
  8
1
  6
Continuous
 62
     7
100
AcDbCircle
 10
1556.894136799567
 20
1349.784312224467
 30
0.0
 40
580.0
100
AcDbArc
 50
130.6572486380187
 51
153.7084447253096
  0
ARC
  5
2A57
330
1F
100
AcDbEntity
  8
1
  6
Continuous
 62
     7
100
AcDbCircle
 10
1556.894136799567
 20
1349.784312224467
 30
0.0
 40
580.0
100
AcDbArc
 50
26.29155527469036
 51
49.34275136198127
  0
ARC
  5
2A58
330
1F
100
AcDbEntity
  8
1
  6
Continuous
 62
     7
100
AcDbCircle
 10
1556.894136799567
 20
1419.784312224467
 30
0.0
 40
580.0
100
AcDbArc
 50
140.362285609305
 51
153.7084447253096
  0
ARC
  5
2A59
330
1F
100
AcDbEntity
  8
1
  6
Continuous
 62
     7
100
AcDbCircle
 10
1556.894136799567
 20
1419.784312224467
 30
0.0
 40
580.0
100
AcDbArc
 50
26.29155527469036
 51
39.63771439069497
  0
ARC
  5
2A5A
330
1F
100
AcDbEntity
  8
1
  6
Continuous
 62
     7
100
AcDbCircle
 10
1556.894136799567
 20
1279.784312224468
 30
0.0
 40
600.0
100
AcDbArc
 50
29.92643486660021
 51
58.21166938289694
  0
ARC
  5
2A5B
330
1F
100
AcDbEntity
  8
1
  6
Continuous
 62
     7
100
AcDbCircle
 10
1556.894136799567
 20
1349.784312224467
 30
0.0
 40
600.0
100
AcDbArc
 50
29.92643486660021
 51
47.16657193388976
  0
ARC
  5
2A5C
330
1F
100
AcDbEntity
  8
1
  6
Continuous
 62
     7
100
AcDbCircle
 10
1556.894136799567
 20
1419.784312224467
 30
0.0
 40
600.0
100
AcDbArc
 50
29.92643486660021
 51
38.07312332289408
  0
ARC
  5
2A5D
330
1F
100
AcDbEntity
  8
1
  6
Continuous
 62
     7
100
AcDbCircle
 10
1556.894136799567
 20
1419.784312224467
 30
0.0
 40
600.0
100
AcDbArc
 50
141.9268766771059
 51
150.0735651333998
  0
ARC
  5
2A5E
330
1F
100
AcDbEntity
  8
1
  6
Continuous
 62
     7
100
AcDbCircle
 10
1556.894136799567
 20
1349.784312224467
 30
0.0
 40
600.0
100
AcDbArc
 50
132.8334280661102
 51
150.0735651333998
  0
ARC
  5
2A5F
330
1F
100
AcDbEntity
  8
1
  6
Continuous
 62
     7
100
AcDbCircle
 10
1556.894136799567
 20
1279.784312224468
 30
0.0
 40
600.0
100
AcDbArc
 50
121.788330617103
 51
150.0735651333998
  0
LINE
  5
2A60
330
1F
100
AcDbEntity
  8
1
  6
Continuous
 62
     7
100
AcDbLine
 10
1869.394136799567
 20
1269.784312224468
 30
0.0
 11
2096.894136799567
 21
1269.784312224468
 31
0.0
  0
LINE
  5
2A61
330
1F
100
AcDbEntity
  8
1
  6
Continuous
 62
     7
100
AcDbLine
 10
1294.394136799567
 20
1269.784312224468
 30
0.0
 11
1819.394136799567
 21
1269.784312224468
 31
0.0
  0
ARC
  5
2A62
330
1F
100
AcDbEntity
  8
1
  6
Continuous
 62
     7
100
AcDbCircle
 10
1869.394136799567
 20
1259.784312224467
 30
0.0
 40
10.0
100
AcDbArc
 50
90.0
 51
180.0
  0
LINE
  5
2A63
330
1F
100
AcDbEntity
  8
1
  6
Continuous
 62
     7
100
AcDbLine
 10
1859.394136799567
 20
1259.784312224467
 30
0.0
 11
1859.394136799567
 21
969.7843122244675
 31
0.0
  0
ARC
  5
2A64
330
1F
100
AcDbEntity
  8
1
  6
Continuous
 62
     7
100
AcDbCircle
 10
1819.394136799567
 20
1259.784312224467
 30
0.0
 40
10.0
100
AcDbArc
 50
0.0
 51
90.0
  0
LINE
  5
2A65
330
1F
100
AcDbEntity
  8
1
  6
Continuous
 62
     7
100
AcDbLine
 10
1829.394136799567
 20
1259.784312224467
 30
0.0
 11
1829.394136799567
 21
969.7843122244675
 31
0.0
  0
LINE
  5
2A66
330
1F
100
AcDbEntity
  8
1
  6
Continuous
 62
     7
100
AcDbLine
 10
1859.394136799567
 20
969.7843122244675
 30
0.0
 11
1829.394136799567
 21
969.7843122244675
 31
0.0
  0
ARC
  5
2A67
330
1F
100
AcDbEntity
  8
1
  6
Continuous
 62
     7
100
AcDbCircle
 10
1244.394136799567
 20
1259.784312224467
 30
0.0
 40
10.0
100
AcDbArc
 50
0.0
 51
90.0
  0
LINE
  5
2A68
330
1F
100
AcDbEntity
  8
1
  6
Continuous
 62
     7
100
AcDbLine
 10
1244.394136799567
 20
1269.784312224468
 30
0.0
 11
1016.894136799566
 21
1269.784312224468
 31
0.0
  0
LINE
  5
2A69
330
1F
100
AcDbEntity
  8
1
  6
Continuous
 62
     7
100
AcDbLine
 10
1254.394136799567
 20
1259.784312224467
 30
0.0
 11
1254.394136799567
 21
969.7843122244675
 31
0.0
  0
ARC
  5
2A6A
330
1F
100
AcDbEntity
  8
1
  6
Continuous
 62
     7
100
AcDbCircle
 10
1294.394136799567
 20
1259.784312224467
 30
0.0
 40
10.0
100
AcDbArc
 50
90.0
 51
180.0
  0
LINE
  5
2A6B
330
1F
100
AcDbEntity
  8
1
  6
Continuous
 62
     7
100
AcDbLine
 10
1284.394136799567
 20
1259.784312224467
 30
0.0
 11
1284.394136799567
 21
969.7843122244675
 31
0.0
  0
LINE
  5
2A6C
330
1F
100
AcDbEntity
  8
1
  6
Continuous
 62
     7
100
AcDbLine
 10
1254.394136799567
 20
969.7843122244675
 30
0.0
 11
1284.394136799567
 21
969.7843122244675
 31
0.0
  0
ARC
  5
2A6D
330
1F
100
AcDbEntity
  8
1
  6
Continuous
 62
     7
100
AcDbCircle
 10
2096.894136799567
 20
1279.784312224468
 30
0.0
 40
10.0
100
AcDbArc
 50
270.0
 51
0.0
  0
ARC
  5
2A6E
330
1F
100
AcDbEntity
  8
1
  6
Continuous
 62
     7
100
AcDbCircle
 10
1016.894136799566
 20
1279.784312224468
 30
0.0
 40
10.0
100
AcDbArc
 50
180.0
 51
270.0
  0
ARC
  5
2A6F
330
1F
100
AcDbEntity
  8
1
  6
Continuous
 62
     7
100
AcDbCircle
 10
1556.894136799567
 20
1209.784312224467
 30
0.0
 40
600.0
100
AcDbArc
 50
104.8351115820219
 51
150.0735651333998
  0
ARC
  5
2A70
330
1F
100
AcDbEntity
  8
1
  6
Continuous
 62
     7
100
AcDbCircle
 10
1556.894136799567
 20
1209.784312224467
 30
0.0
 40
600.0
100
AcDbArc
 50
29.92643486660021
 51
75.16488841797808
  0
ARC
  5
2A71
330
1F
100
AcDbEntity
  8
1
  6
Continuous
 62
     7
100
AcDbCircle
 10
1556.894136799567
 20
1209.784312224467
 30
0.0
 40
580.0
100
AcDbArc
 50
26.29155527469036
 51
153.7084447253096
  0
ARC
  5
2A72
330
1F
100
AcDbEntity
  8
1
  6
Continuous
 62
     7
100
AcDbCircle
 10
2066.894136799567
 20
1309.784312224467
 30
0.0
 40
10.0
100
AcDbArc
 50
270.0
 51
0.0
  0
LINE
  5
2A73
330
1F
100
AcDbEntity
  8
1
  6
Continuous
 62
     7
100
AcDbLine
 10
2076.894136799567
 20
1309.784312224467
 30
0.0
 11
2076.894136799567
 21
1779.784312224467
 31
0.0
  0
LINE
  5
2A74
330
1F
100
AcDbEntity
  8
1
  6
Continuous
 62
     7
100
AcDbLine
 10
2066.894136799567
 20
1299.784312224467
 30
0.0
 11
1046.894136799566
 21
1299.784312224467
 31
0.0
  0
ARC
  5
2A75
330
1F
100
AcDbEntity
  8
1
  6
Continuous
 62
     7
100
AcDbCircle
 10
2066.894136799567
 20
1779.784312224467
 30
0.0
 40
10.0
100
AcDbArc
 50
0.0
 51
90.0
  0
LINE
  5
2A76
330
1F
100
AcDbEntity
  8
1
  6
Continuous
 62
     7
100
AcDbLine
 10
2066.894136799567
 20
1789.784312224467
 30
0.0
 11
1046.894136799566
 21
1789.784312224467
 31
0.0
  0
ARC
  5
2A77
330
1F
100
AcDbEntity
  8
1
  6
Continuous
 62
     7
100
AcDbCircle
 10
1046.894136799566
 20
1779.784312224467
 30
0.0
 40
10.0
100
AcDbArc
 50
90.0
 51
180.0
  0
LINE
  5
2A78
330
1F
100
AcDbEntity
  8
1
  6
Continuous
 62
     7
100
AcDbLine
 10
1036.894136799566
 20
1779.784312224467
 30
0.0
 11
1036.894136799566
 21
1309.784312224467
 31
0.0
  0
ARC
  5
2A79
330
1F
100
AcDbEntity
  8
1
  6
Continuous
 62
     7
100
AcDbCircle
 10
1046.894136799566
 20
1309.784312224467
 30
0.0
 40
10.0
100
AcDbArc
 50
180.0
 51
270.0
  0
ARC
  5
2A7A
330
1F
100
AcDbEntity
  8
1
  6
Continuous
 62
     7
100
AcDbCircle
 10
1016.894136799566
 20
1279.784312224468
 30
0.0
 40
10.0
100
AcDbArc
 50
180.0
 51
270.0
  0
LINE
  5
2A7B
330
1F
100
AcDbEntity
  8
1
  6
Continuous
 62
     7
100
AcDbLine
 10
1006.894136799566
 20
1279.784312224468
 30
0.0
 11
1006.894136799566
 21
1809.784312224467
 31
0.0
  0
ARC
  5
2A7C
330
1F
100
AcDbEntity
  8
1
  6
Continuous
 62
     7
100
AcDbCircle
 10
2096.894136799567
 20
1279.784312224468
 30
0.0
 40
10.0
100
AcDbArc
 50
270.0
 51
0.0
  0
LINE
  5
2A7D
330
1F
100
AcDbEntity
  8
1
  6
Continuous
 62
     7
100
AcDbLine
 10
2106.894136799567
 20
1279.784312224468
 30
0.0
 11
2106.894136799567
 21
1809.784312224467
 31
0.0
  0
ARC
  5
2A7E
330
1F
100
AcDbEntity
  8
1
  6
Continuous
 62
     7
100
AcDbCircle
 10
2096.894136799567
 20
1809.784312224467
 30
0.0
 40
10.0
100
AcDbArc
 50
0.0
 51
90.0
  0
LINE
  5
2A7F
330
1F
100
AcDbEntity
  8
1
  6
Continuous
 62
     7
100
AcDbLine
 10
2096.894136799567
 20
1819.784312224468
 30
0.0
 11
1016.894136799566
 21
1819.784312224468
 31
0.0
  0
ARC
  5
2A80
330
1F
100
AcDbEntity
  8
1
  6
Continuous
 62
     7
100
AcDbCircle
 10
1016.894136799566
 20
1809.784312224467
 30
0.0
 40
10.0
100
AcDbArc
 50
90.0
 51
180.0
  0
LINE
  5
2C1D
330
1F
100
AcDbEntity
  8
AM_7
100
AcDbLine
 10
978.9541367995671
 20
2242.185699226989
 30
0.0
 11
2134.834136799566
 21
2242.185699226989
 31
0.0
1001
GENIUS_GENOBJ-N-CEN_13
1002
{
1000
OWNER
1000
GEN
1002
}
1001
GENIUS_GENODEF_13
1002
{
1000
HIER
1070
     0
1002
}
1002
{
1000
MANEDIT
1070
     0
1002
}
1002
{
1000
NOSEL
1070
     0
1002
}
1002
{
1000
BEHIND
1070
     0
1002
}
1002
{
1000
OTHER
1070
     0
1002
}
1002
{
1000
REACTOR
1002
}
  0
DIMENSION
  5
2C30
330
1F
100
AcDbEntity
  8
AM_5
100
AcDbDimension
  2
*D6
 10
886.8941357995664
 20
1789.784312224467
 30
0.0
 11
849.3941357995661
 21
1804.784312224468
 31
0.0
 70
    32
 71
     5
 42
30.0
  3
IGS
100
AcDbAlignedDimension
 13
1016.894136799566
 23
1819.784312224468
 33
0.0
 14
1046.894136799566
 24
1789.784312224467
 34
0.0
 50
90.0
100
AcDbRotatedDimension
1001
ACAD
1000
DSTYLE
1002
{
1070
   174
1070
     1
1002
}
  0
DIMENSION
  5
2C5C
330
1F
100
AcDbEntity
  8
AM_5
100
AcDbDimension
  2
*D7
 10
886.8941357995664
 20
1299.784312224467
 30
0.0
 11
849.3941357995661
 21
1544.784312224468
 31
0.0
 70
    32
 71
     5
 42
490.0
  3
IGS
100
AcDbAlignedDimension
 13
1046.894136799566
 23
1789.784312224467
 33
0.0
 14
1046.894136799566
 24
1299.784312224467
 34
0.0
 50
90.0
100
AcDbRotatedDimension
1001
ACAD
1000
DSTYLE
1002
{
1070
   174
1070
     1
1002
}
  0
DIMENSION
  5
2C8A
330
1F
100
AcDbEntity
  8
AM_5
100
AcDbDimension
  2
*D8
 10
886.8941357995664
 20
1269.784312224468
 30
0.0
 11
849.3941357995662
 21
1284.784312224468
 31
0.0
 70
    32
 71
     5
 42
30.0
  3
IGS
100
AcDbAlignedDimension
 13
1046.894136799566
 23
1299.784312224467
 33
0.0
 14
1016.894136799566
 24
1269.784312224468
 34
0.0
 50
90.0
100
AcDbRotatedDimension
1001
ACAD
1000
DSTYLE
1002
{
1070
   174
1070
     1
1002
}
  0
DIMENSION
  5
2CAB
330
1F
100
AcDbEntity
  8
AM_5
100
AcDbDimension
  2
*D9
 10
786.8941357995663
 20
1269.784312224468
 30
0.0
 11
749.3941357995662
 21
1544.784312224468
 31
0.0
 70
    32
 71
     5
 42
550.0
  3
IGS
100
AcDbAlignedDimension
 13
1016.894136799566
 23
1819.784312224468
 33
0.0
 14
1016.894136799566
 24
1269.784312224468
 34
0.0
 50
90.0
100
AcDbRotatedDimension
1001
ACAD
1000
DSTYLE
1002
{
1070
   174
1070
     1
1002
}
  0
DIMENSION
  5
2CE2
330
1F
100
AcDbEntity
  8
AM_5
100
AcDbDimension
  2
*D10
 10
786.8941357995654
 20
969.7843122244675
 30
0.0
 11
749.389706665707
 21
1069.784312224468
 31
0.0
 70
    32
 71
     5
 42
200.0
  3
IGS
100
AcDbAlignedDimension
 13
874.5909332865394
 23
1169.784312224467
 33
0.0
 14
1254.394136799567
 24
969.7843122244675
 34
0.0
 50
90.0
100
AcDbRotatedDimension
  0
DIMENSION
  5
2D04
330
1F
100
AcDbEntity
  8
AM_5
100
AcDbDimension
  2
*D11
 10
686.8941357995654
 20
1819.784312224468
 30
0.0
 11
649.3941357995651
 21
1394.784312224468
 31
0.0
 70
    32
 71
     5
 42
850.0
  3
IGS
100
AcDbAlignedDimension
 13
1254.394136799567
 23
969.7843122244675
 33
0.0
 14
1016.894136799566
 24
1819.784312224468
 34
0.0
 50
90.0
100
AcDbRotatedDimension
  0
DIMENSION
  5
2D42
330
1F
100
AcDbEntity
  8
AM_5
100
AcDbDimension
  2
*D12
 10
1269.394136799566
 20
406.7182112143327
 30
0.0
 11
1138.144136799566
 21
444.2226403481909
 31
0.0
 70
    32
 71
     5
 42
262.5
  3
IGS
100
AcDbAlignedDimension
 13
1006.894136799566
 23
1279.784312224468
 33
0.0
 14
1269.394136799566
 24
948.1786725676675
 34
0.0
100
AcDbRotatedDimension
1001
ACAD
1000
DSTYLE
1002
{
1070
   174
1070
     1
1002
}
  0
DIMENSION
  5
2D68
330
1F
100
AcDbEntity
  8
AM_5
100
AcDbDimension
  2
*D13
 10
1844.394136799566
 20
406.7182112143337
 30
0.0
 11
1556.894136799567
 21
444.2182112143337
 31
0.0
 70
    32
 71
     5
 42
575.0
  3
IGS
100
AcDbAlignedDimension
 13
1269.394136799566
 23
948.1786725676675
 33
0.0
 14
1844.394136799566
 24
948.1786725676675
 34
0.0
100
AcDbRotatedDimension
1001
ACAD
1000
DSTYLE
1002
{
1070
   174
1070
     1
1002
}
  0
DIMENSION
  5
2D82
330
1F
100
AcDbEntity
  8
AM_5
100
AcDbDimension
  2
*D14
 10
2106.894136799567
 20
406.7182112143346
 30
0.0
 11
1975.644136799567
 21
444.2226403481928
 31
0.0
 70
    32
 71
     5
 42
262.5
  3
IGS
100
AcDbAlignedDimension
 13
1844.394136799566
 23
948.1786725676675
 33
0.0
 14
2106.894136799567
 24
1279.784312224468
 34
0.0
100
AcDbRotatedDimension
1001
ACAD
1000
DSTYLE
1002
{
1070
   174
1070
     1
1002
}
  0
DIMENSION
  5
2DAE
330
1F
100
AcDbEntity
  8
AM_5
100
AcDbDimension
  2
*D15
 10
1036.894136799566
 20
1939.784313224468
 30
0.0
 11
1021.894136799566
 21
1977.284313224468
 31
0.0
 70
    32
 71
     5
 42
30.0
  3
IGS
100
AcDbAlignedDimension
 13
1006.894136799566
 23
1809.784312224467
 33
0.0
 14
1036.894136799566
 24
1779.784312224467
 34
0.0
100
AcDbRotatedDimension
1001
ACAD
1000
DSTYLE
1002
{
1070
   174
1070
     1
1002
}
  0
DIMENSION
  5
2DDA
330
1F
100
AcDbEntity
  8
AM_5
100
AcDbDimension
  2
*D16
 10
1036.894136799566
 20
1939.784313224467
 30
0.0
 11
1556.894136799567
 21
1977.284313224467
 31
0.0
 70
    32
 71
     5
 42
1040.0
  3
IGS
100
AcDbAlignedDimension
 13
2076.894136799567
 23
1779.784312224467
 33
0.0
 14
1036.894136799566
 24
1779.784312224467
 34
0.0
100
AcDbRotatedDimension
1001
ACAD
1000
DSTYLE
1002
{
1070
   174
1070
     1
1002
}
  0
DIMENSION
  5
2DF4
330
1F
100
AcDbEntity
  8
AM_5
100
AcDbDimension
  2
*D17
 10
2076.894136799567
 20
1939.784313224468
 30
0.0
 11
2091.894136799567
 21
1977.284313224468
 31
0.0
 70
    32
 71
     5
 42
30.0
  3
IGS
100
AcDbAlignedDimension
 13
2106.894136799567
 23
1809.784312224467
 33
0.0
 14
2076.894136799567
 24
1779.784312224467
 34
0.0
100
AcDbRotatedDimension
1001
ACAD
1000
DSTYLE
1002
{
1070
   174
1070
     1
1002
}
  0
DIMENSION
  5
2E15
330
1F
100
AcDbEntity
  8
AM_5
100
AcDbDimension
  2
*D18
 10
2106.894136799567
 20
2039.784313224468
 30
0.0
 11
1556.894136799567
 21
2077.284313224468
 31
0.0
 70
    32
 71
     5
 42
1100.0
  3
IGS
100
AcDbAlignedDimension
 13
1006.894136799566
 23
1809.784312224468
 33
0.0
 14
2106.894136799567
 24
1809.784312224467
 34
0.0
100
AcDbRotatedDimension
  0
DIMENSION
  5
2E4C
330
1F
100
AcDbEntity
  8
AM_5
100
AcDbDimension
  2
*D19
 10
886.8941357995664
 20
2252.185699226989
 30
0.0
 11
849.3897066657078
 21
2342.524774030138
 31
0.0
 70
    32
 71
     5
 42
20.0
  3
IGS
100
AcDbAlignedDimension
 13
1006.894136799566
 23
2232.185699226989
 33
0.0
 14
1006.894136799566
 24
2252.185699226989
 34
0.0
 50
90.0
100
AcDbRotatedDimension
  0
LINE
  5
2FB4
330
1F
100
AcDbEntity
  8
1
  6
Continuous
 62
     7
100
AcDbLine
 10
874.5909332865394
 20
1169.784312224467
 30
0.0
 11
2173.394636164721
 21
1169.784312224467
 31
0.0
  0
LWPOLYLINE
  5
2FE3
330
1F
100
AcDbEntity
  8
0
100
AcDbPolyline
 90
        4
 70
     1
 43
0.0
 10
1169.394136799566
 20
869.7843122244675
 10
1369.394136799567
 20
869.7843122244675
 10
1369.394136799567
 20
1169.784312224467
 10
1169.394136799566
 20
1169.784312224467
1001
GENIUS_GENREC_14
1002
{
1000
PYDIR
1011
1169.394136799566
1021
1169.784312224467
1031
0.0
1002
}
1002
{
1000
PXDIR
1011
1369.394136799567
1021
869.7843122244675
1031
0.0
1002
}
1002
{
1000
PORI
1011
1169.394136799566
1021
869.7843122244675
1031
0.0
1002
}
1002
{
1000
PINS
1011
1269.394136799566
1021
869.7843122244675
1031
0.0
1002
}
1002
{
1000
HVAL
1000
300
1002
}
1002
{
1000
H
1070
     2
1002
}
1002
{
1000
WVAL
1000
200
1002
}
1002
{
1000
W
1070
     2
1002
}
1002
{
1000
C
1070
     2
1002
}
1001
GENIUS_GENOBJ-N-REC_13
1002
{
1000
OWNER
1000
GEN
1002
}
1001
GENIUS_GENODEF_13
1002
{
1000
HIER
1070
     0
1002
}
1002
{
1000
MANEDIT
1070
     0
1002
}
1002
{
1000
NOSEL
1070
     0
1002
}
1002
{
1000
BEHIND
1070
     0
1002
}
1002
{
1000
OTHER
1070
     0
1002
}
1002
{
1000
REACTOR
1002
}
  0
LWPOLYLINE
  5
2FF3
330
1F
100
AcDbEntity
  8
0
100
AcDbPolyline
 90
        4
 70
     1
 43
0.0
 10
1119.394136799567
 20
769.7843122244676
 10
1419.394136799567
 20
769.7843122244676
 10
1419.394136799567
 20
869.7843122244675
 10
1119.394136799567
 20
869.7843122244675
1001
GENIUS_GENREC_14
1002
{
1000
PYDIR
1011
1119.394136799567
1021
869.7843122244675
1031
0.0
1002
}
1002
{
1000
PXDIR
1011
1419.394136799567
1021
769.7843122244676
1031
0.0
1002
}
1002
{
1000
PORI
1011
1119.394136799567
1021
769.7843122244676
1031
0.0
1002
}
1002
{
1000
PINS
1011
1269.394136799566
1021
769.7843122244676
1031
0.0
1002
}
1002
{
1000
HVAL
1000
100
1002
}
1002
{
1000
H
1070
     2
1002
}
1002
{
1000
WVAL
1000
300
1002
}
1002
{
1000
W
1070
     2
1002
}
1002
{
1000
C
1070
     2
1002
}
1001
GENIUS_GENOBJ-N-REC_13
1002
{
1000
OWNER
1000
GEN
1002
}
1001
GENIUS_GENODEF_13
1002
{
1000
HIER
1070
     0
1002
}
1002
{
1000
MANEDIT
1070
     0
1002
}
1002
{
1000
NOSEL
1070
     0
1002
}
1002
{
1000
BEHIND
1070
     0
1002
}
1002
{
1000
OTHER
1070
     0
1002
}
1002
{
1000
REACTOR
1002
}
  0
HATCH
  5
3018
330
1F
100
AcDbEntity
  8
0
100
AcDbHatch
 10
0.0
 20
0.0
 30
0.0
210
0.0
220
0.0
230
1.0
  2
PLAST
 70
     0
 71
     0
 91
        1
 92
        7
 72
     0
 73
     1
 93
        8
 10
1369.394136799567
 20
1169.784312224467
 10
1284.394136799567
 20
1169.784312224467
 10
1284.394136799566
 20
969.7843122244675
 10
1254.394136799567
 20
969.7843122244675
 10
1254.394136799567
 20
1169.784312224467
 10
1169.394136799566
 20
1169.784312224467
 10
1169.394136799567
 20
869.7843122244675
 10
1369.394136799567
 20
869.7843122244677
 97
        0
 75
     0
 76
     1
 52
45.0
 41
10.0
 77
     0
 78
     3
 53
45.0
 43
0.0
 44
0.0
 45
-44.90128060534575
 46
44.90128060534576
 79
     0
 53
45.0
 43
-5.61266007566822
 44
5.612660075668221
 45
-44.90128060534575
 46
44.90128060534576
 79
     0
 53
45.0
 43
-11.22532015133644
 44
11.22532015133644
 45
-44.90128060534575
 46
44.90128060534576
 79
     0
 47
1.52802498862812
 98
        1
 10
1315.069533925398
 20
937.4286184451531
  0
LINE
  5
302D
330
1F
100
AcDbEntity
  8
AM_0
100
AcDbLine
 10
1164.500039514727
 20
769.7843122244667
 30
0.0
 11
1152.935473780924
 21
789.8147276428826
 31
0.0
  0
LINE
  5
302E
330
1F
100
AcDbEntity
  8
AM_0
100
AcDbLine
 10
1141.370908047122
 20
769.7843122244667
 30
0.0
 11
1199.105934966085
 21
869.7843122244666
 31
0.0
  0
LINE
  5
302F
330
1F
100
AcDbEntity
  8
AM_0
100
AcDbLine
 10
1187.262310508077
 20
849.2705529174308
 30
0.0
 11
1175.418686050069
 21
869.7843122244666
 31
0.0
  0
LINE
  5
3030
330
1F
100
AcDbEntity
  8
AM_0
100
AcDbLine
 10
1257.262310508077
 20
849.2705529174308
 30
0.0
 11
1245.418686050069
 21
869.7843122244666
 31
0.0
  0
LINE
  5
3031
330
1F
100
AcDbEntity
  8
AM_0
100
AcDbLine
 10
1211.370908047122
 20
769.7843122244667
 30
0.0
 11
1269.105934966084
 21
869.7843122244666
 31
0.0
  0
LINE
  5
3032
330
1F
100
AcDbEntity
  8
AM_0
100
AcDbLine
 10
1234.500039514727
 20
769.7843122244667
 30
0.0
 11
1222.935473780925
 21
789.8147276428826
 31
0.0
  0
LINE
  5
3033
330
1F
100
AcDbEntity
  8
AM_0
100
AcDbLine
 10
1304.500039514727
 20
769.7843122244659
 30
0.0
 11
1292.935473780924
 21
789.8147276428818
 31
0.0
  0
LINE
  5
3034
330
1F
100
AcDbEntity
  8
AM_0
100
AcDbLine
 10
1281.370908047121
 20
769.7843122244659
 30
0.0
 11
1339.105934966084
 21
869.7843122244659
 31
0.0
  0
LINE
  5
3035
330
1F
100
AcDbEntity
  8
AM_0
100
AcDbLine
 10
1327.262310508076
 20
849.2705529174301
 30
0.0
 11
1315.418686050068
 21
869.7843122244659
 31
0.0
  0
LINE
  5
3036
330
1F
100
AcDbEntity
  8
AM_0
100
AcDbLine
 10
1374.500039514726
 20
769.7843122244651
 30
0.0
 11
1362.935473780924
 21
789.814727642881
 31
0.0
  0
LINE
  5
3037
330
1F
100
AcDbEntity
  8
AM_0
100
AcDbLine
 10
1351.370908047121
 20
769.7843122244651
 30
0.0
 11
1409.105934966084
 21
869.784312224465
 31
0.0
  0
LINE
  5
3038
330
1F
100
AcDbEntity
  8
AM_0
100
AcDbLine
 10
1397.262310508076
 20
849.2705529174292
 30
0.0
 11
1385.418686050068
 21
869.784312224465
 31
0.0
  0
LINE
  5
303A
330
1F
100
AcDbEntity
  8
AM_0
100
AcDbLine
 10
1972.262310508076
 20
849.2705529174292
 30
0.0
 11
1960.418686050068
 21
869.784312224465
 31
0.0
  0
LINE
  5
303B
330
1F
100
AcDbEntity
  8
AM_0
100
AcDbLine
 10
1926.370908047121
 20
769.7843122244651
 30
0.0
 11
1984.105934966084
 21
869.784312224465
 31
0.0
  0
LINE
  5
303C
330
1F
100
AcDbEntity
  8
AM_0
100
AcDbLine
 10
1949.500039514727
 20
769.7843122244651
 30
0.0
 11
1937.935473780924
 21
789.814727642881
 31
0.0
  0
LINE
  5
303D
330
1F
100
AcDbEntity
  8
AM_0
100
AcDbLine
 10
1902.262310508076
 20
849.2705529174301
 30
0.0
 11
1890.418686050068
 21
869.7843122244659
 31
0.0
  0
LINE
  5
303E
330
1F
100
AcDbEntity
  8
AM_0
100
AcDbLine
 10
1856.370908047122
 20
769.7843122244659
 30
0.0
 11
1914.105934966084
 21
869.7843122244659
 31
0.0
  0
LINE
  5
303F
330
1F
100
AcDbEntity
  8
AM_0
100
AcDbLine
 10
1879.500039514727
 20
769.7843122244659
 30
0.0
 11
1867.935473780924
 21
789.8147276428818
 31
0.0
  0
LINE
  5
3040
330
1F
100
AcDbEntity
  8
AM_0
100
AcDbLine
 10
1809.500039514728
 20
769.7843122244667
 30
0.0
 11
1797.935473780925
 21
789.8147276428826
 31
0.0
  0
LINE
  5
3041
330
1F
100
AcDbEntity
  8
AM_0
100
AcDbLine
 10
1786.370908047122
 20
769.7843122244667
 30
0.0
 11
1844.105934966085
 21
869.7843122244666
 31
0.0
  0
LINE
  5
3042
330
1F
100
AcDbEntity
  8
AM_0
100
AcDbLine
 10
1832.262310508077
 20
849.2705529174308
 30
0.0
 11
1820.418686050069
 21
869.7843122244666
 31
0.0
  0
LINE
  5
3043
330
1F
100
AcDbEntity
  8
AM_0
100
AcDbLine
 10
1762.262310508077
 20
849.2705529174308
 30
0.0
 11
1750.418686050069
 21
869.7843122244666
 31
0.0
  0
LINE
  5
3044
330
1F
100
AcDbEntity
  8
AM_0
100
AcDbLine
 10
1716.370908047122
 20
769.7843122244667
 30
0.0
 11
1774.105934966085
 21
869.7843122244666
 31
0.0
  0
LINE
  5
3045
330
1F
100
AcDbEntity
  8
AM_0
100
AcDbLine
 10
1739.500039514728
 20
769.7843122244667
 30
0.0
 11
1727.935473780925
 21
789.8147276428826
 31
0.0
  0
LWPOLYLINE
  5
3046
330
1F
100
AcDbEntity
  8
0
100
AcDbPolyline
 90
        4
 70
     1
 43
0.0
 10
1694.394136799567
 20
769.7843122244676
 10
1994.394136799567
 20
769.7843122244676
 10
1994.394136799567
 20
869.7843122244675
 10
1694.394136799567
 20
869.7843122244675
1001
GENIUS_GENREC_14
1002
{
1000
PYDIR
1011
1694.394136799567
1021
869.7843122244675
1031
0.0
1002
}
1002
{
1000
PXDIR
1011
1994.394136799567
1021
769.7843122244676
1031
0.0
1002
}
1002
{
1000
PORI
1011
1694.394136799567
1021
769.7843122244676
1031
0.0
1002
}
1002
{
1000
PINS
1011
1844.394136799567
1021
769.7843122244676
1031
0.0
1002
}
1002
{
1000
HVAL
1000
100
1002
}
1002
{
1000
H
1070
     2
1002
}
1002
{
1000
WVAL
1000
300
1002
}
1002
{
1000
W
1070
     2
1002
}
1002
{
1000
C
1070
     2
1002
}
1001
GENIUS_GENOBJ-N-REC_13
1002
{
1000
OWNER
1000
GEN
1002
}
1001
GENIUS_GENODEF_13
1002
{
1000
HIER
1070
     0
1002
}
1002
{
1000
MANEDIT
1070
     0
1002
}
1002
{
1000
NOSEL
1070
     0
1002
}
1002
{
1000
BEHIND
1070
     0
1002
}
1002
{
1000
OTHER
1070
     0
1002
}
1002
{
1000
REACTOR
1002
}
  0
HATCH
  5
3047
330
1F
100
AcDbEntity
  8
0
100
AcDbHatch
 10
0.0
 20
0.0
 30
0.0
210
0.0
220
0.0
230
1.0
  2
PLAST
 70
     0
 71
     0
 91
        1
 92
        7
 72
     0
 73
     1
 93
        8
 10
1944.394136799567
 20
1169.784312224467
 10
1859.394136799567
 20
1169.784312224467
 10
1859.394136799567
 20
969.7843122244675
 10
1829.394136799567
 20
969.7843122244675
 10
1829.394136799567
 20
1169.784312224467
 10
1744.394136799567
 20
1169.784312224467
 10
1744.394136799567
 20
869.7843122244675
 10
1944.394136799567
 20
869.7843122244677
 97
        0
 75
     0
 76
     1
 52
45.0
 41
10.0
 77
     0
 78
     3
 53
45.0
 43
575.0000000000002
 44
0.0
 45
-44.90128060534575
 46
44.90128060534576
 79
     0
 53
45.0
 43
569.387339924332
 44
5.612660075668221
 45
-44.90128060534575
 46
44.90128060534576
 79
     0
 53
45.0
 43
563.7746798486638
 44
11.22532015133644
 45
-44.90128060534575
 46
44.90128060534576
 79
     0
 47
1.52802498862812
 98
        1
 10
1890.069533925398
 20
937.4286184451531
  0
LWPOLYLINE
  5
3048
330
1F
100
AcDbEntity
  8
0
100
AcDbPolyline
 90
        4
 70
     1
 43
0.0
 10
1744.394136799567
 20
869.7843122244675
 10
1944.394136799567
 20
869.7843122244675
 10
1944.394136799567
 20
1169.784312224467
 10
1744.394136799567
 20
1169.784312224467
1001
GENIUS_GENREC_14
1002
{
1000
PYDIR
1011
1744.394136799567
1021
1169.784312224467
1031
0.0
1002
}
1002
{
1000
PXDIR
1011
1944.394136799567
1021
869.7843122244675
1031
0.0
1002
}
1002
{
1000
PORI
1011
1744.394136799567
1021
869.7843122244675
1031
0.0
1002
}
1002
{
1000
PINS
1011
1844.394136799567
1021
869.7843122244675
1031
0.0
1002
}
1002
{
1000
HVAL
1000
300
1002
}
1002
{
1000
H
1070
     2
1002
}
1002
{
1000
WVAL
1000
200
1002
}
1002
{
1000
W
1070
     2
1002
}
1002
{
1000
C
1070
     2
1002
}
1001
GENIUS_GENOBJ-N-REC_13
1002
{
1000
OWNER
1000
GEN
1002
}
1001
GENIUS_GENODEF_13
1002
{
1000
HIER
1070
     0
1002
}
1002
{
1000
MANEDIT
1070
     0
1002
}
1002
{
1000
NOSEL
1070
     0
1002
}
1002
{
1000
BEHIND
1070
     0
1002
}
1002
{
1000
OTHER
1070
     0
1002
}
1002
{
1000
REACTOR
1002
}
  0
DIMENSION
  5
3082
330
1F
100
AcDbEntity
  8
AM_5
100
AcDbDimension
  2
*D20
 10
786.8941357995664
 20
1169.784312224467
 30
0.0
 11
749.3941357995663
 21
1219.784312224468
 31
0.0
 70
    32
 71
     5
 42
100.0
  3
IGS
100
AcDbAlignedDimension
 13
1016.894136799566
 23
1269.784312224468
 33
0.0
 14
874.5909332865394
 24
1169.784312224467
 34
0.0
 50
90.0
100
AcDbRotatedDimension
1001
ACAD
1000
DSTYLE
1002
{
1070
   174
1070
     1
1002
}
  0
DIMENSION
  5
30AD
330
1F
100
AcDbEntity
  8
AM_5
100
AcDbDimension
  2
*D21
 10
2293.394636164721
 20
869.7843122244675
 30
0.0
 11
2255.894636164721
 21
1019.784312224468
 31
0.0
 70
    32
 71
     5
 42
300.0
  3
IGS
100
AcDbAlignedDimension
 13
2173.394636164721
 23
1169.784312224467
 33
0.0
 14
1994.394136799567
 24
869.7843122244675
 34
0.0
 50
90.00000000000003
100
AcDbRotatedDimension
1001
ACAD
1000
DSTYLE
1002
{
1070
   174
1070
     1
1002
}
  0
DIMENSION
  5
30D3
330
1F
100
AcDbEntity
  8
AM_5
100
AcDbDimension
  2
*D22
 10
2293.394636164721
 20
869.7843122244675
 30
0.0
 11
2255.89463616472
 21
819.7843122244679
 31
0.0
 70
    32
 71
     5
 42
100.0
  3
IGS
100
AcDbAlignedDimension
 13
1994.394136799567
 23
769.7843122244676
 33
0.0
 14
1994.394136799567
 24
869.7843122244675
 34
0.0
 50
90.0
100
AcDbRotatedDimension
1001
ACAD
1000
DSTYLE
1002
{
1070
   174
1070
     1
1002
}
  0
DIMENSION
  5
3100
330
1F
100
AcDbEntity
  8
AM_5
100
AcDbDimension
  2
*D23
 10
1944.394136799567
 20
649.784311224465
 30
0.0
 11
1844.394136799567
 21
687.2887403583233
 31
0.0
 70
    32
  1
{\Famgdt;o}<>
 71
     5
 42
200.0
  3
IGS
100
AcDbAlignedDimension
 13
1744.394136799567
 23
869.7843122244675
 33
0.0
 14
1944.394136799567
 24
869.7843122244675
 34
0.0
 50
0.0000000000001132
100
AcDbRotatedDimension
  0
DIMENSION
  5
312B
330
1F
100
AcDbEntity
  8
AM_5
100
AcDbDimension
  2
*D24
 10
1994.394136799567
 20
540.5344443529884
 30
0.0
 11
1844.394136799566
 21
578.0344443529884
 31
0.0
 70
    32
  1
{\Famgdt;o}<>
 71
     5
 42
299.9999999999998
  3
IGS
100
AcDbAlignedDimension
 13
1694.394136799567
 23
769.7843122244676
 33
0.0
 14
1994.394136799567
 24
769.7843122244676
 34
0.0
 50
0.0000000000001132
100
AcDbRotatedDimension
  0
TEXT
  5
316C
330
1F
100
AcDbEntity
  8
0
100
AcDbText
 10
900.1217424858932
 20
1176.696833189332
 30
0.0
 40
50.0
  1
G.L
 11
900.1217424858932
 21
1176.696833189332
 31
0.0
100
AcDbText
 73
     1
  0
CIRCLE
  5
318A
330
1F
100
AcDbEntity
  8
0
100
AcDbCircle
 10
2911.479954303747
 20
416.5431103274875
 30
0.0
 40
49.99999998900111
  0
LINE
  5
318B
330
1F
100
AcDbEntity
  8
0
100
AcDbLine
 10
2958.357907886581
 20
433.9344146714877
 30
0.0
 11
2864.602000720912
 21
433.9344146714877
 31
0.0
  0
TEXT
  5
318C
330
1F
100
AcDbEntity
  8
0
100
AcDbText
 10
2899.222839302269
 20
436.3058300438425
 30
0.0
 40
25.00000000000055
  1
梅
 72
     4
 11
2910.889505968936
 21
448.8058300438428
 31
0.0
100
AcDbText
  0
TEXT
  5
318D
330
1F
100
AcDbEntity
  8
0
100
AcDbText
 10
2900.806821101768
 20
369.9828517145941
 30
0.0
 40
25.00000000000055
  1
村
 72
     4
 11
2912.473487768435
 21
382.4828517145943
 31
0.0
100
AcDbText
  0
LINE
  5
318E
330
1F
100
AcDbEntity
  8
0
100
AcDbLine
 10
2958.357907886581
 20
399.1518059834869
 30
0.0
 11
2864.602000720912
 21
399.1518059834869
 31
0.0
  0
LINE
  5
3190
330
1F
100
AcDbEntity
  8
0
100
AcDbLine
 10
2959.477142982223
 20
261.7886588002722
 30
0.0
 11
2865.721235816554
 21
261.7886588002716
 31
0.0
  0
LINE
  5
3191
330
1F
100
AcDbEntity
  8
0
100
AcDbLine
 10
2959.477142982223
 20
296.571267488273
 30
0.0
 11
2865.721235816554
 21
296.571267488273
 31
0.0
  0
CIRCLE
  5
3192
330
1F
100
AcDbEntity
  8
0
100
AcDbCircle
 10
2912.599189399389
 20
279.1799631442723
 30
0.0
 40
49.99999998900111
  0
TEXT
  5
3194
330
1F
100
AcDbEntity
  8
0
100
AcDbText
 10
2901.926056197411
 20
232.6197045313788
 30
0.0
 40
25.00000000000055
  1
本
 72
     4
 11
2913.592722864078
 21
245.1197045313791
 31
0.0
100
AcDbText
  0
TEXT
  5
3195
330
1F
100
AcDbEntity
  8
0
100
AcDbText
 10
2900.342074397907
 20
298.9426828606278
 30
0.0
 40
25.00000000000055
  1
松
 72
     4
 11
2912.008741064574
 21
311.4426828606281
 31
0.0
100
AcDbText
  0
INSERT
  5
3196
330
1F
100
AcDbEntity
  8
0
100
AcDbBlockReference
  2
NAKAMURA
 10
3165.197464169897
 20
419.1799631443261
 30
0.0
 41
8.695652172000336
 42
8.695652172000336
 43
8.695652172
  0
TEXT
  5
3198
330
1F
100
AcDbEntity
  8
TEXT
100
AcDbText
 10
2868.920556433085
 20
266.1364848862718
 30
0.0
 40
26.086956516
  1
05.07.22
 41
0.6884556284158219
 72
     5
 11
2953.511860762309
 21
266.1364848862718
 31
0.0
100
AcDbText
  0
TEXT
  5
3199
330
1F
100
AcDbEntity
  8
TEXT
100
AcDbText
 10
2867.801321337442
 20
403.4996320694871
 30
0.0
 40
26.086956516
  1
05.07.22
 41
0.6884556284158219
 72
     5
 11
2952.392625666666
 21
403.4996320694871
 31
0.0
100
AcDbText
  0
TEXT
  5
319A
330
1F
100
AcDbEntity
  8
TEXT
100
AcDbText
 10
3121.518831203593
 20
406.1364848863254
 30
0.0
 40
26.086956516
  1
05.07.22
 41
0.6884556284158219
 72
     5
 11
3206.110135532817
 21
406.1364848863254
 31
0.0
100
AcDbText
  0
ENDSEC
  0
SECTION
  2
OBJECTS
  0
DICTIONARY
  5
C
330
0
100
AcDbDictionary
281
     1
  3
ACAD_COLOR
350
985
  3
ACAD_GROUP
350
D
  3
ACAD_LAYOUT
350
1A
  3
ACAD_MATERIAL
350
984
  3
ACAD_MLINESTYLE
350
17
  3
ACAD_PLOTSETTINGS
350
19
  3
ACAD_PLOTSTYLENAME
350
E
  3
AcDbVariableDictionary
350
43
  3
AcmDictionary
350
55
  3
AMG
350
2B
  3
AMGSNAPSETTINGS
350
A8
  3
ASE_INDEX_DICTIONARY
350
942
  0
DICTIONARY
  5
1050
330
2
100
AcDbDictionary
280
     1
281
     1
  3
ACAD_LAYERSTATES
360
1051
  3
AMLAYER_GROUPCOLORS
360
27DF
  0
DICTIONARY
  5
B1
330
1F
100
AcDbDictionary
280
     1
281
     1
  3
ACAD_INDEX
360
B2
  0
DICTIONARY
  5
985
102
{ACAD_REACTORS
330
C
102
}
330
C
100
AcDbDictionary
281
     1
  0
DICTIONARY
  5
D
102
{ACAD_REACTORS
330
C
102
}
330
C
100
AcDbDictionary
281
     1
  0
DICTIONARY
  5
1A
102
{ACAD_REACTORS
330
C
102
}
330
C
100
AcDbDictionary
281
     1
  3
Model
350
22
  3
ﾚｲｱｳﾄ1
350
1E
  3
ﾚｲｱｳﾄ2
350
26
  0
DICTIONARY
  5
984
102
{ACAD_REACTORS
330
C
102
}
330
C
100
AcDbDictionary
281
     1
  0
DICTIONARY
  5
17
102
{ACAD_REACTORS
330
C
102
}
330
C
100
AcDbDictionary
281
     1
  3
Standard
350
18
  0
DICTIONARY
  5
19
102
{ACAD_REACTORS
330
C
102
}
330
C
100
AcDbDictionary
281
     1
  0
ACDBDICTIONARYWDFLT
  5
E
102
{ACAD_REACTORS
330
C
102
}
330
C
100
AcDbDictionary
281
     1
  3
Normal
350
F
100
AcDbDictionaryWithDefault
340
F
  0
DICTIONARY
  5
43
102
{ACAD_REACTORS
330
C
102
}
330
C
100
AcDbDictionary
281
     1
  3
DIMASSOC
350
31CF
  3
INDEXCTL
350
44
  3
PROJECTNAME
350
31D0
  3
SORTENTS
350
774
  0
DICTIONARY
  5
55
102
{ACAD_REACTORS
330
C
102
}
330
C
100
AcDbDictionary
281
     1
  3
AcmBOM
350
3D1
  3
AcmStdDictionary
350
59
  3
AMDTSECTSYM_ARROWCOLOR
350
98E
  0
DICTIONARY
  5
2B
102
{ACAD_REACTORS
330
C
102
}
330
C
100
AcDbDictionary
281
     1
  0
DICTIONARY
  5
A8
102
{ACAD_REACTORS
330
C
102
}
330
C
100
AcDbDictionary
281
     1
  0
DICTIONARY
  5
942
102
{ACAD_REACTORS
330
C
102
}
330
C
100
AcDbDictionary
281
     1
  3
ASEBlockHierarchyIndexRecord
350
944
1001
DCO15
1040
1418113613.734
  0
DICTIONARY
  5
1051
102
{ACAD_REACTORS
330
1050
102
}
330
1050
100
AcDbDictionary
281
     1
  0
DICTIONARY
  5
27DF
102
{ACAD_REACTORS
330
1050
102
}
330
1050
100
AcDbDictionary
280
     1
281
     1
  0
DICTIONARY
  5
B2
102
{ACAD_REACTORS
330
B1
102
}
330
B1
100
AcDbDictionary
281
     1
  3
*A1
350
B3
  0
LAYOUT
  5
22
102
{ACAD_REACTORS
330
1A
102
}
330
1A
100
AcDbPlotSettings
  1

  2
\\PC01\CASIO SPEEDIA N4
  4
A3
  6
AM_VIEW1
 40
5.873749732971191
 41
5.958403587341308
 42
5.958404541015625
 43
5.873748779296875
 44
296.9259948730469
 45
419.9466552734374
 46
9.609999999999999
 47
0.0
 48
0.0
 49
0.0
140
0.0
141
0.0
142
1.0
143
3.458210785390119
 70
 11956
 72
     1
 73
     1
 74
     0
  7
monochrome.ctb
 75
     0
147
0.2891668732931762
 76
     0
 77
     2
 78
   300
148
295.8822165187813
149
247.9752015480118
100
AcDbLayout
  1
Model
 70
     1
 71
     0
 10
0.0
 20
0.0
 11
12.0
 21
9.0
 12
0.0
 22
0.0
 32
0.0
 14
0.0
 24
0.0
 34
0.0
 15
0.0
 25
0.0
 35
0.0
146
0.0
 13
0.0
 23
0.0
 33
0.0
 16
1.0
 26
0.0
 36
0.0
 17
0.0
 27
1.0
 37
0.0
 76
     0
330
1F
  0
LAYOUT
  5
1E
102
{ACAD_REACTORS
330
1A
102
}
330
1A
100
AcDbPlotSettings
  1

  2
MUTOH RL-803C(ﾌﾟﾛｯﾀﾓｰﾄﾞ)
  4

  6

 40
0.0
 41
0.0
 42
0.0
 43
0.0
 44
0.0
 45
0.0
 46
0.0
 47
0.0
 48
0.0
 49
0.0
140
0.0
141
0.0
142
1.0
143
1.0
 70
   688
 72
     0
 73
     0
 74
     5
  7
monochrome.ctb
 75
    16
147
1.0
 76
     0
 77
     2
 78
   300
148
0.0
149
0.0
100
AcDbLayout
  1
ﾚｲｱｳﾄ1
 70
     1
 71
     1
 10
0.0
 20
0.0
 11
420.0
 21
297.0
 12
0.0
 22
0.0
 32
0.0
 14
1.000000000000000E+20
 24
1.000000000000000E+20
 34
1.000000000000000E+20
 15
-1.000000000000000E+20
 25
-1.000000000000000E+20
 35
-1.000000000000000E+20
146
0.0
 13
0.0
 23
0.0
 33
0.0
 16
1.0
 26
0.0
 36
0.0
 17
0.0
 27
1.0
 37
0.0
 76
     0
330
1B
  0
LAYOUT
  5
26
102
{ACAD_REACTORS
330
1A
102
}
330
1A
100
AcDbPlotSettings
  1

  2
MUTOH RL-803C(ﾌﾟﾛｯﾀﾓｰﾄﾞ)
  4

  6

 40
0.0
 41
0.0
 42
0.0
 43
0.0
 44
0.0
 45
0.0
 46
0.0
 47
0.0
 48
0.0
 49
0.0
140
0.0
141
0.0
142
1.0
143
1.0
 70
   688
 72
     0
 73
     0
 74
     5
  7
monochrome.ctb
 75
    16
147
1.0
 76
     0
 77
     2
 78
   300
148
0.0
149
0.0
100
AcDbLayout
  1
ﾚｲｱｳﾄ2
 70
     1
 71
     2
 10
0.0
 20
0.0
 11
12.0
 21
9.0
 12
0.0
 22
0.0
 32
0.0
 14
0.0
 24
0.0
 34
0.0
 15
0.0
 25
0.0
 35
0.0
146
0.0
 13
0.0
 23
0.0
 33
0.0
 16
1.0
 26
0.0
 36
0.0
 17
0.0
 27
1.0
 37
0.0
 76
     0
330
23
  0
MLINESTYLE
  5
18
102
{ACAD_REACTORS
330
17
102
}
330
17
100
AcDbMlineStyle
  2
STANDARD
 70
     0
  3

 62
   256
 51
90.0
 52
90.0
 71
     2
 49
0.5
 62
   256
  6
BYLAYER
 49
-0.5
 62
   256
  6
BYLAYER
  0
ACDBPLACEHOLDER
  5
F
102
{ACAD_REACTORS
330
E
102
}
330
E
  0
DICTIONARYVAR
  5
31CF
102
{ACAD_REACTORS
330
43
102
}
330
43
100
DictionaryVariables
280
     0
  1
1
  0
DICTIONARYVAR
  5
44
102
{ACAD_REACTORS
330
43
102
}
330
43
100
DictionaryVariables
280
     0
  1
1
  0
DICTIONARYVAR
  5
31D0
102
{ACAD_REACTORS
330
43
102
}
330
43
100
DictionaryVariables
280
     0
  1

  0
DICTIONARYVAR
  5
774
102
{ACAD_REACTORS
330
43
102
}
330
43
100
DictionaryVariables
280
     0
  1
103
  0
DICTIONARY
  5
3D1
102
{ACAD_REACTORS
330
55
102
}
330
55
100
AcDbDictionary
281
     1
  0
DICTIONARY
  5
59
102
{ACAD_REACTORS
330
55
102
}
330
55
100
AcDbDictionary
281
     1
  0
XRECORD
  5
98E
102
{ACAD_REACTORS
330
55
102
}
330
55
100
AcDbXrecord
280
     1
 90
-1023410169
  0
XRECORD
  5
944
102
{ACAD_REACTORS
330
942
102
}
330
942
100
AcDbXrecord
280
     1
330
0
330
0
330
0
330
0
  0
LAYER_INDEX
  5
B3
102
{ACAD_REACTORS
330
B2
102
}
330
B2
100
AcDbIndex
 40
2454718.704895833
100
AcDbLayerIndex
  8
0
360
B4
 90
       28
  8
RAHM2
360
156
 90
        0
  8
AM_BOR
360
4B6
 90
        0
  8
RAHM3
360
4B7
 90
        0
  8
DEFPOINTS
360
4B8
 90
        0
  8
7A
360
4B9
 90
        0
  8
AM_5
360
4BD
 90
       22
  8
6
360
1D6F
 90
        1
  8
TEXT
360
1D70
 90
        4
  8
AM_12
360
1D71
 90
        1
  8
AM_PAREF
360
1D72
 90
        0
  8
1
360
2439
 90
       62
  8
AM_7
360
243A
 90
        4
  8
AM_3
360
243B
 90
        4
  8
AM_CL
360
2FFD
 90
        0
  8
AM_0
360
3049
 90
       24
  0
IDBUFFER
  5
B4
330
0
100
AcDbIdBuffer
330
D4F
330
D50
330
D59
330
1610
330
1617
330
1618
330
161A
330
161B
330
161C
330
1D81
330
2FE3
330
2FF3
330
3018
330
3046
330
3047
330
3048
330
316C
330
318A
330
318B
330
318C
330
318D
330
318E
330
3190
330
3191
330
3192
330
3194
330
3195
330
3196
  0
IDBUFFER
  5
156
330
0
100
AcDbIdBuffer
  0
IDBUFFER
  5
4B6
330
0
100
AcDbIdBuffer
  0
IDBUFFER
  5
4B7
330
0
100
AcDbIdBuffer
  0
IDBUFFER
  5
4B8
330
0
100
AcDbIdBuffer
  0
IDBUFFER
  5
4B9
330
0
100
AcDbIdBuffer
  0
IDBUFFER
  5
4BD
330
0
100
AcDbIdBuffer
330
1611
330
1613
330
1D6E
330
2C30
330
2C5C
330
2C8A
330
2CAB
330
2CE2
330
2D04
330
2D42
330
2D68
330
2D82
330
2DAE
330
2DDA
330
2DF4
330
2E15
330
2E4C
330
3082
330
30AD
330
30D3
330
3100
330
312B
  0
IDBUFFER
  5
1D6F
330
0
100
AcDbIdBuffer
330
1627
  0
IDBUFFER
  5
1D70
330
0
100
AcDbIdBuffer
330
1619
330
3198
330
3199
330
319A
  0
IDBUFFER
  5
1D71
330
0
100
AcDbIdBuffer
330
1D69
  0
IDBUFFER
  5
1D72
330
0
100
AcDbIdBuffer
  0
IDBUFFER
  5
2439
330
0
100
AcDbIdBuffer
330
2A32
330
2A33
330
2A34
330
2A35
330
2A48
330
2A49
330
2A4A
330
2A4B
330
2A4C
330
2A4D
330
2A4E
330
2A4F
330
2A50
330
2A51
330
2A52
330
2A53
330
2A54
330
2A55
330
2A56
330
2A57
330
2A58
330
2A59
330
2A5A
330
2A5B
330
2A5C
330
2A5D
330
2A5E
330
2A5F
330
2A60
330
2A61
330
2A62
330
2A63
330
2A64
330
2A65
330
2A66
330
2A67
330
2A68
330
2A69
330
2A6A
330
2A6B
330
2A6C
330
2A6D
330
2A6E
330
2A6F
330
2A70
330
2A71
330
2A72
330
2A73
330
2A74
330
2A75
330
2A76
330
2A77
330
2A78
330
2A79
330
2A7A
330
2A7B
330
2A7C
330
2A7D
330
2A7E
330
2A7F
330
2A80
330
2FB4
  0
IDBUFFER
  5
243A
330
0
100
AcDbIdBuffer
330
2A3A
330
2A43
330
2A44
330
2C1D
  0
IDBUFFER
  5
243B
330
0
100
AcDbIdBuffer
330
29DF
330
29E0
330
29E1
330
29E2
  0
IDBUFFER
  5
2FFD
330
0
100
AcDbIdBuffer
  0
IDBUFFER
  5
3049
330
0
100
AcDbIdBuffer
330
302D
330
302E
330
302F
330
3030
330
3031
330
3032
330
3033
330
3034
330
3035
330
3036
330
3037
330
3038
330
303A
330
303B
330
303C
330
303D
330
303E
330
303F
330
3040
330
3041
330
3042
330
3043
330
3044
330
3045
  0
ENDSEC
  0
EOF
