  0
SECTION
  2
HEADER
  9
$ACADVER
  1
AC1018
  9
$ACADMAINTVER
 70
     2
  9
$DWGCODEPAGE
  3
ANSI_932
  9
$TITLE
  1

  9
$SUBJECT
  1

  9
$AUTHOR
  1

  9
$KEYWORDS
  1

  9
$COMMENTS
  1

  9
$LASTSAVEDBY
  1

  9
$REVISIONNUMBER
  1

  9
$CUSTOMPROPERTYTAG
  1
AmdtFileType
  9
$CUSTOMPROPERTY
  1
84
  9
$INSBASE
 10
0.0
 20
0.0
 30
0.0
  9
$EXTMIN
 10
957.0674519828571
 20
5583.229976402643
 30
0.0
  9
$EXTMAX
 10
5157.067451982857
 20
8553.229976402644
 30
520.0
  9
$LIMMIN
 10
1207.067451982857
 20
5683.229976402643
  9
$LIMMAX
 10
5057.067451982857
 20
8453.229976402644
  9
$ORTHOMODE
 70
     0
  9
$REGENMODE
 70
     1
  9
$FILLMODE
 70
     1
  9
$QTEXTMODE
 70
     0
  9
$MIRRTEXT
 70
     1
  9
$LTSCALE
 40
10.0
  9
$ATTMODE
 70
     1
  9
$TEXTSIZE
 40
2.5
  9
$TRACEWID
 40
1.0
  9
$TEXTSTYLE
  7
STANDARD
  9
$CLAYER
  8
0
  9
$CELTYPE
  6
ByLayer
  9
$CECOLOR
 62
   256
  9
$CELTSCALE
 40
1.0
  9
$DISPSILH
 70
     0
  9
$DIMSCALE
 40
10.0
  9
$DIMASZ
 40
2.5
  9
$DIMEXO
 40
1.0
  9
$DIMDLI
 40
10.0
  9
$DIMRND
 40
0.0
  9
$DIMDLE
 40
0.0
  9
$DIMEXE
 40
1.0
  9
$DIMTP
 40
0.1
  9
$DIMTM
 40
0.1
  9
$DIMTXT
 40
3.5
  9
$DIMCEN
 40
0.0
  9
$DIMTSZ
 40
0.0
  9
$DIMTOL
 70
     0
  9
$DIMLIM
 70
     0
  9
$DIMTIH
 70
     0
  9
$DIMTOH
 70
     0
  9
$DIMSE1
 70
     0
  9
$DIMSE2
 70
     0
  9
$DIMTAD
 70
     3
  9
$DIMZIN
 70
     8
  9
$DIMBLK
  1
Open30
  9
$DIMASO
 70
     1
  9
$DIMSHO
 70
     1
  9
$DIMPOST
  1

  9
$DIMAPOST
  1
"
  9
$DIMALT
 70
     0
  9
$DIMALTD
 70
     2
  9
$DIMALTF
 40
0.0393701
  9
$DIMLFAC
 40
1.0
  9
$DIMTOFL
 70
     1
  9
$DIMTVP
 40
0.0
  9
$DIMTIX
 70
     0
  9
$DIMSOXD
 70
     0
  9
$DIMSAH
 70
     0
  9
$DIMBLK1
  1
Open30
  9
$DIMBLK2
  1
Open30
  9
$DIMSTYLE
  2
IGS
  9
$DIMCLRD
 70
   256
  9
$DIMCLRE
 70
   256
  9
$DIMCLRT
 70
     2
  9
$DIMTFAC
 40
0.71
  9
$DIMGAP
 40
1.5
  9
$DIMJUST
 70
     0
  9
$DIMSD1
 70
     0
  9
$DIMSD2
 70
     0
  9
$DIMTOLJ
 70
     0
  9
$DIMTZIN
 70
     8
  9
$DIMALTZ
 70
     0
  9
$DIMALTTZ
 70
     0
  9
$DIMUPT
 70
     0
  9
$DIMDEC
 70
     2
  9
$DIMTDEC
 70
     3
  9
$DIMALTU
 70
     2
  9
$DIMALTTD
 70
     4
  9
$DIMTXSTY
  7
STANDARD
  9
$DIMAUNIT
 70
     0
  9
$DIMADEC
 70
     0
  9
$DIMALTRND
 40
0.0
  9
$DIMAZIN
 70
     2
  9
$DIMDSEP
 70
    46
  9
$DIMATFIT
 70
     3
  9
$DIMFRAC
 70
     0
  9
$DIMLDRBLK
  1
Open30
  9
$DIMLUNIT
 70
     2
  9
$DIMLWD
 70
    -1
  9
$DIMLWE
 70
    -1
  9
$DIMTMOVE
 70
     0
  9
$LUNITS
 70
     2
  9
$LUPREC
 70
     2
  9
$SKETCHINC
 40
1.0
  9
$FILLETRAD
 40
25.0
  9
$AUNITS
 70
     0
  9
$AUPREC
 70
     0
  9
$MENU
  1
.
  9
$ELEVATION
 40
0.0
  9
$PELEVATION
 40
0.0
  9
$THICKNESS
 40
0.0
  9
$LIMCHECK
 70
     0
  9
$CHAMFERA
 40
25.0
  9
$CHAMFERB
 40
25.0
  9
$CHAMFERC
 40
20.0
  9
$CHAMFERD
 40
0.0
  9
$SKPOLY
 70
     0
  9
$TDCREATE
 40
2452331.627290579
  9
$TDUCREATE
 40
2452331.252290579
  9
$TDUPDATE
 40
2454718.717439595
  9
$TDUUPDATE
 40
2454718.342439595
  9
$TDINDWG
 40
0.2614241435
  9
$TDUSRTIMER
 40
0.2614241435
  9
$USRTIMER
 70
     1
  9
$ANGBASE
 50
0.0
  9
$ANGDIR
 70
     0
  9
$PDMODE
 70
     0
  9
$PDSIZE
 40
0.0
  9
$PLINEWID
 40
0.0
  9
$SPLFRAME
 70
     0
  9
$SPLINETYPE
 70
     6
  9
$SPLINESEGS
 70
     8
  9
$HANDSEED
  5
2895
  9
$SURFTAB1
 70
     6
  9
$SURFTAB2
 70
     6
  9
$SURFTYPE
 70
     6
  9
$SURFU
 70
     6
  9
$SURFV
 70
     6
  9
$UCSBASE
  2

  9
$UCSNAME
  2

  9
$UCSORG
 10
0.0
 20
0.0
 30
0.0
  9
$UCSXDIR
 10
1.0
 20
0.0
 30
0.0
  9
$UCSYDIR
 10
0.0
 20
1.0
 30
0.0
  9
$UCSORTHOREF
  2

  9
$UCSORTHOVIEW
 70
     0
  9
$UCSORGTOP
 10
0.0
 20
0.0
 30
0.0
  9
$UCSORGBOTTOM
 10
0.0
 20
0.0
 30
0.0
  9
$UCSORGLEFT
 10
0.0
 20
0.0
 30
0.0
  9
$UCSORGRIGHT
 10
0.0
 20
0.0
 30
0.0
  9
$UCSORGFRONT
 10
0.0
 20
0.0
 30
0.0
  9
$UCSORGBACK
 10
0.0
 20
0.0
 30
0.0
  9
$PUCSBASE
  2

  9
$PUCSNAME
  2

  9
$PUCSORG
 10
0.0
 20
0.0
 30
0.0
  9
$PUCSXDIR
 10
1.0
 20
0.0
 30
0.0
  9
$PUCSYDIR
 10
0.0
 20
1.0
 30
0.0
  9
$PUCSORTHOREF
  2

  9
$PUCSORTHOVIEW
 70
     0
  9
$PUCSORGTOP
 10
0.0
 20
0.0
 30
0.0
  9
$PUCSORGBOTTOM
 10
0.0
 20
0.0
 30
0.0
  9
$PUCSORGLEFT
 10
0.0
 20
0.0
 30
0.0
  9
$PUCSORGRIGHT
 10
0.0
 20
0.0
 30
0.0
  9
$PUCSORGFRONT
 10
0.0
 20
0.0
 30
0.0
  9
$PUCSORGBACK
 10
0.0
 20
0.0
 30
0.0
  9
$USERI1
 70
     0
  9
$USERI2
 70
     0
  9
$USERI3
 70
     0
  9
$USERI4
 70
     0
  9
$USERI5
 70
     0
  9
$USERR1
 40
0.0
  9
$USERR2
 40
0.0
  9
$USERR3
 40
0.0
  9
$USERR4
 40
0.0
  9
$USERR5
 40
0.0
  9
$WORLDVIEW
 70
     1
  9
$SHADEDGE
 70
     3
  9
$SHADEDIF
 70
    70
  9
$TILEMODE
 70
     1
  9
$MAXACTVP
 70
    64
  9
$PINSBASE
 10
0.0
 20
0.0
 30
0.0
  9
$PLIMCHECK
 70
     0
  9
$PEXTMIN
 10
1.000000000000000E+20
 20
1.000000000000000E+20
 30
1.000000000000000E+20
  9
$PEXTMAX
 10
-1.000000000000000E+20
 20
-1.000000000000000E+20
 30
-1.000000000000000E+20
  9
$PLIMMIN
 10
0.0
 20
0.0
  9
$PLIMMAX
 10
420.0
 20
297.0
  9
$UNITMODE
 70
     0
  9
$VISRETAIN
 70
     1
  9
$PLINEGEN
 70
     0
  9
$PSLTSCALE
 70
     1
  9
$TREEDEPTH
 70
  3020
  9
$CMLSTYLE
  2
Standard
  9
$CMLJUST
 70
     0
  9
$CMLSCALE
 40
20.0
  9
$PROXYGRAPHICS
 70
     1
  9
$MEASUREMENT
 70
     1
  9
$CELWEIGHT
370
    -1
  9
$ENDCAPS
280
     0
  9
$JOINSTYLE
280
     0
  9
$LWDISPLAY
290
     0
  9
$INSUNITS
 70
     4
  9
$HYPERLINKBASE
  1

  9
$STYLESHEET
  1
KY-monochrome.ctb
  9
$XEDIT
290
     1
  9
$CEPSNTYPE
380
     0
  9
$PSTYLEMODE
290
     1
  9
$FINGERPRINTGUID
  2
{A179640A-E7AE-11D4-BDB4-00B0D0A1239A}
  9
$VERSIONGUID
  2
{50514615-2430-4F86-9889-952D97550867}
  9
$EXTNAMES
290
     1
  9
$PSVPSCALE
 40
0.0
  9
$OLESTARTUP
290
     0
  9
$SORTENTS
280
   103
  9
$INDEXCTL
280
     1
  9
$HIDETEXT
280
     0
  9
$XCLIPFRAME
290
     0
  9
$HALOGAP
280
     0
  9
$OBSCOLOR
 70
   257
  9
$OBSLTYPE
280
     0
  9
$INTERSECTIONDISPLAY
280
     0
  9
$INTERSECTIONCOLOR
 70
   257
  9
$DIMASSOC
280
     1
  9
$PROJECTNAME
  1

  0
ENDSEC
  0
SECTION
  2
CLASSES
  0
CLASS
  1
ACDBDICTIONARYWDFLT
  2
AcDbDictionaryWithDefault
  3
ObjectDBX Classes
 90
        0
 91
        1
280
     0
281
     0
  0
CLASS
  1
ACDBPLACEHOLDER
  2
AcDbPlaceHolder
  3
ObjectDBX Classes
 90
        0
 91
        1
280
     0
281
     0
  0
CLASS
  1
LAYOUT
  2
AcDbLayout
  3
ObjectDBX Classes
 90
        0
 91
        3
280
     0
281
     0
  0
CLASS
  1
AMGSETTINGSOBJ
  2
AmgSettingsObj
  3
"AcadM|Product Description: AutoCAD Mechanical 2000|Company: Autodesk"
 90
        0
 91
       12
280
     0
281
     0
  0
CLASS
  1
AMGOBJPROPCFG
  2
AmgObjPropCfg
  3
"AmgLay|Product Description: AutoCAD Mechanical 2000|Company: Autodesk"
 90
        1
 91
        3
280
     0
281
     0
  0
CLASS
  1
ACME_DOCUMENT
  2
AcMeDbDoc
  3
AcMeServices
 90
        0
 91
        2
280
     0
281
     0
  0
CLASS
  1
ACMESCOPE
  2
AcMeScope
  3
AcMeServices
 90
        0
 91
        3
280
     0
281
     0
  0
CLASS
  1
ACMECOMMANDHISTORY
  2
AcMeCommandHistory
  3
AcMeServices
 90
        0
 91
        3
280
     0
281
     0
  0
CLASS
  1
DICTIONARYVAR
  2
AcDbDictionaryVar
  3
ObjectDBX Classes
 90
        0
 91
        4
280
     0
281
     0
  0
CLASS
  1
ACIMSYSVARMAN
  2
AcImSysVarManager
  3
AcMeServices
 90
        0
 91
       15
280
     0
281
     0
  0
CLASS
  1
ACIMREALSYSVAR
  2
AcImRealSysVar
  3
AcMeServices
 90
        0
 91
        9
280
     0
281
     0
  0
CLASS
  1
ACIMINTSYSVAR
  2
AcImIntSysVar
  3
AcMeServices
 90
        0
 91
       78
280
     0
281
     0
  0
CLASS
  1
ACMEDRAWINGMAN
  2
AcMeDrawingMan
  3
AcMeServices
 90
        0
 91
        3
280
     0
281
     0
  0
CLASS
  1
ACMEVIEW
  2
AcMeView
  3
AcMeServices
 90
        0
 91
        3
280
     0
281
     0
  0
CLASS
  1
ACDBENTITYCACHE
  2
AcMeEntityCache
  3
AcMeServices
 90
        0
 91
        1
280
     0
281
     0
  0
CLASS
  1
GSMANAGER
  2
AcMeGSManager
  3
AcMeServices
 90
        0
 91
        1
280
     0
281
     0
  0
CLASS
  1
AMDTINTERNALREACTOR
  2
AmdtInternalReactor
  3
AcMeServices
 90
        0
 91
        7
280
     0
281
     0
  0
CLASS
  1
ACMESTATEMGR
  2
AcMeStateMgr
  3
AcMeServices
 90
        0
 91
        3
280
     0
281
     0
  0
CLASS
  1
ACGREFMASTER
  2
AcGrefMaster
  3
AcAttribServices
 90
        0
 91
        3
280
     0
281
     0
  0
CLASS
  1
ACME_DATABASE
  2
AcMeDbDatabase
  3
AcMeServices
 90
        0
 91
        1
280
     0
281
     0
  0
CLASS
  1
ACRFINSADJUSTERMGR
  2
AcRfInsAdjusterMgr
  3
AcMeServices
 90
        0
 91
        1
280
     0
281
     0
  0
CLASS
  1
ACGREFACADMASTER
  2
AcGrefacadMaster
  3
AcGrefServices
 90
        0
 91
        3
280
     0
281
     0
  0
CLASS
  1
AMIMASTER
  2
AmiMaster
  3
AmiServices
 90
        0
 91
        3
280
     0
281
     0
  0
CLASS
  1
ACMDATADICTIONARY
  2
AcmDataDictionary
  3
"AcmSymBB|Product Description: AutoCAD Mechanical 2004 DX|Company: Autodesk"
 90
        0
 91
        3
280
     0
281
     0
  0
CLASS
  1
ACMDATAENTRYBLOCK
  2
AcmDataEntryBlock
  3
"AcmSymBB|Product Description: AutoCAD Mechanical 2004 DX|Company: Autodesk"
 90
        0
 91
        3
280
     0
281
     0
  0
CLASS
  1
ACMSTANDARDJIS
  2
AcmStandardJIS
  3
"Amdt_StdImp|Product Description: AutoCAD Mechanical 2004 DX|Company: Autodesk"
 90
        0
 91
        3
280
     0
281
     0
  0
CLASS
  1
ACMSURFSTANDARDJIS
  2
AcmSurfTextStdJIS
  3
"Amdt_StdImp|Product Description: AutoCAD Mechanical 2004 DX|Company: Autodesk"
 90
        0
 91
        3
280
     0
281
     0
  0
CLASS
  1
ACMFCFSTANDARDJIS
  2
AcmFCFStdJIS
  3
"Amdt_StdImp|Product Description: AutoCAD Mechanical 2004 DX|Company: Autodesk"
 90
        0
 91
        3
280
     0
281
     0
  0
CLASS
  1
ACMWELDSTANDARDJIS
  2
AcmWeldingStdJIS
  3
"Amdt_StdImp|Product Description: AutoCAD Mechanical 2004 DX|Company: Autodesk"
 90
        0
 91
        3
280
     0
281
     0
  0
CLASS
  1
ACMIDSTANDARDJIS
  2
AcmIdStdJIS
  3
"Amdt_StdImp|Product Description: AutoCAD Mechanical 2004 DX|Company: Autodesk"
 90
        0
 91
        3
280
     0
281
     0
  0
CLASS
  1
ACMDATUMSTANDARDJIS
  2
AcmDatumStdJIS
  3
"Amdt_StdImp|Product Description: AutoCAD Mechanical 2004 DX|Company: Autodesk"
 90
        0
 91
        3
280
     0
281
     0
  0
CLASS
  1
ACMBOMSTANDARDJIS
  2
AcmBOMStdJIS
  3
"Amdt_StdImp|Product Description: AutoCAD Mechanical 2004 DX|Company: Autodesk"
 90
        0
 91
        3
280
     0
281
     0
  0
CLASS
  1
ACMDETAILSTANDARDJIS
  2
AmdtDetailSymStdJIS
  3
"Amdt_StdImp|Product Description: AutoCAD Mechanical 2004 DX|Company: Autodesk"
 90
        0
 91
        3
280
     0
281
     0
  0
CLASS
  1
ACMSECTIONSTANDARDJIS
  2
AmdtSectionSymStdJIS
  3
"Amdt_StdImp|Product Description: AutoCAD Mechanical 2004 DX|Company: Autodesk"
 90
        0
 91
        3
280
     0
281
     0
  0
CLASS
  1
ACMCENTERLINESTANDARDJIS
  2
AmdtCenterLineStdJIS
  3
"Amdt_StdImp|Product Description: AutoCAD Mechanical 2004 DX|Company: Autodesk"
 90
        0
 91
        3
280
     0
281
     0
  0
CLASS
  1
ACAMGLAYSTD
  2
AcAmgLayStd
  3
"AcAmgLayStd|Product Description: AutoCAD Mechanical 2000|Company: Autodesk"
 90
        0
 91
        6
280
     0
281
     0
  0
CLASS
  1
ACAMGDIMSTD
  2
AcAmgDimStd
  3
"AcAmgDimStd|Product Description: AutoCAD Mechanical 2000|Company: Autodesk"
 90
        0
 91
        6
280
     0
281
     0
  0
CLASS
  1
ACAMGTITLESTD
  2
AcAmgTitleStd
  3
"TITLEAPP"
 90
        0
 91
        6
280
     0
281
     0
  0
CLASS
  1
ACMSTANDARDISO
  2
AcmStandardISO
  3
"Amdt_StdImp|Product Description: AutoCAD Mechanical 2004 DX|Company: Autodesk"
 90
        0
 91
        3
280
     0
281
     0
  0
CLASS
  1
AMDTEDGESTANDARDISO
  2
AmdtEdgeStdISO
  3
"Amdt_StdImp|Product Description: AutoCAD Mechanical 2004 DX|Company: Autodesk"
 90
        0
 91
        3
280
     0
281
     0
  0
CLASS
  1
ACMSURFSTANDARDISO
  2
AcmSurfTextStdISO
  3
"Amdt_StdImp|Product Description: AutoCAD Mechanical 2004 DX|Company: Autodesk"
 90
        0
 91
        3
280
     0
281
     0
  0
CLASS
  1
ACMFCFSTANDARDISO
  2
AcmFCFStdISO
  3
"Amdt_StdImp|Product Description: AutoCAD Mechanical 2004 DX|Company: Autodesk"
 90
        0
 91
        3
280
     0
281
     0
  0
CLASS
  1
ACMWELDSTANDARDISO
  2
AcmWeldingStdISO
  3
"Amdt_StdImp|Product Description: AutoCAD Mechanical 2004 DX|Company: Autodesk"
 90
        0
 91
        3
280
     0
281
     0
  0
CLASS
  1
ACMIDSTANDARDISO
  2
AcmIdStdISO
  3
"Amdt_StdImp|Product Description: AutoCAD Mechanical 2004 DX|Company: Autodesk"
 90
        0
 91
        3
280
     0
281
     0
  0
CLASS
  1
ACMDATUMSTANDARDISO
  2
AcmDatumStdISO
  3
"Amdt_StdImp|Product Description: AutoCAD Mechanical 2004 DX|Company: Autodesk"
 90
        0
 91
        3
280
     0
281
     0
  0
CLASS
  1
ACMBOMSTANDARDISO
  2
AcmBOMStdISO
  3
"Amdt_StdImp|Product Description: AutoCAD Mechanical 2004 DX|Company: Autodesk"
 90
        0
 91
        3
280
     0
281
     0
  0
CLASS
  1
ACMDETAILSTANDARDISO
  2
AmdtDetailSymStdISO
  3
"Amdt_StdImp|Product Description: AutoCAD Mechanical 2004 DX|Company: Autodesk"
 90
        0
 91
        3
280
     0
281
     0
  0
CLASS
  1
ACMSECTIONSTANDARDISO
  2
AmdtSectionSymStdISO
  3
"Amdt_StdImp|Product Description: AutoCAD Mechanical 2004 DX|Company: Autodesk"
 90
        0
 91
        3
280
     0
281
     0
  0
CLASS
  1
ACMCENTERLINESTANDARDISO
  2
AmdtCenterLineStdISO
  3
"Amdt_StdImp|Product Description: AutoCAD Mechanical 2004 DX|Company: Autodesk"
 90
        0
 91
        3
280
     0
281
     0
  0
CLASS
  1
ACIMSTRSYSVAR
  2
AcImStrSysVar
  3
AcMeServices
 90
        0
 91
       15
280
     0
281
     0
  0
CLASS
  1
ACAMGFILTERDAT
  2
AcAmgFilterDat
  3
"AcadM|Product Description: AutoCAD Mechanical 2000|Company: Autodesk"
 90
        0
 91
       18
280
     0
281
     0
  0
CLASS
  1
LAYER_INDEX
  2
AcDbLayerIndex
  3
ObjectDBX Classes
 90
        0
 91
        1
280
     0
281
     0
  0
CLASS
  1
IDBUFFER
  2
AcDbIdBuffer
  3
ObjectDBX Classes
 90
        0
 91
       23
280
     0
281
     0
  0
CLASS
  1
AMDTFORMULAUPDATEDISPATCHER
  2
AmdtFormulaUpdateDispatcher
  3
AcMeServices
 90
        0
 91
        3
280
     0
281
     0
  0
CLASS
  1
ACMDATAENTRYPART
  2
AcmDataEntryPart
  3
"AcmSymBB|Product Description: AutoCAD Mechanical 2004 DX|Company: Autodesk"
 90
        0
 91
        0
280
     0
281
     0
  0
CLASS
  1
ACMPARTREF
  2
AcmPartRef
  3
"AcmSymBB|Product Description: AutoCAD Mechanical 2004 DX|Company: Autodesk"
 90
     1023
 91
        0
280
     0
281
     1
  0
CLASS
  1
ACMDATAENTRY
  2
AcmDataEntry
  3
"AcmSymBB|Product Description: AutoCAD Mechanical 2004 DX|Company: Autodesk"
 90
        0
 91
        9
280
     0
281
     0
  0
CLASS
  1
ACMBOM
  2
AcmBom
  3
"AcmSymBB|Product Description: AutoCAD Mechanical 2004 DX|Company: Autodesk"
 90
        0
 91
        3
280
     0
281
     0
  0
CLASS
  1
ACMBOMROW
  2
AcmBomRow
  3
"AcmSymBB|Product Description: AutoCAD Mechanical 2004 DX|Company: Autodesk"
 90
        0
 91
        0
280
     0
281
     0
  0
CLASS
  1
ACMBALLOON
  2
AcmBalloon
  3
"AcmSymBB|Product Description: AutoCAD Mechanical 2004 DX|Company: Autodesk"
 90
     1023
 91
        0
280
     0
281
     1
  0
CLASS
  1
ACMPARTLIST
  2
AcmPartList
  3
"AcmSymBB|Product Description: AutoCAD Mechanical 2004 DX|Company: Autodesk"
 90
     1023
 91
        0
280
     0
281
     1
  0
CLASS
  1
ACDBLINERES
  2
AcDbLineRes
  3
AcGrefServices
 90
        0
 91
       18
280
     0
281
     0
  0
CLASS
  1
ACRFINSADJ
  2
AcRfInsAdjuster
  3
AcMeServices
 90
        0
 91
        0
280
     0
281
     0
  0
CLASS
  1
STDPART2D
  2
AmgStdPart
  3
"AmgStdPart|Product Description: AutoCAD Mechanical 2000|Company: Autodesk"
 90
     1023
 91
        0
280
     0
281
     1
  0
CLASS
  1
ACDBSTDPARTRES_ARC
  2
AcDbStdPartRes_Arc
  3
"AcDbStdPartRes_Arc|Product Description: AutoCAD Mechanical 2000|Company: Autodesk"
 90
        0
 91
        0
280
     0
281
     0
  0
CLASS
  1
ACMPICKOBJ
  2
AcmPickEnt
  3
"AcmSymBB|Product Description: AutoCAD Mechanical 2004 DX|Company: Autodesk"
 90
        0
 91
        0
280
     0
281
     1
  0
CLASS
  1
ACDBSTDPARTRES_LINE
  2
AcDbStdPartRes_Line
  3
"AcDbStdPartRes_Line|Product Description: AutoCAD Mechanical 2000|Company: Autodesk"
 90
        0
 91
        0
280
     0
281
     0
  0
CLASS
  1
AMDTNOTE
  2
AmdtNote
  3
"AcmSymBB|Product Description: AutoCAD Mechanical 2004 DX|Company: Autodesk"
 90
     1023
 91
       15
280
     0
281
     1
  0
CLASS
  1
AM_DRAWING_MGR
  2
AcDmDwgMgr
  3
AcMechDwgViewMgmt
 90
        0
 91
        3
280
     0
281
     0
  0
CLASS
  1
AM_DWG_DOCUMENT
  2
AcDmDwgDocument
  3
AcMechDwgViewMgmt
 90
        0
 91
        3
280
     0
281
     0
  0
CLASS
  1
AM_DWG_SHEET
  2
AcDmSheet
  3
AcMechDwgViewMgmt
 90
        0
 91
        6
280
     0
281
     0
  0
CLASS
  1
AM_VIEWDIMPARMAP
  2
AcDmViewDimParMap
  3
AcMechDwgViewMgmt
 90
        0
 91
        6
280
     0
281
     0
  0
CLASS
  1
AM_DWGMGR_NAME
  2
AcDmDwgMgrName
  3
AcMechDwgViewMgmt
 90
        0
 91
        3
280
     0
281
     0
  0
CLASS
  1
AMDTMENUSTATEMGR
  2
AmdtMenuStateMgr
  3
McadcomServices
 90
        0
 91
        1
280
     0
281
     0
  0
CLASS
  1
AMDTMCOMMENUSTATE
  2
AmdtMcomMenuState
  3
McadcomServices
 90
        0
 91
        1
280
     0
281
     0
  0
CLASS
  1
MAPIAMMOUDLE
  2
MApiAmModule
  3
MApiAmServices
 90
        0
 91
        3
280
     0
281
     0
  0
CLASS
  1
AMDTADMENUSTATE
  2
AmdtAdMenuState
  3
DesignerServices
 90
        0
 91
        1
280
     0
281
     0
  0
CLASS
  1
ADAPPL
  2
AcAdAppl
  3
DesignerServices
 90
        0
 91
        3
280
     0
281
     0
  0
CLASS
  1
DEPMGR
  2
AcAdDepMgr
  3
DesignerServices
 90
        0
 91
        3
280
     0
281
     0
  0
CLASS
  1
PARAMMGR
  2
AcAdParamMgr
  3
DesignerServices
 90
        0
 91
        3
280
     0
281
     0
  0
CLASS
  1
PARAMSCOPE
  2
AcAdParamScope
  3
DesignerServices
 90
        0
 91
        3
280
     0
281
     0
  0
CLASS
  1
NAMEDAPPL
  2
AcAdNamedAppl
  3
DesignerServices
 90
        0
 91
        3
280
     0
281
     0
  0
CLASS
  1
AMDTDMMENUSTATE
  2
AmdtDmMenuState
  3
AcMechDwgViewMgmt
 90
        0
 91
        1
280
     0
281
     0
  0
CLASS
  1
AMDTAMMENUSTATE
  2
AmdtAmMenuState
  3
DesignerAssemblies
 90
        0
 91
        1
280
     0
281
     0
  0
CLASS
  1
ACAMPROJECT
  2
AcAmProject
  3
DesignerAssemblies
 90
        0
 91
        3
280
     0
281
     0
  0
CLASS
  1
ACAMGRCOMPDEF
  2
AcAmGrCompDef
  3
DesignerAssemblies
 90
        0
 91
        3
280
     0
281
     0
  0
CLASS
  1
ACCMCONTEXT
  2
AcCmContext
  3
DesignerAssemblies
 90
        0
 91
        3
280
     0
281
     0
  0
CLASS
  1
ACAMCOMPDEF
  2
AcAmCompDef
  3
DesignerAssemblies
 90
        0
 91
        3
280
     0
281
     0
  0
CLASS
  1
ACAMCOMPDEFMGR
  2
AcAmCompDefMgr
  3
DesignerAssemblies
 90
        0
 91
        3
280
     0
281
     0
  0
CLASS
  1
AMCONTEXTMGR
  2
AcAmContextMgr
  3
DesignerAssemblies
 90
        0
 91
        3
280
     0
281
     0
  0
CLASS
  1
ACAMCONTEXTMODELER
  2
AcAmContextModeler
  3
DesignerAssemblies
 90
        0
 91
        3
280
     0
281
     0
  0
CLASS
  1
ACMTHREADLINESTANDARDJIS
  2
AmdtThreadLineStdJIS
  3
"Amdt_StdImp|Product Description: AutoCAD Mechanical 2004 DX|Company: Autodesk"
 90
        0
 91
        3
280
     0
281
     0
  0
CLASS
  1
ACMNOTESTANDARDJIS
  2
AmdtNoteStdJIS
  3
"Amdt_StdImp|Product Description: AutoCAD Mechanical 2004 DX|Company: Autodesk"
 90
        0
 91
        3
280
     0
281
     0
  0
CLASS
  1
AMDTNOTETEMPLATEDB
  2
AmdtNoteTemplateDB
  3
AMDT_STDIMP_MODULE_NAME
 90
        0
 91
       24
280
     0
281
     0
  0
CLASS
  1
ACMTHREADLINESTANDARDISO
  2
AmdtThreadLineStdISO
  3
"Amdt_StdImp|Product Description: AutoCAD Mechanical 2004 DX|Company: Autodesk"
 90
        0
 91
        3
280
     0
281
     0
  0
CLASS
  1
ACMNOTESTANDARDISO
  2
AmdtNoteStdISO
  3
"Amdt_StdImp|Product Description: AutoCAD Mechanical 2004 DX|Company: Autodesk"
 90
        0
 91
        3
280
     0
281
     0
  0
CLASS
  1
CATALOGSTATE
  2
AcAmCatalogState
  3
DesignerAssemblies
 90
        0
 91
        3
280
     0
281
     0
  0
CLASS
  1
ACAMGRCOMPDEFSET
  2
AcAmGrCompDefSet
  3
DesignerAssemblies
 90
        0
 91
        1
280
     0
281
     0
  0
CLASS
  1
AMDTBROWSERDBTAB
  2
AmdtBrowserDbTab
  3
McadcomServices
 90
        0
 91
        1
280
     0
281
     0
  0
CLASS
  1
CBROWSERAPPOBJECT
  2
CBrowserAppObject
  3
McadcomServices
 90
        0
 91
        3
280
     0
281
     0
  0
CLASS
  1
DM_PLACEHOLDER
  2
AcDmSelsetPlaceholder
  3
AcMechDwgViewMgmt
 90
        0
 91
        1
280
     0
281
     0
  0
CLASS
  1
ACDBCIRCARCRES
  2
AcDbCircArcRes
  3
AcGrefServices
 90
        0
 91
        0
280
     0
281
     0
  0
ENDSEC
  0
SECTION
  2
TABLES
  0
TABLE
  2
VPORT
  5
8
330
0
100
AcDbSymbolTable
 70
     3
  0
VPORT
  5
2894
330
8
100
AcDbSymbolTableRecord
100
AcDbViewportTableRecord
  2
*Active
 70
     0
 10
0.0
 20
0.0
 11
1.0
 21
1.0
 12
3749.298971386553
 22
7068.18465061881
 13
0.0
 23
0.0
 14
25.0
 24
25.0
 15
100.0
 25
100.0
 16
0.0
 26
0.0
 36
1.0
 17
0.0
 27
0.0
 37
0.0
 40
3745.000123620068
 41
1.498730964467004
 42
50.0
 43
0.0
 44
0.0
 50
0.0
 51
0.0
 71
     0
 72
   100
 73
     1
 74
     3
 75
     0
 76
     0
 77
     0
 78
     0
281
     0
 65
     1
110
0.0
120
0.0
130
0.0
111
1.0
121
0.0
131
0.0
112
0.0
122
1.0
132
0.0
 79
     0
146
0.0
  0
ENDTAB
  0
TABLE
  2
LTYPE
  5
5
330
0
100
AcDbSymbolTable
 70
    21
  0
LTYPE
  5
14
330
5
100
AcDbSymbolTableRecord
100
AcDbLinetypeTableRecord
  2
ByBlock
 70
     0
  3

 72
    65
 73
     0
 40
0.0
  0
LTYPE
  5
15
330
5
100
AcDbSymbolTableRecord
100
AcDbLinetypeTableRecord
  2
ByLayer
 70
     0
  3

 72
    65
 73
     0
 40
0.0
  0
LTYPE
  5
16
330
5
100
AcDbSymbolTableRecord
100
AcDbLinetypeTableRecord
  2
Continuous
 70
     0
  3
Solid line
 72
    65
 73
     0
 40
0.0
  0
LTYPE
  5
35
330
5
100
AcDbSymbolTableRecord
100
AcDbLinetypeTableRecord
  2
AM_ISO02W050
 70
     0
  3
__ __ __ __ __ __ __ __ __ __ __ __ __ __ __
 72
    65
 73
     2
 40
7.5
 49
6.0
 74
     0
 49
-1.5
 74
     0
  0
LTYPE
  5
36
330
5
100
AcDbSymbolTableRecord
100
AcDbLinetypeTableRecord
  2
AM_ISO08W050
 70
     0
  3
____ . ____ . ____ . ____ . ____ . ____ . ____
 72
    65
 73
     4
 40
18.0
 49
12.0
 74
     0
 49
-1.5
 74
     0
 49
3.0
 74
     0
 49
-1.5
 74
     0
  0
LTYPE
  5
37
330
5
100
AcDbSymbolTableRecord
100
AcDbLinetypeTableRecord
  2
AM_ISO09W050
 70
     0
  3
_____ . . _____ . . _____ . . ____ .. ____
 72
    65
 73
     6
 40
22.5
 49
12.0
 74
     0
 49
-1.5
 74
     0
 49
3.0
 74
     0
 49
-1.5
 74
     0
 49
3.0
 74
     0
 49
-1.5
 74
     0
  0
LTYPE
  5
38
330
5
100
AcDbSymbolTableRecord
100
AcDbLinetypeTableRecord
  2
Amconstr
 70
     0
  3
_______________________
 72
    65
 73
     2
 40
9999.0
 49
9999.0
 74
     0
 49
0.0
 74
     0
  0
LTYPE
  5
39
330
5
100
AcDbSymbolTableRecord
100
AcDbLinetypeTableRecord
  2
AM_ISO08W050x2
 70
     0
  3
__ . __ . __ . __ . __ . __
 72
    65
 73
     4
 40
9.0
 49
6.0
 74
     0
 49
-0.75
 74
     0
 49
1.5
 74
     0
 49
-0.75
 74
     0
  0
LTYPE
  5
3A
330
5
100
AcDbSymbolTableRecord
100
AcDbLinetypeTableRecord
  2
AM_ISO02W050x2
 70
     0
  3
 _ _ _ _ _ _ _ _ _ _ _ _
 72
    65
 73
     2
 40
3.75
 49
3.0
 74
     0
 49
-0.75
 74
     0
  0
LTYPE
  5
3B
330
5
100
AcDbSymbolTableRecord
100
AcDbLinetypeTableRecord
  2
Amzigzag
 70
     0
  3
/\/-/\/-/\/-/\/-/\/-/\/
 72
    65
 73
     2
 40
11.0001
 49
0.0001
 74
     4
 75
   135
340
3C
 46
0.04
 50
0.0
 44
0.0
 45
0.0
 49
-11.0
 74
     0
  0
LTYPE
  5
64
330
5
100
AcDbSymbolTableRecord
100
AcDbLinetypeTableRecord
  2
ACJISTGB
 70
     0
  3
__ . . __ . .
 72
    65
 73
     6
 40
9.0
 49
4.0
 74
     0
 49
-1.0
 74
     0
 49
1.0
 74
     0
 49
-1.0
 74
     0
 49
1.0
 74
     0
 49
-1.0
 74
     0
  0
LTYPE
  5
65
330
5
100
AcDbSymbolTableRecord
100
AcDbLinetypeTableRecord
  2
ACJISTGL
 70
     0
  3
_ _ _ _ _
 72
    65
 73
     2
 40
3.0
 49
2.0
 74
     0
 49
-1.0
 74
     0
  0
LTYPE
  5
69
330
5
100
AcDbSymbolTableRecord
100
AcDbLinetypeTableRecord
  2
CENTER
 70
     0
  3
__ . __
 72
    65
 73
     4
 40
7.0
 49
4.0
 74
     0
 49
-1.0
 74
     0
 49
1.0
 74
     0
 49
-1.0
 74
     0
  0
LTYPE
  5
8F
330
5
100
AcDbSymbolTableRecord
100
AcDbLinetypeTableRecord
  2
ACISOWELD
 70
     0
  3
_ _ _ _ _
 72
    65
 73
     2
 40
2.0
 49
2.0
 74
     0
 49
-1.0
 74
     0
  0
LTYPE
  5
92
330
5
100
AcDbSymbolTableRecord
100
AcDbLinetypeTableRecord
  2
ACISOTGB
 70
     0
  3
__ . . __ . .
 72
    65
 73
     6
 40
9.0
 49
4.0
 74
     0
 49
-1.0
 74
     0
 49
1.0
 74
     0
 49
-1.0
 74
     0
 49
1.0
 74
     0
 49
-1.0
 74
     0
  0
LTYPE
  5
93
330
5
100
AcDbSymbolTableRecord
100
AcDbLinetypeTableRecord
  2
ACISOTGL
 70
     0
  3
_ _ _ _ _
 72
    65
 73
     2
 40
3.0
 49
2.0
 74
     0
 49
-1.0
 74
     0
  0
LTYPE
  5
30F
330
5
100
AcDbSymbolTableRecord
100
AcDbLinetypeTableRecord
  2
GEN7A
 70
     0
  3
__ . __ . __
 72
    65
 73
     4
 40
6.875
 49
5.0
 74
     0
 49
-0.625
 74
     0
 49
0.625
 74
     0
 49
-0.625
 74
     0
  0
LTYPE
  5
8FE
330
5
100
AcDbSymbolTableRecord
100
AcDbLinetypeTableRecord
  2
GEN7
 70
     0
  3
____ . ____ . ____ . ____ . ____ . ____ . ____
 72
    65
 73
     4
 40
13.75
 49
10.0
 74
     0
 49
-1.25
 74
     0
 49
1.25
 74
     0
 49
-1.25
 74
     0
  0
LTYPE
  5
8FF
330
5
100
AcDbSymbolTableRecord
100
AcDbLinetypeTableRecord
  2
GEN3A
 70
     0
  3
 - - - - -
 72
    65
 73
     2
 40
3.125
 49
2.5
 74
     0
 49
-0.625
 74
     0
  0
LTYPE
  5
900
330
5
100
AcDbSymbolTableRecord
100
AcDbLinetypeTableRecord
  2
GEN3
 70
     0
  3
-- -- -- -- -- -- -- -- -- -- -- -- -- -- --
 72
    65
 73
     2
 40
6.25
 49
5.0
 74
     0
 49
-1.25
 74
     0
  0
LTYPE
  5
901
330
5
100
AcDbSymbolTableRecord
100
AcDbLinetypeTableRecord
  2
GEN4A
 70
     0
  3
_____ . . _____ . . _____ . . ____ .. ____
 72
    65
 73
     6
 40
16.25
 49
10.0
 74
     0
 49
-1.25
 74
     0
 49
1.25
 74
     0
 49
-1.25
 74
     0
 49
1.25
 74
     0
 49
-1.25
 74
     0
  0
LTYPE
  5
2312
330
5
100
AcDbSymbolTableRecord
100
AcDbLinetypeTableRecord
  2
HIDDEN
 70
     0
  3
Hidden __ __ __ __ __ __ __ __ __ __ __ __ __ _
 72
    65
 73
     2
 40
9.524999999999998
 49
6.349999999999999
 74
     0
 49
-3.174999999999999
 74
     0
  0
LTYPE
  5
2313
330
5
100
AcDbSymbolTableRecord
100
AcDbLinetypeTableRecord
  2
PHANTOM2
 70
     0
  3
Phantom (.5x) ___ _ _ ___ _ _ ___ _ _ ___ _ _
 72
    65
 73
     6
 40
31.75
 49
15.875
 74
     0
 49
-3.174999999999999
 74
     0
 49
3.174999999999999
 74
     0
 49
-3.174999999999999
 74
     0
 49
3.174999999999999
 74
     0
 49
-3.174999999999999
 74
     0
  0
ENDTAB
  0
TABLE
  2
LAYER
  5
2
102
{ACAD_XDICTIONARY
360
2357
102
}
330
0
100
AcDbSymbolTable
 70
    23
  0
LAYER
  5
10
330
2
100
AcDbSymbolTableRecord
100
AcDbLayerTableRecord
  2
0
 70
     0
 62
     7
  6
Continuous
370
    -3
390
F
  0
LAYER
  5
F5
330
2
100
AcDbSymbolTableRecord
100
AcDbLayerTableRecord
  2
RAHM2
 70
     0
 62
     1
  6
Continuous
370
    -3
390
F
  0
LAYER
  5
1EF
330
2
100
AcDbSymbolTableRecord
100
AcDbLayerTableRecord
  2
AM_BOR
 70
     0
 62
     7
  6
Continuous
370
    50
390
F
  0
LAYER
  5
310
330
2
100
AcDbSymbolTableRecord
100
AcDbLayerTableRecord
  2
RAHM3
 70
     0
 62
     2
  6
Continuous
370
    -3
390
F
  0
LAYER
  5
312
330
2
100
AcDbSymbolTableRecord
100
AcDbLayerTableRecord
  2
1
 70
     0
 62
     7
  6
Continuous
370
    -3
390
F
  0
LAYER
  5
313
330
2
100
AcDbSymbolTableRecord
100
AcDbLayerTableRecord
  2
DEFPOINTS
 70
     0
 62
    -7
  6
Continuous
290
     0
370
    -3
390
F
  0
LAYER
  5
316
330
2
100
AcDbSymbolTableRecord
100
AcDbLayerTableRecord
  2
7A
 70
     0
 62
     4
  6
GEN7A
370
    -3
390
F
  0
LAYER
  5
3CC
330
2
100
AcDbSymbolTableRecord
100
AcDbLayerTableRecord
  2
AM_5
 70
     0
 62
     3
  6
Continuous
370
    25
390
F
  0
LAYER
  5
44A
330
2
100
AcDbSymbolTableRecord
100
AcDbLayerTableRecord
  2
AM_4
 70
     0
 62
     3
  6
Continuous
370
    25
390
F
  0
LAYER
  5
44C
330
2
100
AcDbSymbolTableRecord
100
AcDbLayerTableRecord
  2
AM_7
 70
     0
 62
     4
  6
AM_ISO08W050
370
    25
390
F
  0
LAYER
  5
44D
330
2
100
AcDbSymbolTableRecord
100
AcDbLayerTableRecord
  2
AM_8
 70
     0
 62
     1
  6
Continuous
370
    25
390
F
  0
LAYER
  5
904
330
2
100
AcDbSymbolTableRecord
100
AcDbLayerTableRecord
  2
7AN
 70
     0
 62
     4
  6
GEN7A
370
    -3
390
F
  0
LAYER
  5
905
330
2
100
AcDbSymbolTableRecord
100
AcDbLayerTableRecord
  2
4N
 70
     0
 62
     3
  6
Continuous
370
    -3
390
F
  0
LAYER
  5
906
330
2
100
AcDbSymbolTableRecord
100
AcDbLayerTableRecord
  2
7
 70
     0
 62
     4
  6
GEN7
370
    -3
390
F
  0
LAYER
  5
907
330
2
100
AcDbSymbolTableRecord
100
AcDbLayerTableRecord
  2
4
 70
     0
 62
    41
  6
Continuous
370
    -3
390
F
  0
LAYER
  5
908
330
2
100
AcDbSymbolTableRecord
100
AcDbLayerTableRecord
  2
8
 70
     0
 62
     1
  6
Continuous
370
    -3
390
F
  0
LAYER
  5
909
330
2
100
AcDbSymbolTableRecord
100
AcDbLayerTableRecord
  2
6
 70
     0
 62
     2
  6
Continuous
370
    -3
390
F
  0
LAYER
  5
90A
330
2
100
AcDbSymbolTableRecord
100
AcDbLayerTableRecord
  2
3
 70
     0
 62
     6
  6
GEN3
370
    -3
390
F
  0
LAYER
  5
90B
330
2
100
AcDbSymbolTableRecord
100
AcDbLayerTableRecord
  2
4A
 70
     0
 62
     3
  6
GEN4A
370
    -3
390
F
  0
LAYER
  5
90D
330
2
100
AcDbSymbolTableRecord
100
AcDbLayerTableRecord
  2
3AN
 70
     0
 62
     6
  6
GEN3A
370
    -3
390
F
  0
LAYER
  5
2356
330
2
100
AcDbSymbolTableRecord
100
AcDbLayerTableRecord
  2
TEXT
 70
     0
 62
     7
  6
Continuous
370
    -3
390
F
  0
LAYER
  5
2463
330
2
100
AcDbSymbolTableRecord
100
AcDbLayerTableRecord
  2
AM_CL
 70
     0
 62
     1
  6
Amconstr
370
    25
390
F
  0
LAYER
  5
2469
330
2
100
AcDbSymbolTableRecord
100
AcDbLayerTableRecord
  2
0N
 70
     0
 62
     7
  6
Continuous
370
    -3
390
F
  0
ENDTAB
  0
TABLE
  2
STYLE
  5
3
330
0
100
AcDbSymbolTable
 70
     6
  0
STYLE
  5
11
330
3
100
AcDbSymbolTableRecord
100
AcDbTextStyleTableRecord
  2
STANDARD
 70
     0
 40
0.0
 41
1.0
 50
0.0
 71
     0
 42
2.5
  3
ISOCP.SHX
  4
EXTFONT.SHX
  0
STYLE
  5
3C
330
3
100
AcDbSymbolTableRecord
100
AcDbTextStyleTableRecord
  2

 70
     1
 40
0.0
 41
1.0
 50
0.0
 71
     0
 42
2.5
  3
ltypeshp.shx
  4

  0
STYLE
  5
5D
330
3
100
AcDbSymbolTableRecord
100
AcDbTextStyleTableRecord
  2
ACJISTS
 70
     0
 40
1.0
 41
1.0
 50
0.0
 71
     0
 42
2.5
  3
isocp.shx
  4
extfont.shx
  0
STYLE
  5
60
330
3
100
AcDbSymbolTableRecord
100
AcDbTextStyleTableRecord
  2
ACJISGDT
 70
     0
 40
0.0
 41
1.0
 50
0.0
 71
     0
 42
2.5
  3
amgdt.shx
  4

  0
STYLE
  5
89
330
3
100
AcDbSymbolTableRecord
100
AcDbTextStyleTableRecord
  2
ACISOTS
 70
     0
 40
1.0
 41
1.0
 50
0.0
 71
     0
 42
2.5
  3
isocp.shx
  4
extfont.shx
  0
STYLE
  5
8D
330
3
100
AcDbSymbolTableRecord
100
AcDbTextStyleTableRecord
  2
ACISOGDT
 70
     0
 40
0.0
 41
1.0
 50
0.0
 71
     0
 42
2.5
  3
amgdt.shx
  4

  0
ENDTAB
  0
TABLE
  2
VIEW
  5
6
330
0
100
AcDbSymbolTable
 70
     6
  0
VIEW
  5
3C5
330
6
100
AcDbSymbolTableRecord
100
AcDbViewTableRecord
  2
AM_VIEW1
 70
     0
 40
1485.0
 10
2445.233453825375
 20
7810.729976402644
 41
2671.906077348066
 11
0.0
 21
0.0
 31
1.0
 12
0.0
 22
0.0
 32
0.0
 42
50.0
 43
0.0
 44
0.0
 50
0.0
 71
     0
281
     0
 72
     0
  0
VIEW
  5
3C6
330
6
100
AcDbSymbolTableRecord
100
AcDbViewTableRecord
  2
AM_VIEW2
 70
     0
 40
1485.0
 10
3973.327376477307
 20
7810.729976402644
 41
2671.906077348066
 11
0.0
 21
0.0
 31
1.0
 12
0.0
 22
0.0
 32
0.0
 42
50.0
 43
0.0
 44
0.0
 50
0.0
 71
     0
281
     0
 72
     0
  0
VIEW
  5
3C7
330
6
100
AcDbSymbolTableRecord
100
AcDbViewTableRecord
  2
AM_VIEW3
 70
     0
 40
1485.0
 10
2445.233453825375
 20
6325.729976402643
 41
2671.906077348066
 11
0.0
 21
0.0
 31
1.0
 12
0.0
 22
0.0
 32
0.0
 42
50.0
 43
0.0
 44
0.0
 50
0.0
 71
     0
281
     0
 72
     0
  0
VIEW
  5
3C8
330
6
100
AcDbSymbolTableRecord
100
AcDbViewTableRecord
  2
AM_VIEW4
 70
     0
 40
1485.0
 10
3973.327376477307
 20
6325.729976402643
 41
2671.906077348066
 11
0.0
 21
0.0
 31
1.0
 12
0.0
 22
0.0
 32
0.0
 42
50.0
 43
0.0
 44
0.0
 50
0.0
 71
     0
281
     0
 72
     0
  0
VIEW
  5
3C9
330
6
100
AcDbSymbolTableRecord
100
AcDbViewTableRecord
  2
AM_VIEW5
 70
     0
 40
1485.0
 10
3209.280415151341
 20
7068.229976402642
 41
2671.906077348067
 11
0.0
 21
0.0
 31
1.0
 12
0.0
 22
0.0
 32
0.0
 42
50.0
 43
0.0
 44
0.0
 50
0.0
 71
     0
281
     0
 72
     0
  0
VIEW
  5
3CA
330
6
100
AcDbSymbolTableRecord
100
AcDbViewTableRecord
  2
AM_VIEW6
 70
     0
 40
2969.970300000001
 10
3209.280415151341
 20
7068.229976402642
 41
5343.758716574587
 11
0.0
 21
0.0
 31
1.0
 12
0.0
 22
0.0
 32
0.0
 42
50.0
 43
0.0
 44
0.0
 50
0.0
 71
     0
281
     0
 72
     0
  0
ENDTAB
  0
TABLE
  2
UCS
  5
7
330
0
100
AcDbSymbolTable
 70
     0
  0
ENDTAB
  0
TABLE
  2
APPID
  5
9
330
0
100
AcDbSymbolTable
 70
    59
  0
APPID
  5
12
330
9
100
AcDbSymbolTableRecord
100
AcDbRegAppTableRecord
  2
ACAD
 70
     0
  0
APPID
  5
2D
330
9
100
AcDbSymbolTableRecord
100
AcDbRegAppTableRecord
  2
MCAD_NO_VIS
 70
     0
  0
APPID
  5
2E
330
9
100
AcDbSymbolTableRecord
100
AcDbRegAppTableRecord
  2
ACAD_TEMP_GRAPHIC
 70
     0
  0
APPID
  5
2F
330
9
100
AcDbSymbolTableRecord
100
AcDbRegAppTableRecord
  2
ACATTRIBSERVICES
 70
     0
  0
APPID
  5
1F0
330
9
100
AcDbSymbolTableRecord
100
AcDbRegAppTableRecord
  2
GENIUS_GENBLLY_14
 70
     0
  0
APPID
  5
321
330
9
100
AcDbSymbolTableRecord
100
AcDbRegAppTableRecord
  2
GENIUS_GENCFG_13
 70
     0
  0
APPID
  5
322
330
9
100
AcDbSymbolTableRecord
100
AcDbRegAppTableRecord
  2
GENIUS_GENOBJ_13
 70
     0
  0
APPID
  5
323
330
9
100
AcDbSymbolTableRecord
100
AcDbRegAppTableRecord
  2
GENIUS_GENODEF_13
 70
     0
  0
APPID
  5
324
330
9
100
AcDbSymbolTableRecord
100
AcDbRegAppTableRecord
  2
GENIUS_GENOENT_13
 70
     0
  0
APPID
  5
325
330
9
100
AcDbSymbolTableRecord
100
AcDbRegAppTableRecord
  2
GENIUS_GENOLIS_13
 70
     0
  0
APPID
  5
326
330
9
100
AcDbSymbolTableRecord
100
AcDbRegAppTableRecord
  2
GENIUS_GENOREF_13
 70
     0
  0
APPID
  5
327
330
9
100
AcDbSymbolTableRecord
100
AcDbRegAppTableRecord
  2
GENIUS_GENOBJ-N-TIT_13
 70
     0
  0
APPID
  5
328
330
9
100
AcDbSymbolTableRecord
100
AcDbRegAppTableRecord
  2
GENIUS_GENTITLE_13
 70
     0
  0
APPID
  5
329
330
9
100
AcDbSymbolTableRecord
100
AcDbRegAppTableRecord
  2
GENIUS_GENZVEED_13
 70
     0
  0
APPID
  5
32A
330
9
100
AcDbSymbolTableRecord
100
AcDbRegAppTableRecord
  2
GENIUS_GENOBJ-N-SDF_13
 70
     0
  0
APPID
  5
32B
330
9
100
AcDbSymbolTableRecord
100
AcDbRegAppTableRecord
  2
GENIUS_GENSCREG_13
 70
     0
  0
APPID
  5
32C
330
9
100
AcDbSymbolTableRecord
100
AcDbRegAppTableRecord
  2
GENIUS_GENCFG0_13
 70
     0
  0
APPID
  5
32D
330
9
100
AcDbSymbolTableRecord
100
AcDbRegAppTableRecord
  2
GENIUS_GENCFG1_13
 70
     0
  0
APPID
  5
32E
330
9
100
AcDbSymbolTableRecord
100
AcDbRegAppTableRecord
  2
GENIUS_GENCFG2_13
 70
     0
  0
APPID
  5
32F
330
9
100
AcDbSymbolTableRecord
100
AcDbRegAppTableRecord
  2
GENIUS_GENCFG3_13
 70
     0
  0
APPID
  5
330
330
9
100
AcDbSymbolTableRecord
100
AcDbRegAppTableRecord
  2
GENIUS_GENCFG4_13
 70
     0
  0
APPID
  5
331
330
9
100
AcDbSymbolTableRecord
100
AcDbRegAppTableRecord
  2
GENIUS_GEVCFG0_13
 70
     0
  0
APPID
  5
332
330
9
100
AcDbSymbolTableRecord
100
AcDbRegAppTableRecord
  2
GENIUS_GENOBJ-N-CRS_13
 70
     0
  0
APPID
  5
333
330
9
100
AcDbSymbolTableRecord
100
AcDbRegAppTableRecord
  2
GENIUS_GENOBJ-N-CEN_13
 70
     0
  0
APPID
  5
334
330
9
100
AcDbSymbolTableRecord
100
AcDbRegAppTableRecord
  2
GENIUS_GEFCFG0_13
 70
     0
  0
APPID
  5
3BA
330
9
100
AcDbSymbolTableRecord
100
AcDbRegAppTableRecord
  2
GENIUS_GENTRA_14
 70
     0
  0
APPID
  5
3CB
330
9
100
AcDbSymbolTableRecord
100
AcDbRegAppTableRecord
  2
GENIUS_GENSCREG_15
 70
     0
  0
APPID
  5
436
330
9
100
AcDbSymbolTableRecord
100
AcDbRegAppTableRecord
  2
GEVID984623613
 70
     0
  0
APPID
  5
437
330
9
100
AcDbSymbolTableRecord
100
AcDbRegAppTableRecord
  2
GEVDC
 70
     0
  0
APPID
  5
438
330
9
100
AcDbSymbolTableRecord
100
AcDbRegAppTableRecord
  2
GEVCON
 70
     0
  0
APPID
  5
43C
330
9
100
AcDbSymbolTableRecord
100
AcDbRegAppTableRecord
  2
GENIUS_GENBH_13
 70
     0
  0
APPID
  5
43E
330
9
100
AcDbSymbolTableRecord
100
AcDbRegAppTableRecord
  2
GENIUS_GENOBJ-NBEHI-BHF_13
 70
     0
  0
APPID
  5
440
330
9
100
AcDbSymbolTableRecord
100
AcDbRegAppTableRecord
  2
GENIUS_GENOBJ-NBEHI-BHB_13
 70
     0
  0
APPID
  5
455
330
9
100
AcDbSymbolTableRecord
100
AcDbRegAppTableRecord
  2
GENIUS_GENOBJ-F-SCPASSM_13
 70
     0
  0
APPID
  5
47B
330
9
100
AcDbSymbolTableRecord
100
AcDbRegAppTableRecord
  2
GEVID984623614
 70
     0
  0
APPID
  5
48B
330
9
100
AcDbSymbolTableRecord
100
AcDbRegAppTableRecord
  2
GEVID984623615
 70
     0
  0
APPID
  5
54A
330
9
100
AcDbSymbolTableRecord
100
AcDbRegAppTableRecord
  2
GENIUS_GENOBJ-N-REV_13
 70
     0
  0
APPID
  5
54B
330
9
100
AcDbSymbolTableRecord
100
AcDbRegAppTableRecord
  2
GENIUS_GENOBJ-N-RSSYM_13
 70
     0
  0
APPID
  5
54C
330
9
100
AcDbSymbolTableRecord
100
AcDbRegAppTableRecord
  2
GENIUS_GENSYMENT_13
 70
     0
  0
APPID
  5
54D
330
9
100
AcDbSymbolTableRecord
100
AcDbRegAppTableRecord
  2
GENIUS_GENSCSYM_13
 70
     0
  0
APPID
  5
90F
330
9
100
AcDbSymbolTableRecord
100
AcDbRegAppTableRecord
  2
GENIUS_GENOBJ-N-REC_13
 70
     0
  0
APPID
  5
910
330
9
100
AcDbSymbolTableRecord
100
AcDbRegAppTableRecord
  2
GENIUS_GENOBJ-N-FIL_13
 70
     0
  0
APPID
  5
911
330
9
100
AcDbSymbolTableRecord
100
AcDbRegAppTableRecord
  2
GENIUS_GEFPARTINS_13
 70
     0
  0
APPID
  5
912
330
9
100
AcDbSymbolTableRecord
100
AcDbRegAppTableRecord
  2
GENIUS_GENDTOL_13
 70
     0
  0
APPID
  5
913
330
9
100
AcDbSymbolTableRecord
100
AcDbRegAppTableRecord
  2
GENIUS_GENDREL_13
 70
     0
  0
APPID
  5
914
330
9
100
AcDbSymbolTableRecord
100
AcDbRegAppTableRecord
  2
GENIUS_GENOBJ-N-HTC_13
 70
     0
  0
APPID
  5
915
330
9
100
AcDbSymbolTableRecord
100
AcDbRegAppTableRecord
  2
GENIUS_GENHATCH_13
 70
     0
  0
APPID
  5
916
330
9
100
AcDbSymbolTableRecord
100
AcDbRegAppTableRecord
  2
GENIUS_GENOBJ-N-ZOO_13
 70
     0
  0
APPID
  5
917
330
9
100
AcDbSymbolTableRecord
100
AcDbRegAppTableRecord
  2
GENIUS_GENZOO_13
 70
     0
  0
APPID
  5
918
330
9
100
AcDbSymbolTableRecord
100
AcDbRegAppTableRecord
  2
GENIUS_GENHINW_13
 70
     0
  0
APPID
  5
919
330
9
100
AcDbSymbolTableRecord
100
AcDbRegAppTableRecord
  2
GENIUS_GENOBJ-N-LEADER_13
 70
     0
  0
APPID
  5
91A
330
9
100
AcDbSymbolTableRecord
100
AcDbRegAppTableRecord
  2
GENIUS_GENFIL_13
 70
     0
  0
APPID
  5
91B
330
9
100
AcDbSymbolTableRecord
100
AcDbRegAppTableRecord
  2
GENIUS_GENOBJ-N-CHA_13
 70
     0
  0
APPID
  5
1FE1
330
9
100
AcDbSymbolTableRecord
100
AcDbRegAppTableRecord
  2
GENIUS_GENREC_14
 70
     0
  0
APPID
  5
20DF
330
9
100
AcDbSymbolTableRecord
100
AcDbRegAppTableRecord
  2
GENIUS_GENDIMSH_14
 70
     0
  0
APPID
  5
2315
330
9
100
AcDbSymbolTableRecord
100
AcDbRegAppTableRecord
  2
AD_DRAW
 70
     0
  0
APPID
  5
2333
330
9
100
AcDbSymbolTableRecord
100
AcDbRegAppTableRecord
  2
DESIGNERASSEMBLIES
 70
     0
  0
APPID
  5
2346
330
9
100
AcDbSymbolTableRecord
100
AcDbRegAppTableRecord
  2
ACADM_DIM_EDIT
 70
     0
  0
APPID
  5
2347
330
9
100
AcDbSymbolTableRecord
100
AcDbRegAppTableRecord
  2
AMDT_DM_ADJ
 70
     0
  0
ENDTAB
  0
TABLE
  2
DIMSTYLE
  5
A
330
0
100
AcDbSymbolTable
 70
    15
100
AcDbDimStyleTable
 71
     1
340
76
  0
DIMSTYLE
105
76
102
{ACAD_REACTORS
330
1D02
330
1D4B
330
1D85
330
1DB6
330
1DEC
330
2080
330
20B1
330
20F2
330
211A
330
2136
330
2155
330
2186
330
21A5
330
21D6
330
2200
330
2228
330
225F
102
}
330
A
100
AcDbSymbolTableRecord
100
AcDbDimStyleTableRecord
  2
IGS
 70
     0
  4
"
 40
10.0
 41
2.5
 42
1.0
 43
10.0
 44
1.0
 47
0.1
 48
0.1
 73
     0
 74
     0
 77
     3
 78
     8
 79
     2
140
3.5
141
0.0
143
0.0393701
146
0.71
147
1.5
172
     1
176
   256
177
   256
178
     2
271
     2
272
     3
274
     4
283
     0
284
     8
340
11
341
77
342
77
343
77
344
77
371
    -1
372
    -1
  0
DIMSTYLE
105
7D
330
A
100
AcDbSymbolTableRecord
100
AcDbDimStyleTableRecord
  2
IGS$3
 70
     0
  4
"
 40
10.0
 41
2.5
 42
1.0
 43
10.0
 44
1.0
 47
0.1
 48
0.1
 73
     0
 77
     3
 78
     8
 79
     2
140
3.5
141
0.0
143
0.0393701
146
0.71
147
1.5
176
   256
177
   256
178
     2
271
     2
272
     3
274
     4
283
     0
284
     8
288
     1
289
     0
340
11
341
77
342
77
343
77
344
77
371
    -1
372
    -1
  0
DIMSTYLE
105
7E
330
A
100
AcDbSymbolTableRecord
100
AcDbDimStyleTableRecord
  2
IGS$4
 70
     0
  4
"
 40
10.0
 41
2.5
 42
1.0
 43
10.0
 44
1.0
 47
0.1
 48
0.1
 73
     0
 77
     3
 78
     8
 79
     2
140
3.5
141
0.0
143
0.0393701
146
0.71
147
1.5
176
   256
177
   256
178
     2
271
     2
272
     3
274
     4
283
     0
284
     8
288
     1
289
     0
340
11
341
77
342
77
343
77
344
77
371
    -1
372
    -1
  0
DIMSTYLE
105
7F
330
A
100
AcDbSymbolTableRecord
100
AcDbDimStyleTableRecord
  2
IGS$6
 70
     0
  4
"
 40
10.0
 41
2.5
 42
1.0
 43
10.0
 44
1.0
 47
0.1
 48
0.1
 73
     0
 74
     0
 78
     8
 79
     2
140
3.5
141
0.0
143
0.0393701
146
0.71
147
1.5
172
     1
176
   256
177
   256
178
     2
271
     2
272
     3
274
     4
283
     0
284
     8
340
11
341
77
342
77
343
77
344
77
371
    -1
372
    -1
  0
DIMSTYLE
105
80
330
A
100
AcDbSymbolTableRecord
100
AcDbDimStyleTableRecord
  2
IGS$7
 70
     0
  4
"
 40
10.0
 41
2.5
 42
1.0
 43
10.0
 44
1.0
 47
0.1
 48
0.1
 73
     0
 74
     0
 77
     3
 78
     8
 79
     2
140
5.0
141
0.0
143
0.0393701
146
0.71
147
1.5
172
     1
176
   256
177
   256
178
     2
271
     2
272
     3
274
     4
283
     0
284
     8
340
11
341
77
342
77
343
77
344
77
371
    -1
372
    -1
  0
DIMSTYLE
105
81
330
A
100
AcDbSymbolTableRecord
100
AcDbDimStyleTableRecord
  2
IGS$SF
 70
     0
  4
"
 40
10.0
 41
2.5
 42
1.0
 43
10.0
 44
1.0
 47
0.1
 48
0.1
 73
     0
 74
     0
 75
     1
 76
     1
 77
     3
 78
     8
 79
     2
140
3.5
141
0.0
143
0.0393701
146
0.71
147
1.5
172
     1
176
   256
177
   256
178
     2
271
     2
272
     3
274
     4
283
     0
284
     8
340
11
341
77
342
77
343
77
344
77
371
    -1
372
    -1
  0
DIMSTYLE
105
82
330
A
100
AcDbSymbolTableRecord
100
AcDbDimStyleTableRecord
  2
IGS$SH
 70
     0
  4
"
 40
10.0
 41
2.5
 42
1.0
 43
10.0
 44
1.0
 47
0.1
 48
0.1
 73
     0
 74
     0
 75
     1
 76
     1
 77
     3
 78
     8
 79
     2
140
3.5
141
0.0
143
0.0393701
144
2.0
146
0.71
147
1.5
172
     1
173
     1
176
   256
177
   256
178
     2
271
     2
272
     3
274
     4
283
     0
284
     8
340
11
341
77
342
77
343
83
344
77
371
    -1
372
    -1
  0
DIMSTYLE
105
9A
330
A
100
AcDbSymbolTableRecord
100
AcDbDimStyleTableRecord
  2
AM_ISO
 70
     0
  4
"
 40
10.0
 41
2.5
 42
1.0
 43
10.0
 44
1.0
 47
0.1
 48
0.1
 73
     0
 74
     0
 77
     1
 78
     8
 79
     2
140
3.5
141
0.0
143
0.0393701
146
0.71
147
1.5
172
     1
176
   256
177
   256
178
     2
271
     2
272
     3
274
     4
283
     0
284
     8
340
11
371
    -1
372
    -1
  0
DIMSTYLE
105
9B
330
A
100
AcDbSymbolTableRecord
100
AcDbDimStyleTableRecord
  2
AM_ISO$3
 70
     0
  4
"
 40
10.0
 41
2.5
 42
1.0
 43
10.0
 44
1.0
 47
0.1
 48
0.1
 73
     0
 77
     1
 78
     8
 79
     2
140
3.5
141
0.0
143
0.0393701
146
0.71
147
1.5
176
   256
177
   256
178
     2
271
     2
272
     3
274
     4
283
     0
284
     8
288
     1
289
     0
340
11
371
    -1
372
    -1
  0
DIMSTYLE
105
9C
330
A
100
AcDbSymbolTableRecord
100
AcDbDimStyleTableRecord
  2
AM_ISO$4
 70
     0
  4
"
 40
10.0
 41
2.5
 42
1.0
 43
10.0
 44
1.0
 47
0.1
 48
0.1
 73
     0
 77
     1
 78
     8
 79
     2
140
3.5
141
0.0
143
0.0393701
146
0.71
147
1.5
176
   256
177
   256
178
     2
271
     2
272
     3
274
     4
283
     0
284
     8
288
     1
289
     0
340
11
371
    -1
372
    -1
  0
DIMSTYLE
105
9D
330
A
100
AcDbSymbolTableRecord
100
AcDbDimStyleTableRecord
  2
AM_ISO$6
 70
     0
  4
"
 40
10.0
 41
2.5
 42
1.0
 43
10.0
 44
1.0
 47
0.1
 48
0.1
 73
     0
 74
     0
 78
     8
 79
     2
140
3.5
141
0.0
143
0.0393701
146
0.71
147
1.5
172
     1
176
   256
177
   256
178
     2
271
     2
272
     3
274
     4
283
     0
284
     8
340
11
371
    -1
372
    -1
  0
DIMSTYLE
105
9E
330
A
100
AcDbSymbolTableRecord
100
AcDbDimStyleTableRecord
  2
AM_ISO$7
 70
     0
  4
"
 40
10.0
 41
2.5
 42
1.0
 43
10.0
 44
1.0
 47
0.1
 48
0.1
 73
     0
 74
     0
 77
     1
 78
     8
 79
     2
140
5.0
141
0.0
143
0.0393701
146
0.71
147
1.5
172
     1
176
   256
177
   256
178
     2
271
     2
272
     3
274
     4
283
     0
284
     8
340
11
371
    -1
372
    -1
  0
DIMSTYLE
105
9F
330
A
100
AcDbSymbolTableRecord
100
AcDbDimStyleTableRecord
  2
AM_ISO$SF
 70
     0
  4
"
 40
10.0
 41
2.5
 42
1.0
 43
10.0
 44
1.0
 47
0.1
 48
0.1
 73
     0
 74
     0
 75
     1
 76
     1
 77
     1
 78
     8
 79
     2
140
3.5
141
0.0
143
0.0393701
146
0.71
147
1.5
172
     1
176
   256
177
   256
178
     2
271
     2
272
     3
274
     4
283
     0
284
     8
340
11
371
    -1
372
    -1
  0
DIMSTYLE
105
A0
330
A
100
AcDbSymbolTableRecord
100
AcDbDimStyleTableRecord
  2
AM_ISO$SH
 70
     0
  4
"
 40
10.0
 41
2.5
 42
1.0
 43
10.0
 44
1.0
 47
0.1
 48
0.1
 73
     0
 74
     0
 75
     1
 76
     1
 77
     1
 78
     8
 79
     2
140
3.5
141
0.0
143
0.0393701
144
2.0
146
0.71
147
1.5
172
     1
173
     1
176
   256
177
   256
178
     2
271
     2
272
     3
274
     4
283
     0
284
     8
340
11
343
83
371
    -1
372
    -1
  0
DIMSTYLE
105
317
330
A
100
AcDbSymbolTableRecord
100
AcDbDimStyleTableRecord
  2
STANDARD
 70
     0
340
11
  0
ENDTAB
  0
TABLE
  2
BLOCK_RECORD
  5
1
330
0
100
AcDbSymbolTable
 70
    31
  0
BLOCK_RECORD
  5
1F
102
{ACAD_XDICTIONARY
360
B1
102
}
330
1
100
AcDbSymbolTableRecord
100
AcDbBlockTableRecord
  2
*Model_Space
340
22
  0
BLOCK_RECORD
  5
1B
330
1
100
AcDbSymbolTableRecord
100
AcDbBlockTableRecord
  2
*Paper_Space
340
1E
  0
BLOCK_RECORD
  5
23
330
1
100
AcDbSymbolTableRecord
100
AcDbBlockTableRecord
  2
*Paper_Space0
340
26
  0
BLOCK_RECORD
  5
77
330
1
100
AcDbSymbolTableRecord
100
AcDbBlockTableRecord
  2
_Open30
340
0
102
{BLKREFS
331
23F2
331
23F3
331
23FB
331
23FC
331
2404
331
2405
331
240D
331
240E
331
2416
331
2417
331
241F
331
2420
331
2428
331
2429
331
2431
331
2432
331
243A
331
243B
331
2443
331
2444
331
244E
331
244F
331
2457
331
2458
331
27A5
331
27A6
331
27AE
331
27AF
331
27B7
331
27B8
331
27C0
331
27C1
331
27C9
331
27CA
102
}
  0
BLOCK_RECORD
  5
83
330
1
100
AcDbSymbolTableRecord
100
AcDbBlockTableRecord
  2
GENAXEH
340
0
  0
BLOCK_RECORD
  5
335
330
1
100
AcDbSymbolTableRecord
100
AcDbBlockTableRecord
  2
IGS2
340
0
102
{BLKREFS
331
1CF1
102
}
  0
BLOCK_RECORD
  5
6A8
330
1
100
AcDbSymbolTableRecord
100
AcDbBlockTableRecord
  2
IGS_A3
340
0
102
{BLKREFS
331
1CF0
102
}
  0
BLOCK_RECORD
  5
851
330
1
100
AcDbSymbolTableRecord
100
AcDbBlockTableRecord
  2
*X5
340
0
102
{BLKREFS
331
E56
102
}
  0
BLOCK_RECORD
  5
863
330
1
100
AcDbSymbolTableRecord
100
AcDbBlockTableRecord
  2
*X6
340
0
102
{BLKREFS
331
103C
102
}
  0
BLOCK_RECORD
  5
1D03
330
1
100
AcDbSymbolTableRecord
100
AcDbBlockTableRecord
  2
*D7
340
0
  0
BLOCK_RECORD
  5
1D4C
330
1
100
AcDbSymbolTableRecord
100
AcDbBlockTableRecord
  2
*D8
340
0
  0
BLOCK_RECORD
  5
1D86
330
1
100
AcDbSymbolTableRecord
100
AcDbBlockTableRecord
  2
*D9
340
0
  0
BLOCK_RECORD
  5
1DB7
330
1
100
AcDbSymbolTableRecord
100
AcDbBlockTableRecord
  2
*D10
340
0
  0
BLOCK_RECORD
  5
1DED
330
1
100
AcDbSymbolTableRecord
100
AcDbBlockTableRecord
  2
*D11
340
0
  0
BLOCK_RECORD
  5
2081
330
1
100
AcDbSymbolTableRecord
100
AcDbBlockTableRecord
  2
*D12
340
0
  0
BLOCK_RECORD
  5
20B2
330
1
100
AcDbSymbolTableRecord
100
AcDbBlockTableRecord
  2
*D13
340
0
  0
BLOCK_RECORD
  5
20F3
330
1
100
AcDbSymbolTableRecord
100
AcDbBlockTableRecord
  2
*D14
340
0
  0
BLOCK_RECORD
  5
211B
330
1
100
AcDbSymbolTableRecord
100
AcDbBlockTableRecord
  2
*D15
340
0
  0
BLOCK_RECORD
  5
2137
330
1
100
AcDbSymbolTableRecord
100
AcDbBlockTableRecord
  2
*D16
340
0
  0
BLOCK_RECORD
  5
2156
330
1
100
AcDbSymbolTableRecord
100
AcDbBlockTableRecord
  2
*D17
340
0
  0
BLOCK_RECORD
  5
2187
330
1
100
AcDbSymbolTableRecord
100
AcDbBlockTableRecord
  2
*D18
340
0
  0
BLOCK_RECORD
  5
21A6
330
1
100
AcDbSymbolTableRecord
100
AcDbBlockTableRecord
  2
*D19
340
0
  0
BLOCK_RECORD
  5
21D7
330
1
100
AcDbSymbolTableRecord
100
AcDbBlockTableRecord
  2
*D20
340
0
  0
BLOCK_RECORD
  5
2201
330
1
100
AcDbSymbolTableRecord
100
AcDbBlockTableRecord
  2
*D21
340
0
  0
BLOCK_RECORD
  5
2229
330
1
100
AcDbSymbolTableRecord
100
AcDbBlockTableRecord
  2
*D22
340
0
  0
BLOCK_RECORD
  5
2260
330
1
100
AcDbSymbolTableRecord
100
AcDbBlockTableRecord
  2
*D23
340
0
  0
BLOCK_RECORD
  5
234E
330
1
100
AcDbSymbolTableRecord
100
AcDbBlockTableRecord
  2
NAKAMURA
340
0
310
2800000020000000200000000100080000000000000400000000000000000000000000000000000000000000000080000080000000808000800000008000800080800000C0C0C000C0DCC000F0CAA6000020400000206000002080000020A0000020C0000020E00000400000004020000040400000406000004080000040A0
310
000040C0000040E00000600000006020000060400000606000006080000060A0000060C0000060E00000800000008020000080400000806000008080000080A0000080C0000080E00000A0000000A0200000A0400000A0600000A0800000A0A00000A0C00000A0E00000C0000000C0200000C0400000C0600000C0800000C0
310
A00000C0C00000C0E00000E0000000E0200000E0400000E0600000E0800000E0A00000E0C00000E0E00040000000400020004000400040006000400080004000A0004000C0004000E00040200000402020004020400040206000402080004020A0004020C0004020E000404000004040200040404000404060004040800040
310
40A0004040C0004040E00040600000406020004060400040606000406080004060A0004060C0004060E00040800000408020004080400040806000408080004080A0004080C0004080E00040A0000040A0200040A0400040A0600040A0800040A0A00040A0C00040A0E00040C0000040C0200040C0400040C0600040C08000
310
40C0A00040C0C00040C0E00040E0000040E0200040E0400040E0600040E0800040E0A00040E0C00040E0E00080000000800020008000400080006000800080008000A0008000C0008000E00080200000802020008020400080206000802080008020A0008020C0008020E00080400000804020008040400080406000804080
310
008040A0008040C0008040E00080600000806020008060400080606000806080008060A0008060C0008060E00080800000808020008080400080806000808080008080A0008080C0008080E00080A0000080A0200080A0400080A0600080A0800080A0A00080A0C00080A0E00080C0000080C0200080C0400080C0600080C0
310
800080C0A00080C0C00080C0E00080E0000080E0200080E0400080E0600080E0800080E0A00080E0C00080E0E000C0000000C0002000C0004000C0006000C0008000C000A000C000C000C000E000C0200000C0202000C0204000C0206000C0208000C020A000C020C000C020E000C0400000C0402000C0404000C0406000C0
310
408000C040A000C040C000C040E000C0600000C0602000C0604000C0606000C0608000C060A000C060C000C060E000C0800000C0802000C0804000C0806000C0808000C080A000C080C000C080E000C0A00000C0A02000C0A04000C0A06000C0A08000C0A0A000C0A0C000C0A0E000C0C00000C0C02000C0C04000C0C06000
310
C0C08000C0C0A000F0FBFF00A4A0A000808080000000FF0000FF000000FFFF00FF000000FF00FF00FFFF0000FFFFFF000000000000000000000000000000000000000000000000000000000000000000000000000000000000000000000000FFFFFF000000000000000000000000000000000000000000000000FFFFFFFFFF
310
000000FFFF0000000000000000000000000000000000000000FFFF00000000000000000000FFFFFF00000000000000000000000000000000FF00000000FF0000000000FF00FFFF00FFFF00000000000000000000000000FF0000000000FF0000000000FF0000FF000000FF0000000000000000000000FF000000FFFFFFFFFF
310
FF00FF00FF00FFFF00000000FF000000000000000000FF00000000FF0000FF00FF0000FFFFFFFFFF0000000000FF0000000000000000FF00000000FF0000FF00FF0000FFFFFFFFFF0000000000FF00000000000000FF0000000000FF0000FF00FF00FFFFFFFFFFFFFF0000000000FF000000000000FF0000000000FFFFFFFF
310
FFFF000000FF0000FF00000000000000FF00000000FF000000000000000000FF0000000000FF0000FF00000000000000FF00000000FFFFFFFFFFFFFFFFFFFFFFFFFFFFFFFFFFFFFFFFFFFFFFFFFFFFFFFF00000000FF0000000000000000000000000000000000000000000000000000FF000000FF00000000000000000000
310
000000000000000000000000000000000000FF0000FF00000000000000000000000000000000000000000000000000000000FF0000FF00000000000000000000000000000000000000000000000000000000FF0000FF00000000000000000000000000000000000000000000000000000000FF000000FF0000000000000000
310
000000000000000000000000000000000000FF00000000FF0000000000000000000000000000000000000000000000000000FF00000000FF0000000000000000000000000000000000000000000000000000FF0000000000FF00000000000000000000000000000000000000000000000000FF0000000000FFFFFFFFFFFFFF
310
FFFFFFFFFFFFFFFFFFFFFFFFFFFFFFFFFFFFFF00000000000000FF000000000000FFFF00FFFF00FFFF00FF000000000000FF0000000000000000FF000000000000FF00FFFF0000FFFF00FF000000000000FF000000000000000000FF00000000FFFF00FFFF0000FFFFFFFF0000000000FF0000000000000000000000FF0000
310
0000FFFFFF00FFFFFFFFFFFF00000000FF00000000000000000000000000FF0000FFFFFFFFFFFF00FFFFFFFFFF00FFFF000000000000000000000000000000FFFF00FFFFFFFFFFFFFFFFFFFFFFFF00000000000000000000000000000000000000FFFFFFFFFF0000FFFFFFFF00000000000000000000000000000000000000
310
00000000000000FFFFFF00000000000000000000000000000000000000000000000000000000000000000000000000000000000000000000
1001
ACAD
1000
DesignCenter Data
1002
{
1070
     1
1070
     4
1002
}
  0
BLOCK_RECORD
  5
2862
330
1
100
AcDbSymbolTableRecord
100
AcDbBlockTableRecord
  2
*S26
340
0
  0
BLOCK_RECORD
  5
286C
330
1
100
AcDbSymbolTableRecord
100
AcDbBlockTableRecord
  2
*S27
340
0
  0
BLOCK_RECORD
  5
2876
330
1
100
AcDbSymbolTableRecord
100
AcDbBlockTableRecord
  2
*S28
340
0
  0
BLOCK_RECORD
  5
2880
330
1
100
AcDbSymbolTableRecord
100
AcDbBlockTableRecord
  2
*S29
340
0
  0
BLOCK_RECORD
  5
288A
330
1
100
AcDbSymbolTableRecord
100
AcDbBlockTableRecord
  2
*S30
340
0
  0
ENDTAB
  0
ENDSEC
  0
SECTION
  2
BLOCKS
  0
BLOCK
  5
20
330
1F
100
AcDbEntity
  8
0
100
AcDbBlockBegin
  2
*Model_Space
 70
     0
 10
0.0
 20
0.0
 30
0.0
  3
*Model_Space
  1

  0
ENDBLK
  5
21
330
1F
100
AcDbEntity
  8
0
100
AcDbBlockEnd
  0
BLOCK
  5
1C
330
1B
100
AcDbEntity
 67
     1
  8
0
100
AcDbBlockBegin
  2
*Paper_Space
 70
     0
 10
0.0
 20
0.0
 30
0.0
  3
*Paper_Space
  1

  0
ENDBLK
  5
1D
330
1B
100
AcDbEntity
 67
     1
  8
0
100
AcDbBlockEnd
  0
BLOCK
  5
24
330
23
100
AcDbEntity
  8
0
100
AcDbBlockBegin
  2
*Paper_Space0
 70
     0
 10
0.0
 20
0.0
 30
0.0
  3
*Paper_Space0
  1

  0
ENDBLK
  5
25
330
23
100
AcDbEntity
  8
0
100
AcDbBlockEnd
  0
BLOCK
  5
7B
330
77
100
AcDbEntity
  8
0
100
AcDbBlockBegin
  2
_Open30
 70
     0
 10
0.0
 20
0.0
 30
0.0
  3
_Open30
  1

  0
LINE
  5
78
330
77
100
AcDbEntity
  8
0
  6
ByBlock
 62
     0
370
    -2
100
AcDbLine
 10
-1.0
 20
0.26794919
 30
0.0
 11
0.0
 21
0.0
 31
0.0
  0
LINE
  5
79
330
77
100
AcDbEntity
  8
0
  6
ByBlock
 62
     0
370
    -2
100
AcDbLine
 10
0.0
 20
0.0
 30
0.0
 11
-1.0
 21
-0.26794919
 31
0.0
  0
LINE
  5
7A
330
77
100
AcDbEntity
  8
0
  6
ByBlock
 62
     0
370
    -2
100
AcDbLine
 10
0.0
 20
0.0
 30
0.0
 11
-1.0
 21
0.0
 31
0.0
  0
ENDBLK
  5
7C
330
77
100
AcDbEntity
  8
0
100
AcDbBlockEnd
  0
BLOCK
  5
85
330
83
100
AcDbEntity
  8
0
100
AcDbBlockBegin
  2
GENAXEH
 70
     0
 10
0.0
 20
0.0
 30
0.0
  3
GENAXEH
  1

  0
LINE
  5
84
330
83
100
AcDbEntity
  8
0
100
AcDbLine
 10
-1.0
 20
0.0
 30
0.0
 11
1.0
 21
0.0
 31
0.0
  0
ENDBLK
  5
86
330
83
100
AcDbEntity
  8
0
100
AcDbBlockEnd
  0
BLOCK
  5
3B8
330
335
100
AcDbEntity
  8
0
100
AcDbBlockBegin
  2
IGS2
 70
     2
 10
0.0
 20
0.0
 30
0.0
  3
IGS2
  1

  0
POINT
  5
336
330
335
100
AcDbEntity
  8
0
 60
     1
100
AcDbPoint
 10
0.0
 20
0.0
 30
0.0
1001
GENIUS_GENODEF_13
1002
{
1000
HIER
1070
     1
1002
}
1002
{
1000
MANEDIT
1070
     0
1002
}
1002
{
1000
NOSEL
1070
     0
1002
}
1002
{
1000
BEHIND
1070
     0
1002
}
1002
{
1000
REACTOR
1002
}
1001
GENIUS_GENTITLE_13
1002
{
1000
SCALE
1000
1:1
1002
}
1002
{
1000
BORDER
1000
IGS-A4
1002
}
1002
{
1000
TITLE
1000
IGS-TITLE
1002
}
1002
{
1000
UNCHG
1002
{
1000
GEN-TITLE-SCA
1000
GEN-TITLE-SIZ
1002
}
1002
}
1002
{
1000
HRA
1005
0
1002
}
1002
{
1000
HTIT
1005
0
1002
}
1002
{
1000
GENIUSID
1005
336
1002
}
1001
GENIUS_GENOBJ-N-TIT_13
1002
{
1000
OWNER
1000
GEN
1002
}
1001
GENIUS_GENOENT_13
1002
{
1000
MYREF
1005
336
1002
}
1002
{
1000
GRP
1005
0
1002
}
1001
GENIUS_GENOLIS_13
1002
{
1000
ENT
1005
0
1005
0
1002
}
  0
LINE
  5
337
330
335
100
AcDbEntity
  8
RAHM3
100
AcDbLine
 10
-148.4080564410193
 20
8.825237325416161
 30
52.0
 11
-145.4319868410194
 21
8.825237325416161
 31
52.0
  0
ARC
  5
338
330
335
100
AcDbEntity
  8
RAHM3
100
AcDbCircle
 10
-141.4638940410194
 20
7.833214125416168
 30
52.0
 40
0.9920232
100
AcDbArc
 50
90.0
 51
180.0
  0
LINE
  5
339
330
335
100
AcDbEntity
  8
RAHM3
100
AcDbLine
 10
-137.6611384410193
 20
8.825237325416161
 30
52.0
 11
-141.4638940410194
 21
8.825237325416161
 31
52.0
  0
ARC
  5
33A
330
335
100
AcDbEntity
  8
RAHM3
100
AcDbCircle
 10
-137.6611384410193
 20
7.833214125416168
 30
52.0
 40
0.9920232
100
AcDbArc
 50
0.0
 51
90.0
  0
ARC
  5
33B
330
335
100
AcDbEntity
  8
RAHM3
100
AcDbCircle
 10
-129.0636040410194
 20
7.833214125416168
 30
52.0
 40
0.9920232
100
AcDbArc
 50
0.0
 51
90.0
  0
LINE
  5
33C
330
335
100
AcDbEntity
  8
RAHM3
100
AcDbLine
 10
-132.7010224410193
 20
8.825237325416161
 30
52.0
 11
-129.0636040410194
 21
8.825237325416161
 31
52.0
  0
ARC
  5
33D
330
335
100
AcDbEntity
  8
RAHM3
100
AcDbCircle
 10
-132.7010224410193
 20
7.833214125416168
 30
52.0
 40
0.9920232
100
AcDbArc
 50
90.0
 51
180.0
  0
LINE
  5
33E
330
335
100
AcDbEntity
  8
RAHM3
100
AcDbLine
 10
-148.4080564410193
 20
8.163888525416165
 30
52.0
 11
-147.5813704410193
 21
8.163888525416165
 31
52.0
  0
LINE
  5
33F
330
335
100
AcDbEntity
  8
RAHM3
100
AcDbLine
 10
-147.5813704410193
 20
8.163888525416165
 30
52.0
 11
-147.5813704410193
 21
3.865121325416145
 31
52.0
  0
LINE
  5
340
330
335
100
AcDbEntity
  8
RAHM3
100
AcDbLine
 10
-146.2586728410194
 20
3.865121325416145
 30
52.0
 11
-146.2586728410194
 21
8.163888525416165
 31
52.0
  0
LINE
  5
341
330
335
100
AcDbEntity
  8
RAHM3
100
AcDbLine
 10
-146.2586728410194
 20
8.163888525416165
 30
52.0
 11
-145.4319868410194
 21
8.163888525416165
 31
52.0
  0
LINE
  5
342
330
335
100
AcDbEntity
  8
RAHM3
100
AcDbLine
 10
-145.4319868410194
 20
8.825237325416161
 30
52.0
 11
-145.4319868410194
 21
8.163888525416165
 31
52.0
  0
LINE
  5
343
330
335
100
AcDbEntity
  8
RAHM3
100
AcDbLine
 10
-148.4080564410193
 20
8.163888525416165
 30
52.0
 11
-148.4080564410193
 21
8.825237325416161
 31
52.0
  0
LINE
  5
344
330
335
100
AcDbEntity
  8
RAHM3
100
AcDbLine
 10
-145.4319868410194
 20
3.203772525416149
 30
52.0
 11
-148.4080564410193
 21
3.203772525416149
 31
52.0
  0
CIRCLE
  5
345
330
335
100
AcDbEntity
  8
RAHM3
100
AcDbCircle
 10
-144.1092892410194
 20
3.865121325416145
 30
52.0
 40
0.6613488000000001
  0
LINE
  5
346
330
335
100
AcDbEntity
  8
RAHM3
100
AcDbLine
 10
-137.9918128410194
 20
3.865121325416145
 30
52.0
 11
-137.9918128410194
 21
3.203772525416149
 31
52.0
  0
LINE
  5
347
330
335
100
AcDbEntity
  8
RAHM3
100
AcDbLine
 10
-137.9918128410194
 20
3.203772525416149
 30
52.0
 11
-136.6691152410193
 21
3.203772525416149
 31
52.0
  0
ARC
  5
348
330
335
100
AcDbEntity
  8
RAHM3
100
AcDbCircle
 10
-141.4638940410194
 20
4.195795725416166
 30
52.0
 40
0.9920232
100
AcDbArc
 50
180.0
 51
270.0
  0
LINE
  5
349
330
335
100
AcDbEntity
  8
RAHM3
100
AcDbLine
 10
-141.4638940410194
 20
3.203772525416149
 30
52.0
 11
-141.1332196410193
 21
3.203772525416149
 31
52.0
  0
LINE
  5
34A
330
335
100
AcDbEntity
  8
RAHM3
100
AcDbLine
 10
-142.4559172410194
 20
4.195795725416166
 30
52.0
 11
-142.4559172410194
 21
7.833214125416168
 31
52.0
  0
CIRCLE
  5
34B
330
335
100
AcDbEntity
  8
RAHM3
100
AcDbCircle
 10
-135.5117548410193
 20
3.865121325416145
 30
52.0
 40
0.6613488000000001
  0
ARC
  5
34C
330
335
100
AcDbEntity
  8
RAHM3
100
AcDbCircle
 10
-132.7010224410193
 20
4.195795725416166
 30
52.0
 40
0.9920232
100
AcDbArc
 50
180.0
 51
270.0
  0
LINE
  5
34D
330
335
100
AcDbEntity
  8
RAHM3
100
AcDbLine
 10
-129.0636040410194
 20
3.203772525416149
 30
52.0
 11
-132.7010224410193
 21
3.203772525416149
 31
52.0
  0
ARC
  5
34E
330
335
100
AcDbEntity
  8
RAHM3
100
AcDbCircle
 10
-129.0636040410194
 20
4.195795725416166
 30
52.0
 40
0.9920232
100
AcDbArc
 50
270.0
 51
0.0
  0
LINE
  5
34F
330
335
100
AcDbEntity
  8
RAHM3
100
AcDbLine
 10
-133.6930456410194
 20
4.195795725416166
 30
52.0
 11
-133.6930456410194
 21
5.022481725416161
 31
52.0
  0
LINE
  5
350
330
335
100
AcDbEntity
  8
RAHM3
100
AcDbLine
 10
-128.0715808410194
 20
7.833214125416168
 30
52.0
 11
-128.0715808410194
 21
7.00652812541615
 31
52.0
  0
CIRCLE
  5
351
330
335
100
AcDbEntity
  8
RAHM3
100
AcDbCircle
 10
-126.9142204410194
 20
3.865121325416145
 30
52.0
 40
0.6613488000000001
  0
LINE
  5
352
330
335
100
AcDbEntity
  8
RAHM3
100
AcDbLine
 10
-136.6691152410193
 20
7.171865325416149
 30
52.0
 11
-137.8264756410194
 21
7.171865325416149
 31
52.0
  0
LINE
  5
353
330
335
100
AcDbEntity
  8
RAHM3
100
AcDbLine
 10
-137.8264756410194
 20
7.171865325416149
 30
52.0
 11
-137.8264756410194
 21
7.667876925416146
 31
52.0
  0
LINE
  5
354
330
335
100
AcDbEntity
  8
RAHM3
100
AcDbLine
 10
-137.8264756410194
 20
7.667876925416146
 30
52.0
 11
-141.2985568410193
 21
7.667876925416146
 31
52.0
  0
LINE
  5
355
330
335
100
AcDbEntity
  8
RAHM3
100
AcDbLine
 10
-141.2985568410193
 20
7.667876925416146
 30
52.0
 11
-141.2985568410193
 21
4.361132925416165
 31
52.0
  0
LINE
  5
356
330
335
100
AcDbEntity
  8
RAHM3
100
AcDbLine
 10
-137.8264756410194
 20
5.518493325416158
 30
52.0
 11
-139.4798476410193
 21
5.518493325416158
 31
52.0
  0
LINE
  5
357
330
335
100
AcDbEntity
  8
RAHM3
100
AcDbLine
 10
-139.4798476410193
 20
5.518493325416158
 30
52.0
 11
-139.4798476410193
 21
6.510516525416153
 31
52.0
  0
LINE
  5
358
330
335
100
AcDbEntity
  8
RAHM3
100
AcDbLine
 10
-136.6691152410193
 20
7.171865325416149
 30
52.0
 11
-136.6691152410193
 21
7.833214125416168
 31
52.0
  0
LINE
  5
359
330
335
100
AcDbEntity
  8
RAHM3
100
AcDbLine
 10
-137.8264756410194
 20
5.022481725416161
 30
52.0
 11
-137.8264756410194
 21
5.518493325416158
 31
52.0
  0
LINE
  5
35A
330
335
100
AcDbEntity
  8
RAHM3
100
AcDbLine
 10
-137.6611384410193
 20
6.510516525416153
 30
52.0
 11
-139.4798476410193
 21
6.510516525416153
 31
52.0
  0
LINE
  5
35B
330
335
100
AcDbEntity
  8
RAHM3
100
AcDbLine
 10
-136.6691152410193
 20
5.518493325416158
 30
52.0
 11
-136.6691152410193
 21
3.203772525416149
 31
52.0
  0
ARC
  5
35C
330
335
100
AcDbEntity
  8
RAHM3
100
AcDbCircle
 10
-137.6611384410193
 20
5.518493325416158
 30
52.0
 40
0.9920232
100
AcDbArc
 50
0.0
 51
90.0
  0
LINE
  5
35D
330
335
100
AcDbEntity
  8
RAHM3
100
AcDbLine
 10
-139.1930809214994
 20
5.022481725416161
 30
52.0
 11
-137.8264756410194
 21
5.022481725416161
 31
52.0
  0
ARC
  5
35E
330
335
100
AcDbEntity
  8
RAHM3
100
AcDbCircle
 10
-139.1930809214994
 20
4.030458525416167
 30
52.0
 40
0.9920232
100
AcDbArc
 50
90.0
 51
119.7448812969
  0
LINE
  5
35F
330
335
100
AcDbEntity
  8
RAHM3
100
AcDbLine
 10
-140.8773334868594
 20
4.361132925416165
 30
52.0
 11
-141.2985568410193
 21
4.361132925416165
 31
52.0
  0
LINE
  5
360
330
335
100
AcDbEntity
  8
RAHM3
100
AcDbLine
 10
-140.3851521495794
 20
4.491838785176161
 30
52.0
 11
-139.6852622587794
 21
4.891775865576152
 31
52.0
  0
ARC
  5
361
330
335
100
AcDbEntity
  8
RAHM3
100
AcDbCircle
 10
-140.8773334868594
 20
5.35315612541616
 30
52.0
 40
0.9920232
100
AcDbArc
 50
270.0
 51
299.7448812969
  0
ARC
  5
362
330
335
100
AcDbEntity
  8
RAHM3
100
AcDbCircle
 10
-138.8857271583794
 20
2.873098125416151
 30
52.0
 40
0.9920232
100
AcDbArc
 50
90.0
 51
119.7448812969
  0
LINE
  5
363
330
335
100
AcDbEntity
  8
RAHM3
100
AcDbLine
 10
-140.5699797237394
 20
3.203772525416149
 30
52.0
 11
-141.4638940410194
 21
3.203772525416149
 31
52.0
  0
ARC
  5
364
330
335
100
AcDbEntity
  8
RAHM3
100
AcDbCircle
 10
-140.5699797237394
 20
4.195795725416166
 30
52.0
 40
0.9920232
100
AcDbArc
 50
270.0
 51
299.7448812969
  0
LINE
  5
365
330
335
100
AcDbEntity
  8
RAHM3
100
AcDbLine
 10
-139.3779084956594
 20
3.734415465576159
 30
52.0
 11
-140.0777983864594
 21
3.334478385176168
 31
52.0
  0
LINE
  5
366
330
335
100
AcDbEntity
  8
RAHM3
100
AcDbLine
 10
-138.8857271583794
 20
3.865121325416145
 30
52.0
 11
-137.9918128410194
 21
3.865121325416145
 31
52.0
  0
LINE
  5
367
330
335
100
AcDbEntity
  8
RAHM3
100
AcDbLine
 10
-147.5813704410193
 20
3.865121325416145
 30
52.0
 11
-148.4080564410193
 21
3.865121325416145
 31
52.0
  0
LINE
  5
368
330
335
100
AcDbEntity
  8
RAHM3
100
AcDbLine
 10
-146.2586728410194
 20
3.865121325416145
 30
52.0
 11
-145.4319868410194
 21
3.865121325416145
 31
52.0
  0
LINE
  5
369
330
335
100
AcDbEntity
  8
RAHM3
100
AcDbLine
 10
-148.4080564410193
 20
3.203772525416149
 30
52.0
 11
-148.4080564410193
 21
3.865121325416145
 31
52.0
  0
LINE
  5
36A
330
335
100
AcDbEntity
  8
RAHM3
100
AcDbLine
 10
-145.4319868410194
 20
3.865121325416145
 30
52.0
 11
-145.4319868410194
 21
3.203772525416149
 31
52.0
  0
LINE
  5
36B
330
335
100
AcDbEntity
  8
RAHM3
100
AcDbLine
 10
-132.5356852410194
 20
7.667876925416146
 30
52.0
 11
-129.2289412410193
 21
7.667876925416146
 31
52.0
  0
LINE
  5
36C
330
335
100
AcDbEntity
  8
RAHM3
100
AcDbLine
 10
-129.2289412410193
 20
7.667876925416146
 30
52.0
 11
-129.2289412410193
 21
7.00652812541615
 31
52.0
  0
LINE
  5
36D
330
335
100
AcDbEntity
  8
RAHM3
100
AcDbLine
 10
-132.5356852410194
 20
5.022481725416161
 30
52.0
 11
-132.5356852410194
 21
4.361132925416165
 31
52.0
  0
LINE
  5
36E
330
335
100
AcDbEntity
  8
RAHM3
100
AcDbLine
 10
-132.5356852410194
 20
4.361132925416165
 30
52.0
 11
-129.2289412410193
 21
4.361132925416165
 31
52.0
  0
LINE
  5
36F
330
335
100
AcDbEntity
  8
RAHM3
100
AcDbLine
 10
-132.5356852410194
 20
5.022481725416161
 30
52.0
 11
-133.6930456410194
 21
5.022481725416161
 31
52.0
  0
LINE
  5
370
330
335
100
AcDbEntity
  8
RAHM3
100
AcDbLine
 10
-128.0715808410194
 20
7.00652812541615
 30
52.0
 11
-129.2289412410193
 21
7.00652812541615
 31
52.0
  0
LINE
  5
371
330
335
100
AcDbEntity
  8
RAHM3
100
AcDbLine
 10
-129.2289412410193
 20
4.361132925416165
 30
52.0
 11
-129.2289412410193
 21
5.518493325416158
 31
52.0
  0
LINE
  5
372
330
335
100
AcDbEntity
  8
RAHM3
100
AcDbLine
 10
-132.5356852410194
 20
6.510516525416153
 30
52.0
 11
-132.5356852410194
 21
7.667876925416146
 31
52.0
  0
LINE
  5
373
330
335
100
AcDbEntity
  8
RAHM3
100
AcDbLine
 10
-128.0715808410194
 20
5.518493325416158
 30
52.0
 11
-128.0715808410194
 21
4.195795725416166
 31
52.0
  0
LINE
  5
374
330
335
100
AcDbEntity
  8
RAHM3
100
AcDbLine
 10
-129.0636040410194
 20
6.510516525416153
 30
52.0
 11
-132.5356852410194
 21
6.510516525416153
 31
52.0
  0
ARC
  5
375
330
335
100
AcDbEntity
  8
RAHM3
100
AcDbCircle
 10
-129.0636040410194
 20
5.518493325416158
 30
52.0
 40
0.9920232
100
AcDbArc
 50
0.0
 51
90.0
  0
LINE
  5
376
330
335
100
AcDbEntity
  8
RAHM3
100
AcDbLine
 10
-132.7010224411794
 20
5.518493325416158
 30
52.0
 11
-129.2289412410193
 21
5.518493325416158
 31
52.0
  0
LINE
  5
377
330
335
100
AcDbEntity
  8
RAHM3
100
AcDbLine
 10
-133.6930456410194
 20
6.510516525416153
 30
52.0
 11
-133.6930456410194
 21
7.833214125416168
 31
52.0
  0
ARC
  5
378
330
335
100
AcDbEntity
  8
RAHM3
100
AcDbCircle
 10
-132.7010224411794
 20
6.510516525416153
 30
52.0
 40
0.9920232
100
AcDbArc
 50
180.0
 51
270.0
  0
POINT
  5
379
330
335
100
AcDbEntity
  8
0
 60
     1
100
AcDbPoint
 10
0.0
 20
0.0
 30
0.0
1001
GENIUS_GENODEF_13
1002
{
1000
HIER
1070
     1
1002
}
1002
{
1000
MANEDIT
1070
     0
1002
}
1002
{
1000
NOSEL
1070
     0
1002
}
1002
{
1000
BEHIND
1070
     0
1002
}
1002
{
1000
REACTOR
1002
}
1001
GENIUS_GENTITLE_13
1002
{
1000
SCALE
1000
1:1
1002
}
1002
{
1000
BORDER
1000
GEN_A4
1002
}
1002
{
1000
TITLE
1000
GENTITUS
1002
}
1002
{
1000
UNCHG
1002
{
1000
GEN-TITLE-SCA
1000
GEN-TITLE-SIZ
1002
}
1002
}
1002
{
1000
HRA
1005
0
1002
}
1002
{
1000
HTIT
1005
0
1002
}
1002
{
1000
GENIUSID
1005
379
1002
}
1001
GENIUS_GENOBJ-N-TIT_13
1002
{
1000
OWNER
1000
GEN
1002
}
1001
GENIUS_GENOENT_13
1002
{
1000
MYREF
1005
379
1002
}
1002
{
1000
GRP
1005
0
1002
}
1001
GENIUS_GENOLIS_13
1002
{
1000
ENT
1005
0
1005
0
1002
}
  0
TEXT
  5
37A
330
335
100
AcDbEntity
  8
0
 60
     1
100
AcDbText
 10
210.0
 20
297.0
 30
0.0
 40
3.5
  1
!GENTITLE-MAX
100
AcDbText
  0
TEXT
  5
37B
330
335
100
AcDbEntity
  8
0
 60
     1
100
AcDbText
 10
205.0
 20
287.0
 30
0.0
 40
3.5
  1
!GENTITLE-RU
100
AcDbText
  0
TEXT
  5
37C
330
335
100
AcDbEntity
  8
0
 60
     1
100
AcDbText
 10
15.0
 20
59.99
 30
0.0
 40
3.5
  1
!GENTITLE-LL
100
AcDbText
  0
TEXT
  5
37D
330
335
100
AcDbEntity
  8
0
 60
     1
100
AcDbText
 10
205.0
 20
5.0
 30
0.0
 40
3.5
  1
!GENTITLE-INSERT
100
AcDbText
  0
LINE
  5
37E
330
335
100
AcDbEntity
  8
RAHM2
100
AcDbLine
 10
-155.0
 20
12.0
 30
0.0
 11
0.0
 21
12.0
 31
0.0
  0
LINE
  5
37F
330
335
100
AcDbEntity
  8
RAHM2
100
AcDbLine
 10
-12.0
 20
12.0
 30
0.0
 11
-12.00000000000727
 21
0.0
 31
0.0
  0
LINE
  5
380
330
335
100
AcDbEntity
  8
RAHM2
100
AcDbLine
 10
-80.0
 20
19.99999999999272
 30
0.0
 11
0.0
 21
20.0
 31
0.0
  0
LINE
  5
381
330
335
100
AcDbEntity
  8
RAHM2
100
AcDbLine
 10
0.0
 20
27.0
 30
0.0
 11
-80.0
 21
27.0
 31
0.0
  0
MTEXT
  5
382
330
335
100
AcDbEntity
  8
RAHM2
100
AcDbMText
 10
-78.39748281353763
 20
37.79972226353243
 30
0.0
 40
2.5
 41
2.458156240282278
 71
     1
 72
     5
  1

 73
     1
 44
1.0
  0
TEXT
  5
383
330
335
100
AcDbEntity
  8
RAHM3
100
AcDbText
 10
-79.00900277736832
 20
36.89804600214973
 30
0.0
 40
2.299999999999999
  1
名称 ＴＩＴＬＥ
 41
0.8
100
AcDbText
  0
LINE
  5
384
330
335
100
AcDbEntity
  8
RAHM2
100
AcDbLine
 10
-80.0
 20
40.00000000000727
 30
0.0
 11
-80.0
 21
0.0
 31
0.0
  0
TEXT
  5
385
330
335
100
AcDbEntity
  8
RAHM3
100
AcDbText
 10
-79.00900277736832
 20
23.89804600216055
 30
0.0
 40
2.299999999999999
  1
符号 
 41
0.8
100
AcDbText
  0
TEXT
  5
386
330
335
100
AcDbEntity
  8
RAHM3
100
AcDbText
 10
-79.00900277736832
 20
16.89804600215146
 30
0.0
 40
2.299999999999999
  1
件名
 41
0.8
100
AcDbText
  0
TEXT
  5
387
330
335
100
AcDbEntity
  8
RAHM3
100
AcDbText
 10
-79.00900277736832
 20
8.898046002160548
 30
0.0
 40
2.299999999999999
  1
図番 ＤＲＡＷＩＮＧ ＮＯ．
 41
0.8
100
AcDbText
  0
CIRCLE
  5
388
330
335
100
AcDbEntity
  8
RAHM2
100
AcDbCircle
 10
-5.0
 20
5.0
 30
0.0
 40
4.5
  0
LINE
  5
389
330
335
100
AcDbEntity
  8
RAHM2
100
AcDbLine
 10
-130.0000000000018
 20
40.00000000000916
 30
0.0
 11
-130.0000000000018
 21
12.0
 31
0.0
  0
LINE
  5
38A
330
335
100
AcDbEntity
  8
RAHM2
100
AcDbLine
 10
-130.0000000000018
 20
26.00000000000458
 30
0.0
 11
-80.0
 21
25.99999999999818
 31
0.0
  0
LINE
  5
38B
330
335
100
AcDbEntity
  8
RAHM2
100
AcDbLine
 10
-105.0000000000018
 20
40.00000000000916
 30
0.0
 11
-105.0000000000018
 21
12.0
 31
0.0
  0
TEXT
  5
38C
330
335
100
AcDbEntity
  8
RAHM3
100
AcDbText
 10
-129.0090027773683
 20
36.89804600215881
 30
0.0
 40
2.299999999999999
  1
承認 ＡＰＰＤ
 41
0.8
100
AcDbText
  0
TEXT
  5
38D
330
335
100
AcDbEntity
  8
RAHM3
100
AcDbText
 10
-104.0090027773683
 20
36.8980460021551
 30
0.0
 40
2.299999999999999
  1
検図 ＣＨＫ
 41
0.8
100
AcDbText
  0
TEXT
  5
38E
330
335
100
AcDbEntity
  8
RAHM3
100
AcDbText
 10
-129.0090027773683
 20
22.89804600215422
 30
0.0
 40
2.299999999999999
  1
設計 ＥＮＧＲ
 41
0.8
100
AcDbText
  0
TEXT
  5
38F
330
335
100
AcDbEntity
  8
RAHM3
100
AcDbText
 10
-104.0090027773683
 20
22.89804600214964
 30
0.0
 40
2.299999999999999
  1
製図 ＤＲ ＤＡＴＥ
 41
0.8
100
AcDbText
  0
LINE
  5
390
330
335
100
AcDbEntity
  8
RAHM2
100
AcDbLine
 10
-155.0
 20
30.60000000000036
 30
0.0
 11
-130.0000000000018
 21
30.60000000000036
 31
0.0
  0
LINE
  5
391
330
335
100
AcDbEntity
  8
RAHM2
100
AcDbLine
 10
-155.0
 20
21.29999999999927
 30
0.0
 11
-130.0000000000018
 21
21.30000000000109
 31
0.0
  0
TEXT
  5
392
330
335
100
AcDbEntity
  8
RAHM3
100
AcDbText
 10
-121.7843516157921
 20
6.885079184961092
 30
0.0
 40
4.0
  1
伊藤鉄工株式会社
100
AcDbText
  0
TEXT
  5
393
330
335
100
AcDbEntity
  8
RAHM3
100
AcDbText
 10
-120.6675998914835
 20
3.578884653066273
 30
0.0
 40
2.0
  1
ITO TEKKO  CO.,LTD.
100
AcDbText
1001
GENIUS_GENTRA_14
1002
{
1070
     1
1000
/
1000
ITO TEKKO  CO.,LTD.
1000
JPN
1070
     0
1040
1.0
1070
     0
1002
}
  0
TEXT
  5
394
330
335
100
AcDbEntity
  8
RAHM3
100
AcDbText
 10
-120.6675998914835
 20
0.9279960228792472
 30
0.0
 40
2.0
  1
KAWAGUCHI  JAPAN
100
AcDbText
  0
TEXT
  5
395
330
335
100
AcDbEntity
  8
RAHM3
100
AcDbText
 10
-11.85206060358336
 20
9.69362381988742
 30
0.0
 40
1.8
  1
ＲＥＶ．ＭＡＲＫ
 41
0.6800000000000001
100
AcDbText
  0
TEXT
  5
396
330
335
100
AcDbEntity
  8
RAHM3
100
AcDbText
 10
-11.57052530051805
 20
7.425435269030799
 30
0.0
 40
1.8
  1
変
100
AcDbText
  0
TEXT
  5
397
330
335
100
AcDbEntity
  8
RAHM3
100
AcDbText
 10
-11.59004395148213
 20
4.996441785248862
 30
0.0
 40
1.8
  1
更
100
AcDbText
  0
TEXT
  5
398
330
335
100
AcDbEntity
  8
RAHM3
100
AcDbText
 10
-11.62938531906752
 20
2.617267270587205
 30
0.0
 40
1.8
  1
回
100
AcDbText
  0
TEXT
  5
399
330
335
100
AcDbEntity
  8
RAHM3
100
AcDbText
 10
-11.56556962136267
 20
0.3551115072955326
 30
0.0
 40
1.8
  1
数
100
AcDbText
  0
TEXT
  5
39A
330
335
100
AcDbEntity
  8
RAHM3
100
AcDbText
 10
-154.0090027773665
 20
36.89804600217056
 30
0.0
 40
2.299999999999999
  1
尺度 ＳＣＡＬＥ
 41
0.8
100
AcDbText
  0
TEXT
  5
39B
330
335
100
AcDbEntity
  8
RAHM3
100
AcDbText
 10
-154.0090027773665
 20
27.49804600215
 30
0.0
 40
2.299999999999999
  1
図面枚数 ＮＯ．  
 41
0.8
100
AcDbText
  0
LINE
  5
39C
330
335
100
AcDbEntity
  8
7A
100
AcDbLine
 10
-151.7551228444401
 20
16.64999999999988
 30
0.0
 11
-149.2551228444401
 21
16.64999999999988
 31
0.0
1001
GENIUS_GENOREF_13
1005
3A0
  0
LINE
  5
39D
330
335
100
AcDbEntity
  8
7A
100
AcDbLine
 10
-151.7551228444401
 20
16.64999999999988
 30
0.0
 11
-151.7551228444401
 21
19.14999999999988
 31
0.0
1001
GENIUS_GENOREF_13
1005
3A0
  0
LINE
  5
39E
330
335
100
AcDbEntity
  8
7A
100
AcDbLine
 10
-151.7551228444401
 20
16.64999999999988
 30
0.0
 11
-154.2551228444401
 21
16.64999999999988
 31
0.0
1001
GENIUS_GENOREF_13
1005
3A0
  0
LINE
  5
39F
330
335
100
AcDbEntity
  8
7A
100
AcDbLine
 10
-151.7551228444401
 20
16.64999999999988
 30
0.0
 11
-151.7551228444401
 21
14.14999999999988
 31
0.0
1001
GENIUS_GENOREF_13
1005
3A0
  0
POINT
  5
3A0
330
335
100
AcDbEntity
  8
0
 60
     1
100
AcDbPoint
 10
0.0
 20
0.0
 30
0.0
1001
GENIUS_GENODEF_13
1002
{
1000
HIER
1070
    10
1002
}
1002
{
1000
MANEDIT
1070
     0
1002
}
1002
{
1000
NOSEL
1070
     0
1002
}
1002
{
1000
BEHIND
1070
     0
1002
}
1002
{
1000
REACTOR
1002
}
1001
GENIUS_GENOBJ-N-CRS_13
1002
{
1000
OWNER
1000
GEN
1002
}
1001
GENIUS_GENOENT_13
1002
{
1000
MYREF
1005
3A0
1002
}
1002
{
1000
GRP
1005
0
1002
}
1001
GENIUS_GENOLIS_13
1002
{
1000
ENT
1005
39F
1005
39E
1005
39D
1005
39C
1002
}
  0
CIRCLE
  5
3A1
330
335
100
AcDbEntity
  8
RAHM3
100
AcDbCircle
 10
-151.7551228444401
 20
16.64999999999988
 30
0.0
 40
2.0
  0
CIRCLE
  5
3A2
330
335
100
AcDbEntity
  8
RAHM3
100
AcDbCircle
 10
-151.7551228444401
 20
16.64999999999952
 30
0.0
 40
1.0
  0
LINE
  5
3A3
330
335
100
AcDbEntity
  8
RAHM3
100
AcDbLine
 10
-147.7659442035316
 20
17.64999999999929
 30
0.0
 11
-147.7659442035316
 21
15.64999999999929
 31
0.0
  0
LINE
  5
3A4
330
335
100
AcDbEntity
  8
RAHM3
100
AcDbLine
 10
-147.7659442035316
 20
15.64999999999929
 30
0.0
 11
-143.7659442035316
 21
14.64999999999928
 31
0.0
  0
LINE
  5
3A5
330
335
100
AcDbEntity
  8
RAHM3
100
AcDbLine
 10
-143.7659442035316
 20
14.64999999999928
 30
0.0
 11
-143.7659442035316
 21
18.64999999999929
 31
0.0
  0
LINE
  5
3A6
330
335
100
AcDbEntity
  8
RAHM3
100
AcDbLine
 10
-143.7659442035316
 20
18.64999999999929
 30
0.0
 11
-147.7659442035316
 21
17.64999999999929
 31
0.0
  0
LINE
  5
3A7
330
335
100
AcDbEntity
  8
7A
100
AcDbLine
 10
-148.6350563849704
 20
16.64999999999929
 30
0.0
 11
-142.8462596443259
 21
16.64999999999929
 31
0.0
1001
GENIUS_GENODEF_13
1002
{
1000
HIER
1070
     0
1002
}
1002
{
1000
MANEDIT
1070
     0
1002
}
1002
{
1000
NOSEL
1070
     0
1002
}
1002
{
1000
BEHIND
1070
     0
1002
}
1002
{
1000
REACTOR
1002
}
1001
GENIUS_GENOBJ-N-CEN_13
1002
{
1000
OWNER
1000
GEN
1002
}
  0
TEXT
  5
3A8
330
335
100
AcDbEntity
  8
RAHM3
100
AcDbText
 10
-141.8454810851357
 20
18.28209750892168
 30
0.0
 40
2.1
  1
単位 ＵＮＩＴ
 41
0.7
100
AcDbText
  0
LINE
  5
3A9
330
335
100
AcDbEntity
  8
RAHM2
100
AcDbLine
 10
-142.5000000000009
 20
21.29999999999927
 30
0.0
 11
-142.5000000000009
 21
12.0
 31
0.0
  0
TEXT
  5
3AA
330
335
100
AcDbEntity
  8
RAHM3
100
AcDbText
 10
-139.6782849929894
 20
13.82826889824218
 30
0.0
 40
4.0
  1
ｍｍ
 41
0.8
100
AcDbText
  0
POLYLINE
  5
3AB
330
335
100
AcDbEntity
  8
RAHM2
100
AcDb2dPolyline
 66
     1
 10
0.0
 20
0.0
 30
0.0
 70
     1
  0
VERTEX
  5
3AC
330
3AB
100
AcDbEntity
  8
RAHM2
100
AcDbVertex
100
AcDb2dVertex
 10
-155.0
 20
-0.000000000001819
 30
0.0
  0
VERTEX
  5
3AD
330
3AB
100
AcDbEntity
  8
RAHM2
100
AcDbVertex
100
AcDb2dVertex
 10
-155.0
 20
40.00000000002091
 30
0.0
  0
VERTEX
  5
3AE
330
3AB
100
AcDbEntity
  8
RAHM2
100
AcDbVertex
100
AcDb2dVertex
 10
0.0
 20
39.99999999999273
 30
0.0
  0
VERTEX
  5
3AF
330
3AB
100
AcDbEntity
  8
RAHM2
100
AcDbVertex
100
AcDb2dVertex
 10
0.0
 20
0.0
 30
0.0
  0
SEQEND
  5
3B0
330
3AB
100
AcDbEntity
  8
RAHM2
  0
ATTDEF
  5
3B1
330
335
100
AcDbEntity
  8
RAHM3
100
AcDbText
 10
-147.2595867131855
 20
31.94728899818607
 30
0.0
 40
4.0
  1

100
AcDbAttributeDefinition
  3
尺度
  2
GEN-TITLE-SCA
 70
     0
  0
ATTDEF
  5
3B2
330
335
100
AcDbEntity
  8
RAHM3
100
AcDbText
 10
-73.09000000000001
 20
29.74
 30
0.0
 40
5.0
  1

100
AcDbAttributeDefinition
  3
名称
  2
ＴＩＴＬＥ
 70
     0
  0
ATTDEF
  5
3B3
330
335
100
AcDbEntity
  8
RAHM3
100
AcDbText
 10
-71.56287815584043
 20
21.80438312711384
 30
0.0
 40
3.0
  1

100
AcDbAttributeDefinition
  3
符号
  2
ｃｏｄｅ
 70
     0
  0
ATTDEF
  5
3B4
330
335
100
AcDbEntity
  8
RAHM3
100
AcDbText
 10
-70.74480649396313
 20
14.80438312710657
 30
0.0
 40
3.0
  1

100
AcDbAttributeDefinition
  3
件名
  2
件名
 70
     0
  0
ATTDEF
  5
3B5
330
335
100
AcDbEntity
  8
RAHM3
100
AcDbText
 10
-73.09000000000001
 20
1.739999999992722
 30
0.0
 40
5.0
  1

100
AcDbAttributeDefinition
  3
図面番号
  2
Ｎｏ．
 70
     0
  0
ATTDEF
  5
3B6
330
335
100
AcDbEntity
  8
RAHM3
100
AcDbText
 10
-100.45
 20
17.40708932112655
 30
0.0
 40
4.0
  1

100
AcDbAttributeDefinition
  3
製図者
  2
ＤＲ
 70
     0
  0
ATTDEF
  5
3B7
330
335
100
AcDbEntity
  8
RAHM3
100
AcDbText
 10
-103.7180853038729
 20
12.76999999999999
 30
0.0
 40
3.0
  1

 41
0.8
100
AcDbAttributeDefinition
  3
日付
  2
ｄａｔｅ
 70
     0
  0
ENDBLK
  5
3B9
330
335
100
AcDbEntity
  8
0
100
AcDbBlockEnd
  0
BLOCK
  5
6BE
330
6A8
100
AcDbEntity
  8
0
100
AcDbBlockBegin
  2
IGS_A3
 70
     0
 10
0.0
 20
0.0
 30
0.0
  3
IGS_A3
  1

  0
LINE
  5
6A9
330
6A8
100
AcDbEntity
  8
AM_BOR
100
AcDbLine
 10
0.0
 20
0.0
 30
0.0
 11
0.0
 21
10.0
 31
0.0
  0
LINE
  5
6AA
330
6A8
100
AcDbEntity
  8
AM_BOR
100
AcDbLine
 10
0.0
 20
297.0
 30
0.0
 11
10.0
 21
297.0
 31
0.0
  0
LINE
  5
6AB
330
6A8
100
AcDbEntity
  8
AM_BOR
100
AcDbLine
 10
420.0
 20
297.0
 30
0.0
 11
420.0
 21
287.0
 31
0.0
  0
LINE
  5
6AC
330
6A8
100
AcDbEntity
  8
AM_BOR
100
AcDbLine
 10
420.0
 20
0.0
 30
0.0
 11
410.0
 21
0.0
 31
0.0
  0
LINE
  5
6AD
330
6A8
100
AcDbEntity
  8
0
100
AcDbLine
 10
25.0
 20
10.0
 30
0.0
 11
25.0
 21
287.0
 31
0.0
  0
LINE
  5
6AE
330
6A8
100
AcDbEntity
  8
0
100
AcDbLine
 10
410.0
 20
10.0
 30
0.0
 11
25.0
 21
10.0
 31
0.0
  0
LINE
  5
6AF
330
6A8
100
AcDbEntity
  8
0
100
AcDbLine
 10
410.0
 20
287.0
 30
0.0
 11
410.0
 21
10.0
 31
0.0
  0
LINE
  5
6B0
330
6A8
100
AcDbEntity
  8
0
100
AcDbLine
 10
25.0
 20
287.0
 30
0.0
 11
410.0
 21
287.0
 31
0.0
  0
LINE
  5
6B1
330
6A8
100
AcDbEntity
  8
AM_BOR
100
AcDbLine
 10
0.0
 20
287.0
 30
0.0
 11
0.0
 21
297.0
 31
0.0
  0
LINE
  5
6B2
330
6A8
100
AcDbEntity
  8
AM_BOR
100
AcDbLine
 10
10.0
 20
0.0
 30
0.0
 11
0.0
 21
0.0
 31
0.0
  0
LINE
  5
6B3
330
6A8
100
AcDbEntity
  8
AM_BOR
100
AcDbLine
 10
420.0
 20
10.0
 30
0.0
 11
420.0
 21
0.0
 31
0.0
  0
LINE
  5
6B4
330
6A8
100
AcDbEntity
  8
AM_BOR
100
AcDbLine
 10
410.0
 20
297.0
 30
0.0
 11
420.0
 21
297.0
 31
0.0
  0
TEXT
  5
6B5
330
6A8
100
AcDbEntity
  8
0
 60
     1
100
AcDbText
 10
410.0
 20
287.0
 30
0.0
 40
3.5
  1
!GENTITLE-RU
  7
ACJISTS
100
AcDbText
  0
TEXT
  5
6B6
330
6A8
100
AcDbEntity
  8
0
 60
     1
100
AcDbText
 10
420.0
 20
297.0
 30
0.0
 40
3.5
  1
!GENTITLE-MAX
  7
ACJISTS
100
AcDbText
  0
TEXT
  5
6B7
330
6A8
100
AcDbEntity
  8
0
 60
     1
100
AcDbText
 10
410.0
 20
10.0
 30
0.0
 40
3.5
  1
!GENTITLE-INSERT
  7
ACJISTS
100
AcDbText
  0
TEXT
  5
6B8
330
6A8
100
AcDbEntity
  8
0
 60
     1
100
AcDbText
 10
25.0
 20
10.0
 30
0.0
 40
3.5
  1
!GENTITLE-LL
  7
ACJISTS
100
AcDbText
  0
LINE
  5
6B9
330
6A8
100
AcDbEntity
  8
AM_BOR
 62
     1
370
    25
100
AcDbLine
 10
0.0
 20
297.0
 30
0.0
 11
420.0
 21
297.0
 31
0.0
  0
LINE
  5
6BA
330
6A8
100
AcDbEntity
  8
AM_BOR
 62
     1
370
    25
100
AcDbLine
 10
420.0
 20
297.0
 30
0.0
 11
420.0
 21
0.0
 31
0.0
  0
LINE
  5
6BB
330
6A8
100
AcDbEntity
  8
AM_BOR
 62
     1
370
    25
100
AcDbLine
 10
420.0
 20
0.0
 30
0.0
 11
0.0
 21
0.0
 31
0.0
  0
LINE
  5
6BC
330
6A8
100
AcDbEntity
  8
AM_BOR
 62
     1
370
    25
100
AcDbLine
 10
0.0
 20
0.0
 30
0.0
 11
0.0
 21
297.0
 31
0.0
  0
TEXT
  5
6BD
330
6A8
100
AcDbEntity
  8
DEFPOINTS
100
AcDbText
 10
19.5941472374451
 20
2.504073349097552
 30
0.0
 40
5.0
  1
A3
100
AcDbText
  0
ENDBLK
  5
6BF
330
6A8
100
AcDbEntity
  8
0
100
AcDbBlockEnd
  0
BLOCK
  5
861
330
851
100
AcDbEntity
  8
0
100
AcDbBlockBegin
  2
*X5
 70
     1
 10
0.0
 20
0.0
 30
0.0
  3
*X5
  1
GEVFRAME
  0
LINE
  5
852
330
851
100
AcDbEntity
  8
0
 62
     0
100
AcDbLine
 10
-3206.818776416374
 20
859.0452154062738
 30
0.0
 11
-3171.818776416374
 21
894.0452154062741
 31
0.0
  0
LINE
  5
853
330
851
100
AcDbEntity
  8
0
 62
     0
100
AcDbLine
 10
-3206.818776416374
 20
894.4005544656011
 30
0.0
 11
-3171.818776416374
 21
929.4005544656013
 31
0.0
  0
LINE
  5
854
330
851
100
AcDbEntity
  8
0
 62
     0
100
AcDbLine
 10
-3206.818776416374
 20
929.7558935249282
 30
0.0
 11
-3171.818776416374
 21
964.7558935249284
 31
0.0
  0
LINE
  5
855
330
851
100
AcDbEntity
  8
0
 62
     0
100
AcDbLine
 10
-3206.818776416374
 20
965.1112325842564
 30
0.0
 11
-3171.818776416374
 21
1000.111232584256
 31
0.0
  0
LINE
  5
856
330
851
100
AcDbEntity
  8
0
 62
     0
100
AcDbLine
 10
-3206.818776416374
 20
1000.466571643582
 30
0.0
 11
-3171.818776416374
 21
1035.466571643582
 31
0.0
  0
LINE
  5
857
330
851
100
AcDbEntity
  8
0
 62
     0
100
AcDbLine
 10
-3206.818776416374
 20
1035.82191070291
 30
0.0
 11
-3171.818776416374
 21
1070.82191070291
 31
0.0
  0
LINE
  5
858
330
851
100
AcDbEntity
  8
0
 62
     0
100
AcDbLine
 10
-3206.818776416374
 20
1071.177249762237
 30
0.0
 11
-3171.818776416374
 21
1106.177249762237
 31
0.0
  0
LINE
  5
859
330
851
100
AcDbEntity
  8
0
 62
     0
100
AcDbLine
 10
-3206.818776416374
 20
1106.532588821564
 30
0.0
 11
-3177.135410538395
 21
1136.215954699544
 31
0.0
  0
LINE
  5
85A
330
851
100
AcDbEntity
  8
0
 62
     0
100
AcDbLine
 10
-3205.628633671845
 20
824.8800190914757
 30
0.0
 11
-3171.818776416374
 21
858.6898763469461
 31
0.0
  0
LINE
  5
85B
330
851
100
AcDbEntity
  8
0
 62
     0
100
AcDbLine
 10
-3193.70270640539
 20
801.4506072986025
 30
0.0
 11
-3170.007546121488
 21
825.1457675825035
 31
0.0
  0
LINE
  5
85C
330
851
100
AcDbEntity
  8
0
 62
     0
100
AcDbLine
 10
-3172.691275016862
 20
787.1066996278032
 30
0.0
 11
-3150.094272750815
 21
809.7037018938495
 31
0.0
  0
LINE
  5
85D
330
851
100
AcDbEntity
  8
0
 62
     0
100
AcDbLine
 10
-3139.954440076264
 20
784.4881955090731
 30
0.0
 11
-3114.954440076264
 21
809.4881955090732
 31
0.0
  0
LINE
  5
85E
330
851
100
AcDbEntity
  8
0
 62
     0
100
AcDbLine
 10
-3104.599101016937
 20
784.4881955090731
 30
0.0
 11
-3079.599101016938
 21
809.4881955090732
 31
0.0
  0
LINE
  5
85F
330
851
100
AcDbEntity
  8
0
 62
     0
100
AcDbLine
 10
-3069.24376195761
 20
784.4881955090731
 30
0.0
 11
-3044.243761957611
 21
809.4881955090732
 31
0.0
  0
LINE
  5
860
330
851
100
AcDbEntity
  8
0
 62
     0
100
AcDbLine
 10
-3042.116829682524
 20
776.2597887248333
 30
0.0
 11
-3021.818776416373
 21
796.5578419909828
 31
0.0
  0
ENDBLK
  5
862
330
851
100
AcDbEntity
  8
0
100
AcDbBlockEnd
  0
BLOCK
  5
872
330
863
100
AcDbEntity
  8
0
100
AcDbBlockBegin
  2
*X6
 70
     1
 10
0.0
 20
0.0
 30
0.0
  3
*X6
  1
GEVFRAME
  0
LINE
  5
864
330
863
100
AcDbEntity
  8
0
 62
     0
100
AcDbLine
 10
-3206.818776416374
 20
222.6491123383802
 30
0.0
 11
-3171.818776416374
 21
257.6491123383802
 31
0.0
  0
LINE
  5
865
330
863
100
AcDbEntity
  8
0
 62
     0
100
AcDbLine
 10
-3206.818776416374
 20
258.0044513977079
 30
0.0
 11
-3171.818776416374
 21
293.0044513977078
 31
0.0
  0
LINE
  5
866
330
863
100
AcDbEntity
  8
0
 62
     0
100
AcDbLine
 10
-3206.818776416374
 20
293.3597904570354
 30
0.0
 11
-3171.818776416374
 21
328.3597904570358
 31
0.0
  0
LINE
  5
867
330
863
100
AcDbEntity
  8
0
 62
     0
100
AcDbLine
 10
-3033.190371364338
 20
466.9881955090732
 30
0.0
 11
-3021.818776416373
 21
478.3597904570362
 31
0.0
  0
LINE
  5
868
330
863
100
AcDbEntity
  8
0
 62
     0
100
AcDbLine
 10
-3206.818776416374
 20
328.7151295163632
 30
0.0
 11
-3171.818776416374
 21
363.7151295163628
 31
0.0
  0
LINE
  5
869
330
863
100
AcDbEntity
  8
0
 62
     0
100
AcDbLine
 10
-3068.545710423664
 20
466.9881955090732
 30
0.0
 11
-3026.045710423664
 21
509.488195509073
 31
0.0
  0
LINE
  5
86A
330
863
100
AcDbEntity
  8
0
 62
     0
100
AcDbLine
 10
-3206.818776416374
 20
364.0704685756901
 30
0.0
 11
-3171.818776416374
 21
399.0704685756906
 31
0.0
  0
LINE
  5
86B
330
863
100
AcDbEntity
  8
0
 62
     0
100
AcDbLine
 10
-3103.901049482991
 20
466.9881955090732
 30
0.0
 11
-3078.901049482991
 21
491.9881955090732
 31
0.0
  0
LINE
  5
86C
330
863
100
AcDbEntity
  8
0
 62
     0
100
AcDbLine
 10
-3206.818776416374
 20
399.4258076350178
 30
0.0
 11
-3171.818776416374
 21
434.4258076350176
 31
0.0
  0
LINE
  5
86D
330
863
100
AcDbEntity
  8
0
 62
     0
100
AcDbLine
 10
-3139.256388542319
 20
466.9881955090732
 30
0.0
 11
-3114.256388542319
 21
491.9881955090732
 31
0.0
  0
LINE
  5
86E
330
863
100
AcDbEntity
  8
0
 62
     0
100
AcDbLine
 10
-3206.818776416374
 20
434.781146694345
 30
0.0
 11
-3149.295340554446
 21
492.3045825562732
 31
0.0
  0
LINE
  5
86F
330
863
100
AcDbEntity
  8
0
 62
     0
100
AcDbLine
 10
-3206.818776416374
 20
187.293773279053
 30
0.0
 11
-3171.818776416374
 21
222.2937732790532
 31
0.0
  0
LINE
  5
870
330
863
100
AcDbEntity
  8
0
 62
     0
100
AcDbLine
 10
-3206.818776416374
 20
151.938434219726
 30
0.0
 11
-3171.818776416374
 21
186.9384342197261
 31
0.0
  0
LINE
  5
871
330
863
100
AcDbEntity
  8
0
 62
     0
100
AcDbLine
 10
-3183.689244823079
 20
139.7126267536937
 30
0.0
 11
-3171.818776416374
 21
151.5830951603985
 31
0.0
  0
ENDBLK
  5
873
330
863
100
AcDbEntity
  8
0
100
AcDbBlockEnd
  0
BLOCK
  5
1D0D
330
1D03
100
AcDbEntity
  8
0
100
AcDbBlockBegin
  2
*D7
 70
     1
 10
0.0
 20
0.0
 30
0.0
  3
*D7
  1

  0
LINE
  5
27BD
330
1D03
100
AcDbEntity
  8
AM_5
100
AcDbLine
 10
2408.94728715562
 20
6088.469501201302
 30
0.0
 11
2288.94728715562
 21
6088.469501201302
 31
0.0
  0
LINE
  5
27BE
330
1D03
100
AcDbEntity
  8
AM_5
100
AcDbLine
 10
2408.94728715562
 20
6331.469501201302
 30
0.0
 11
2288.94728715562
 21
6331.469501201302
 31
0.0
  0
LINE
  5
27BF
330
1D03
100
AcDbEntity
  8
AM_5
100
AcDbLine
 10
2298.94728715562
 20
6113.469501201302
 30
0.0
 11
2298.94728715562
 21
6306.469501201302
 31
0.0
  0
INSERT
  5
27C0
330
1D03
100
AcDbEntity
  8
AM_5
100
AcDbBlockReference
  2
_Open30
 10
2298.94728715562
 20
6088.469501201302
 30
0.0
 41
25.0
 42
25.0
 43
25.0
 50
270.0
  0
INSERT
  5
27C1
330
1D03
100
AcDbEntity
  8
AM_5
100
AcDbBlockReference
  2
_Open30
 10
2298.94728715562
 20
6331.469501201302
 30
0.0
 41
25.0
 42
25.0
 43
25.0
 50
90.0
  0
MTEXT
  5
27C2
330
1D03
100
AcDbEntity
  8
AM_5
 62
     2
100
AcDbMText
 10
2266.447287155619
 20
6209.969501201303
 30
0.0
 40
35.0
 41
0.0
 71
     5
 72
     1
  1
%%c48.6
 11
0.0000000000000001
 21
1.0
 31
0.0
 73
     1
 44
1.0
  0
POINT
  5
27C3
330
1D03
100
AcDbEntity
  8
DEFPOINTS
 62
     0
100
AcDbPoint
 10
2418.94728715562
 20
6088.469501201302
 30
0.0
  0
POINT
  5
27C4
330
1D03
100
AcDbEntity
  8
DEFPOINTS
 62
     0
100
AcDbPoint
 10
2418.94728715562
 20
6331.469501201302
 30
0.0
  0
POINT
  5
27C5
330
1D03
100
AcDbEntity
  8
DEFPOINTS
 62
     0
100
AcDbPoint
 10
2298.94728715562
 20
6331.469501201302
 30
0.0
  0
ENDBLK
  5
1D0E
330
1D03
100
AcDbEntity
  8
0
100
AcDbBlockEnd
  0
BLOCK
  5
1D56
330
1D4C
100
AcDbEntity
  8
0
100
AcDbBlockBegin
  2
*D8
 70
     1
 10
0.0
 20
0.0
 30
0.0
  3
*D8
  1

  0
LINE
  5
27C6
330
1D4C
100
AcDbEntity
  8
AM_5
100
AcDbLine
 10
2383.94728715562
 20
6356.219501201302
 30
0.0
 11
2188.947287155619
 21
6356.219501201302
 31
0.0
  0
LINE
  5
27C7
330
1D4C
100
AcDbEntity
  8
AM_5
100
AcDbLine
 10
2383.94728715562
 20
6063.719501201301
 30
0.0
 11
2188.947287155619
 21
6063.719501201301
 31
0.0
  0
LINE
  5
27C8
330
1D4C
100
AcDbEntity
  8
AM_5
100
AcDbLine
 10
2198.947287155618
 20
6331.219501201302
 30
0.0
 11
2198.947287155618
 21
6088.719501201302
 31
0.0
  0
INSERT
  5
27C9
330
1D4C
100
AcDbEntity
  8
AM_5
100
AcDbBlockReference
  2
_Open30
 10
2198.947287155618
 20
6356.219501201302
 30
0.0
 41
25.0
 42
25.0
 43
25.0
 50
90.0
  0
INSERT
  5
27CA
330
1D4C
100
AcDbEntity
  8
AM_5
100
AcDbBlockReference
  2
_Open30
 10
2198.947287155618
 20
6063.719501201301
 30
0.0
 41
25.0
 42
25.0
 43
25.0
 50
270.0
  0
MTEXT
  5
27CB
330
1D4C
100
AcDbEntity
  8
AM_5
 62
     2
100
AcDbMText
 10
2166.447287155618
 20
6209.969501201303
 30
0.0
 40
35.0
 41
0.0
 71
     5
 72
     1
  1
%%c58.5
 11
0.0000000000000001
 21
1.0
 31
0.0
 73
     1
 44
1.0
  0
POINT
  5
27CC
330
1D4C
100
AcDbEntity
  8
DEFPOINTS
 62
     0
100
AcDbPoint
 10
2393.94728715562
 20
6356.219501201302
 30
0.0
  0
POINT
  5
27CD
330
1D4C
100
AcDbEntity
  8
DEFPOINTS
 62
     0
100
AcDbPoint
 10
2393.94728715562
 20
6063.719501201301
 30
0.0
  0
POINT
  5
27CE
330
1D4C
100
AcDbEntity
  8
DEFPOINTS
 62
     0
100
AcDbPoint
 10
2198.947287155618
 20
6063.719501201301
 30
0.0
  0
ENDBLK
  5
1D57
330
1D4C
100
AcDbEntity
  8
0
100
AcDbBlockEnd
  0
BLOCK
  5
1D90
330
1D86
100
AcDbEntity
  8
0
100
AcDbBlockBegin
  2
*D9
 70
     1
 10
0.0
 20
0.0
 30
0.0
  3
*D9
  1

  0
LINE
  5
27B4
330
1D86
100
AcDbEntity
  8
AM_5
100
AcDbLine
 10
2518.94728715562
 20
6381.219501201302
 30
0.0
 11
2518.94728715562
 21
6536.219501201301
 31
0.0
  0
LINE
  5
27B5
330
1D86
100
AcDbEntity
  8
AM_5
100
AcDbLine
 10
2368.94728715562
 20
6416.219501201301
 30
0.0
 11
2368.94728715562
 21
6536.219501201301
 31
0.0
  0
LINE
  5
27B6
330
1D86
100
AcDbEntity
  8
AM_5
100
AcDbLine
 10
2493.94728715562
 20
6526.219501201302
 30
0.0
 11
2393.94728715562
 21
6526.219501201302
 31
0.0
  0
INSERT
  5
27B7
330
1D86
100
AcDbEntity
  8
AM_5
100
AcDbBlockReference
  2
_Open30
 10
2518.94728715562
 20
6526.219501201302
 30
0.0
 41
25.0
 42
25.0
 43
25.0
  0
INSERT
  5
27B8
330
1D86
100
AcDbEntity
  8
AM_5
100
AcDbBlockReference
  2
_Open30
 10
2368.94728715562
 20
6526.219501201302
 30
0.0
 41
25.0
 42
25.0
 43
25.0
 50
180.0
  0
MTEXT
  5
27B9
330
1D86
100
AcDbEntity
  8
AM_5
 62
     2
100
AcDbMText
 10
2443.94728715562
 20
6558.719501201301
 30
0.0
 40
35.0
 41
0.0
 71
     5
 72
     1
  1
30
 73
     1
 44
1.0
  0
POINT
  5
27BA
330
1D86
100
AcDbEntity
  8
DEFPOINTS
 62
     0
100
AcDbPoint
 10
2518.94728715562
 20
6371.219501201302
 30
0.0
  0
POINT
  5
27BB
330
1D86
100
AcDbEntity
  8
DEFPOINTS
 62
     0
100
AcDbPoint
 10
2368.94728715562
 20
6406.219501201302
 30
0.0
  0
POINT
  5
27BC
330
1D86
100
AcDbEntity
  8
DEFPOINTS
 62
     0
100
AcDbPoint
 10
2368.94728715562
 20
6526.219501201302
 30
0.0
  0
ENDBLK
  5
1D91
330
1D86
100
AcDbEntity
  8
0
100
AcDbBlockEnd
  0
BLOCK
  5
1DC1
330
1DB7
100
AcDbEntity
  8
0
100
AcDbBlockBegin
  2
*D10
 70
     1
 10
0.0
 20
0.0
 30
0.0
  3
*D10
  1

  0
LINE
  5
27AB
330
1DB7
100
AcDbEntity
  8
AM_5
100
AcDbLine
 10
2528.94728715562
 20
6338.719501201302
 30
0.0
 11
2648.947287155619
 21
6338.719501201302
 31
0.0
  0
LINE
  5
27AC
330
1DB7
100
AcDbEntity
  8
AM_5
100
AcDbLine
 10
2528.94728715562
 20
6081.219501201302
 30
0.0
 11
2648.947287155619
 21
6081.219501201302
 31
0.0
  0
LINE
  5
27AD
330
1DB7
100
AcDbEntity
  8
AM_5
100
AcDbLine
 10
2638.947287155619
 20
6313.719501201301
 30
0.0
 11
2638.947287155619
 21
6106.219501201302
 31
0.0
  0
INSERT
  5
27AE
330
1DB7
100
AcDbEntity
  8
AM_5
100
AcDbBlockReference
  2
_Open30
 10
2638.947287155619
 20
6338.719501201302
 30
0.0
 41
25.0
 42
25.0
 43
25.0
 50
90.0
  0
INSERT
  5
27AF
330
1DB7
100
AcDbEntity
  8
AM_5
100
AcDbBlockReference
  2
_Open30
 10
2638.947287155619
 20
6081.219501201302
 30
0.0
 41
25.0
 42
25.0
 43
25.0
 50
270.0
  0
MTEXT
  5
27B0
330
1DB7
100
AcDbEntity
  8
AM_5
 62
     2
100
AcDbMText
 10
2606.447287155618
 20
6209.969501201303
 30
0.0
 40
35.0
 41
0.0
 71
     5
 72
     1
  1
%%c51.5
 11
0.0000000000000001
 21
1.0
 31
0.0
 73
     1
 44
1.0
  0
POINT
  5
27B1
330
1DB7
100
AcDbEntity
  8
DEFPOINTS
 62
     0
100
AcDbPoint
 10
2518.94728715562
 20
6338.719501201302
 30
0.0
  0
POINT
  5
27B2
330
1DB7
100
AcDbEntity
  8
DEFPOINTS
 62
     0
100
AcDbPoint
 10
2518.94728715562
 20
6081.219501201302
 30
0.0
  0
POINT
  5
27B3
330
1DB7
100
AcDbEntity
  8
DEFPOINTS
 62
     0
100
AcDbPoint
 10
2638.947287155619
 20
6081.219501201302
 30
0.0
  0
ENDBLK
  5
1DC2
330
1DB7
100
AcDbEntity
  8
0
100
AcDbBlockEnd
  0
BLOCK
  5
1DF7
330
1DED
100
AcDbEntity
  8
0
100
AcDbBlockBegin
  2
*D11
 70
     1
 10
0.0
 20
0.0
 30
0.0
  3
*D11
  1

  0
LINE
  5
27A2
330
1DED
100
AcDbEntity
  8
AM_5
100
AcDbLine
 10
2518.94728715562
 20
6381.219501201302
 30
0.0
 11
2748.947287155618
 21
6381.219501201302
 31
0.0
  0
LINE
  5
27A3
330
1DED
100
AcDbEntity
  8
AM_5
100
AcDbLine
 10
2518.94728715562
 20
6038.719501201302
 30
0.0
 11
2748.947287155618
 21
6038.719501201302
 31
0.0
  0
LINE
  5
27A4
330
1DED
100
AcDbEntity
  8
AM_5
100
AcDbLine
 10
2738.947287155618
 20
6356.219501201302
 30
0.0
 11
2738.947287155618
 21
6063.719501201301
 31
0.0
  0
INSERT
  5
27A5
330
1DED
100
AcDbEntity
  8
AM_5
100
AcDbBlockReference
  2
_Open30
 10
2738.947287155618
 20
6381.219501201302
 30
0.0
 41
25.0
 42
25.0
 43
25.0
 50
90.0
  0
INSERT
  5
27A6
330
1DED
100
AcDbEntity
  8
AM_5
100
AcDbBlockReference
  2
_Open30
 10
2738.947287155618
 20
6038.719501201302
 30
0.0
 41
25.0
 42
25.0
 43
25.0
 50
270.0
  0
MTEXT
  5
27A7
330
1DED
100
AcDbEntity
  8
AM_5
 62
     2
100
AcDbMText
 10
2706.447287155617
 20
6209.969501201303
 30
0.0
 40
35.0
 41
0.0
 71
     5
 72
     1
  1
%%c68.5
 11
0.0000000000000001
 21
1.0
 31
0.0
 73
     1
 44
1.0
  0
POINT
  5
27A8
330
1DED
100
AcDbEntity
  8
DEFPOINTS
 62
     0
100
AcDbPoint
 10
2508.94728715562
 20
6381.219501201302
 30
0.0
  0
POINT
  5
27A9
330
1DED
100
AcDbEntity
  8
DEFPOINTS
 62
     0
100
AcDbPoint
 10
2508.94728715562
 20
6038.719501201302
 30
0.0
  0
POINT
  5
27AA
330
1DED
100
AcDbEntity
  8
DEFPOINTS
 62
     0
100
AcDbPoint
 10
2738.947287155618
 20
6038.719501201302
 30
0.0
  0
ENDBLK
  5
1DF8
330
1DED
100
AcDbEntity
  8
0
100
AcDbBlockEnd
  0
BLOCK
  5
208B
330
2081
100
AcDbEntity
  8
0
100
AcDbBlockBegin
  2
*D12
 70
     1
 10
0.0
 20
0.0
 30
0.0
  3
*D12
  1

  0
LINE
  5
2454
330
2081
100
AcDbEntity
  8
AM_5
100
AcDbLine
 10
1816.660166901094
 20
7778.377140023964
 30
0.0
 11
1816.660166901094
 21
7898.377140023964
 31
0.0
  0
LINE
  5
2455
330
2081
100
AcDbEntity
  8
AM_5
100
AcDbLine
 10
1966.660166901094
 20
7778.377140023964
 30
0.0
 11
1966.660166901094
 21
7898.377140023964
 31
0.0
  0
LINE
  5
2456
330
2081
100
AcDbEntity
  8
AM_5
100
AcDbLine
 10
1841.660166901094
 20
7888.377140023964
 30
0.0
 11
1941.660166901094
 21
7888.377140023964
 31
0.0
  0
INSERT
  5
2457
330
2081
100
AcDbEntity
  8
AM_5
100
AcDbBlockReference
  2
_Open30
 10
1816.660166901094
 20
7888.377140023964
 30
0.0
 41
25.0
 42
25.0
 43
25.0
 50
180.0
  0
INSERT
  5
2458
330
2081
100
AcDbEntity
  8
AM_5
100
AcDbBlockReference
  2
_Open30
 10
1966.660166901094
 20
7888.377140023964
 30
0.0
 41
25.0
 42
25.0
 43
25.0
  0
MTEXT
  5
2459
330
2081
100
AcDbEntity
  8
AM_5
 62
     2
100
AcDbMText
 10
1891.660166901094
 20
7920.877140023964
 30
0.0
 40
35.0
 41
0.0
 71
     5
 72
     1
  1
%%c150
 73
     1
 44
1.0
  0
POINT
  5
245A
330
2081
100
AcDbEntity
  8
DEFPOINTS
 62
     0
100
AcDbPoint
 10
1816.660166901094
 20
7768.377140023964
 30
0.0
  0
POINT
  5
245B
330
2081
100
AcDbEntity
  8
DEFPOINTS
 62
     0
100
AcDbPoint
 10
1966.660166901094
 20
7768.377140023964
 30
0.0
  0
POINT
  5
245C
330
2081
100
AcDbEntity
  8
DEFPOINTS
 62
     0
100
AcDbPoint
 10
1966.660166901094
 20
7888.377140023964
 30
0.0
  0
ENDBLK
  5
208C
330
2081
100
AcDbEntity
  8
0
100
AcDbBlockEnd
  0
BLOCK
  5
20BE
330
20B2
100
AcDbEntity
  8
0
100
AcDbBlockBegin
  2
*D13
 70
     1
 10
0.0
 20
0.0
 30
0.0
  3
*D13
  1

  0
LINE
  5
2449
330
20B2
100
AcDbEntity
  8
AM_5
100
AcDbLine
 10
1996.660166901094
 20
7655.627140024425
 30
0.0
 11
1996.660166901094
 21
7898.377140023964
 31
0.0
  0
LINE
  5
244A
330
20B2
100
AcDbEntity
  8
AM_5
100
AcDbLine
 10
1966.660166901094
 20
7778.377140023964
 30
0.0
 11
1966.660166901094
 21
7898.377140023964
 31
0.0
  0
LINE
  5
244B
330
20B2
100
AcDbEntity
  8
AM_5
100
AcDbLine
 10
2021.660166901094
 20
7888.377140023964
 30
0.0
 11
2046.660166901094
 21
7888.377140023964
 31
0.0
  0
LINE
  5
244C
330
20B2
100
AcDbEntity
  8
AM_5
100
AcDbLine
 10
1941.660166901094
 20
7888.377140023964
 30
0.0
 11
1916.660166901094
 21
7888.377140023964
 31
0.0
  0
LINE
  5
244D
330
20B2
100
AcDbEntity
  8
AM_5
100
AcDbLine
 10
1996.660166901094
 20
7888.377140023964
 30
0.0
 11
1966.660166901094
 21
7888.377140023964
 31
0.0
  0
INSERT
  5
244E
330
20B2
100
AcDbEntity
  8
AM_5
100
AcDbBlockReference
  2
_Open30
 10
1996.660166901094
 20
7888.377140023964
 30
0.0
 41
25.0
 42
25.0
 43
25.0
 50
180.0
  0
INSERT
  5
244F
330
20B2
100
AcDbEntity
  8
AM_5
100
AcDbBlockReference
  2
_Open30
 10
1966.660166901094
 20
7888.377140023964
 30
0.0
 41
25.0
 42
25.0
 43
25.0
  0
MTEXT
  5
2450
330
20B2
100
AcDbEntity
  8
AM_5
 62
     2
100
AcDbMText
 10
1981.660166901094
 20
7920.877140023964
 30
0.0
 40
35.0
 41
0.0
 71
     5
 72
     1
  1
30
 73
     1
 44
1.0
  0
POINT
  5
2451
330
20B2
100
AcDbEntity
  8
DEFPOINTS
 62
     0
100
AcDbPoint
 10
1996.660166901094
 20
7645.627140024426
 30
0.0
  0
POINT
  5
2452
330
20B2
100
AcDbEntity
  8
DEFPOINTS
 62
     0
100
AcDbPoint
 10
1966.660166901094
 20
7768.377140023964
 30
0.0
  0
POINT
  5
2453
330
20B2
100
AcDbEntity
  8
DEFPOINTS
 62
     0
100
AcDbPoint
 10
1966.660166901094
 20
7888.377140023964
 30
0.0
  0
ENDBLK
  5
20BF
330
20B2
100
AcDbEntity
  8
0
100
AcDbBlockEnd
  0
BLOCK
  5
20FD
330
20F3
100
AcDbEntity
  8
0
100
AcDbBlockBegin
  2
*D14
 70
     1
 10
0.0
 20
0.0
 30
0.0
  3
*D14
  1

  0
LINE
  5
2440
330
20F3
100
AcDbEntity
  8
AM_5
100
AcDbLine
 10
1626.266366901094
 20
7043.377140023963
 30
0.0
 11
1547.228839178547
 21
7043.377140023963
 31
0.0
  0
LINE
  5
2441
330
20F3
100
AcDbEntity
  8
AM_5
100
AcDbLine
 10
1778.720166901093
 20
7413.377140023964
 30
0.0
 11
1547.228839178547
 21
7413.377140023964
 31
0.0
  0
LINE
  5
2442
330
20F3
100
AcDbEntity
  8
AM_5
100
AcDbLine
 10
1557.228839178547
 20
7068.377140023963
 30
0.0
 11
1557.228839178547
 21
7388.377140023964
 31
0.0
  0
INSERT
  5
2443
330
20F3
100
AcDbEntity
  8
AM_5
100
AcDbBlockReference
  2
_Open30
 10
1557.228839178547
 20
7043.377140023963
 30
0.0
 41
25.0
 42
25.0
 43
25.0
 50
270.0
  0
INSERT
  5
2444
330
20F3
100
AcDbEntity
  8
AM_5
100
AcDbBlockReference
  2
_Open30
 10
1557.228839178547
 20
7413.377140023964
 30
0.0
 41
25.0
 42
25.0
 43
25.0
 50
90.0
  0
MTEXT
  5
2445
330
20F3
100
AcDbEntity
  8
AM_5
 62
     2
100
AcDbMText
 10
1524.728839178546
 20
7228.377140023964
 30
0.0
 40
35.0
 41
0.0
 71
     5
 72
     1
  1
370
 11
0.0000000000000001
 21
1.0
 31
0.0
 73
     1
 44
1.0
  0
POINT
  5
2446
330
20F3
100
AcDbEntity
  8
DEFPOINTS
 62
     0
100
AcDbPoint
 10
1636.266366901094
 20
7043.377140023963
 30
0.0
  0
POINT
  5
2447
330
20F3
100
AcDbEntity
  8
DEFPOINTS
 62
     0
100
AcDbPoint
 10
1788.720166901094
 20
7413.377140023964
 30
0.0
  0
POINT
  5
2448
330
20F3
100
AcDbEntity
  8
DEFPOINTS
 62
     0
100
AcDbPoint
 10
1557.228839178547
 20
7413.377140023964
 30
0.0
  0
ENDBLK
  5
20FE
330
20F3
100
AcDbEntity
  8
0
100
AcDbBlockEnd
  0
BLOCK
  5
2125
330
211B
100
AcDbEntity
  8
0
100
AcDbBlockBegin
  2
*D15
 70
     1
 10
0.0
 20
0.0
 30
0.0
  3
*D15
  1

  0
LINE
  5
2437
330
211B
100
AcDbEntity
  8
AM_5
100
AcDbLine
 10
1778.720166901093
 20
7613.377140023963
 30
0.0
 11
1547.228839178547
 21
7613.377140023963
 31
0.0
  0
LINE
  5
2438
330
211B
100
AcDbEntity
  8
AM_5
100
AcDbLine
 10
1778.720166901093
 20
7413.377140023964
 30
0.0
 11
1547.228839178547
 21
7413.377140023964
 31
0.0
  0
LINE
  5
2439
330
211B
100
AcDbEntity
  8
AM_5
100
AcDbLine
 10
1557.228839178547
 20
7588.377140023964
 30
0.0
 11
1557.228839178547
 21
7438.377140023963
 31
0.0
  0
INSERT
  5
243A
330
211B
100
AcDbEntity
  8
AM_5
100
AcDbBlockReference
  2
_Open30
 10
1557.228839178547
 20
7613.377140023963
 30
0.0
 41
25.0
 42
25.0
 43
25.0
 50
90.0
  0
INSERT
  5
243B
330
211B
100
AcDbEntity
  8
AM_5
100
AcDbBlockReference
  2
_Open30
 10
1557.228839178547
 20
7413.377140023964
 30
0.0
 41
25.0
 42
25.0
 43
25.0
 50
270.0
  0
MTEXT
  5
243C
330
211B
100
AcDbEntity
  8
AM_5
 62
     2
100
AcDbMText
 10
1524.725394296656
 20
7513.377140023964
 30
0.0
 40
35.0
 41
0.0
 71
     5
 72
     1
  1
200
 11
0.0000000000000001
 21
1.0
 31
0.0
 73
     1
 44
1.0
  0
POINT
  5
243D
330
211B
100
AcDbEntity
  8
DEFPOINTS
 62
     0
100
AcDbPoint
 10
1788.720166901094
 20
7613.377140023963
 30
0.0
  0
POINT
  5
243E
330
211B
100
AcDbEntity
  8
DEFPOINTS
 62
     0
100
AcDbPoint
 10
1788.720166901094
 20
7413.377140023964
 30
0.0
  0
POINT
  5
243F
330
211B
100
AcDbEntity
  8
DEFPOINTS
 62
     0
100
AcDbPoint
 10
1557.228839178547
 20
7413.377140023964
 30
0.0
  0
ENDBLK
  5
2126
330
211B
100
AcDbEntity
  8
0
100
AcDbBlockEnd
  0
BLOCK
  5
2141
330
2137
100
AcDbEntity
  8
0
100
AcDbBlockBegin
  2
*D16
 70
     1
 10
0.0
 20
0.0
 30
0.0
  3
*D16
  1

  0
LINE
  5
242E
330
2137
100
AcDbEntity
  8
AM_5
100
AcDbLine
 10
1881.660166901093
 20
7843.377140023964
 30
0.0
 11
1547.228839178547
 21
7843.377140023964
 31
0.0
  0
LINE
  5
242F
330
2137
100
AcDbEntity
  8
AM_5
100
AcDbLine
 10
1778.720166901093
 20
7613.377140023963
 30
0.0
 11
1547.228839178547
 21
7613.377140023963
 31
0.0
  0
LINE
  5
2430
330
2137
100
AcDbEntity
  8
AM_5
100
AcDbLine
 10
1557.228839178547
 20
7818.377140023963
 30
0.0
 11
1557.228839178547
 21
7638.377140023964
 31
0.0
  0
INSERT
  5
2431
330
2137
100
AcDbEntity
  8
AM_5
100
AcDbBlockReference
  2
_Open30
 10
1557.228839178547
 20
7843.377140023964
 30
0.0
 41
25.0
 42
25.0
 43
25.0
 50
90.0
  0
INSERT
  5
2432
330
2137
100
AcDbEntity
  8
AM_5
100
AcDbBlockReference
  2
_Open30
 10
1557.228839178547
 20
7613.377140023963
 30
0.0
 41
25.0
 42
25.0
 43
25.0
 50
270.0
  0
MTEXT
  5
2433
330
2137
100
AcDbEntity
  8
AM_5
 62
     2
100
AcDbMText
 10
1524.725394296656
 20
7728.377140023963
 30
0.0
 40
35.0
 41
0.0
 71
     5
 72
     1
  1
230
 11
0.0000000000000001
 21
1.0
 31
0.0
 73
     1
 44
1.0
  0
POINT
  5
2434
330
2137
100
AcDbEntity
  8
DEFPOINTS
 62
     0
100
AcDbPoint
 10
1891.660166901093
 20
7843.377140023964
 30
0.0
  0
POINT
  5
2435
330
2137
100
AcDbEntity
  8
DEFPOINTS
 62
     0
100
AcDbPoint
 10
1788.720166901094
 20
7613.377140023963
 30
0.0
  0
POINT
  5
2436
330
2137
100
AcDbEntity
  8
DEFPOINTS
 62
     0
100
AcDbPoint
 10
1557.228839178547
 20
7613.377140023963
 30
0.0
  0
ENDBLK
  5
2142
330
2137
100
AcDbEntity
  8
0
100
AcDbBlockEnd
  0
BLOCK
  5
2160
330
2156
100
AcDbEntity
  8
0
100
AcDbBlockBegin
  2
*D17
 70
     1
 10
0.0
 20
0.0
 30
0.0
  3
*D17
  1

  0
LINE
  5
2425
330
2156
100
AcDbEntity
  8
AM_5
100
AcDbLine
 10
1626.266366901094
 20
7043.377140023965
 30
0.0
 11
1447.228839178547
 21
7043.377140023965
 31
0.0
  0
LINE
  5
2426
330
2156
100
AcDbEntity
  8
AM_5
100
AcDbLine
 10
1881.660166901094
 20
7843.377140023964
 30
0.0
 11
1447.228839178548
 21
7843.377140023964
 31
0.0
  0
LINE
  5
2427
330
2156
100
AcDbEntity
  8
AM_5
100
AcDbLine
 10
1457.228839178547
 20
7068.377140023965
 30
0.0
 11
1457.228839178547
 21
7818.377140023963
 31
0.0
  0
INSERT
  5
2428
330
2156
100
AcDbEntity
  8
AM_5
100
AcDbBlockReference
  2
_Open30
 10
1457.228839178547
 20
7043.377140023965
 30
0.0
 41
25.0
 42
25.0
 43
25.0
 50
270.0
  0
INSERT
  5
2429
330
2156
100
AcDbEntity
  8
AM_5
100
AcDbBlockReference
  2
_Open30
 10
1457.228839178547
 20
7843.377140023964
 30
0.0
 41
25.0
 42
25.0
 43
25.0
 50
90.0
  0
MTEXT
  5
242A
330
2156
100
AcDbEntity
  8
AM_5
 62
     2
100
AcDbMText
 10
1424.728839178546
 20
7443.377140023963
 30
0.0
 40
35.0
 41
0.0
 71
     5
 72
     1
  1
800
 11
0.0000000000000001
 21
1.0
 31
0.0
 73
     1
 44
1.0
  0
POINT
  5
242B
330
2156
100
AcDbEntity
  8
DEFPOINTS
 62
     0
100
AcDbPoint
 10
1636.266366901094
 20
7043.377140023965
 30
0.0
  0
POINT
  5
242C
330
2156
100
AcDbEntity
  8
DEFPOINTS
 62
     0
100
AcDbPoint
 10
1891.660166901093
 20
7843.377140023964
 30
0.0
  0
POINT
  5
242D
330
2156
100
AcDbEntity
  8
DEFPOINTS
 62
     0
100
AcDbPoint
 10
1457.228839178547
 20
7843.377140023964
 30
0.0
  0
ENDBLK
  5
2161
330
2156
100
AcDbEntity
  8
0
100
AcDbBlockEnd
  0
BLOCK
  5
2191
330
2187
100
AcDbEntity
  8
0
100
AcDbBlockBegin
  2
*D18
 70
     1
 10
0.0
 20
0.0
 30
0.0
  3
*D18
  1

  0
LINE
  5
241C
330
2187
100
AcDbEntity
  8
AM_5
100
AcDbLine
 10
1801.660166901094
 20
6743.377140023963
 30
0.0
 11
1447.228839178548
 21
6743.377140023963
 31
0.0
  0
LINE
  5
241D
330
2187
100
AcDbEntity
  8
AM_5
100
AcDbLine
 10
1626.266366901094
 20
7043.377140023963
 30
0.0
 11
1447.228839178548
 21
7043.377140023963
 31
0.0
  0
LINE
  5
241E
330
2187
100
AcDbEntity
  8
AM_5
100
AcDbLine
 10
1457.228839178548
 20
6768.377140023964
 30
0.0
 11
1457.228839178548
 21
7018.377140023964
 31
0.0
  0
INSERT
  5
241F
330
2187
100
AcDbEntity
  8
AM_5
100
AcDbBlockReference
  2
_Open30
 10
1457.228839178548
 20
6743.377140023963
 30
0.0
 41
25.0
 42
25.0
 43
25.0
 50
270.0
  0
INSERT
  5
2420
330
2187
100
AcDbEntity
  8
AM_5
100
AcDbBlockReference
  2
_Open30
 10
1457.228839178548
 20
7043.377140023963
 30
0.0
 41
25.0
 42
25.0
 43
25.0
 50
90.0
  0
MTEXT
  5
2421
330
2187
100
AcDbEntity
  8
AM_5
 62
     2
100
AcDbMText
 10
1424.728839178547
 20
6893.377140023964
 30
0.0
 40
35.0
 41
0.0
 71
     5
 72
     1
  1
300
 11
0.0000000000000001
 21
1.0
 31
0.0
 73
     1
 44
1.0
  0
POINT
  5
2422
330
2187
100
AcDbEntity
  8
DEFPOINTS
 62
     0
100
AcDbPoint
 10
1811.660166901094
 20
6743.377140023963
 30
0.0
  0
POINT
  5
2423
330
2187
100
AcDbEntity
  8
DEFPOINTS
 62
     0
100
AcDbPoint
 10
1636.266366901094
 20
7043.377140023963
 30
0.0
  0
POINT
  5
2424
330
2187
100
AcDbEntity
  8
DEFPOINTS
 62
     0
100
AcDbPoint
 10
1457.228839178548
 20
7043.377140023963
 30
0.0
  0
ENDBLK
  5
2192
330
2187
100
AcDbEntity
  8
0
100
AcDbBlockEnd
  0
BLOCK
  5
21B0
330
21A6
100
AcDbEntity
  8
0
100
AcDbBlockBegin
  2
*D19
 70
     1
 10
0.0
 20
0.0
 30
0.0
  3
*D19
  1

  0
LINE
  5
2413
330
21A6
100
AcDbEntity
  8
AM_5
100
AcDbLine
 10
1801.660166901094
 20
6743.377140023963
 30
0.0
 11
1347.228839178548
 21
6743.377140023963
 31
0.0
  0
LINE
  5
2414
330
21A6
100
AcDbEntity
  8
AM_5
100
AcDbLine
 10
1881.660166901093
 20
7843.377140023964
 30
0.0
 11
1347.228839178548
 21
7843.377140023964
 31
0.0
  0
LINE
  5
2415
330
21A6
100
AcDbEntity
  8
AM_5
100
AcDbLine
 10
1357.228839178548
 20
6768.377140023964
 30
0.0
 11
1357.228839178548
 21
7818.377140023963
 31
0.0
  0
INSERT
  5
2416
330
21A6
100
AcDbEntity
  8
AM_5
100
AcDbBlockReference
  2
_Open30
 10
1357.228839178548
 20
6743.377140023963
 30
0.0
 41
25.0
 42
25.0
 43
25.0
 50
270.0
  0
INSERT
  5
2417
330
21A6
100
AcDbEntity
  8
AM_5
100
AcDbBlockReference
  2
_Open30
 10
1357.228839178548
 20
7843.377140023964
 30
0.0
 41
25.0
 42
25.0
 43
25.0
 50
90.0
  0
MTEXT
  5
2418
330
21A6
100
AcDbEntity
  8
AM_5
 62
     2
100
AcDbMText
 10
1324.728839178547
 20
7293.377140023963
 30
0.0
 40
35.0
 41
0.0
 71
     5
 72
     1
  1
1100
 11
0.0000000000000001
 21
1.0
 31
0.0
 73
     1
 44
1.0
  0
POINT
  5
2419
330
21A6
100
AcDbEntity
  8
DEFPOINTS
 62
     0
100
AcDbPoint
 10
1811.660166901094
 20
6743.377140023963
 30
0.0
  0
POINT
  5
241A
330
21A6
100
AcDbEntity
  8
DEFPOINTS
 62
     0
100
AcDbPoint
 10
1891.660166901093
 20
7843.377140023964
 30
0.0
  0
POINT
  5
241B
330
21A6
100
AcDbEntity
  8
DEFPOINTS
 62
     0
100
AcDbPoint
 10
1357.228839178548
 20
7843.377140023964
 30
0.0
  0
ENDBLK
  5
21B1
330
21A6
100
AcDbEntity
  8
0
100
AcDbBlockEnd
  0
BLOCK
  5
21E1
330
21D7
100
AcDbEntity
  8
0
100
AcDbBlockBegin
  2
*D20
 70
     1
 10
0.0
 20
0.0
 30
0.0
  3
*D20
  1

  0
LINE
  5
240A
330
21D7
100
AcDbEntity
  8
AM_5
100
AcDbLine
 10
1891.660166901093
 20
7881.317140023964
 30
0.0
 11
1891.660166901093
 21
7973.377141033964
 31
0.0
  0
LINE
  5
240B
330
21D7
100
AcDbEntity
  8
AM_5
100
AcDbLine
 10
3891.660166901095
 20
7881.317140023964
 30
0.0
 11
3891.660166901095
 21
7973.377141033964
 31
0.0
  0
LINE
  5
240C
330
21D7
100
AcDbEntity
  8
AM_5
100
AcDbLine
 10
1916.660166901094
 20
7963.377141033965
 30
0.0
 11
3866.660166901095
 21
7963.377141033965
 31
0.0
  0
INSERT
  5
240D
330
21D7
100
AcDbEntity
  8
AM_5
100
AcDbBlockReference
  2
_Open30
 10
1891.660166901093
 20
7963.377141033965
 30
0.0
 41
25.0
 42
25.0
 43
25.0
 50
180.0
  0
INSERT
  5
240E
330
21D7
100
AcDbEntity
  8
AM_5
100
AcDbBlockReference
  2
_Open30
 10
3891.660166901095
 20
7963.377141033965
 30
0.0
 41
25.0
 42
25.0
 43
25.0
  0
MTEXT
  5
240F
330
21D7
100
AcDbEntity
  8
AM_5
 62
     2
100
AcDbMText
 10
2891.660166901095
 20
7995.880585915855
 30
0.0
 40
35.0
 41
0.0
 71
     5
 72
     1
  1
2000
 73
     1
 44
1.0
  0
POINT
  5
2410
330
21D7
100
AcDbEntity
  8
DEFPOINTS
 62
     0
100
AcDbPoint
 10
1891.660166901093
 20
7871.317140023963
 30
0.0
  0
POINT
  5
2411
330
21D7
100
AcDbEntity
  8
DEFPOINTS
 62
     0
100
AcDbPoint
 10
3891.660166901095
 20
7871.317140023963
 30
0.0
  0
POINT
  5
2412
330
21D7
100
AcDbEntity
  8
DEFPOINTS
 62
     0
100
AcDbPoint
 10
3891.660166901095
 20
7963.377141033965
 30
0.0
  0
ENDBLK
  5
21E2
330
21D7
100
AcDbEntity
  8
0
100
AcDbBlockEnd
  0
BLOCK
  5
220B
330
2201
100
AcDbEntity
  8
0
100
AcDbBlockBegin
  2
*D21
 70
     1
 10
0.0
 20
0.0
 30
0.0
  3
*D21
  1

  0
LINE
  5
2401
330
2201
100
AcDbEntity
  8
AM_5
100
AcDbLine
 10
4195.219366721394
 20
7043.377140023963
 30
0.0
 11
4315.219366721394
 21
7043.377140023963
 31
0.0
  0
LINE
  5
2402
330
2201
100
AcDbEntity
  8
AM_5
100
AcDbLine
 10
4151.660166901094
 20
6643.377140023964
 30
0.0
 11
4315.219366721394
 21
6643.377140023964
 31
0.0
  0
LINE
  5
2403
330
2201
100
AcDbEntity
  8
AM_5
100
AcDbLine
 10
4305.219366721394
 20
7018.377140023964
 30
0.0
 11
4305.219366721394
 21
6668.377140023963
 31
0.0
  0
INSERT
  5
2404
330
2201
100
AcDbEntity
  8
AM_5
100
AcDbBlockReference
  2
_Open30
 10
4305.219366721394
 20
7043.377140023963
 30
0.0
 41
25.0
 42
25.0
 43
25.0
 50
90.0
  0
INSERT
  5
2405
330
2201
100
AcDbEntity
  8
AM_5
100
AcDbBlockReference
  2
_Open30
 10
4305.219366721394
 20
6643.377140023964
 30
0.0
 41
25.0
 42
25.0
 43
25.0
 50
270.0
  0
MTEXT
  5
2406
330
2201
100
AcDbEntity
  8
AM_5
 62
     2
100
AcDbMText
 10
4272.719366721392
 20
6843.377140023965
 30
0.0
 40
35.0
 41
0.0
 71
     5
 72
     1
  1
400
 11
0.0000000000000001
 21
1.0
 31
0.0
 73
     1
 44
1.0
  0
POINT
  5
2407
330
2201
100
AcDbEntity
  8
DEFPOINTS
 62
     0
100
AcDbPoint
 10
4185.219366721394
 20
7043.377140023963
 30
0.0
  0
POINT
  5
2408
330
2201
100
AcDbEntity
  8
DEFPOINTS
 62
     0
100
AcDbPoint
 10
4141.660166901094
 20
6643.377140023964
 30
0.0
  0
POINT
  5
2409
330
2201
100
AcDbEntity
  8
DEFPOINTS
 62
     0
100
AcDbPoint
 10
4305.219366721394
 20
6643.377140023964
 30
0.0
  0
ENDBLK
  5
220C
330
2201
100
AcDbEntity
  8
0
100
AcDbBlockEnd
  0
BLOCK
  5
2233
330
2229
100
AcDbEntity
  8
0
100
AcDbBlockBegin
  2
*D22
 70
     1
 10
0.0
 20
0.0
 30
0.0
  3
*D22
  1

  0
LINE
  5
23F8
330
2229
100
AcDbEntity
  8
AM_5
100
AcDbLine
 10
3691.660166901094
 20
6633.377140023964
 30
0.0
 11
3691.660166901094
 21
6413.377139023963
 31
0.0
  0
LINE
  5
23F9
330
2229
100
AcDbEntity
  8
AM_5
100
AcDbLine
 10
4091.660166901094
 20
6633.377140023964
 30
0.0
 11
4091.660166901094
 21
6413.377139023963
 31
0.0
  0
LINE
  5
23FA
330
2229
100
AcDbEntity
  8
AM_5
100
AcDbLine
 10
3716.660166901095
 20
6423.377139023964
 30
0.0
 11
4066.660166901094
 21
6423.377139023964
 31
0.0
  0
INSERT
  5
23FB
330
2229
100
AcDbEntity
  8
AM_5
100
AcDbBlockReference
  2
_Open30
 10
3691.660166901094
 20
6423.377139023964
 30
0.0
 41
25.0
 42
25.0
 43
25.0
 50
180.0
  0
INSERT
  5
23FC
330
2229
100
AcDbEntity
  8
AM_5
100
AcDbBlockReference
  2
_Open30
 10
4091.660166901094
 20
6423.377139023964
 30
0.0
 41
25.0
 42
25.0
 43
25.0
  0
MTEXT
  5
23FD
330
2229
100
AcDbEntity
  8
AM_5
 62
     2
100
AcDbMText
 10
3891.660166901095
 20
6455.877139023964
 30
0.0
 40
35.0
 41
0.0
 71
     5
 72
     1
  1
{\Famgdt|c128;o}400
 73
     1
 44
1.0
  0
POINT
  5
23FE
330
2229
100
AcDbEntity
  8
DEFPOINTS
 62
     0
100
AcDbPoint
 10
3691.660166901094
 20
6643.377140023964
 30
0.0
  0
POINT
  5
23FF
330
2229
100
AcDbEntity
  8
DEFPOINTS
 62
     0
100
AcDbPoint
 10
4091.660166901094
 20
6643.377140023964
 30
0.0
  0
POINT
  5
2400
330
2229
100
AcDbEntity
  8
DEFPOINTS
 62
     0
100
AcDbPoint
 10
4091.660166901094
 20
6423.377139023964
 30
0.0
  0
ENDBLK
  5
2234
330
2229
100
AcDbEntity
  8
0
100
AcDbBlockEnd
  0
BLOCK
  5
226A
330
2260
100
AcDbEntity
  8
0
100
AcDbBlockBegin
  2
*D23
 70
     1
 10
0.0
 20
0.0
 30
0.0
  3
*D23
  1

  0
LINE
  5
23EF
330
2260
100
AcDbEntity
  8
AM_5
100
AcDbLine
 10
4151.660166901094
 20
6643.377140023964
 30
0.0
 11
4315.219366721398
 21
6643.377140023964
 31
0.0
  0
LINE
  5
23F0
330
2260
100
AcDbEntity
  8
AM_5
100
AcDbLine
 10
4151.660166901094
 20
6543.377140023963
 30
0.0
 11
4315.219366721398
 21
6543.377140023963
 31
0.0
  0
LINE
  5
23F1
330
2260
100
AcDbEntity
  8
AM_5
100
AcDbLine
 10
4305.219366721399
 20
6618.377140023963
 30
0.0
 11
4305.219366721399
 21
6568.377140023963
 31
0.0
  0
INSERT
  5
23F2
330
2260
100
AcDbEntity
  8
AM_5
100
AcDbBlockReference
  2
_Open30
 10
4305.219366721399
 20
6643.377140023964
 30
0.0
 41
25.0
 42
25.0
 43
25.0
 50
90.0
  0
INSERT
  5
23F3
330
2260
100
AcDbEntity
  8
AM_5
100
AcDbBlockReference
  2
_Open30
 10
4305.219366721399
 20
6543.377140023963
 30
0.0
 41
25.0
 42
25.0
 43
25.0
 50
270.0
  0
MTEXT
  5
23F4
330
2260
100
AcDbEntity
  8
AM_5
 62
     2
100
AcDbMText
 10
4272.719366721396
 20
6593.377140023965
 30
0.0
 40
35.0
 41
0.0
 71
     5
 72
     1
  1
100
 11
0.0000000000000001
 21
1.0
 31
0.0
 73
     1
 44
1.0
  0
POINT
  5
23F5
330
2260
100
AcDbEntity
  8
DEFPOINTS
 62
     0
100
AcDbPoint
 10
4141.660166901094
 20
6643.377140023964
 30
0.0
  0
POINT
  5
23F6
330
2260
100
AcDbEntity
  8
DEFPOINTS
 62
     0
100
AcDbPoint
 10
4141.660166901094
 20
6543.377140023963
 30
0.0
  0
POINT
  5
23F7
330
2260
100
AcDbEntity
  8
DEFPOINTS
 62
     0
100
AcDbPoint
 10
4305.219366721399
 20
6543.377140023963
 30
0.0
  0
ENDBLK
  5
226B
330
2260
100
AcDbEntity
  8
0
100
AcDbBlockEnd
  0
BLOCK
  5
234F
330
234E
100
AcDbEntity
  8
0
100
AcDbBlockBegin
  2
NAKAMURA
 70
     0
 10
0.0
 20
0.0
 30
0.0
  3
NAKAMURA
  1

  0
CIRCLE
  5
2350
330
234E
100
AcDbEntity
  8
0
100
AcDbCircle
 10
0.0
 20
-0.0000000000000071
 30
0.0
 40
5.75
  0
LINE
  5
2351
330
234E
100
AcDbEntity
  8
0
100
AcDbLine
 10
5.390964663212002
 20
2.0
 30
0.0
 11
-5.390964663211889
 21
1.999999999999985
 31
0.0
  0
TEXT
  5
2352
330
234E
100
AcDbEntity
  8
0
100
AcDbText
 10
-1.40956822548013
 20
2.272712767880801
 30
0.0
 40
2.875000000632499
  1
藤
 50
0.000000000000708
 72
     4
 11
-0.0679015585183152
 21
3.710212768197067
 31
0.0
100
AcDbText
  0
TEXT
  5
2353
330
234E
100
AcDbEntity
  8
0
100
AcDbText
 10
-1.227410318497265
 20
-5.354429741660606
 30
0.0
 40
2.875000000632499
  1
繁
 50
0.000000000000708
 72
     4
 11
0.1142563484645507
 21
-3.91692974134434
 31
0.0
100
AcDbText
  0
LINE
  5
2354
330
234E
100
AcDbEntity
  8
0
100
AcDbLine
 10
5.390964663212002
 20
-1.999999999999964
 30
0.0
 11
-5.390964663211889
 21
-2.000000000000021
 31
0.0
  0
ENDBLK
  5
2355
330
234E
100
AcDbEntity
  8
0
100
AcDbBlockEnd
  0
BLOCK
  5
2869
330
2862
100
AcDbEntity
  8
0
100
AcDbBlockBegin
  2
*S26
 70
     1
 10
0.0
 20
0.0
 30
0.0
  3
*S26
  1

  0
LINE
  5
2863
330
2862
100
AcDbEntity
  8
AM_5
100
AcDbLine
 10
3647.460626356653
 20
6321.157813791378
 30
0.0
 11
3360.810626356653
 21
6321.157813791378
 31
0.0
  0
LINE
  5
2864
330
2862
100
AcDbEntity
  8
AM_5
100
AcDbLine
 10
3360.810626356653
 20
6321.157813791378
 30
0.0
 11
3304.812843586191
 21
6236.264249068447
 31
0.0
  0
LINE
  5
2865
330
2862
100
AcDbEntity
  8
AM_5
100
AcDbLine
 10
3304.812843586191
 20
6236.264249068447
 30
0.0
 11
3287.468212295586
 21
6209.969501201374
 31
0.0
  0
LINE
  5
2866
330
2862
100
AcDbEntity
  8
AM_5
100
AcDbLine
 10
3301.351074371505
 20
6238.5477130874
 30
0.0
 11
3287.468212295586
 21
6209.969501201374
 31
0.0
  0
LINE
  5
2867
330
2862
100
AcDbEntity
  8
AM_5
100
AcDbLine
 10
3287.468212295586
 20
6209.969501201374
 30
0.0
 11
3308.274612800877
 21
6233.980785049494
 31
0.0
  0
MTEXT
  5
2868
330
2862
100
AcDbEntity
  8
AM_5
 62
     2
100
AcDbMText
 10
3376.560626356653
 20
6336.907813791379
 30
0.0
 40
31.5
 41
0.0
 71
     7
 72
     5
  1
M8x12 止めネジ
  7
ACJISTS
 73
     1
 44
1.0
  0
ENDBLK
  5
286A
330
2862
100
AcDbEntity
  8
0
100
AcDbBlockEnd
  0
BLOCK
  5
2873
330
286C
100
AcDbEntity
  8
0
100
AcDbBlockBegin
  2
*S27
 70
     1
 10
0.0
 20
0.0
 30
0.0
  3
*S27
  1

  0
LINE
  5
286D
330
286C
100
AcDbEntity
  8
AM_5
100
AcDbLine
 10
3243.319918318876
 20
7769.624831669617
 30
0.0
 11
2874.587615169269
 21
7769.624831669617
 31
0.0
  0
LINE
  5
286E
330
286C
100
AcDbEntity
  8
AM_5
100
AcDbLine
 10
2874.587615169269
 20
7769.624831669617
 30
0.0
 11
2705.969213611295
 21
7655.349185646776
 31
0.0
  0
LINE
  5
286F
330
286C
100
AcDbEntity
  8
AM_5
100
AcDbLine
 10
2705.969213611295
 20
7655.349185646776
 30
0.0
 11
2679.893385656625
 21
7637.677140024425
 31
0.0
  0
LINE
  5
2870
330
286C
100
AcDbEntity
  8
AM_5
100
AcDbLine
 10
2703.642644678015
 20
7658.78213350835
 30
0.0
 11
2679.893385656625
 21
7637.677140024425
 31
0.0
  0
LINE
  5
2871
330
286C
100
AcDbEntity
  8
AM_5
100
AcDbLine
 10
2679.893385656625
 20
7637.677140024425
 30
0.0
 11
2708.295782544576
 21
7651.916237785201
 31
0.0
  0
MTEXT
  5
2872
330
286C
100
AcDbEntity
  8
AM_5
 62
     2
100
AcDbMText
 10
2890.337615169269
 20
7785.374831669617
 30
0.0
 40
31.5
 41
0.0
 71
     7
 72
     5
  1
%%c48.6ｘ3.5 STK400
  7
ACJISTS
 73
     1
 44
1.0
  0
ENDBLK
  5
2874
330
286C
100
AcDbEntity
  8
0
100
AcDbBlockEnd
  0
BLOCK
  5
287D
330
2876
100
AcDbEntity
  8
0
100
AcDbBlockBegin
  2
*S28
 70
     1
 10
0.0
 20
0.0
 30
0.0
  3
*S28
  1

  0
LINE
  5
2877
330
2876
100
AcDbEntity
  8
AM_5
100
AcDbLine
 10
2890.337615169269
 20
7769.624831669617
 30
0.0
 11
2874.587615169269
 21
7769.624831669617
 31
0.0
  0
LINE
  5
2878
330
2876
100
AcDbEntity
  8
AM_5
100
AcDbLine
 10
2874.587615169269
 20
7769.624831669617
 30
0.0
 11
2701.042976685555
 21
7465.046144753391
 31
0.0
  0
LINE
  5
2879
330
2876
100
AcDbEntity
  8
AM_5
100
AcDbLine
 10
2701.042976685555
 20
7465.046144753391
 30
0.0
 11
2685.448503942116
 21
7437.677140024425
 31
0.0
  0
LINE
  5
287A
330
2876
100
AcDbEntity
  8
AM_5
100
AcDbLine
 10
2697.439778872582
 20
7467.099196029463
 30
0.0
 11
2685.448503942116
 21
7437.677140024425
 31
0.0
  0
LINE
  5
287B
330
2876
100
AcDbEntity
  8
AM_5
100
AcDbLine
 10
2685.448503942116
 20
7437.677140024425
 30
0.0
 11
2704.646174498528
 21
7462.993093477319
 31
0.0
  0
MTEXT
  5
287C
330
2876
100
AcDbEntity
  8
AM_5
 62
     2
100
AcDbMText
 10
2890.337615169269
 20
7785.374831669617
 30
0.0
 40
31.5
 41
0.0
 71
     7
 72
     5
  1

  7
ACJISTS
 73
     1
 44
1.0
  0
ENDBLK
  5
287E
330
2876
100
AcDbEntity
  8
0
100
AcDbBlockEnd
  0
BLOCK
  5
2887
330
2880
100
AcDbEntity
  8
0
100
AcDbBlockBegin
  2
*S29
 70
     1
 10
0.0
 20
0.0
 30
0.0
  3
*S29
  1

  0
LINE
  5
2881
330
2880
100
AcDbEntity
  8
AM_5
100
AcDbLine
 10
1261.575450257406
 20
7952.177906909651
 30
0.0
 11
1586.244512749435
 21
7952.177906909651
 31
0.0
  0
LINE
  5
2882
330
2880
100
AcDbEntity
  8
AM_5
100
AcDbLine
 10
1586.244512749435
 20
7952.177906909651
 30
0.0
 11
1792.77802317901
 21
7774.547018567727
 31
0.0
  0
LINE
  5
2883
330
2880
100
AcDbEntity
  8
AM_5
100
AcDbLine
 10
1792.77802317901
 20
7774.547018567727
 30
0.0
 11
1816.660166901094
 21
7754.006979345813
 31
0.0
  0
LINE
  5
2884
330
2880
100
AcDbEntity
  8
AM_5
100
AcDbLine
 10
1790.073875726968
 20
7771.402874713003
 30
0.0
 11
1816.660166901094
 21
7754.006979345813
 31
0.0
  0
LINE
  5
2885
330
2880
100
AcDbEntity
  8
AM_5
100
AcDbLine
 10
1816.660166901094
 20
7754.006979345813
 30
0.0
 11
1795.482170631054
 21
7777.691162422453
 31
0.0
  0
MTEXT
  5
2886
330
2880
100
AcDbEntity
  8
AM_5
 62
     2
100
AcDbMText
 10
1554.744512749435
 20
7967.92790690965
 30
0.0
 40
31.5
 41
0.0
 71
     9
 72
     5
  1
支柱（端部）FCD
  7
ACJISTS
 73
     1
 44
1.0
  0
ENDBLK
  5
2888
330
2880
100
AcDbEntity
  8
0
100
AcDbBlockEnd
  0
BLOCK
  5
2891
330
288A
100
AcDbEntity
  8
0
100
AcDbBlockBegin
  2
*S30
 70
     1
 10
0.0
 20
0.0
 30
0.0
  3
*S30
  1

  0
LINE
  5
288B
330
288A
100
AcDbEntity
  8
AM_5
100
AcDbLine
 10
4438.128740097589
 20
7880.421139765219
 30
0.0
 11
4075.65967760556
 21
7880.421139765219
 31
0.0
  0
LINE
  5
288C
330
288A
100
AcDbEntity
  8
AM_5
100
AcDbLine
 10
4075.65967760556
 20
7880.421139765219
 30
0.0
 11
3987.093670501846
 21
7776.512152623658
 31
0.0
  0
LINE
  5
288D
330
288A
100
AcDbEntity
  8
AM_5
100
AcDbLine
 10
3987.093670501846
 20
7776.512152623658
 30
0.0
 11
3966.660166901095
 21
7752.5387938561
 31
0.0
  0
LINE
  5
288E
330
288A
100
AcDbEntity
  8
AM_5
100
AcDbLine
 10
3983.93751795862
 20
7779.202274395156
 30
0.0
 11
3966.660166901095
 21
7752.5387938561
 31
0.0
  0
LINE
  5
288F
330
288A
100
AcDbEntity
  8
AM_5
100
AcDbLine
 10
3966.660166901095
 20
7752.5387938561
 30
0.0
 11
3990.249823045072
 21
7773.822030852162
 31
0.0
  0
MTEXT
  5
2890
330
288A
100
AcDbEntity
  8
AM_5
 62
     2
100
AcDbMText
 10
4107.159677605561
 20
7896.171139765219
 30
0.0
 40
31.5
 41
0.0
 71
     7
 72
     5
  1
支柱（中間部）FCD
  7
ACJISTS
 73
     1
 44
1.0
  0
ENDBLK
  5
2892
330
288A
100
AcDbEntity
  8
0
100
AcDbBlockEnd
  0
ENDSEC
  0
SECTION
  2
ENTITIES
  0
INSERT
  5
E56
330
1F
100
AcDbEntity
  8
8
100
AcDbBlockReference
  2
*X5
 10
5540.766063571994
 20
5571.731305692228
 30
0.0
1001
GENIUS_GENODEF_13
1002
{
1000
HIER
1070
     0
1002
}
1002
{
1000
MANEDIT
1070
     0
1002
}
1002
{
1000
NOSEL
1070
     0
1002
}
1002
{
1000
BEHIND
1070
     0
1002
}
1002
{
1000
REACTOR
1002
}
1001
GENIUS_GENOBJ-N-HTC_13
1002
{
1000
OWNER
1000
GEN
1002
}
1001
GENIUS_GENHATCH_13
1002
{
1000
DATA
1040
45.0
1042
2.5
1000
_U
1070
     0
1011
2350.322856967293
1021
6593.165613483856
1031
0.0
1002
}
1002
{
1000
UCS
1010
0.0
1020
0.0
1030
0.0
1010
1.0
1020
0.0
1030
0.0
1010
0.0
1020
1.0
1030
0.0
1002
}
1001
ACAD
1000
HATCH
1002
{
1070
    19
1000
_U
1040
25.0
1040
0.7853981633974483
1070
     0
1002
}
  0
LINE
  5
E57
330
1F
100
AcDbEntity
  8
0
100
AcDbLine
 10
2333.94728715562
 20
6709.737175191034
 30
0.0
 11
2333.94728715562
 21
6406.219501201302
 31
0.0
  0
LINE
  5
E58
330
1F
100
AcDbEntity
  8
0
100
AcDbLine
 10
2368.94728715562
 20
6707.438992541684
 30
0.0
 11
2368.94728715562
 21
6406.219501201302
 31
0.0
  0
POLYLINE
  5
FD3
330
1F
100
AcDbEntity
  8
4
100
AcDb2dPolyline
 66
     1
 10
0.0
 20
0.0
 30
0.0
1001
GENIUS_GENHINW_13
1000
UCSORG
1010
0.0
1020
0.0
1030
0.0
1000
UCSXDIR
1010
1.0
1020
0.0
1030
0.0
1000
UCSYDIR
1010
0.0
1020
1.0
1030
0.0
1000
HEADTYPE
1070
     3
1000
ENDTYPE
1070
     1
1000
PSTA
1011
2026.958711284015
1021
7339.55329536641
1031
0.0
1000
PVERTEX
1011
2114.693274132585
1021
7268.643478435433
1031
0.0
1000
TEXTHANDLE
1005
100F
1000
TEXTVERHOR
1070
     0
1000
TYPE
1070
     1
1000
GENZICIR
1040
1.5
1000
OBJ_USEPSTA
1070
     0
1001
GENIUS_GENOREF_13
1005
1368
  0
VERTEX
  5
FD4
330
FD3
100
AcDbEntity
  8
4
100
AcDbVertex
100
AcDb2dVertex
 10
2049.031867827216
 20
7327.092236894988
 30
0.0
  0
VERTEX
  5
FD5
330
FD3
100
AcDbEntity
  8
4
100
AcDbVertex
100
AcDb2dVertex
 10
2026.958711284015
 20
7339.55329536641
 30
0.0
  0
VERTEX
  5
FD6
330
FD3
100
AcDbEntity
  8
4
100
AcDbVertex
100
AcDb2dVertex
 10
2043.772367008598
 20
7320.584816271235
 30
0.0
  0
VERTEX
  5
FD7
330
FD3
100
AcDbEntity
  8
4
100
AcDbVertex
100
AcDb2dVertex
 10
2026.958711284015
 20
7339.55329536641
 30
0.0
  0
VERTEX
  5
FD8
330
FD3
100
AcDbEntity
  8
4
100
AcDbVertex
100
AcDb2dVertex
 10
2114.693274132585
 20
7268.643478435433
 30
0.0
  0
VERTEX
  5
FD9
330
FD3
100
AcDbEntity
  8
4
100
AcDbVertex
100
AcDb2dVertex
 10
2150.693274132585
 20
7268.643478435433
 30
0.0
  0
SEQEND
  5
FDA
330
FD3
100
AcDbEntity
  8
4
  0
CIRCLE
  5
FE4
330
1F
100
AcDbEntity
  8
4
100
AcDbCircle
 10
1956.612072184951
 20
7413.377140023978
 30
0.0
 40
100.0
1001
GENIUS_GENOREF_13
1005
1364
  0
TEXT
  5
100F
330
1F
100
AcDbEntity
  8
6
100
AcDbText
 10
2118.167083006623
 20
7277.361068460592
 30
0.0
 40
50.0
  1
A
100
AcDbText
1001
GENIUS_GENHINW_13
1000
LEADERHANDLE
1005
FD3
1001
GENIUS_GENOREF_13
1005
1368
  0
ARC
  5
1034
330
1F
100
AcDbEntity
  8
1
100
AcDbCircle
 10
3116.218212295585
 20
6209.969501201374
 30
0.0
 40
128.75
100
AcDbArc
 50
8.936504401812429
 51
171.0634955981904
  0
ARC
  5
1035
330
1F
100
AcDbEntity
  8
3
100
AcDbCircle
 10
3116.218212295585
 20
6209.96950120136
 30
0.0
 40
146.25
100
AcDbArc
 50
7.859949692043694
 51
172.1400503079592
  0
ARC
  5
1036
330
1F
100
AcDbEntity
  8
1
100
AcDbCircle
 10
3116.218212295585
 20
6209.96950120136
 30
0.0
 40
171.25
100
AcDbArc
 50
5.701205173113552
 51
174.2987948268898
  0
CIRCLE
  5
103A
330
1F
100
AcDbEntity
  8
4A
100
AcDbCircle
 10
3116.218212295585
 20
6209.969501201374
 30
0.0
 40
121.5
  0
LINE
  5
103B
330
1F
100
AcDbEntity
  8
7AN
100
AcDbLine
 10
2894.968212295586
 20
6209.969501201374
 30
0.0
 11
3337.468212295585
 21
6209.969501201374
 31
0.0
  0
INSERT
  5
103C
330
1F
100
AcDbEntity
  8
8
100
AcDbBlockReference
  2
*X6
 10
5540.766063571994
 20
5571.731305692228
 30
0.0
1001
GENIUS_GENODEF_13
1002
{
1000
HIER
1070
     0
1002
}
1002
{
1000
MANEDIT
1070
     0
1002
}
1002
{
1000
NOSEL
1070
     0
1002
}
1002
{
1000
BEHIND
1070
     0
1002
}
1002
{
1000
REACTOR
1002
}
1001
GENIUS_GENOBJ-N-HTC_13
1002
{
1000
OWNER
1000
GEN
1002
}
1001
GENIUS_GENHATCH_13
1002
{
1000
DATA
1040
45.0
1042
2.5
1000
_U
1070
     0
1011
2357.631707814885
1021
5916.374379030565
1031
0.0
1002
}
1002
{
1000
UCS
1010
0.0
1020
0.0
1030
0.0
1010
1.0
1020
0.0
1030
0.0
1010
0.0
1020
1.0
1030
0.0
1002
}
1001
ACAD
1000
HATCH
1002
{
1070
    19
1000
_U
1040
25.0
1040
0.7853981633974483
1070
     0
1002
}
  0
LINE
  5
103D
330
1F
100
AcDbEntity
  8
0
100
AcDbLine
 10
2333.94728715562
 20
6013.719501201301
 30
0.0
 11
2333.94728715562
 21
5710.201827211714
 31
0.0
  0
LINE
  5
103E
330
1F
100
AcDbEntity
  8
0
100
AcDbLine
 10
2368.94728715562
 20
6013.719501201301
 30
0.0
 11
2368.94728715562
 21
5712.500009861066
 31
0.0
  0
TEXT
  5
109E
330
1F
100
AcDbEntity
  8
1
100
AcDbText
 10
2618.975520960541
 20
5804.030010565724
 30
0.0
 40
50.0
  1
A部詳細図 S=1/2
100
AcDbText
  0
LINE
  5
10A8
330
1F
100
AcDbEntity
  8
4A
100
AcDbLine
 10
2418.94728715562
 20
6088.469501201302
 30
0.0
 11
2418.94728715562
 21
6331.469501201302
 31
0.0
  0
LINE
  5
10A9
330
1F
100
AcDbEntity
  8
0
100
AcDbLine
 10
2518.94728715562
 20
6048.719501201301
 30
0.0
 11
2518.94728715562
 21
6371.219501201302
 31
0.0
  0
LINE
  5
10AA
330
1F
100
AcDbEntity
  8
4A
100
AcDbLine
 10
2803.71995772668
 20
6088.469501201302
 30
0.0
 11
2418.94728715562
 21
6088.469501201302
 31
0.0
  0
LINE
  5
10AB
330
1F
100
AcDbEntity
  8
0
100
AcDbLine
 10
2393.94728715562
 20
6063.719501201301
 30
0.0
 11
2493.94728715562
 21
6063.719501201301
 31
0.0
  0
LINE
  5
10AC
330
1F
100
AcDbEntity
  8
0
100
AcDbLine
 10
2393.94728715562
 20
6038.719501201302
 30
0.0
 11
2508.94728715562
 21
6038.719501201302
 31
0.0
  0
ARC
  5
10AD
330
1F
100
AcDbEntity
  8
0
100
AcDbCircle
 10
2386.099054956439
 20
6012.137379840318
 30
0.0
 40
52.17576058622834
100
AcDbArc
 50
81.34878382162471
 51
178.2623583628969
1001
GENIUS_GENODEF_13
1002
{
1000
HIER
1070
     0
1002
}
1002
{
1000
MANEDIT
1070
     0
1002
}
1002
{
1000
NOSEL
1070
     0
1002
}
1002
{
1000
BEHIND
1070
     0
1002
}
1002
{
1000
REACTOR
1002
}
1001
GENIUS_GENOBJ-N-FIL_13
1002
{
1000
OWNER
1000
GEN
1002
}
  0
ARC
  5
10AE
330
1F
100
AcDbEntity
  8
0
100
AcDbCircle
 10
2393.94728715562
 20
6013.719501201301
 30
0.0
 40
25.0
100
AcDbArc
 50
90.0
 51
180.0
1001
GENIUS_GENODEF_13
1002
{
1000
HIER
1070
     0
1002
}
1002
{
1000
MANEDIT
1070
     0
1002
}
1002
{
1000
NOSEL
1070
     0
1002
}
1002
{
1000
BEHIND
1070
     0
1002
}
1002
{
1000
REACTOR
1002
}
1001
GENIUS_GENOBJ-N-FIL_13
1002
{
1000
OWNER
1000
GEN
1002
}
  0
LINE
  5
10AF
330
1F
100
AcDbEntity
  8
0
100
AcDbLine
 10
2503.94728715562
 20
6081.219501201302
 30
0.0
 11
2493.94728715562
 21
6063.719501201301
 31
0.0
1001
GENIUS_GENODEF_13
1002
{
1000
HIER
1070
     0
1002
}
1002
{
1000
MANEDIT
1070
     0
1002
}
1002
{
1000
NOSEL
1070
     0
1002
}
1002
{
1000
BEHIND
1070
     0
1002
}
1002
{
1000
REACTOR
1002
}
1001
GENIUS_GENOBJ-N-CHA_13
1002
{
1000
OWNER
1000
GEN
1002
}
1001
GENIUS_GENFIL_13
1070
     0
1040
5.0
1040
5.0
1040
0.0
1040
0.0
1002
{
1002
}
  0
ARC
  5
10B0
330
1F
100
AcDbEntity
  8
0
100
AcDbCircle
 10
2508.94728715562
 20
6048.719501201301
 30
0.0
 40
10.0
100
AcDbArc
 50
270.0
 51
0.0
1001
GENIUS_GENODEF_13
1002
{
1000
HIER
1070
     0
1002
}
1002
{
1000
MANEDIT
1070
     0
1002
}
1002
{
1000
NOSEL
1070
     0
1002
}
1002
{
1000
BEHIND
1070
     0
1002
}
1002
{
1000
REACTOR
1002
}
1001
GENIUS_GENOBJ-N-FIL_13
1002
{
1000
OWNER
1000
GEN
1002
}
  0
LINE
  5
10B1
330
1F
100
AcDbEntity
  8
0
100
AcDbLine
 10
2518.94728715562
 20
6081.219501201302
 30
0.0
 11
2503.94728715562
 21
6081.219501201302
 31
0.0
  0
LINE
  5
10B2
330
1F
100
AcDbEntity
  8
1
100
AcDbLine
 10
2993.803212295584
 20
6226.13450120136
 30
0.0
 11
2993.803212295585
 21
6193.804501201359
 31
0.0
  0
LINE
  5
10B3
330
1F
100
AcDbEntity
  8
4N
100
AcDbLine
 10
2993.803212295585
 20
6193.804501201359
 30
0.0
 11
2944.968212295586
 21
6193.804501201359
 31
0.0
  0
LINE
  5
10B4
330
1F
100
AcDbEntity
  8
4N
100
AcDbLine
 10
2993.803212295584
 20
6226.13450120136
 30
0.0
 11
2944.968212295586
 21
6226.134501201359
 31
0.0
  0
LINE
  5
10B5
330
1F
100
AcDbEntity
  8
1
100
AcDbLine
 10
2989.968212295586
 20
6189.96950120136
 30
0.0
 11
2948.803212295585
 21
6189.96950120136
 31
0.0
  0
LINE
  5
10B6
330
1F
100
AcDbEntity
  8
1
100
AcDbLine
 10
2948.803212295585
 20
6229.96950120136
 30
0.0
 11
2989.968212295586
 21
6229.96950120136
 31
0.0
  0
ARC
  5
10B7
330
1F
100
AcDbEntity
  8
3AN
100
AcDbCircle
 10
2966.256233142202
 20
6201.30700120136
 30
0.0
 40
4.702812507971416
100
AcDbArc
 50
337.8788794917085
 51
37.87887949172843
  0
ARC
  5
10B8
330
1F
100
AcDbEntity
  8
3AN
100
AcDbCircle
 10
2966.256233142202
 20
6218.632001201359
 30
0.0
 40
4.702812507971416
100
AcDbArc
 50
322.121120508284
 51
22.12112050827089
  0
ARC
  5
10B9
330
1F
100
AcDbEntity
  8
3AN
100
AcDbCircle
 10
2953.634045650176
 20
6209.969501201359
 30
0.0
 40
17.32499999999999
100
AcDbArc
 50
340.5287793655024
 51
19.47122063447431
  0
LINE
  5
10BA
330
1F
100
AcDbEntity
  8
3AN
100
AcDbLine
 10
2969.968212295586
 20
6198.41950120136
 30
0.0
 11
2976.636607904725
 21
6209.969501201359
 31
0.0
  0
LINE
  5
10BB
330
1F
100
AcDbEntity
  8
3AN
100
AcDbLine
 10
2969.968212295586
 20
6221.51950120136
 30
0.0
 11
2976.636607904725
 21
6209.969501201359
 31
0.0
  0
LINE
  5
10BC
330
1F
100
AcDbEntity
  8
3AN
100
AcDbLine
 10
2944.968212295586
 20
6204.194501201359
 30
0.0
 11
2969.968212295586
 21
6204.194501201359
 31
0.0
  0
LINE
  5
10BD
330
1F
100
AcDbEntity
  8
3AN
100
AcDbLine
 10
2944.968212295586
 20
6215.74450120136
 30
0.0
 11
2969.968212295586
 21
6215.74450120136
 31
0.0
  0
LINE
  5
10BE
330
1F
100
AcDbEntity
  8
3AN
100
AcDbLine
 10
2944.968212295586
 20
6198.419501201358
 30
0.0
 11
2969.968212295586
 21
6198.41950120136
 31
0.0
  0
LINE
  5
10BF
330
1F
100
AcDbEntity
  8
3AN
100
AcDbLine
 10
2944.968212295586
 20
6221.51950120136
 30
0.0
 11
2969.968212295586
 21
6221.51950120136
 31
0.0
  0
LINE
  5
10C0
330
1F
100
AcDbEntity
  8
1
100
AcDbLine
 10
2976.485782798813
 20
6229.96950120136
 30
0.0
 11
2976.485782798813
 21
6189.96950120136
 31
0.0
  0
LINE
  5
10C1
330
1F
100
AcDbEntity
  8
1
100
AcDbLine
 10
2972.650782798814
 20
6193.804501201359
 30
0.0
 11
2976.485782798813
 21
6189.96950120136
 31
0.0
  0
LINE
  5
10C2
330
1F
100
AcDbEntity
  8
1
100
AcDbLine
 10
2972.650782798814
 20
6226.134501201359
 30
0.0
 11
2976.485782798813
 21
6229.96950120136
 31
0.0
  0
LINE
  5
10C3
330
1F
100
AcDbEntity
  8
1
100
AcDbLine
 10
2972.650782798814
 20
6193.804501201359
 30
0.0
 11
2972.650782798814
 21
6226.134501201359
 31
0.0
  0
LINE
  5
10C4
330
1F
100
AcDbEntity
  8
1
100
AcDbLine
 10
2993.803212295585
 20
6193.804501201358
 30
0.0
 11
2989.968212295586
 21
6189.96950120136
 31
0.0
  0
LINE
  5
10C5
330
1F
100
AcDbEntity
  8
1
100
AcDbLine
 10
2989.968212295586
 20
6229.96950120136
 30
0.0
 11
2993.803212295584
 21
6226.134501201361
 31
0.0
  0
LINE
  5
10C6
330
1F
100
AcDbEntity
  8
1
100
AcDbLine
 10
2989.968212295586
 20
6229.96950120136
 30
0.0
 11
2989.968212295586
 21
6189.96950120136
 31
0.0
  0
LINE
  5
10C7
330
1F
100
AcDbEntity
  8
7
100
AcDbLine
 10
2818.706813574913
 20
6209.969501201301
 30
0.0
 11
2368.94728715562
 21
6209.969501201301
 31
0.0
  0
LINE
  5
10C8
330
1F
100
AcDbEntity
  8
4A
100
AcDbLine
 10
2418.94728715562
 20
6331.469501201302
 30
0.0
 11
2803.719957726716
 21
6331.469501201302
 31
0.0
  0
LINE
  5
10C9
330
1F
100
AcDbEntity
  8
0
100
AcDbLine
 10
2393.94728715562
 20
6356.219501201302
 30
0.0
 11
2493.94728715562
 21
6356.219501201302
 31
0.0
  0
LINE
  5
10CA
330
1F
100
AcDbEntity
  8
0
100
AcDbLine
 10
2393.94728715562
 20
6381.219501201302
 30
0.0
 11
2508.94728715562
 21
6381.219501201302
 31
0.0
  0
ARC
  5
10CB
330
1F
100
AcDbEntity
  8
0
100
AcDbCircle
 10
2386.099054956439
 20
6407.801622562285
 30
0.0
 40
52.17576058622836
100
AcDbArc
 50
181.7376416371031
 51
278.6512161783753
1001
GENIUS_GENODEF_13
1002
{
1000
HIER
1070
     0
1002
}
1002
{
1000
MANEDIT
1070
     0
1002
}
1002
{
1000
NOSEL
1070
     0
1002
}
1002
{
1000
BEHIND
1070
     0
1002
}
1002
{
1000
REACTOR
1002
}
1001
GENIUS_GENOBJ-N-FIL_13
1002
{
1000
OWNER
1000
GEN
1002
}
  0
ARC
  5
10CC
330
1F
100
AcDbEntity
  8
0
100
AcDbCircle
 10
2393.94728715562
 20
6406.219501201302
 30
0.0
 40
25.0
100
AcDbArc
 50
180.0
 51
270.0
1001
GENIUS_GENODEF_13
1002
{
1000
HIER
1070
     0
1002
}
1002
{
1000
MANEDIT
1070
     0
1002
}
1002
{
1000
NOSEL
1070
     0
1002
}
1002
{
1000
BEHIND
1070
     0
1002
}
1002
{
1000
REACTOR
1002
}
1001
GENIUS_GENOBJ-N-FIL_13
1002
{
1000
OWNER
1000
GEN
1002
}
  0
ARC
  5
10CD
330
1F
100
AcDbEntity
  8
0
100
AcDbCircle
 10
2508.94728715562
 20
6371.219501201302
 30
0.0
 40
10.0
100
AcDbArc
 50
0.0
 51
90.0
1001
GENIUS_GENODEF_13
1002
{
1000
HIER
1070
     0
1002
}
1002
{
1000
MANEDIT
1070
     0
1002
}
1002
{
1000
NOSEL
1070
     0
1002
}
1002
{
1000
BEHIND
1070
     0
1002
}
1002
{
1000
REACTOR
1002
}
1001
GENIUS_GENOBJ-N-FIL_13
1002
{
1000
OWNER
1000
GEN
1002
}
  0
LINE
  5
10CE
330
1F
100
AcDbEntity
  8
0
100
AcDbLine
 10
2493.94728715562
 20
6356.219501201302
 30
0.0
 11
2503.94728715562
 21
6338.719501201302
 31
0.0
1001
GENIUS_GENODEF_13
1002
{
1000
HIER
1070
     0
1002
}
1002
{
1000
MANEDIT
1070
     0
1002
}
1002
{
1000
NOSEL
1070
     0
1002
}
1002
{
1000
BEHIND
1070
     0
1002
}
1002
{
1000
REACTOR
1002
}
1001
GENIUS_GENOBJ-N-CHA_13
1002
{
1000
OWNER
1000
GEN
1002
}
1001
GENIUS_GENFIL_13
1070
     0
1040
5.0
1040
5.0
1040
0.0
1040
0.0
1002
{
1002
}
  0
LINE
  5
10CF
330
1F
100
AcDbEntity
  8
0
100
AcDbLine
 10
2518.94728715562
 20
6338.719501201302
 30
0.0
 11
2503.94728715562
 21
6338.719501201302
 31
0.0
  0
LINE
  5
10D0
330
1F
100
AcDbEntity
  8
7AN
100
AcDbLine
 10
3116.218212295585
 20
5988.719501201375
 30
0.0
 11
3116.218212295585
 21
6431.219501201375
 31
0.0
  0
POINT
  5
1364
330
1F
100
AcDbEntity
  8
0
 60
     1
100
AcDbPoint
 10
7433.118525440476
 20
1630.858416873461
 30
0.0
1001
GENIUS_GENODEF_13
1002
{
1000
HIER
1070
     1
1002
}
1002
{
1000
MANEDIT
1070
     1
1002
}
1002
{
1000
NOSEL
1070
     0
1002
}
1002
{
1000
BEHIND
1070
     0
1002
}
1002
{
1000
REACTOR
1002
}
1001
GENIUS_GENOBJ-N-ZOO_13
1002
{
1000
OWNER
1000
GEN
1002
}
1001
GENIUS_GENZOO_13
1000
TYP
1070
     1
1000
DBOR
1005
FE4
1000
DTXT
1005
0
1000
CBOR
1005
0
1000
CTXT
1005
0
1000
UCS
1010
0.0
1020
0.0
1030
0.0
1010
1.0
1020
0.0
1030
0.0
1010
0.0
1020
1.0
1030
0.0
1001
GENIUS_GENOENT_13
1002
{
1000
MYREF
1005
1364
1002
}
1002
{
1000
GRP
1005
0
1002
}
1001
GENIUS_GENOLIS_13
1002
{
1000
ENT
1005
FE4
1002
}
  0
POINT
  5
1368
330
1F
100
AcDbEntity
  8
0
 60
     1
100
AcDbPoint
 10
7433.118525440476
 20
1630.858416873461
 30
0.0
1001
GENIUS_GENODEF_13
1002
{
1000
HIER
1070
   100
1002
}
1002
{
1000
MANEDIT
1070
     0
1002
}
1002
{
1000
NOSEL
1070
     0
1002
}
1002
{
1000
BEHIND
1070
     0
1002
}
1002
{
1000
REACTOR
1002
}
1001
GENIUS_GENOBJ-N-LEADER_13
1002
{
1000
OWNER
1000
GEN
1002
}
1001
GENIUS_GENOENT_13
1002
{
1000
MYREF
1005
1368
1002
}
1002
{
1000
GRP
1005
0
1002
}
1001
GENIUS_GENOLIS_13
1002
{
1000
ENT
1005
100F
1005
FD3
1002
}
  0
LINE
  5
18A9
330
1F
100
AcDbEntity
  8
1
  6
Continuous
 62
     7
100
AcDbLine
 10
1641.660166901093
 20
6643.377140023964
 30
0.0
 11
2141.660166901095
 21
6643.377140023964
 31
0.0
  0
LINE
  5
18AA
330
1F
100
AcDbEntity
  8
1
  6
Continuous
 62
     7
100
AcDbLine
 10
1641.660166901093
 20
6543.377140023963
 30
0.0
 11
2141.660166901095
 21
6543.377140023963
 31
0.0
  0
LINE
  5
18AD
330
1F
100
AcDbEntity
  8
1
  6
Continuous
 62
     7
100
AcDbLine
 10
1971.660166901094
 20
7043.377140023963
 30
0.0
 11
3811.660166901094
 21
7043.377140023965
 31
0.0
  0
LINE
  5
18AE
330
1F
100
AcDbEntity
  8
AM_8
100
AcDbLine
 10
2098.353006740594
 20
6543.377140023963
 30
0.0
 11
2125.147925983694
 21
6643.377140023964
 31
0.0
  0
LINE
  5
18B6
330
1F
100
AcDbEntity
  8
1
  6
Continuous
 62
     7
100
AcDbLine
 10
1966.660166901094
 20
7660.377140023964
 30
0.0
 11
1966.660166901094
 21
7652.627140024425
 31
0.0
  0
LINE
  5
18B7
330
1F
100
AcDbEntity
  8
1
  6
Continuous
 62
     7
100
AcDbLine
 10
1816.660166901094
 20
7660.377140023964
 30
0.0
 11
1816.660166901094
 21
7093.377140023964
 31
0.0
  0
LINE
  5
18BA
330
1F
100
AcDbEntity
  8
1
  6
Continuous
 62
     7
100
AcDbLine
 10
1891.660166901093
 20
7663.377140023964
 30
0.0
 11
1891.660166901093
 21
7123.377140023965
 31
0.0
  0
LINE
  5
18BB
330
1F
100
AcDbEntity
  8
1
  6
Continuous
 62
     7
100
AcDbLine
 10
1956.612072184993
 20
7663.377140023964
 30
0.0
 11
1956.612072184993
 21
7123.377140023965
 31
0.0
  0
LINE
  5
18BC
330
1F
100
AcDbEntity
  8
1
  6
Continuous
 62
     7
100
AcDbLine
 10
1929.160166901094
 20
7663.377140023964
 30
0.0
 11
1929.160166901094
 21
7123.377140023965
 31
0.0
  0
LINE
  5
18BD
330
1F
100
AcDbEntity
  8
1
  6
Continuous
 62
     7
100
AcDbLine
 10
1854.160166901094
 20
7663.377140023964
 30
0.0
 11
1854.160166901094
 21
7123.377140023965
 31
0.0
  0
LINE
  5
18BE
330
1F
100
AcDbEntity
  8
1
  6
Continuous
 62
     7
100
AcDbLine
 10
1826.708261617294
 20
7663.377140023964
 30
0.0
 11
1826.708261617294
 21
7123.377140023965
 31
0.0
  0
LINE
  5
18BF
330
1F
100
AcDbEntity
  8
1
  6
Continuous
 62
     7
100
AcDbLine
 10
1641.660166901093
 20
6643.377140023964
 30
0.0
 11
1641.660166901093
 21
6543.377140023963
 31
0.0
  0
LINE
  5
18C1
330
1F
100
AcDbEntity
  8
AM_8
100
AcDbLine
 10
1648.353006740594
 20
6543.377140023963
 30
0.0
 11
1675.147925983694
 21
6643.377140023964
 31
0.0
  0
LINE
  5
18C2
330
1F
100
AcDbEntity
  8
AM_8
100
AcDbLine
 10
1748.353006740594
 20
6543.377140023963
 30
0.0
 11
1775.147925983693
 21
6643.377140023964
 31
0.0
  0
LINE
  5
18C3
330
1F
100
AcDbEntity
  8
AM_8
100
AcDbLine
 10
1798.353006740594
 20
6543.377140023963
 30
0.0
 11
1825.147925983694
 21
6643.377140023964
 31
0.0
  0
LINE
  5
18C4
330
1F
100
AcDbEntity
  8
AM_8
100
AcDbLine
 10
1848.353006740594
 20
6543.377140023963
 30
0.0
 11
1875.147925983694
 21
6643.377140023964
 31
0.0
  0
LINE
  5
18C5
330
1F
100
AcDbEntity
  8
AM_8
100
AcDbLine
 10
1898.353006740594
 20
6543.377140023963
 30
0.0
 11
1925.147925983694
 21
6643.377140023964
 31
0.0
  0
LINE
  5
18C6
330
1F
100
AcDbEntity
  8
AM_8
100
AcDbLine
 10
1948.353006740594
 20
6543.377140023963
 30
0.0
 11
1975.147925983694
 21
6643.377140023964
 31
0.0
  0
LINE
  5
18C7
330
1F
100
AcDbEntity
  8
AM_8
100
AcDbLine
 10
1998.353006740593
 20
6543.377140023963
 30
0.0
 11
2025.147925983694
 21
6643.377140023964
 31
0.0
  0
LINE
  5
18C8
330
1F
100
AcDbEntity
  8
AM_8
100
AcDbLine
 10
2048.353006740594
 20
6543.377140023963
 30
0.0
 11
2075.147925983694
 21
6643.377140023964
 31
0.0
  0
LINE
  5
18C9
330
1F
100
AcDbEntity
  8
AM_8
100
AcDbLine
 10
1698.353006740594
 20
6543.377140023963
 30
0.0
 11
1725.147925983694
 21
6643.377140023964
 31
0.0
  0
LINE
  5
18CC
330
1F
100
AcDbEntity
  8
AM_8
100
AcDbLine
 10
1856.391482513594
 20
6573.377140023964
 30
0.0
 11
1864.429958286494
 21
6543.377140023963
 31
0.0
  0
LINE
  5
18CD
330
1F
100
AcDbEntity
  8
AM_8
100
AcDbLine
 10
1656.391482513594
 20
6573.377140023964
 30
0.0
 11
1664.429958286494
 21
6543.377140023963
 31
0.0
  0
LINE
  5
18CE
330
1F
100
AcDbEntity
  8
AM_8
100
AcDbLine
 10
1706.391482513594
 20
6573.377140023964
 30
0.0
 11
1714.429958286494
 21
6543.377140023963
 31
0.0
  0
LINE
  5
18CF
330
1F
100
AcDbEntity
  8
AM_8
100
AcDbLine
 10
1756.391482513594
 20
6573.377140023964
 30
0.0
 11
1764.429958286494
 21
6543.377140023963
 31
0.0
  0
LINE
  5
18D0
330
1F
100
AcDbEntity
  8
AM_8
100
AcDbLine
 10
1806.391482513594
 20
6573.377140023964
 30
0.0
 11
1814.429958286494
 21
6543.377140023963
 31
0.0
  0
LINE
  5
18D1
330
1F
100
AcDbEntity
  8
AM_8
100
AcDbLine
 10
1906.391482513594
 20
6573.377140023964
 30
0.0
 11
1914.429958286494
 21
6543.377140023963
 31
0.0
  0
LINE
  5
18D2
330
1F
100
AcDbEntity
  8
AM_8
100
AcDbLine
 10
1956.391482513594
 20
6573.377140023964
 30
0.0
 11
1964.429958286494
 21
6543.377140023963
 31
0.0
  0
LINE
  5
18D3
330
1F
100
AcDbEntity
  8
AM_8
100
AcDbLine
 10
2006.391482513595
 20
6573.377140023964
 30
0.0
 11
2014.429958286494
 21
6543.377140023963
 31
0.0
  0
LINE
  5
18D4
330
1F
100
AcDbEntity
  8
AM_8
100
AcDbLine
 10
2056.391482513594
 20
6573.377140023964
 30
0.0
 11
2064.429958286494
 21
6543.377140023963
 31
0.0
  0
LINE
  5
18D5
330
1F
100
AcDbEntity
  8
1
  6
Continuous
 62
     7
100
AcDbLine
 10
2091.660166901094
 20
6643.377140023964
 30
0.0
 11
2091.660166901094
 21
7043.377140023963
 31
0.0
  0
LINE
  5
18D6
330
1F
100
AcDbEntity
  8
1
  6
Continuous
 62
     7
100
AcDbLine
 10
1691.660166901093
 20
7043.377140023963
 30
0.0
 11
1691.660166901093
 21
6643.377140023964
 31
0.0
  0
LINE
  5
18DE
330
1F
100
AcDbEntity
  8
1
  6
Continuous
 62
     7
100
AcDbLine
 10
1971.660166901094
 20
6743.377140023963
 30
0.0
 11
1971.660166901094
 21
7093.377140023964
 31
0.0
  0
LINE
  5
18DF
330
1F
100
AcDbEntity
  8
1
  6
Continuous
 62
     7
100
AcDbLine
 10
1811.660166901094
 20
7093.377140023964
 30
0.0
 11
1811.660166901094
 21
6743.377140023963
 31
0.0
  0
LINE
  5
18E0
330
1F
100
AcDbEntity
  8
AM_8
100
AcDbLine
 10
1859.070974437894
 20
6643.377140023964
 30
0.0
 11
1867.109450210794
 21
6613.377140023963
 31
0.0
  0
LINE
  5
18E4
330
1F
100
AcDbEntity
  8
1
  6
Continuous
 62
     7
100
AcDbLine
 10
1811.660166901094
 20
6743.377140023963
 30
0.0
 11
1971.660166901094
 21
6743.377140023963
 31
0.0
  0
LINE
  5
18E8
330
1F
100
AcDbEntity
  8
AM_8
100
AcDbLine
 10
1659.070974437893
 20
6643.377140023964
 30
0.0
 11
1667.109450210794
 21
6613.377140023963
 31
0.0
  0
LINE
  5
18E9
330
1F
100
AcDbEntity
  8
AM_8
100
AcDbLine
 10
1709.070974437894
 20
6643.377140023964
 30
0.0
 11
1717.109450210794
 21
6613.377140023963
 31
0.0
  0
LINE
  5
18EA
330
1F
100
AcDbEntity
  8
AM_8
100
AcDbLine
 10
1759.070974437894
 20
6643.377140023964
 30
0.0
 11
1767.109450210794
 21
6613.377140023963
 31
0.0
  0
LINE
  5
18EB
330
1F
100
AcDbEntity
  8
AM_8
100
AcDbLine
 10
1809.070974437894
 20
6643.377140023964
 30
0.0
 11
1817.109450210794
 21
6613.377140023963
 31
0.0
  0
LINE
  5
18EF
330
1F
100
AcDbEntity
  8
AM_8
100
AcDbLine
 10
1909.070974437893
 20
6643.377140023964
 30
0.0
 11
1917.109450210794
 21
6613.377140023963
 31
0.0
  0
LINE
  5
18F0
330
1F
100
AcDbEntity
  8
AM_8
100
AcDbLine
 10
1959.070974437894
 20
6643.377140023964
 30
0.0
 11
1967.109450210793
 21
6613.377140023963
 31
0.0
  0
LINE
  5
18F1
330
1F
100
AcDbEntity
  8
AM_8
100
AcDbLine
 10
2009.070974437894
 20
6643.377140023964
 30
0.0
 11
2017.109450210794
 21
6613.377140023963
 31
0.0
  0
LINE
  5
18F2
330
1F
100
AcDbEntity
  8
AM_8
100
AcDbLine
 10
2059.070974437894
 20
6643.377140023964
 30
0.0
 11
2067.109450210793
 21
6613.377140023963
 31
0.0
  0
LINE
  5
18F4
330
1F
100
AcDbEntity
  8
1
  6
Continuous
 62
     7
100
AcDbLine
 10
1816.660166901094
 20
7123.377140023965
 30
0.0
 11
1966.660166901094
 21
7123.377140023965
 31
0.0
  0
LINE
  5
18F5
330
1F
100
AcDbEntity
  8
1
  6
Continuous
 62
     7
100
AcDbLine
 10
1811.660166901094
 20
7093.377140023964
 30
0.0
 11
1971.660166901094
 21
7093.377140023964
 31
0.0
  0
LINE
  5
18F6
330
1F
100
AcDbEntity
  8
1
  6
Continuous
 62
     7
100
AcDbLine
 10
1811.660166901094
 20
7043.377140023963
 30
0.0
 11
1636.266366901094
 21
7043.377140023963
 31
0.0
  0
ARC
  5
1901
330
1F
100
AcDbEntity
  8
1
  6
Continuous
 62
     7
100
AcDbCircle
 10
1891.660166901093
 20
7768.377140023964
 30
0.0
 40
75.0
100
AcDbArc
 50
0.0
 51
180.0
  0
LINE
  5
1905
330
1F
100
AcDbEntity
  8
1
  6
Continuous
 62
     7
100
AcDbLine
 10
1963.660166901094
 20
7733.377140023964
 30
0.0
 11
1819.660166901094
 21
7733.377140023964
 31
0.0
  0
LINE
  5
1906
330
1F
100
AcDbEntity
  8
1
  6
Continuous
 62
     7
100
AcDbLine
 10
1963.660166901094
 20
7723.377140023965
 30
0.0
 11
1819.660166901094
 21
7723.377140023965
 31
0.0
  0
LINE
  5
1907
330
1F
100
AcDbEntity
  8
1
  6
Continuous
 62
     7
100
AcDbLine
 10
1963.660166901094
 20
7703.377140023964
 30
0.0
 11
1819.660166901094
 21
7703.377140023964
 31
0.0
  0
LINE
  5
1908
330
1F
100
AcDbEntity
  8
1
  6
Continuous
 62
     7
100
AcDbLine
 10
1963.660166901094
 20
7693.377140023963
 30
0.0
 11
1819.660166901094
 21
7693.377140023963
 31
0.0
  0
LINE
  5
1909
330
1F
100
AcDbEntity
  8
1
  6
Continuous
 62
     7
100
AcDbLine
 10
1963.660166901094
 20
7673.377140023965
 30
0.0
 11
1819.660166901094
 21
7673.377140023965
 31
0.0
  0
LINE
  5
190A
330
1F
100
AcDbEntity
  8
1
  6
Continuous
 62
     7
100
AcDbLine
 10
1963.660166901094
 20
7663.377140023964
 30
0.0
 11
1819.660166901094
 21
7663.377140023964
 31
0.0
  0
ARC
  5
190D
330
1F
100
AcDbEntity
  8
1
  6
Continuous
 62
     7
100
AcDbCircle
 10
1820.660166901094
 20
7666.377140023964
 30
0.0
 40
3.0
100
AcDbArc
 50
270.0
 51
0.0
  0
ARC
  5
192F
330
1F
100
AcDbEntity
  8
1
  6
Continuous
 62
     7
100
AcDbCircle
 10
1819.660166901094
 20
7660.377140023964
 30
0.0
 40
3.0
100
AcDbArc
 50
90.0
 51
180.0
  0
LINE
  5
1930
330
1F
100
AcDbEntity
  8
1
  6
Continuous
 62
     7
100
AcDbLine
 10
1816.660166901094
 20
7736.377140023964
 30
0.0
 11
1816.660166901094
 21
7768.377140023964
 31
0.0
  0
ARC
  5
1931
330
1F
100
AcDbEntity
  8
1
  6
Continuous
 62
     7
100
AcDbCircle
 10
1820.660166901094
 20
7700.377140023964
 30
0.0
 40
3.0
100
AcDbArc
 50
0.0
 51
90.0
  0
LINE
  5
1932
330
1F
100
AcDbEntity
  8
1
  6
Continuous
 62
     7
100
AcDbLine
 10
1823.660166901094
 20
7666.377140023964
 30
0.0
 11
1823.660166901094
 21
7670.377140023965
 31
0.0
  0
ARC
  5
1933
330
1F
100
AcDbEntity
  8
1
  6
Continuous
 62
     7
100
AcDbCircle
 10
1820.660166901094
 20
7670.377140023965
 30
0.0
 40
3.0
100
AcDbArc
 50
0.0
 51
90.0
  0
ARC
  5
1934
330
1F
100
AcDbEntity
  8
1
  6
Continuous
 62
     7
100
AcDbCircle
 10
1820.660166901094
 20
7696.377140023964
 30
0.0
 40
3.0
100
AcDbArc
 50
270.0
 51
0.0
  0
LINE
  5
1935
330
1F
100
AcDbEntity
  8
1
  6
Continuous
 62
     7
100
AcDbLine
 10
1823.660166901094
 20
7696.377140023964
 30
0.0
 11
1823.660166901094
 21
7700.377140023964
 31
0.0
  0
ARC
  5
1936
330
1F
100
AcDbEntity
  8
1
  6
Continuous
 62
     7
100
AcDbCircle
 10
1819.660166901094
 20
7676.377140023963
 30
0.0
 40
3.0
100
AcDbArc
 50
180.0
 51
270.0
  0
LINE
  5
1937
330
1F
100
AcDbEntity
  8
1
  6
Continuous
 62
     7
100
AcDbLine
 10
1816.660166901094
 20
7676.377140023963
 30
0.0
 11
1816.660166901094
 21
7690.377140023963
 31
0.0
  0
ARC
  5
1938
330
1F
100
AcDbEntity
  8
1
  6
Continuous
 62
     7
100
AcDbCircle
 10
1819.660166901094
 20
7690.377140023963
 30
0.0
 40
3.0
100
AcDbArc
 50
90.0
 51
180.0
  0
ARC
  5
1939
330
1F
100
AcDbEntity
  8
1
  6
Continuous
 62
     7
100
AcDbCircle
 10
1820.660166901094
 20
7726.377140023963
 30
0.0
 40
3.0
100
AcDbArc
 50
270.0
 51
0.0
  0
LINE
  5
193A
330
1F
100
AcDbEntity
  8
1
  6
Continuous
 62
     7
100
AcDbLine
 10
1823.660166901094
 20
7726.377140023963
 30
0.0
 11
1823.660166901094
 21
7730.377140023964
 31
0.0
  0
ARC
  5
193B
330
1F
100
AcDbEntity
  8
1
  6
Continuous
 62
     7
100
AcDbCircle
 10
1820.660166901094
 20
7730.377140023964
 30
0.0
 40
3.0
100
AcDbArc
 50
0.0
 51
90.0
  0
ARC
  5
193C
330
1F
100
AcDbEntity
  8
1
  6
Continuous
 62
     7
100
AcDbCircle
 10
1819.660166901094
 20
7706.377140023964
 30
0.0
 40
3.0
100
AcDbArc
 50
180.0
 51
270.0
  0
LINE
  5
193D
330
1F
100
AcDbEntity
  8
1
  6
Continuous
 62
     7
100
AcDbLine
 10
1816.660166901094
 20
7706.377140023964
 30
0.0
 11
1816.660166901094
 21
7720.377140023964
 31
0.0
  0
ARC
  5
193E
330
1F
100
AcDbEntity
  8
1
  6
Continuous
 62
     7
100
AcDbCircle
 10
1819.660166901094
 20
7720.377140023964
 30
0.0
 40
3.0
100
AcDbArc
 50
90.0
 51
180.0
  0
ARC
  5
193F
330
1F
100
AcDbEntity
  8
1
  6
Continuous
 62
     7
100
AcDbCircle
 10
1819.660166901094
 20
7736.377140023964
 30
0.0
 40
3.0
100
AcDbArc
 50
180.0
 51
270.0
  0
ARC
  5
1940
330
1F
100
AcDbEntity
  8
1
  6
Continuous
 62
     7
100
AcDbCircle
 10
1962.660166901094
 20
7666.293219807063
 30
0.0
 40
3.0
100
AcDbArc
 50
180.0
 51
279.5940682269055
  0
ARC
  5
195E
330
1F
100
AcDbEntity
  8
1
  6
Continuous
 62
     7
100
AcDbCircle
 10
1963.660166901094
 20
7660.377140023964
 30
0.0
 40
3.0
100
AcDbArc
 50
0.0
 51
99.59406822690551
  0
LINE
  5
1963
330
1F
100
AcDbEntity
  8
1
  6
Continuous
 62
     7
100
AcDbLine
 10
1966.660166901094
 20
7736.377140023964
 30
0.0
 11
1966.660166901094
 21
7768.377140023964
 31
0.0
  0
ARC
  5
1964
330
1F
100
AcDbEntity
  8
1
  6
Continuous
 62
     7
100
AcDbCircle
 10
1962.660166901094
 20
7700.377140023964
 30
0.0
 40
3.0
100
AcDbArc
 50
90.0
 51
180.0
  0
LINE
  5
1965
330
1F
100
AcDbEntity
  8
1
  6
Continuous
 62
     7
100
AcDbLine
 10
1959.660166901094
 20
7700.377140023964
 30
0.0
 11
1959.660166901094
 21
7696.377140023964
 31
0.0
  0
ARC
  5
1966
330
1F
100
AcDbEntity
  8
1
  6
Continuous
 62
     7
100
AcDbCircle
 10
1962.660166901094
 20
7696.377140023964
 30
0.0
 40
3.0
100
AcDbArc
 50
180.0
 51
270.0
  0
ARC
  5
1967
330
1F
100
AcDbEntity
  8
1
  6
Continuous
 62
     7
100
AcDbCircle
 10
1962.660166901094
 20
7670.377140023965
 30
0.0
 40
3.0
100
AcDbArc
 50
90.0
 51
180.0
  0
LINE
  5
1968
330
1F
100
AcDbEntity
  8
1
  6
Continuous
 62
     7
100
AcDbLine
 10
1959.660166901094
 20
7670.377140023965
 30
0.0
 11
1959.660166901094
 21
7666.293219807063
 31
0.0
  0
ARC
  5
1969
330
1F
100
AcDbEntity
  8
1
  6
Continuous
 62
     7
100
AcDbCircle
 10
1963.660166901094
 20
7690.377140023963
 30
0.0
 40
3.0
100
AcDbArc
 50
0.0
 51
90.0
  0
LINE
  5
196A
330
1F
100
AcDbEntity
  8
1
  6
Continuous
 62
     7
100
AcDbLine
 10
1966.660166901094
 20
7690.377140023963
 30
0.0
 11
1966.660166901094
 21
7676.377140023963
 31
0.0
  0
ARC
  5
196B
330
1F
100
AcDbEntity
  8
1
  6
Continuous
 62
     7
100
AcDbCircle
 10
1963.660166901094
 20
7676.377140023963
 30
0.0
 40
3.0
100
AcDbArc
 50
270.0
 51
0.0
  0
ARC
  5
196C
330
1F
100
AcDbEntity
  8
1
  6
Continuous
 62
     7
100
AcDbCircle
 10
1962.660166901094
 20
7730.377140023964
 30
0.0
 40
3.0
100
AcDbArc
 50
90.0
 51
180.0
  0
LINE
  5
196D
330
1F
100
AcDbEntity
  8
1
  6
Continuous
 62
     7
100
AcDbLine
 10
1959.660166901094
 20
7730.377140023964
 30
0.0
 11
1959.660166901094
 21
7726.377140023963
 31
0.0
  0
ARC
  5
196E
330
1F
100
AcDbEntity
  8
1
  6
Continuous
 62
     7
100
AcDbCircle
 10
1962.660166901094
 20
7726.377140023963
 30
0.0
 40
3.0
100
AcDbArc
 50
180.0
 51
270.0
  0
ARC
  5
196F
330
1F
100
AcDbEntity
  8
1
  6
Continuous
 62
     7
100
AcDbCircle
 10
1963.660166901094
 20
7736.377140023964
 30
0.0
 40
3.0
100
AcDbArc
 50
270.0
 51
0.0
  0
ARC
  5
1970
330
1F
100
AcDbEntity
  8
1
  6
Continuous
 62
     7
100
AcDbCircle
 10
1963.660166901094
 20
7720.377140023964
 30
0.0
 40
3.0
100
AcDbArc
 50
0.0
 51
90.0
  0
LINE
  5
1971
330
1F
100
AcDbEntity
  8
1
  6
Continuous
 62
     7
100
AcDbLine
 10
1966.660166901094
 20
7720.377140023964
 30
0.0
 11
1966.660166901094
 21
7706.377140023964
 31
0.0
  0
ARC
  5
1972
330
1F
100
AcDbEntity
  8
1
  6
Continuous
 62
     7
100
AcDbCircle
 10
1963.660166901094
 20
7706.377140023964
 30
0.0
 40
3.0
100
AcDbArc
 50
270.0
 51
0.0
  0
CIRCLE
  5
1974
330
1F
100
AcDbEntity
  8
1
  6
Continuous
 62
     7
100
AcDbCircle
 10
1891.660166901093
 20
8191.613530126707
 30
0.0
 40
80.0
  0
CIRCLE
  5
1977
330
1F
100
AcDbEntity
  8
1
  6
Continuous
 62
     7
100
AcDbCircle
 10
1891.660166901093
 20
8191.613530126707
 30
0.0
 40
83.0
  0
CIRCLE
  5
1978
330
1F
100
AcDbEntity
  8
1
  6
Continuous
 62
     7
100
AcDbCircle
 10
1891.660166901093
 20
8191.613530126707
 30
0.0
 40
75.0
  0
LINE
  5
198C
330
1F
100
AcDbEntity
  8
AM_8
100
AcDbLine
 10
2106.391482513593
 20
6573.377140023964
 30
0.0
 11
2114.429958286494
 21
6543.377140023963
 31
0.0
  0
LINE
  5
19AD
330
1F
100
AcDbEntity
  8
AM_8
100
AcDbLine
 10
2109.070974437894
 20
6643.377140023964
 30
0.0
 11
2117.109450210794
 21
6613.377140023963
 31
0.0
  0
LINE
  5
1C2A
330
1F
100
AcDbEntity
  8
AM_7
100
AcDbLine
 10
1891.660166901093
 20
7871.317140023963
 30
0.0
 11
1891.660166901093
 21
6715.437140023964
 31
0.0
1001
GENIUS_GENOBJ-N-CEN_13
1002
{
1000
OWNER
1000
GEN
1002
}
1001
GENIUS_GENODEF_13
1002
{
1000
HIER
1070
     0
1002
}
1002
{
1000
MANEDIT
1070
     0
1002
}
1002
{
1000
NOSEL
1070
     0
1002
}
1002
{
1000
BEHIND
1070
     0
1002
}
1002
{
1000
OTHER
1070
     0
1002
}
1002
{
1000
REACTOR
1002
}
  0
LINE
  5
1C7C
330
1F
100
AcDbEntity
  8
1
  6
Continuous
 62
     7
100
AcDbLine
 10
2141.660166901095
 20
6643.377140023964
 30
0.0
 11
2141.660166901095
 21
6543.377140023963
 31
0.0
  0
LINE
  5
1C9C
330
1F
100
AcDbEntity
  8
1
100
AcDbLine
 10
1996.660166901092
 20
7589.077140024425
 30
0.0
 11
3786.660166901094
 21
7589.077140024425
 31
0.0
  0
LINE
  5
1C9D
330
1F
100
AcDbEntity
  8
1
100
AcDbLine
 10
3786.660166901094
 20
7637.677140024425
 30
0.0
 11
1996.660166901092
 21
7637.677140024425
 31
0.0
  0
LINE
  5
1C9E
330
1F
100
AcDbEntity
  8
0
100
AcDbLine
 10
1996.660166901092
 20
7581.127140024425
 30
0.0
 11
1996.660166901092
 21
7645.627140024426
 31
0.0
  0
LINE
  5
1C9F
330
1F
100
AcDbEntity
  8
0
100
AcDbLine
 10
1971.660166901094
 20
7579.127140024425
 30
0.0
 11
1994.660166901094
 21
7579.127140024425
 31
0.0
  0
ARC
  5
1CA0
330
1F
100
AcDbEntity
  8
0
100
AcDbCircle
 10
1994.660166901094
 20
7581.127140024425
 30
0.0
 40
2.0
100
AcDbArc
 50
270.0
 51
0.0
1001
GENIUS_GENODEF_13
1002
{
1000
HIER
1070
     0
1002
}
1002
{
1000
MANEDIT
1070
     0
1002
}
1002
{
1000
NOSEL
1070
     0
1002
}
1002
{
1000
BEHIND
1070
     0
1002
}
1002
{
1000
REACTOR
1002
}
1001
GENIUS_GENOBJ-N-FIL_13
1002
{
1000
OWNER
1000
GEN
1002
}
  0
LINE
  5
1CA1
330
1F
100
AcDbEntity
  8
0
100
AcDbLine
 10
1971.660166901094
 20
7647.627140024425
 30
0.0
 11
1994.660166901094
 21
7647.627140024425
 31
0.0
  0
ARC
  5
1CA2
330
1F
100
AcDbEntity
  8
0
100
AcDbCircle
 10
1994.660166901094
 20
7645.627140024426
 30
0.0
 40
2.0
100
AcDbArc
 50
0.0
 51
90.0
1001
GENIUS_GENODEF_13
1002
{
1000
HIER
1070
     0
1002
}
1002
{
1000
MANEDIT
1070
     0
1002
}
1002
{
1000
NOSEL
1070
     0
1002
}
1002
{
1000
BEHIND
1070
     0
1002
}
1002
{
1000
REACTOR
1002
}
1001
GENIUS_GENOBJ-N-FIL_13
1002
{
1000
OWNER
1000
GEN
1002
}
  0
ARC
  5
1CA3
330
1F
100
AcDbEntity
  8
0
100
AcDbCircle
 10
2020.00850421589
 20
7613.377140024425
 30
0.0
 40
63.39643203093796
100
AcDbArc
 50
147.2992576130245
 51
212.7007423869755
  0
ARC
  5
1CA4
330
1F
100
AcDbEntity
  8
0
100
AcDbCircle
 10
1971.660166901094
 20
7574.127140024426
 30
0.0
 40
5.0
100
AcDbArc
 50
90.0
 51
180.0
1001
GENIUS_GENODEF_13
1002
{
1000
HIER
1070
     0
1002
}
1002
{
1000
MANEDIT
1070
     0
1002
}
1002
{
1000
NOSEL
1070
     0
1002
}
1002
{
1000
BEHIND
1070
     0
1002
}
1002
{
1000
REACTOR
1002
}
1001
GENIUS_GENOBJ-N-FIL_13
1002
{
1000
OWNER
1000
GEN
1002
}
  0
ARC
  5
1CA5
330
1F
100
AcDbEntity
  8
0
100
AcDbCircle
 10
1971.660166901094
 20
7652.627140024425
 30
0.0
 40
5.0
100
AcDbArc
 50
180.0
 51
270.0
1001
GENIUS_GENODEF_13
1002
{
1000
HIER
1070
     0
1002
}
1002
{
1000
MANEDIT
1070
     0
1002
}
1002
{
1000
NOSEL
1070
     0
1002
}
1002
{
1000
BEHIND
1070
     0
1002
}
1002
{
1000
REACTOR
1002
}
1001
GENIUS_GENOBJ-N-FIL_13
1002
{
1000
OWNER
1000
GEN
1002
}
  0
LINE
  5
1CCF
330
1F
100
AcDbEntity
  8
1
  6
Continuous
 62
     7
100
AcDbLine
 10
1966.660166901094
 20
7574.127140024426
 30
0.0
 11
1966.660166901094
 21
7452.627140024425
 31
0.0
  0
ARC
  5
1CD0
330
1F
100
AcDbEntity
  8
0
100
AcDbCircle
 10
2020.00850421589
 20
7413.377140024426
 30
0.0
 40
63.39643203093796
100
AcDbArc
 50
147.2992576130245
 51
212.7007423869755
  0
LINE
  5
1CD1
330
1F
100
AcDbEntity
  8
0
100
AcDbLine
 10
1996.660166901092
 20
7381.127140024425
 30
0.0
 11
1996.660166901092
 21
7445.627140024426
 31
0.0
  0
ARC
  5
1CD2
330
1F
100
AcDbEntity
  8
0
100
AcDbCircle
 10
1971.660166901094
 20
7374.127140024426
 30
0.0
 40
5.0
100
AcDbArc
 50
90.0
 51
180.0
1001
GENIUS_GENODEF_13
1002
{
1000
HIER
1070
     0
1002
}
1002
{
1000
MANEDIT
1070
     0
1002
}
1002
{
1000
NOSEL
1070
     0
1002
}
1002
{
1000
BEHIND
1070
     0
1002
}
1002
{
1000
REACTOR
1002
}
1001
GENIUS_GENOBJ-N-FIL_13
1002
{
1000
OWNER
1000
GEN
1002
}
  0
ARC
  5
1CD3
330
1F
100
AcDbEntity
  8
0
100
AcDbCircle
 10
1994.660166901094
 20
7381.127140024425
 30
0.0
 40
2.0
100
AcDbArc
 50
270.0
 51
0.0
1001
GENIUS_GENODEF_13
1002
{
1000
HIER
1070
     0
1002
}
1002
{
1000
MANEDIT
1070
     0
1002
}
1002
{
1000
NOSEL
1070
     0
1002
}
1002
{
1000
BEHIND
1070
     0
1002
}
1002
{
1000
REACTOR
1002
}
1001
GENIUS_GENOBJ-N-FIL_13
1002
{
1000
OWNER
1000
GEN
1002
}
  0
LINE
  5
1CD4
330
1F
100
AcDbEntity
  8
0
100
AcDbLine
 10
1971.660166901094
 20
7379.127140024426
 30
0.0
 11
1994.660166901094
 21
7379.127140024426
 31
0.0
  0
ARC
  5
1CD5
330
1F
100
AcDbEntity
  8
0
100
AcDbCircle
 10
1971.660166901094
 20
7452.627140024425
 30
0.0
 40
5.0
100
AcDbArc
 50
180.0
 51
270.0
1001
GENIUS_GENODEF_13
1002
{
1000
HIER
1070
     0
1002
}
1002
{
1000
MANEDIT
1070
     0
1002
}
1002
{
1000
NOSEL
1070
     0
1002
}
1002
{
1000
BEHIND
1070
     0
1002
}
1002
{
1000
REACTOR
1002
}
1001
GENIUS_GENOBJ-N-FIL_13
1002
{
1000
OWNER
1000
GEN
1002
}
  0
ARC
  5
1CD6
330
1F
100
AcDbEntity
  8
0
100
AcDbCircle
 10
1994.660166901094
 20
7445.627140024426
 30
0.0
 40
2.0
100
AcDbArc
 50
0.0
 51
90.0
1001
GENIUS_GENODEF_13
1002
{
1000
HIER
1070
     0
1002
}
1002
{
1000
MANEDIT
1070
     0
1002
}
1002
{
1000
NOSEL
1070
     0
1002
}
1002
{
1000
BEHIND
1070
     0
1002
}
1002
{
1000
REACTOR
1002
}
1001
GENIUS_GENOBJ-N-FIL_13
1002
{
1000
OWNER
1000
GEN
1002
}
  0
LINE
  5
1CD7
330
1F
100
AcDbEntity
  8
0
100
AcDbLine
 10
1971.660166901094
 20
7447.627140024426
 30
0.0
 11
1994.660166901094
 21
7447.627140024426
 31
0.0
  0
LINE
  5
1CD8
330
1F
100
AcDbEntity
  8
1
100
AcDbLine
 10
3786.660166901094
 20
7437.677140024425
 30
0.0
 11
1996.660166901092
 21
7437.677140024425
 31
0.0
  0
LINE
  5
1CD9
330
1F
100
AcDbEntity
  8
1
100
AcDbLine
 10
1996.660166901092
 20
7389.077140024425
 30
0.0
 11
3786.660166901094
 21
7389.077140024425
 31
0.0
  0
LINE
  5
1CDC
330
1F
100
AcDbEntity
  8
1
  6
Continuous
 62
     7
100
AcDbLine
 10
1966.660166901094
 20
7374.127140024426
 30
0.0
 11
1966.660166901094
 21
7093.377140023964
 31
0.0
  0
INSERT
  5
1CF0
330
1F
100
AcDbEntity
  8
0
370
     0
100
AcDbBlockReference
  2
IGS_A3
 10
957.0674519828571
 20
5583.229976402643
 30
0.0
 41
10.0
 42
10.0
 43
10.0
1001
GENIUS_GENOREF_13
1005
1CFA
1001
GENIUS_GENOBJ-N-SDF_13
1002
{
1000
OWNER
1000
GEN
1002
}
1001
GENIUS_GENODEF_13
1002
{
1000
HIER
1070
     0
1002
}
1002
{
1000
MANEDIT
1070
     0
1002
}
1002
{
1000
NOSEL
1070
     0
1002
}
1002
{
1000
BEHIND
1070
     0
1002
}
1002
{
1000
OTHER
1070
     0
1002
}
1002
{
1000
REACTOR
1002
}
1001
GENIUS_GENSCREG_15
1040
10.0
1040
1.0
1011
957.0674519828571
1021
5583.229976402643
1031
0.0
1011
5157.067451982857
1021
8553.229976402644
1031
0.0
1070
     3
  0
INSERT
  5
1CF1
330
1F
100
AcDbEntity
  8
0
370
     0
100
AcDbBlockReference
 66
     1
  2
IGS2
 10
5057.067451982857
 20
5683.229976402643
 30
0.0
 41
10.0
 42
10.0
 43
10.0
1001
GENIUS_GENOREF_13
1005
1CFA
  0
ATTRIB
  5
1CF3
330
1CF1
100
AcDbEntity
  8
RAHM3
100
AcDbText
 10
3584.471584851002
 20
6002.702866384504
 30
0.0
 40
40.0
  1
1:10
100
AcDbAttribute
  2
GEN-TITLE-SCA
 70
     0
  0
ATTRIB
  5
1CF4
330
1CF1
100
AcDbEntity
  8
RAHM3
100
AcDbText
 10
4326.167451982857
 20
5980.629976402642
 30
0.0
 40
50.0
  1
ガードパイプ
100
AcDbAttribute
  2
ＴＩＴＬＥ
 70
     0
  0
ATTRIB
  5
1CF5
330
1CF1
100
AcDbEntity
  8
RAHM3
100
AcDbText
 10
4341.438670424452
 20
5901.273807673781
 30
0.0
 40
30.0
  1
IFG-6
100
AcDbAttribute
  2
ｃｏｄｅ
 70
     0
  0
ATTRIB
  5
1CF6
330
1CF1
100
AcDbEntity
  8
RAHM3
100
AcDbText
 10
4349.619387043225
 20
5831.273807673709
 30
0.0
 40
30.0
  1

100
AcDbAttribute
  2
件名
 70
     0
  0
ATTRIB
  5
1CF7
330
1CF1
100
AcDbEntity
  8
RAHM3
100
AcDbText
 10
4326.167451982857
 20
5700.62997640257
 30
0.0
 40
50.0
  1
Ｔ２４Ａ０６００９
100
AcDbAttribute
  2
Ｎｏ．
 70
     0
  0
ATTRIB
  5
1CF8
330
1CF1
100
AcDbEntity
  8
RAHM3
100
AcDbText
 10
4052.567451982857
 20
5857.300869613908
 30
0.0
 40
40.0
  1

100
AcDbAttribute
  2
ＤＲ
 70
     0
  0
ATTRIB
  5
1CF9
330
1CF1
100
AcDbEntity
  8
RAHM3
100
AcDbText
 10
4019.886598944128
 20
5810.929976402643
 30
0.0
 40
30.0
  1

 41
0.8000000000000001
100
AcDbAttribute
  2
ｄａｔｅ
 70
     0
  0
SEQEND
  5
1CF2
330
1CF1
100
AcDbEntity
  8
0
370
     0
  0
POINT
  5
1CFA
330
1F
100
AcDbEntity
  8
0
 60
     1
100
AcDbPoint
 10
0.0
 20
0.0
 30
0.0
1001
GENIUS_GENOLIS_13
1002
{
1000
ENT
1005
1CF1
1005
1CF0
1002
}
1001
GENIUS_GENOENT_13
1002
{
1000
MYREF
1005
1CFA
1002
}
1002
{
1000
GRP
1005
0
1002
}
1001
GENIUS_GENOBJ-N-TIT_13
1002
{
1000
OWNER
1000
GEN
1002
}
1001
GENIUS_GENODEF_13
1002
{
1000
HIER
1070
     1
1002
}
1002
{
1000
MANEDIT
1070
     0
1002
}
1002
{
1000
NOSEL
1070
     0
1002
}
1002
{
1000
BEHIND
1070
     0
1002
}
1002
{
1000
OTHER
1070
     0
1002
}
1002
{
1000
REACTOR
1002
}
1001
GENIUS_GENTITLE_13
1002
{
1000
BORDER
1000
C:\WINNT\Profiles\Administrator\Application Data\Autodesk\AutoCAD\Recent\format\igs_a3
1002
}
1002
{
1000
TITLE
1000
C:\WINNT\Profiles\Administrator\Application Data\Autodesk\AutoCAD\Recent\format\IGS2
1002
}
1002
{
1000
SCALE
1000
1:10
1002
}
1002
{
1000
TITLESTD
1000
IGS
1002
}
1002
{
1000
HRA
1005
1CF0
1002
}
1002
{
1000
HTIT
1005
1CF1
1002
}
1002
{
1000
UNCHG
1002
{
1000
GEN-TITLE-SIZ
1000
GEN-TITLE-SCA
1002
}
1002
}
1002
{
1000
GENIUSID
1005
1CFA
1002
}
  0
DIMENSION
  5
1D02
330
1F
100
AcDbEntity
  8
AM_5
100
AcDbDimension
  2
*D7
 10
2298.94728715562
 20
6331.469501201302
 30
0.0
 11
2266.447287155619
 21
6209.969501201303
 31
0.0
 70
    32
  1
%%c48.6
 71
     5
 42
243.0
  3
IGS
100
AcDbAlignedDimension
 13
2418.94728715562
 23
6088.469501201302
 33
0.0
 14
2418.94728715562
 24
6331.469501201302
 34
0.0
 50
90.0
100
AcDbRotatedDimension
  0
DIMENSION
  5
1D4B
330
1F
100
AcDbEntity
  8
AM_5
100
AcDbDimension
  2
*D8
 10
2198.947287155618
 20
6063.719501201301
 30
0.0
 11
2166.447287155618
 21
6209.969501201303
 31
0.0
 70
    32
  1
%%c58.5
 71
     5
 42
292.5
  3
IGS
100
AcDbAlignedDimension
 13
2393.94728715562
 23
6356.219501201302
 33
0.0
 14
2393.94728715562
 24
6063.719501201301
 34
0.0
 50
90.0
100
AcDbRotatedDimension
  0
DIMENSION
  5
1D85
330
1F
100
AcDbEntity
  8
AM_5
100
AcDbDimension
  2
*D9
 10
2368.94728715562
 20
6526.219501201302
 30
0.0
 11
2443.94728715562
 21
6558.719501201301
 31
0.0
 70
    32
  1
30
 71
     5
 42
150.0
  3
IGS
100
AcDbAlignedDimension
 13
2518.94728715562
 23
6371.219501201302
 33
0.0
 14
2368.94728715562
 24
6406.219501201302
 34
0.0
100
AcDbRotatedDimension
  0
DIMENSION
  5
1DB6
330
1F
100
AcDbEntity
  8
AM_5
100
AcDbDimension
  2
*D10
 10
2638.947287155619
 20
6081.219501201302
 30
0.0
 11
2606.447287155618
 21
6209.969501201303
 31
0.0
 70
    32
  1
%%c51.5
 71
     5
 42
257.5
  3
IGS
100
AcDbAlignedDimension
 13
2518.94728715562
 23
6338.719501201302
 33
0.0
 14
2518.94728715562
 24
6081.219501201302
 34
0.0
 50
90.0
100
AcDbRotatedDimension
  0
DIMENSION
  5
1DEC
330
1F
100
AcDbEntity
  8
AM_5
100
AcDbDimension
  2
*D11
 10
2738.947287155618
 20
6038.719501201302
 30
0.0
 11
2706.447287155617
 21
6209.969501201303
 31
0.0
 70
    32
  1
%%c68.5
 71
     5
 42
342.5
  3
IGS
100
AcDbAlignedDimension
 13
2508.94728715562
 23
6381.219501201302
 33
0.0
 14
2508.94728715562
 24
6038.719501201302
 34
0.0
 50
90.0
100
AcDbRotatedDimension
  0
ARC
  5
1E1E
330
1F
100
AcDbEntity
  8
1
100
AcDbCircle
 10
3116.218212295585
 20
6209.96950120136
 30
0.0
 40
171.25
100
AcDbArc
 50
185.7012051731108
 51
354.2987948268924
  0
ARC
  5
1E1F
330
1F
100
AcDbEntity
  8
1
100
AcDbCircle
 10
3116.218212295585
 20
6209.969501201374
 30
0.0
 40
128.75
100
AcDbArc
 50
188.9365044018226
 51
351.0634955981804
  0
ARC
  5
1E20
330
1F
100
AcDbEntity
  8
3
100
AcDbCircle
 10
3116.218212295585
 20
6209.96950120136
 30
0.0
 40
146.25
100
AcDbArc
 50
187.8599496920408
 51
352.1400503079623
  0
LINE
  5
1E21
330
1F
100
AcDbEntity
  8
1
100
AcDbLine
 10
3242.468212295584
 20
6229.969501201367
 30
0.0
 11
3242.468212295586
 21
6189.969501201367
 31
0.0
  0
LINE
  5
1E22
330
1F
100
AcDbEntity
  8
1
100
AcDbLine
 10
3287.468212295586
 20
6193.804501201368
 30
0.0
 11
3287.468212295585
 21
6226.134501201368
 31
0.0
  0
LINE
  5
1E23
330
1F
100
AcDbEntity
  8
1
100
AcDbLine
 10
3283.633212295585
 20
6229.969501201369
 30
0.0
 11
3283.633212295587
 21
6189.969501201369
 31
0.0
  0
LINE
  5
1E24
330
1F
100
AcDbEntity
  8
1
100
AcDbLine
 10
3238.633212295586
 20
6226.134501201366
 30
0.0
 11
3238.633212295586
 21
6193.804501201366
 31
0.0
  0
ARC
  5
1E25
330
1F
100
AcDbEntity
  8
3AN
100
AcDbCircle
 10
3266.180191448968
 20
6218.632001201366
 30
0.0
 40
4.702812507971416
100
AcDbArc
 50
157.8788794917319
 51
217.8788794917188
  0
LINE
  5
1E26
330
1F
100
AcDbEntity
  8
3AN
100
AcDbLine
 10
3262.468212295585
 20
6221.519501201367
 30
0.0
 11
3255.799816686446
 21
6209.969501201366
 31
0.0
  0
LINE
  5
1E27
330
1F
100
AcDbEntity
  8
1
100
AcDbLine
 10
3238.633212295586
 20
6193.804501201364
 30
0.0
 11
3242.468212295586
 21
6189.969501201367
 31
0.0
  0
LINE
  5
1E28
330
1F
100
AcDbEntity
  8
1
100
AcDbLine
 10
3287.468212295586
 20
6193.804501201368
 30
0.0
 11
3283.633212295587
 21
6189.969501201369
 31
0.0
  0
LINE
  5
1E29
330
1F
100
AcDbEntity
  8
1
100
AcDbLine
 10
3242.468212295586
 20
6189.969501201367
 30
0.0
 11
3283.633212295587
 21
6189.969501201369
 31
0.0
  0
LINE
  5
1E2A
330
1F
100
AcDbEntity
  8
4N
100
AcDbLine
 10
3238.633212295586
 20
6193.804501201366
 30
0.0
 11
3287.468212295586
 21
6193.804501201368
 31
0.0
  0
LINE
  5
1E2B
330
1F
100
AcDbEntity
  8
3AN
100
AcDbLine
 10
3287.468212295586
 20
6204.194501201367
 30
0.0
 11
3262.468212295586
 21
6204.194501201367
 31
0.0
  0
LINE
  5
1E2C
330
1F
100
AcDbEntity
  8
3AN
100
AcDbLine
 10
3287.468212295585
 20
6215.744501201369
 30
0.0
 11
3262.468212295585
 21
6215.744501201367
 31
0.0
  0
LINE
  5
1E2D
330
1F
100
AcDbEntity
  8
3AN
100
AcDbLine
 10
3287.468212295586
 20
6198.419501201367
 30
0.0
 11
3262.468212295586
 21
6198.419501201367
 31
0.0
  0
ARC
  5
1E2E
330
1F
100
AcDbEntity
  8
3AN
100
AcDbCircle
 10
3266.180191448969
 20
6201.307001201367
 30
0.0
 40
4.702812507971416
100
AcDbArc
 50
142.1211205082743
 51
202.1211205082943
  0
ARC
  5
1E2F
330
1F
100
AcDbEntity
  8
3AN
100
AcDbCircle
 10
3278.802378940995
 20
6209.969501201367
 30
0.0
 40
17.32499999999999
100
AcDbArc
 50
160.5287793655285
 51
199.4712206345004
  0
LINE
  5
1E30
330
1F
100
AcDbEntity
  8
3AN
100
AcDbLine
 10
3262.468212295586
 20
6198.419501201367
 30
0.0
 11
3255.799816686446
 21
6209.969501201366
 31
0.0
  0
LINE
  5
1E31
330
1F
100
AcDbEntity
  8
1
100
AcDbLine
 10
3242.468212295584
 20
6229.969501201367
 30
0.0
 11
3238.633212295586
 21
6226.134501201367
 31
0.0
  0
LINE
  5
1E32
330
1F
100
AcDbEntity
  8
1
100
AcDbLine
 10
3287.468212295585
 20
6226.134501201368
 30
0.0
 11
3283.633212295585
 21
6229.969501201369
 31
0.0
  0
LINE
  5
1E33
330
1F
100
AcDbEntity
  8
1
100
AcDbLine
 10
3283.633212295585
 20
6229.969501201369
 30
0.0
 11
3242.468212295584
 21
6229.969501201367
 31
0.0
  0
LINE
  5
1E34
330
1F
100
AcDbEntity
  8
4N
100
AcDbLine
 10
3238.633212295586
 20
6226.134501201366
 30
0.0
 11
3287.468212295585
 21
6226.134501201368
 31
0.0
  0
LINE
  5
1E35
330
1F
100
AcDbEntity
  8
3AN
100
AcDbLine
 10
3287.468212295585
 20
6221.519501201369
 30
0.0
 11
3262.468212295585
 21
6221.519501201367
 31
0.0
  0
LINE
  5
1E63
330
1F
100
AcDbEntity
  8
1
  6
Continuous
 62
     7
100
AcDbLine
 10
3966.660166901095
 20
7374.127140024426
 30
0.0
 11
3966.660166901095
 21
7093.377140023964
 31
0.0
  0
LINE
  5
1E64
330
1F
100
AcDbEntity
  8
1
  6
Continuous
 62
     7
100
AcDbLine
 10
3826.708261617294
 20
7663.377140023964
 30
0.0
 11
3826.708261617294
 21
7123.377140023965
 31
0.0
  0
LINE
  5
1E65
330
1F
100
AcDbEntity
  8
1
  6
Continuous
 62
     7
100
AcDbLine
 10
3854.160166901094
 20
7663.377140023964
 30
0.0
 11
3854.160166901094
 21
7123.377140023965
 31
0.0
  0
LINE
  5
1E66
330
1F
100
AcDbEntity
  8
1
  6
Continuous
 62
     7
100
AcDbLine
 10
3929.160166901095
 20
7663.377140023964
 30
0.0
 11
3929.160166901095
 21
7123.377140023965
 31
0.0
  0
LINE
  5
1E67
330
1F
100
AcDbEntity
  8
1
  6
Continuous
 62
     7
100
AcDbLine
 10
3956.612072184994
 20
7663.377140023964
 30
0.0
 11
3956.612072184994
 21
7123.377140023965
 31
0.0
  0
LINE
  5
1E68
330
1F
100
AcDbEntity
  8
1
  6
Continuous
 62
     7
100
AcDbLine
 10
3891.660166901095
 20
7663.377140023964
 30
0.0
 11
3891.660166901095
 21
7123.377140023965
 31
0.0
  0
LINE
  5
1E69
330
1F
100
AcDbEntity
  8
1
  6
Continuous
 62
     7
100
AcDbLine
 10
3816.660166901094
 20
7660.377140023964
 30
0.0
 11
3816.660166901094
 21
7652.627140024425
 31
0.0
  0
LINE
  5
1E6A
330
1F
100
AcDbEntity
  8
1
  6
Continuous
 62
     7
100
AcDbLine
 10
3811.660166901094
 20
7093.377140023964
 30
0.0
 11
3971.660166901094
 21
7093.377140023964
 31
0.0
  0
LINE
  5
1E6B
330
1F
100
AcDbEntity
  8
1
  6
Continuous
 62
     7
100
AcDbLine
 10
3816.660166901094
 20
7123.377140023965
 30
0.0
 11
3966.660166901095
 21
7123.377140023965
 31
0.0
  0
LINE
  5
1E6C
330
1F
100
AcDbEntity
  8
1
  6
Continuous
 62
     7
100
AcDbLine
 10
3966.660166901095
 20
7660.377140023964
 30
0.0
 11
3966.660166901095
 21
7652.627140024425
 31
0.0
  0
ARC
  5
1E6D
330
1F
100
AcDbEntity
  8
0
100
AcDbCircle
 10
3971.660166901094
 20
7452.627140024425
 30
0.0
 40
5.0
100
AcDbArc
 50
180.0
 51
270.0
1001
GENIUS_GENODEF_13
1002
{
1000
HIER
1070
     0
1002
}
1002
{
1000
MANEDIT
1070
     0
1002
}
1002
{
1000
NOSEL
1070
     0
1002
}
1002
{
1000
BEHIND
1070
     0
1002
}
1002
{
1000
REACTOR
1002
}
1001
GENIUS_GENOBJ-N-FIL_13
1002
{
1000
OWNER
1000
GEN
1002
}
  0
LINE
  5
1E6E
330
1F
100
AcDbEntity
  8
0
100
AcDbLine
 10
3971.660166901094
 20
7447.627140024426
 30
0.0
 11
3994.660166901095
 21
7447.627140024426
 31
0.0
  0
LINE
  5
1E6F
330
1F
100
AcDbEntity
  8
0
100
AcDbLine
 10
3971.660166901094
 20
7379.127140024426
 30
0.0
 11
3994.660166901095
 21
7379.127140024426
 31
0.0
  0
ARC
  5
1E70
330
1F
100
AcDbEntity
  8
0
100
AcDbCircle
 10
3971.660166901094
 20
7374.127140024426
 30
0.0
 40
5.0
100
AcDbArc
 50
90.0
 51
180.0
1001
GENIUS_GENODEF_13
1002
{
1000
HIER
1070
     0
1002
}
1002
{
1000
MANEDIT
1070
     0
1002
}
1002
{
1000
NOSEL
1070
     0
1002
}
1002
{
1000
BEHIND
1070
     0
1002
}
1002
{
1000
REACTOR
1002
}
1001
GENIUS_GENOBJ-N-FIL_13
1002
{
1000
OWNER
1000
GEN
1002
}
  0
ARC
  5
1E71
330
1F
100
AcDbEntity
  8
0
100
AcDbCircle
 10
4020.00850421589
 20
7413.377140024426
 30
0.0
 40
63.39643203093796
100
AcDbArc
 50
147.2992576130245
 51
212.7007423869755
  0
ARC
  5
1E72
330
1F
100
AcDbEntity
  8
0
100
AcDbCircle
 10
3994.660166901095
 20
7445.627140024426
 30
0.0
 40
2.0
100
AcDbArc
 50
0.0
 51
90.0
1001
GENIUS_GENODEF_13
1002
{
1000
HIER
1070
     0
1002
}
1002
{
1000
MANEDIT
1070
     0
1002
}
1002
{
1000
NOSEL
1070
     0
1002
}
1002
{
1000
BEHIND
1070
     0
1002
}
1002
{
1000
REACTOR
1002
}
1001
GENIUS_GENOBJ-N-FIL_13
1002
{
1000
OWNER
1000
GEN
1002
}
  0
ARC
  5
1E73
330
1F
100
AcDbEntity
  8
0
100
AcDbCircle
 10
3994.660166901095
 20
7381.127140024425
 30
0.0
 40
2.0
100
AcDbArc
 50
270.0
 51
0.0
1001
GENIUS_GENODEF_13
1002
{
1000
HIER
1070
     0
1002
}
1002
{
1000
MANEDIT
1070
     0
1002
}
1002
{
1000
NOSEL
1070
     0
1002
}
1002
{
1000
BEHIND
1070
     0
1002
}
1002
{
1000
REACTOR
1002
}
1001
GENIUS_GENOBJ-N-FIL_13
1002
{
1000
OWNER
1000
GEN
1002
}
  0
LINE
  5
1E74
330
1F
100
AcDbEntity
  8
0
100
AcDbLine
 10
3996.660166901093
 20
7381.127140024425
 30
0.0
 11
3996.660166901093
 21
7445.627140024426
 31
0.0
  0
LINE
  5
1E75
330
1F
100
AcDbEntity
  8
0
100
AcDbLine
 10
3971.660166901094
 20
7647.627140024425
 30
0.0
 11
3994.660166901095
 21
7647.627140024425
 31
0.0
  0
LINE
  5
1E76
330
1F
100
AcDbEntity
  8
0
100
AcDbLine
 10
3971.660166901094
 20
7579.127140024425
 30
0.0
 11
3994.660166901095
 21
7579.127140024425
 31
0.0
  0
LINE
  5
1E77
330
1F
100
AcDbEntity
  8
1
  6
Continuous
 62
     7
100
AcDbLine
 10
3966.660166901095
 20
7574.127140024426
 30
0.0
 11
3966.660166901095
 21
7452.627140024425
 31
0.0
  0
ARC
  5
1E78
330
1F
100
AcDbEntity
  8
0
100
AcDbCircle
 10
3971.660166901094
 20
7652.627140024425
 30
0.0
 40
5.0
100
AcDbArc
 50
180.0
 51
270.0
1001
GENIUS_GENODEF_13
1002
{
1000
HIER
1070
     0
1002
}
1002
{
1000
MANEDIT
1070
     0
1002
}
1002
{
1000
NOSEL
1070
     0
1002
}
1002
{
1000
BEHIND
1070
     0
1002
}
1002
{
1000
REACTOR
1002
}
1001
GENIUS_GENOBJ-N-FIL_13
1002
{
1000
OWNER
1000
GEN
1002
}
  0
ARC
  5
1E79
330
1F
100
AcDbEntity
  8
0
100
AcDbCircle
 10
3971.660166901094
 20
7574.127140024426
 30
0.0
 40
5.0
100
AcDbArc
 50
90.0
 51
180.0
1001
GENIUS_GENODEF_13
1002
{
1000
HIER
1070
     0
1002
}
1002
{
1000
MANEDIT
1070
     0
1002
}
1002
{
1000
NOSEL
1070
     0
1002
}
1002
{
1000
BEHIND
1070
     0
1002
}
1002
{
1000
REACTOR
1002
}
1001
GENIUS_GENOBJ-N-FIL_13
1002
{
1000
OWNER
1000
GEN
1002
}
  0
ARC
  5
1E7A
330
1F
100
AcDbEntity
  8
0
100
AcDbCircle
 10
4020.00850421589
 20
7613.377140024425
 30
0.0
 40
63.39643203093796
100
AcDbArc
 50
147.2992576130245
 51
212.7007423869755
  0
ARC
  5
1E7B
330
1F
100
AcDbEntity
  8
0
100
AcDbCircle
 10
3994.660166901095
 20
7645.627140024426
 30
0.0
 40
2.0
100
AcDbArc
 50
0.0
 51
90.0
1001
GENIUS_GENODEF_13
1002
{
1000
HIER
1070
     0
1002
}
1002
{
1000
MANEDIT
1070
     0
1002
}
1002
{
1000
NOSEL
1070
     0
1002
}
1002
{
1000
BEHIND
1070
     0
1002
}
1002
{
1000
REACTOR
1002
}
1001
GENIUS_GENOBJ-N-FIL_13
1002
{
1000
OWNER
1000
GEN
1002
}
  0
ARC
  5
1E7C
330
1F
100
AcDbEntity
  8
0
100
AcDbCircle
 10
3994.660166901095
 20
7581.127140024425
 30
0.0
 40
2.0
100
AcDbArc
 50
270.0
 51
0.0
1001
GENIUS_GENODEF_13
1002
{
1000
HIER
1070
     0
1002
}
1002
{
1000
MANEDIT
1070
     0
1002
}
1002
{
1000
NOSEL
1070
     0
1002
}
1002
{
1000
BEHIND
1070
     0
1002
}
1002
{
1000
REACTOR
1002
}
1001
GENIUS_GENOBJ-N-FIL_13
1002
{
1000
OWNER
1000
GEN
1002
}
  0
LINE
  5
1E7D
330
1F
100
AcDbEntity
  8
0
100
AcDbLine
 10
3996.660166901093
 20
7581.127140024425
 30
0.0
 11
3996.660166901093
 21
7645.627140024426
 31
0.0
  0
LINE
  5
1E7E
330
1F
100
AcDbEntity
  8
1
  6
Continuous
 62
     7
100
AcDbLine
 10
3966.660166901095
 20
7736.377140023964
 30
0.0
 11
3966.660166901095
 21
7768.377140023964
 31
0.0
  0
LINE
  5
1E7F
330
1F
100
AcDbEntity
  8
1
  6
Continuous
 62
     7
100
AcDbLine
 10
3816.660166901094
 20
7736.377140023964
 30
0.0
 11
3816.660166901094
 21
7768.377140023964
 31
0.0
  0
LINE
  5
1E80
330
1F
100
AcDbEntity
  8
1
  6
Continuous
 62
     7
100
AcDbLine
 10
3963.660166901095
 20
7673.377140023965
 30
0.0
 11
3819.660166901094
 21
7673.377140023965
 31
0.0
  0
LINE
  5
1E81
330
1F
100
AcDbEntity
  8
1
  6
Continuous
 62
     7
100
AcDbLine
 10
3963.660166901095
 20
7693.377140023963
 30
0.0
 11
3819.660166901094
 21
7693.377140023963
 31
0.0
  0
LINE
  5
1E82
330
1F
100
AcDbEntity
  8
1
  6
Continuous
 62
     7
100
AcDbLine
 10
3963.660166901095
 20
7703.377140023964
 30
0.0
 11
3819.660166901094
 21
7703.377140023964
 31
0.0
  0
LINE
  5
1E83
330
1F
100
AcDbEntity
  8
1
  6
Continuous
 62
     7
100
AcDbLine
 10
3963.660166901095
 20
7723.377140023965
 30
0.0
 11
3819.660166901094
 21
7723.377140023965
 31
0.0
  0
LINE
  5
1E84
330
1F
100
AcDbEntity
  8
1
  6
Continuous
 62
     7
100
AcDbLine
 10
3963.660166901095
 20
7733.377140023964
 30
0.0
 11
3819.660166901094
 21
7733.377140023964
 31
0.0
  0
LINE
  5
1E85
330
1F
100
AcDbEntity
  8
1
  6
Continuous
 62
     7
100
AcDbLine
 10
3963.660166901095
 20
7663.377140023964
 30
0.0
 11
3819.660166901094
 21
7663.377140023964
 31
0.0
  0
ARC
  5
1E86
330
1F
100
AcDbEntity
  8
1
  6
Continuous
 62
     7
100
AcDbCircle
 10
3819.660166901094
 20
7720.377140023964
 30
0.0
 40
3.0
100
AcDbArc
 50
90.0
 51
180.0
  0
LINE
  5
1E87
330
1F
100
AcDbEntity
  8
1
  6
Continuous
 62
     7
100
AcDbLine
 10
3816.660166901094
 20
7706.377140023964
 30
0.0
 11
3816.660166901094
 21
7720.377140023964
 31
0.0
  0
ARC
  5
1E88
330
1F
100
AcDbEntity
  8
1
  6
Continuous
 62
     7
100
AcDbCircle
 10
3819.660166901094
 20
7706.377140023964
 30
0.0
 40
3.0
100
AcDbArc
 50
180.0
 51
270.0
  0
LINE
  5
1E89
330
1F
100
AcDbEntity
  8
1
  6
Continuous
 62
     7
100
AcDbLine
 10
3823.660166901095
 20
7726.377140023963
 30
0.0
 11
3823.660166901095
 21
7730.377140023964
 31
0.0
  0
ARC
  5
1E8A
330
1F
100
AcDbEntity
  8
1
  6
Continuous
 62
     7
100
AcDbCircle
 10
3820.660166901094
 20
7726.377140023963
 30
0.0
 40
3.0
100
AcDbArc
 50
270.0
 51
0.0
  0
ARC
  5
1E8B
330
1F
100
AcDbEntity
  8
1
  6
Continuous
 62
     7
100
AcDbCircle
 10
3819.660166901094
 20
7690.377140023963
 30
0.0
 40
3.0
100
AcDbArc
 50
90.0
 51
180.0
  0
LINE
  5
1E8C
330
1F
100
AcDbEntity
  8
1
  6
Continuous
 62
     7
100
AcDbLine
 10
3816.660166901094
 20
7676.377140023963
 30
0.0
 11
3816.660166901094
 21
7690.377140023963
 31
0.0
  0
LINE
  5
1E8D
330
1F
100
AcDbEntity
  8
1
  6
Continuous
 62
     7
100
AcDbLine
 10
3823.660166901095
 20
7696.377140023964
 30
0.0
 11
3823.660166901095
 21
7700.377140023964
 31
0.0
  0
ARC
  5
1E8E
330
1F
100
AcDbEntity
  8
1
  6
Continuous
 62
     7
100
AcDbCircle
 10
3820.660166901094
 20
7696.377140023964
 30
0.0
 40
3.0
100
AcDbArc
 50
270.0
 51
0.0
  0
ARC
  5
1E8F
330
1F
100
AcDbEntity
  8
1
  6
Continuous
 62
     7
100
AcDbCircle
 10
3820.660166901094
 20
7700.377140023964
 30
0.0
 40
3.0
100
AcDbArc
 50
0.0
 51
90.0
  0
ARC
  5
1E90
330
1F
100
AcDbEntity
  8
1
  6
Continuous
 62
     7
100
AcDbCircle
 10
3819.660166901094
 20
7736.377140023964
 30
0.0
 40
3.0
100
AcDbArc
 50
180.0
 51
270.0
  0
ARC
  5
1E91
330
1F
100
AcDbEntity
  8
1
  6
Continuous
 62
     7
100
AcDbCircle
 10
3820.660166901094
 20
7730.377140023964
 30
0.0
 40
3.0
100
AcDbArc
 50
0.0
 51
90.0
  0
LINE
  5
1E92
330
1F
100
AcDbEntity
  8
1
  6
Continuous
 62
     7
100
AcDbLine
 10
3823.660166901095
 20
7666.377140023964
 30
0.0
 11
3823.660166901095
 21
7670.377140023965
 31
0.0
  0
ARC
  5
1E93
330
1F
100
AcDbEntity
  8
1
  6
Continuous
 62
     7
100
AcDbCircle
 10
3819.660166901094
 20
7660.377140023964
 30
0.0
 40
3.0
100
AcDbArc
 50
90.0
 51
180.0
  0
ARC
  5
1E94
330
1F
100
AcDbEntity
  8
1
  6
Continuous
 62
     7
100
AcDbCircle
 10
3820.660166901094
 20
7666.377140023964
 30
0.0
 40
3.0
100
AcDbArc
 50
270.0
 51
0.0
  0
ARC
  5
1E95
330
1F
100
AcDbEntity
  8
1
  6
Continuous
 62
     7
100
AcDbCircle
 10
3819.660166901094
 20
7676.377140023963
 30
0.0
 40
3.0
100
AcDbArc
 50
180.0
 51
270.0
  0
ARC
  5
1E96
330
1F
100
AcDbEntity
  8
1
  6
Continuous
 62
     7
100
AcDbCircle
 10
3820.660166901094
 20
7670.377140023965
 30
0.0
 40
3.0
100
AcDbArc
 50
0.0
 51
90.0
  0
LINE
  5
1E97
330
1F
100
AcDbEntity
  8
1
  6
Continuous
 62
     7
100
AcDbLine
 10
3966.660166901095
 20
7720.377140023964
 30
0.0
 11
3966.660166901095
 21
7706.377140023964
 31
0.0
  0
LINE
  5
1E98
330
1F
100
AcDbEntity
  8
1
  6
Continuous
 62
     7
100
AcDbLine
 10
3966.660166901095
 20
7690.377140023963
 30
0.0
 11
3966.660166901095
 21
7676.377140023963
 31
0.0
  0
ARC
  5
1E99
330
1F
100
AcDbEntity
  8
1
  6
Continuous
 62
     7
100
AcDbCircle
 10
3962.660166901095
 20
7726.377140023963
 30
0.0
 40
3.0
100
AcDbArc
 50
180.0
 51
270.0
  0
LINE
  5
1E9A
330
1F
100
AcDbEntity
  8
1
  6
Continuous
 62
     7
100
AcDbLine
 10
3959.660166901095
 20
7730.377140023964
 30
0.0
 11
3959.660166901095
 21
7726.377140023963
 31
0.0
  0
ARC
  5
1E9B
330
1F
100
AcDbEntity
  8
1
  6
Continuous
 62
     7
100
AcDbCircle
 10
3962.660166901095
 20
7696.377140023964
 30
0.0
 40
3.0
100
AcDbArc
 50
180.0
 51
270.0
  0
LINE
  5
1E9C
330
1F
100
AcDbEntity
  8
1
  6
Continuous
 62
     7
100
AcDbLine
 10
3959.660166901095
 20
7700.377140023964
 30
0.0
 11
3959.660166901095
 21
7696.377140023964
 31
0.0
  0
ARC
  5
1E9D
330
1F
100
AcDbEntity
  8
1
  6
Continuous
 62
     7
100
AcDbCircle
 10
3962.660166901095
 20
7700.377140023964
 30
0.0
 40
3.0
100
AcDbArc
 50
90.0
 51
180.0
  0
ARC
  5
1E9E
330
1F
100
AcDbEntity
  8
1
  6
Continuous
 62
     7
100
AcDbCircle
 10
3962.660166901095
 20
7730.377140023964
 30
0.0
 40
3.0
100
AcDbArc
 50
90.0
 51
180.0
  0
LINE
  5
1E9F
330
1F
100
AcDbEntity
  8
1
  6
Continuous
 62
     7
100
AcDbLine
 10
3959.660166901095
 20
7670.377140023965
 30
0.0
 11
3959.660166901095
 21
7666.293219807063
 31
0.0
  0
ARC
  5
1EA0
330
1F
100
AcDbEntity
  8
1
  6
Continuous
 62
     7
100
AcDbCircle
 10
3962.660166901095
 20
7666.293219807063
 30
0.0
 40
3.0
100
AcDbArc
 50
180.0
 51
279.5940682269055
  0
ARC
  5
1EA1
330
1F
100
AcDbEntity
  8
1
  6
Continuous
 62
     7
100
AcDbCircle
 10
3962.660166901095
 20
7670.377140023965
 30
0.0
 40
3.0
100
AcDbArc
 50
90.0
 51
180.0
  0
ARC
  5
1EA2
330
1F
100
AcDbEntity
  8
1
  6
Continuous
 62
     7
100
AcDbCircle
 10
3963.660166901095
 20
7706.377140023964
 30
0.0
 40
3.0
100
AcDbArc
 50
270.0
 51
0.0
  0
ARC
  5
1EA3
330
1F
100
AcDbEntity
  8
1
  6
Continuous
 62
     7
100
AcDbCircle
 10
3963.660166901095
 20
7720.377140023964
 30
0.0
 40
3.0
100
AcDbArc
 50
0.0
 51
90.0
  0
ARC
  5
1EA4
330
1F
100
AcDbEntity
  8
1
  6
Continuous
 62
     7
100
AcDbCircle
 10
3963.660166901095
 20
7736.377140023964
 30
0.0
 40
3.0
100
AcDbArc
 50
270.0
 51
0.0
  0
ARC
  5
1EA5
330
1F
100
AcDbEntity
  8
1
  6
Continuous
 62
     7
100
AcDbCircle
 10
3963.660166901095
 20
7676.377140023963
 30
0.0
 40
3.0
100
AcDbArc
 50
270.0
 51
0.0
  0
ARC
  5
1EA6
330
1F
100
AcDbEntity
  8
1
  6
Continuous
 62
     7
100
AcDbCircle
 10
3963.660166901095
 20
7690.377140023963
 30
0.0
 40
3.0
100
AcDbArc
 50
0.0
 51
90.0
  0
ARC
  5
1EA7
330
1F
100
AcDbEntity
  8
1
  6
Continuous
 62
     7
100
AcDbCircle
 10
3963.660166901095
 20
7660.377140023964
 30
0.0
 40
3.0
100
AcDbArc
 50
0.0
 51
99.59406822690551
  0
ARC
  5
1EA8
330
1F
100
AcDbEntity
  8
1
  6
Continuous
 62
     7
100
AcDbCircle
 10
3891.660166901095
 20
7768.377140023964
 30
0.0
 40
75.0
100
AcDbArc
 50
0.0
 51
180.0
  0
LINE
  5
1EA9
330
1F
100
AcDbEntity
  8
1
  6
Continuous
 62
     7
100
AcDbLine
 10
3971.660166901094
 20
6743.377140023963
 30
0.0
 11
3971.660166901094
 21
7093.377140023964
 31
0.0
  0
LINE
  5
1EAA
330
1F
100
AcDbEntity
  8
1
  6
Continuous
 62
     7
100
AcDbLine
 10
3811.660166901094
 20
7093.377140023964
 30
0.0
 11
3811.660166901094
 21
6743.377140023963
 31
0.0
  0
LINE
  5
1EAB
330
1F
100
AcDbEntity
  8
1
  6
Continuous
 62
     7
100
AcDbLine
 10
3811.660166901094
 20
6743.377140023963
 30
0.0
 11
3971.660166901094
 21
6743.377140023963
 31
0.0
  0
LINE
  5
1EAE
330
1F
100
AcDbEntity
  8
1
  6
Continuous
 62
     7
100
AcDbLine
 10
4091.660166901094
 20
6643.377140023964
 30
0.0
 11
4091.660166901094
 21
7043.377140023963
 31
0.0
  0
LINE
  5
1EB9
330
1F
100
AcDbEntity
  8
1
  6
Continuous
 62
     7
100
AcDbLine
 10
3691.660166901094
 20
7043.377140023963
 30
0.0
 11
3691.660166901094
 21
6643.377140023964
 31
0.0
  0
LINE
  5
1EC9
330
1F
100
AcDbEntity
  8
0
100
AcDbLine
 10
3811.660166901094
 20
7579.127140024425
 30
0.0
 11
3788.660166901094
 21
7579.127140024425
 31
0.0
  0
LINE
  5
1ECA
330
1F
100
AcDbEntity
  8
0
100
AcDbLine
 10
3811.660166901094
 20
7647.627140024425
 30
0.0
 11
3788.660166901094
 21
7647.627140024425
 31
0.0
  0
ARC
  5
1ECB
330
1F
100
AcDbEntity
  8
0
100
AcDbCircle
 10
3763.311829586299
 20
7613.377140024425
 30
0.0
 40
63.39643203093796
100
AcDbArc
 50
327.2992576130245
 51
32.70074238697548
  0
ARC
  5
1ECC
330
1F
100
AcDbEntity
  8
0
100
AcDbCircle
 10
3811.660166901094
 20
7574.127140024426
 30
0.0
 40
5.0
100
AcDbArc
 50
0.000000000000007
 51
90.0
1001
GENIUS_GENODEF_13
1002
{
1000
HIER
1070
     0
1002
}
1002
{
1000
MANEDIT
1070
     0
1002
}
1002
{
1000
NOSEL
1070
     0
1002
}
1002
{
1000
BEHIND
1070
     0
1002
}
1002
{
1000
REACTOR
1002
}
1001
GENIUS_GENOBJ-N-FIL_13
1002
{
1000
OWNER
1000
GEN
1002
}
  0
ARC
  5
1ECD
330
1F
100
AcDbEntity
  8
0
100
AcDbCircle
 10
3811.660166901094
 20
7652.627140024425
 30
0.0
 40
5.0
100
AcDbArc
 50
270.0
 51
0.000000000000007
1001
GENIUS_GENODEF_13
1002
{
1000
HIER
1070
     0
1002
}
1002
{
1000
MANEDIT
1070
     0
1002
}
1002
{
1000
NOSEL
1070
     0
1002
}
1002
{
1000
BEHIND
1070
     0
1002
}
1002
{
1000
REACTOR
1002
}
1001
GENIUS_GENOBJ-N-FIL_13
1002
{
1000
OWNER
1000
GEN
1002
}
  0
LINE
  5
1ECE
330
1F
100
AcDbEntity
  8
0
100
AcDbLine
 10
3786.660166901096
 20
7581.127140024425
 30
0.0
 11
3786.660166901096
 21
7645.627140024426
 31
0.0
  0
ARC
  5
1ECF
330
1F
100
AcDbEntity
  8
0
100
AcDbCircle
 10
3788.660166901094
 20
7581.127140024425
 30
0.0
 40
2.0
100
AcDbArc
 50
180.0
 51
270.0
1001
GENIUS_GENODEF_13
1002
{
1000
HIER
1070
     0
1002
}
1002
{
1000
MANEDIT
1070
     0
1002
}
1002
{
1000
NOSEL
1070
     0
1002
}
1002
{
1000
BEHIND
1070
     0
1002
}
1002
{
1000
REACTOR
1002
}
1001
GENIUS_GENOBJ-N-FIL_13
1002
{
1000
OWNER
1000
GEN
1002
}
  0
ARC
  5
1ED0
330
1F
100
AcDbEntity
  8
0
100
AcDbCircle
 10
3788.660166901094
 20
7645.627140024426
 30
0.0
 40
2.0
100
AcDbArc
 50
90.0
 51
180.0
1001
GENIUS_GENODEF_13
1002
{
1000
HIER
1070
     0
1002
}
1002
{
1000
MANEDIT
1070
     0
1002
}
1002
{
1000
NOSEL
1070
     0
1002
}
1002
{
1000
BEHIND
1070
     0
1002
}
1002
{
1000
REACTOR
1002
}
1001
GENIUS_GENOBJ-N-FIL_13
1002
{
1000
OWNER
1000
GEN
1002
}
  0
LINE
  5
1ED1
330
1F
100
AcDbEntity
  8
0
100
AcDbLine
 10
3811.660166901094
 20
7379.127140024426
 30
0.0
 11
3788.660166901094
 21
7379.127140024426
 31
0.0
  0
LINE
  5
1ED2
330
1F
100
AcDbEntity
  8
0
100
AcDbLine
 10
3811.660166901094
 20
7447.627140024426
 30
0.0
 11
3788.660166901094
 21
7447.627140024426
 31
0.0
  0
ARC
  5
1ED3
330
1F
100
AcDbEntity
  8
0
100
AcDbCircle
 10
3811.660166901094
 20
7452.627140024425
 30
0.0
 40
5.0
100
AcDbArc
 50
270.0
 51
0.000000000000007
1001
GENIUS_GENODEF_13
1002
{
1000
HIER
1070
     0
1002
}
1002
{
1000
MANEDIT
1070
     0
1002
}
1002
{
1000
NOSEL
1070
     0
1002
}
1002
{
1000
BEHIND
1070
     0
1002
}
1002
{
1000
REACTOR
1002
}
1001
GENIUS_GENOBJ-N-FIL_13
1002
{
1000
OWNER
1000
GEN
1002
}
  0
ARC
  5
1ED4
330
1F
100
AcDbEntity
  8
0
100
AcDbCircle
 10
3763.311829586299
 20
7413.377140024426
 30
0.0
 40
63.39643203093796
100
AcDbArc
 50
327.2992576130245
 51
32.70074238697548
  0
ARC
  5
1ED5
330
1F
100
AcDbEntity
  8
0
100
AcDbCircle
 10
3811.660166901094
 20
7374.127140024426
 30
0.0
 40
5.0
100
AcDbArc
 50
0.000000000000007
 51
90.0
1001
GENIUS_GENODEF_13
1002
{
1000
HIER
1070
     0
1002
}
1002
{
1000
MANEDIT
1070
     0
1002
}
1002
{
1000
NOSEL
1070
     0
1002
}
1002
{
1000
BEHIND
1070
     0
1002
}
1002
{
1000
REACTOR
1002
}
1001
GENIUS_GENOBJ-N-FIL_13
1002
{
1000
OWNER
1000
GEN
1002
}
  0
LINE
  5
1ED6
330
1F
100
AcDbEntity
  8
0
100
AcDbLine
 10
3786.660166901096
 20
7381.127140024425
 30
0.0
 11
3786.660166901096
 21
7445.627140024426
 31
0.0
  0
ARC
  5
1ED7
330
1F
100
AcDbEntity
  8
0
100
AcDbCircle
 10
3788.660166901094
 20
7381.127140024425
 30
0.0
 40
2.0
100
AcDbArc
 50
180.0
 51
270.0
1001
GENIUS_GENODEF_13
1002
{
1000
HIER
1070
     0
1002
}
1002
{
1000
MANEDIT
1070
     0
1002
}
1002
{
1000
NOSEL
1070
     0
1002
}
1002
{
1000
BEHIND
1070
     0
1002
}
1002
{
1000
REACTOR
1002
}
1001
GENIUS_GENOBJ-N-FIL_13
1002
{
1000
OWNER
1000
GEN
1002
}
  0
ARC
  5
1ED8
330
1F
100
AcDbEntity
  8
0
100
AcDbCircle
 10
3788.660166901094
 20
7445.627140024426
 30
0.0
 40
2.0
100
AcDbArc
 50
90.0
 51
180.0
1001
GENIUS_GENODEF_13
1002
{
1000
HIER
1070
     0
1002
}
1002
{
1000
MANEDIT
1070
     0
1002
}
1002
{
1000
NOSEL
1070
     0
1002
}
1002
{
1000
BEHIND
1070
     0
1002
}
1002
{
1000
REACTOR
1002
}
1001
GENIUS_GENOBJ-N-FIL_13
1002
{
1000
OWNER
1000
GEN
1002
}
  0
LINE
  5
1ED9
330
1F
100
AcDbEntity
  8
1
  6
Continuous
 62
     7
100
AcDbLine
 10
3816.660166901094
 20
7574.127140024426
 30
0.0
 11
3816.660166901094
 21
7452.627140024425
 31
0.0
  0
LINE
  5
1EDA
330
1F
100
AcDbEntity
  8
1
  6
Continuous
 62
     7
100
AcDbLine
 10
3816.660166901094
 20
7374.127140024426
 30
0.0
 11
3816.660166901094
 21
7093.377140023964
 31
0.0
  0
LINE
  5
1EDB
330
1F
100
AcDbEntity
  8
1
100
AcDbLine
 10
3996.660166901094
 20
7637.677140024425
 30
0.0
 11
4391.660166901094
 21
7637.677140024425
 31
0.0
  0
LINE
  5
1EDC
330
1F
100
AcDbEntity
  8
1
100
AcDbLine
 10
4391.660166901094
 20
7589.077140024425
 30
0.0
 11
3996.660166901094
 21
7589.077140024425
 31
0.0
  0
LINE
  5
1EDD
330
1F
100
AcDbEntity
  8
1
100
AcDbLine
 10
3996.660166901094
 20
7437.677140024425
 30
0.0
 11
4391.660166901094
 21
7437.677140024425
 31
0.0
  0
LINE
  5
1EDE
330
1F
100
AcDbEntity
  8
1
100
AcDbLine
 10
4391.660166901094
 20
7389.077140024425
 30
0.0
 11
3996.660166901094
 21
7389.077140024425
 31
0.0
  0
LINE
  5
1EEB
330
1F
100
AcDbEntity
  8
AM_7
100
AcDbLine
 10
3891.660166901095
 20
6715.437140023964
 30
0.0
 11
3891.660166901095
 21
7871.317140023963
 31
0.0
1001
GENIUS_GENOBJ-N-CEN_13
1002
{
1000
OWNER
1000
GEN
1002
}
1001
GENIUS_GENODEF_13
1002
{
1000
HIER
1070
     0
1002
}
1002
{
1000
MANEDIT
1070
     0
1002
}
1002
{
1000
NOSEL
1070
     0
1002
}
1002
{
1000
BEHIND
1070
     0
1002
}
1002
{
1000
OTHER
1070
     0
1002
}
1002
{
1000
REACTOR
1002
}
  0
LINE
  5
1EEC
330
1F
100
AcDbEntity
  8
1
  6
Continuous
 62
     7
100
AcDbLine
 10
3641.660166901095
 20
6643.377140023964
 30
0.0
 11
4141.660166901094
 21
6643.377140023964
 31
0.0
  0
LINE
  5
1EED
330
1F
100
AcDbEntity
  8
AM_8
100
AcDbLine
 10
3756.391482513595
 20
6573.377140023964
 30
0.0
 11
3764.429958286495
 21
6543.377140023963
 31
0.0
  0
LINE
  5
1EEE
330
1F
100
AcDbEntity
  8
1
  6
Continuous
 62
     7
100
AcDbLine
 10
3641.660166901095
 20
6543.377140023963
 30
0.0
 11
4141.660166901094
 21
6543.377140023963
 31
0.0
  0
LINE
  5
1EEF
330
1F
100
AcDbEntity
  8
AM_8
100
AcDbLine
 10
3748.353006740594
 20
6543.377140023963
 30
0.0
 11
3775.147925983694
 21
6643.377140023964
 31
0.0
  0
LINE
  5
1EF0
330
1F
100
AcDbEntity
  8
1
  6
Continuous
 62
     7
100
AcDbLine
 10
3641.660166901095
 20
6643.377140023964
 30
0.0
 11
3641.660166901095
 21
6543.377140023963
 31
0.0
  0
LINE
  5
1EF1
330
1F
100
AcDbEntity
  8
AM_8
100
AcDbLine
 10
3698.353006740594
 20
6543.377140023963
 30
0.0
 11
3725.147925983694
 21
6643.377140023964
 31
0.0
  0
LINE
  5
1EF2
330
1F
100
AcDbEntity
  8
AM_8
100
AcDbLine
 10
3648.353006740594
 20
6543.377140023963
 30
0.0
 11
3675.147925983694
 21
6643.377140023964
 31
0.0
  0
LINE
  5
1EF3
330
1F
100
AcDbEntity
  8
AM_8
100
AcDbLine
 10
3706.391482513595
 20
6573.377140023964
 30
0.0
 11
3714.429958286493
 21
6543.377140023963
 31
0.0
  0
LINE
  5
1EF4
330
1F
100
AcDbEntity
  8
AM_8
100
AcDbLine
 10
3656.391482513595
 20
6573.377140023964
 30
0.0
 11
3664.429958286493
 21
6543.377140023963
 31
0.0
  0
LINE
  5
1EF5
330
1F
100
AcDbEntity
  8
AM_8
100
AcDbLine
 10
3709.070974437894
 20
6643.377140023964
 30
0.0
 11
3717.109450210794
 21
6613.377140023963
 31
0.0
  0
LINE
  5
1EF6
330
1F
100
AcDbEntity
  8
AM_8
100
AcDbLine
 10
3659.070974437894
 20
6643.377140023964
 30
0.0
 11
3667.109450210793
 21
6613.377140023963
 31
0.0
  0
LINE
  5
1EF7
330
1F
100
AcDbEntity
  8
1
  6
Continuous
 62
     7
100
AcDbLine
 10
4141.660166901094
 20
6643.377140023964
 30
0.0
 11
4141.660166901094
 21
6543.377140023963
 31
0.0
  0
LINE
  5
1EF8
330
1F
100
AcDbEntity
  8
AM_8
100
AcDbLine
 10
4048.353006740593
 20
6543.377140023963
 30
0.0
 11
4075.147925983694
 21
6643.377140023964
 31
0.0
  0
LINE
  5
1EF9
330
1F
100
AcDbEntity
  8
AM_8
100
AcDbLine
 10
3998.353006740594
 20
6543.377140023963
 30
0.0
 11
4025.147925983694
 21
6643.377140023964
 31
0.0
  0
LINE
  5
1EFA
330
1F
100
AcDbEntity
  8
AM_8
100
AcDbLine
 10
3948.353006740594
 20
6543.377140023963
 30
0.0
 11
3975.147925983694
 21
6643.377140023964
 31
0.0
  0
LINE
  5
1EFB
330
1F
100
AcDbEntity
  8
AM_8
100
AcDbLine
 10
3898.353006740594
 20
6543.377140023963
 30
0.0
 11
3925.147925983694
 21
6643.377140023964
 31
0.0
  0
LINE
  5
1EFC
330
1F
100
AcDbEntity
  8
AM_8
100
AcDbLine
 10
3848.353006740594
 20
6543.377140023963
 30
0.0
 11
3875.147925983694
 21
6643.377140023964
 31
0.0
  0
LINE
  5
1EFD
330
1F
100
AcDbEntity
  8
AM_8
100
AcDbLine
 10
3798.353006740594
 20
6543.377140023963
 30
0.0
 11
3825.147925983694
 21
6643.377140023964
 31
0.0
  0
LINE
  5
1EFE
330
1F
100
AcDbEntity
  8
AM_8
100
AcDbLine
 10
4098.353006740594
 20
6543.377140023963
 30
0.0
 11
4125.147925983694
 21
6643.377140023964
 31
0.0
  0
LINE
  5
1EFF
330
1F
100
AcDbEntity
  8
AM_8
100
AcDbLine
 10
3806.391482513595
 20
6573.377140023964
 30
0.0
 11
3814.429958286495
 21
6543.377140023963
 31
0.0
  0
LINE
  5
1F00
330
1F
100
AcDbEntity
  8
AM_8
100
AcDbLine
 10
3856.391482513595
 20
6573.377140023964
 30
0.0
 11
3864.429958286495
 21
6543.377140023963
 31
0.0
  0
LINE
  5
1F01
330
1F
100
AcDbEntity
  8
AM_8
100
AcDbLine
 10
3956.391482513595
 20
6573.377140023964
 30
0.0
 11
3964.429958286494
 21
6543.377140023963
 31
0.0
  0
LINE
  5
1F02
330
1F
100
AcDbEntity
  8
AM_8
100
AcDbLine
 10
3906.391482513594
 20
6573.377140023964
 30
0.0
 11
3914.429958286495
 21
6543.377140023963
 31
0.0
  0
LINE
  5
1F03
330
1F
100
AcDbEntity
  8
AM_8
100
AcDbLine
 10
4056.391482513594
 20
6573.377140023964
 30
0.0
 11
4064.429958286495
 21
6543.377140023963
 31
0.0
  0
LINE
  5
1F04
330
1F
100
AcDbEntity
  8
AM_8
100
AcDbLine
 10
4006.391482513595
 20
6573.377140023964
 30
0.0
 11
4014.429958286494
 21
6543.377140023963
 31
0.0
  0
LINE
  5
1F05
330
1F
100
AcDbEntity
  8
AM_8
100
AcDbLine
 10
4106.391482513593
 20
6573.377140023964
 30
0.0
 11
4114.429958286494
 21
6543.377140023963
 31
0.0
  0
LINE
  5
1F06
330
1F
100
AcDbEntity
  8
AM_8
100
AcDbLine
 10
3859.070974437894
 20
6643.377140023964
 30
0.0
 11
3867.109450210794
 21
6613.377140023963
 31
0.0
  0
LINE
  5
1F07
330
1F
100
AcDbEntity
  8
AM_8
100
AcDbLine
 10
3809.070974437894
 20
6643.377140023964
 30
0.0
 11
3817.109450210793
 21
6613.377140023963
 31
0.0
  0
LINE
  5
1F08
330
1F
100
AcDbEntity
  8
AM_8
100
AcDbLine
 10
3759.070974437894
 20
6643.377140023964
 30
0.0
 11
3767.109450210794
 21
6613.377140023963
 31
0.0
  0
LINE
  5
1F09
330
1F
100
AcDbEntity
  8
AM_8
100
AcDbLine
 10
3909.070974437894
 20
6643.377140023964
 30
0.0
 11
3917.109450210793
 21
6613.377140023963
 31
0.0
  0
LINE
  5
1F0A
330
1F
100
AcDbEntity
  8
AM_8
100
AcDbLine
 10
3959.070974437894
 20
6643.377140023964
 30
0.0
 11
3967.109450210794
 21
6613.377140023963
 31
0.0
  0
LINE
  5
1F0B
330
1F
100
AcDbEntity
  8
AM_8
100
AcDbLine
 10
4059.070974437894
 20
6643.377140023964
 30
0.0
 11
4067.109450210793
 21
6613.377140023963
 31
0.0
  0
LINE
  5
1F0C
330
1F
100
AcDbEntity
  8
AM_8
100
AcDbLine
 10
4009.070974437894
 20
6643.377140023964
 30
0.0
 11
4017.109450210793
 21
6613.377140023963
 31
0.0
  0
LINE
  5
1F0D
330
1F
100
AcDbEntity
  8
AM_8
100
AcDbLine
 10
4109.070974437893
 20
6643.377140023964
 30
0.0
 11
4117.109450210793
 21
6613.377140023963
 31
0.0
  0
LINE
  5
1F0E
330
1F
100
AcDbEntity
  8
1
  6
Continuous
 62
     7
100
AcDbLine
 10
4161.134654016394
 20
7043.377140023963
 30
0.0
 11
4130.498590286894
 21
7012.741076294464
 31
0.0
  0
LINE
  5
1F0F
330
1F
100
AcDbEntity
  8
1
  6
Continuous
 62
     7
100
AcDbLine
 10
4120.286569043694
 20
7043.377140023963
 30
0.0
 11
4140.710611530094
 21
7022.953097537663
 31
0.0
  0
LINE
  5
1F10
330
1F
100
AcDbEntity
  8
1
  6
Continuous
 62
     7
100
AcDbLine
 10
4171.346675259594
 20
7033.165118780764
 30
0.0
 11
4150.922632773293
 21
7012.741076294464
 31
0.0
  0
LINE
  5
1F11
330
1F
100
AcDbEntity
  8
1
  6
Continuous
 62
     7
100
AcDbLine
 10
4099.862526557394
 20
7043.377140023963
 30
0.0
 11
4130.498590286894
 21
7012.741076294464
 31
0.0
  0
LINE
  5
1F12
330
1F
100
AcDbEntity
  8
1
  6
Continuous
 62
     7
100
AcDbLine
 10
4110.074547800493
 20
7033.165118780764
 30
0.0
 11
4091.609431701994
 21
7014.700002682264
 31
0.0
  0
LINE
  5
1F13
330
1F
100
AcDbEntity
  8
1
  6
Continuous
 62
     7
100
AcDbLine
 10
4161.134654016394
 20
7043.377140023963
 30
0.0
 11
4185.219366721394
 21
7019.292427319064
 31
0.0
  0
LINE
  5
1F14
330
1F
100
AcDbEntity
  8
1
  6
Continuous
 62
     7
100
AcDbLine
 10
4181.558696502793
 20
7022.953097537663
 30
0.0
 11
4171.346675259594
 21
7012.741076294464
 31
0.0
  0
LINE
  5
1F15
330
1F
100
AcDbEntity
  8
1
  6
Continuous
 62
     7
100
AcDbLine
 10
4120.286569043694
 20
7022.953097537663
 30
0.0
 11
4110.074547800493
 21
7012.741076294464
 31
0.0
  0
LINE
  5
1F16
330
1F
100
AcDbEntity
  8
1
  6
Continuous
 62
     7
100
AcDbLine
 10
4099.862526557394
 20
7043.377140023963
 30
0.0
 11
4091.609431701994
 21
7035.124045168564
 31
0.0
  0
LINE
  5
1F17
330
1F
100
AcDbEntity
  8
1
  6
Continuous
 62
     7
100
AcDbLine
 10
4140.710611530094
 20
7043.377140023963
 30
0.0
 11
4150.922632773293
 21
7033.165118780764
 31
0.0
  0
LINE
  5
1F18
330
1F
100
AcDbEntity
  8
1
  6
Continuous
 62
     7
100
AcDbLine
 10
4181.558696502793
 20
7043.377140023963
 30
0.0
 11
4185.219366721394
 21
7039.716469805364
 31
0.0
  0
TEXT
  5
1F19
330
1F
100
AcDbEntity
  8
1
  6
Continuous
 62
     7
100
AcDbText
 10
4181.292684772094
 20
7049.789945566864
 30
0.0
 40
40.0
  1
ＧＬ
 11
4181.292684772094
 21
7049.789945566864
 31
0.0
100
AcDbText
 73
     1
  0
LINE
  5
1F1A
330
1F
100
AcDbEntity
  8
1
  6
Continuous
 62
     7
100
AcDbLine
 10
3971.660166901094
 20
7043.377140023963
 30
0.0
 11
4185.219366721394
 21
7043.377140023963
 31
0.0
  0
LINE
  5
1F55
330
1F
100
AcDbEntity
  8
AM_4
  6
Amzigzag
100
AcDbLine
 10
4391.660166901094
 20
7756.898424263276
 30
0.0
 11
4391.660166901094
 21
7261.426351205286
 31
0.0
  0
LINE
  5
1F62
330
1F
100
AcDbEntity
  8
AM_7
100
AcDbLine
 10
1788.720166901094
 20
7613.377140023963
 30
0.0
 11
4419.600166901093
 21
7613.377140023963
 31
0.0
1001
GENIUS_GENOBJ-N-CEN_13
1002
{
1000
OWNER
1000
GEN
1002
}
1001
GENIUS_GENODEF_13
1002
{
1000
HIER
1070
     0
1002
}
1002
{
1000
MANEDIT
1070
     0
1002
}
1002
{
1000
NOSEL
1070
     0
1002
}
1002
{
1000
BEHIND
1070
     0
1002
}
1002
{
1000
OTHER
1070
     0
1002
}
1002
{
1000
REACTOR
1002
}
  0
LINE
  5
1F63
330
1F
100
AcDbEntity
  8
AM_7
100
AcDbLine
 10
1788.720166901094
 20
7413.377140023964
 30
0.0
 11
4419.600166901093
 21
7413.377140023964
 31
0.0
1001
GENIUS_GENOBJ-N-CEN_13
1002
{
1000
OWNER
1000
GEN
1002
}
1001
GENIUS_GENODEF_13
1002
{
1000
HIER
1070
     0
1002
}
1002
{
1000
MANEDIT
1070
     0
1002
}
1002
{
1000
NOSEL
1070
     0
1002
}
1002
{
1000
BEHIND
1070
     0
1002
}
1002
{
1000
OTHER
1070
     0
1002
}
1002
{
1000
REACTOR
1002
}
  0
INSERT
  5
1F65
330
1F
100
AcDbEntity
  8
AM_5
100
AcDbBlockReference
  2
*S26
 10
0.0
 20
0.0
 30
0.0
1001
ACAD
1000
AcRTDxfName
1000
AMDTNOTE
  0
HATCH
  5
1F87
330
1F
100
AcDbEntity
  8
AM_8
100
AcDbHatch
 10
0.0
 20
0.0
 30
0.0
210
0.0
220
0.0
230
1.0
  2
PLAST
 70
     0
 71
     0
 91
        1
 92
        1
 93
        8
 72
     1
 10
1691.660166901093
 20
7043.377140023963
 11
1691.660166901093
 21
6643.377140023964
 72
     1
 10
1691.660166901093
 20
6643.377140023964
 11
2091.660166901094
 21
6643.377140023964
 72
     1
 10
2091.660166901094
 20
6643.377140023964
 11
2091.660166901094
 21
7043.377140023963
 72
     1
 10
2091.660166901094
 20
7043.377140023963
 11
1971.660166901094
 21
7043.377140023963
 72
     1
 10
1971.660166901094
 20
7043.377140023963
 11
1971.660166901094
 21
6743.377140023963
 72
     1
 10
1971.660166901094
 20
6743.377140023963
 11
1811.660166901094
 21
6743.377140023963
 72
     1
 10
1811.660166901094
 20
6743.377140023963
 11
1811.660166901094
 21
7043.377140023963
 72
     1
 10
1811.660166901094
 20
7043.377140023963
 11
1691.660166901093
 21
7043.377140023963
 97
        0
 75
     0
 76
     1
 52
45.0
 41
25.0
 77
     0
 78
     3
 53
45.0
 43
-123.0856602621679
 44
-170.7019242022688
 45
-112.2532015133644
 46
112.2532015133644
 79
     0
 53
45.0
 43
-137.1173104513385
 44
-156.6702740130983
 45
-112.2532015133644
 46
112.2532015133644
 79
     0
 53
45.0
 43
-151.148960640509
 44
-142.6386238239277
 45
-112.2532015133644
 46
112.2532015133644
 79
     0
 98
        1
 10
-123.0856602621679
 20
-170.7019242022688
1001
GENIUS_GENOBJ-N-HTC_13
1002
{
1000
OWNER
1000
GEN
1002
}
1001
GENIUS_GENODEF_13
1002
{
1000
HIER
1070
     0
1002
}
1002
{
1000
MANEDIT
1070
     0
1002
}
1002
{
1000
NOSEL
1070
     0
1002
}
1002
{
1000
BEHIND
1070
     0
1002
}
1002
{
1000
OTHER
1070
     0
1002
}
1002
{
1000
REACTOR
1002
}
1001
GENIUS_GENHATCH_13
1002
{
1000
DATA
1040
45.0
1042
2.5
1000
PLAST
1070
     0
1011
1787.864469937045
1021
6773.727241908135
1031
0.0
1002
}
1002
{
1000
UCS
1010
0.0
1020
0.0
1030
0.0
1010
1.0
1020
0.0
1030
0.0
1010
0.0
1020
1.0
1030
0.0
1002
}
  0
HATCH
  5
1FB6
330
1F
100
AcDbEntity
  8
AM_8
100
AcDbHatch
 10
0.0
 20
0.0
 30
0.0
210
0.0
220
0.0
230
1.0
  2
PLAST
 70
     0
 71
     0
 91
        1
 92
        1
 93
        8
 72
     1
 10
3971.660166901094
 20
7043.377140023963
 11
3971.660166901094
 21
6743.377140023963
 72
     1
 10
3971.660166901094
 20
6743.377140023963
 11
3811.660166901094
 21
6743.377140023963
 72
     1
 10
3811.660166901094
 20
6743.377140023963
 11
3811.660166901094
 21
7043.377140023965
 72
     1
 10
3811.660166901094
 20
7043.377140023965
 11
3691.660166901094
 21
7043.377140023963
 72
     1
 10
3691.660166901094
 20
7043.377140023963
 11
3691.660166901094
 21
6643.377140023964
 72
     1
 10
3691.660166901094
 20
6643.377140023964
 11
4091.660166901094
 21
6643.377140023964
 72
     1
 10
4091.660166901094
 20
6643.377140023964
 11
4091.660166901094
 21
7043.377140023963
 72
     1
 10
4091.660166901094
 20
7043.377140023963
 11
3971.660166901094
 21
7043.377140023963
 97
        0
 75
     0
 76
     1
 52
45.0
 41
25.0
 77
     0
 78
     3
 53
45.0
 43
-123.0856602621679
 44
-170.7019242022688
 45
-112.2532015133644
 46
112.2532015133644
 79
     0
 53
45.0
 43
-137.1173104513385
 44
-156.6702740130983
 45
-112.2532015133644
 46
112.2532015133644
 79
     0
 53
45.0
 43
-151.148960640509
 44
-142.6386238239277
 45
-112.2532015133644
 46
112.2532015133644
 79
     0
 98
        1
 10
-123.0856602621679
 20
-170.7019242022688
1001
GENIUS_GENOBJ-N-HTC_13
1002
{
1000
OWNER
1000
GEN
1002
}
1001
GENIUS_GENODEF_13
1002
{
1000
HIER
1070
     0
1002
}
1002
{
1000
MANEDIT
1070
     0
1002
}
1002
{
1000
NOSEL
1070
     0
1002
}
1002
{
1000
BEHIND
1070
     0
1002
}
1002
{
1000
OTHER
1070
     0
1002
}
1002
{
1000
REACTOR
1002
}
1001
GENIUS_GENHATCH_13
1002
{
1000
DATA
1040
45.0
1042
2.5
1000
PLAST
1070
     0
1011
3794.151755808602
1021
6688.021552055667
1031
0.0
1002
}
1002
{
1000
UCS
1010
0.0
1020
0.0
1030
0.0
1010
1.0
1020
0.0
1030
0.0
1010
0.0
1020
1.0
1030
0.0
1002
}
  0
LINE
  5
1FD0
330
1F
100
AcDbEntity
  8
AM_7
  6
AM_ISO08W050x2
100
AcDbLine
 10
1891.660166901093
 20
8302.553530126706
 30
0.0
 11
1891.660166901093
 21
8080.673530126707
 31
0.0
1001
GENIUS_GENODEF_13
1002
{
1000
HIER
1070
     0
1002
}
1002
{
1000
MANEDIT
1070
     0
1002
}
1002
{
1000
NOSEL
1070
     0
1002
}
1002
{
1000
BEHIND
1070
     0
1002
}
1002
{
1000
OTHER
1070
     0
1002
}
1002
{
1000
REACTOR
1002
}
1001
GENIUS_GENOBJ-N-CEN_13
1002
{
1000
OWNER
1000
GEN
1002
}
  0
LINE
  5
200A
330
1F
100
AcDbEntity
  8
AM_7
  6
AM_ISO08W050x2
100
AcDbLine
 10
3891.660166901094
 20
8302.553530126706
 30
0.0
 11
3891.660166901094
 21
8080.673530126707
 31
0.0
1001
GENIUS_GENODEF_13
1002
{
1000
HIER
1070
     0
1002
}
1002
{
1000
MANEDIT
1070
     0
1002
}
1002
{
1000
NOSEL
1070
     0
1002
}
1002
{
1000
BEHIND
1070
     0
1002
}
1002
{
1000
OTHER
1070
     0
1002
}
1002
{
1000
REACTOR
1002
}
1001
GENIUS_GENOBJ-N-CEN_13
1002
{
1000
OWNER
1000
GEN
1002
}
  0
CIRCLE
  5
200C
330
1F
100
AcDbEntity
  8
1
  6
Continuous
 62
     7
100
AcDbCircle
 10
3891.660166901094
 20
8191.613530126707
 30
0.0
 40
75.0
  0
CIRCLE
  5
200D
330
1F
100
AcDbEntity
  8
1
  6
Continuous
 62
     7
100
AcDbCircle
 10
3891.660166901094
 20
8191.613530126707
 30
0.0
 40
80.0
  0
CIRCLE
  5
200E
330
1F
100
AcDbEntity
  8
1
  6
Continuous
 62
     7
100
AcDbCircle
 10
3891.660166901094
 20
8191.613530126707
 30
0.0
 40
83.0
  0
LINE
  5
200F
330
1F
100
AcDbEntity
  8
1
100
AcDbLine
 10
3786.660166901094
 20
8215.913530127167
 30
0.0
 11
1996.660166901092
 21
8215.913530127167
 31
0.0
  0
LINE
  5
2010
330
1F
100
AcDbEntity
  8
1
100
AcDbLine
 10
1996.660166901092
 20
8167.313530127167
 30
0.0
 11
3786.660166901094
 21
8167.313530127167
 31
0.0
  0
LINE
  5
2011
330
1F
100
AcDbEntity
  8
AM_7
100
AcDbLine
 10
1788.720166901094
 20
8191.613530126707
 30
0.0
 11
4419.600166901093
 21
8191.613530126707
 31
0.0
1001
GENIUS_GENOBJ-N-CEN_13
1002
{
1000
OWNER
1000
GEN
1002
}
1001
GENIUS_GENODEF_13
1002
{
1000
HIER
1070
     0
1002
}
1002
{
1000
MANEDIT
1070
     0
1002
}
1002
{
1000
NOSEL
1070
     0
1002
}
1002
{
1000
BEHIND
1070
     0
1002
}
1002
{
1000
OTHER
1070
     0
1002
}
1002
{
1000
REACTOR
1002
}
  0
LINE
  5
2012
330
1F
100
AcDbEntity
  8
0
100
AcDbLine
 10
1996.660166901092
 20
8159.363530127167
 30
0.0
 11
1996.660166901092
 21
8223.863530127168
 31
0.0
  0
LINE
  5
2013
330
1F
100
AcDbEntity
  8
0
100
AcDbLine
 10
1967.263986249269
 20
8157.363530127167
 30
0.0
 11
1994.660166901094
 21
8157.363530127167
 31
0.0
  0
ARC
  5
2014
330
1F
100
AcDbEntity
  8
0
100
AcDbCircle
 10
1994.660166901094
 20
8159.363530127167
 30
0.0
 40
2.0
100
AcDbArc
 50
270.0
 51
0.0
1001
GENIUS_GENODEF_13
1002
{
1000
HIER
1070
     0
1002
}
1002
{
1000
MANEDIT
1070
     0
1002
}
1002
{
1000
NOSEL
1070
     0
1002
}
1002
{
1000
BEHIND
1070
     0
1002
}
1002
{
1000
REACTOR
1002
}
1001
GENIUS_GENOBJ-N-FIL_13
1002
{
1000
OWNER
1000
GEN
1002
}
  0
LINE
  5
2015
330
1F
100
AcDbEntity
  8
0
100
AcDbLine
 10
1967.263986248852
 20
8225.863530127169
 30
0.0
 11
1994.660166901094
 21
8225.863530127169
 31
0.0
  0
ARC
  5
2016
330
1F
100
AcDbEntity
  8
0
100
AcDbCircle
 10
1994.660166901094
 20
8223.863530127168
 30
0.0
 40
2.0
100
AcDbArc
 50
0.0
 51
90.0
1001
GENIUS_GENODEF_13
1002
{
1000
HIER
1070
     0
1002
}
1002
{
1000
MANEDIT
1070
     0
1002
}
1002
{
1000
NOSEL
1070
     0
1002
}
1002
{
1000
BEHIND
1070
     0
1002
}
1002
{
1000
REACTOR
1002
}
1001
GENIUS_GENOBJ-N-FIL_13
1002
{
1000
OWNER
1000
GEN
1002
}
  0
LINE
  5
2017
330
1F
100
AcDbEntity
  8
0
100
AcDbLine
 10
3816.056347553337
 20
8225.863530127169
 30
0.0
 11
3788.660166901094
 21
8225.863530127169
 31
0.0
  0
LINE
  5
2018
330
1F
100
AcDbEntity
  8
0
100
AcDbLine
 10
3816.056347552919
 20
8157.363530127167
 30
0.0
 11
3788.660166901094
 21
8157.363530127167
 31
0.0
  0
LINE
  5
2019
330
1F
100
AcDbEntity
  8
0
100
AcDbLine
 10
3786.660166901096
 20
8159.363530127167
 30
0.0
 11
3786.660166901096
 21
8223.863530127168
 31
0.0
  0
ARC
  5
201A
330
1F
100
AcDbEntity
  8
0
100
AcDbCircle
 10
3788.660166901094
 20
8159.363530127167
 30
0.0
 40
2.0
100
AcDbArc
 50
180.0
 51
270.0
1001
GENIUS_GENODEF_13
1002
{
1000
HIER
1070
     0
1002
}
1002
{
1000
MANEDIT
1070
     0
1002
}
1002
{
1000
NOSEL
1070
     0
1002
}
1002
{
1000
BEHIND
1070
     0
1002
}
1002
{
1000
REACTOR
1002
}
1001
GENIUS_GENOBJ-N-FIL_13
1002
{
1000
OWNER
1000
GEN
1002
}
  0
ARC
  5
201B
330
1F
100
AcDbEntity
  8
0
100
AcDbCircle
 10
3788.660166901094
 20
8223.863530127168
 30
0.0
 40
2.0
100
AcDbArc
 50
90.0
 51
180.0
1001
GENIUS_GENODEF_13
1002
{
1000
HIER
1070
     0
1002
}
1002
{
1000
MANEDIT
1070
     0
1002
}
1002
{
1000
NOSEL
1070
     0
1002
}
1002
{
1000
BEHIND
1070
     0
1002
}
1002
{
1000
REACTOR
1002
}
1001
GENIUS_GENOBJ-N-FIL_13
1002
{
1000
OWNER
1000
GEN
1002
}
  0
LINE
  5
201C
330
1F
100
AcDbEntity
  8
0
100
AcDbLine
 10
3996.660166901093
 20
8159.363530127167
 30
0.0
 11
3996.660166901093
 21
8223.863530127168
 31
0.0
  0
LINE
  5
201D
330
1F
100
AcDbEntity
  8
1
100
AcDbLine
 10
4391.660166901094
 20
8167.313530127167
 30
0.0
 11
3996.660166901094
 21
8167.313530127167
 31
0.0
  0
LINE
  5
201E
330
1F
100
AcDbEntity
  8
0
100
AcDbLine
 10
3967.26398624927
 20
8157.363530127167
 30
0.0
 11
3994.660166901095
 21
8157.363530127167
 31
0.0
  0
ARC
  5
201F
330
1F
100
AcDbEntity
  8
0
100
AcDbCircle
 10
3994.660166901095
 20
8159.363530127167
 30
0.0
 40
2.0
100
AcDbArc
 50
270.0
 51
0.0
1001
GENIUS_GENODEF_13
1002
{
1000
HIER
1070
     0
1002
}
1002
{
1000
MANEDIT
1070
     0
1002
}
1002
{
1000
NOSEL
1070
     0
1002
}
1002
{
1000
BEHIND
1070
     0
1002
}
1002
{
1000
REACTOR
1002
}
1001
GENIUS_GENOBJ-N-FIL_13
1002
{
1000
OWNER
1000
GEN
1002
}
  0
LINE
  5
2020
330
1F
100
AcDbEntity
  8
1
100
AcDbLine
 10
3996.660166901094
 20
8215.913530127167
 30
0.0
 11
4391.660166901094
 21
8215.913530127167
 31
0.0
  0
LINE
  5
2021
330
1F
100
AcDbEntity
  8
0
100
AcDbLine
 10
3967.263986248852
 20
8225.863530127169
 30
0.0
 11
3994.660166901095
 21
8225.863530127169
 31
0.0
  0
ARC
  5
2022
330
1F
100
AcDbEntity
  8
0
100
AcDbCircle
 10
3994.660166901095
 20
8223.863530127168
 30
0.0
 40
2.0
100
AcDbArc
 50
0.0
 51
90.0
1001
GENIUS_GENODEF_13
1002
{
1000
HIER
1070
     0
1002
}
1002
{
1000
MANEDIT
1070
     0
1002
}
1002
{
1000
NOSEL
1070
     0
1002
}
1002
{
1000
BEHIND
1070
     0
1002
}
1002
{
1000
REACTOR
1002
}
1001
GENIUS_GENOBJ-N-FIL_13
1002
{
1000
OWNER
1000
GEN
1002
}
  0
LINE
  5
2023
330
1F
100
AcDbEntity
  8
AM_4
  6
Amzigzag
100
AcDbLine
 10
4391.660166901094
 20
8335.134814366018
 30
0.0
 11
4391.660166901094
 21
8048.249261550576
 31
0.0
  0
DIMENSION
  5
2080
330
1F
100
AcDbEntity
  8
AM_5
100
AcDbDimension
  2
*D12
 10
1966.660166901094
 20
7888.377140023964
 30
0.0
 11
1891.660166901094
 21
7920.877140023964
 31
0.0
 70
    32
  1
%%c<>
 71
     5
 42
150.0000000000004
  3
IGS
100
AcDbAlignedDimension
 13
1816.660166901094
 23
7768.377140023964
 33
0.0
 14
1966.660166901094
 24
7768.377140023964
 34
0.0
100
AcDbRotatedDimension
1001
ACAD
1000
DSTYLE
1002
{
1070
   174
1070
     1
1002
}
  0
DIMENSION
  5
20B1
330
1F
100
AcDbEntity
  8
AM_5
100
AcDbDimension
  2
*D13
 10
1966.660166901094
 20
7888.377140023964
 30
0.0
 11
1981.660166901094
 21
7920.877140023964
 31
0.0
 70
    32
 71
     5
 42
30.0
  3
IGS
100
AcDbAlignedDimension
 13
1996.660166901094
 23
7645.627140024426
 33
0.0
 14
1966.660166901094
 24
7768.377140023964
 34
0.0
100
AcDbRotatedDimension
1001
ACAD
1000
DSTYLE
1002
{
1070
   174
1070
     1
1002
}
  0
DIMENSION
  5
20F2
330
1F
100
AcDbEntity
  8
AM_5
100
AcDbDimension
  2
*D14
 10
1557.228839178547
 20
7413.377140023964
 30
0.0
 11
1524.728839178546
 21
7228.377140023964
 31
0.0
 70
    32
 71
     5
 42
370.0
  3
IGS
100
AcDbAlignedDimension
 13
1636.266366901094
 23
7043.377140023963
 33
0.0
 14
1788.720166901094
 24
7413.377140023964
 34
0.0
 50
90.0
100
AcDbRotatedDimension
1001
ACAD
1000
DSTYLE
1002
{
1070
   174
1070
     1
1002
}
  0
DIMENSION
  5
211A
330
1F
100
AcDbEntity
  8
AM_5
100
AcDbDimension
  2
*D15
 10
1557.228839178547
 20
7413.377140023964
 30
0.0
 11
1524.725394296656
 21
7513.377140023964
 31
0.0
 70
    32
 71
     5
 42
200.0
  3
IGS
100
AcDbAlignedDimension
 13
1788.720166901094
 23
7613.377140023963
 33
0.0
 14
1788.720166901094
 24
7413.377140023964
 34
0.0
 50
90.0
100
AcDbRotatedDimension
1001
ACAD
1000
DSTYLE
1002
{
1070
   174
1070
     1
1002
}
  0
DIMENSION
  5
2136
330
1F
100
AcDbEntity
  8
AM_5
100
AcDbDimension
  2
*D16
 10
1557.228839178547
 20
7613.377140023963
 30
0.0
 11
1524.725394296656
 21
7728.377140023963
 31
0.0
 70
    32
 71
     5
 42
230.0
  3
IGS
100
AcDbAlignedDimension
 13
1891.660166901093
 23
7843.377140023964
 33
0.0
 14
1788.720166901094
 24
7613.377140023963
 34
0.0
 50
90.0
100
AcDbRotatedDimension
1001
ACAD
1000
DSTYLE
1002
{
1070
   174
1070
     1
1002
}
  0
DIMENSION
  5
2155
330
1F
100
AcDbEntity
  8
AM_5
100
AcDbDimension
  2
*D17
 10
1457.228839178547
 20
7843.377140023964
 30
0.0
 11
1424.728839178546
 21
7443.377140023963
 31
0.0
 70
    32
 71
     5
 42
799.9999999999991
  3
IGS
100
AcDbAlignedDimension
 13
1636.266366901094
 23
7043.377140023965
 33
0.0
 14
1891.660166901093
 24
7843.377140023964
 34
0.0
 50
90.0
100
AcDbRotatedDimension
  0
DIMENSION
  5
2186
330
1F
100
AcDbEntity
  8
AM_5
100
AcDbDimension
  2
*D18
 10
1457.228839178548
 20
7043.377140023963
 30
0.0
 11
1424.728839178547
 21
6893.377140023964
 31
0.0
 70
    32
 71
     5
 42
300.0
  3
IGS
100
AcDbAlignedDimension
 13
1811.660166901094
 23
6743.377140023963
 33
0.0
 14
1636.266366901094
 24
7043.377140023963
 34
0.0
 50
90.0
100
AcDbRotatedDimension
  0
DIMENSION
  5
21A5
330
1F
100
AcDbEntity
  8
AM_5
100
AcDbDimension
  2
*D19
 10
1357.228839178548
 20
7843.377140023964
 30
0.0
 11
1324.728839178547
 21
7293.377140023963
 31
0.0
 70
    32
 71
     5
 42
1100.0
  3
IGS
100
AcDbAlignedDimension
 13
1811.660166901094
 23
6743.377140023963
 33
0.0
 14
1891.660166901093
 24
7843.377140023964
 34
0.0
 50
90.0
100
AcDbRotatedDimension
  0
DIMENSION
  5
21D6
330
1F
100
AcDbEntity
  8
AM_5
100
AcDbDimension
  2
*D20
 10
3891.660166901095
 20
7963.377141033965
 30
0.0
 11
2891.660166901095
 21
7995.880585915855
 31
0.0
 70
    32
 71
     5
 42
2000.0
  3
IGS
100
AcDbAlignedDimension
 13
1891.660166901093
 23
7871.317140023963
 33
0.0
 14
3891.660166901095
 24
7871.317140023963
 34
0.0
100
AcDbRotatedDimension
  0
DIMENSION
  5
2200
330
1F
100
AcDbEntity
  8
AM_5
100
AcDbDimension
  2
*D21
 10
4305.219366721394
 20
6643.377140023964
 30
0.0
 11
4272.719366721392
 21
6843.377140023965
 31
0.0
 70
    32
 71
     5
 42
400.0
  3
IGS
100
AcDbAlignedDimension
 13
4185.219366721394
 23
7043.377140023963
 33
0.0
 14
4141.660166901094
 24
6643.377140023964
 34
0.0
 50
90.0
100
AcDbRotatedDimension
  0
DIMENSION
  5
2228
330
1F
100
AcDbEntity
  8
AM_5
100
AcDbDimension
  2
*D22
 10
4091.660166901094
 20
6423.377139023964
 30
0.0
 11
3891.660166901095
 21
6455.877139023964
 31
0.0
 70
    32
  1
{\Famgdt;o}<>
 71
     5
 42
400.0
  3
IGS
100
AcDbAlignedDimension
 13
3691.660166901094
 23
6643.377140023964
 33
0.0
 14
4091.660166901094
 24
6643.377140023964
 34
0.0
 50
0.0000000000001132
100
AcDbRotatedDimension
  0
INSERT
  5
224B
330
1F
100
AcDbEntity
  8
AM_5
100
AcDbBlockReference
  2
*S27
 10
0.0
 20
0.0
 30
0.0
1001
ACAD
1000
AcRTDxfName
1000
AMDTNOTE
  0
INSERT
  5
224E
330
1F
100
AcDbEntity
  8
AM_5
100
AcDbBlockReference
  2
*S28
 10
0.0
 20
0.0
 30
0.0
1001
ACAD
1000
AcRTDxfName
1000
AMDTNOTE
  0
DIMENSION
  5
225F
330
1F
100
AcDbEntity
  8
AM_5
100
AcDbDimension
  2
*D23
 10
4305.219366721399
 20
6543.377140023963
 30
0.0
 11
4272.719366721396
 21
6593.377140023965
 31
0.0
 70
    32
 71
     5
 42
100.0
  3
IGS
100
AcDbAlignedDimension
 13
4141.660166901094
 23
6643.377140023964
 33
0.0
 14
4141.660166901094
 24
6543.377140023963
 34
0.0
 50
90.0
100
AcDbRotatedDimension
  0
LWPOLYLINE
  5
2287
330
1F
100
AcDbEntity
  8
0
100
AcDbPolyline
 90
        4
 70
     0
 43
0.0
 10
3691.660166901094
 20
8167.313530127167
 10
3691.660166901094
 20
7991.613530126706
 10
4091.660166901094
 20
7991.613530126706
 10
4091.660166901094
 20
8167.313530127167
1001
GENIUS_GENREC_14
1002
{
1000
PYDIR
1011
3691.660166901094
1021
8391.613530126706
1031
0.0
1002
}
1002
{
1000
PXDIR
1011
4091.660166901094
1021
7991.613530126706
1031
0.0
1002
}
1002
{
1000
PORI
1011
3691.660166901094
1021
7991.613530126706
1031
0.0
1002
}
1002
{
1000
PINS
1011
3891.660166901094
1021
8191.613530126707
1031
0.0
1002
}
1002
{
1000
HVAL
1000
400
1002
}
1002
{
1000
H
1070
     2
1002
}
1002
{
1000
WVAL
1000
400
1002
}
1002
{
1000
W
1070
     2
1002
}
1002
{
1000
C
1070
     4
1002
}
1001
GENIUS_GENOBJ-N-REC_13
1002
{
1000
OWNER
1000
GEN
1002
}
1001
GENIUS_GENODEF_13
1002
{
1000
HIER
1070
     0
1002
}
1002
{
1000
MANEDIT
1070
     0
1002
}
1002
{
1000
NOSEL
1070
     0
1002
}
1002
{
1000
BEHIND
1070
     0
1002
}
1002
{
1000
OTHER
1070
     0
1002
}
1002
{
1000
REACTOR
1002
}
  0
LWPOLYLINE
  5
2288
330
1F
100
AcDbEntity
  8
0
100
AcDbPolyline
 90
        4
 70
     0
 43
0.0
 10
4091.660166901094
 20
8215.913530127167
 10
4091.660166901094
 20
8391.613530126706
 10
3691.660166901094
 20
8391.613530126706
 10
3691.660166901094
 20
8215.913530127167
1001
GENIUS_GENREC_14
1002
{
1000
PYDIR
1011
3691.660166901094
1021
8391.613530126706
1031
0.0
1002
}
1002
{
1000
PXDIR
1011
4091.660166901094
1021
7991.613530126706
1031
0.0
1002
}
1002
{
1000
PORI
1011
3691.660166901094
1021
7991.613530126706
1031
0.0
1002
}
1002
{
1000
PINS
1011
3891.660166901094
1021
8191.613530126707
1031
0.0
1002
}
1002
{
1000
HVAL
1000
400
1002
}
1002
{
1000
H
1070
     2
1002
}
1002
{
1000
WVAL
1000
400
1002
}
1002
{
1000
W
1070
     2
1002
}
1002
{
1000
C
1070
     4
1002
}
1001
GENIUS_GENOBJ-N-REC_13
1002
{
1000
OWNER
1000
GEN
1002
}
1001
GENIUS_GENODEF_13
1002
{
1000
HIER
1070
     0
1002
}
1002
{
1000
MANEDIT
1070
     0
1002
}
1002
{
1000
NOSEL
1070
     0
1002
}
1002
{
1000
BEHIND
1070
     0
1002
}
1002
{
1000
OTHER
1070
     0
1002
}
1002
{
1000
REACTOR
1002
}
  0
HATCH
  5
2299
330
1F
100
AcDbEntity
  8
AM_8
100
AcDbHatch
 10
0.0
 20
0.0
 30
0.0
210
0.0
220
0.0
230
1.0
  2
PLAST
 70
     0
 71
     0
 91
        1
 92
        1
 93
       12
 72
     1
 10
4091.660166901094
 20
8391.613530126706
 11
3691.660166901094
 21
8391.613530126706
 72
     1
 10
3691.660166901094
 20
8391.613530126706
 11
3691.660166901094
 21
8215.913530127167
 72
     1
 10
3691.660166901094
 20
8215.913530127167
 11
3786.660166901094
 21
8215.913530127167
 72
     1
 10
3786.660166901094
 20
8215.913530127167
 11
3786.660166901096
 21
8223.863530127168
 72
     2
 10
3788.660166901095
 20
8223.863530127168
 40
1.99999999999909
 50
180.0
 51
269.9999999999739
 73
     0
 72
     1
 10
3788.660166901094
 20
8225.863530127169
 11
3816.056347553337
 21
8225.863530127169
 72
     2
 10
3891.660166901094
 20
8191.613530126707
 40
83.0
 50
204.3714506155692
 51
335.6285493844309
 73
     0
 72
     1
 10
3967.263986248852
 20
8225.863530127169
 11
3994.660166901095
 21
8225.863530127169
 72
     2
 10
3994.660166901095
 20
8223.863530127168
 40
2.0
 50
270.0
 51
360.0
 73
     0
 72
     1
 10
3996.660166901094
 20
8223.863530127168
 11
3996.660166901094
 21
8215.913530127167
 72
     1
 10
3996.660166901094
 20
8215.913530127167
 11
4091.660166901094
 21
8215.913530127167
 72
     1
 10
4091.660166901094
 20
8215.913530127167
 11
4091.660166901094
 21
8391.613530126706
 97
        0
 75
     0
 76
     1
 52
45.0
 41
25.0
 77
     0
 78
     3
 53
45.0
 43
1876.914339737832
 44
0.0
 45
-112.2532015133644
 46
112.2532015133644
 79
     0
 53
45.0
 43
1862.882689548661
 44
14.03165018917055
 45
-112.2532015133644
 46
112.2532015133644
 79
     0
 53
45.0
 43
1848.851039359491
 44
28.06330037834111
 45
-112.2532015133644
 46
112.2532015133644
 79
     0
 98
        1
 10
-123.0856602621679
 20
0.0
1001
GENIUS_GENOBJ-N-HTC_13
1002
{
1000
OWNER
1000
GEN
1002
}
1001
GENIUS_GENODEF_13
1002
{
1000
HIER
1070
     0
1002
}
1002
{
1000
MANEDIT
1070
     0
1002
}
1002
{
1000
NOSEL
1070
     0
1002
}
1002
{
1000
BEHIND
1070
     0
1002
}
1002
{
1000
OTHER
1070
     0
1002
}
1002
{
1000
REACTOR
1002
}
1001
GENIUS_GENHATCH_13
1002
{
1000
DATA
1040
45.0
1042
2.5
1000
PLAST
1070
     0
1011
4024.718886827933
1021
8242.492797216003
1031
0.0
1002
}
1002
{
1000
UCS
1010
0.0
1020
0.0
1030
0.0
1010
1.0
1020
0.0
1030
0.0
1010
0.0
1020
1.0
1030
0.0
1002
}
  0
HATCH
  5
22AA
330
1F
100
AcDbEntity
  8
AM_8
100
AcDbHatch
 10
0.0
 20
0.0
 30
0.0
210
0.0
220
0.0
230
1.0
  2
PLAST
 70
     0
 71
     0
 91
        1
 92
        1
 93
       12
 72
     2
 10
3788.660166901094
 20
8159.363530127167
 40
2.0
 50
90.0
 51
180.0
 73
     0
 72
     1
 10
3786.660166901094
 20
8159.363530127167
 11
3786.660166901094
 21
8167.313530127167
 72
     1
 10
3786.660166901094
 20
8167.313530127167
 11
3691.660166901094
 21
8167.313530127167
 72
     1
 10
3691.660166901094
 20
8167.313530127167
 11
3691.660166901094
 21
7991.613530126706
 72
     1
 10
3691.660166901094
 20
7991.613530126706
 11
4091.660166901094
 21
7991.613530126706
 72
     1
 10
4091.660166901094
 20
7991.613530126706
 11
4091.660166901094
 21
8167.313530127167
 72
     1
 10
4091.660166901094
 20
8167.313530127167
 11
3996.660166901094
 21
8167.313530127167
 72
     1
 10
3996.660166901094
 20
8167.313530127167
 11
3996.660166901093
 21
8159.363530127167
 72
     2
 10
3994.660166901093
 20
8159.363530127166
 40
1.99999999999909
 50
359.999999999974
 51
449.9999999999739
 73
     0
 72
     1
 10
3994.660166901095
 20
8157.363530127167
 11
3967.26398624927
 21
8157.363530127167
 72
     2
 10
3891.660166901094
 20
8191.613530126707
 40
83.00000000000011
 50
24.37145061487022
 51
155.6285493851298
 73
     0
 72
     1
 10
3816.056347552919
 20
8157.363530127167
 11
3788.660166901094
 21
8157.363530127167
 97
        0
 75
     0
 76
     1
 52
45.0
 41
25.0
 77
     0
 78
     3
 53
45.0
 43
-123.0856602621679
 44
0.0
 45
-112.2532015133644
 46
112.2532015133644
 79
     0
 53
45.0
 43
-137.1173104513385
 44
14.03165018917055
 45
-112.2532015133644
 46
112.2532015133644
 79
     0
 53
45.0
 43
-151.148960640509
 44
28.06330037834111
 45
-112.2532015133644
 46
112.2532015133644
 79
     0
 98
        1
 10
-123.0856602621679
 20
0.0
1001
GENIUS_GENOBJ-N-HTC_13
1002
{
1000
OWNER
1000
GEN
1002
}
1001
GENIUS_GENODEF_13
1002
{
1000
HIER
1070
     0
1002
}
1002
{
1000
MANEDIT
1070
     0
1002
}
1002
{
1000
NOSEL
1070
     0
1002
}
1002
{
1000
BEHIND
1070
     0
1002
}
1002
{
1000
OTHER
1070
     0
1002
}
1002
{
1000
REACTOR
1002
}
1001
GENIUS_GENHATCH_13
1002
{
1000
DATA
1040
45.0
1042
2.5
1000
PLAST
1070
     0
1011
3938.017564514343
1021
8095.500447948158
1031
0.0
1002
}
1002
{
1000
UCS
1010
0.0
1020
0.0
1030
0.0
1010
1.0
1020
0.0
1030
0.0
1010
0.0
1020
1.0
1030
0.0
1002
}
  0
LWPOLYLINE
  5
22BA
330
1F
100
AcDbEntity
  8
0
100
AcDbPolyline
 90
        6
 70
     0
 43
0.0
 10
2091.660166901094
 20
8215.913530127167
 10
2091.660166901094
 20
8391.613530126706
 10
1691.660166901093
 20
8391.613530126706
 10
1691.660166901093
 20
7991.613530126706
 10
2091.660166901094
 20
7991.613530126706
 10
2091.660166901094
 20
8167.313530127167
1001
GENIUS_GENREC_14
1002
{
1000
PYDIR
1011
1691.660166901093
1021
8391.613530126706
1031
0.0
1002
}
1002
{
1000
PXDIR
1011
2091.660166901094
1021
7991.613530126706
1031
0.0
1002
}
1002
{
1000
PORI
1011
1691.660166901093
1021
7991.613530126706
1031
0.0
1002
}
1002
{
1000
PINS
1011
1891.660166901093
1021
8191.613530126707
1031
0.0
1002
}
1002
{
1000
HVAL
1000
400
1002
}
1002
{
1000
H
1070
     2
1002
}
1002
{
1000
WVAL
1000
400
1002
}
1002
{
1000
W
1070
     2
1002
}
1002
{
1000
C
1070
     4
1002
}
1001
GENIUS_GENODEF_13
1002
{
1000
HIER
1070
     0
1002
}
1002
{
1000
MANEDIT
1070
     0
1002
}
1002
{
1000
NOSEL
1070
     0
1002
}
1002
{
1000
BEHIND
1070
     0
1002
}
1002
{
1000
OTHER
1070
     0
1002
}
1002
{
1000
REACTOR
1002
}
1001
GENIUS_GENOBJ-N-REC_13
1002
{
1000
OWNER
1000
GEN
1002
}
  0
HATCH
  5
22CD
330
1F
100
AcDbEntity
  8
AM_8
100
AcDbHatch
 10
0.0
 20
0.0
 30
0.0
210
0.0
220
0.0
230
1.0
  2
PLAST
 70
     0
 71
     0
 91
        1
 92
        1
 93
       14
 72
     1
 10
2091.660166901094
 20
8391.613530126706
 11
1691.660166901093
 21
8391.613530126706
 72
     1
 10
1691.660166901093
 20
8391.613530126706
 11
1691.660166901093
 21
7991.613530126706
 72
     1
 10
1691.660166901093
 20
7991.613530126706
 11
2091.660166901094
 21
7991.613530126706
 72
     1
 10
2091.660166901094
 20
7991.613530126706
 11
2091.660166901094
 21
8167.313530127167
 72
     1
 10
2091.660166901094
 20
8167.313530127167
 11
1996.660166901092
 21
8167.313530127167
 72
     1
 10
1996.660166901092
 20
8167.313530127167
 11
1996.660166901092
 21
8159.363530127167
 72
     2
 10
1994.660166901093
 20
8159.363530127166
 40
1.99999999999909
 50
359.999999999974
 51
449.9999999999739
 73
     0
 72
     1
 10
1994.660166901094
 20
8157.363530127167
 11
1967.263986249269
 21
8157.363530127167
 72
     2
 10
1891.660166901094
 20
8191.613530126707
 40
82.99999999999991
 50
24.37145061487027
 51
335.6285493844307
 73
     0
 72
     1
 10
1967.263986248851
 20
8225.863530127169
 11
1994.660166901094
 21
8225.863530127169
 72
     2
 10
1994.660166901093
 20
8223.863530127168
 40
2.0
 50
270.000000000026
 51
360.0
 73
     0
 72
     1
 10
1996.660166901092
 20
8223.863530127168
 11
1996.660166901092
 21
8215.913530127167
 72
     1
 10
1996.660166901092
 20
8215.913530127167
 11
2091.660166901094
 21
8215.913530127167
 72
     1
 10
2091.660166901094
 20
8215.913530127167
 11
2091.660166901094
 21
8391.613530126706
 97
        0
 75
     0
 76
     1
 52
45.0
 41
25.0
 77
     0
 78
     3
 53
45.0
 43
-123.0856602621679
 44
0.0
 45
-112.2532015133644
 46
112.2532015133644
 79
     0
 53
45.0
 43
-137.1173104513385
 44
14.03165018917055
 45
-112.2532015133644
 46
112.2532015133644
 79
     0
 53
45.0
 43
-151.148960640509
 44
28.06330037834111
 45
-112.2532015133644
 46
112.2532015133644
 79
     0
 98
        1
 10
-123.0856602621679
 20
0.0
1001
GENIUS_GENOBJ-N-HTC_13
1002
{
1000
OWNER
1000
GEN
1002
}
1001
GENIUS_GENODEF_13
1002
{
1000
HIER
1070
     0
1002
}
1002
{
1000
MANEDIT
1070
     0
1002
}
1002
{
1000
NOSEL
1070
     0
1002
}
1002
{
1000
BEHIND
1070
     0
1002
}
1002
{
1000
OTHER
1070
     0
1002
}
1002
{
1000
REACTOR
1002
}
1001
GENIUS_GENHATCH_13
1002
{
1000
DATA
1040
45.0
1042
2.5
1000
PLAST
1070
     0
1011
2033.910918515408
1021
8251.727206928647
1031
0.0
1002
}
1002
{
1000
UCS
1010
0.0
1020
0.0
1030
0.0
1010
1.0
1020
0.0
1030
0.0
1010
0.0
1020
1.0
1030
0.0
1002
}
  0
TEXT
  5
2360
330
1F
100
AcDbEntity
  8
TEXT
100
AcDbText
 10
4078.586283186414
 20
5849.366461288917
 30
0.0
 40
26.086956516
  1
06.11.30
 41
0.7628390602327702
 72
     5
 11
4163.177587515629
 21
5849.366461288917
 31
0.0
100
AcDbText
  0
HATCH
  5
2674
330
1F
100
AcDbEntity
  8
AM_8
100
AcDbHatch
 10
0.0
 20
0.0
 30
0.0
210
0.0
220
0.0
230
1.0
  2
PLAST
 70
     0
 71
     0
 91
        1
 92
        1
 93
        8
 72
     1
 10
4793.941481021717
 20
7043.377140023963
 11
4793.941481021717
 21
6743.377140023963
 72
     1
 10
4793.941481021717
 20
6743.377140023963
 11
4633.941481021717
 21
6743.377140023963
 72
     1
 10
4633.941481021717
 20
6743.377140023963
 11
4633.941481021717
 21
7043.377140023965
 72
     1
 10
4633.941481021717
 20
7043.377140023965
 11
4513.941481021717
 21
7043.377140023963
 72
     1
 10
4513.941481021717
 20
7043.377140023963
 11
4513.941481021717
 21
6643.377140023964
 72
     1
 10
4513.941481021717
 20
6643.377140023964
 11
4913.941481021717
 21
6643.377140023964
 72
     1
 10
4913.941481021717
 20
6643.377140023964
 11
4913.941481021717
 21
7043.377140023963
 72
     1
 10
4913.941481021717
 20
7043.377140023963
 11
4793.941481021717
 21
7043.377140023963
 97
        0
 75
     0
 76
     1
 52
45.0
 41
25.0
 77
     0
 78
     3
 53
45.0
 43
699.1956538584554
 44
-170.7019242022688
 45
-112.2532015133644
 46
112.2532015133644
 79
     0
 53
45.0
 43
685.1640036692849
 44
-156.6702740130983
 45
-112.2532015133644
 46
112.2532015133644
 79
     0
 53
45.0
 43
671.1323534801143
 44
-142.6386238239277
 45
-112.2532015133644
 46
112.2532015133644
 79
     0
 98
        1
 10
699.1956538584554
 20
-170.7019242022688
1001
GENIUS_GENOBJ-N-HTC_13
1002
{
1000
OWNER
1000
GEN
1002
}
1001
GENIUS_GENODEF_13
1002
{
1000
HIER
1070
     0
1002
}
1002
{
1000
MANEDIT
1070
     0
1002
}
1002
{
1000
NOSEL
1070
     0
1002
}
1002
{
1000
BEHIND
1070
     0
1002
}
1002
{
1000
OTHER
1070
     0
1002
}
1002
{
1000
REACTOR
1002
}
1001
GENIUS_GENHATCH_13
1002
{
1000
DATA
1040
45.0
1042
2.5
1000
PLAST
1070
     0
1011
4616.433069929224
1021
6688.021552055667
1031
0.0
1002
}
1002
{
1000
UCS
1010
0.0
1020
0.0
1030
0.0
1010
1.0
1020
0.0
1030
0.0
1010
0.0
1020
1.0
1030
0.0
1002
}
  0
LINE
  5
2675
330
1F
100
AcDbEntity
  8
1
  6
Continuous
 62
     7
100
AcDbLine
 10
4793.941481021717
 20
7043.377140023963
 30
0.0
 11
5007.500680842017
 21
7043.377140023963
 31
0.0
  0
LINE
  5
2677
330
1F
100
AcDbEntity
  8
1
  6
Continuous
 62
     7
100
AcDbLine
 10
5003.840010623417
 20
7043.377140023963
 30
0.0
 11
5007.500680842017
 21
7039.716469805364
 31
0.0
  0
LINE
  5
2678
330
1F
100
AcDbEntity
  8
1
  6
Continuous
 62
     7
100
AcDbLine
 10
4962.991925650717
 20
7043.377140023963
 30
0.0
 11
4973.203946893917
 21
7033.165118780764
 31
0.0
  0
LINE
  5
2679
330
1F
100
AcDbEntity
  8
1
  6
Continuous
 62
     7
100
AcDbLine
 10
4922.143840678018
 20
7043.377140023963
 30
0.0
 11
4913.890745822618
 21
7035.124045168564
 31
0.0
  0
LINE
  5
267A
330
1F
100
AcDbEntity
  8
1
  6
Continuous
 62
     7
100
AcDbLine
 10
4942.567883164318
 20
7022.953097537663
 30
0.0
 11
4932.355861921116
 21
7012.741076294464
 31
0.0
  0
LINE
  5
267B
330
1F
100
AcDbEntity
  8
1
  6
Continuous
 62
     7
100
AcDbLine
 10
5003.840010623417
 20
7022.953097537663
 30
0.0
 11
4993.627989380218
 21
7012.741076294464
 31
0.0
  0
LINE
  5
267C
330
1F
100
AcDbEntity
  8
1
  6
Continuous
 62
     7
100
AcDbLine
 10
4983.415968137017
 20
7043.377140023963
 30
0.0
 11
5007.500680842017
 21
7019.292427319064
 31
0.0
  0
LINE
  5
267D
330
1F
100
AcDbEntity
  8
1
  6
Continuous
 62
     7
100
AcDbLine
 10
4932.355861921116
 20
7033.165118780764
 30
0.0
 11
4913.890745822618
 21
7014.700002682264
 31
0.0
  0
LINE
  5
267E
330
1F
100
AcDbEntity
  8
1
  6
Continuous
 62
     7
100
AcDbLine
 10
4922.143840678018
 20
7043.377140023963
 30
0.0
 11
4952.779904407517
 21
7012.741076294464
 31
0.0
  0
LINE
  5
267F
330
1F
100
AcDbEntity
  8
1
  6
Continuous
 62
     7
100
AcDbLine
 10
4993.627989380218
 20
7033.165118780764
 30
0.0
 11
4973.203946893917
 21
7012.741076294464
 31
0.0
  0
LINE
  5
2680
330
1F
100
AcDbEntity
  8
1
  6
Continuous
 62
     7
100
AcDbLine
 10
4942.567883164318
 20
7043.377140023963
 30
0.0
 11
4962.991925650717
 21
7022.953097537663
 31
0.0
  0
LINE
  5
2681
330
1F
100
AcDbEntity
  8
1
  6
Continuous
 62
     7
100
AcDbLine
 10
4983.415968137017
 20
7043.377140023963
 30
0.0
 11
4952.779904407517
 21
7012.741076294464
 31
0.0
  0
LINE
  5
2682
330
1F
100
AcDbEntity
  8
AM_8
100
AcDbLine
 10
4931.352288558517
 20
6643.377140023964
 30
0.0
 11
4939.390764331417
 21
6613.377140023963
 31
0.0
  0
LINE
  5
2683
330
1F
100
AcDbEntity
  8
AM_8
100
AcDbLine
 10
4831.352288558517
 20
6643.377140023964
 30
0.0
 11
4839.390764331417
 21
6613.377140023963
 31
0.0
  0
LINE
  5
2684
330
1F
100
AcDbEntity
  8
AM_8
100
AcDbLine
 10
4881.352288558517
 20
6643.377140023964
 30
0.0
 11
4889.390764331417
 21
6613.377140023963
 31
0.0
  0
LINE
  5
2685
330
1F
100
AcDbEntity
  8
AM_8
100
AcDbLine
 10
4781.352288558517
 20
6643.377140023964
 30
0.0
 11
4789.390764331417
 21
6613.377140023963
 31
0.0
  0
LINE
  5
2686
330
1F
100
AcDbEntity
  8
AM_8
100
AcDbLine
 10
4731.352288558517
 20
6643.377140023964
 30
0.0
 11
4739.390764331417
 21
6613.377140023963
 31
0.0
  0
LINE
  5
2687
330
1F
100
AcDbEntity
  8
AM_8
100
AcDbLine
 10
4581.352288558517
 20
6643.377140023964
 30
0.0
 11
4589.390764331417
 21
6613.377140023963
 31
0.0
  0
LINE
  5
2688
330
1F
100
AcDbEntity
  8
AM_8
100
AcDbLine
 10
4631.352288558517
 20
6643.377140023964
 30
0.0
 11
4639.390764331417
 21
6613.377140023963
 31
0.0
  0
LINE
  5
2689
330
1F
100
AcDbEntity
  8
AM_8
100
AcDbLine
 10
4681.352288558517
 20
6643.377140023964
 30
0.0
 11
4689.390764331417
 21
6613.377140023963
 31
0.0
  0
LINE
  5
268A
330
1F
100
AcDbEntity
  8
AM_8
100
AcDbLine
 10
4928.672796634216
 20
6573.377140023964
 30
0.0
 11
4936.711272407118
 21
6543.377140023963
 31
0.0
  0
LINE
  5
268B
330
1F
100
AcDbEntity
  8
AM_8
100
AcDbLine
 10
4828.672796634218
 20
6573.377140023964
 30
0.0
 11
4836.711272407118
 21
6543.377140023963
 31
0.0
  0
LINE
  5
268C
330
1F
100
AcDbEntity
  8
AM_8
100
AcDbLine
 10
4878.672796634218
 20
6573.377140023964
 30
0.0
 11
4886.711272407118
 21
6543.377140023963
 31
0.0
  0
LINE
  5
268D
330
1F
100
AcDbEntity
  8
AM_8
100
AcDbLine
 10
4728.672796634217
 20
6573.377140023964
 30
0.0
 11
4736.711272407117
 21
6543.377140023963
 31
0.0
  0
LINE
  5
268E
330
1F
100
AcDbEntity
  8
AM_8
100
AcDbLine
 10
4778.672796634217
 20
6573.377140023964
 30
0.0
 11
4786.711272407117
 21
6543.377140023963
 31
0.0
  0
LINE
  5
268F
330
1F
100
AcDbEntity
  8
AM_8
100
AcDbLine
 10
4678.672796634217
 20
6573.377140023964
 30
0.0
 11
4686.711272407118
 21
6543.377140023963
 31
0.0
  0
LINE
  5
2690
330
1F
100
AcDbEntity
  8
AM_8
100
AcDbLine
 10
4628.672796634218
 20
6573.377140023964
 30
0.0
 11
4636.711272407118
 21
6543.377140023963
 31
0.0
  0
LINE
  5
2691
330
1F
100
AcDbEntity
  8
AM_8
100
AcDbLine
 10
4920.634320861217
 20
6543.377140023963
 30
0.0
 11
4947.429240104318
 21
6643.377140023964
 31
0.0
  0
LINE
  5
2692
330
1F
100
AcDbEntity
  8
AM_8
100
AcDbLine
 10
4620.634320861216
 20
6543.377140023963
 30
0.0
 11
4647.429240104318
 21
6643.377140023964
 31
0.0
  0
LINE
  5
2693
330
1F
100
AcDbEntity
  8
AM_8
100
AcDbLine
 10
4670.634320861217
 20
6543.377140023963
 30
0.0
 11
4697.429240104318
 21
6643.377140023964
 31
0.0
  0
LINE
  5
2694
330
1F
100
AcDbEntity
  8
AM_8
100
AcDbLine
 10
4720.634320861217
 20
6543.377140023963
 30
0.0
 11
4747.429240104318
 21
6643.377140023964
 31
0.0
  0
LINE
  5
2695
330
1F
100
AcDbEntity
  8
AM_8
100
AcDbLine
 10
4770.634320861216
 20
6543.377140023963
 30
0.0
 11
4797.429240104317
 21
6643.377140023964
 31
0.0
  0
LINE
  5
2696
330
1F
100
AcDbEntity
  8
AM_8
100
AcDbLine
 10
4820.634320861216
 20
6543.377140023963
 30
0.0
 11
4847.429240104318
 21
6643.377140023964
 31
0.0
  0
LINE
  5
2697
330
1F
100
AcDbEntity
  8
AM_8
100
AcDbLine
 10
4870.634320861217
 20
6543.377140023963
 30
0.0
 11
4897.429240104318
 21
6643.377140023964
 31
0.0
  0
LINE
  5
2698
330
1F
100
AcDbEntity
  8
1
  6
Continuous
 62
     7
100
AcDbLine
 10
4963.941481021717
 20
6643.377140023964
 30
0.0
 11
4963.941481021717
 21
6543.377140023963
 31
0.0
  0
LINE
  5
2699
330
1F
100
AcDbEntity
  8
AM_8
100
AcDbLine
 10
4481.352288558517
 20
6643.377140023964
 30
0.0
 11
4489.390764331417
 21
6613.377140023963
 31
0.0
  0
LINE
  5
269A
330
1F
100
AcDbEntity
  8
AM_8
100
AcDbLine
 10
4531.352288558517
 20
6643.377140023964
 30
0.0
 11
4539.390764331417
 21
6613.377140023963
 31
0.0
  0
LINE
  5
269B
330
1F
100
AcDbEntity
  8
AM_8
100
AcDbLine
 10
4478.672796634217
 20
6573.377140023964
 30
0.0
 11
4486.711272407116
 21
6543.377140023963
 31
0.0
  0
LINE
  5
269C
330
1F
100
AcDbEntity
  8
AM_8
100
AcDbLine
 10
4528.672796634217
 20
6573.377140023964
 30
0.0
 11
4536.711272407116
 21
6543.377140023963
 31
0.0
  0
LINE
  5
269D
330
1F
100
AcDbEntity
  8
AM_8
100
AcDbLine
 10
4520.634320861216
 20
6543.377140023963
 30
0.0
 11
4547.429240104317
 21
6643.377140023964
 31
0.0
  0
LINE
  5
269E
330
1F
100
AcDbEntity
  8
AM_8
100
AcDbLine
 10
4570.634320861216
 20
6543.377140023963
 30
0.0
 11
4597.429240104317
 21
6643.377140023964
 31
0.0
  0
LINE
  5
269F
330
1F
100
AcDbEntity
  8
AM_8
100
AcDbLine
 10
4578.672796634218
 20
6573.377140023964
 30
0.0
 11
4586.711272407117
 21
6543.377140023963
 31
0.0
  0
LINE
  5
26A0
330
1F
100
AcDbEntity
  8
AM_7
100
AcDbLine
 10
4713.941481021717
 20
6715.437140023964
 30
0.0
 11
4713.941481021717
 21
7871.317140023963
 31
0.0
1001
GENIUS_GENOBJ-N-CEN_13
1002
{
1000
OWNER
1000
GEN
1002
}
1001
GENIUS_GENODEF_13
1002
{
1000
HIER
1070
     0
1002
}
1002
{
1000
MANEDIT
1070
     0
1002
}
1002
{
1000
NOSEL
1070
     0
1002
}
1002
{
1000
BEHIND
1070
     0
1002
}
1002
{
1000
OTHER
1070
     0
1002
}
1002
{
1000
REACTOR
1002
}
  0
LINE
  5
26A1
330
1F
100
AcDbEntity
  8
1
  6
Continuous
 62
     7
100
AcDbLine
 10
4638.941481021717
 20
7660.377140023964
 30
0.0
 11
4638.941481021717
 21
7093.377140023964
 31
0.0
  0
LINE
  5
26B3
330
1F
100
AcDbEntity
  8
1
  6
Continuous
 62
     7
100
AcDbLine
 10
4513.941481021717
 20
7043.377140023963
 30
0.0
 11
4513.941481021717
 21
6643.377140023964
 31
0.0
  0
LINE
  5
26B4
330
1F
100
AcDbEntity
  8
1
  6
Continuous
 62
     7
100
AcDbLine
 10
4913.941481021717
 20
6643.377140023964
 30
0.0
 11
4913.941481021717
 21
7043.377140023963
 31
0.0
  0
LINE
  5
26B5
330
1F
100
AcDbEntity
  8
1
  6
Continuous
 62
     7
100
AcDbLine
 10
4633.941481021717
 20
6743.377140023963
 30
0.0
 11
4793.941481021717
 21
6743.377140023963
 31
0.0
  0
LINE
  5
26B6
330
1F
100
AcDbEntity
  8
1
  6
Continuous
 62
     7
100
AcDbLine
 10
4633.941481021717
 20
7093.377140023964
 30
0.0
 11
4633.941481021717
 21
6743.377140023963
 31
0.0
  0
LINE
  5
26B7
330
1F
100
AcDbEntity
  8
1
  6
Continuous
 62
     7
100
AcDbLine
 10
4793.941481021717
 20
6743.377140023963
 30
0.0
 11
4793.941481021717
 21
7093.377140023964
 31
0.0
  0
ARC
  5
26B8
330
1F
100
AcDbEntity
  8
1
  6
Continuous
 62
     7
100
AcDbCircle
 10
4713.941481021717
 20
7768.377140023964
 30
0.0
 40
75.0
100
AcDbArc
 50
0.0
 51
180.0
  0
ARC
  5
26B9
330
1F
100
AcDbEntity
  8
1
  6
Continuous
 62
     7
100
AcDbCircle
 10
4785.941481021717
 20
7660.377140023964
 30
0.0
 40
3.0
100
AcDbArc
 50
0.0
 51
99.59406822690551
  0
ARC
  5
26BA
330
1F
100
AcDbEntity
  8
1
  6
Continuous
 62
     7
100
AcDbCircle
 10
4785.941481021717
 20
7690.377140023963
 30
0.0
 40
3.0
100
AcDbArc
 50
0.0
 51
90.0
  0
ARC
  5
26BB
330
1F
100
AcDbEntity
  8
1
  6
Continuous
 62
     7
100
AcDbCircle
 10
4785.941481021717
 20
7676.377140023963
 30
0.0
 40
3.0
100
AcDbArc
 50
270.0
 51
0.0
  0
ARC
  5
26BC
330
1F
100
AcDbEntity
  8
1
  6
Continuous
 62
     7
100
AcDbCircle
 10
4785.941481021717
 20
7736.377140023964
 30
0.0
 40
3.0
100
AcDbArc
 50
270.0
 51
0.0
  0
ARC
  5
26BD
330
1F
100
AcDbEntity
  8
1
  6
Continuous
 62
     7
100
AcDbCircle
 10
4785.941481021717
 20
7720.377140023964
 30
0.0
 40
3.0
100
AcDbArc
 50
0.0
 51
90.0
  0
ARC
  5
26BE
330
1F
100
AcDbEntity
  8
1
  6
Continuous
 62
     7
100
AcDbCircle
 10
4785.941481021717
 20
7706.377140023964
 30
0.0
 40
3.0
100
AcDbArc
 50
270.0
 51
0.0
  0
ARC
  5
26BF
330
1F
100
AcDbEntity
  8
1
  6
Continuous
 62
     7
100
AcDbCircle
 10
4784.941481021717
 20
7670.377140023965
 30
0.0
 40
3.0
100
AcDbArc
 50
90.0
 51
180.0
  0
ARC
  5
26C0
330
1F
100
AcDbEntity
  8
1
  6
Continuous
 62
     7
100
AcDbCircle
 10
4784.941481021717
 20
7666.293219807063
 30
0.0
 40
3.0
100
AcDbArc
 50
180.0
 51
279.5940682269055
  0
LINE
  5
26C1
330
1F
100
AcDbEntity
  8
1
  6
Continuous
 62
     7
100
AcDbLine
 10
4781.941481021717
 20
7670.377140023965
 30
0.0
 11
4781.941481021717
 21
7666.293219807063
 31
0.0
  0
ARC
  5
26C2
330
1F
100
AcDbEntity
  8
1
  6
Continuous
 62
     7
100
AcDbCircle
 10
4784.941481021717
 20
7730.377140023964
 30
0.0
 40
3.0
100
AcDbArc
 50
90.0
 51
180.0
  0
ARC
  5
26C3
330
1F
100
AcDbEntity
  8
1
  6
Continuous
 62
     7
100
AcDbCircle
 10
4784.941481021717
 20
7700.377140023964
 30
0.0
 40
3.0
100
AcDbArc
 50
90.0
 51
180.0
  0
LINE
  5
26C4
330
1F
100
AcDbEntity
  8
1
  6
Continuous
 62
     7
100
AcDbLine
 10
4781.941481021717
 20
7700.377140023964
 30
0.0
 11
4781.941481021717
 21
7696.377140023964
 31
0.0
  0
ARC
  5
26C5
330
1F
100
AcDbEntity
  8
1
  6
Continuous
 62
     7
100
AcDbCircle
 10
4784.941481021717
 20
7696.377140023964
 30
0.0
 40
3.0
100
AcDbArc
 50
180.0
 51
270.0
  0
LINE
  5
26C6
330
1F
100
AcDbEntity
  8
1
  6
Continuous
 62
     7
100
AcDbLine
 10
4781.941481021717
 20
7730.377140023964
 30
0.0
 11
4781.941481021717
 21
7726.377140023963
 31
0.0
  0
ARC
  5
26C7
330
1F
100
AcDbEntity
  8
1
  6
Continuous
 62
     7
100
AcDbCircle
 10
4784.941481021717
 20
7726.377140023963
 30
0.0
 40
3.0
100
AcDbArc
 50
180.0
 51
270.0
  0
LINE
  5
26C8
330
1F
100
AcDbEntity
  8
1
  6
Continuous
 62
     7
100
AcDbLine
 10
4788.941481021717
 20
7690.377140023963
 30
0.0
 11
4788.941481021717
 21
7676.377140023963
 31
0.0
  0
LINE
  5
26C9
330
1F
100
AcDbEntity
  8
1
  6
Continuous
 62
     7
100
AcDbLine
 10
4788.941481021717
 20
7720.377140023964
 30
0.0
 11
4788.941481021717
 21
7706.377140023964
 31
0.0
  0
ARC
  5
26CA
330
1F
100
AcDbEntity
  8
1
  6
Continuous
 62
     7
100
AcDbCircle
 10
4642.941481021717
 20
7670.377140023965
 30
0.0
 40
3.0
100
AcDbArc
 50
0.0
 51
90.0
  0
ARC
  5
26CB
330
1F
100
AcDbEntity
  8
1
  6
Continuous
 62
     7
100
AcDbCircle
 10
4641.941481021717
 20
7676.377140023963
 30
0.0
 40
3.0
100
AcDbArc
 50
180.0
 51
270.0
  0
ARC
  5
26CC
330
1F
100
AcDbEntity
  8
1
  6
Continuous
 62
     7
100
AcDbCircle
 10
4642.941481021717
 20
7666.377140023964
 30
0.0
 40
3.0
100
AcDbArc
 50
270.0
 51
0.0
  0
ARC
  5
26CD
330
1F
100
AcDbEntity
  8
1
  6
Continuous
 62
     7
100
AcDbCircle
 10
4641.941481021717
 20
7660.377140023964
 30
0.0
 40
3.0
100
AcDbArc
 50
90.0
 51
180.0
  0
LINE
  5
26CE
330
1F
100
AcDbEntity
  8
1
  6
Continuous
 62
     7
100
AcDbLine
 10
4645.941481021718
 20
7666.377140023964
 30
0.0
 11
4645.941481021718
 21
7670.377140023965
 31
0.0
  0
ARC
  5
26CF
330
1F
100
AcDbEntity
  8
1
  6
Continuous
 62
     7
100
AcDbCircle
 10
4642.941481021717
 20
7730.377140023964
 30
0.0
 40
3.0
100
AcDbArc
 50
0.0
 51
90.0
  0
ARC
  5
26D0
330
1F
100
AcDbEntity
  8
1
  6
Continuous
 62
     7
100
AcDbCircle
 10
4641.941481021717
 20
7736.377140023964
 30
0.0
 40
3.0
100
AcDbArc
 50
180.0
 51
270.0
  0
ARC
  5
26D1
330
1F
100
AcDbEntity
  8
1
  6
Continuous
 62
     7
100
AcDbCircle
 10
4642.941481021717
 20
7700.377140023964
 30
0.0
 40
3.0
100
AcDbArc
 50
0.0
 51
90.0
  0
ARC
  5
26D2
330
1F
100
AcDbEntity
  8
1
  6
Continuous
 62
     7
100
AcDbCircle
 10
4642.941481021717
 20
7696.377140023964
 30
0.0
 40
3.0
100
AcDbArc
 50
270.0
 51
0.0
  0
LINE
  5
26D3
330
1F
100
AcDbEntity
  8
1
  6
Continuous
 62
     7
100
AcDbLine
 10
4645.941481021718
 20
7696.377140023964
 30
0.0
 11
4645.941481021718
 21
7700.377140023964
 31
0.0
  0
LINE
  5
26D4
330
1F
100
AcDbEntity
  8
1
  6
Continuous
 62
     7
100
AcDbLine
 10
4638.941481021717
 20
7676.377140023963
 30
0.0
 11
4638.941481021717
 21
7690.377140023963
 31
0.0
  0
ARC
  5
26D5
330
1F
100
AcDbEntity
  8
1
  6
Continuous
 62
     7
100
AcDbCircle
 10
4641.941481021717
 20
7690.377140023963
 30
0.0
 40
3.0
100
AcDbArc
 50
90.0
 51
180.0
  0
ARC
  5
26D6
330
1F
100
AcDbEntity
  8
1
  6
Continuous
 62
     7
100
AcDbCircle
 10
4642.941481021717
 20
7726.377140023963
 30
0.0
 40
3.0
100
AcDbArc
 50
270.0
 51
0.0
  0
LINE
  5
26D7
330
1F
100
AcDbEntity
  8
1
  6
Continuous
 62
     7
100
AcDbLine
 10
4645.941481021718
 20
7726.377140023963
 30
0.0
 11
4645.941481021718
 21
7730.377140023964
 31
0.0
  0
ARC
  5
26D8
330
1F
100
AcDbEntity
  8
1
  6
Continuous
 62
     7
100
AcDbCircle
 10
4641.941481021717
 20
7706.377140023964
 30
0.0
 40
3.0
100
AcDbArc
 50
180.0
 51
270.0
  0
LINE
  5
26D9
330
1F
100
AcDbEntity
  8
1
  6
Continuous
 62
     7
100
AcDbLine
 10
4638.941481021717
 20
7706.377140023964
 30
0.0
 11
4638.941481021717
 21
7720.377140023964
 31
0.0
  0
ARC
  5
26DA
330
1F
100
AcDbEntity
  8
1
  6
Continuous
 62
     7
100
AcDbCircle
 10
4641.941481021717
 20
7720.377140023964
 30
0.0
 40
3.0
100
AcDbArc
 50
90.0
 51
180.0
  0
LINE
  5
26DB
330
1F
100
AcDbEntity
  8
1
  6
Continuous
 62
     7
100
AcDbLine
 10
4785.941481021717
 20
7663.377140023964
 30
0.0
 11
4641.941481021717
 21
7663.377140023964
 31
0.0
  0
LINE
  5
26DC
330
1F
100
AcDbEntity
  8
1
  6
Continuous
 62
     7
100
AcDbLine
 10
4785.941481021717
 20
7733.377140023964
 30
0.0
 11
4641.941481021717
 21
7733.377140023964
 31
0.0
  0
LINE
  5
26DD
330
1F
100
AcDbEntity
  8
1
  6
Continuous
 62
     7
100
AcDbLine
 10
4785.941481021717
 20
7723.377140023965
 30
0.0
 11
4641.941481021717
 21
7723.377140023965
 31
0.0
  0
LINE
  5
26DE
330
1F
100
AcDbEntity
  8
1
  6
Continuous
 62
     7
100
AcDbLine
 10
4785.941481021717
 20
7703.377140023964
 30
0.0
 11
4641.941481021717
 21
7703.377140023964
 31
0.0
  0
LINE
  5
26DF
330
1F
100
AcDbEntity
  8
1
  6
Continuous
 62
     7
100
AcDbLine
 10
4785.941481021717
 20
7693.377140023963
 30
0.0
 11
4641.941481021717
 21
7693.377140023963
 31
0.0
  0
LINE
  5
26E0
330
1F
100
AcDbEntity
  8
1
  6
Continuous
 62
     7
100
AcDbLine
 10
4785.941481021717
 20
7673.377140023965
 30
0.0
 11
4641.941481021717
 21
7673.377140023965
 31
0.0
  0
LINE
  5
26E1
330
1F
100
AcDbEntity
  8
1
  6
Continuous
 62
     7
100
AcDbLine
 10
4638.941481021717
 20
7736.377140023964
 30
0.0
 11
4638.941481021717
 21
7768.377140023964
 31
0.0
  0
LINE
  5
26E2
330
1F
100
AcDbEntity
  8
1
  6
Continuous
 62
     7
100
AcDbLine
 10
4788.941481021717
 20
7736.377140023964
 30
0.0
 11
4788.941481021717
 21
7768.377140023964
 31
0.0
  0
LINE
  5
26F5
330
1F
100
AcDbEntity
  8
1
  6
Continuous
 62
     7
100
AcDbLine
 10
4638.941481021717
 20
7123.377140023965
 30
0.0
 11
4788.941481021717
 21
7123.377140023965
 31
0.0
  0
LINE
  5
26F6
330
1F
100
AcDbEntity
  8
1
  6
Continuous
 62
     7
100
AcDbLine
 10
4633.941481021717
 20
7093.377140023964
 30
0.0
 11
4793.941481021717
 21
7093.377140023964
 31
0.0
  0
LINE
  5
26F8
330
1F
100
AcDbEntity
  8
1
  6
Continuous
 62
     7
100
AcDbLine
 10
4713.941481021717
 20
7663.377140023964
 30
0.0
 11
4713.941481021717
 21
7647.627140023963
 31
0.0
  0
LINE
  5
26F9
330
1F
100
AcDbEntity
  8
1
  6
Continuous
 62
     7
100
AcDbLine
 10
4778.893386305617
 20
7663.377140023964
 30
0.0
 11
4778.893386305617
 21
7123.377140023965
 31
0.0
  0
LINE
  5
26FA
330
1F
100
AcDbEntity
  8
1
  6
Continuous
 62
     7
100
AcDbLine
 10
4751.441481021717
 20
7663.377140023964
 30
0.0
 11
4751.441481021717
 21
7123.377140023965
 31
0.0
  0
LINE
  5
26FB
330
1F
100
AcDbEntity
  8
1
  6
Continuous
 62
     7
100
AcDbLine
 10
4676.441481021718
 20
7663.377140023964
 30
0.0
 11
4676.441481021718
 21
7123.377140023965
 31
0.0
  0
LINE
  5
26FC
330
1F
100
AcDbEntity
  8
1
  6
Continuous
 62
     7
100
AcDbLine
 10
4648.989575737917
 20
7663.377140023964
 30
0.0
 11
4648.989575737917
 21
7123.377140023965
 31
0.0
  0
LINE
  5
26FD
330
1F
100
AcDbEntity
  8
1
  6
Continuous
 62
     7
100
AcDbLine
 10
4788.941481021717
 20
7660.377140023964
 30
0.0
 11
4788.941481021717
 21
7093.377140023964
 31
0.0
  0
LINE
  5
26FE
330
1F
100
AcDbEntity
  8
AM_8
100
AcDbLine
 10
4470.634320861217
 20
6543.377140023963
 30
0.0
 11
4497.429240104318
 21
6643.377140023964
 31
0.0
  0
LINE
  5
26FF
330
1F
100
AcDbEntity
  8
1
  6
Continuous
 62
     7
100
AcDbLine
 10
4463.941481021717
 20
6643.377140023964
 30
0.0
 11
4463.941481021717
 21
6543.377140023963
 31
0.0
  0
LINE
  5
2700
330
1F
100
AcDbEntity
  8
1
  6
Continuous
 62
     7
100
AcDbLine
 10
4463.941481021717
 20
6543.377140023963
 30
0.0
 11
4963.941481021717
 21
6543.377140023963
 31
0.0
  0
LINE
  5
2701
330
1F
100
AcDbEntity
  8
1
  6
Continuous
 62
     7
100
AcDbLine
 10
4463.941481021717
 20
6643.377140023964
 30
0.0
 11
4963.941481021717
 21
6643.377140023964
 31
0.0
  0
CIRCLE
  5
275A
330
1F
100
AcDbEntity
  8
1
100
AcDbCircle
 10
4713.941481021717
 20
7613.377140023963
 30
0.0
 40
25.75
  0
CIRCLE
  5
275B
330
1F
100
AcDbEntity
  8
1
100
AcDbCircle
 10
4713.941481021699
 20
7613.377140023978
 30
0.0
 40
34.24999999998544
  0
LINE
  5
275C
330
1F
100
AcDbEntity
  8
7
100
AcDbLine
 10
4768.191481021683
 20
7613.377140023949
 30
0.0
 11
4659.691481021714
 21
7613.377140023949
 31
0.0
  0
CIRCLE
  5
275D
330
1F
100
AcDbEntity
  8
1
100
AcDbCircle
 10
4713.941481021699
 20
7413.377140023993
 30
0.0
 40
34.24999999998544
  0
CIRCLE
  5
275E
330
1F
100
AcDbEntity
  8
1
100
AcDbCircle
 10
4713.941481021717
 20
7413.377140023978
 30
0.0
 40
25.75
  0
LINE
  5
275F
330
1F
100
AcDbEntity
  8
7
100
AcDbLine
 10
4768.191481021683
 20
7413.377140023964
 30
0.0
 11
4659.691481021714
 21
7413.377140023964
 31
0.0
  0
LINE
  5
2760
330
1F
100
AcDbEntity
  8
1
  6
Continuous
 62
     7
100
AcDbLine
 10
4713.941481021717
 20
7579.127140023993
 30
0.0
 11
4713.941481021717
 21
7447.627140023978
 31
0.0
  0
LINE
  5
2761
330
1F
100
AcDbEntity
  8
1
  6
Continuous
 62
     7
100
AcDbLine
 10
4713.941481021717
 20
7379.127140024007
 30
0.0
 11
4713.941481021717
 21
7123.377140023965
 31
0.0
  0
LINE
  5
27CF
330
1F
100
AcDbEntity
  8
1
  6
Continuous
 62
     7
100
AcDbLine
 10
4444.466993906416
 20
7043.377140023963
 30
0.0
 11
4475.103057635917
 21
7012.741076294464
 31
0.0
  0
LINE
  5
27D0
330
1F
100
AcDbEntity
  8
1
  6
Continuous
 62
     7
100
AcDbLine
 10
4485.315078879117
 20
7043.377140023963
 30
0.0
 11
4464.891036392717
 21
7022.953097537663
 31
0.0
  0
LINE
  5
27D1
330
1F
100
AcDbEntity
  8
1
  6
Continuous
 62
     7
100
AcDbLine
 10
4434.254972663217
 20
7033.165118780764
 30
0.0
 11
4454.679015149517
 21
7012.741076294464
 31
0.0
  0
LINE
  5
27D2
330
1F
100
AcDbEntity
  8
1
  6
Continuous
 62
     7
100
AcDbLine
 10
4505.739121365417
 20
7043.377140023963
 30
0.0
 11
4475.103057635917
 21
7012.741076294464
 31
0.0
  0
LINE
  5
27D3
330
1F
100
AcDbEntity
  8
1
  6
Continuous
 62
     7
100
AcDbLine
 10
4444.466993906416
 20
7043.377140023963
 30
0.0
 11
4420.382281201416
 21
7019.292427319064
 31
0.0
  0
LINE
  5
27D4
330
1F
100
AcDbEntity
  8
1
  6
Continuous
 62
     7
100
AcDbLine
 10
4424.042951420016
 20
7022.953097537663
 30
0.0
 11
4434.254972663217
 21
7012.741076294464
 31
0.0
  0
LINE
  5
27D5
330
1F
100
AcDbEntity
  8
1
  6
Continuous
 62
     7
100
AcDbLine
 10
4464.891036392717
 20
7043.377140023963
 30
0.0
 11
4454.679015149517
 21
7033.165118780764
 31
0.0
  0
LINE
  5
27D6
330
1F
100
AcDbEntity
  8
1
  6
Continuous
 62
     7
100
AcDbLine
 10
4424.042951420016
 20
7043.377140023963
 30
0.0
 11
4420.382281201416
 21
7039.716469805364
 31
0.0
  0
LINE
  5
27D7
330
1F
100
AcDbEntity
  8
1
  6
Continuous
 62
     7
100
AcDbLine
 10
4633.941481021717
 20
7043.377140023963
 30
0.0
 11
4420.382281201416
 21
7043.377140023963
 31
0.0
  0
LINE
  5
27D8
330
1F
100
AcDbEntity
  8
1
  6
Continuous
 62
     7
100
AcDbLine
 10
4495.527100122317
 20
7033.165118780764
 30
0.0
 11
4513.992216220816
 21
7014.700002682264
 31
0.0
  0
LINE
  5
27D9
330
1F
100
AcDbEntity
  8
1
  6
Continuous
 62
     7
100
AcDbLine
 10
4485.315078879117
 20
7022.953097537663
 30
0.0
 11
4495.527100122317
 21
7012.741076294464
 31
0.0
  0
LINE
  5
27DA
330
1F
100
AcDbEntity
  8
1
  6
Continuous
 62
     7
100
AcDbLine
 10
4505.739121365417
 20
7043.377140023963
 30
0.0
 11
4513.992216220816
 21
7035.124045168564
 31
0.0
  0
INSERT
  5
27DF
330
1F
100
AcDbEntity
  8
AM_5
100
AcDbBlockReference
  2
*S29
 10
0.0
 20
0.0
 30
0.0
1001
ACAD
1000
AcRTDxfName
1000
AMDTNOTE
  0
INSERT
  5
27E2
330
1F
100
AcDbEntity
  8
AM_5
100
AcDbBlockReference
  2
*S30
 10
0.0
 20
0.0
 30
0.0
1001
ACAD
1000
AcRTDxfName
1000
AMDTNOTE
  0
CIRCLE
  5
2800
330
1F
100
AcDbEntity
  8
0
100
AcDbCircle
 10
4122.264916152707
 20
5862.409939546913
 30
0.0
 40
49.99999998900193
  0
LINE
  5
2801
330
1F
100
AcDbEntity
  8
0
100
AcDbLine
 10
4169.142869735543
 20
5879.801243890914
 30
0.0
 11
4075.386962569871
 21
5879.801243890914
 31
0.0
  0
TEXT
  5
2802
330
1F
100
AcDbEntity
  8
0
100
AcDbText
 10
4110.007801151229
 20
5882.172659263268
 30
0.0
 40
25.00000000000096
  1
藤
 72
     4
 11
4121.674467817896
 21
5894.672659263269
 31
0.0
100
AcDbText
  0
TEXT
  5
2803
330
1F
100
AcDbEntity
  8
0
100
AcDbText
 10
4111.591782950731
 20
5815.849680934018
 30
0.0
 40
25.00000000000096
  1
繁
 72
     4
 11
4123.258449617398
 21
5828.349680934019
 31
0.0
100
AcDbText
  0
LINE
  5
2804
330
1F
100
AcDbEntity
  8
0
100
AcDbLine
 10
4169.142869735543
 20
5845.018635202912
 30
0.0
 11
4075.386962569871
 21
5845.018635202912
 31
0.0
  0
ENDSEC
  0
SECTION
  2
OBJECTS
  0
DICTIONARY
  5
C
330
0
100
AcDbDictionary
281
     1
  3
ACAD_COLOR
350
22E4
  3
ACAD_GROUP
350
D
  3
ACAD_LAYOUT
350
1A
  3
ACAD_MATERIAL
350
22E3
  3
ACAD_MLINESTYLE
350
17
  3
ACAD_PLOTSETTINGS
350
19
  3
ACAD_PLOTSTYLENAME
350
E
  3
AcDbVariableDictionary
350
43
  3
AcmDictionary
350
55
  3
AMG
350
2B
  3
AMGSNAPSETTINGS
350
A8
  0
DICTIONARY
  5
2357
330
2
100
AcDbDictionary
280
     1
281
     1
  3
ACAD_LAYERSTATES
360
2358
  0
DICTIONARY
  5
B1
330
1F
100
AcDbDictionary
280
     1
281
     1
  3
ACAD_INDEX
360
27E5
  0
DICTIONARY
  5
22E4
102
{ACAD_REACTORS
330
C
102
}
330
C
100
AcDbDictionary
281
     1
  0
DICTIONARY
  5
D
102
{ACAD_REACTORS
330
C
102
}
330
C
100
AcDbDictionary
281
     1
  0
DICTIONARY
  5
1A
102
{ACAD_REACTORS
330
C
102
}
330
C
100
AcDbDictionary
281
     1
  3
Model
350
22
  3
ﾚｲｱｳﾄ1
350
1E
  3
ﾚｲｱｳﾄ2
350
26
  0
DICTIONARY
  5
22E3
102
{ACAD_REACTORS
330
C
102
}
330
C
100
AcDbDictionary
281
     1
  0
DICTIONARY
  5
17
102
{ACAD_REACTORS
330
C
102
}
330
C
100
AcDbDictionary
281
     1
  3
Standard
350
18
  0
DICTIONARY
  5
19
102
{ACAD_REACTORS
330
C
102
}
330
C
100
AcDbDictionary
281
     1
  0
ACDBDICTIONARYWDFLT
  5
E
102
{ACAD_REACTORS
330
C
102
}
330
C
100
AcDbDictionary
281
     1
  3
Normal
350
F
100
AcDbDictionaryWithDefault
340
F
  0
DICTIONARY
  5
43
102
{ACAD_REACTORS
330
C
102
}
330
C
100
AcDbDictionary
281
     1
  3
DIMASSOC
350
2841
  3
INDEXCTL
350
44
  3
PROJECTNAME
350
2842
  3
SORTENTS
350
2840
  0
DICTIONARY
  5
55
102
{ACAD_REACTORS
330
C
102
}
330
C
100
AcDbDictionary
281
     1
  3
AcmBOM
350
3D1
  3
AcmStdDictionary
350
59
  3
AMDTSECTSYM_ARROWCOLOR
350
22EB
  0
DICTIONARY
  5
2B
102
{ACAD_REACTORS
330
C
102
}
330
C
100
AcDbDictionary
281
     1
  0
DICTIONARY
  5
A8
102
{ACAD_REACTORS
330
C
102
}
330
C
100
AcDbDictionary
281
     1
  0
DICTIONARY
  5
2358
102
{ACAD_REACTORS
330
2357
102
}
330
2357
100
AcDbDictionary
281
     1
  0
DICTIONARY
  5
27E5
102
{ACAD_REACTORS
330
B1
102
}
330
B1
100
AcDbDictionary
281
     1
  3
*A1
350
27E6
  0
LAYOUT
  5
22
102
{ACAD_REACTORS
330
1A
102
}
330
1A
100
AcDbPlotSettings
  1

  2
Kyocera KM-C2520(J) KX
  4
A3
  6
AM_VIEW1
 40
4.984749794006347
 41
5.111746788024902
 42
5.154083251953125
 43
4.9847412109375
 44
297.0106506347656
 45
419.9889831542968
 46
4.94
 47
12.45
 48
0.0
 49
0.0
140
0.0
141
0.0
142
1.0
143
10.0
 70
 11940
 72
     1
 73
     1
 74
     2
  7
KY-monochrome.ctb
 75
     0
147
0.1
 76
     0
 77
     2
 78
   300
148
-1207.067451982857
149
-5683.229976402643
100
AcDbLayout
  1
Model
 70
     1
 71
     0
 10
0.0
 20
0.0
 11
12.0
 21
9.0
 12
0.0
 22
0.0
 32
0.0
 14
0.0
 24
0.0
 34
0.0
 15
0.0
 25
0.0
 35
0.0
146
0.0
 13
0.0
 23
0.0
 33
0.0
 16
1.0
 26
0.0
 36
0.0
 17
0.0
 27
1.0
 37
0.0
 76
     0
330
1F
  0
LAYOUT
  5
1E
102
{ACAD_REACTORS
330
1A
102
}
330
1A
100
AcDbPlotSettings
  1

  2
MUTOH RL-803C(ﾌﾟﾛｯﾀﾓｰﾄﾞ)
  4

  6

 40
0.0
 41
0.0
 42
0.0
 43
0.0
 44
0.0
 45
0.0
 46
0.0
 47
0.0
 48
0.0
 49
0.0
140
0.0
141
0.0
142
1.0
143
1.0
 70
   688
 72
     0
 73
     0
 74
     5
  7
KY-monochrome.ctb
 75
    16
147
1.0
 76
     0
 77
     2
 78
   300
148
0.0
149
0.0
100
AcDbLayout
  1
ﾚｲｱｳﾄ1
 70
     1
 71
     1
 10
0.0
 20
0.0
 11
420.0
 21
297.0
 12
0.0
 22
0.0
 32
0.0
 14
1.000000000000000E+20
 24
1.000000000000000E+20
 34
1.000000000000000E+20
 15
-1.000000000000000E+20
 25
-1.000000000000000E+20
 35
-1.000000000000000E+20
146
0.0
 13
0.0
 23
0.0
 33
0.0
 16
1.0
 26
0.0
 36
0.0
 17
0.0
 27
1.0
 37
0.0
 76
     0
330
1B
  0
LAYOUT
  5
26
102
{ACAD_REACTORS
330
1A
102
}
330
1A
100
AcDbPlotSettings
  1

  2
MUTOH RL-803C(ﾌﾟﾛｯﾀﾓｰﾄﾞ)
  4

  6

 40
0.0
 41
0.0
 42
0.0
 43
0.0
 44
0.0
 45
0.0
 46
0.0
 47
0.0
 48
0.0
 49
0.0
140
0.0
141
0.0
142
1.0
143
1.0
 70
   688
 72
     0
 73
     0
 74
     5
  7
KY-monochrome.ctb
 75
    16
147
1.0
 76
     0
 77
     2
 78
   300
148
0.0
149
0.0
100
AcDbLayout
  1
ﾚｲｱｳﾄ2
 70
     1
 71
     2
 10
0.0
 20
0.0
 11
12.0
 21
9.0
 12
0.0
 22
0.0
 32
0.0
 14
0.0
 24
0.0
 34
0.0
 15
0.0
 25
0.0
 35
0.0
146
0.0
 13
0.0
 23
0.0
 33
0.0
 16
1.0
 26
0.0
 36
0.0
 17
0.0
 27
1.0
 37
0.0
 76
     0
330
23
  0
MLINESTYLE
  5
18
102
{ACAD_REACTORS
330
17
102
}
330
17
100
AcDbMlineStyle
  2
STANDARD
 70
     0
  3

 62
   256
 51
90.0
 52
90.0
 71
     2
 49
0.5
 62
   256
  6
BYLAYER
 49
-0.5
 62
   256
  6
BYLAYER
  0
ACDBPLACEHOLDER
  5
F
102
{ACAD_REACTORS
330
E
102
}
330
E
  0
DICTIONARYVAR
  5
2841
102
{ACAD_REACTORS
330
43
102
}
330
43
100
DictionaryVariables
280
     0
  1
1
  0
DICTIONARYVAR
  5
44
102
{ACAD_REACTORS
330
43
102
}
330
43
100
DictionaryVariables
280
     0
  1
1
  0
DICTIONARYVAR
  5
2842
102
{ACAD_REACTORS
330
43
102
}
330
43
100
DictionaryVariables
280
     0
  1

  0
DICTIONARYVAR
  5
2840
102
{ACAD_REACTORS
330
43
102
}
330
43
100
DictionaryVariables
280
     0
  1
103
  0
DICTIONARY
  5
3D1
102
{ACAD_REACTORS
330
55
102
}
330
55
100
AcDbDictionary
281
     1
  0
DICTIONARY
  5
59
102
{ACAD_REACTORS
330
55
102
}
330
55
100
AcDbDictionary
281
     1
  0
XRECORD
  5
22EB
102
{ACAD_REACTORS
330
55
102
}
330
55
100
AcDbXrecord
280
     1
 90
-1023410169
  0
LAYER_INDEX
  5
27E6
102
{ACAD_REACTORS
330
27E5
102
}
330
27E5
100
AcDbIndex
 40
2454718.717439595
100
AcDbLayerIndex
  8
0
360
27E7
 90
       95
  8
RAHM2
360
27E8
 90
        0
  8
AM_BOR
360
27E9
 90
        0
  8
RAHM3
360
27EA
 90
        0
  8
1
360
27EB
 90
      277
  8
DEFPOINTS
360
27EC
 90
        0
  8
7A
360
27ED
 90
        0
  8
AM_5
360
27EE
 90
       22
  8
AM_4
360
27EF
 90
        2
  8
AM_7
360
27F0
 90
        8
  8
AM_8
360
27F1
 90
       96
  8
7AN
360
27F2
 90
        2
  8
4N
360
27F3
 90
        4
  8
7
360
27F4
 90
        3
  8
4
360
27F5
 90
        2
  8
8
360
27F6
 90
        2
  8
6
360
27F7
 90
        1
  8
3
360
27F8
 90
        2
  8
4A
360
27F9
 90
        4
  8
3AN
360
27FA
 90
       18
  8
TEXT
360
27FB
 90
        1
  8
AM_CL
360
27FC
 90
        0
  8
0N
360
27FD
 90
        0
  0
IDBUFFER
  5
27E7
330
0
100
AcDbIdBuffer
330
E57
330
E58
330
103D
330
103E
330
10A9
330
10AB
330
10AC
330
10AD
330
10AE
330
10AF
330
10B0
330
10B1
330
10C9
330
10CA
330
10CB
330
10CC
330
10CD
330
10CE
330
10CF
330
1364
330
1368
330
1C9E
330
1C9F
330
1CA0
330
1CA1
330
1CA2
330
1CA3
330
1CA4
330
1CA5
330
1CD0
330
1CD1
330
1CD2
330
1CD3
330
1CD4
330
1CD5
330
1CD6
330
1CD7
330
1CF0
330
1CF1
330
1CFA
330
1E6D
330
1E6E
330
1E6F
330
1E70
330
1E71
330
1E72
330
1E73
330
1E74
330
1E75
330
1E76
330
1E78
330
1E79
330
1E7A
330
1E7B
330
1E7C
330
1E7D
330
1EC9
330
1ECA
330
1ECB
330
1ECC
330
1ECD
330
1ECE
330
1ECF
330
1ED0
330
1ED1
330
1ED2
330
1ED3
330
1ED4
330
1ED5
330
1ED6
330
1ED7
330
1ED8
330
2012
330
2013
330
2014
330
2015
330
2016
330
2017
330
2018
330
2019
330
201A
330
201B
330
201C
330
201E
330
201F
330
2021
330
2022
330
2287
330
2288
330
22BA
330
2800
330
2801
330
2802
330
2803
330
2804
  0
IDBUFFER
  5
27E8
330
0
100
AcDbIdBuffer
  0
IDBUFFER
  5
27E9
330
0
100
AcDbIdBuffer
  0
IDBUFFER
  5
27EA
330
0
100
AcDbIdBuffer
  0
IDBUFFER
  5
27EB
330
0
100
AcDbIdBuffer
330
1034
330
1036
330
109E
330
10B2
330
10B5
330
10B6
330
10C0
330
10C1
330
10C2
330
10C3
330
10C4
330
10C5
330
10C6
330
18A9
330
18AA
330
18AD
330
18B6
330
18B7
330
18BA
330
18BB
330
18BC
330
18BD
330
18BE
330
18BF
330
18D5
330
18D6
330
18DE
330
18DF
330
18E4
330
18F4
330
18F5
330
18F6
330
1901
330
1905
330
1906
330
1907
330
1908
330
1909
330
190A
330
190D
330
192F
330
1930
330
1931
330
1932
330
1933
330
1934
330
1935
330
1936
330
1937
330
1938
330
1939
330
193A
330
193B
330
193C
330
193D
330
193E
330
193F
330
1940
330
195E
330
1963
330
1964
330
1965
330
1966
330
1967
330
1968
330
1969
330
196A
330
196B
330
196C
330
196D
330
196E
330
196F
330
1970
330
1971
330
1972
330
1974
330
1977
330
1978
330
1C7C
330
1C9C
330
1C9D
330
1CCF
330
1CD8
330
1CD9
330
1CDC
330
1E1E
330
1E1F
330
1E21
330
1E22
330
1E23
330
1E24
330
1E27
330
1E28
330
1E29
330
1E31
330
1E32
330
1E33
330
1E63
330
1E64
330
1E65
330
1E66
330
1E67
330
1E68
330
1E69
330
1E6A
330
1E6B
330
1E6C
330
1E77
330
1E7E
330
1E7F
330
1E80
330
1E81
330
1E82
330
1E83
330
1E84
330
1E85
330
1E86
330
1E87
330
1E88
330
1E89
330
1E8A
330
1E8B
330
1E8C
330
1E8D
330
1E8E
330
1E8F
330
1E90
330
1E91
330
1E92
330
1E93
330
1E94
330
1E95
330
1E96
330
1E97
330
1E98
330
1E99
330
1E9A
330
1E9B
330
1E9C
330
1E9D
330
1E9E
330
1E9F
330
1EA0
330
1EA1
330
1EA2
330
1EA3
330
1EA4
330
1EA5
330
1EA6
330
1EA7
330
1EA8
330
1EA9
330
1EAA
330
1EAB
330
1EAE
330
1EB9
330
1ED9
330
1EDA
330
1EDB
330
1EDC
330
1EDD
330
1EDE
330
1EEC
330
1EEE
330
1EF0
330
1EF7
330
1F0E
330
1F0F
330
1F10
330
1F11
330
1F12
330
1F13
330
1F14
330
1F15
330
1F16
330
1F17
330
1F18
330
1F19
330
1F1A
330
200C
330
200D
330
200E
330
200F
330
2010
330
201D
330
2020
330
2675
330
2677
330
2678
330
2679
330
267A
330
267B
330
267C
330
267D
330
267E
330
267F
330
2680
330
2681
330
2698
330
26A1
330
26B3
330
26B4
330
26B5
330
26B6
330
26B7
330
26B8
330
26B9
330
26BA
330
26BB
330
26BC
330
26BD
330
26BE
330
26BF
330
26C0
330
26C1
330
26C2
330
26C3
330
26C4
330
26C5
330
26C6
330
26C7
330
26C8
330
26C9
330
26CA
330
26CB
330
26CC
330
26CD
330
26CE
330
26CF
330
26D0
330
26D1
330
26D2
330
26D3
330
26D4
330
26D5
330
26D6
330
26D7
330
26D8
330
26D9
330
26DA
330
26DB
330
26DC
330
26DD
330
26DE
330
26DF
330
26E0
330
26E1
330
26E2
330
26F5
330
26F6
330
26F8
330
26F9
330
26FA
330
26FB
330
26FC
330
26FD
330
26FF
330
2700
330
2701
330
275A
330
275B
330
275D
330
275E
330
2760
330
2761
330
27CF
330
27D0
330
27D1
330
27D2
330
27D3
330
27D4
330
27D5
330
27D6
330
27D7
330
27D8
330
27D9
330
27DA
  0
IDBUFFER
  5
27EC
330
0
100
AcDbIdBuffer
  0
IDBUFFER
  5
27ED
330
0
100
AcDbIdBuffer
  0
IDBUFFER
  5
27EE
330
0
100
AcDbIdBuffer
330
1D02
330
1D4B
330
1D85
330
1DB6
330
1DEC
330
1F65
330
2080
330
20B1
330
20F2
330
211A
330
2136
330
2155
330
2186
330
21A5
330
21D6
330
2200
330
2228
330
224B
330
224E
330
225F
330
27DF
330
27E2
  0
IDBUFFER
  5
27EF
330
0
100
AcDbIdBuffer
330
1F55
330
2023
  0
IDBUFFER
  5
27F0
330
0
100
AcDbIdBuffer
330
1C2A
330
1EEB
330
1F62
330
1F63
330
1FD0
330
200A
330
2011
330
26A0
  0
IDBUFFER
  5
27F1
330
0
100
AcDbIdBuffer
330
18AE
330
18C1
330
18C2
330
18C3
330
18C4
330
18C5
330
18C6
330
18C7
330
18C8
330
18C9
330
18CC
330
18CD
330
18CE
330
18CF
330
18D0
330
18D1
330
18D2
330
18D3
330
18D4
330
18E0
330
18E8
330
18E9
330
18EA
330
18EB
330
18EF
330
18F0
330
18F1
330
18F2
330
198C
330
19AD
330
1EED
330
1EEF
330
1EF1
330
1EF2
330
1EF3
330
1EF4
330
1EF5
330
1EF6
330
1EF8
330
1EF9
330
1EFA
330
1EFB
330
1EFC
330
1EFD
330
1EFE
330
1EFF
330
1F00
330
1F01
330
1F02
330
1F03
330
1F04
330
1F05
330
1F06
330
1F07
330
1F08
330
1F09
330
1F0A
330
1F0B
330
1F0C
330
1F0D
330
1F87
330
1FB6
330
2299
330
22AA
330
22CD
330
2674
330
2682
330
2683
330
2684
330
2685
330
2686
330
2687
330
2688
330
2689
330
268A
330
268B
330
268C
330
268D
330
268E
330
268F
330
2690
330
2691
330
2692
330
2693
330
2694
330
2695
330
2696
330
2697
330
2699
330
269A
330
269B
330
269C
330
269D
330
269E
330
269F
330
26FE
  0
IDBUFFER
  5
27F2
330
0
100
AcDbIdBuffer
330
103B
330
10D0
  0
IDBUFFER
  5
27F3
330
0
100
AcDbIdBuffer
330
10B3
330
10B4
330
1E2A
330
1E34
  0
IDBUFFER
  5
27F4
330
0
100
AcDbIdBuffer
330
10C7
330
275C
330
275F
  0
IDBUFFER
  5
27F5
330
0
100
AcDbIdBuffer
330
FD3
330
FE4
  0
IDBUFFER
  5
27F6
330
0
100
AcDbIdBuffer
330
E56
330
103C
  0
IDBUFFER
  5
27F7
330
0
100
AcDbIdBuffer
330
100F
  0
IDBUFFER
  5
27F8
330
0
100
AcDbIdBuffer
330
1035
330
1E20
  0
IDBUFFER
  5
27F9
330
0
100
AcDbIdBuffer
330
103A
330
10A8
330
10AA
330
10C8
  0
IDBUFFER
  5
27FA
330
0
100
AcDbIdBuffer
330
10B7
330
10B8
330
10B9
330
10BA
330
10BB
330
10BC
330
10BD
330
10BE
330
10BF
330
1E25
330
1E26
330
1E2B
330
1E2C
330
1E2D
330
1E2E
330
1E2F
330
1E30
330
1E35
  0
IDBUFFER
  5
27FB
330
0
100
AcDbIdBuffer
330
2360
  0
IDBUFFER
  5
27FC
330
0
100
AcDbIdBuffer
  0
IDBUFFER
  5
27FD
330
0
100
AcDbIdBuffer
  0
ENDSEC
  0
EOF
