  0
SECTION
  2
HEADER
  9
$ACADVER
  1
AC1018
  9
$ACADMAINTVER
 70
     2
  9
$DWGCODEPAGE
  3
ANSI_932
  9
$CUSTOMPROPERTYTAG
  1
AmdtFileType
  9
$CUSTOMPROPERTY
  1
84
  9
$INSBASE
 10
0.0
 20
0.0
 30
0.0
  9
$EXTMIN
 10
3530.296745333017
 20
167.5773010866796
 30
0.0
  9
$EXTMAX
 10
5015.296745333017
 20
2267.57730108668
 30
260.0
  9
$LIMMIN
 10
2915.296745333017
 20
167.5773010866796
  9
$LIMMAX
 10
5015.296745333017
 20
1652.577301086679
  9
$ORTHOMODE
 70
     0
  9
$REGENMODE
 70
     1
  9
$FILLMODE
 70
     1
  9
$QTEXTMODE
 70
     0
  9
$MIRRTEXT
 70
     1
  9
$LTSCALE
 40
5.0
  9
$ATTMODE
 70
     1
  9
$TEXTSIZE
 40
2.5
  9
$TRACEWID
 40
1.0
  9
$TEXTSTYLE
  7
STANDARD
  9
$CLAYER
  8
0
  9
$CELTYPE
  6
ByLayer
  9
$CECOLOR
 62
   256
  9
$CELTSCALE
 40
1.0
  9
$DISPSILH
 70
     0
  9
$DIMSCALE
 40
5.0
  9
$DIMASZ
 40
2.5
  9
$DIMEXO
 40
1.0
  9
$DIMDLI
 40
10.0
  9
$DIMRND
 40
0.0
  9
$DIMDLE
 40
0.0
  9
$DIMEXE
 40
1.0
  9
$DIMTP
 40
0.1
  9
$DIMTM
 40
0.1
  9
$DIMTXT
 40
4.5
  9
$DIMCEN
 40
0.0
  9
$DIMTSZ
 40
0.0
  9
$DIMTOL
 70
     0
  9
$DIMLIM
 70
     0
  9
$DIMTIH
 70
     0
  9
$DIMTOH
 70
     0
  9
$DIMSE1
 70
     0
  9
$DIMSE2
 70
     0
  9
$DIMTAD
 70
     3
  9
$DIMZIN
 70
     8
  9
$DIMBLK
  1
Open30
  9
$DIMASO
 70
     1
  9
$DIMSHO
 70
     1
  9
$DIMPOST
  1

  9
$DIMAPOST
  1
"
  9
$DIMALT
 70
     0
  9
$DIMALTD
 70
     2
  9
$DIMALTF
 40
0.0393701
  9
$DIMLFAC
 40
1.0
  9
$DIMTOFL
 70
     1
  9
$DIMTVP
 40
0.0
  9
$DIMTIX
 70
     0
  9
$DIMSOXD
 70
     0
  9
$DIMSAH
 70
     0
  9
$DIMBLK1
  1

  9
$DIMBLK2
  1

  9
$DIMSTYLE
  2
IGS
  9
$DIMCLRD
 70
   256
  9
$DIMCLRE
 70
   256
  9
$DIMCLRT
 70
     2
  9
$DIMTFAC
 40
0.71
  9
$DIMGAP
 40
1.5
  9
$DIMJUST
 70
     0
  9
$DIMSD1
 70
     0
  9
$DIMSD2
 70
     0
  9
$DIMTOLJ
 70
     0
  9
$DIMTZIN
 70
     8
  9
$DIMALTZ
 70
     0
  9
$DIMALTTZ
 70
     0
  9
$DIMUPT
 70
     0
  9
$DIMDEC
 70
     2
  9
$DIMTDEC
 70
     2
  9
$DIMALTU
 70
     2
  9
$DIMALTTD
 70
     2
  9
$DIMTXSTY
  7
STANDARD
  9
$DIMAUNIT
 70
     0
  9
$DIMADEC
 70
     0
  9
$DIMALTRND
 40
0.0
  9
$DIMAZIN
 70
     2
  9
$DIMDSEP
 70
    46
  9
$DIMATFIT
 70
     3
  9
$DIMFRAC
 70
     0
  9
$DIMLDRBLK
  1
Open30
  9
$DIMLUNIT
 70
     2
  9
$DIMLWD
 70
    -1
  9
$DIMLWE
 70
    -1
  9
$DIMTMOVE
 70
     0
  9
$LUNITS
 70
     2
  9
$LUPREC
 70
     2
  9
$SKETCHINC
 40
1.0
  9
$FILLETRAD
 40
0.0
  9
$AUNITS
 70
     0
  9
$AUPREC
 70
     0
  9
$MENU
  1
.
  9
$ELEVATION
 40
0.0
  9
$PELEVATION
 40
0.0
  9
$THICKNESS
 40
0.0
  9
$LIMCHECK
 70
     0
  9
$CHAMFERA
 40
12.5
  9
$CHAMFERB
 40
12.5
  9
$CHAMFERC
 40
20.0
  9
$CHAMFERD
 40
0.0
  9
$SKPOLY
 70
     0
  9
$TDCREATE
 40
2453565.358821609
  9
$TDUCREATE
 40
2453564.983821609
  9
$TDUPDATE
 40
2454714.736253253
  9
$TDUUPDATE
 40
2454714.361253252
  9
$TDINDWG
 40
0.0163733565
  9
$TDUSRTIMER
 40
0.0163731713
  9
$USRTIMER
 70
     1
  9
$ANGBASE
 50
0.0
  9
$ANGDIR
 70
     0
  9
$PDMODE
 70
     0
  9
$PDSIZE
 40
0.0
  9
$PLINEWID
 40
0.0
  9
$SPLFRAME
 70
     0
  9
$SPLINETYPE
 70
     6
  9
$SPLINESEGS
 70
     8
  9
$HANDSEED
  5
168C
  9
$SURFTAB1
 70
     6
  9
$SURFTAB2
 70
     6
  9
$SURFTYPE
 70
     6
  9
$SURFU
 70
     6
  9
$SURFV
 70
     6
  9
$UCSBASE
  2

  9
$UCSNAME
  2

  9
$UCSORG
 10
0.0
 20
0.0
 30
0.0
  9
$UCSXDIR
 10
1.0
 20
0.0
 30
0.0
  9
$UCSYDIR
 10
0.0
 20
1.0
 30
0.0
  9
$UCSORTHOREF
  2

  9
$UCSORTHOVIEW
 70
     0
  9
$UCSORGTOP
 10
0.0
 20
0.0
 30
0.0
  9
$UCSORGBOTTOM
 10
0.0
 20
0.0
 30
0.0
  9
$UCSORGLEFT
 10
0.0
 20
0.0
 30
0.0
  9
$UCSORGRIGHT
 10
0.0
 20
0.0
 30
0.0
  9
$UCSORGFRONT
 10
0.0
 20
0.0
 30
0.0
  9
$UCSORGBACK
 10
0.0
 20
0.0
 30
0.0
  9
$PUCSBASE
  2

  9
$PUCSNAME
  2

  9
$PUCSORG
 10
0.0
 20
0.0
 30
0.0
  9
$PUCSXDIR
 10
1.0
 20
0.0
 30
0.0
  9
$PUCSYDIR
 10
0.0
 20
1.0
 30
0.0
  9
$PUCSORTHOREF
  2

  9
$PUCSORTHOVIEW
 70
     0
  9
$PUCSORGTOP
 10
0.0
 20
0.0
 30
0.0
  9
$PUCSORGBOTTOM
 10
0.0
 20
0.0
 30
0.0
  9
$PUCSORGLEFT
 10
0.0
 20
0.0
 30
0.0
  9
$PUCSORGRIGHT
 10
0.0
 20
0.0
 30
0.0
  9
$PUCSORGFRONT
 10
0.0
 20
0.0
 30
0.0
  9
$PUCSORGBACK
 10
0.0
 20
0.0
 30
0.0
  9
$USERI1
 70
     0
  9
$USERI2
 70
     0
  9
$USERI3
 70
     0
  9
$USERI4
 70
     0
  9
$USERI5
 70
     0
  9
$USERR1
 40
0.0
  9
$USERR2
 40
0.0
  9
$USERR3
 40
0.0
  9
$USERR4
 40
0.0
  9
$USERR5
 40
0.0
  9
$WORLDVIEW
 70
     1
  9
$SHADEDGE
 70
     3
  9
$SHADEDIF
 70
    70
  9
$TILEMODE
 70
     1
  9
$MAXACTVP
 70
    64
  9
$PINSBASE
 10
0.0
 20
0.0
 30
0.0
  9
$PLIMCHECK
 70
     0
  9
$PEXTMIN
 10
1.000000000000000E+20
 20
1.000000000000000E+20
 30
1.000000000000000E+20
  9
$PEXTMAX
 10
-1.000000000000000E+20
 20
-1.000000000000000E+20
 30
-1.000000000000000E+20
  9
$PLIMMIN
 10
0.0
 20
0.0
  9
$PLIMMAX
 10
420.0
 20
297.0
  9
$UNITMODE
 70
     0
  9
$VISRETAIN
 70
     1
  9
$PLINEGEN
 70
     0
  9
$PSLTSCALE
 70
     1
  9
$TREEDEPTH
 70
  3020
  9
$CMLSTYLE
  2
Standard
  9
$CMLJUST
 70
     0
  9
$CMLSCALE
 40
20.0
  9
$PROXYGRAPHICS
 70
     1
  9
$MEASUREMENT
 70
     1
  9
$CELWEIGHT
370
    -1
  9
$ENDCAPS
280
     0
  9
$JOINSTYLE
280
     0
  9
$LWDISPLAY
290
     0
  9
$INSUNITS
 70
     4
  9
$HYPERLINKBASE
  1

  9
$STYLESHEET
  1
monochrome.ctb
  9
$XEDIT
290
     1
  9
$CEPSNTYPE
380
     0
  9
$PSTYLEMODE
290
     1
  9
$FINGERPRINTGUID
  2
{A179640A-E7AE-11D4-BDB4-00B0D0A1239A}
  9
$VERSIONGUID
  2
{83DA28DB-9CFD-47F2-BC22-0E9AA996DD81}
  9
$EXTNAMES
290
     1
  9
$PSVPSCALE
 40
0.0
  9
$OLESTARTUP
290
     0
  9
$SORTENTS
280
   103
  9
$INDEXCTL
280
     1
  9
$HIDETEXT
280
     0
  9
$XCLIPFRAME
290
     0
  9
$HALOGAP
280
     0
  9
$OBSCOLOR
 70
   257
  9
$OBSLTYPE
280
     0
  9
$INTERSECTIONDISPLAY
280
     0
  9
$INTERSECTIONCOLOR
 70
   257
  9
$DIMASSOC
280
     1
  9
$PROJECTNAME
  1

  0
ENDSEC
  0
SECTION
  2
CLASSES
  0
CLASS
  1
ACDBDICTIONARYWDFLT
  2
AcDbDictionaryWithDefault
  3
ObjectDBX Classes
 90
        0
 91
        1
280
     0
281
     0
  0
CLASS
  1
AMGSETTINGSOBJ
  2
AmgSettingsObj
  3
"AcadM|Product Description: AutoCAD Mechanical 2000|Company: Autodesk"
 90
        0
 91
        4
280
     0
281
     0
  0
CLASS
  1
AMGOBJPROPCFG
  2
AmgObjPropCfg
  3
"AmgLay|Product Description: AutoCAD Mechanical 2000|Company: Autodesk"
 90
        1
 91
        1
280
     0
281
     0
  0
CLASS
  1
ACME_DOCUMENT
  2
AcMeDbDoc
  3
AcMeServices
 90
        0
 91
        2
280
     0
281
     0
  0
CLASS
  1
ACMESCOPE
  2
AcMeScope
  3
AcMeServices
 90
        0
 91
        1
280
     0
281
     0
  0
CLASS
  1
ACMECOMMANDHISTORY
  2
AcMeCommandHistory
  3
AcMeServices
 90
        0
 91
        1
280
     0
281
     0
  0
CLASS
  1
DICTIONARYVAR
  2
AcDbDictionaryVar
  3
ObjectDBX Classes
 90
        0
 91
        2
280
     0
281
     0
  0
CLASS
  1
ACIMSYSVARMAN
  2
AcImSysVarManager
  3
AcMeServices
 90
        0
 91
        5
280
     0
281
     0
  0
CLASS
  1
ACIMREALSYSVAR
  2
AcImRealSysVar
  3
AcMeServices
 90
        0
 91
        3
280
     0
281
     0
  0
CLASS
  1
ACIMINTSYSVAR
  2
AcImIntSysVar
  3
AcMeServices
 90
        0
 91
       26
280
     0
281
     0
  0
CLASS
  1
ACMEDRAWINGMAN
  2
AcMeDrawingMan
  3
AcMeServices
 90
        0
 91
        1
280
     0
281
     0
  0
CLASS
  1
ACMEVIEW
  2
AcMeView
  3
AcMeServices
 90
        0
 91
        1
280
     0
281
     0
  0
CLASS
  1
ACDBENTITYCACHE
  2
AcMeEntityCache
  3
AcMeServices
 90
        0
 91
        1
280
     0
281
     0
  0
CLASS
  1
GSMANAGER
  2
AcMeGSManager
  3
AcMeServices
 90
        0
 91
        1
280
     0
281
     0
  0
CLASS
  1
AMDTINTERNALREACTOR
  2
AmdtInternalReactor
  3
AcMeServices
 90
        0
 91
        5
280
     0
281
     0
  0
CLASS
  1
ACMESTATEMGR
  2
AcMeStateMgr
  3
AcMeServices
 90
        0
 91
        1
280
     0
281
     0
  0
CLASS
  1
ACGREFMASTER
  2
AcGrefMaster
  3
AcAttribServices
 90
        0
 91
        1
280
     0
281
     0
  0
CLASS
  1
ACME_DATABASE
  2
AcMeDbDatabase
  3
AcMeServices
 90
        0
 91
        1
280
     0
281
     0
  0
CLASS
  1
ACRFINSADJUSTERMGR
  2
AcRfInsAdjusterMgr
  3
AcMeServices
 90
        0
 91
        1
280
     0
281
     0
  0
CLASS
  1
ACGREFACADMASTER
  2
AcGrefacadMaster
  3
AcGrefServices
 90
        0
 91
        1
280
     0
281
     0
  0
CLASS
  1
AMIMASTER
  2
AmiMaster
  3
AmiServices
 90
        0
 91
        1
280
     0
281
     0
  0
CLASS
  1
ACMDATADICTIONARY
  2
AcmDataDictionary
  3
"AcmSymBB|Product Description: AutoCAD Mechanical 2004 DX|Company: Autodesk"
 90
        0
 91
        1
280
     0
281
     0
  0
CLASS
  1
ACMDATAENTRYBLOCK
  2
AcmDataEntryBlock
  3
"AcmSymBB|Product Description: AutoCAD Mechanical 2004 DX|Company: Autodesk"
 90
        0
 91
        1
280
     0
281
     0
  0
CLASS
  1
ACMSTANDARDJIS
  2
AcmStandardJIS
  3
"Amdt_StdImp|Product Description: AutoCAD Mechanical 2004 DX|Company: Autodesk"
 90
        0
 91
        1
280
     0
281
     0
  0
CLASS
  1
ACMSURFSTANDARDJIS
  2
AcmSurfTextStdJIS
  3
"Amdt_StdImp|Product Description: AutoCAD Mechanical 2004 DX|Company: Autodesk"
 90
        0
 91
        1
280
     0
281
     0
  0
CLASS
  1
ACMFCFSTANDARDJIS
  2
AcmFCFStdJIS
  3
"Amdt_StdImp|Product Description: AutoCAD Mechanical 2004 DX|Company: Autodesk"
 90
        0
 91
        1
280
     0
281
     0
  0
CLASS
  1
ACMWELDSTANDARDJIS
  2
AcmWeldingStdJIS
  3
"Amdt_StdImp|Product Description: AutoCAD Mechanical 2004 DX|Company: Autodesk"
 90
        0
 91
        1
280
     0
281
     0
  0
CLASS
  1
ACMIDSTANDARDJIS
  2
AcmIdStdJIS
  3
"Amdt_StdImp|Product Description: AutoCAD Mechanical 2004 DX|Company: Autodesk"
 90
        0
 91
        1
280
     0
281
     0
  0
CLASS
  1
ACMDATUMSTANDARDJIS
  2
AcmDatumStdJIS
  3
"Amdt_StdImp|Product Description: AutoCAD Mechanical 2004 DX|Company: Autodesk"
 90
        0
 91
        1
280
     0
281
     0
  0
CLASS
  1
ACMBOMSTANDARDJIS
  2
AcmBOMStdJIS
  3
"Amdt_StdImp|Product Description: AutoCAD Mechanical 2004 DX|Company: Autodesk"
 90
        0
 91
        1
280
     0
281
     0
  0
CLASS
  1
ACMDETAILSTANDARDJIS
  2
AmdtDetailSymStdJIS
  3
"Amdt_StdImp|Product Description: AutoCAD Mechanical 2004 DX|Company: Autodesk"
 90
        0
 91
        1
280
     0
281
     0
  0
CLASS
  1
ACMSECTIONSTANDARDJIS
  2
AmdtSectionSymStdJIS
  3
"Amdt_StdImp|Product Description: AutoCAD Mechanical 2004 DX|Company: Autodesk"
 90
        0
 91
        1
280
     0
281
     0
  0
CLASS
  1
ACMCENTERLINESTANDARDJIS
  2
AmdtCenterLineStdJIS
  3
"Amdt_StdImp|Product Description: AutoCAD Mechanical 2004 DX|Company: Autodesk"
 90
        0
 91
        1
280
     0
281
     0
  0
CLASS
  1
ACAMGLAYSTD
  2
AcAmgLayStd
  3
"AcAmgLayStd|Product Description: AutoCAD Mechanical 2000|Company: Autodesk"
 90
        0
 91
        3
280
     0
281
     0
  0
CLASS
  1
ACAMGDIMSTD
  2
AcAmgDimStd
  3
"AcAmgDimStd|Product Description: AutoCAD Mechanical 2000|Company: Autodesk"
 90
        0
 91
        3
280
     0
281
     0
  0
CLASS
  1
ACAMGTITLESTD
  2
AcAmgTitleStd
  3
"TITLEAPP"
 90
        0
 91
        3
280
     0
281
     0
  0
CLASS
  1
ACMSTANDARDISO
  2
AcmStandardISO
  3
"Amdt_StdImp|Product Description: AutoCAD Mechanical 2004 DX|Company: Autodesk"
 90
        0
 91
        1
280
     0
281
     0
  0
CLASS
  1
AMDTEDGESTANDARDISO
  2
AmdtEdgeStdISO
  3
"Amdt_StdImp|Product Description: AutoCAD Mechanical 2004 DX|Company: Autodesk"
 90
        0
 91
        1
280
     0
281
     0
  0
CLASS
  1
ACMSURFSTANDARDISO
  2
AcmSurfTextStdISO
  3
"Amdt_StdImp|Product Description: AutoCAD Mechanical 2004 DX|Company: Autodesk"
 90
        0
 91
        1
280
     0
281
     0
  0
CLASS
  1
ACMFCFSTANDARDISO
  2
AcmFCFStdISO
  3
"Amdt_StdImp|Product Description: AutoCAD Mechanical 2004 DX|Company: Autodesk"
 90
        0
 91
        1
280
     0
281
     0
  0
CLASS
  1
ACMWELDSTANDARDISO
  2
AcmWeldingStdISO
  3
"Amdt_StdImp|Product Description: AutoCAD Mechanical 2004 DX|Company: Autodesk"
 90
        0
 91
        1
280
     0
281
     0
  0
CLASS
  1
ACMIDSTANDARDISO
  2
AcmIdStdISO
  3
"Amdt_StdImp|Product Description: AutoCAD Mechanical 2004 DX|Company: Autodesk"
 90
        0
 91
        1
280
     0
281
     0
  0
CLASS
  1
ACMDATUMSTANDARDISO
  2
AcmDatumStdISO
  3
"Amdt_StdImp|Product Description: AutoCAD Mechanical 2004 DX|Company: Autodesk"
 90
        0
 91
        1
280
     0
281
     0
  0
CLASS
  1
ACMBOMSTANDARDISO
  2
AcmBOMStdISO
  3
"Amdt_StdImp|Product Description: AutoCAD Mechanical 2004 DX|Company: Autodesk"
 90
        0
 91
        1
280
     0
281
     0
  0
CLASS
  1
ACMDETAILSTANDARDISO
  2
AmdtDetailSymStdISO
  3
"Amdt_StdImp|Product Description: AutoCAD Mechanical 2004 DX|Company: Autodesk"
 90
        0
 91
        1
280
     0
281
     0
  0
CLASS
  1
ACMSECTIONSTANDARDISO
  2
AmdtSectionSymStdISO
  3
"Amdt_StdImp|Product Description: AutoCAD Mechanical 2004 DX|Company: Autodesk"
 90
        0
 91
        1
280
     0
281
     0
  0
CLASS
  1
ACMCENTERLINESTANDARDISO
  2
AmdtCenterLineStdISO
  3
"Amdt_StdImp|Product Description: AutoCAD Mechanical 2004 DX|Company: Autodesk"
 90
        0
 91
        1
280
     0
281
     0
  0
CLASS
  1
ACIMSTRSYSVAR
  2
AcImStrSysVar
  3
AcMeServices
 90
        0
 91
        5
280
     0
281
     0
  0
CLASS
  1
ACAMGFILTERDAT
  2
AcAmgFilterDat
  3
"AcadM|Product Description: AutoCAD Mechanical 2000|Company: Autodesk"
 90
        0
 91
        6
280
     0
281
     0
  0
CLASS
  1
LAYER_INDEX
  2
AcDbLayerIndex
  3
ObjectDBX Classes
 90
        0
 91
        1
280
     0
281
     0
  0
CLASS
  1
IDBUFFER
  2
AcDbIdBuffer
  3
ObjectDBX Classes
 90
        0
 91
       18
280
     0
281
     0
  0
CLASS
  1
AMDTFORMULAUPDATEDISPATCHER
  2
AmdtFormulaUpdateDispatcher
  3
AcMeServices
 90
        0
 91
        1
280
     0
281
     0
  0
CLASS
  1
ACMDATAENTRYPART
  2
AcmDataEntryPart
  3
"AcmSymBB|Product Description: AutoCAD Mechanical 2004 DX|Company: Autodesk"
 90
        0
 91
        1
280
     0
281
     0
  0
CLASS
  1
ACMPARTREF
  2
AcmPartRef
  3
"AcmSymBB|Product Description: AutoCAD Mechanical 2004 DX|Company: Autodesk"
 90
     1023
 91
        1
280
     0
281
     1
  0
CLASS
  1
ACMDATAENTRY
  2
AcmDataEntry
  3
"AcmSymBB|Product Description: AutoCAD Mechanical 2004 DX|Company: Autodesk"
 90
        0
 91
        4
280
     0
281
     0
  0
CLASS
  1
ACMBOM
  2
AcmBom
  3
"AcmSymBB|Product Description: AutoCAD Mechanical 2004 DX|Company: Autodesk"
 90
        0
 91
        1
280
     0
281
     0
  0
CLASS
  1
ACMBOMROW
  2
AcmBomRow
  3
"AcmSymBB|Product Description: AutoCAD Mechanical 2004 DX|Company: Autodesk"
 90
        0
 91
        1
280
     0
281
     0
  0
CLASS
  1
ACMBALLOON
  2
AcmBalloon
  3
"AcmSymBB|Product Description: AutoCAD Mechanical 2004 DX|Company: Autodesk"
 90
     1023
 91
        1
280
     0
281
     1
  0
CLASS
  1
ACMPARTLIST
  2
AcmPartList
  3
"AcmSymBB|Product Description: AutoCAD Mechanical 2004 DX|Company: Autodesk"
 90
     1023
 91
        1
280
     0
281
     1
  0
CLASS
  1
ACDBLINERES
  2
AcDbLineRes
  3
AcGrefServices
 90
        0
 91
        2
280
     0
281
     0
  0
CLASS
  1
ACRFINSADJ
  2
AcRfInsAdjuster
  3
AcMeServices
 90
        0
 91
        1
280
     0
281
     0
  0
CLASS
  1
STDPART2D
  2
AmgStdPart
  3
"AmgStdPart|Product Description: AutoCAD Mechanical 2000|Company: Autodesk"
 90
     1023
 91
        0
280
     0
281
     1
  0
CLASS
  1
ACDBSTDPARTRES_ARC
  2
AcDbStdPartRes_Arc
  3
"AcDbStdPartRes_Arc|Product Description: AutoCAD Mechanical 2000|Company: Autodesk"
 90
        0
 91
        0
280
     0
281
     0
  0
CLASS
  1
ACMPICKOBJ
  2
AcmPickEnt
  3
"AcmSymBB|Product Description: AutoCAD Mechanical 2004 DX|Company: Autodesk"
 90
        0
 91
        0
280
     0
281
     1
  0
CLASS
  1
ACDBSTDPARTRES_LINE
  2
AcDbStdPartRes_Line
  3
"AcDbStdPartRes_Line|Product Description: AutoCAD Mechanical 2000|Company: Autodesk"
 90
        0
 91
        0
280
     0
281
     0
  0
CLASS
  1
AM_DRAWING_MGR
  2
AcDmDwgMgr
  3
AcMechDwgViewMgmt
 90
        0
 91
        1
280
     0
281
     0
  0
CLASS
  1
AM_DWG_DOCUMENT
  2
AcDmDwgDocument
  3
AcMechDwgViewMgmt
 90
        0
 91
        1
280
     0
281
     0
  0
CLASS
  1
AM_DWG_SHEET
  2
AcDmSheet
  3
AcMechDwgViewMgmt
 90
        0
 91
        2
280
     0
281
     0
  0
CLASS
  1
AM_VIEWDIMPARMAP
  2
AcDmViewDimParMap
  3
AcMechDwgViewMgmt
 90
        0
 91
        2
280
     0
281
     0
  0
CLASS
  1
AM_DWGMGR_NAME
  2
AcDmDwgMgrName
  3
AcMechDwgViewMgmt
 90
        0
 91
        1
280
     0
281
     0
  0
CLASS
  1
AMDTMENUSTATEMGR
  2
AmdtMenuStateMgr
  3
McadcomServices
 90
        0
 91
        1
280
     0
281
     0
  0
CLASS
  1
AMDTMCOMMENUSTATE
  2
AmdtMcomMenuState
  3
McadcomServices
 90
        0
 91
        1
280
     0
281
     0
  0
CLASS
  1
MAPIAMMOUDLE
  2
MApiAmModule
  3
MApiAmServices
 90
        0
 91
        1
280
     0
281
     0
  0
CLASS
  1
AMDTADMENUSTATE
  2
AmdtAdMenuState
  3
DesignerServices
 90
        0
 91
        1
280
     0
281
     0
  0
CLASS
  1
ADAPPL
  2
AcAdAppl
  3
DesignerServices
 90
        0
 91
        1
280
     0
281
     0
  0
CLASS
  1
DEPMGR
  2
AcAdDepMgr
  3
DesignerServices
 90
        0
 91
        1
280
     0
281
     0
  0
CLASS
  1
PARAMMGR
  2
AcAdParamMgr
  3
DesignerServices
 90
        0
 91
        1
280
     0
281
     0
  0
CLASS
  1
PARAMSCOPE
  2
AcAdParamScope
  3
DesignerServices
 90
        0
 91
        1
280
     0
281
     0
  0
CLASS
  1
NAMEDAPPL
  2
AcAdNamedAppl
  3
DesignerServices
 90
        0
 91
        1
280
     0
281
     0
  0
CLASS
  1
AMDTDMMENUSTATE
  2
AmdtDmMenuState
  3
AcMechDwgViewMgmt
 90
        0
 91
        1
280
     0
281
     0
  0
CLASS
  1
AMDTAMMENUSTATE
  2
AmdtAmMenuState
  3
DesignerAssemblies
 90
        0
 91
        1
280
     0
281
     0
  0
CLASS
  1
ACAMPROJECT
  2
AcAmProject
  3
DesignerAssemblies
 90
        0
 91
        1
280
     0
281
     0
  0
CLASS
  1
ACAMGRCOMPDEF
  2
AcAmGrCompDef
  3
DesignerAssemblies
 90
        0
 91
        1
280
     0
281
     0
  0
CLASS
  1
ACCMCONTEXT
  2
AcCmContext
  3
DesignerAssemblies
 90
        0
 91
        1
280
     0
281
     0
  0
CLASS
  1
ACAMCOMPDEF
  2
AcAmCompDef
  3
DesignerAssemblies
 90
        0
 91
        1
280
     0
281
     0
  0
CLASS
  1
ACAMCOMPDEFMGR
  2
AcAmCompDefMgr
  3
DesignerAssemblies
 90
        0
 91
        1
280
     0
281
     0
  0
CLASS
  1
AMCONTEXTMGR
  2
AcAmContextMgr
  3
DesignerAssemblies
 90
        0
 91
        1
280
     0
281
     0
  0
CLASS
  1
ACAMCONTEXTMODELER
  2
AcAmContextModeler
  3
DesignerAssemblies
 90
        0
 91
        1
280
     0
281
     0
  0
CLASS
  1
ACMTHREADLINESTANDARDJIS
  2
AmdtThreadLineStdJIS
  3
"Amdt_StdImp|Product Description: AutoCAD Mechanical 2004 DX|Company: Autodesk"
 90
        0
 91
        1
280
     0
281
     0
  0
CLASS
  1
ACMNOTESTANDARDJIS
  2
AmdtNoteStdJIS
  3
"Amdt_StdImp|Product Description: AutoCAD Mechanical 2004 DX|Company: Autodesk"
 90
        0
 91
        1
280
     0
281
     0
  0
CLASS
  1
AMDTNOTETEMPLATEDB
  2
AmdtNoteTemplateDB
  3
AMDT_STDIMP_MODULE_NAME
 90
        0
 91
       12
280
     0
281
     0
  0
CLASS
  1
ACMTHREADLINESTANDARDISO
  2
AmdtThreadLineStdISO
  3
"Amdt_StdImp|Product Description: AutoCAD Mechanical 2004 DX|Company: Autodesk"
 90
        0
 91
        1
280
     0
281
     0
  0
CLASS
  1
ACMNOTESTANDARDISO
  2
AmdtNoteStdISO
  3
"Amdt_StdImp|Product Description: AutoCAD Mechanical 2004 DX|Company: Autodesk"
 90
        0
 91
        1
280
     0
281
     0
  0
CLASS
  1
CATALOGSTATE
  2
AcAmCatalogState
  3
DesignerAssemblies
 90
        0
 91
        1
280
     0
281
     0
  0
CLASS
  1
ACAMGRCOMPDEFSET
  2
AcAmGrCompDefSet
  3
DesignerAssemblies
 90
        0
 91
        1
280
     0
281
     0
  0
CLASS
  1
AMDTBROWSERDBTAB
  2
AmdtBrowserDbTab
  3
McadcomServices
 90
        0
 91
        1
280
     0
281
     0
  0
CLASS
  1
CBROWSERAPPOBJECT
  2
CBrowserAppObject
  3
McadcomServices
 90
        0
 91
        3
280
     0
281
     0
  0
CLASS
  1
DM_PLACEHOLDER
  2
AcDmSelsetPlaceholder
  3
AcMechDwgViewMgmt
 90
        0
 91
        1
280
     0
281
     0
  0
CLASS
  1
ACMSTANDARDANSI
  2
AcmStandardANSI
  3
"Amdt_StdImp|Product Description: AutoCAD Mechanical 2004 DX|Company: Autodesk"
 90
        0
 91
        1
280
     0
281
     0
  0
CLASS
  1
ACMSURFSTANDARDANSI
  2
AcmSurfTextStdANSI
  3
"Amdt_StdImp|Product Description: AutoCAD Mechanical 2004 DX|Company: Autodesk"
 90
        0
 91
        1
280
     0
281
     0
  0
CLASS
  1
ACMFCFSTANDARDANSI
  2
AcmFCFStdANSI
  3
"Amdt_StdImp|Product Description: AutoCAD Mechanical 2004 DX|Company: Autodesk"
 90
        0
 91
        1
280
     0
281
     0
  0
CLASS
  1
ACMWELDSTANDARDANSI
  2
AcmWeldingStdANSI
  3
"Amdt_StdImp|Product Description: AutoCAD Mechanical 2004 DX|Company: Autodesk"
 90
        0
 91
        1
280
     0
281
     0
  0
CLASS
  1
ACMIDSTANDARDANSI
  2
AcmIdStdANSI
  3
"Amdt_StdImp|Product Description: AutoCAD Mechanical 2004 DX|Company: Autodesk"
 90
        0
 91
        1
280
     0
281
     0
  0
CLASS
  1
ACMDATUMSTANDARDANSI
  2
AcmDatumStdANSI
  3
"Amdt_StdImp|Product Description: AutoCAD Mechanical 2004 DX|Company: Autodesk"
 90
        0
 91
        1
280
     0
281
     0
  0
CLASS
  1
ACMBOMSTANDARDANSI
  2
AcmBOMStdANSI
  3
"Amdt_StdImp|Product Description: AutoCAD Mechanical 2004 DX|Company: Autodesk"
 90
        0
 91
        1
280
     0
281
     0
  0
CLASS
  1
ACMDETAILSTANDARDANSI
  2
AmdtDetailSymStdANSI
  3
"Amdt_StdImp|Product Description: AutoCAD Mechanical 2004 DX|Company: Autodesk"
 90
        0
 91
        1
280
     0
281
     0
  0
CLASS
  1
ACMSECTIONSTANDARDANSI
  2
AmdtSectionSymStdANSI
  3
"Amdt_StdImp|Product Description: AutoCAD Mechanical 2004 DX|Company: Autodesk"
 90
        0
 91
        1
280
     0
281
     0
  0
CLASS
  1
ACMCENTERLINESTANDARDANSI
  2
AmdtCenterLineStdANSI
  3
"Amdt_StdImp|Product Description: AutoCAD Mechanical 2004 DX|Company: Autodesk"
 90
        0
 91
        1
280
     0
281
     0
  0
CLASS
  1
ACMTHREADLINESTANDARDANSI
  2
AmdtThreadLineStdANSI
  3
"Amdt_StdImp|Product Description: AutoCAD Mechanical 2004 DX|Company: Autodesk"
 90
        0
 91
        1
280
     0
281
     0
  0
CLASS
  1
ACMNOTESTANDARDANSI
  2
AmdtNoteStdANSI
  3
"Amdt_StdImp|Product Description: AutoCAD Mechanical 2004 DX|Company: Autodesk"
 90
        0
 91
        1
280
     0
281
     0
  0
CLASS
  1
ACAMGHOLECHARTSTDANSI
  2
AcAmgHoleChartStdANSI
  3
ACMSYMBB_MODULE_NAME
 90
        0
 91
        1
280
     0
281
     0
  0
CLASS
  1
ACRFATTGENMGR
  2
AcRfAttGeneralMgr
  3
AcAttribServices
 90
        0
 91
        1
280
     0
281
     0
  0
CLASS
  1
ACRFOBJATTMGR
  2
AcRfObjAttGroupMgr
  3
AcAttribServices
 90
        0
 91
        1
280
     0
281
     0
  0
CLASS
  1
ACRFMCADAPIATTHOLDER
  2
AcRfMCADAPIAttHolder
  3
AcAttribServices
 90
        0
 91
        1
280
     0
281
     0
  0
CLASS
  1
AMDTSYSATTR
  2
AmdtSystemAttribute
  3
AcAttribServices
 90
        0
 91
        2
280
     0
281
     0
  0
ENDSEC
  0
SECTION
  2
TABLES
  0
TABLE
  2
VPORT
  5
8
330
0
100
AcDbSymbolTable
 70
     3
  0
VPORT
  5
168B
330
8
100
AcDbSymbolTableRecord
100
AcDbViewportTableRecord
  2
*Active
 70
     0
 10
0.0
 20
0.0
 11
1.0
 21
1.0
 12
4272.764279754633
 22
1217.575496052647
 13
0.0
 23
0.0
 14
12.5
 24
12.5
 15
50.0
 25
50.0
 16
0.0
 26
0.0
 36
1.0
 17
0.0
 27
0.0
 37
0.0
 40
2116.00644888396
 41
1.498730964467005
 42
50.0
 43
0.0
 44
0.0
 50
0.0
 51
0.0
 71
    16
 72
   100
 73
     1
 74
     3
 75
     0
 76
     0
 77
     0
 78
     0
281
     0
 65
     1
110
0.0
120
0.0
130
0.0
111
1.0
121
0.0
131
0.0
112
0.0
122
1.0
132
0.0
 79
     0
146
0.0
  0
ENDTAB
  0
TABLE
  2
LTYPE
  5
5
330
0
100
AcDbSymbolTable
 70
    28
  0
LTYPE
  5
14
330
5
100
AcDbSymbolTableRecord
100
AcDbLinetypeTableRecord
  2
ByBlock
 70
     0
  3

 72
    65
 73
     0
 40
0.0
  0
LTYPE
  5
15
330
5
100
AcDbSymbolTableRecord
100
AcDbLinetypeTableRecord
  2
ByLayer
 70
     0
  3

 72
    65
 73
     0
 40
0.0
  0
LTYPE
  5
16
330
5
100
AcDbSymbolTableRecord
100
AcDbLinetypeTableRecord
  2
Continuous
 70
     0
  3
Solid line
 72
    65
 73
     0
 40
0.0
  0
LTYPE
  5
35
330
5
100
AcDbSymbolTableRecord
100
AcDbLinetypeTableRecord
  2
AM_ISO02W050
 70
     0
  3
__ __ __ __ __ __ __ __ __ __ __ __ __ __ __
 72
    65
 73
     2
 40
7.5
 49
6.0
 74
     0
 49
-1.5
 74
     0
  0
LTYPE
  5
36
330
5
100
AcDbSymbolTableRecord
100
AcDbLinetypeTableRecord
  2
AM_ISO08W050
 70
     0
  3
____ . ____ . ____ . ____ . ____ . ____ . ____
 72
    65
 73
     4
 40
18.0
 49
12.0
 74
     0
 49
-1.5
 74
     0
 49
3.0
 74
     0
 49
-1.5
 74
     0
  0
LTYPE
  5
37
330
5
100
AcDbSymbolTableRecord
100
AcDbLinetypeTableRecord
  2
AM_ISO09W050
 70
     0
  3
_____ . . _____ . . _____ . . ____ .. ____
 72
    65
 73
     6
 40
22.5
 49
12.0
 74
     0
 49
-1.5
 74
     0
 49
3.0
 74
     0
 49
-1.5
 74
     0
 49
3.0
 74
     0
 49
-1.5
 74
     0
  0
LTYPE
  5
38
330
5
100
AcDbSymbolTableRecord
100
AcDbLinetypeTableRecord
  2
Amconstr
 70
     0
  3
_______________________
 72
    65
 73
     2
 40
9999.0
 49
9999.0
 74
     0
 49
0.0
 74
     0
  0
LTYPE
  5
39
330
5
100
AcDbSymbolTableRecord
100
AcDbLinetypeTableRecord
  2
AM_ISO08W050x2
 70
     0
  3
__ . __ . __ . __ . __ . __
 72
    65
 73
     4
 40
9.0
 49
6.0
 74
     0
 49
-0.75
 74
     0
 49
1.5
 74
     0
 49
-0.75
 74
     0
  0
LTYPE
  5
3A
330
5
100
AcDbSymbolTableRecord
100
AcDbLinetypeTableRecord
  2
AM_ISO02W050x2
 70
     0
  3
 _ _ _ _ _ _ _ _ _ _ _ _
 72
    65
 73
     2
 40
3.75
 49
3.0
 74
     0
 49
-0.75
 74
     0
  0
LTYPE
  5
3B
330
5
100
AcDbSymbolTableRecord
100
AcDbLinetypeTableRecord
  2
Amzigzag
 70
     0
  3
/\/-/\/-/\/-/\/-/\/-/\/
 72
    65
 73
     2
 40
11.0001
 49
0.0001
 74
     4
 75
   135
340
3C
 46
0.04
 50
0.0
 44
0.0
 45
0.0
 49
-11.0
 74
     0
  0
LTYPE
  5
64
330
5
100
AcDbSymbolTableRecord
100
AcDbLinetypeTableRecord
  2
ACJISTGB
 70
     0
  3
__ . . __ . .
 72
    65
 73
     6
 40
9.0
 49
4.0
 74
     0
 49
-1.0
 74
     0
 49
1.0
 74
     0
 49
-1.0
 74
     0
 49
1.0
 74
     0
 49
-1.0
 74
     0
  0
LTYPE
  5
65
330
5
100
AcDbSymbolTableRecord
100
AcDbLinetypeTableRecord
  2
ACJISTGL
 70
     0
  3
_ _ _ _ _
 72
    65
 73
     2
 40
3.0
 49
2.0
 74
     0
 49
-1.0
 74
     0
  0
LTYPE
  5
69
330
5
100
AcDbSymbolTableRecord
100
AcDbLinetypeTableRecord
  2
CENTER
 70
     0
  3
__ . __
 72
    65
 73
     4
 40
7.0
 49
4.0
 74
     0
 49
-1.0
 74
     0
 49
1.0
 74
     0
 49
-1.0
 74
     0
  0
LTYPE
  5
8F
330
5
100
AcDbSymbolTableRecord
100
AcDbLinetypeTableRecord
  2
ACISOWELD
 70
     0
  3
_ _ _ _ _
 72
    65
 73
     2
 40
2.0
 49
2.0
 74
     0
 49
-1.0
 74
     0
  0
LTYPE
  5
92
330
5
100
AcDbSymbolTableRecord
100
AcDbLinetypeTableRecord
  2
ACISOTGB
 70
     0
  3
__ . . __ . .
 72
    65
 73
     6
 40
9.0
 49
4.0
 74
     0
 49
-1.0
 74
     0
 49
1.0
 74
     0
 49
-1.0
 74
     0
 49
1.0
 74
     0
 49
-1.0
 74
     0
  0
LTYPE
  5
93
330
5
100
AcDbSymbolTableRecord
100
AcDbLinetypeTableRecord
  2
ACISOTGL
 70
     0
  3
_ _ _ _ _
 72
    65
 73
     2
 40
3.0
 49
2.0
 74
     0
 49
-1.0
 74
     0
  0
LTYPE
  5
308
330
5
100
AcDbSymbolTableRecord
100
AcDbLinetypeTableRecord
  2
DASHED
 70
     0
  3
__ __ __ __ __ __ __ __ __ __ __ __ __ __ __
 72
    65
 73
     2
 40
3.0
 49
2.0
 74
     0
 49
-1.0
 74
     0
  0
LTYPE
  5
309
330
5
100
AcDbSymbolTableRecord
100
AcDbLinetypeTableRecord
  2
HIDDEN
 70
     0
  3
_ _ _ _ _ _ _ _ _ _ _ _ _ _ _ _ _ _ _ _ _ _ _
 72
    65
 73
     2
 40
1.5
 49
1.0
 74
     0
 49
-0.5
 74
     0
  0
LTYPE
  5
30A
330
5
100
AcDbSymbolTableRecord
100
AcDbLinetypeTableRecord
  2
PHANTOM
 70
     0
  3
_____ _ _ _____ _ _ _____ _ _ _____ _ _ ____
 72
    65
 73
     6
 40
27.0
 49
20.0
 74
     0
 49
-1.0
 74
     0
 49
2.0
 74
     0
 49
-1.0
 74
     0
 49
2.0
 74
     0
 49
-1.0
 74
     0
  0
LTYPE
  5
30B
330
5
100
AcDbSymbolTableRecord
100
AcDbLinetypeTableRecord
  2
DOT
 70
     0
  3
...............................................
 72
    65
 73
     2
 40
1.5
 49
0.5
 74
     0
 49
-1.0
 74
     0
  0
LTYPE
  5
30C
330
5
100
AcDbSymbolTableRecord
100
AcDbLinetypeTableRecord
  2
DASHDOT
 70
     0
  3
__ . __ . __ . __ . __ . __ . __ . __ . __ . __
 72
    65
 73
     4
 40
8.5
 49
6.0
 74
     0
 49
-1.0
 74
     0
 49
0.5
 74
     0
 49
-1.0
 74
     0
  0
LTYPE
  5
30D
330
5
100
AcDbSymbolTableRecord
100
AcDbLinetypeTableRecord
  2
DIVIDE
 70
     0
  3
__ . . __ . . __ . . __ . . __ . . __ . . __
 72
    65
 73
     6
 40
10.0
 49
6.0
 74
     0
 49
-1.0
 74
     0
 49
0.5
 74
     0
 49
-1.0
 74
     0
 49
0.5
 74
     0
 49
-1.0
 74
     0
  0
LTYPE
  5
30E
330
5
100
AcDbSymbolTableRecord
100
AcDbLinetypeTableRecord
  2
BORDER
 70
     0
  3
__ __ . __ __ . __ __ . __ __ . __ __ . __ __
 72
    65
 73
     6
 40
15.5
 49
6.0
 74
     0
 49
-1.0
 74
     0
 49
6.0
 74
     0
 49
-1.0
 74
     0
 49
0.5
 74
     0
 49
-1.0
 74
     0
  0
LTYPE
  5
30F
330
5
100
AcDbSymbolTableRecord
100
AcDbLinetypeTableRecord
  2
GEN7A
 70
     0
  3
__ . __ . __
 72
    65
 73
     4
 40
6.875
 49
5.0
 74
     0
 49
-0.625
 74
     0
 49
0.625
 74
     0
 49
-0.625
 74
     0
  0
LTYPE
  5
9B5
330
5
100
AcDbSymbolTableRecord
100
AcDbLinetypeTableRecord
  2
PHANTOM2
 70
     0
  3
Phantom (.5x) ___ _ _ ___ _ _ ___ _ _ ___ _ _
 72
    65
 73
     6
 40
31.75
 49
15.875
 74
     0
 49
-3.174999999999999
 74
     0
 49
3.174999999999999
 74
     0
 49
-3.174999999999999
 74
     0
 49
3.174999999999999
 74
     0
 49
-3.174999999999999
 74
     0
  0
LTYPE
  5
A70
330
5
100
AcDbSymbolTableRecord
100
AcDbLinetypeTableRecord
  2
CENTER2
 70
     0
  3
Center (.5x) ___ _ ___ _ ___ _ ___ _ ___ _ ___
 72
    65
 73
     4
 40
1.125
 49
0.75
 74
     0
 49
-0.125
 74
     0
 49
0.125
 74
     0
 49
-0.125
 74
     0
  0
LTYPE
  5
A71
330
5
100
AcDbSymbolTableRecord
100
AcDbLinetypeTableRecord
  2
HIDDEN2
 70
     0
  3
Hidden (.5x) _ _ _ _ _ _ _ _ _ _ _ _ _ _ _ _ _
 72
    65
 73
     2
 40
0.1875
 49
0.125
 74
     0
 49
-0.0625
 74
     0
  0
LTYPE
  5
A72
330
5
100
AcDbSymbolTableRecord
100
AcDbLinetypeTableRecord
  2
Amzigzag2
 70
     0
  3
/\/-/\/-/\/-/\/-/\/-/\/
 72
    65
 73
     2
 40
0.4401
 49
0.0001
 74
     4
 75
   135
340
3C
 46
0.0016
 50
0.0
 44
0.0
 45
0.0
 49
-0.4400000000000001
 74
     0
  0
LTYPE
  5
A73
330
5
100
AcDbSymbolTableRecord
100
AcDbLinetypeTableRecord
  2
ACANSTGB
 70
     0
  3
__ . . __ . .
 72
    65
 73
     6
 40
0.35433070866
 49
0.15748031496
 74
     0
 49
-0.03937007874
 74
     0
 49
0.03937007874
 74
     0
 49
-0.03937007874
 74
     0
 49
0.03937007874
 74
     0
 49
-0.03937007874
 74
     0
  0
LTYPE
  5
A74
330
5
100
AcDbSymbolTableRecord
100
AcDbLinetypeTableRecord
  2
ACANSTGL
 70
     0
  3
_ _ _ _ _
 72
    65
 73
     2
 40
0.11811023622
 49
0.07874015748
 74
     0
 49
-0.03937007874
 74
     0
  0
ENDTAB
  0
TABLE
  2
LAYER
  5
2
102
{ACAD_XDICTIONARY
360
1575
102
}
330
0
100
AcDbSymbolTable
 70
    18
  0
LAYER
  5
10
330
2
100
AcDbSymbolTableRecord
100
AcDbLayerTableRecord
  2
0
 70
     0
 62
     7
  6
Continuous
370
    -3
390
F
  0
LAYER
  5
F5
330
2
100
AcDbSymbolTableRecord
100
AcDbLayerTableRecord
  2
RAHM2
 70
     0
 62
     1
  6
Continuous
370
    -3
390
F
  0
LAYER
  5
1EF
330
2
100
AcDbSymbolTableRecord
100
AcDbLayerTableRecord
  2
AM_BOR
 70
     0
 62
     7
  6
Continuous
370
    50
390
F
  0
LAYER
  5
310
330
2
100
AcDbSymbolTableRecord
100
AcDbLayerTableRecord
  2
RAHM3
 70
     0
 62
     2
  6
Continuous
370
    -3
390
F
  0
LAYER
  5
311
330
2
100
AcDbSymbolTableRecord
100
AcDbLayerTableRecord
  2
RAHM5
 70
     0
 62
     7
  6
Continuous
370
    -3
390
F
  0
LAYER
  5
312
330
2
100
AcDbSymbolTableRecord
100
AcDbLayerTableRecord
  2
1
 70
     0
 62
     7
  6
Continuous
370
    -3
390
F
  0
LAYER
  5
313
330
2
100
AcDbSymbolTableRecord
100
AcDbLayerTableRecord
  2
DEFPOINTS
 70
     0
 62
     7
  6
Continuous
290
     0
370
    -3
390
F
  0
LAYER
  5
316
330
2
100
AcDbSymbolTableRecord
100
AcDbLayerTableRecord
  2
7A
 70
     0
 62
     4
  6
GEN7A
370
    -3
390
F
  0
LAYER
  5
10C1
330
2
100
AcDbSymbolTableRecord
100
AcDbLayerTableRecord
  2
AM_5
 70
     0
 62
     3
  6
Continuous
370
    25
390
F
  0
LAYER
  5
1306
330
2
100
AcDbSymbolTableRecord
100
AcDbLayerTableRecord
  2
AM_7
 70
     0
 62
     4
  6
AM_ISO08W050
370
    25
390
F
  0
LAYER
  5
132A
330
2
100
AcDbSymbolTableRecord
100
AcDbLayerTableRecord
  2
AM_12
 70
     0
 62
     7
  6
Continuous
290
     0
370
    50
390
F
  0
LAYER
  5
132B
330
2
100
AcDbSymbolTableRecord
100
AcDbLayerTableRecord
  2
AM_PAREF
 70
     0
 62
     4
  6
Continuous
290
     0
370
    25
390
F
  0
LAYER
  5
1571
330
2
100
AcDbSymbolTableRecord
100
AcDbLayerTableRecord
  2
AM_8
 70
     0
 62
     1
  6
Continuous
370
    25
390
F
  0
LAYER
  5
1574
330
2
100
AcDbSymbolTableRecord
100
AcDbLayerTableRecord
  2
AM_0
 70
     0
 62
     7
  6
Continuous
370
    50
390
F
  0
LAYER
  5
1578
330
2
100
AcDbSymbolTableRecord
100
AcDbLayerTableRecord
  2
AM_4
 70
     0
 62
     3
  6
Continuous
370
    25
390
F
  0
LAYER
  5
15A1
330
2
100
AcDbSymbolTableRecord
100
AcDbLayerTableRecord
  2
SUNPO
 70
     0
 62
   144
  6
Continuous
370
    -3
390
F
  0
LAYER
  5
15B2
330
2
100
AcDbSymbolTableRecord
100
AcDbLayerTableRecord
  2
AM_6
 70
     0
 62
     2
  6
Continuous
370
    35
390
F
  0
LAYER
  5
15EE
330
2
100
AcDbSymbolTableRecord
100
AcDbLayerTableRecord
  2
AM_3
 70
     0
 62
     6
  6
AM_ISO02W050
370
    25
390
F
  0
ENDTAB
  0
TABLE
  2
STYLE
  5
3
330
0
100
AcDbSymbolTable
 70
    13
  0
STYLE
  5
11
330
3
100
AcDbSymbolTableRecord
100
AcDbTextStyleTableRecord
  2
STANDARD
 70
     0
 40
0.0
 41
1.0
 50
0.0
 71
     0
 42
2.5
  3
ISOCP.SHX
  4
EXTFONT.SHX
  0
STYLE
  5
3C
330
3
100
AcDbSymbolTableRecord
100
AcDbTextStyleTableRecord
  2

 70
     1
 40
0.0
 41
1.0
 50
0.0
 71
     0
 42
2.5
  3
ltypeshp.shx
  4

  0
STYLE
  5
5D
330
3
100
AcDbSymbolTableRecord
100
AcDbTextStyleTableRecord
  2
ACJISTS
 70
     0
 40
1.0
 41
1.0
 50
0.0
 71
     0
 42
2.5
  3
isocp.shx
  4
extfont.shx
  0
STYLE
  5
60
330
3
100
AcDbSymbolTableRecord
100
AcDbTextStyleTableRecord
  2
ACJISGDT
 70
     0
 40
0.0
 41
1.0
 50
0.0
 71
     0
 42
2.5
  3
amgdt.shx
  4

  0
STYLE
  5
89
330
3
100
AcDbSymbolTableRecord
100
AcDbTextStyleTableRecord
  2
ACISOTS
 70
     0
 40
1.0
 41
1.0
 50
0.0
 71
     0
 42
2.5
  3
isocp.shx
  4
extfont.shx
  0
STYLE
  5
8D
330
3
100
AcDbSymbolTableRecord
100
AcDbTextStyleTableRecord
  2
ACISOGDT
 70
     0
 40
0.0
 41
1.0
 50
0.0
 71
     0
 42
2.5
  3
amgdt.shx
  4

  0
STYLE
  5
A4
330
3
100
AcDbSymbolTableRecord
100
AcDbTextStyleTableRecord
  2
USER1
 70
     0
 40
0.0
 41
1.0
 50
0.0
 71
     0
 42
2.5
  3
TXT.SHX
  4

  0
STYLE
  5
A5
330
3
100
AcDbSymbolTableRecord
100
AcDbTextStyleTableRecord
  2
USER2
 70
     0
 40
0.0
 41
1.0
 50
0.0
 71
     0
 42
2.5
  3
SIMPLEX.SHX
  4

  0
STYLE
  5
A6
330
3
100
AcDbSymbolTableRecord
100
AcDbTextStyleTableRecord
  2
USER3
 70
     0
 40
0.0
 41
1.0
 50
0.0
 71
     0
 42
2.5
  3
ITALIC.SHX
  4

  0
STYLE
  5
A75
330
3
100
AcDbSymbolTableRecord
100
AcDbTextStyleTableRecord
  2
MDRAFSTD
 70
     0
 40
0.0
 41
1.0
 50
0.0
 71
     0
 42
20.0
  3
TXT
  4
BIGFONT
  0
STYLE
  5
A76
330
3
100
AcDbSymbolTableRecord
100
AcDbTextStyleTableRecord
  2
ACANSTS
 70
     0
 40
1.0
 41
1.0
 50
0.0
 71
     0
 42
20.0
  3
romans.shx
  4
extfont.shx
  0
STYLE
  5
A77
330
3
100
AcDbSymbolTableRecord
100
AcDbTextStyleTableRecord
  2
ACANSGDT
 70
     0
 40
0.0
 41
1.0
 50
0.0
 71
     0
 42
20.0
  3
amgdtans.shx
  4

  0
STYLE
  5
15A2
330
3
100
AcDbSymbolTableRecord
100
AcDbTextStyleTableRecord
  2
MSG
 70
     0
 40
0.0
 41
1.0
 50
0.0
 71
     0
 42
2.5
  3
MS Gothic.ttf
  4

1001
ACAD
1000
MS Gothic
1071
    32817
  0
ENDTAB
  0
TABLE
  2
VIEW
  5
6
330
0
100
AcDbSymbolTable
 70
     6
  0
VIEW
  5
3C5
330
6
100
AcDbSymbolTableRecord
100
AcDbViewTableRecord
  2
AM_VIEW1
 70
     0
 40
742.4999999999999
 10
3482.497586212706
 20
1281.327301086679
 41
1134.401681759379
 11
0.0
 21
0.0
 31
1.0
 12
0.0
 22
0.0
 32
0.0
 42
50.0
 43
0.0
 44
0.0
 50
0.0
 71
    16
281
     0
 72
     0
  0
VIEW
  5
3C6
330
6
100
AcDbSymbolTableRecord
100
AcDbViewTableRecord
  2
AM_VIEW2
 70
     0
 40
742.4999999999999
 10
4448.095904453326
 20
1281.327301086679
 41
1134.401681759379
 11
0.0
 21
0.0
 31
1.0
 12
0.0
 22
0.0
 32
0.0
 42
50.0
 43
0.0
 44
0.0
 50
0.0
 71
    16
281
     0
 72
     0
  0
VIEW
  5
3C7
330
6
100
AcDbSymbolTableRecord
100
AcDbViewTableRecord
  2
AM_VIEW3
 70
     0
 40
742.4999999999999
 10
3482.497586212706
 20
538.8273010866796
 41
1134.401681759379
 11
0.0
 21
0.0
 31
1.0
 12
0.0
 22
0.0
 32
0.0
 42
50.0
 43
0.0
 44
0.0
 50
0.0
 71
    16
281
     0
 72
     0
  0
VIEW
  5
3C8
330
6
100
AcDbSymbolTableRecord
100
AcDbViewTableRecord
  2
AM_VIEW4
 70
     0
 40
742.4999999999999
 10
4448.095904453326
 20
538.8273010866796
 41
1134.401681759379
 11
0.0
 21
0.0
 31
1.0
 12
0.0
 22
0.0
 32
0.0
 42
50.0
 43
0.0
 44
0.0
 50
0.0
 71
    16
281
     0
 72
     0
  0
VIEW
  5
3C9
330
6
100
AcDbSymbolTableRecord
100
AcDbViewTableRecord
  2
AM_VIEW5
 70
     0
 40
742.4999999999999
 10
3965.296745333017
 20
910.0773010866797
 41
1134.401681759379
 11
0.0
 21
0.0
 31
1.0
 12
0.0
 22
0.0
 32
0.0
 42
50.0
 43
0.0
 44
0.0
 50
0.0
 71
    16
281
     0
 72
     0
  0
VIEW
  5
3CA
330
6
100
AcDbSymbolTableRecord
100
AcDbViewTableRecord
  2
AM_VIEW6
 70
     0
 40
1484.98515
 10
3965.296745333017
 20
910.0773010866797
 41
2268.780675485123
 11
0.0
 21
0.0
 31
1.0
 12
0.0
 22
0.0
 32
0.0
 42
50.0
 43
0.0
 44
0.0
 50
0.0
 71
    16
281
     0
 72
     0
  0
ENDTAB
  0
TABLE
  2
UCS
  5
7
330
0
100
AcDbSymbolTable
 70
     0
  0
ENDTAB
  0
TABLE
  2
APPID
  5
9
330
0
100
AcDbSymbolTable
 70
    50
  0
APPID
  5
12
330
9
100
AcDbSymbolTableRecord
100
AcDbRegAppTableRecord
  2
ACAD
 70
     0
  0
APPID
  5
2D
330
9
100
AcDbSymbolTableRecord
100
AcDbRegAppTableRecord
  2
MCAD_NO_VIS
 70
     0
  0
APPID
  5
2E
330
9
100
AcDbSymbolTableRecord
100
AcDbRegAppTableRecord
  2
ACAD_TEMP_GRAPHIC
 70
     0
  0
APPID
  5
2F
330
9
100
AcDbSymbolTableRecord
100
AcDbRegAppTableRecord
  2
ACATTRIBSERVICES
 70
     0
  0
APPID
  5
1F0
330
9
100
AcDbSymbolTableRecord
100
AcDbRegAppTableRecord
  2
GENIUS_GENBLLY_14
 70
     0
  0
APPID
  5
321
330
9
100
AcDbSymbolTableRecord
100
AcDbRegAppTableRecord
  2
GENIUS_GENCFG_13
 70
     0
  0
APPID
  5
322
330
9
100
AcDbSymbolTableRecord
100
AcDbRegAppTableRecord
  2
GENIUS_GENOBJ_13
 70
     0
  0
APPID
  5
323
330
9
100
AcDbSymbolTableRecord
100
AcDbRegAppTableRecord
  2
GENIUS_GENODEF_13
 70
     0
  0
APPID
  5
324
330
9
100
AcDbSymbolTableRecord
100
AcDbRegAppTableRecord
  2
GENIUS_GENOENT_13
 70
     0
  0
APPID
  5
325
330
9
100
AcDbSymbolTableRecord
100
AcDbRegAppTableRecord
  2
GENIUS_GENOLIS_13
 70
     0
  0
APPID
  5
326
330
9
100
AcDbSymbolTableRecord
100
AcDbRegAppTableRecord
  2
GENIUS_GENOREF_13
 70
     0
  0
APPID
  5
327
330
9
100
AcDbSymbolTableRecord
100
AcDbRegAppTableRecord
  2
GENIUS_GENOBJ-N-TIT_13
 70
     0
  0
APPID
  5
328
330
9
100
AcDbSymbolTableRecord
100
AcDbRegAppTableRecord
  2
GENIUS_GENTITLE_13
 70
     0
  0
APPID
  5
329
330
9
100
AcDbSymbolTableRecord
100
AcDbRegAppTableRecord
  2
GENIUS_GENZVEED_13
 70
     0
  0
APPID
  5
32A
330
9
100
AcDbSymbolTableRecord
100
AcDbRegAppTableRecord
  2
GENIUS_GENOBJ-N-SDF_13
 70
     0
  0
APPID
  5
32B
330
9
100
AcDbSymbolTableRecord
100
AcDbRegAppTableRecord
  2
GENIUS_GENSCREG_13
 70
     0
  0
APPID
  5
32C
330
9
100
AcDbSymbolTableRecord
100
AcDbRegAppTableRecord
  2
GENIUS_GENCFG0_13
 70
     0
  0
APPID
  5
32D
330
9
100
AcDbSymbolTableRecord
100
AcDbRegAppTableRecord
  2
GENIUS_GENCFG1_13
 70
     0
  0
APPID
  5
32E
330
9
100
AcDbSymbolTableRecord
100
AcDbRegAppTableRecord
  2
GENIUS_GENCFG2_13
 70
     0
  0
APPID
  5
32F
330
9
100
AcDbSymbolTableRecord
100
AcDbRegAppTableRecord
  2
GENIUS_GENCFG3_13
 70
     0
  0
APPID
  5
330
330
9
100
AcDbSymbolTableRecord
100
AcDbRegAppTableRecord
  2
GENIUS_GENCFG4_13
 70
     0
  0
APPID
  5
331
330
9
100
AcDbSymbolTableRecord
100
AcDbRegAppTableRecord
  2
GENIUS_GEVCFG0_13
 70
     0
  0
APPID
  5
332
330
9
100
AcDbSymbolTableRecord
100
AcDbRegAppTableRecord
  2
GENIUS_GENOBJ-N-CRS_13
 70
     0
  0
APPID
  5
333
330
9
100
AcDbSymbolTableRecord
100
AcDbRegAppTableRecord
  2
GENIUS_GENOBJ-N-CEN_13
 70
     0
  0
APPID
  5
334
330
9
100
AcDbSymbolTableRecord
100
AcDbRegAppTableRecord
  2
GENIUS_GEFCFG0_13
 70
     0
  0
APPID
  5
3BA
330
9
100
AcDbSymbolTableRecord
100
AcDbRegAppTableRecord
  2
GENIUS_GENTRA_14
 70
     0
  0
APPID
  5
3CB
330
9
100
AcDbSymbolTableRecord
100
AcDbRegAppTableRecord
  2
GENIUS_GENSCREG_15
 70
     0
  0
APPID
  5
436
330
9
100
AcDbSymbolTableRecord
100
AcDbRegAppTableRecord
  2
GEVID984623613
 70
     0
  0
APPID
  5
437
330
9
100
AcDbSymbolTableRecord
100
AcDbRegAppTableRecord
  2
GEVDC
 70
     0
  0
APPID
  5
438
330
9
100
AcDbSymbolTableRecord
100
AcDbRegAppTableRecord
  2
GEVCON
 70
     0
  0
APPID
  5
43C
330
9
100
AcDbSymbolTableRecord
100
AcDbRegAppTableRecord
  2
GENIUS_GENBH_13
 70
     0
  0
APPID
  5
43E
330
9
100
AcDbSymbolTableRecord
100
AcDbRegAppTableRecord
  2
GENIUS_GENOBJ-NBEHI-BHF_13
 70
     0
  0
APPID
  5
440
330
9
100
AcDbSymbolTableRecord
100
AcDbRegAppTableRecord
  2
GENIUS_GENOBJ-NBEHI-BHB_13
 70
     0
  0
APPID
  5
455
330
9
100
AcDbSymbolTableRecord
100
AcDbRegAppTableRecord
  2
GENIUS_GENOBJ-F-SCPASSM_13
 70
     0
  0
APPID
  5
47B
330
9
100
AcDbSymbolTableRecord
100
AcDbRegAppTableRecord
  2
GEVID984623614
 70
     0
  0
APPID
  5
48B
330
9
100
AcDbSymbolTableRecord
100
AcDbRegAppTableRecord
  2
GEVID984623615
 70
     0
  0
APPID
  5
54A
330
9
100
AcDbSymbolTableRecord
100
AcDbRegAppTableRecord
  2
GENIUS_GENOBJ-N-REV_13
 70
     0
  0
APPID
  5
54B
330
9
100
AcDbSymbolTableRecord
100
AcDbRegAppTableRecord
  2
GENIUS_GENOBJ-N-RSSYM_13
 70
     0
  0
APPID
  5
54C
330
9
100
AcDbSymbolTableRecord
100
AcDbRegAppTableRecord
  2
GENIUS_GENSYMENT_13
 70
     0
  0
APPID
  5
54D
330
9
100
AcDbSymbolTableRecord
100
AcDbRegAppTableRecord
  2
GENIUS_GENSCSYM_13
 70
     0
  0
APPID
  5
943
330
9
100
AcDbSymbolTableRecord
100
AcDbRegAppTableRecord
  2
DCO15
 70
     0
  0
APPID
  5
9B7
330
9
100
AcDbSymbolTableRecord
100
AcDbRegAppTableRecord
  2
AD_DRAW
 70
     0
  0
APPID
  5
9D5
330
9
100
AcDbSymbolTableRecord
100
AcDbRegAppTableRecord
  2
DESIGNERASSEMBLIES
 70
     0
  0
APPID
  5
9E5
330
9
100
AcDbSymbolTableRecord
100
AcDbRegAppTableRecord
  2
ACADM_DIM_EDIT
 70
     0
  0
APPID
  5
9E6
330
9
100
AcDbSymbolTableRecord
100
AcDbRegAppTableRecord
  2
AMDT_DM_ADJ
 70
     0
  0
APPID
  5
F0E
330
9
100
AcDbSymbolTableRecord
100
AcDbRegAppTableRecord
  2
GENIUS_GENDIMSH_14
 70
     0
  0
APPID
  5
122B
330
9
100
AcDbSymbolTableRecord
100
AcDbRegAppTableRecord
  2
GENIUS_GENDTOL_13
 70
     0
  0
APPID
  5
157A
330
9
100
AcDbSymbolTableRecord
100
AcDbRegAppTableRecord
  2
GENIUS_GENOBJ-N-HTC_13
 70
     0
  0
APPID
  5
157B
330
9
100
AcDbSymbolTableRecord
100
AcDbRegAppTableRecord
  2
GENIUS_GENHATCH_13
 70
     0
  0
APPID
  5
15B4
330
9
100
AcDbSymbolTableRecord
100
AcDbRegAppTableRecord
  2
GENIUS_AMGTXT_16
 70
     0
  0
ENDTAB
  0
TABLE
  2
DIMSTYLE
  5
A
330
0
100
AcDbSymbolTable
 70
    31
100
AcDbDimStyleTable
 71
     1
340
76
  0
DIMSTYLE
105
27
330
A
100
AcDbSymbolTableRecord
100
AcDbDimStyleTableRecord
  2
ISO-25
 70
     0
 41
2.5
 42
0.625
 43
3.75
 44
1.25
 73
     0
 74
     0
 77
     1
 78
     8
140
2.5
141
2.5
143
0.03937007874016
147
0.625
171
     3
172
     1
271
     2
272
     2
274
     3
283
     0
284
     8
340
11
  0
DIMSTYLE
105
76
102
{ACAD_REACTORS
330
CC4
330
CC3
330
1149
330
1171
330
11B2
330
11DA
330
1211
330
126F
330
12A1
330
12CD
102
}
330
A
100
AcDbSymbolTableRecord
100
AcDbDimStyleTableRecord
  2
IGS
 70
     0
  4
"
 40
5.0
 41
2.5
 42
1.0
 43
10.0
 44
1.0
 47
0.1
 48
0.1
 73
     0
 74
     0
 77
     3
 78
     8
 79
     2
140
4.5
141
0.0
143
0.0393701
146
0.71
147
1.5
172
     1
176
   256
177
   256
178
     2
271
     2
272
     2
283
     0
284
     8
340
11
341
77
342
77
371
    -1
372
    -1
  0
DIMSTYLE
105
7D
330
A
100
AcDbSymbolTableRecord
100
AcDbDimStyleTableRecord
  2
IGS$3
 70
     0
  4
"
 40
5.0
 41
2.5
 42
1.0
 43
10.0
 44
1.0
 47
0.1
 48
0.1
 73
     0
 77
     3
 78
     8
 79
     2
140
4.5
141
0.0
143
0.0393701
146
0.71
147
1.5
176
   256
177
   256
178
     2
271
     2
272
     2
283
     0
284
     8
288
     1
289
     0
340
11
341
77
342
77
371
    -1
372
    -1
  0
DIMSTYLE
105
7E
330
A
100
AcDbSymbolTableRecord
100
AcDbDimStyleTableRecord
  2
IGS$4
 70
     0
  4
"
 40
5.0
 41
2.5
 42
1.0
 43
10.0
 44
1.0
 47
0.1
 48
0.1
 73
     0
 77
     3
 78
     8
 79
     2
140
4.5
141
0.0
143
0.0393701
146
0.71
147
1.5
176
   256
177
   256
178
     2
271
     2
272
     2
283
     0
284
     8
288
     1
289
     0
340
11
341
77
342
77
371
    -1
372
    -1
  0
DIMSTYLE
105
7F
330
A
100
AcDbSymbolTableRecord
100
AcDbDimStyleTableRecord
  2
IGS$6
 70
     0
  4
"
 40
5.0
 41
2.5
 42
1.0
 43
10.0
 44
1.0
 47
0.1
 48
0.1
 73
     0
 74
     0
 78
     8
 79
     2
140
4.5
141
0.0
143
0.0393701
146
0.71
147
1.5
172
     1
176
   256
177
   256
178
     2
271
     2
272
     2
283
     0
284
     8
340
11
341
77
342
77
371
    -1
372
    -1
  0
DIMSTYLE
105
80
330
A
100
AcDbSymbolTableRecord
100
AcDbDimStyleTableRecord
  2
IGS$7
 70
     0
  4
"
 40
5.0
 41
2.5
 42
1.0
 43
10.0
 44
1.0
 47
0.1
 48
0.1
 73
     0
 74
     0
 77
     3
 78
     8
 79
     2
140
5.0
141
0.0
143
0.0393701
146
0.71
147
1.5
172
     1
176
   256
177
   256
178
     2
271
     2
272
     2
283
     0
284
     8
340
11
341
77
342
77
371
    -1
372
    -1
  0
DIMSTYLE
105
81
330
A
100
AcDbSymbolTableRecord
100
AcDbDimStyleTableRecord
  2
IGS$SF
 70
     0
  4
"
 40
5.0
 41
2.5
 42
1.0
 43
10.0
 44
1.0
 47
0.1
 48
0.1
 73
     0
 74
     0
 75
     1
 76
     1
 77
     3
 78
     8
 79
     2
140
3.5
141
0.0
143
0.0393701
146
0.71
147
1.5
172
     1
176
   256
177
   256
178
     2
271
     2
272
     3
274
     4
283
     0
284
     8
340
11
341
77
342
77
343
77
344
77
371
    -1
372
    -1
  0
DIMSTYLE
105
82
330
A
100
AcDbSymbolTableRecord
100
AcDbDimStyleTableRecord
  2
IGS$SH
 70
     0
  4
"
 40
5.0
 41
2.5
 42
1.0
 43
10.0
 44
1.0
 47
0.1
 48
0.1
 73
     0
 74
     0
 75
     1
 76
     1
 77
     3
 78
     8
 79
     2
140
3.5
141
0.0
143
0.0393701
144
2.0
146
0.71
147
1.5
172
     1
173
     1
176
   256
177
   256
178
     2
271
     2
272
     3
274
     4
283
     0
284
     8
340
11
341
77
342
77
343
83
344
77
371
    -1
372
    -1
  0
DIMSTYLE
105
9A
330
A
100
AcDbSymbolTableRecord
100
AcDbDimStyleTableRecord
  2
AM_ISO
 70
     0
  4
"
 40
5.0
 41
2.5
 42
1.0
 43
10.0
 44
1.0
 47
0.1
 48
0.1
 73
     0
 74
     0
 77
     1
 78
     8
 79
     2
140
3.5
141
0.0
143
0.0393701
146
0.71
147
1.5
172
     1
176
   256
177
   256
178
     2
271
     2
272
     3
274
     4
283
     0
284
     8
340
11
371
    -1
372
    -1
  0
DIMSTYLE
105
9B
330
A
100
AcDbSymbolTableRecord
100
AcDbDimStyleTableRecord
  2
AM_ISO$3
 70
     0
  4
"
 40
5.0
 41
2.5
 42
1.0
 43
10.0
 44
1.0
 47
0.1
 48
0.1
 73
     0
 77
     1
 78
     8
 79
     2
140
3.5
141
0.0
143
0.0393701
146
0.71
147
1.5
176
   256
177
   256
178
     2
271
     2
272
     3
274
     4
283
     0
284
     8
288
     1
289
     0
340
11
371
    -1
372
    -1
  0
DIMSTYLE
105
9C
330
A
100
AcDbSymbolTableRecord
100
AcDbDimStyleTableRecord
  2
AM_ISO$4
 70
     0
  4
"
 40
5.0
 41
2.5
 42
1.0
 43
10.0
 44
1.0
 47
0.1
 48
0.1
 73
     0
 77
     1
 78
     8
 79
     2
140
3.5
141
0.0
143
0.0393701
146
0.71
147
1.5
176
   256
177
   256
178
     2
271
     2
272
     3
274
     4
283
     0
284
     8
288
     1
289
     0
340
11
371
    -1
372
    -1
  0
DIMSTYLE
105
9D
330
A
100
AcDbSymbolTableRecord
100
AcDbDimStyleTableRecord
  2
AM_ISO$6
 70
     0
  4
"
 40
5.0
 41
2.5
 42
1.0
 43
10.0
 44
1.0
 47
0.1
 48
0.1
 73
     0
 74
     0
 78
     8
 79
     2
140
3.5
141
0.0
143
0.0393701
146
0.71
147
1.5
172
     1
176
   256
177
   256
178
     2
271
     2
272
     3
274
     4
283
     0
284
     8
340
11
371
    -1
372
    -1
  0
DIMSTYLE
105
9E
330
A
100
AcDbSymbolTableRecord
100
AcDbDimStyleTableRecord
  2
AM_ISO$7
 70
     0
  4
"
 40
5.0
 41
2.5
 42
1.0
 43
10.0
 44
1.0
 47
0.1
 48
0.1
 73
     0
 74
     0
 77
     1
 78
     8
 79
     2
140
5.0
141
0.0
143
0.0393701
146
0.71
147
1.5
172
     1
176
   256
177
   256
178
     2
271
     2
272
     3
274
     4
283
     0
284
     8
340
11
371
    -1
372
    -1
  0
DIMSTYLE
105
9F
330
A
100
AcDbSymbolTableRecord
100
AcDbDimStyleTableRecord
  2
AM_ISO$SF
 70
     0
  4
"
 40
5.0
 41
2.5
 42
1.0
 43
10.0
 44
1.0
 47
0.1
 48
0.1
 73
     0
 74
     0
 75
     1
 76
     1
 77
     1
 78
     8
 79
     2
140
3.5
141
0.0
143
0.0393701
146
0.71
147
1.5
172
     1
176
   256
177
   256
178
     2
271
     2
272
     3
274
     4
283
     0
284
     8
340
11
371
    -1
372
    -1
  0
DIMSTYLE
105
A0
330
A
100
AcDbSymbolTableRecord
100
AcDbDimStyleTableRecord
  2
AM_ISO$SH
 70
     0
  4
"
 40
5.0
 41
2.5
 42
1.0
 43
10.0
 44
1.0
 47
0.1
 48
0.1
 73
     0
 74
     0
 75
     1
 76
     1
 77
     1
 78
     8
 79
     2
140
3.5
141
0.0
143
0.0393701
144
2.0
146
0.71
147
1.5
172
     1
173
     1
176
   256
177
   256
178
     2
271
     2
272
     3
274
     4
283
     0
284
     8
340
11
343
83
371
    -1
372
    -1
  0
DIMSTYLE
105
317
330
A
100
AcDbSymbolTableRecord
100
AcDbDimStyleTableRecord
  2
STANDARD
 70
     0
340
11
  0
DIMSTYLE
105
318
330
A
100
AcDbSymbolTableRecord
100
AcDbDimStyleTableRecord
  2
ISO-35
 70
     0
 41
3.5
 42
0.875
 43
5.25
 44
1.75
 74
     0
 77
     1
 78
     8
140
3.5
141
3.5
143
0.0394
145
1.399999999999999
147
0.875
172
     1
340
11
  0
DIMSTYLE
105
319
330
A
100
AcDbSymbolTableRecord
100
AcDbDimStyleTableRecord
  2
ISO-5
 70
     0
 41
5.0
 42
1.25
 43
7.5
 44
2.5
 74
     0
 77
     1
 78
     8
140
5.0
141
5.0
143
0.0394
145
2.0
147
1.25
172
     1
340
11
  0
DIMSTYLE
105
31A
330
A
100
AcDbSymbolTableRecord
100
AcDbDimStyleTableRecord
  2
ISO-7
 70
     0
 41
7.0
 42
1.75
 43
10.5
 44
3.5
 74
     0
 77
     1
 78
     8
140
7.0
141
7.0
143
0.0394
145
2.799999999999999
147
1.75
172
     1
340
11
  0
DIMSTYLE
105
31B
330
A
100
AcDbSymbolTableRecord
100
AcDbDimStyleTableRecord
  2
ISO1
 70
     0
 41
10.0
 42
2.5
 43
15.0
 44
5.0
 74
     0
 77
     1
 78
     8
140
10.0
141
10.0
143
0.0394
145
4.0
147
2.5
172
     1
340
11
  0
DIMSTYLE
105
31C
330
A
100
AcDbSymbolTableRecord
100
AcDbDimStyleTableRecord
  2
ISO1-4
 70
     0
 41
14.0
 42
3.5
 43
21.0
 44
7.0
 74
     0
 77
     1
 78
     8
140
14.0
141
14.0
143
0.0394
145
5.599999999999999
147
3.5
172
     1
340
11
  0
DIMSTYLE
105
31D
330
A
100
AcDbSymbolTableRecord
100
AcDbDimStyleTableRecord
  2
ISO2
 70
     0
 41
20.0
 42
5.0
 43
30.0
 44
10.0
 74
     0
 77
     1
 78
     8
140
20.0
141
20.0
143
0.0394
145
8.0
147
5.0
172
     1
340
11
  0
DIMSTYLE
105
31E
330
A
100
AcDbSymbolTableRecord
100
AcDbDimStyleTableRecord
  2
GEN-ISO$4
 70
     0
  3
<>
 41
2.5
 42
1.0
 43
10.0
 44
1.0
 47
0.1
 48
0.1
 73
     0
 77
     1
 78
     8
140
3.5
141
0.0
143
0.0393701
146
0.71
147
1.5
176
   256
177
   256
178
     2
271
     2
272
     3
274
     4
283
     0
288
     1
289
     0
340
11
  0
DIMSTYLE
105
31F
330
A
100
AcDbSymbolTableRecord
100
AcDbDimStyleTableRecord
  2
GEN-ISO$3
 70
     0
  3
<>
 41
2.5
 42
1.0
 43
10.0
 44
1.0
 47
0.1
 48
0.1
 73
     0
 77
     1
 78
     8
140
3.5
141
0.0
143
0.0393701
146
0.71
147
1.5
176
   256
177
   256
178
     2
271
     2
272
     3
274
     4
283
     0
288
     1
289
     0
340
11
  0
DIMSTYLE
105
320
330
A
100
AcDbSymbolTableRecord
100
AcDbDimStyleTableRecord
  2
GEN-ISO
 70
     0
  3
<>
 41
2.5
 42
1.0
 43
10.0
 44
1.0
 47
0.1
 48
0.1
 73
     0
 74
     0
 77
     1
 78
     8
140
3.5
141
0.0
143
0.0393701
146
0.71
147
1.5
172
     1
176
   256
177
   256
178
     2
271
     2
272
     3
274
     4
283
     0
340
11
  0
DIMSTYLE
105
A78
330
A
100
AcDbSymbolTableRecord
100
AcDbDimStyleTableRecord
  2
AM_ANSI
 70
     0
  4
mm
 40
5.0
 41
0.1
 42
0.05
 43
0.5
 44
0.1
 47
0.1
 48
0.1
 78
     7
 79
     2
140
0.12
141
0.0
146
0.71
147
0.06
176
   256
177
   256
178
     2
274
     4
284
     7
340
11
371
    -1
372
    -1
  0
DIMSTYLE
105
A79
330
A
100
AcDbSymbolTableRecord
100
AcDbDimStyleTableRecord
  2
AM_ANSI$3
 70
     0
  4
mm
 40
5.0
 41
0.1
 42
0.05
 43
0.5
 44
0.1
 47
0.1
 48
0.1
 78
     7
 79
     2
140
0.12
141
0.0
146
0.71
147
0.06
176
   256
177
   256
178
     2
274
     4
284
     7
288
     1
289
     0
340
11
371
    -1
372
    -1
  0
DIMSTYLE
105
A7A
330
A
100
AcDbSymbolTableRecord
100
AcDbDimStyleTableRecord
  2
AM_ANSI$4
 70
     0
  4
mm
 40
5.0
 41
0.1
 42
0.05
 43
0.5
 44
0.1
 47
0.1
 48
0.1
 78
     7
 79
     2
140
0.12
141
0.0
146
0.71
147
0.06
176
   256
177
   256
178
     2
274
     4
284
     7
288
     1
289
     0
340
11
371
    -1
372
    -1
  0
DIMSTYLE
105
A7B
330
A
100
AcDbSymbolTableRecord
100
AcDbDimStyleTableRecord
  2
AM_ANSI$7
 70
     0
  4
mm
 40
5.0
 41
0.1
 42
0.05
 43
0.5
 44
0.1
 47
0.1
 48
0.1
 78
     7
 79
     2
140
0.24
141
0.0
146
0.71
147
0.06
176
   256
177
   256
178
     2
274
     4
284
     7
340
11
371
    -1
372
    -1
  0
DIMSTYLE
105
A7C
330
A
100
AcDbSymbolTableRecord
100
AcDbDimStyleTableRecord
  2
AM_ANSI$SF
 70
     0
  4
mm
 40
5.0
 41
0.1
 42
0.05
 43
0.5
 44
0.1
 47
0.1
 48
0.1
 75
     1
 76
     1
 78
     7
 79
     2
140
0.12
141
0.0
146
0.71
147
0.06
176
   256
177
   256
178
     2
274
     4
284
     7
340
11
371
    -1
372
    -1
  0
DIMSTYLE
105
A7D
330
A
100
AcDbSymbolTableRecord
100
AcDbDimStyleTableRecord
  2
AM_ANSI$SH
 70
     0
  4
mm
 40
5.0
 41
0.1
 42
0.05
 43
0.5
 44
0.1
 47
0.1
 48
0.1
 75
     1
 76
     1
 78
     7
 79
     2
140
0.12
141
0.0
146
0.71
147
0.06
173
     1
176
   256
177
   256
178
     2
274
     4
284
     7
340
11
343
83
371
    -1
372
    -1
  0
ENDTAB
  0
TABLE
  2
BLOCK_RECORD
  5
1
330
0
100
AcDbSymbolTable
 70
    35
  0
BLOCK_RECORD
  5
1F
102
{ACAD_XDICTIONARY
360
B1
102
}
330
1
100
AcDbSymbolTableRecord
100
AcDbBlockTableRecord
  2
*Model_Space
340
22
  0
BLOCK_RECORD
  5
1B
330
1
100
AcDbSymbolTableRecord
100
AcDbBlockTableRecord
  2
*Paper_Space
340
1E
  0
BLOCK_RECORD
  5
23
330
1
100
AcDbSymbolTableRecord
100
AcDbBlockTableRecord
  2
*Paper_Space0
340
26
  0
BLOCK_RECORD
  5
77
330
1
100
AcDbSymbolTableRecord
100
AcDbBlockTableRecord
  2
_Open30
340
0
310
2800000020000000200000000100080000000000000400000000000000000000000000000000000000000000000080000080000000808000800000008000800080800000C0C0C000C0DCC000F0CAA6000020400000206000002080000020A0000020C0000020E00000400000004020000040400000406000004080000040A0
310
000040C0000040E00000600000006020000060400000606000006080000060A0000060C0000060E00000800000008020000080400000806000008080000080A0000080C0000080E00000A0000000A0200000A0400000A0600000A0800000A0A00000A0C00000A0E00000C0000000C0200000C0400000C0600000C0800000C0
310
A00000C0C00000C0E00000E0000000E0200000E0400000E0600000E0800000E0A00000E0C00000E0E00040000000400020004000400040006000400080004000A0004000C0004000E00040200000402020004020400040206000402080004020A0004020C0004020E000404000004040200040404000404060004040800040
310
40A0004040C0004040E00040600000406020004060400040606000406080004060A0004060C0004060E00040800000408020004080400040806000408080004080A0004080C0004080E00040A0000040A0200040A0400040A0600040A0800040A0A00040A0C00040A0E00040C0000040C0200040C0400040C0600040C08000
310
40C0A00040C0C00040C0E00040E0000040E0200040E0400040E0600040E0800040E0A00040E0C00040E0E00080000000800020008000400080006000800080008000A0008000C0008000E00080200000802020008020400080206000802080008020A0008020C0008020E00080400000804020008040400080406000804080
310
008040A0008040C0008040E00080600000806020008060400080606000806080008060A0008060C0008060E00080800000808020008080400080806000808080008080A0008080C0008080E00080A0000080A0200080A0400080A0600080A0800080A0A00080A0C00080A0E00080C0000080C0200080C0400080C0600080C0
310
800080C0A00080C0C00080C0E00080E0000080E0200080E0400080E0600080E0800080E0A00080E0C00080E0E000C0000000C0002000C0004000C0006000C0008000C000A000C000C000C000E000C0200000C0202000C0204000C0206000C0208000C020A000C020C000C020E000C0400000C0402000C0404000C0406000C0
310
408000C040A000C040C000C040E000C0600000C0602000C0604000C0606000C0608000C060A000C060C000C060E000C0800000C0802000C0804000C0806000C0808000C080A000C080C000C080E000C0A00000C0A02000C0A04000C0A06000C0A08000C0A0A000C0A0C000C0A0E000C0C00000C0C02000C0C04000C0C06000
310
C0C08000C0C0A000F0FBFF00A4A0A000808080000000FF0000FF000000FFFF00FF000000FF00FF00FFFF0000FFFFFF0000000000000000000000000000000000000000000000000000000000000000000000000000000000000000000000000000000000000000000000000000000000000000000000000000000000000000
310
00000000000000000000000000000000000000000000000000000000000000000000000000000000000000000000000000000000000000000000000000000000000000000000000000000000000000000000000000000000000000000000000000000000000000000000000000000000000000000000000000000000000000
310
000000000000000000000000000000000000000000000000000000000000000000000000000000000000000000000000000000FFFF0000000000000000000000000000000000000000000000000000000000000000FFFFFFFF0000000000000000000000000000000000000000000000000000000000000000FFFFFFFF0000
310
000000000000000000000000000000000000000000000000000000000000FFFFFF0000000000000000000000000000000000000000000000000000000000000000FFFFFFFF0000000000000000000000000000000000000000000000000000000000000000FFFFFF0000000000000000000000000000000000000000000000
310
000000000000000000FFFFFFFF0000000000000000000000000000000000000000000000000000000000000000FFFFFFFF00000000FFFFFFFFFFFFFFFFFFFFFFFFFFFFFFFFFFFFFFFFFFFFFFFFFFFFFFFFFFFF00000000000000000000000000000000000000000000000000FFFFFFFF000000000000000000000000000000
310
000000000000000000FFFFFFFF000000000000000000000000000000000000000000000000FFFFFFFF000000000000000000000000000000000000000000000000FFFFFFFF000000000000000000000000000000000000000000000000FFFFFFFF000000000000000000000000000000000000000000000000FFFFFFFF0000
310
0000000000000000000000000000000000000000000000FFFFFF0000000000000000000000000000000000000000000000000000000000000000000000000000000000000000000000000000000000000000000000000000000000000000000000000000000000000000000000000000000000000000000000000000000000
310
00000000000000000000000000000000000000000000000000000000000000000000000000000000000000000000000000000000000000000000000000000000000000000000000000000000000000000000000000000000000000000000000000000000000000000000000000000000000000000000000000000000000000
310
0000000000000000000000000000000000000000000000000000000000000000000000000000000000000000000000000000000000000000
102
{BLKREFS
331
1412
331
1413
331
141B
331
141C
331
1424
331
1425
331
142D
331
142E
331
1436
331
1437
331
143F
331
1440
331
1448
331
1449
331
1451
331
1452
331
145A
331
145B
331
14B3
331
14B4
102
}
  0
BLOCK_RECORD
  5
83
330
1
100
AcDbSymbolTableRecord
100
AcDbBlockTableRecord
  2
GENAXEH
340
0
310
2800000020000000200000000100080000000000000400000000000000000000000000000000000000000000000080000080000000808000800000008000800080800000C0C0C000C0DCC000F0CAA6000020400000206000002080000020A0000020C0000020E00000400000004020000040400000406000004080000040A0
310
000040C0000040E00000600000006020000060400000606000006080000060A0000060C0000060E00000800000008020000080400000806000008080000080A0000080C0000080E00000A0000000A0200000A0400000A0600000A0800000A0A00000A0C00000A0E00000C0000000C0200000C0400000C0600000C0800000C0
310
A00000C0C00000C0E00000E0000000E0200000E0400000E0600000E0800000E0A00000E0C00000E0E00040000000400020004000400040006000400080004000A0004000C0004000E00040200000402020004020400040206000402080004020A0004020C0004020E000404000004040200040404000404060004040800040
310
40A0004040C0004040E00040600000406020004060400040606000406080004060A0004060C0004060E00040800000408020004080400040806000408080004080A0004080C0004080E00040A0000040A0200040A0400040A0600040A0800040A0A00040A0C00040A0E00040C0000040C0200040C0400040C0600040C08000
310
40C0A00040C0C00040C0E00040E0000040E0200040E0400040E0600040E0800040E0A00040E0C00040E0E00080000000800020008000400080006000800080008000A0008000C0008000E00080200000802020008020400080206000802080008020A0008020C0008020E00080400000804020008040400080406000804080
310
008040A0008040C0008040E00080600000806020008060400080606000806080008060A0008060C0008060E00080800000808020008080400080806000808080008080A0008080C0008080E00080A0000080A0200080A0400080A0600080A0800080A0A00080A0C00080A0E00080C0000080C0200080C0400080C0600080C0
310
800080C0A00080C0C00080C0E00080E0000080E0200080E0400080E0600080E0800080E0A00080E0C00080E0E000C0000000C0002000C0004000C0006000C0008000C000A000C000C000C000E000C0200000C0202000C0204000C0206000C0208000C020A000C020C000C020E000C0400000C0402000C0404000C0406000C0
310
408000C040A000C040C000C040E000C0600000C0602000C0604000C0606000C0608000C060A000C060C000C060E000C0800000C0802000C0804000C0806000C0808000C080A000C080C000C080E000C0A00000C0A02000C0A04000C0A06000C0A08000C0A0A000C0A0C000C0A0E000C0C00000C0C02000C0C04000C0C06000
310
C0C08000C0C0A000F0FBFF00A4A0A000808080000000FF0000FF000000FFFF00FF000000FF00FF00FFFF0000FFFFFF0000000000000000000000000000000000000000000000000000000000000000000000000000000000000000000000000000000000000000000000000000000000000000000000000000000000000000
310
00000000000000000000000000000000000000000000000000000000000000000000000000000000000000000000000000000000000000000000000000000000000000000000000000000000000000000000000000000000000000000000000000000000000000000000000000000000000000000000000000000000000000
310
00000000000000000000000000000000000000000000000000000000000000000000000000000000000000000000000000000000000000000000000000000000000000000000000000000000000000000000000000000000000000000000000000000000000000000000000000000000000000000000000000000000000000
310
00000000000000000000000000000000000000000000000000000000000000000000000000000000000000000000000000000000000000000000000000000000000000000000000000000000000000000000000000000000000000000000000000000000000000000000000000000000000000000000000000000000000000
310
0000000000000000000000000000000000000000000000000000000000000000000000000000000000000000000000000000000000FFFFFFFFFFFFFFFFFFFFFFFFFFFFFFFFFFFFFFFFFFFFFFFFFFFFFFFFFFFF0000000000000000000000000000000000000000000000000000000000000000000000000000000000000000
310
00000000000000000000000000000000000000000000000000000000000000000000000000000000000000000000000000000000000000000000000000000000000000000000000000000000000000000000000000000000000000000000000000000000000000000000000000000000000000000000000000000000000000
310
00000000000000000000000000000000000000000000000000000000000000000000000000000000000000000000000000000000000000000000000000000000000000000000000000000000000000000000000000000000000000000000000000000000000000000000000000000000000000000000000000000000000000
310
00000000000000000000000000000000000000000000000000000000000000000000000000000000000000000000000000000000000000000000000000000000000000000000000000000000000000000000000000000000000000000000000000000000000000000000000000000000000000000000000000000000000000
310
0000000000000000000000000000000000000000000000000000000000000000000000000000000000000000000000000000000000000000
  0
BLOCK_RECORD
  5
1F1
330
1
100
AcDbSymbolTableRecord
100
AcDbBlockTableRecord
  2
IGS_A2
340
0
310
2800000020000000200000000100080000000000000400000000000000000000000000000000000000000000000080000080000000808000800000008000800080800000C0C0C000C0DCC000F0CAA6000020400000206000002080000020A0000020C0000020E00000400000004020000040400000406000004080000040A0
310
000040C0000040E00000600000006020000060400000606000006080000060A0000060C0000060E00000800000008020000080400000806000008080000080A0000080C0000080E00000A0000000A0200000A0400000A0600000A0800000A0A00000A0C00000A0E00000C0000000C0200000C0400000C0600000C0800000C0
310
A00000C0C00000C0E00000E0000000E0200000E0400000E0600000E0800000E0A00000E0C00000E0E00040000000400020004000400040006000400080004000A0004000C0004000E00040200000402020004020400040206000402080004020A0004020C0004020E000404000004040200040404000404060004040800040
310
40A0004040C0004040E00040600000406020004060400040606000406080004060A0004060C0004060E00040800000408020004080400040806000408080004080A0004080C0004080E00040A0000040A0200040A0400040A0600040A0800040A0A00040A0C00040A0E00040C0000040C0200040C0400040C0600040C08000
310
40C0A00040C0C00040C0E00040E0000040E0200040E0400040E0600040E0800040E0A00040E0C00040E0E00080000000800020008000400080006000800080008000A0008000C0008000E00080200000802020008020400080206000802080008020A0008020C0008020E00080400000804020008040400080406000804080
310
008040A0008040C0008040E00080600000806020008060400080606000806080008060A0008060C0008060E00080800000808020008080400080806000808080008080A0008080C0008080E00080A0000080A0200080A0400080A0600080A0800080A0A00080A0C00080A0E00080C0000080C0200080C0400080C0600080C0
310
800080C0A00080C0C00080C0E00080E0000080E0200080E0400080E0600080E0800080E0A00080E0C00080E0E000C0000000C0002000C0004000C0006000C0008000C000A000C000C000C000E000C0200000C0202000C0204000C0206000C0208000C020A000C020C000C020E000C0400000C0402000C0404000C0406000C0
310
408000C040A000C040C000C040E000C0600000C0602000C0604000C0606000C0608000C060A000C060C000C060E000C0800000C0802000C0804000C0806000C0808000C080A000C080C000C080E000C0A00000C0A02000C0A04000C0A06000C0A08000C0A0A000C0A0C000C0A0E000C0C00000C0C02000C0C04000C0C06000
310
C0C08000C0C0A000F0FBFF00A4A0A000808080000000FF0000FF000000FFFF00FF000000FF00FF00FFFF0000FFFFFF0000000000000000000000000000000000000000000000000000000000000000000000000000000000000000000000000000000000000000000000000000000000000000000000000000000000000000
310
000000000000000000000000000000000000000000000000000000000000000000000000000000000000000000000000000000000000000000000000000000000000000000000000000000000000000000000000000000000000000000000000000000000000000000000000000000000000F9F9F9F9F9F9F9F9F9F9F9F9F9
310
F9F9F9F9F9F9F9F9F9F9F9F9F9F90000000000F9FFFFFFFFFFFFFFFFFFFFFFFFFFFFFFFFFFFFFFFFFFFFFFFFFFF90000000000F9FF0000000000000000000000000000000000000000000000FFF90000000000F9FF0000000000000000000000000000000000000000000000FFF90000000000F9FF00000000000000000000
310
00000000000000000000000000FFF90000000000F9FF0000000000000000000000000000000000000000000000FFF90000000000F9FF0000000000000000000000000000000000000000000000FFF90000000000F9FF0000000000000000000000000000000000000000000000FFF90000000000F9FF000000000000000000
310
0000000000000000000000000000FFF90000000000F9FF0000000000000000000000000000000000000000000000FFF90000000000F9FF0000000000000000000000000000000000000000000000FFF90000000000F9FF0000000000000000000000000000000000000000000000FFF90000000000F9FF0000000000000000
310
000000000000000000000000000000FFF90000000000F9FF0000000000000000000000000000000000000000000000FFF90000000000F9FF0000000000000000000000000000000000000000000000FFF90000000000F9FF0000000000000000000000000000000000000000000000FFF90000000000F9FF00000000000000
310
00000000000000000000000000000000FFF90000000000F9FF0000000000000000000000000000000000000000000000FFF90000000000F9F9F9F9F9F9F9F9F9F9F9F9F9F9F9F9F9F9F9F9F9F9F9F9F9F9F9000000000000000000000000000000000000000000000000000000000000000000000000000000000000000000
310
00000000000000000000000000000000000000000000000000000000000000000000000000000000000000000000000000000000000000000000000000000000000000000000000000000000000000000000000000000000000000000000000000000000000000000000000000000000000000000000000000000000000000
310
0000000000000000000000000000000000000000000000000000000000000000000000000000000000000000000000000000000000000000
  0
BLOCK_RECORD
  5
210
330
1
100
AcDbSymbolTableRecord
100
AcDbBlockTableRecord
  2
GEN_A4
340
0
310
2800000020000000200000000100080000000000000400000000000000000000000000000000000000000000000080000080000000808000800000008000800080800000C0C0C000C0DCC000F0CAA6000020400000206000002080000020A0000020C0000020E00000400000004020000040400000406000004080000040A0
310
000040C0000040E00000600000006020000060400000606000006080000060A0000060C0000060E00000800000008020000080400000806000008080000080A0000080C0000080E00000A0000000A0200000A0400000A0600000A0800000A0A00000A0C00000A0E00000C0000000C0200000C0400000C0600000C0800000C0
310
A00000C0C00000C0E00000E0000000E0200000E0400000E0600000E0800000E0A00000E0C00000E0E00040000000400020004000400040006000400080004000A0004000C0004000E00040200000402020004020400040206000402080004020A0004020C0004020E000404000004040200040404000404060004040800040
310
40A0004040C0004040E00040600000406020004060400040606000406080004060A0004060C0004060E00040800000408020004080400040806000408080004080A0004080C0004080E00040A0000040A0200040A0400040A0600040A0800040A0A00040A0C00040A0E00040C0000040C0200040C0400040C0600040C08000
310
40C0A00040C0C00040C0E00040E0000040E0200040E0400040E0600040E0800040E0A00040E0C00040E0E00080000000800020008000400080006000800080008000A0008000C0008000E00080200000802020008020400080206000802080008020A0008020C0008020E00080400000804020008040400080406000804080
310
008040A0008040C0008040E00080600000806020008060400080606000806080008060A0008060C0008060E00080800000808020008080400080806000808080008080A0008080C0008080E00080A0000080A0200080A0400080A0600080A0800080A0A00080A0C00080A0E00080C0000080C0200080C0400080C0600080C0
310
800080C0A00080C0C00080C0E00080E0000080E0200080E0400080E0600080E0800080E0A00080E0C00080E0E000C0000000C0002000C0004000C0006000C0008000C000A000C000C000C000E000C0200000C0202000C0204000C0206000C0208000C020A000C020C000C020E000C0400000C0402000C0404000C0406000C0
310
408000C040A000C040C000C040E000C0600000C0602000C0604000C0606000C0608000C060A000C060C000C060E000C0800000C0802000C0804000C0806000C0808000C080A000C080C000C080E000C0A00000C0A02000C0A04000C0A06000C0A08000C0A0A000C0A0C000C0A0E000C0C00000C0C02000C0C04000C0C06000
310
C0C08000C0C0A000F0FBFF00A4A0A000808080000000FF0000FF000000FFFF00FF000000FF00FF00FFFF0000FFFFFF00000000000000000000000000000000000000000000000000000000000000000000000000F9F9F9F9F9F9F9F9F9F9F9F9F9F9F9F9F9F9F9F9F90000000000000000000000F900FFFFFFFFFFFFFFFFFF
310
FFFFFFFFFFFFFFFFFFF90000000000000000000000F900FF00000000000000000000000000000000FFF90000000000000000000000F900FF00000000000000000000000000000000FFF90000000000000000000000F900FF00000000000000000000000000000000FFF90000000000000000000000F900FF00000000000000
310
000000000000000000FFF90000000000000000000000F900FF00000000000000000000000000000000FFF90000000000000000000000F900FF00000000000000000000000000000000FFF90000000000000000000000F900FF00000000000000000000000000000000FFF90000000000000000000000F900FF000000000000
310
00000000000000000000FFF90000000000000000000000F9F9F900000000000000000000000000000000FFF90000000000000000000000F9F9FF00000000000000000000000000000000FFF90000000000000000000000F9F9FF00000000000000000000000000000000FFF90000000000000000000000F9F9FF0000000000
310
0000000000000000000000FFF90000000000000000000000F9F9F900000000000000000000000000000000FFF90000000000000000000000F9F9FF00000000000000000000000000000000FFF90000000000000000000000F9F9FF00000000000000000000000000000000FFF90000000000000000000000F9F9FF00000000
310
000000000000000000000000FFF90000000000000000000000F9F9FF00000000000000000000000000000000FFF90000000000000000000000F9F9F900000000000000000000000000000000FFF90000000000000000000000F9F9FF00000000000000000000000000000000FFF90000000000000000000000F9F9FF000000
310
00000000000000000000000000FFF90000000000000000000000F9F9FF00000000000000000000000000000000FFF90000000000000000000000F9F9F900000000000000000000000000000000FFF90000000000000000000000F9F9FF00000000000000000000000000000000FFF90000000000000000000000F9F9FF0000
310
0000000000000000000000000000FFF90000000000000000000000F9F9FF00000000000000000000000000000000FFF90000000000000000000000F9F9FFF9F9F9F9F9F9F9F9F9F9F9F9F9F9F9F9F9F90000000000000000000000F9F9F9FFF9FFF9FFF9FFF9FFFFF9FFF9FFF9FFFFF9000000000000000000000000000000
310
0000000000000000000000000000000000000000000000000000000000000000000000000000000000000000000000000000000000000000
  0
BLOCK_RECORD
  5
232
330
1
100
AcDbSymbolTableRecord
100
AcDbBlockTableRecord
  2
GENTITUS
340
0
310
2800000020000000200000000100080000000000000400000000000000000000000000000000000000000000000080000080000000808000800000008000800080800000C0C0C000C0DCC000F0CAA6000020400000206000002080000020A0000020C0000020E00000400000004020000040400000406000004080000040A0
310
000040C0000040E00000600000006020000060400000606000006080000060A0000060C0000060E00000800000008020000080400000806000008080000080A0000080C0000080E00000A0000000A0200000A0400000A0600000A0800000A0A00000A0C00000A0E00000C0000000C0200000C0400000C0600000C0800000C0
310
A00000C0C00000C0E00000E0000000E0200000E0400000E0600000E0800000E0A00000E0C00000E0E00040000000400020004000400040006000400080004000A0004000C0004000E00040200000402020004020400040206000402080004020A0004020C0004020E000404000004040200040404000404060004040800040
310
40A0004040C0004040E00040600000406020004060400040606000406080004060A0004060C0004060E00040800000408020004080400040806000408080004080A0004080C0004080E00040A0000040A0200040A0400040A0600040A0800040A0A00040A0C00040A0E00040C0000040C0200040C0400040C0600040C08000
310
40C0A00040C0C00040C0E00040E0000040E0200040E0400040E0600040E0800040E0A00040E0C00040E0E00080000000800020008000400080006000800080008000A0008000C0008000E00080200000802020008020400080206000802080008020A0008020C0008020E00080400000804020008040400080406000804080
310
008040A0008040C0008040E00080600000806020008060400080606000806080008060A0008060C0008060E00080800000808020008080400080806000808080008080A0008080C0008080E00080A0000080A0200080A0400080A0600080A0800080A0A00080A0C00080A0E00080C0000080C0200080C0400080C0600080C0
310
800080C0A00080C0C00080C0E00080E0000080E0200080E0400080E0600080E0800080E0A00080E0C00080E0E000C0000000C0002000C0004000C0006000C0008000C000A000C000C000C000E000C0200000C0202000C0204000C0206000C0208000C020A000C020C000C020E000C0400000C0402000C0404000C0406000C0
310
408000C040A000C040C000C040E000C0600000C0602000C0604000C0606000C0608000C060A000C060C000C060E000C0800000C0802000C0804000C0806000C0808000C080A000C080C000C080E000C0A00000C0A02000C0A04000C0A06000C0A08000C0A0A000C0A0C000C0A0E000C0C00000C0C02000C0C04000C0C06000
310
C0C08000C0C0A000F0FBFF00A4A0A000808080000000FF0000FF000000FFFF00FF000000FF00FF00FFFF0000FFFFFF0000000000000000000000000000000000000000000000000000000000000000000000000000000000000000000000000000000000000000000000000000000000000000000000000000000000000000
310
00000000000000000000000000000000000000000000000000000000000000000000000000000000000000000000000000000000000000000000000000000000000000000000000000000000000000000000000000000000000000000000000000000000000000000000000000000000000000000000000000000000000000
310
00000000000000000000000000000000000000000000000000000000000000000000000000000000000000000000000000000000000000000000000000000000000000000000000000000000000000000000000000000000000000000000000000000000000000000000000000000000000000000000000000000000000000
310
0000000000000000000000000000000000000000FFFFFFFFFFFFFFFFFFF9F9FFFFFFFFF9FFFFFFFFFFFFF9F9FFFFFFFFFFFFF900F9F9F9F9F9F9F9F9F9F9F9F9F9F9F9F9F9F9F9F9F9F9F9F9F9F9F9F9F9F9F900FF0000000000000000F9F9F9F9F9F9F9F9F9FFFFFFFFFFFFFFFFFFF9FFFF0000F9F9F9F9F9F9F9F9F9F9FF
310
F9FFFFFFF9FFFFFFFFFFFFFFFFFFFFFFF9FFFF0000F9F9F9F9F9F9F9F9F9F9F9F9F9FBFBFBFBFBFBFBFB0000000000000000FF0000F9F9F9F9F9F9F9F9F9F9F9F9F9FFFFFFFFFFFFFFFFFFFFFF0000000000FF0000F9F9F9F9F9F9F9F9F9F9F9F9F9FFFFFFFFFFFFFFFFFFFFFF0000000000FF0000F9F9F9F9F9F9F9F9F9F9
310
F9F9F9F9F9F9F9F9F9F9F9F9F9F9F9F9F9F9F9FF0000FFF9F9F900F9F9F9F9FFF9F9FBFBFBFBFBFBFBFBFB0000000000000000FF0000F9F9F9F9F9F9F9F9F9F9FFFFFFFFFFFFFFFFFFFFFFFFFFFFFFFFFFFFFFFF00000000000000000000000000000000000000000000000000000000000000000000000000000000000000
310
00000000000000000000000000000000000000000000000000000000000000000000000000000000000000000000000000000000000000000000000000000000000000000000000000000000000000000000000000000000000000000000000000000000000000000000000000000000000000000000000000000000000000
310
00000000000000000000000000000000000000000000000000000000000000000000000000000000000000000000000000000000000000000000000000000000000000000000000000000000000000000000000000000000000000000000000000000000000000000000000000000000000000000000000000000000000000
310
0000000000000000000000000000000000000000000000000000000000000000000000000000000000000000000000000000000000000000
  0
BLOCK_RECORD
  5
26D
330
1
100
AcDbSymbolTableRecord
100
AcDbBlockTableRecord
  2
IGS-A4
340
0
310
2800000020000000200000000100080000000000000400000000000000000000000000000000000000000000000080000080000000808000800000008000800080800000C0C0C000C0DCC000F0CAA6000020400000206000002080000020A0000020C0000020E00000400000004020000040400000406000004080000040A0
310
000040C0000040E00000600000006020000060400000606000006080000060A0000060C0000060E00000800000008020000080400000806000008080000080A0000080C0000080E00000A0000000A0200000A0400000A0600000A0800000A0A00000A0C00000A0E00000C0000000C0200000C0400000C0600000C0800000C0
310
A00000C0C00000C0E00000E0000000E0200000E0400000E0600000E0800000E0A00000E0C00000E0E00040000000400020004000400040006000400080004000A0004000C0004000E00040200000402020004020400040206000402080004020A0004020C0004020E000404000004040200040404000404060004040800040
310
40A0004040C0004040E00040600000406020004060400040606000406080004060A0004060C0004060E00040800000408020004080400040806000408080004080A0004080C0004080E00040A0000040A0200040A0400040A0600040A0800040A0A00040A0C00040A0E00040C0000040C0200040C0400040C0600040C08000
310
40C0A00040C0C00040C0E00040E0000040E0200040E0400040E0600040E0800040E0A00040E0C00040E0E00080000000800020008000400080006000800080008000A0008000C0008000E00080200000802020008020400080206000802080008020A0008020C0008020E00080400000804020008040400080406000804080
310
008040A0008040C0008040E00080600000806020008060400080606000806080008060A0008060C0008060E00080800000808020008080400080806000808080008080A0008080C0008080E00080A0000080A0200080A0400080A0600080A0800080A0A00080A0C00080A0E00080C0000080C0200080C0400080C0600080C0
310
800080C0A00080C0C00080C0E00080E0000080E0200080E0400080E0600080E0800080E0A00080E0C00080E0E000C0000000C0002000C0004000C0006000C0008000C000A000C000C000C000E000C0200000C0202000C0204000C0206000C0208000C020A000C020C000C020E000C0400000C0402000C0404000C0406000C0
310
408000C040A000C040C000C040E000C0600000C0602000C0604000C0606000C0608000C060A000C060C000C060E000C0800000C0802000C0804000C0806000C0808000C080A000C080C000C080E000C0A00000C0A02000C0A04000C0A06000C0A08000C0A0A000C0A0C000C0A0E000C0C00000C0C02000C0C04000C0C06000
310
C0C08000C0C0A000F0FBFF00A4A0A000808080000000FF0000FF000000FFFF00FF000000FF00FF00FFFF0000FFFFFF0000000000000000000000000000000000000000000000000000000000000000000000000000000000000000000000000000000000000000000000000000000000000000000000FFFFFFFFFFFFFFFFFF
310
FFFFFFFFFFFFFFFFFF0000000000000000000000000000FF00000000000000000000000000000000FF0000000000000000000000000000FF00000000000000000000000000000000FF0000000000000000000000000000FF00000000000000000000000000000000FF0000000000000000000000000000FF00000000000000
310
000000000000000000FF0000000000000000000000000000FF00000000000000000000000000000000FF0000000000000000000000000000FF00000000000000000000000000000000FF0000000000000000000000000000FF00000000000000000000000000000000FF0000000000000000000000000000FF000000000000
310
00000000000000000000FF0000000000000000000000000000FF00000000000000000000000000000000FF0000000000000000000000000000FF00000000000000000000000000000000FF0000000000000000000000000000FF00000000000000000000000000000000FF0000000000000000000000000000FF0000000000
310
0000000000000000000000FF0000000000000000000000000000FF00000000000000000000000000000000FF0000000000000000000000000000FF00000000000000000000000000000000FF0000000000000000000000000000FF00000000000000000000000000000000FF0000000000000000000000000000FF00000000
310
000000000000000000000000FF0000000000000000000000000000FF00000000000000000000000000000000FF0000000000000000000000000000FF00000000000000000000000000000000FF0000000000000000000000000000FF00000000000000000000000000000000FF0000000000000000000000000000FF000000
310
00000000000000000000000000FF0000000000000000000000000000FF00000000000000000000000000000000FF0000000000000000000000000000FF00000000000000000000000000000000FF0000000000000000000000000000FF00000000000000000000000000000000FF0000000000000000000000000000FF0000
310
0000000000000000000000000000FF0000000000000000000000000000FF00000000000000000000000000000000FF0000000000000000000000000000FF00000000000000000000000000000000FF0000000000000000000000000000FFFFFFFFFFFFFFFFFFFFFFFFFFFFFFFFFFFF00000000000000000000000000000000
310
0000000000000000000000000000000000000000000000000000000000000000000000000000000000000000000000000000000000000000
  0
BLOCK_RECORD
  5
279
330
1
100
AcDbSymbolTableRecord
100
AcDbBlockTableRecord
  2
CI
340
0
310
2800000020000000200000000100080000000000000400000000000000000000000000000000000000000000000080000080000000808000800000008000800080800000C0C0C000C0DCC000F0CAA6000020400000206000002080000020A0000020C0000020E00000400000004020000040400000406000004080000040A0
310
000040C0000040E00000600000006020000060400000606000006080000060A0000060C0000060E00000800000008020000080400000806000008080000080A0000080C0000080E00000A0000000A0200000A0400000A0600000A0800000A0A00000A0C00000A0E00000C0000000C0200000C0400000C0600000C0800000C0
310
A00000C0C00000C0E00000E0000000E0200000E0400000E0600000E0800000E0A00000E0C00000E0E00040000000400020004000400040006000400080004000A0004000C0004000E00040200000402020004020400040206000402080004020A0004020C0004020E000404000004040200040404000404060004040800040
310
40A0004040C0004040E00040600000406020004060400040606000406080004060A0004060C0004060E00040800000408020004080400040806000408080004080A0004080C0004080E00040A0000040A0200040A0400040A0600040A0800040A0A00040A0C00040A0E00040C0000040C0200040C0400040C0600040C08000
310
40C0A00040C0C00040C0E00040E0000040E0200040E0400040E0600040E0800040E0A00040E0C00040E0E00080000000800020008000400080006000800080008000A0008000C0008000E00080200000802020008020400080206000802080008020A0008020C0008020E00080400000804020008040400080406000804080
310
008040A0008040C0008040E00080600000806020008060400080606000806080008060A0008060C0008060E00080800000808020008080400080806000808080008080A0008080C0008080E00080A0000080A0200080A0400080A0600080A0800080A0A00080A0C00080A0E00080C0000080C0200080C0400080C0600080C0
310
800080C0A00080C0C00080C0E00080E0000080E0200080E0400080E0600080E0800080E0A00080E0C00080E0E000C0000000C0002000C0004000C0006000C0008000C000A000C000C000C000E000C0200000C0202000C0204000C0206000C0208000C020A000C020C000C020E000C0400000C0402000C0404000C0406000C0
310
408000C040A000C040C000C040E000C0600000C0602000C0604000C0606000C0608000C060A000C060C000C060E000C0800000C0802000C0804000C0806000C0808000C080A000C080C000C080E000C0A00000C0A02000C0A04000C0A06000C0A08000C0A0A000C0A0C000C0A0E000C0C00000C0C02000C0C04000C0C06000
310
C0C08000C0C0A000F0FBFF00A4A0A000808080000000FF0000FF000000FFFF00FF000000FF00FF00FFFF0000FFFFFF0000000000000000000000000000000000000000000000000000000000000000000000000000000000000000000000000000000000000000000000000000000000000000000000000000000000FFFFFF
310
00000000000000000000000000000000000000000000000000000000FF000000FFFFFFFFFFFF0000000000000000000000000000000000000000FFFF00000000000000000000FFFFFFFF000000000000000000000000000000FF00000000000000000000000000000000FF00000000000000000000000000FF000000000000
310
0000000000000000000000FF0000000000000000000000FFFF00000000000000000000000000000000000000FF000000000000000000FF000000000000000000000000000000000000000000FF0000000000000000FF0000000000000000000000000000000000000000000000FF00000000000000FF000000000000000000
310
0000000000000000000000000000FF00000000000000FF000000000000000000000000000000000000000000000000FF000000000000FF000000000000000000000000000000000000000000000000FF000000000000FF00000000000000000000000000000000000000000000000000FF0000000000FF0000000000000000
310
0000000000000000000000000000000000FF0000000000FF0000000000000000000000000000000000000000000000000000FF00000000FF0000000000000000000000000000000000000000000000000000FF00000000FF00000000000000000000000000000000000000000000000000FF0000000000FF00000000000000
310
000000000000000000000000000000000000FF0000000000FF000000000000000000000000000000000000000000000000FF000000000000FF000000000000000000000000000000000000000000000000FF000000000000FF0000000000000000000000000000000000000000000000FF00000000000000FF000000000000
310
0000000000000000000000000000000000FF0000000000000000FF000000000000000000000000000000000000000000FF00000000000000000000FFFF00000000000000000000000000000000000000FF000000000000000000000000FF0000000000000000000000000000000000FF0000000000000000000000000000FF
310
00000000000000000000000000000000FF000000000000000000000000000000FFFF0000000000000000000000FFFFFF000000000000000000000000000000000000FF00000000FFFFFFFFFFFF00000000000000000000000000000000000000000000FFFFFFFF000000000000000000000000000000000000000000000000
310
0000000000000000000000000000000000000000000000000000000000000000000000000000000000000000000000000000000000000000
  0
BLOCK_RECORD
  5
27D
330
1
100
AcDbSymbolTableRecord
100
AcDbBlockTableRecord
  2
IGS-TITLE
340
0
310
2800000020000000200000000100080000000000000400000000000000000000000000000000000000000000000080000080000000808000800000008000800080800000C0C0C000C0DCC000F0CAA6000020400000206000002080000020A0000020C0000020E00000400000004020000040400000406000004080000040A0
310
000040C0000040E00000600000006020000060400000606000006080000060A0000060C0000060E00000800000008020000080400000806000008080000080A0000080C0000080E00000A0000000A0200000A0400000A0600000A0800000A0A00000A0C00000A0E00000C0000000C0200000C0400000C0600000C0800000C0
310
A00000C0C00000C0E00000E0000000E0200000E0400000E0600000E0800000E0A00000E0C00000E0E00040000000400020004000400040006000400080004000A0004000C0004000E00040200000402020004020400040206000402080004020A0004020C0004020E000404000004040200040404000404060004040800040
310
40A0004040C0004040E00040600000406020004060400040606000406080004060A0004060C0004060E00040800000408020004080400040806000408080004080A0004080C0004080E00040A0000040A0200040A0400040A0600040A0800040A0A00040A0C00040A0E00040C0000040C0200040C0400040C0600040C08000
310
40C0A00040C0C00040C0E00040E0000040E0200040E0400040E0600040E0800040E0A00040E0C00040E0E00080000000800020008000400080006000800080008000A0008000C0008000E00080200000802020008020400080206000802080008020A0008020C0008020E00080400000804020008040400080406000804080
310
008040A0008040C0008040E00080600000806020008060400080606000806080008060A0008060C0008060E00080800000808020008080400080806000808080008080A0008080C0008080E00080A0000080A0200080A0400080A0600080A0800080A0A00080A0C00080A0E00080C0000080C0200080C0400080C0600080C0
310
800080C0A00080C0C00080C0E00080E0000080E0200080E0400080E0600080E0800080E0A00080E0C00080E0E000C0000000C0002000C0004000C0006000C0008000C000A000C000C000C000E000C0200000C0202000C0204000C0206000C0208000C020A000C020C000C020E000C0400000C0402000C0404000C0406000C0
310
408000C040A000C040C000C040E000C0600000C0602000C0604000C0606000C0608000C060A000C060C000C060E000C0800000C0802000C0804000C0806000C0808000C080A000C080C000C080E000C0A00000C0A02000C0A04000C0A06000C0A08000C0A0A000C0A0C000C0A0E000C0C00000C0C02000C0C04000C0C06000
310
C0C08000C0C0A000F0FBFF00A4A0A000808080000000FF0000FF000000FFFF00FF000000FF00FF00FFFF0000FFFFFF0000000000000000000000000000000000000000000000000000000000000000000000000000000000000000000000000000000000000000000000000000000000000000000000000000000000000000
310
00000000000000000000000000000000000000000000000000000000000000000000000000000000000000000000000000000000000000000000000000000000000000000000000000000000000000000000000000000000000000000000000000000000000000000000000000000000000000000000000000000000000000
310
00000000000000000000000000000000000000000000000000000000000000000000000000000000000000000000000000000000000000000000000000000000000000000000000000000000000000000000000000000000000000000000000000000000000000000000000000000000000000000000000000000000000000
310
0000000000000000000000000000000000000000000000000000000000000000000000000000000000000000000000000000000000000000000000000000000000000000000000000000000000000000000000000000000000000000000000000000000000000000000000000000000000000000FFFFFFFFFFFFFFFFFFFFFF
310
FFFFFFFFFFFFFFFFFFFFFFFFFFFFFFFFFFFFFF0000FFFFFFFFFFFFFFFFFFFFFFFFFFFFFFFFFFFFFFFFFFFFFFFFFFFFFFFFFFFF0000FFFFFFFFFFFFFFFFFFFFFFFFFFFFFFFFFFFF00000000FFFF000000FFFFFF0000FFFFFFFFFFFFFFFFFFFFFFFFFFFFFFFFFFFFFFFFFFFFFFFFFFFFFFFFFFFF000000000000000000000000
310
00000000000000000000000000000000000000000000000000000000000000000000000000000000000000000000000000000000000000000000000000000000000000000000000000000000000000000000000000000000000000000000000000000000000000000000000000000000000000000000000000000000000000
310
00000000000000000000000000000000000000000000000000000000000000000000000000000000000000000000000000000000000000000000000000000000000000000000000000000000000000000000000000000000000000000000000000000000000000000000000000000000000000000000000000000000000000
310
00000000000000000000000000000000000000000000000000000000000000000000000000000000000000000000000000000000000000000000000000000000000000000000000000000000000000000000000000000000000000000000000000000000000000000000000000000000000000000000000000000000000000
310
0000000000000000000000000000000000000000000000000000000000000000000000000000000000000000000000000000000000000000
  0
BLOCK_RECORD
  5
335
330
1
100
AcDbSymbolTableRecord
100
AcDbBlockTableRecord
  2
IGS2
340
0
310
2800000020000000200000000100080000000000000400000000000000000000000000000000000000000000000080000080000000808000800000008000800080800000C0C0C000C0DCC000F0CAA6000020400000206000002080000020A0000020C0000020E00000400000004020000040400000406000004080000040A0
310
000040C0000040E00000600000006020000060400000606000006080000060A0000060C0000060E00000800000008020000080400000806000008080000080A0000080C0000080E00000A0000000A0200000A0400000A0600000A0800000A0A00000A0C00000A0E00000C0000000C0200000C0400000C0600000C0800000C0
310
A00000C0C00000C0E00000E0000000E0200000E0400000E0600000E0800000E0A00000E0C00000E0E00040000000400020004000400040006000400080004000A0004000C0004000E00040200000402020004020400040206000402080004020A0004020C0004020E000404000004040200040404000404060004040800040
310
40A0004040C0004040E00040600000406020004060400040606000406080004060A0004060C0004060E00040800000408020004080400040806000408080004080A0004080C0004080E00040A0000040A0200040A0400040A0600040A0800040A0A00040A0C00040A0E00040C0000040C0200040C0400040C0600040C08000
310
40C0A00040C0C00040C0E00040E0000040E0200040E0400040E0600040E0800040E0A00040E0C00040E0E00080000000800020008000400080006000800080008000A0008000C0008000E00080200000802020008020400080206000802080008020A0008020C0008020E00080400000804020008040400080406000804080
310
008040A0008040C0008040E00080600000806020008060400080606000806080008060A0008060C0008060E00080800000808020008080400080806000808080008080A0008080C0008080E00080A0000080A0200080A0400080A0600080A0800080A0A00080A0C00080A0E00080C0000080C0200080C0400080C0600080C0
310
800080C0A00080C0C00080C0E00080E0000080E0200080E0400080E0600080E0800080E0A00080E0C00080E0E000C0000000C0002000C0004000C0006000C0008000C000A000C000C000C000E000C0200000C0202000C0204000C0206000C0208000C020A000C020C000C020E000C0400000C0402000C0404000C0406000C0
310
408000C040A000C040C000C040E000C0600000C0602000C0604000C0606000C0608000C060A000C060C000C060E000C0800000C0802000C0804000C0806000C0808000C080A000C080C000C080E000C0A00000C0A02000C0A04000C0A06000C0A08000C0A0A000C0A0C000C0A0E000C0C00000C0C02000C0C04000C0C06000
310
C0C08000C0C0A000F0FBFF00A4A0A000808080000000FF0000FF000000FFFF00FF000000FF00FF00FFFF0000FFFFFF0000000000000000000000000000000000000000000000000000000000000000000000000000000000000000000000000000000000000000000000000000000000000000000000000000000000000000
310
00000000000000000000000000000000000000000000000000000000000000000000000000000000000000000000000000000000000000000000000000000000000000000000000000000000000000000000F9FBFBF9F9F9FBFBF9F9F9F90000000000000000000000000000000000000000F9F9FBFBFBFBFBFBFBF9F9F900
310
00000000000000000000000000000000000000F9FBFBFBFBFBFBFBFBF9F9F90000000000000000000000000000000000000000F9F9F9F9F9F9F9F9F9F9F9F900000000000000000000000000000000000000000000000000000000000000000000000000000000000000000000000000000000000000000000000000000000
310
00000000000000000000000000000000000000000000000000000000000000000000000000000000000000000000000000000000000000000000000000000000000000000000000000000000000000000000000000000000000000000000000000000000000000000000000000000000000000000000000000000000000000
310
00000000000000000000000000000000000000000000000000000000000000000000000000000000000000000000000000000000000000000000000000000000000000000000000000000000000000000000000000000000000000000000000000000000000000000000000000000000000000000000000000000000000000
310
00000000000000000000000000000000000000000000000000000000000000000000000000000000000000000000000000000000000000000000000000000000000000000000000000000000000000000000000000000000000000000000000000000000000000000000000000000000000000000000000000000000000000
310
00000000000000000000000000000000000000000000000000000000000000000000000000000000000000000000000000000000000000000000000000000000000000000000000000000000000000000000000000000000000000000000000000000000000000000000000000000000000000000000000000000000000000
310
00000000000000000000000000000000000000000000000000000000000000000000000000000000000000000000000000000000000000000000000000000000000000000000000000000000000000000000000000000000000000000000000000000000000000000000000000000000000000000000000000000000000000
310
0000000000000000000000000000000000000000000000000000000000000000000000000000000000000000000000000000000000000000
102
{BLKREFS
331
133B
102
}
  0
BLOCK_RECORD
  5
3FC
330
1
100
AcDbSymbolTableRecord
100
AcDbBlockTableRecord
  2
IGS_A1
340
0
310
2800000020000000200000000100080000000000000400000000000000000000000000000000000000000000000080000080000000808000800000008000800080800000C0C0C000C0DCC000F0CAA6000020400000206000002080000020A0000020C0000020E00000400000004020000040400000406000004080000040A0
310
000040C0000040E00000600000006020000060400000606000006080000060A0000060C0000060E00000800000008020000080400000806000008080000080A0000080C0000080E00000A0000000A0200000A0400000A0600000A0800000A0A00000A0C00000A0E00000C0000000C0200000C0400000C0600000C0800000C0
310
A00000C0C00000C0E00000E0000000E0200000E0400000E0600000E0800000E0A00000E0C00000E0E00040000000400020004000400040006000400080004000A0004000C0004000E00040200000402020004020400040206000402080004020A0004020C0004020E000404000004040200040404000404060004040800040
310
40A0004040C0004040E00040600000406020004060400040606000406080004060A0004060C0004060E00040800000408020004080400040806000408080004080A0004080C0004080E00040A0000040A0200040A0400040A0600040A0800040A0A00040A0C00040A0E00040C0000040C0200040C0400040C0600040C08000
310
40C0A00040C0C00040C0E00040E0000040E0200040E0400040E0600040E0800040E0A00040E0C00040E0E00080000000800020008000400080006000800080008000A0008000C0008000E00080200000802020008020400080206000802080008020A0008020C0008020E00080400000804020008040400080406000804080
310
008040A0008040C0008040E00080600000806020008060400080606000806080008060A0008060C0008060E00080800000808020008080400080806000808080008080A0008080C0008080E00080A0000080A0200080A0400080A0600080A0800080A0A00080A0C00080A0E00080C0000080C0200080C0400080C0600080C0
310
800080C0A00080C0C00080C0E00080E0000080E0200080E0400080E0600080E0800080E0A00080E0C00080E0E000C0000000C0002000C0004000C0006000C0008000C000A000C000C000C000E000C0200000C0202000C0204000C0206000C0208000C020A000C020C000C020E000C0400000C0402000C0404000C0406000C0
310
408000C040A000C040C000C040E000C0600000C0602000C0604000C0606000C0608000C060A000C060C000C060E000C0800000C0802000C0804000C0806000C0808000C080A000C080C000C080E000C0A00000C0A02000C0A04000C0A06000C0A08000C0A0A000C0A0C000C0A0E000C0C00000C0C02000C0C04000C0C06000
310
C0C08000C0C0A000F0FBFF00A4A0A000808080000000FF0000FF000000FFFF00FF000000FF00FF00FFFF0000FFFFFF0000000000000000000000000000000000000000000000000000000000000000000000000000000000000000000000000000000000000000000000000000000000000000000000000000000000000000
310
00000000000000000000000000000000000000000000000000000000000000000000000000000000000000000000000000000000000000000000000000000000000000000000000000000000000000000000000000000000000000000000000000000000000000000000000000000000000000000000000000000000000000
310
00000000000000000000000000000000000000F9F9F9F9F9F9F9F9F9F9F9F9F9F9F9F9F9F9F9F9F9F9F9F9F9F9000000000000F9FF0000000000000000000000000000000000000000000000F9000000000000F9FF0000000000000000000000000000000000000000000000F9000000000000F9FF00000000000000000000
310
00000000000000000000000000F9000000000000F9FF0000000000000000000000000000000000000000000000F9000000000000F9FF0000000000000000000000000000000000000000000000F9000000000000F9FF0000000000000000000000000000000000000000000000F9000000000000F9FF000000000000000000
310
0000000000000000000000000000F9000000000000F9FF0000000000000000000000000000000000000000000000F9000000000000F9FF0000000000000000000000000000000000000000000000F9000000000000F9FF0000000000000000000000000000000000000000000000F9000000000000F9FF0000000000000000
310
000000000000000000000000000000F9000000000000F9FF0000000000000000000000000000000000000000000000F9000000000000F9FF0000000000000000000000000000000000000000000000F9000000000000F9FF0000000000000000000000000000000000000000000000F9000000000000F9FF00000000000000
310
00000000000000000000000000000000F9000000000000F9FF0000000000000000000000000000000000000000000000F9000000000000F9F9F9F9F9F9F9F9F9F9F9F9F9F9F9F9F9F9F9F9F9F9F9F9F9F900000000000000000000000000000000000000000000000000000000000000000000000000000000000000000000
310
00000000000000000000000000000000000000000000000000000000000000000000000000000000000000000000000000000000000000000000000000000000000000000000000000000000000000000000000000000000000000000000000000000000000000000000000000000000000000000000000000000000000000
310
0000000000000000000000000000000000000000000000000000000000000000000000000000000000000000000000000000000000000000
  0
BLOCK_RECORD
  5
50A
330
1
100
AcDbSymbolTableRecord
100
AcDbBlockTableRecord
  2
jis_bl_revisionlist1
340
0
310
2800000020000000200000000100080000000000000400000000000000000000000000000000000000000000000080000080000000808000800000008000800080800000C0C0C000C0DCC000F0CAA6000020400000206000002080000020A0000020C0000020E00000400000004020000040400000406000004080000040A0
310
000040C0000040E00000600000006020000060400000606000006080000060A0000060C0000060E00000800000008020000080400000806000008080000080A0000080C0000080E00000A0000000A0200000A0400000A0600000A0800000A0A00000A0C00000A0E00000C0000000C0200000C0400000C0600000C0800000C0
310
A00000C0C00000C0E00000E0000000E0200000E0400000E0600000E0800000E0A00000E0C00000E0E00040000000400020004000400040006000400080004000A0004000C0004000E00040200000402020004020400040206000402080004020A0004020C0004020E000404000004040200040404000404060004040800040
310
40A0004040C0004040E00040600000406020004060400040606000406080004060A0004060C0004060E00040800000408020004080400040806000408080004080A0004080C0004080E00040A0000040A0200040A0400040A0600040A0800040A0A00040A0C00040A0E00040C0000040C0200040C0400040C0600040C08000
310
40C0A00040C0C00040C0E00040E0000040E0200040E0400040E0600040E0800040E0A00040E0C00040E0E00080000000800020008000400080006000800080008000A0008000C0008000E00080200000802020008020400080206000802080008020A0008020C0008020E00080400000804020008040400080406000804080
310
008040A0008040C0008040E00080600000806020008060400080606000806080008060A0008060C0008060E00080800000808020008080400080806000808080008080A0008080C0008080E00080A0000080A0200080A0400080A0600080A0800080A0A00080A0C00080A0E00080C0000080C0200080C0400080C0600080C0
310
800080C0A00080C0C00080C0E00080E0000080E0200080E0400080E0600080E0800080E0A00080E0C00080E0E000C0000000C0002000C0004000C0006000C0008000C000A000C000C000C000E000C0200000C0202000C0204000C0206000C0208000C020A000C020C000C020E000C0400000C0402000C0404000C0406000C0
310
408000C040A000C040C000C040E000C0600000C0602000C0604000C0606000C0608000C060A000C060C000C060E000C0800000C0802000C0804000C0806000C0808000C080A000C080C000C080E000C0A00000C0A02000C0A04000C0A06000C0A08000C0A0A000C0A0C000C0A0E000C0C00000C0C02000C0C04000C0C06000
310
C0C08000C0C0A000F0FBFF00A4A0A000808080000000FF0000FF000000FFFF00FF000000FF00FF00FFFF0000FFFFFF0000000000000000000000000000000000000000000000000000000000000000000000000000000000000000000000000000000000000000000000000000000000000000000000000000000000000000
310
00000000000000000000000000000000000000000000000000000000000000000000000000000000000000000000000000000000000000000000000000000000000000000000000000000000000000000000000000000000000000000000000000000000000000000000000000000000000000000000000000000000000000
310
00000000000000000000000000000000000000000000000000000000000000000000000000000000000000000000000000000000000000000000000000000000000000000000000000000000000000000000000000000000000000000000000000000000000000000000000000000000000000000000000000000000000000
310
00000000000000000000000000000000000000000000000000000000000000000000000000000000000000000000000000000000000000000000000000000000000000000000000000000000000000000000000000000000000000000000000000000000000000000000000000000000000000000000000000000000000000
310
000000000000000000000000000000000000000000FFFFFFFFFFFFFFFFFFFFFFFFFFFFFFFFFFFFFFFFFFFFFFFFFFFFFFFF00000000FFFFFFFFFFFFFFFFFFFFFFFFFFFFFFFFFFFFFFFFFFFFFFFFFFFFFFFFFFFF0000000000000000000000000000000000000000000000000000000000000000000000000000000000000000
310
00000000000000000000000000000000000000000000000000000000000000000000000000000000000000000000000000000000000000000000000000000000000000000000000000000000000000000000000000000000000000000000000000000000000000000000000000000000000000000000000000000000000000
310
00000000000000000000000000000000000000000000000000000000000000000000000000000000000000000000000000000000000000000000000000000000000000000000000000000000000000000000000000000000000000000000000000000000000000000000000000000000000000000000000000000000000000
310
00000000000000000000000000000000000000000000000000000000000000000000000000000000000000000000000000000000000000000000000000000000000000000000000000000000000000000000000000000000000000000000000000000000000000000000000000000000000000000000000000000000000000
310
0000000000000000000000000000000000000000000000000000000000000000000000000000000000000000000000000000000000000000
102
{BLKREFS
331
52F
102
}
1001
ACAD
1000
DesignCenter Data
1002
{
1070
     1
1070
     1
1002
}
  0
BLOCK_RECORD
  5
520
330
1
100
AcDbSymbolTableRecord
100
AcDbBlockTableRecord
  2
jis_bl_revisionlist0
340
0
310
2800000020000000200000000100080000000000000400000000000000000000000000000000000000000000000080000080000000808000800000008000800080800000C0C0C000C0DCC000F0CAA6000020400000206000002080000020A0000020C0000020E00000400000004020000040400000406000004080000040A0
310
000040C0000040E00000600000006020000060400000606000006080000060A0000060C0000060E00000800000008020000080400000806000008080000080A0000080C0000080E00000A0000000A0200000A0400000A0600000A0800000A0A00000A0C00000A0E00000C0000000C0200000C0400000C0600000C0800000C0
310
A00000C0C00000C0E00000E0000000E0200000E0400000E0600000E0800000E0A00000E0C00000E0E00040000000400020004000400040006000400080004000A0004000C0004000E00040200000402020004020400040206000402080004020A0004020C0004020E000404000004040200040404000404060004040800040
310
40A0004040C0004040E00040600000406020004060400040606000406080004060A0004060C0004060E00040800000408020004080400040806000408080004080A0004080C0004080E00040A0000040A0200040A0400040A0600040A0800040A0A00040A0C00040A0E00040C0000040C0200040C0400040C0600040C08000
310
40C0A00040C0C00040C0E00040E0000040E0200040E0400040E0600040E0800040E0A00040E0C00040E0E00080000000800020008000400080006000800080008000A0008000C0008000E00080200000802020008020400080206000802080008020A0008020C0008020E00080400000804020008040400080406000804080
310
008040A0008040C0008040E00080600000806020008060400080606000806080008060A0008060C0008060E00080800000808020008080400080806000808080008080A0008080C0008080E00080A0000080A0200080A0400080A0600080A0800080A0A00080A0C00080A0E00080C0000080C0200080C0400080C0600080C0
310
800080C0A00080C0C00080C0E00080E0000080E0200080E0400080E0600080E0800080E0A00080E0C00080E0E000C0000000C0002000C0004000C0006000C0008000C000A000C000C000C000E000C0200000C0202000C0204000C0206000C0208000C020A000C020C000C020E000C0400000C0402000C0404000C0406000C0
310
408000C040A000C040C000C040E000C0600000C0602000C0604000C0606000C0608000C060A000C060C000C060E000C0800000C0802000C0804000C0806000C0808000C080A000C080C000C080E000C0A00000C0A02000C0A04000C0A06000C0A08000C0A0A000C0A0C000C0A0E000C0C00000C0C02000C0C04000C0C06000
310
C0C08000C0C0A000F0FBFF00A4A0A000808080000000FF0000FF000000FFFF00FF000000FF00FF00FFFF0000FFFFFF0000000000000000000000000000000000000000000000000000000000000000000000000000000000000000000000000000000000000000000000000000000000000000000000000000000000000000
310
00000000000000000000000000000000000000000000000000000000000000000000000000000000000000000000000000000000000000000000000000000000000000000000000000000000000000000000000000000000000000000000000000000000000000000000000000000000000000000000000000000000000000
310
00000000000000000000000000000000000000000000000000000000000000000000000000000000000000000000000000000000000000000000000000000000000000000000000000000000000000000000000000000000000000000000000000000000000000000000000000000000000000000000000000000000000000
310
00000000000000000000000000000000000000000000000000000000000000000000000000000000000000000000000000000000000000000000000000000000000000000000000000000000000000000000000000000000000000000000000000000000000000000000000000000000000000000000000000000000000000
310
000000000000000000000000000000000000000000FFFFFFFFFFFFFFFFFFFFFFFFFFFFFFFFFFFFFFFFFFFFFFFFFFFFFFFFFFFF0000FFFFFFFFFFFFFFFFFFFFFFFFFFFFFFFFFFFFFFFFFFFFFFFFFFFFFFFFFFFF0000000000000000000000000000000000000000000000000000000000000000000000000000000000000000
310
00000000000000000000000000000000000000000000000000000000000000000000000000000000000000000000000000000000000000000000000000000000000000000000000000000000000000000000000000000000000000000000000000000000000000000000000000000000000000000000000000000000000000
310
00000000000000000000000000000000000000000000000000000000000000000000000000000000000000000000000000000000000000000000000000000000000000000000000000000000000000000000000000000000000000000000000000000000000000000000000000000000000000000000000000000000000000
310
00000000000000000000000000000000000000000000000000000000000000000000000000000000000000000000000000000000000000000000000000000000000000000000000000000000000000000000000000000000000000000000000000000000000000000000000000000000000000000000000000000000000000
310
0000000000000000000000000000000000000000000000000000000000000000000000000000000000000000000000000000000000000000
102
{BLKREFS
331
537
102
}
1001
ACAD
1000
DesignCenter Data
1002
{
1070
     1
1070
     1
1002
}
  0
BLOCK_RECORD
  5
52E
330
1
100
AcDbSymbolTableRecord
100
AcDbBlockTableRecord
  2
jis_bl_revisionlist
340
0
310
2800000020000000200000000100080000000000000400000000000000000000000000000000000000000000000080000080000000808000800000008000800080800000C0C0C000C0DCC000F0CAA6000020400000206000002080000020A0000020C0000020E00000400000004020000040400000406000004080000040A0
310
000040C0000040E00000600000006020000060400000606000006080000060A0000060C0000060E00000800000008020000080400000806000008080000080A0000080C0000080E00000A0000000A0200000A0400000A0600000A0800000A0A00000A0C00000A0E00000C0000000C0200000C0400000C0600000C0800000C0
310
A00000C0C00000C0E00000E0000000E0200000E0400000E0600000E0800000E0A00000E0C00000E0E00040000000400020004000400040006000400080004000A0004000C0004000E00040200000402020004020400040206000402080004020A0004020C0004020E000404000004040200040404000404060004040800040
310
40A0004040C0004040E00040600000406020004060400040606000406080004060A0004060C0004060E00040800000408020004080400040806000408080004080A0004080C0004080E00040A0000040A0200040A0400040A0600040A0800040A0A00040A0C00040A0E00040C0000040C0200040C0400040C0600040C08000
310
40C0A00040C0C00040C0E00040E0000040E0200040E0400040E0600040E0800040E0A00040E0C00040E0E00080000000800020008000400080006000800080008000A0008000C0008000E00080200000802020008020400080206000802080008020A0008020C0008020E00080400000804020008040400080406000804080
310
008040A0008040C0008040E00080600000806020008060400080606000806080008060A0008060C0008060E00080800000808020008080400080806000808080008080A0008080C0008080E00080A0000080A0200080A0400080A0600080A0800080A0A00080A0C00080A0E00080C0000080C0200080C0400080C0600080C0
310
800080C0A00080C0C00080C0E00080E0000080E0200080E0400080E0600080E0800080E0A00080E0C00080E0E000C0000000C0002000C0004000C0006000C0008000C000A000C000C000C000E000C0200000C0202000C0204000C0206000C0208000C020A000C020C000C020E000C0400000C0402000C0404000C0406000C0
310
408000C040A000C040C000C040E000C0600000C0602000C0604000C0606000C0608000C060A000C060C000C060E000C0800000C0802000C0804000C0806000C0808000C080A000C080C000C080E000C0A00000C0A02000C0A04000C0A06000C0A08000C0A0A000C0A0C000C0A0E000C0C00000C0C02000C0C04000C0C06000
310
C0C08000C0C0A000F0FBFF00A4A0A000808080000000FF0000FF000000FFFF00FF000000FF00FF00FFFF0000FFFFFF0000000000000000000000000000000000000000000000000000000000000000000000000000000000000000000000000000000000000000000000000000000000000000000000000000000000000000
310
00000000000000000000000000000000000000000000000000000000000000000000000000000000000000000000000000000000000000000000000000000000000000000000000000000000000000000000000000000000000000000000000000000000000000000000000000000000000000000000000000000000000000
310
00000000000000000000000000000000000000000000000000000000000000000000000000000000000000000000000000000000000000000000000000000000000000000000000000000000000000000000000000000000000000000000000000000000000000000000000000000000000000000000000000000000000000
310
00000000000000000000000000000000000000000000000000000000000000000000000000000000000000000000000000000000000000000000000000000000000000000000000000000000000000000000000000000000000000000000000000000000000000000000000000000000000000000000000000000000000000
310
000000000000000000000000000000000000000000FFF9F9F9FFF9F9FFFFFFFFFFFFFFFFFFFFFFFFFFFFFFFFFFFFF9F9FFFFFF0000FFFFF9FFFFF9FFFFFFFFFFFFFFFFFFFFFFFFFFFFFFFFFFFFFFF9FFFFFFFF0000000000000000000000000000000000000000000000000000000000000000000000000000000000000000
310
00000000000000000000000000000000000000000000000000000000000000000000000000000000000000000000000000000000000000000000000000000000000000000000000000000000000000000000000000000000000000000000000000000000000000000000000000000000000000000000000000000000000000
310
00000000000000000000000000000000000000000000000000000000000000000000000000000000000000000000000000000000000000000000000000000000000000000000000000000000000000000000000000000000000000000000000000000000000000000000000000000000000000000000000000000000000000
310
00000000000000000000000000000000000000000000000000000000000000000000000000000000000000000000000000000000000000000000000000000000000000000000000000000000000000000000000000000000000000000000000000000000000000000000000000000000000000000000000000000000000000
310
0000000000000000000000000000000000000000000000000000000000000000000000000000000000000000000000000000000000000000
  0
BLOCK_RECORD
  5
5D6
330
1
100
AcDbSymbolTableRecord
100
AcDbBlockTableRecord
  2
jis_br_revisionlist0
340
0
310
2800000020000000200000000100080000000000000400000000000000000000000000000000000000000000000080000080000000808000800000008000800080800000C0C0C000C0DCC000F0CAA6000020400000206000002080000020A0000020C0000020E00000400000004020000040400000406000004080000040A0
310
000040C0000040E00000600000006020000060400000606000006080000060A0000060C0000060E00000800000008020000080400000806000008080000080A0000080C0000080E00000A0000000A0200000A0400000A0600000A0800000A0A00000A0C00000A0E00000C0000000C0200000C0400000C0600000C0800000C0
310
A00000C0C00000C0E00000E0000000E0200000E0400000E0600000E0800000E0A00000E0C00000E0E00040000000400020004000400040006000400080004000A0004000C0004000E00040200000402020004020400040206000402080004020A0004020C0004020E000404000004040200040404000404060004040800040
310
40A0004040C0004040E00040600000406020004060400040606000406080004060A0004060C0004060E00040800000408020004080400040806000408080004080A0004080C0004080E00040A0000040A0200040A0400040A0600040A0800040A0A00040A0C00040A0E00040C0000040C0200040C0400040C0600040C08000
310
40C0A00040C0C00040C0E00040E0000040E0200040E0400040E0600040E0800040E0A00040E0C00040E0E00080000000800020008000400080006000800080008000A0008000C0008000E00080200000802020008020400080206000802080008020A0008020C0008020E00080400000804020008040400080406000804080
310
008040A0008040C0008040E00080600000806020008060400080606000806080008060A0008060C0008060E00080800000808020008080400080806000808080008080A0008080C0008080E00080A0000080A0200080A0400080A0600080A0800080A0A00080A0C00080A0E00080C0000080C0200080C0400080C0600080C0
310
800080C0A00080C0C00080C0E00080E0000080E0200080E0400080E0600080E0800080E0A00080E0C00080E0E000C0000000C0002000C0004000C0006000C0008000C000A000C000C000C000E000C0200000C0202000C0204000C0206000C0208000C020A000C020C000C020E000C0400000C0402000C0404000C0406000C0
310
408000C040A000C040C000C040E000C0600000C0602000C0604000C0606000C0608000C060A000C060C000C060E000C0800000C0802000C0804000C0806000C0808000C080A000C080C000C080E000C0A00000C0A02000C0A04000C0A06000C0A08000C0A0A000C0A0C000C0A0E000C0C00000C0C02000C0C04000C0C06000
310
C0C08000C0C0A000F0FBFF00A4A0A000808080000000FF0000FF000000FFFF00FF000000FF00FF00FFFF0000FFFFFF0000000000000000000000000000000000000000000000000000000000000000000000000000000000000000000000000000000000000000000000000000000000000000000000000000000000000000
310
00000000000000000000000000000000000000000000000000000000000000000000000000000000000000000000000000000000000000000000000000000000000000000000000000000000000000000000000000000000000000000000000000000000000000000000000000000000000000000000000000000000000000
310
00000000000000000000000000000000000000000000000000000000000000000000000000000000000000000000000000000000000000000000000000000000000000000000000000000000000000000000000000000000000000000000000000000000000000000000000000000000000000000000000000000000000000
310
00000000000000000000000000000000000000000000000000000000000000000000000000000000000000000000000000000000000000000000000000000000000000000000000000000000000000000000000000000000000000000000000000000000000000000000000000000000000000000000000000000000000000
310
000000000000000000000000000000000000000000FFFFFFFFFFFFFFFFFFFFFFFFFFFFFFFFFFFFFFFFFFFFFFFFFFFFFFFFFFFF0000FFFFFFFFFFFFFFFFFFFFFFFFFFFFFFFFFFFFFFFFFFFFFFFFFFFFFFFFFFFF0000000000000000000000000000000000000000000000000000000000000000000000000000000000000000
310
00000000000000000000000000000000000000000000000000000000000000000000000000000000000000000000000000000000000000000000000000000000000000000000000000000000000000000000000000000000000000000000000000000000000000000000000000000000000000000000000000000000000000
310
00000000000000000000000000000000000000000000000000000000000000000000000000000000000000000000000000000000000000000000000000000000000000000000000000000000000000000000000000000000000000000000000000000000000000000000000000000000000000000000000000000000000000
310
00000000000000000000000000000000000000000000000000000000000000000000000000000000000000000000000000000000000000000000000000000000000000000000000000000000000000000000000000000000000000000000000000000000000000000000000000000000000000000000000000000000000000
310
0000000000000000000000000000000000000000000000000000000000000000000000000000000000000000000000000000000000000000
102
{BLKREFS
331
603
102
}
1001
ACAD
1000
DesignCenter Data
1002
{
1070
     1
1070
     1
1002
}
  0
BLOCK_RECORD
  5
5E4
330
1
100
AcDbSymbolTableRecord
100
AcDbBlockTableRecord
  2
jis_br_revisionlist1
340
0
310
2800000020000000200000000100080000000000000400000000000000000000000000000000000000000000000080000080000000808000800000008000800080800000C0C0C000C0DCC000F0CAA6000020400000206000002080000020A0000020C0000020E00000400000004020000040400000406000004080000040A0
310
000040C0000040E00000600000006020000060400000606000006080000060A0000060C0000060E00000800000008020000080400000806000008080000080A0000080C0000080E00000A0000000A0200000A0400000A0600000A0800000A0A00000A0C00000A0E00000C0000000C0200000C0400000C0600000C0800000C0
310
A00000C0C00000C0E00000E0000000E0200000E0400000E0600000E0800000E0A00000E0C00000E0E00040000000400020004000400040006000400080004000A0004000C0004000E00040200000402020004020400040206000402080004020A0004020C0004020E000404000004040200040404000404060004040800040
310
40A0004040C0004040E00040600000406020004060400040606000406080004060A0004060C0004060E00040800000408020004080400040806000408080004080A0004080C0004080E00040A0000040A0200040A0400040A0600040A0800040A0A00040A0C00040A0E00040C0000040C0200040C0400040C0600040C08000
310
40C0A00040C0C00040C0E00040E0000040E0200040E0400040E0600040E0800040E0A00040E0C00040E0E00080000000800020008000400080006000800080008000A0008000C0008000E00080200000802020008020400080206000802080008020A0008020C0008020E00080400000804020008040400080406000804080
310
008040A0008040C0008040E00080600000806020008060400080606000806080008060A0008060C0008060E00080800000808020008080400080806000808080008080A0008080C0008080E00080A0000080A0200080A0400080A0600080A0800080A0A00080A0C00080A0E00080C0000080C0200080C0400080C0600080C0
310
800080C0A00080C0C00080C0E00080E0000080E0200080E0400080E0600080E0800080E0A00080E0C00080E0E000C0000000C0002000C0004000C0006000C0008000C000A000C000C000C000E000C0200000C0202000C0204000C0206000C0208000C020A000C020C000C020E000C0400000C0402000C0404000C0406000C0
310
408000C040A000C040C000C040E000C0600000C0602000C0604000C0606000C0608000C060A000C060C000C060E000C0800000C0802000C0804000C0806000C0808000C080A000C080C000C080E000C0A00000C0A02000C0A04000C0A06000C0A08000C0A0A000C0A0C000C0A0E000C0C00000C0C02000C0C04000C0C06000
310
C0C08000C0C0A000F0FBFF00A4A0A000808080000000FF0000FF000000FFFF00FF000000FF00FF00FFFF0000FFFFFF0000000000000000000000000000000000000000000000000000000000000000000000000000000000000000000000000000000000000000000000000000000000000000000000000000000000000000
310
00000000000000000000000000000000000000000000000000000000000000000000000000000000000000000000000000000000000000000000000000000000000000000000000000000000000000000000000000000000000000000000000000000000000000000000000000000000000000000000000000000000000000
310
00000000000000000000000000000000000000000000000000000000000000000000000000000000000000000000000000000000000000000000000000000000000000000000000000000000000000000000000000000000000000000000000000000000000000000000000000000000000000000000000000000000000000
310
00000000000000000000000000000000000000000000000000000000000000000000000000000000000000000000000000000000000000000000000000000000000000000000000000000000000000000000000000000000000000000000000000000000000000000000000000000000000000000000000000000000000000
310
000000000000000000000000000000000000000000FFFFFFFFFFFFFFFFFFFFFFFFFFFFFFFFFFFFFFFFFFFFFFFFFFFFFFFF00000000FFFFFFFFFFFFFFFFFFFFFFFFFFFFFFFFFFFFFFFFFFFFFFFFFFFFFFFFFFFF0000000000000000000000000000000000000000000000000000000000000000000000000000000000000000
310
00000000000000000000000000000000000000000000000000000000000000000000000000000000000000000000000000000000000000000000000000000000000000000000000000000000000000000000000000000000000000000000000000000000000000000000000000000000000000000000000000000000000000
310
00000000000000000000000000000000000000000000000000000000000000000000000000000000000000000000000000000000000000000000000000000000000000000000000000000000000000000000000000000000000000000000000000000000000000000000000000000000000000000000000000000000000000
310
00000000000000000000000000000000000000000000000000000000000000000000000000000000000000000000000000000000000000000000000000000000000000000000000000000000000000000000000000000000000000000000000000000000000000000000000000000000000000000000000000000000000000
310
0000000000000000000000000000000000000000000000000000000000000000000000000000000000000000000000000000000000000000
102
{BLKREFS
331
5FB
102
}
1001
ACAD
1000
DesignCenter Data
1002
{
1070
     1
1070
     1
1002
}
  0
BLOCK_RECORD
  5
5FA
330
1
100
AcDbSymbolTableRecord
100
AcDbBlockTableRecord
  2
jis_br_revisionlist
340
0
310
2800000020000000200000000100080000000000000400000000000000000000000000000000000000000000000080000080000000808000800000008000800080800000C0C0C000C0DCC000F0CAA6000020400000206000002080000020A0000020C0000020E00000400000004020000040400000406000004080000040A0
310
000040C0000040E00000600000006020000060400000606000006080000060A0000060C0000060E00000800000008020000080400000806000008080000080A0000080C0000080E00000A0000000A0200000A0400000A0600000A0800000A0A00000A0C00000A0E00000C0000000C0200000C0400000C0600000C0800000C0
310
A00000C0C00000C0E00000E0000000E0200000E0400000E0600000E0800000E0A00000E0C00000E0E00040000000400020004000400040006000400080004000A0004000C0004000E00040200000402020004020400040206000402080004020A0004020C0004020E000404000004040200040404000404060004040800040
310
40A0004040C0004040E00040600000406020004060400040606000406080004060A0004060C0004060E00040800000408020004080400040806000408080004080A0004080C0004080E00040A0000040A0200040A0400040A0600040A0800040A0A00040A0C00040A0E00040C0000040C0200040C0400040C0600040C08000
310
40C0A00040C0C00040C0E00040E0000040E0200040E0400040E0600040E0800040E0A00040E0C00040E0E00080000000800020008000400080006000800080008000A0008000C0008000E00080200000802020008020400080206000802080008020A0008020C0008020E00080400000804020008040400080406000804080
310
008040A0008040C0008040E00080600000806020008060400080606000806080008060A0008060C0008060E00080800000808020008080400080806000808080008080A0008080C0008080E00080A0000080A0200080A0400080A0600080A0800080A0A00080A0C00080A0E00080C0000080C0200080C0400080C0600080C0
310
800080C0A00080C0C00080C0E00080E0000080E0200080E0400080E0600080E0800080E0A00080E0C00080E0E000C0000000C0002000C0004000C0006000C0008000C000A000C000C000C000E000C0200000C0202000C0204000C0206000C0208000C020A000C020C000C020E000C0400000C0402000C0404000C0406000C0
310
408000C040A000C040C000C040E000C0600000C0602000C0604000C0606000C0608000C060A000C060C000C060E000C0800000C0802000C0804000C0806000C0808000C080A000C080C000C080E000C0A00000C0A02000C0A04000C0A06000C0A08000C0A0A000C0A0C000C0A0E000C0C00000C0C02000C0C04000C0C06000
310
C0C08000C0C0A000F0FBFF00A4A0A000808080000000FF0000FF000000FFFF00FF000000FF00FF00FFFF0000FFFFFF0000000000000000000000000000000000000000000000000000000000000000000000000000000000000000000000000000000000000000000000000000000000000000000000000000000000000000
310
00000000000000000000000000000000000000000000000000000000000000000000000000000000000000000000000000000000000000000000000000000000000000000000000000000000000000000000000000000000000000000000000000000000000000000000000000000000000000000000000000000000000000
310
00000000000000000000000000000000000000000000000000000000000000000000000000000000000000000000000000000000000000000000000000000000000000000000000000000000000000000000000000000000000000000000000000000000000000000000000000000000000000000000000000000000000000
310
0000000000000000000000000000000000000000000000000000000000000000000000000000000000000000000000000000000000000000000000000000000000000000000000000000000000000000000000000000000000000000000000000000000000000000000000000000000000000000FFFFF9FFFFF9FFFFFFFFFF
310
FFFFFFFFFFFFFFFFFFFFFFFFFFFFF9FFFFFFFF0000FFF9F9F9FFF9FFFFFFFFFFFFFFFFFFFFFFFFFFFFFFFFFFFFFFF9FFFFFFFF0000FF00FF0000F9F9F9F9F9F9F9F9F9F9F9F9F9F9F9F9F9F9F9F9F9000000FF0000FFFFFFFFFFFFFFFFFFFFFFFFFFFFFFFFFFFFFFFFFFFFFFFFFFFFFFFFFFFF000000000000000000000000
310
00000000000000000000000000000000000000000000000000000000000000000000000000000000000000000000000000000000000000000000000000000000000000000000000000000000000000000000000000000000000000000000000000000000000000000000000000000000000000000000000000000000000000
310
00000000000000000000000000000000000000000000000000000000000000000000000000000000000000000000000000000000000000000000000000000000000000000000000000000000000000000000000000000000000000000000000000000000000000000000000000000000000000000000000000000000000000
310
00000000000000000000000000000000000000000000000000000000000000000000000000000000000000000000000000000000000000000000000000000000000000000000000000000000000000000000000000000000000000000000000000000000000000000000000000000000000000000000000000000000000000
310
0000000000000000000000000000000000000000000000000000000000000000000000000000000000000000000000000000000000000000
  0
BLOCK_RECORD
  5
6A8
330
1
100
AcDbSymbolTableRecord
100
AcDbBlockTableRecord
  2
IGS_A3
340
0
310
2800000020000000200000000100080000000000000400000000000000000000000000000000000000000000000080000080000000808000800000008000800080800000C0C0C000C0DCC000F0CAA6000020400000206000002080000020A0000020C0000020E00000400000004020000040400000406000004080000040A0
310
000040C0000040E00000600000006020000060400000606000006080000060A0000060C0000060E00000800000008020000080400000806000008080000080A0000080C0000080E00000A0000000A0200000A0400000A0600000A0800000A0A00000A0C00000A0E00000C0000000C0200000C0400000C0600000C0800000C0
310
A00000C0C00000C0E00000E0000000E0200000E0400000E0600000E0800000E0A00000E0C00000E0E00040000000400020004000400040006000400080004000A0004000C0004000E00040200000402020004020400040206000402080004020A0004020C0004020E000404000004040200040404000404060004040800040
310
40A0004040C0004040E00040600000406020004060400040606000406080004060A0004060C0004060E00040800000408020004080400040806000408080004080A0004080C0004080E00040A0000040A0200040A0400040A0600040A0800040A0A00040A0C00040A0E00040C0000040C0200040C0400040C0600040C08000
310
40C0A00040C0C00040C0E00040E0000040E0200040E0400040E0600040E0800040E0A00040E0C00040E0E00080000000800020008000400080006000800080008000A0008000C0008000E00080200000802020008020400080206000802080008020A0008020C0008020E00080400000804020008040400080406000804080
310
008040A0008040C0008040E00080600000806020008060400080606000806080008060A0008060C0008060E00080800000808020008080400080806000808080008080A0008080C0008080E00080A0000080A0200080A0400080A0600080A0800080A0A00080A0C00080A0E00080C0000080C0200080C0400080C0600080C0
310
800080C0A00080C0C00080C0E00080E0000080E0200080E0400080E0600080E0800080E0A00080E0C00080E0E000C0000000C0002000C0004000C0006000C0008000C000A000C000C000C000E000C0200000C0202000C0204000C0206000C0208000C020A000C020C000C020E000C0400000C0402000C0404000C0406000C0
310
408000C040A000C040C000C040E000C0600000C0602000C0604000C0606000C0608000C060A000C060C000C060E000C0800000C0802000C0804000C0806000C0808000C080A000C080C000C080E000C0A00000C0A02000C0A04000C0A06000C0A08000C0A0A000C0A0C000C0A0E000C0C00000C0C02000C0C04000C0C06000
310
C0C08000C0C0A000F0FBFF00A4A0A000808080000000FF0000FF000000FFFF00FF000000FF00FF00FFFF0000FFFFFF0000000000000000000000000000000000000000000000000000000000000000000000000000000000000000000000000000000000000000000000000000000000000000000000000000000000000000
310
000000000000000000000000000000000000000000000000000000000000000000000000000000000000000000000000000000000000000000000000000000000000000000000000000000000000000000000000000000000000000000000000000000000000000000000000000000000000F9F9FFF9F9F9F9F9F9F9F9F9F9
310
F9F9F9F9F9F9F9F9F9F9F9F9F9F9F900000000F900FFFFFFFFFFFFFFFFFFFFFFFFFFFFFFFFFFFFFFFFFFFFFFFFFFF900000000F900FF0000000000000000000000000000000000000000000000FFF900000000F900FF0000000000000000000000000000000000000000000000FFF900000000F900FF000000000000000000
310
0000000000000000000000000000FFF900000000F900FF0000000000000000000000000000000000000000000000FFF900000000F900FF0000000000000000000000000000000000000000000000FFF900000000F900FF0000000000000000000000000000000000000000000000FFF900000000F900FF0000000000000000
310
000000000000000000000000000000FFF900000000F900FF0000000000000000000000000000000000000000000000FFF900000000F900FF0000000000000000000000000000000000000000000000FFF900000000F900FF0000000000000000000000000000000000000000000000FFF900000000F900FF00000000000000
310
00000000000000000000000000000000FFF900000000F900FF0000000000000000000000000000000000000000000000FFF900000000F900FF0000000000000000000000000000000000000000000000FFF900000000F900FF0000000000000000000000000000000000000000000000FFF900000000F900FF000000000000
310
0000000000000000000000000000000000FFF900000000F900FF0000000000000000000000000000000000000000000000FFF900000000F900FFFFFFFFFFFFFFFFFFFFFFFFFFFFFFFFFFFFFFFFFFFFFFFFFFF900000000F9F9F9F9F9F9F9F9F9F9F9F9F9F9F9F9F9F9F9F9F9F9F9F9F9F9F9F9000000000000000000000000
310
00000000000000000000000000000000000000000000000000000000000000000000000000000000000000000000000000000000000000000000000000000000000000000000000000000000000000000000000000000000000000000000000000000000000000000000000000000000000000000000000000000000000000
310
0000000000000000000000000000000000000000000000000000000000000000000000000000000000000000000000000000000000000000
102
{BLKREFS
331
133A
102
}
  0
BLOCK_RECORD
  5
9ED
330
1
100
AcDbSymbolTableRecord
100
AcDbBlockTableRecord
  2
MAKR0
340
0
  0
BLOCK_RECORD
  5
A68
330
1
100
AcDbSymbolTableRecord
100
AcDbBlockTableRecord
  2
BALN0
340
0
  0
BLOCK_RECORD
  5
DBA
330
1
100
AcDbSymbolTableRecord
100
AcDbBlockTableRecord
  2
*D21
340
0
  0
BLOCK_RECORD
  5
DC7
330
1
100
AcDbSymbolTableRecord
100
AcDbBlockTableRecord
  2
*D22
340
0
  0
BLOCK_RECORD
  5
114A
330
1
100
AcDbSymbolTableRecord
100
AcDbBlockTableRecord
  2
*D23
340
0
  0
BLOCK_RECORD
  5
1172
330
1
100
AcDbSymbolTableRecord
100
AcDbBlockTableRecord
  2
*D24
340
0
  0
BLOCK_RECORD
  5
11B3
330
1
100
AcDbSymbolTableRecord
100
AcDbBlockTableRecord
  2
*D25
340
0
  0
BLOCK_RECORD
  5
11DB
330
1
100
AcDbSymbolTableRecord
100
AcDbBlockTableRecord
  2
*D26
340
0
  0
BLOCK_RECORD
  5
1212
330
1
100
AcDbSymbolTableRecord
100
AcDbBlockTableRecord
  2
*D27
340
0
  0
BLOCK_RECORD
  5
1270
330
1
100
AcDbSymbolTableRecord
100
AcDbBlockTableRecord
  2
*D28
340
0
  0
BLOCK_RECORD
  5
12A2
330
1
100
AcDbSymbolTableRecord
100
AcDbBlockTableRecord
  2
*D29
340
0
  0
BLOCK_RECORD
  5
12CE
330
1
100
AcDbSymbolTableRecord
100
AcDbBlockTableRecord
  2
*D30
340
0
  0
BLOCK_RECORD
  5
15A3
330
1
100
AcDbSymbolTableRecord
100
AcDbBlockTableRecord
  2
Xsec
340
0
102
{BLKREFS
331
15AD
102
}
  0
BLOCK_RECORD
  5
165D
330
1
100
AcDbSymbolTableRecord
100
AcDbBlockTableRecord
  2
*S32
340
0
  0
BLOCK_RECORD
  5
1664
330
1
100
AcDbSymbolTableRecord
100
AcDbBlockTableRecord
  2
*S33
340
0
  0
BLOCK_RECORD
  5
166C
330
1
100
AcDbSymbolTableRecord
100
AcDbBlockTableRecord
  2
*S34
340
0
  0
ENDTAB
  0
ENDSEC
  0
SECTION
  2
BLOCKS
  0
BLOCK
  5
20
330
1F
100
AcDbEntity
  8
0
100
AcDbBlockBegin
  2
*Model_Space
 70
     0
 10
0.0
 20
0.0
 30
0.0
  3
*Model_Space
  1

  0
ENDBLK
  5
21
330
1F
100
AcDbEntity
  8
0
100
AcDbBlockEnd
  0
BLOCK
  5
1C
330
1B
100
AcDbEntity
 67
     1
  8
0
100
AcDbBlockBegin
  2
*Paper_Space
 70
     0
 10
0.0
 20
0.0
 30
0.0
  3
*Paper_Space
  1

  0
ENDBLK
  5
1D
330
1B
100
AcDbEntity
 67
     1
  8
0
100
AcDbBlockEnd
  0
BLOCK
  5
24
330
23
100
AcDbEntity
  8
0
100
AcDbBlockBegin
  2
*Paper_Space0
 70
     0
 10
0.0
 20
0.0
 30
0.0
  3
*Paper_Space0
  1

  0
ENDBLK
  5
25
330
23
100
AcDbEntity
  8
0
100
AcDbBlockEnd
  0
BLOCK
  5
7B
330
77
100
AcDbEntity
  8
0
100
AcDbBlockBegin
  2
_Open30
 70
     0
 10
0.0
 20
0.0
 30
0.0
  3
_Open30
  1

  0
LINE
  5
78
330
77
100
AcDbEntity
  8
0
  6
ByBlock
 62
     0
370
    -2
100
AcDbLine
 10
-1.0
 20
0.26794919
 30
0.0
 11
0.0
 21
0.0
 31
0.0
  0
LINE
  5
79
330
77
100
AcDbEntity
  8
0
  6
ByBlock
 62
     0
370
    -2
100
AcDbLine
 10
0.0
 20
0.0
 30
0.0
 11
-1.0
 21
-0.26794919
 31
0.0
  0
LINE
  5
7A
330
77
100
AcDbEntity
  8
0
  6
ByBlock
 62
     0
370
    -2
100
AcDbLine
 10
0.0
 20
0.0
 30
0.0
 11
-1.0
 21
0.0
 31
0.0
  0
ENDBLK
  5
7C
330
77
100
AcDbEntity
  8
0
100
AcDbBlockEnd
  0
BLOCK
  5
85
330
83
100
AcDbEntity
  8
0
100
AcDbBlockBegin
  2
GENAXEH
 70
     0
 10
0.0
 20
0.0
 30
0.0
  3
GENAXEH
  1

  0
LINE
  5
84
330
83
100
AcDbEntity
  8
0
100
AcDbLine
 10
-1.0
 20
0.0
 30
0.0
 11
1.0
 21
0.0
 31
0.0
  0
ENDBLK
  5
86
330
83
100
AcDbEntity
  8
0
100
AcDbBlockEnd
  0
BLOCK
  5
206
330
1F1
100
AcDbEntity
  8
0
100
AcDbBlockBegin
  2
IGS_A2
 70
     0
 10
0.0
 20
0.0
 30
0.0
  3
IGS_A2
  1

  0
LINE
  5
1F2
330
1F1
100
AcDbEntity
  8
AM_BOR
100
AcDbLine
 10
0.0
 20
0.0
 30
0.0
 11
0.0
 21
10.0
 31
0.0
  0
LINE
  5
1F3
330
1F1
100
AcDbEntity
  8
AM_BOR
100
AcDbLine
 10
0.0
 20
420.0
 30
0.0
 11
10.0
 21
420.0
 31
0.0
  0
LINE
  5
1F4
330
1F1
100
AcDbEntity
  8
AM_BOR
100
AcDbLine
 10
594.0
 20
420.0
 30
0.0
 11
594.0
 21
410.0
 31
0.0
  0
LINE
  5
1F5
330
1F1
100
AcDbEntity
  8
AM_BOR
100
AcDbLine
 10
594.0
 20
0.0
 30
0.0
 11
584.0
 21
0.0
 31
0.0
  0
LINE
  5
1F6
330
1F1
100
AcDbEntity
  8
0
100
AcDbLine
 10
20.0
 20
10.0
 30
0.0
 11
20.0
 21
410.0
 31
0.0
  0
LINE
  5
1F7
330
1F1
100
AcDbEntity
  8
0
100
AcDbLine
 10
574.0
 20
10.0
 30
0.0
 11
20.0
 21
10.0
 31
0.0
  0
LINE
  5
1F8
330
1F1
100
AcDbEntity
  8
0
100
AcDbLine
 10
574.0
 20
410.0
 30
0.0
 11
574.0
 21
10.0
 31
0.0
  0
LINE
  5
1F9
330
1F1
100
AcDbEntity
  8
0
100
AcDbLine
 10
20.0
 20
410.0
 30
0.0
 11
574.0
 21
410.0
 31
0.0
  0
LINE
  5
1FA
330
1F1
100
AcDbEntity
  8
AM_BOR
100
AcDbLine
 10
10.0
 20
0.0
 30
0.0
 11
0.0
 21
0.0
 31
0.0
  0
LINE
  5
1FB
330
1F1
100
AcDbEntity
  8
AM_BOR
100
AcDbLine
 10
0.0
 20
410.0
 30
0.0
 11
0.0
 21
420.0
 31
0.0
  0
LINE
  5
1FC
330
1F1
100
AcDbEntity
  8
AM_BOR
100
AcDbLine
 10
594.0
 20
10.0
 30
0.0
 11
594.0
 21
0.0
 31
0.0
  0
LINE
  5
1FD
330
1F1
100
AcDbEntity
  8
AM_BOR
100
AcDbLine
 10
584.0
 20
420.0
 30
0.0
 11
594.0
 21
420.0
 31
0.0
  0
TEXT
  5
1FE
330
1F1
100
AcDbEntity
  8
0
 60
     1
100
AcDbText
 10
574.0
 20
410.0
 30
0.0
 40
6.0
  1
!GENTITLE-RU
  7
ACJISTS
100
AcDbText
  0
TEXT
  5
1FF
330
1F1
100
AcDbEntity
  8
0
 60
     1
100
AcDbText
 10
594.0
 20
420.0
 30
0.0
 40
6.0
  1
!GENTITLE-MAX
  7
ACJISTS
100
AcDbText
  0
TEXT
  5
200
330
1F1
100
AcDbEntity
  8
0
 60
     1
100
AcDbText
 10
574.0
 20
10.0
 30
0.0
 40
6.0
  1
!GENTITLE-INSERT
  7
ACJISTS
100
AcDbText
  0
TEXT
  5
201
330
1F1
100
AcDbEntity
  8
0
 60
     1
100
AcDbText
 10
20.0
 20
10.0
 30
0.0
 40
6.0
  1
!GENTITLE-LL
  7
ACJISTS
100
AcDbText
  0
LINE
  5
202
330
1F1
100
AcDbEntity
  8
AM_BOR
 62
     1
370
    25
100
AcDbLine
 10
0.0
 20
420.0
 30
0.0
 11
594.0
 21
420.0
 31
0.0
  0
LINE
  5
203
330
1F1
100
AcDbEntity
  8
AM_BOR
 62
     1
370
    25
100
AcDbLine
 10
594.0
 20
420.0
 30
0.0
 11
594.0
 21
0.0
 31
0.0
  0
LINE
  5
204
330
1F1
100
AcDbEntity
  8
AM_BOR
 62
     1
370
    25
100
AcDbLine
 10
594.0
 20
0.0
 30
0.0
 11
0.0
 21
0.0
 31
0.0
  0
LINE
  5
205
330
1F1
100
AcDbEntity
  8
AM_BOR
 62
     1
370
    25
100
AcDbLine
 10
0.0
 20
0.0
 30
0.0
 11
0.0
 21
420.0
 31
0.0
  0
ENDBLK
  5
207
330
1F1
100
AcDbEntity
  8
0
100
AcDbBlockEnd
  0
BLOCK
  5
230
330
210
100
AcDbEntity
  8
0
100
AcDbBlockBegin
  2
GEN_A4
 70
     0
 10
0.0
 20
0.0
 30
0.0
  3
GEN_A4
  1

  0
LINE
  5
211
330
210
100
AcDbEntity
  8
RAHM2
100
AcDbLine
 10
0.0
 20
0.0
 30
0.0
 11
210.0
 21
0.0
 31
0.0
  0
LINE
  5
212
330
210
100
AcDbEntity
  8
RAHM2
100
AcDbLine
 10
210.0
 20
0.0
 30
0.0
 11
210.0
 21
297.0
 31
0.0
  0
LINE
  5
213
330
210
100
AcDbEntity
  8
RAHM2
100
AcDbLine
 10
210.0
 20
297.0
 30
0.0
 11
0.0
 21
297.0
 31
0.0
  0
LINE
  5
214
330
210
100
AcDbEntity
  8
RAHM2
100
AcDbLine
 10
0.0
 20
297.0
 30
0.0
 11
0.0
 21
0.0
 31
0.0
  0
LINE
  5
215
330
210
100
AcDbEntity
  8
0
100
AcDbLine
 10
15.0
 20
5.0
 30
0.0
 11
205.0
 21
5.0
 31
0.0
  0
LINE
  5
216
330
210
100
AcDbEntity
  8
0
100
AcDbLine
 10
205.0
 20
5.0
 30
0.0
 11
205.0
 21
292.0
 31
0.0
  0
LINE
  5
217
330
210
100
AcDbEntity
  8
0
100
AcDbLine
 10
205.0
 20
292.0
 30
0.0
 11
15.0
 21
292.0
 31
0.0
  0
LINE
  5
218
330
210
100
AcDbEntity
  8
0
100
AcDbLine
 10
15.0
 20
292.0
 30
0.0
 11
15.0
 21
287.0
 31
0.0
  0
LINE
  5
219
330
210
100
AcDbEntity
  8
RAHM2
100
AcDbLine
 10
62.5
 20
292.0
 30
0.0
 11
62.5
 21
287.0
 31
0.0
  0
TEXT
  5
21A
330
210
100
AcDbEntity
  8
RAHM2
100
AcDbText
 10
37.4
 20
287.5
 30
0.0
 40
4.0
  1
4
100
AcDbText
  0
TEXT
  5
21B
330
210
100
AcDbEntity
  8
RAHM2
100
AcDbText
 10
84.9
 20
287.5
 30
0.0
 40
4.0
  1
3
100
AcDbText
  0
LINE
  5
21C
330
210
100
AcDbEntity
  8
RAHM2
100
AcDbLine
 10
110.0
 20
292.0
 30
0.0
 11
110.0
 21
287.0
 31
0.0
  0
TEXT
  5
21D
330
210
100
AcDbEntity
  8
RAHM2
100
AcDbText
 10
132.4
 20
287.5
 30
0.0
 40
4.0
  1
2
100
AcDbText
  0
LINE
  5
21E
330
210
100
AcDbEntity
  8
RAHM2
100
AcDbLine
 10
157.5
 20
292.0
 30
0.0
 11
157.5
 21
287.0
 31
0.0
  0
TEXT
  5
21F
330
210
100
AcDbEntity
  8
RAHM2
100
AcDbText
 10
179.9
 20
287.5
 30
0.0
 40
4.0
  1
1
100
AcDbText
  0
LINE
  5
220
330
210
100
AcDbEntity
  8
RAHM2
100
AcDbLine
 10
15.0
 20
292.0
 30
0.0
 11
10.0
 21
292.0
 31
0.0
  0
LINE
  5
221
330
210
100
AcDbEntity
  8
RAHM2
100
AcDbLine
 10
15.0
 20
287.0
 30
0.0
 11
205.0
 21
287.0
 31
0.0
  0
LINE
  5
222
330
210
100
AcDbEntity
  8
0
100
AcDbLine
 10
15.0
 20
287.0
 30
0.0
 11
15.0
 21
5.0
 31
0.0
  0
TEXT
  5
223
330
210
100
AcDbEntity
  8
RAHM2
100
AcDbText
 10
11.15
 20
120.5
 30
0.0
 40
4.0
  1
A
100
AcDbText
  0
LINE
  5
224
330
210
100
AcDbEntity
  8
RAHM2
100
AcDbLine
 10
10.0
 20
146.0
 30
0.0
 11
15.0
 21
146.0
 31
0.0
  0
TEXT
  5
225
330
210
100
AcDbEntity
  8
RAHM2
100
AcDbText
 10
11.15
 20
167.5
 30
0.0
 40
4.0
  1
B
100
AcDbText
  0
LINE
  5
226
330
210
100
AcDbEntity
  8
RAHM2
100
AcDbLine
 10
10.0
 20
193.0
 30
0.0
 11
15.0
 21
193.0
 31
0.0
  0
TEXT
  5
227
330
210
100
AcDbEntity
  8
RAHM2
100
AcDbText
 10
11.15
 20
214.5
 30
0.0
 40
4.0
  1
C
100
AcDbText
  0
LINE
  5
228
330
210
100
AcDbEntity
  8
RAHM2
100
AcDbLine
 10
10.0
 20
240.0
 30
0.0
 11
15.0
 21
240.0
 31
0.0
  0
TEXT
  5
229
330
210
100
AcDbEntity
  8
RAHM2
100
AcDbText
 10
11.15
 20
261.5
 30
0.0
 40
4.0
  1
D
100
AcDbText
  0
LINE
  5
22A
330
210
100
AcDbEntity
  8
RAHM2
100
AcDbLine
 10
10.0
 20
99.0
 30
0.0
 11
15.0
 21
99.0
 31
0.0
  0
LINE
  5
22B
330
210
100
AcDbEntity
  8
RAHM2
100
AcDbLine
 10
10.0
 20
99.0
 30
0.0
 11
10.0
 21
292.0
 31
0.0
  0
TEXT
  5
22C
330
210
100
AcDbEntity
  8
0
 60
     1
100
AcDbText
 10
210.0
 20
297.0
 30
0.0
 40
3.5
  1
!GENTITLE-MAX
100
AcDbText
  0
TEXT
  5
22D
330
210
100
AcDbEntity
  8
0
 60
     1
100
AcDbText
 10
205.0
 20
287.0
 30
0.0
 40
3.5
  1
!GENTITLE-RU
100
AcDbText
  0
TEXT
  5
22E
330
210
100
AcDbEntity
  8
0
 60
     1
100
AcDbText
 10
15.0
 20
59.99
 30
0.0
 40
3.5
  1
!GENTITLE-LL
100
AcDbText
  0
TEXT
  5
22F
330
210
100
AcDbEntity
  8
0
 60
     1
100
AcDbText
 10
205.0
 20
5.0
 30
0.0
 40
3.5
  1
!GENTITLE-INSERT
100
AcDbText
  0
ENDBLK
  5
231
330
210
100
AcDbEntity
  8
0
100
AcDbBlockEnd
  0
BLOCK
  5
26B
330
232
100
AcDbEntity
  8
0
100
AcDbBlockBegin
  2
GENTITUS
 70
     2
 10
0.0
 20
0.0
 30
0.0
  3
GENTITUS
  1

  0
ATTDEF
  5
233
330
232
100
AcDbEntity
  8
RAHM2
100
AcDbText
 10
-161.2719926438011
 20
59.77949705640509
 30
0.0
 40
3.047999999999999
  1

100
AcDbAttributeDefinition
  3
File Name
  2
GEN-TITLE-DWG{10.58}
 70
     0
  0
ATTDEF
  5
234
330
232
100
AcDbEntity
  8
RAHM2
100
AcDbText
 10
-113.0375060754025
 20
1.655316229755442
 30
0.0
 40
3.047999999999999
  1

100
AcDbAttributeDefinition
  3
Scale
  2
GEN-TITLE-SCA{7.49}
 70
     0
  0
ATTDEF
  5
235
330
232
100
AcDbEntity
  8
RAHM2
100
AcDbText
 10
-170.5791365852594
 20
44.08298086452544
 30
0.0
 40
3.047999999999999
  1

100
AcDbAttributeDefinition
  3
Draft Date
  2
GEN-TITLE-DAT{6.03}
 70
     0
  0
ATTDEF
  5
236
330
232
100
AcDbEntity
  8
RAHM2
100
AcDbText
 10
-148.8439999999988
 20
44.06900000000002
 30
0.0
 40
3.047999999999999
  1

100
AcDbAttributeDefinition
  3
Drawn by
  2
GEN-TITLE-NAME{6.72}
 70
     0
  0
ATTDEF
  5
237
330
232
100
AcDbEntity
  8
RAHM5
100
AcDbText
 10
-121.9520790451008
 20
36.30136743197994
 30
0.0
 40
6.349999999999999
  1

100
AcDbAttributeDefinition
  3
Drawing Title
  2
GEN-TITLE-DES1{18.22}
 70
     0
  0
ATTDEF
  5
238
330
232
100
AcDbEntity
  8
RAHM3
100
AcDbText
 10
-121.9520790451008
 20
26.25984032860009
 30
0.0
 40
4.571999999999999
  1

100
AcDbAttributeDefinition
  3
Drawing Subtitle
  2
GEN-TITLE-DES2{26.26}
 70
     0
  0
ATTDEF
  5
239
330
232
100
AcDbEntity
  8
RAHM5
100
AcDbText
 10
-74.05731360850683
 20
9.398000000000024
 30
0.0
 40
6.349999999999999
  1
-
100
AcDbAttributeDefinition
  3
Drawing Number
  2
GEN-TITLE-NR{8.40}
 70
     0
  0
ATTDEF
  5
23A
330
232
100
AcDbEntity
  8
RAHM3
100
AcDbText
 10
-122.5443157926048
 20
49.65700000000004
 30
0.0
 40
4.571999999999999
  1

100
AcDbAttributeDefinition
  3
Design Activity
  2
GEN-TITLE-DACT{25.89}
 70
     0
  0
ATTDEF
  5
23B
330
232
100
AcDbEntity
  8
RAHM2
100
AcDbText
 10
-115.3186639642027
 20
9.398000000000024
 30
0.0
 40
3.047999999999999
  1
-
100
AcDbAttributeDefinition
  3
FSCM Number
  2
GEN-TITLE-FSCM{8.01}
 70
     0
  0
ATTDEF
  5
23C
330
232
100
AcDbEntity
  8
RAHM2
100
AcDbText
 10
-148.8439999999988
 20
28.82900000000001
 30
0.0
 40
3.047999999999999
  1

100
AcDbAttributeDefinition
  3
Approved by
  2
GEN-TITLE-APPM{6.72}
 70
     0
  0
ATTDEF
  5
23D
330
232
100
AcDbEntity
  8
RAHM2
100
AcDbText
 10
-170.7495891837786
 20
28.76581702429371
 30
0.0
 40
3.047999999999999
  1

100
AcDbAttributeDefinition
  3
Approval Date
  2
GEN-TITLE-APPD{6.08}
 70
     0
  0
ATTDEF
  5
23E
330
232
100
AcDbEntity
  8
RAHM2
100
AcDbText
 10
-148.8439999999989
 20
21.20900000000003
 30
0.0
 40
3.047999999999999
  1

100
AcDbAttributeDefinition
  3
Issued by
  2
GEN-TITLE-ISSM{6.72}
 70
     0
  0
ATTDEF
  5
23F
330
232
100
AcDbEntity
  8
RAHM2
100
AcDbText
 10
-170.5791365852594
 20
21.27742535250911
 30
0.0
 40
3.047999999999999
  1

100
AcDbAttributeDefinition
  3
Issue Date
  2
GEN-TITLE-ISSD{6.03}
 70
     0
  0
ATTDEF
  5
240
330
232
100
AcDbEntity
  8
RAHM2
100
AcDbText
 10
-122.025627714063
 20
9.007830168911709
 30
0.0
 40
3.047999999999999
  1

 72
     1
 11
-122.025627714063
 21
9.007830168911709
 31
0.0
100
AcDbAttributeDefinition
  3
Size
  2
GEN-TITLE-SIZ{2.46}
 70
     0
  0
ATTDEF
  5
241
330
232
100
AcDbEntity
  8
RAHM2
100
AcDbText
 10
-148.8439999999988
 20
36.44900000000004
 30
0.0
 40
3.047999999999999
  1

100
AcDbAttributeDefinition
  3
Checked by
  2
GEN-TITLE-CHKM{6.72}
 70
     0
  0
ATTDEF
  5
242
330
232
100
AcDbEntity
  8
RAHM2
100
AcDbText
 10
-155.7496724495927
 20
51.74156347614825
 30
0.0
 40
3.047999999999999
  1
-
100
AcDbAttributeDefinition
  3
Contract Number
  2
GEN-TITLE-CTRN{9.04}
 70
     0
  0
ATTDEF
  5
243
330
232
100
AcDbEntity
  8
RAHM2
100
AcDbText
 10
-170.7495891837786
 20
36.42439894440952
 30
0.0
 40
3.047999999999999
  1

100
AcDbAttributeDefinition
  3
Check Date
  2
GEN-TITLE-CHKD{6.16}
 70
     0
  0
ATTDEF
  5
244
330
232
100
AcDbEntity
  8
RAHM2
100
AcDbText
 10
-26.47195988711838
 20
1.564076906827722
 30
0.0
 40
3.047999999999999
  1

100
AcDbAttributeDefinition
  3
Sheet Number
  2
GEN-TITLE-SHEET{10.30}
 70
     0
  0
ATTDEF
  5
245
330
232
100
AcDbEntity
  8
RAHM2
100
AcDbText
 10
-6.220641135027562
 20
8.879862113045646
 30
0.0
 40
3.047999999999999
  1

 72
     1
 11
-6.220641135027562
 21
8.879862113045646
 31
0.0
100
AcDbAttributeDefinition
  3
Revision
  2
GEN-TITLE-REV{3.27}
 70
     0
  0
ATTDEF
  5
246
330
232
100
AcDbEntity
  8
RAHM2
100
AcDbText
 10
-69.95172301045787
 20
1.65100000000001
 30
0.0
 40
3.047999999999999
  1

100
AcDbAttributeDefinition
  3
Weight
  2
GEN-TITLE-WT{7.43}
 70
     0
  0
LINE
  5
247
330
232
100
AcDbEntity
  8
RAHM2
100
AcDbLine
 10
0.0
 20
47.49800000000004
 30
0.0
 11
-127.0
 21
47.49800000000004
 31
0.0
  0
TEXT
  5
248
330
232
100
AcDbEntity
  8
RAHM2
100
AcDbText
 10
-87.88400000000001
 20
16.00200000000004
 30
0.0
 40
2.032
  1
DWG NO
100
AcDbText
  0
TEXT
  5
249
330
232
100
AcDbEntity
  8
RAHM2
100
AcDbText
 10
-88.25401012743839
 20
1.705415101054569
 30
0.0
 40
2.032
  1
WEIGHT
100
AcDbText
  0
POLYLINE
  5
24A
330
232
100
AcDbEntity
  8
RAHM5
100
AcDb2dPolyline
 66
     1
 10
0.0
 20
0.0
 30
0.0
 70
     1
  0
VERTEX
  5
24B
330
24A
100
AcDbEntity
  8
RAHM5
100
AcDbVertex
100
AcDb2dVertex
 10
0.0
 20
63.50000000000003
 30
0.0
  0
VERTEX
  5
24C
330
24A
100
AcDbEntity
  8
RAHM5
100
AcDbVertex
100
AcDb2dVertex
 10
-182.8799999999977
 20
63.50000000000003
 30
0.0
  0
VERTEX
  5
24D
330
24A
100
AcDbEntity
  8
RAHM5
100
AcDbVertex
100
AcDb2dVertex
 10
-182.8799999999977
 20
0.0000000000000284
 30
0.0
  0
VERTEX
  5
24E
330
24A
100
AcDbEntity
  8
RAHM5
100
AcDbVertex
100
AcDb2dVertex
 10
0.0
 20
0.0
 30
0.0
  0
SEQEND
  5
24F
330
24A
100
AcDbEntity
  8
RAHM5
  0
LINE
  5
250
330
232
100
AcDbEntity
  8
RAHM5
100
AcDbLine
 10
0.0
 20
19.05000000000004
 30
0.0
 11
-127.0
 21
19.05000000000004
 31
0.0
  0
LINE
  5
251
330
232
100
AcDbEntity
  8
RAHM2
100
AcDbLine
 10
0.0
 20
6.350000000000036
 30
0.0
 11
-127.0
 21
6.350000000000036
 31
0.0
  0
LINE
  5
252
330
232
100
AcDbEntity
  8
RAHM5
100
AcDbLine
 10
-127.0
 20
0.0000000000000284
 30
0.0
 11
-127.0
 21
63.50000000000003
 31
0.0
  0
LINE
  5
253
330
232
100
AcDbEntity
  8
RAHM2
100
AcDbLine
 10
-127.0
 20
19.05000000000004
 30
0.0
 11
-182.8799999999977
 21
19.05000000000004
 31
0.0
  0
LINE
  5
254
330
232
100
AcDbEntity
  8
RAHM2
100
AcDbLine
 10
-127.0
 20
9.525000000000034
 30
0.0
 11
-182.8799999999977
 21
9.525000000000034
 31
0.0
  0
LINE
  5
255
330
232
100
AcDbEntity
  8
RAHM2
100
AcDbLine
 10
-127.0
 20
26.67000000000003
 30
0.0
 11
-182.8799999999977
 21
26.67000000000003
 31
0.0
  0
TEXT
  5
256
330
232
100
AcDbEntity
  8
RAHM2
100
AcDbText
 10
-182.0827700595082
 20
28.82900000000003
 30
0.0
 40
2.032
  1
APPR.
 11
-182.0827700595082
 21
29.84500000000003
 31
0.0
100
AcDbText
 73
     2
  0
TEXT
  5
257
330
232
100
AcDbEntity
  8
RAHM2
100
AcDbText
 10
-182.0827700595081
 20
21.20900000000004
 30
0.0
 40
2.032
  1
ISSUED
 11
-182.0827700595081
 21
22.22500000000004
 31
0.0
100
AcDbText
 73
     2
  0
LINE
  5
258
330
232
100
AcDbEntity
  8
0
100
AcDbLine
 10
-182.8799999999911
 20
0.0000000000001137
 30
0.0
 11
-182.8799999999911
 21
4.230000000000075
 31
0.0
  0
LINE
  5
259
330
232
100
AcDbEntity
  8
RAHM2
100
AcDbLine
 10
-117.348
 20
19.05000000000004
 30
0.0
 11
-117.348
 21
6.350000000000036
 31
0.0
  0
LINE
  5
25A
330
232
100
AcDbEntity
  8
RAHM2
100
AcDbLine
 10
-88.89999999999998
 20
19.05000000000004
 30
0.0
 11
-88.89999999999998
 21
6.350000000000036
 31
0.0
  0
TEXT
  5
25B
330
232
100
AcDbEntity
  8
RAHM2
100
AcDbText
 10
-125.984
 20
1.651000000000015
 30
0.0
 40
2.032
  1
SCALE
 11
-125.984
 21
2.667000000000015
 31
0.0
100
AcDbText
 73
     2
  0
LINE
  5
25C
330
232
100
AcDbEntity
  8
RAHM2
100
AcDbLine
 10
-88.89999999999998
 20
0.0000000000000142
 30
0.0
 11
-88.89999999999998
 21
6.350000000000036
 31
0.0
  0
TEXT
  5
25D
330
232
100
AcDbEntity
  8
RAHM2
100
AcDbText
 10
-116.332
 20
16.00200000000004
 30
0.0
 40
2.032
  1
FSCM NO
100
AcDbText
  0
TEXT
  5
25E
330
232
100
AcDbEntity
  8
RAHM2
100
AcDbText
 10
-125.984
 20
16.00200000000004
 30
0.0
 40
2.032
  1
SIZE
100
AcDbText
  0
LINE
  5
25F
330
232
100
AcDbEntity
  8
RAHM2
100
AcDbLine
 10
-182.8799999999977
 20
58.92800000000005
 30
0.0
 11
-127.0
 21
58.92800000000005
 31
0.0
  0
LINE
  5
260
330
232
100
AcDbEntity
  8
RAHM2
100
AcDbLine
 10
-127.0
 20
34.29000000000002
 30
0.0
 11
-182.8799999999977
 21
34.29000000000002
 31
0.0
  0
LINE
  5
261
330
232
100
AcDbEntity
  8
RAHM2
100
AcDbLine
 10
-127.0
 20
41.91000000000005
 30
0.0
 11
-182.8799999999977
 21
41.91000000000005
 31
0.0
  0
LINE
  5
262
330
232
100
AcDbEntity
  8
RAHM2
100
AcDbLine
 10
-127.0
 20
49.53000000000002
 30
0.0
 11
-182.8799999999977
 21
49.53000000000002
 31
0.0
  0
TEXT
  5
263
330
232
100
AcDbEntity
  8
RAHM2
100
AcDbText
 10
-180.3172639642003
 20
51.68900000000002
 30
0.0
 40
2.032
  1
CONTRACT NO
100
AcDbText
  0
TEXT
  5
264
330
232
100
AcDbEntity
  8
RAHM2
100
AcDbText
 10
-182.0827700595081
 20
44.06900000000002
 30
0.0
 40
2.032
  1
DRAWN
100
AcDbText
  0
TEXT
  5
265
330
232
100
AcDbEntity
  8
RAHM2
100
AcDbText
 10
-182.0827700595081
 20
36.44900000000003
 30
0.0
 40
2.032
  1
CHECK
 11
-182.0827700595081
 21
37.46500000000003
 31
0.0
100
AcDbText
 73
     2
  0
TEXT
  5
266
330
232
100
AcDbEntity
  8
RAHM2
100
AcDbText
 10
-180.3172639642003
 20
59.817
 30
0.0
 40
2.032
  1
FILE NAME
100
AcDbText
  0
TEXT
  5
267
330
232
100
AcDbEntity
  8
RAHM2
100
AcDbText
 10
-43.43400000000002
 20
1.651000000000015
 30
0.0
 40
2.032
  1
SHEET
 11
-43.43400000000002
 21
2.667000000000015
 31
0.0
100
AcDbText
 73
     2
  0
LINE
  5
268
330
232
100
AcDbEntity
  8
RAHM2
100
AcDbLine
 10
-44.44999999999999
 20
0.0
 30
0.0
 11
-44.44999999999999
 21
6.350000000000036
 31
0.0
  0
LINE
  5
269
330
232
100
AcDbEntity
  8
RAHM2
100
AcDbLine
 10
-12.69999999999999
 20
19.05000000000004
 30
0.0
 11
-12.69999999999999
 21
6.350000000000036
 31
0.0
  0
TEXT
  5
26A
330
232
100
AcDbEntity
  8
RAHM2
100
AcDbText
 10
-11.68400000000002
 20
16.00200000000004
 30
0.0
 40
2.032
  1
REV
100
AcDbText
  0
ENDBLK
  5
26C
330
232
100
AcDbEntity
  8
0
100
AcDbBlockEnd
  0
BLOCK
  5
277
330
26D
100
AcDbEntity
  8
0
100
AcDbBlockBegin
  2
IGS-A4
 70
     0
 10
0.0
 20
0.0
 30
0.0
  3
IGS-A4
  1

  0
POINT
  5
26E
330
26D
100
AcDbEntity
  8
0
 60
     1
100
AcDbPoint
 10
0.0
 20
0.0
 30
0.0
1001
GENIUS_GENODEF_13
1002
{
1000
HIER
1070
     1
1002
}
1002
{
1000
MANEDIT
1070
     0
1002
}
1002
{
1000
NOSEL
1070
     0
1002
}
1002
{
1000
BEHIND
1070
     0
1002
}
1002
{
1000
REACTOR
1002
}
1001
GENIUS_GENTITLE_13
1002
{
1000
SCALE
1000
1:1
1002
}
1002
{
1000
BORDER
1000
GEN_A4
1002
}
1002
{
1000
TITLE
1000
GENTITUS
1002
}
1002
{
1000
UNCHG
1002
{
1000
GEN-TITLE-SCA
1000
GEN-TITLE-SIZ
1002
}
1002
}
1002
{
1000
HRA
1005
0
1002
}
1002
{
1000
HTIT
1005
0
1002
}
1002
{
1000
GENIUSID
1005
26E
1002
}
1001
GENIUS_GENOBJ-N-TIT_13
1002
{
1000
OWNER
1000
GEN
1002
}
1001
GENIUS_GENOENT_13
1002
{
1000
MYREF
1005
26E
1002
}
1002
{
1000
GRP
1005
0
1002
}
1001
GENIUS_GENOLIS_13
1002
{
1000
ENT
1005
0
1005
0
1002
}
  0
LINE
  5
26F
330
26D
100
AcDbEntity
  8
0
100
AcDbLine
 10
15.0
 20
5.0
 30
0.0
 11
205.0
 21
5.0
 31
0.0
  0
LINE
  5
270
330
26D
100
AcDbEntity
  8
0
100
AcDbLine
 10
205.0
 20
5.0
 30
0.0
 11
205.0
 21
292.0
 31
0.0
  0
LINE
  5
271
330
26D
100
AcDbEntity
  8
0
100
AcDbLine
 10
205.0
 20
292.0
 30
0.0
 11
15.0
 21
292.0
 31
0.0
  0
LINE
  5
272
330
26D
100
AcDbEntity
  8
0
100
AcDbLine
 10
15.0
 20
292.0
 30
0.0
 11
15.0
 21
5.0
 31
0.0
  0
TEXT
  5
273
330
26D
100
AcDbEntity
  8
0
 60
     1
100
AcDbText
 10
210.0
 20
297.0
 30
0.0
 40
3.5
  1
!GENTITLE-MAX
100
AcDbText
  0
TEXT
  5
274
330
26D
100
AcDbEntity
  8
0
 60
     1
100
AcDbText
 10
205.0
 20
287.0
 30
0.0
 40
3.5
  1
!GENTITLE-RU
100
AcDbText
  0
TEXT
  5
275
330
26D
100
AcDbEntity
  8
0
 60
     1
100
AcDbText
 10
15.0
 20
59.99
 30
0.0
 40
3.5
  1
!GENTITLE-LL
100
AcDbText
  0
TEXT
  5
276
330
26D
100
AcDbEntity
  8
0
 60
     1
100
AcDbText
 10
205.0
 20
5.0
 30
0.0
 40
3.5
  1
!GENTITLE-INSERT
100
AcDbText
  0
ENDBLK
  5
278
330
26D
100
AcDbEntity
  8
0
100
AcDbBlockEnd
  0
BLOCK
  5
27B
330
279
100
AcDbEntity
  8
0
100
AcDbBlockBegin
  2
CI
 70
     0
 10
0.0
 20
0.0
 30
0.0
  3
CI
  1

  0
CIRCLE
  5
27A
330
279
100
AcDbEntity
  8
0
 62
     0
100
AcDbCircle
 10
0.0
 20
0.0
 30
0.0
 40
0.1666666666
  0
ENDBLK
  5
27C
330
279
100
AcDbEntity
  8
0
100
AcDbBlockEnd
  0
BLOCK
  5
306
330
27D
100
AcDbEntity
  8
0
100
AcDbBlockBegin
  2
IGS-TITLE
 70
     0
 10
0.0
 20
0.0
 30
0.0
  3
IGS-TITLE
  1

  0
LINE
  5
27E
330
27D
100
AcDbEntity
  8
1
  6
Continuous
 62
     7
100
AcDbLine
 10
-187.9990322581
 20
30.99983870970002
 30
65.0
 11
-187.9990322581
 21
-0.0001612902999852
 31
65.0
  0
LINE
  5
27F
330
27D
100
AcDbEntity
  8
1
  6
Continuous
 62
     7
100
AcDbLine
 10
-162.9990322581
 20
30.99983870970002
 30
65.0
 11
-162.9990322581
 21
-0.0001612902999852
 31
65.0
  0
LINE
  5
280
330
27D
100
AcDbEntity
  8
1
  6
Continuous
 62
     7
100
AcDbLine
 10
-127.9990322581
 20
30.99983870970002
 30
65.0
 11
-127.9990322581
 21
-0.0001612902999852
 31
65.0
  0
TEXT
  5
281
330
27D
100
AcDbEntity
  8
1
  6
Continuous
 62
     7
100
AcDbText
 10
-123.7222235162
 20
4.473885419400033
 30
65.0
 40
3.5
  1
ＲＥＶＩＳＩＯＮＳ
 50
90.0
 41
0.5824175824175821
 72
     5
 11
-123.7222235162
 21
25.67388541940002
 31
65.0
100
AcDbText
  0
TEXT
  5
282
330
27D
100
AcDbEntity
  8
1
  6
Continuous
 62
     7
100
AcDbText
 10
-152.9468905162
 20
26.24983841940002
 30
65.0
 40
3.5
  1
ＲＥＶ．ＭＡＲＫ
 41
0.583850931677019
 72
     5
 11
-134.1468905162
 21
26.24983841940002
 31
65.0
100
AcDbText
  0
TEXT
  5
283
330
27D
100
AcDbEntity
  8
1
  6
Continuous
 62
     7
100
AcDbText
 10
-152.9366495162
 20
20.24983841940002
 30
65.0
 40
3.5
  1
ＤＡＴＥ
 41
0.5974025974025966
 72
     5
 11
-143.7366495162
 21
20.24983841940002
 31
65.0
100
AcDbText
  0
TEXT
  5
284
330
27D
100
AcDbEntity
  8
1
  6
Continuous
 62
     7
100
AcDbText
 10
-152.9768155162
 20
14.24983841940002
 30
65.0
 40
3.5
  1
ＲＥＶＩＳＥＤ　ＢＹ
 41
0.5812807881773391
 72
     5
 11
-129.3768155162
 21
14.24983841940002
 31
65.0
100
AcDbText
  0
TEXT
  5
285
330
27D
100
AcDbEntity
  8
1
  6
Continuous
 62
     7
100
AcDbText
 10
-152.8294145162
 20
4.74983841940002
 30
65.0
 40
3.5
  1
ＣＯＮＴＥＮＴＳ
 41
0.5838509316770175
 72
     5
 11
-134.0294145162
 21
4.74983841940002
 31
65.0
100
AcDbText
  0
TEXT
  5
286
330
27D
100
AcDbEntity
  8
1
  6
Continuous
 62
     7
100
AcDbText
 10
-161.2490325162
 20
26.24983841940002
 30
65.0
 40
3.5
  1
変更
 41
0.8705357142857142
 72
     5
 11
-154.7490325162
 21
26.24983841940002
 31
65.0
100
AcDbText
  0
TEXT
  5
287
330
27D
100
AcDbEntity
  8
1
  6
Continuous
 62
     7
100
AcDbText
 10
-161.3990325162
 20
20.24983841940002
 30
65.0
 40
3.5
  1
年月日
 41
0.6071428571428532
 72
     5
 11
-154.5990325162
 21
20.24983841940002
 31
65.0
100
AcDbText
  0
TEXT
  5
288
330
27D
100
AcDbEntity
  8
1
  6
Continuous
 62
     7
100
AcDbText
 10
-161.3990325162
 20
14.24983841940002
 30
65.0
 40
3.5
  1
変更者
 41
0.582857142857139
 72
     5
 11
-154.5990325162
 21
14.24983841940002
 31
65.0
100
AcDbText
  0
TEXT
  5
289
330
27D
100
AcDbEntity
  8
1
  6
Continuous
 62
     7
100
AcDbText
 10
-161.2490325162
 20
4.74983841940002
 30
65.0
 40
3.5
  1
記事
 41
0.8705357142857144
 72
     5
 11
-154.7490325162
 21
4.74983841940002
 31
65.0
100
AcDbText
  0
LINE
  5
28A
330
27D
100
AcDbEntity
  8
1
  6
Continuous
 62
     7
100
AcDbLine
 10
-212.9990322581
 20
30.99983870970002
 30
65.0
 11
-212.9990322581
 21
-0.0001612902999852
 31
65.0
  0
LINE
  5
28B
330
27D
100
AcDbEntity
  8
1
  6
Continuous
 62
     7
100
AcDbLine
 10
-237.9990322581
 20
30.99983870970002
 30
65.0
 11
-237.9990322581
 21
-0.0001612902999852
 31
65.0
  0
LINE
  5
28C
330
27D
100
AcDbEntity
  8
1
  6
Continuous
 62
     7
100
AcDbLine
 10
-262.9990322581
 20
30.99983870970002
 30
65.0
 11
-262.9990322581
 21
-0.0001612902999852
 31
65.0
  0
LINE
  5
28D
330
27D
100
AcDbEntity
  8
1
  6
Continuous
 62
     7
100
AcDbLine
 10
-287.9990322581
 20
30.99983870970002
 30
65.0
 11
-287.9990322581
 21
-0.0001612902999852
 31
65.0
  0
LINE
  5
28E
330
27D
100
AcDbEntity
  8
1
  6
Continuous
 62
     7
100
AcDbLine
 10
-122.9990322581
 20
30.99983870970002
 30
65.0
 11
-287.9990322581
 21
30.99983870970002
 31
65.0
  0
LINE
  5
28F
330
27D
100
AcDbEntity
  8
1
  6
Continuous
 62
     7
100
AcDbLine
 10
-287.9990322581
 20
24.99983870970002
 30
65.0
 11
-127.9990322581
 21
24.99983870970002
 31
65.0
  0
LINE
  5
290
330
27D
100
AcDbEntity
  8
1
  6
Continuous
 62
     7
100
AcDbLine
 10
-287.9990322581
 20
18.99983870970001
 30
65.0
 11
-127.9990322581
 21
18.99983870970001
 31
65.0
  0
LINE
  5
291
330
27D
100
AcDbEntity
  8
1
  6
Continuous
 62
     7
100
AcDbLine
 10
-287.9990322581
 20
12.99983870970001
 30
65.0
 11
-127.9990322581
 21
12.99983870970001
 31
65.0
  0
LINE
  5
292
330
27D
100
AcDbEntity
  8
1
  6
Continuous
 62
     7
100
AcDbLine
 10
-54.99903225810003
 20
30.99983870970002
 30
65.0
 11
-54.99903225810003
 21
-0.0001612902999852
 31
65.0
  0
LINE
  5
293
330
27D
100
AcDbEntity
  8
1
  6
Continuous
 62
     7
100
AcDbLine
 10
-59.99903225810003
 20
-0.0001612902999852
 30
65.0
 11
-59.99903225810003
 21
30.99983870970002
 31
65.0
  0
LINE
  5
294
330
27D
100
AcDbEntity
  8
1
  6
Continuous
 62
     7
100
AcDbLine
 10
-75.99903225810002
 20
19.99983870970001
 30
65.0
 11
-75.99903225810002
 21
9.999838709700014
 31
65.0
  0
LINE
  5
295
330
27D
100
AcDbEntity
  8
1
  6
Continuous
 62
     7
100
AcDbLine
 10
-80.99903225810002
 20
9.999838709700014
 30
65.0
 11
-80.99903225810002
 21
19.99983870970001
 31
65.0
  0
LINE
  5
296
330
27D
100
AcDbEntity
  8
1
  6
Continuous
 62
     7
100
AcDbLine
 10
-96.99903225810006
 20
19.99983870970001
 30
65.0
 11
-96.99903225810006
 21
9.999838709700014
 31
65.0
  0
LINE
  5
297
330
27D
100
AcDbEntity
  8
1
  6
Continuous
 62
     7
100
AcDbLine
 10
-101.9990322581
 20
9.999838709700014
 30
65.0
 11
-101.9990322581
 21
19.99983870970001
 31
65.0
  0
LINE
  5
298
330
27D
100
AcDbEntity
  8
1
  6
Continuous
 62
     7
100
AcDbLine
 10
-117.9990322581
 20
30.99983870970002
 30
65.0
 11
-117.9990322581
 21
9.999838709700014
 31
65.0
  0
LINE
  5
299
330
27D
100
AcDbEntity
  8
1
  6
Continuous
 62
     7
100
AcDbLine
 10
-4.999032258100001
 20
30.99983870970002
 30
65.0
 11
-4.999032258100001
 21
19.99983870970001
 31
65.0
  0
LINE
  5
29A
330
27D
100
AcDbEntity
  8
1
  6
Continuous
 62
     7
100
AcDbLine
 10
-9.999032258100001
 20
30.99983870970002
 30
65.0
 11
-9.999032258100001
 21
19.99983870970001
 31
65.0
  0
LINE
  5
29B
330
27D
100
AcDbEntity
  8
1
  6
Continuous
 62
     7
100
AcDbLine
 10
-4.999032258100001
 20
9.999838709700014
 30
65.0
 11
-4.999032258100001
 21
-0.0001612902999852
 31
65.0
  0
LINE
  5
29C
330
27D
100
AcDbEntity
  8
1
  6
Continuous
 62
     7
100
AcDbLine
 10
-9.999032258100001
 20
9.999838709700014
 30
65.0
 11
-9.999032258100001
 21
-0.0001612902999852
 31
65.0
  0
LINE
  5
29D
330
27D
100
AcDbEntity
  8
1
  6
Continuous
 62
     7
100
AcDbLine
 10
-18.99903225810003
 20
9.999838709700014
 30
65.0
 11
-18.99903225810003
 21
-0.0001612902999852
 31
65.0
  0
LINE
  5
29E
330
27D
100
AcDbEntity
  8
1
  6
Continuous
 62
     7
100
AcDbLine
 10
-117.9990322581
 20
15.99983870970001
 30
65.0
 11
-101.9990322581
 21
15.99983870970001
 31
65.0
  0
LINE
  5
29F
330
27D
100
AcDbEntity
  8
1
  6
Continuous
 62
     7
100
AcDbLine
 10
-122.9990322581
 20
9.999838709700014
 30
65.0
 11
5.000967741899998
 21
9.999838709700014
 31
65.0
  0
LINE
  5
2A0
330
27D
100
AcDbEntity
  8
1
  6
Continuous
 62
     7
100
AcDbLine
 10
5.000967741899998
 20
19.99983870970001
 30
65.0
 11
-122.9990322581
 21
19.99983870970001
 31
65.0
  0
LINE
  5
2A1
330
27D
100
AcDbEntity
  8
1
  6
Continuous
 62
     7
100
AcDbLine
 10
-122.9990322581
 20
30.99983870970002
 30
65.0
 11
5.000967741899998
 21
30.99983870970002
 31
65.0
  0
LINE
  5
2A2
330
27D
100
AcDbEntity
  8
1
  6
Continuous
 62
     7
100
AcDbLine
 10
-122.9990322581
 20
30.99983870970002
 30
65.0
 11
-122.9990322581
 21
-0.0001612902999852
 31
65.0
  0
LINE
  5
2A3
330
27D
100
AcDbEntity
  8
1
  6
Continuous
 62
     7
100
AcDbLine
 10
-117.9990322581
 20
30.99983870970002
 30
65.0
 11
-117.9990322581
 21
9.999838709700014
 31
65.0
  0
TEXT
  5
2A4
330
27D
100
AcDbEntity
  8
1
  6
Continuous
 62
     7
100
AcDbText
 10
-122.2490325162
 20
25.74983841940002
 30
65.0
 40
3.5
  1
図
 41
1.153846153846153
 72
     5
 11
-118.7490325162
 21
25.74983841940002
 31
65.0
100
AcDbText
  0
TEXT
  5
2A5
330
27D
100
AcDbEntity
  8
1
  6
Continuous
 62
     7
100
AcDbText
 10
-101.2490325162
 20
10.74983841940002
 30
65.0
 40
3.5
  1
図
 41
1.153846153846153
 72
     5
 11
-97.74903251620004
 21
10.74983841940002
 31
65.0
100
AcDbText
  0
TEXT
  5
2A6
330
27D
100
AcDbEntity
  8
1
  6
Continuous
 62
     7
100
AcDbText
 10
-80.24903251620004
 20
10.74983841940002
 30
65.0
 40
3.5
  1
図
 41
1.153846153846153
 72
     5
 11
-76.74903251620005
 21
10.74983841940002
 31
65.0
100
AcDbText
  0
TEXT
  5
2A7
330
27D
100
AcDbEntity
  8
1
  6
Continuous
 62
     7
100
AcDbText
 10
-59.24903251620005
 20
4.74983841940002
 30
65.0
 40
3.5
  1
図
 41
1.153846153846153
 72
     5
 11
-55.74903251620004
 21
4.74983841940002
 31
65.0
100
AcDbText
  0
TEXT
  5
2A8
330
27D
100
AcDbEntity
  8
1
  6
Continuous
 62
     7
100
AcDbText
 10
-122.2490325162
 20
21.74983841940002
 30
65.0
 40
3.5
  1
名
 41
1.153846153846153
 72
     5
 11
-118.7490325162
 21
21.74983841940002
 31
65.0
100
AcDbText
  0
TEXT
  5
2A9
330
27D
100
AcDbEntity
  8
1
  6
Continuous
 62
     7
100
AcDbText
 10
-80.24903251620004
 20
14.74983841940002
 30
65.0
 40
3.5
  1
検
 41
1.071428571428571
 72
     5
 11
-76.74903251620005
 21
14.74983841940002
 31
65.0
100
AcDbText
  0
TEXT
  5
2AA
330
27D
100
AcDbEntity
  8
1
  6
Continuous
 62
     7
100
AcDbText
 10
-59.24903251620005
 20
0.749838419400021
 30
65.0
 40
3.5
  1
番
 41
1.071428571428571
 72
     5
 11
-55.74903251620004
 21
0.749838419400021
 31
65.0
100
AcDbText
  0
TEXT
  5
2AB
330
27D
100
AcDbEntity
  8
1
  6
Continuous
 62
     7
100
AcDbText
 10
-122.2490325162
 20
14.74983841940002
 30
65.0
 40
3.5
  1
設
 41
1.071428571428571
 72
     5
 11
-118.7490325162
 21
14.74983841940002
 31
65.0
100
AcDbText
  0
TEXT
  5
2AC
330
27D
100
AcDbEntity
  8
1
  6
Continuous
 62
     7
100
AcDbText
 10
-122.2490325162
 20
10.74983841940002
 30
65.0
 40
3.5
  1
計
 41
1.071428571428571
 72
     5
 11
-118.7490325162
 21
10.74983841940002
 31
65.0
100
AcDbText
  0
TEXT
  5
2AD
330
27D
100
AcDbEntity
  8
1
  6
Continuous
 62
     7
100
AcDbText
 10
-59.24903251620005
 20
14.74983841940002
 30
65.0
 40
3.5
  1
記
 41
1.071428571428571
 72
     5
 11
-55.74903251620004
 21
14.74983841940002
 31
65.0
100
AcDbText
  0
TEXT
  5
2AE
330
27D
100
AcDbEntity
  8
1
  6
Continuous
 62
     7
100
AcDbText
 10
-59.24903251620005
 20
10.74983841940002
 30
65.0
 40
3.5
  1
事
 41
1.071428571428571
 72
     5
 11
-55.74903251620004
 21
10.74983841940002
 31
65.0
100
AcDbText
  0
TEXT
  5
2AF
330
27D
100
AcDbEntity
  8
1
  6
Continuous
 62
     7
100
AcDbText
 10
-9.249032516200045
 20
25.74983841940002
 30
65.0
 40
3.5
  1
縮
 41
1.071428571428571
 72
     5
 11
-5.749032516200045
 21
25.74983841940002
 31
65.0
100
AcDbText
  0
TEXT
  5
2B0
330
27D
100
AcDbEntity
  8
1
  6
Continuous
 62
     7
100
AcDbText
 10
-9.249032516200045
 20
21.74983841940002
 30
65.0
 40
3.5
  1
尺
 41
1.071428571428571
 72
     5
 11
-5.749032516200045
 21
21.74983841940002
 31
65.0
100
AcDbText
  0
TEXT
  5
2B1
330
27D
100
AcDbEntity
  8
1
  6
Continuous
 62
     7
100
AcDbText
 10
-119.7490325162
 20
2.74983841940002
 30
65.0
 40
4.5
  1
伊藤鉄工株式会社
 41
1.369047619047618
 72
     5
 11
-62.24903251620005
 21
2.74983841940002
 31
65.0
100
AcDbText
  0
TEXT
  5
2B2
330
27D
100
AcDbEntity
  8
1
  6
Continuous
 62
     7
100
AcDbText
 10
-9.249032516200045
 20
5.99983841940002
 30
65.0
 40
3.0
  1
葉
 41
1.25
 72
     5
 11
-5.749032516200045
 21
5.99983841940002
 31
65.0
100
AcDbText
  0
TEXT
  5
2B3
330
27D
100
AcDbEntity
  8
1
  6
Continuous
 62
     7
100
AcDbText
 10
-9.249032516200045
 20
3.49983841940002
 30
65.0
 40
3.0
  1
ノ
 41
1.59090909090909
 72
     5
 11
-5.749032516200045
 21
3.49983841940002
 31
65.0
100
AcDbText
  0
TEXT
  5
2B4
330
27D
100
AcDbEntity
  8
1
  6
Continuous
 62
     7
100
AcDbText
 10
-9.249032516200045
 20
0.9998384194000209
 30
65.0
 40
3.0
  1
内
 41
1.346153846153846
 72
     5
 11
-5.749032516200045
 21
0.9998384194000209
 31
65.0
100
AcDbText
  0
LINE
  5
2B5
330
27D
100
AcDbEntity
  8
1
  6
Continuous
 62
     7
100
AcDbLine
 10
-122.9990322581
 20
30.99983870970002
 30
65.0
 11
-122.9990322581
 21
-0.0001612902999852
 31
65.0
  0
TEXT
  5
2B6
330
27D
100
AcDbEntity
  8
1
  6
Continuous
 62
     7
100
AcDbText
 10
-101.2490325162
 20
14.74983841940002
 30
65.0
 40
3.5
  1
製
 41
1.071428571428571
 72
     5
 11
-97.74903251620004
 21
14.74983841940002
 31
65.0
100
AcDbText
  0
LINE
  5
2B7
330
27D
100
AcDbEntity
  8
1
  6
Continuous
 62
     7
100
AcDbLine
 10
-69.62582009380001
 20
41.15905988960003
 30
65.0
 11
-65.90573309380004
 21
41.15905988960003
 31
65.0
  0
ARC
  5
2B8
330
27D
100
AcDbEntity
  8
1
  6
Continuous
 62
     7
100
AcDbCircle
 10
-60.94561709380004
 20
39.91903088960004
 30
65.0
 40
1.240029
100
AcDbArc
 50
90.0
 51
180.0
  0
LINE
  5
2B9
330
27D
100
AcDbEntity
  8
1
  6
Continuous
 62
     7
100
AcDbLine
 10
-56.19217259380004
 20
41.15905988960003
 30
65.0
 11
-60.94561709380004
 21
41.15905988960003
 31
65.0
  0
ARC
  5
2BA
330
27D
100
AcDbEntity
  8
1
  6
Continuous
 62
     7
100
AcDbCircle
 10
-56.19217259380004
 20
39.91903088960004
 30
65.0
 40
1.240029
100
AcDbArc
 50
0.0
 51
90.0
  0
ARC
  5
2BB
330
27D
100
AcDbEntity
  8
1
  6
Continuous
 62
     7
100
AcDbCircle
 10
-45.44525459380001
 20
39.91903088960004
 30
65.0
 40
1.240029
100
AcDbArc
 50
0.0
 51
90.0
  0
LINE
  5
2BC
330
27D
100
AcDbEntity
  8
1
  6
Continuous
 62
     7
100
AcDbLine
 10
-49.99202759380001
 20
41.15905988960003
 30
65.0
 11
-45.44525459380001
 21
41.15905988960003
 31
65.0
  0
ARC
  5
2BD
330
27D
100
AcDbEntity
  8
1
  6
Continuous
 62
     7
100
AcDbCircle
 10
-49.99202759380001
 20
39.91903088960004
 30
65.0
 40
1.240029
100
AcDbArc
 50
90.0
 51
180.0
  0
LINE
  5
2BE
330
27D
100
AcDbEntity
  8
1
  6
Continuous
 62
     7
100
AcDbLine
 10
-69.62582009380001
 20
40.33237388960003
 30
65.0
 11
-68.59246259380002
 21
40.33237388960003
 31
65.0
  0
LINE
  5
2BF
330
27D
100
AcDbEntity
  8
1
  6
Continuous
 62
     7
100
AcDbLine
 10
-68.59246259380002
 20
40.33237388960003
 30
65.0
 11
-68.59246259380002
 21
34.95891488960001
 31
65.0
  0
LINE
  5
2C0
330
27D
100
AcDbEntity
  8
1
  6
Continuous
 62
     7
100
AcDbLine
 10
-66.93909059380003
 20
34.95891488960001
 30
65.0
 11
-66.93909059380003
 21
40.33237388960003
 31
65.0
  0
LINE
  5
2C1
330
27D
100
AcDbEntity
  8
1
  6
Continuous
 62
     7
100
AcDbLine
 10
-66.93909059380003
 20
40.33237388960003
 30
65.0
 11
-65.90573309380004
 21
40.33237388960003
 31
65.0
  0
LINE
  5
2C2
330
27D
100
AcDbEntity
  8
1
  6
Continuous
 62
     7
100
AcDbLine
 10
-65.90573309380004
 20
41.15905988960003
 30
65.0
 11
-65.90573309380004
 21
40.33237388960003
 31
65.0
  0
LINE
  5
2C3
330
27D
100
AcDbEntity
  8
1
  6
Continuous
 62
     7
100
AcDbLine
 10
-69.62582009380001
 20
40.33237388960003
 30
65.0
 11
-69.62582009380001
 21
41.15905988960003
 31
65.0
  0
LINE
  5
2C4
330
27D
100
AcDbEntity
  8
1
  6
Continuous
 62
     7
100
AcDbLine
 10
-96.99903225810006
 20
15.99983870970001
 30
65.0
 11
-80.99903225810002
 21
15.99983870970001
 31
65.0
  0
LINE
  5
2C5
330
27D
100
AcDbEntity
  8
1
  6
Continuous
 62
     7
100
AcDbLine
 10
-75.99903225810002
 20
15.99983870970001
 30
65.0
 11
-59.99903225810003
 21
15.99983870970001
 31
65.0
  0
TEXT
  5
2C6
330
27D
100
AcDbEntity
  8
1
  6
Continuous
 62
     7
100
AcDbText
 10
-59.24903251620005
 20
25.74983841940002
 30
65.0
 40
3.5
  1
符
 41
1.071428571428571
 72
     5
 11
-55.74903251620004
 21
25.74983841940002
 31
65.0
100
AcDbText
  0
TEXT
  5
2C7
330
27D
100
AcDbEntity
  8
1
  6
Continuous
 62
     7
100
AcDbText
 10
-59.24903251620005
 20
21.74983841940002
 30
65.0
 40
3.5
  1
号
 41
1.071428571428571
 72
     5
 11
-55.74903251620004
 21
21.74983841940002
 31
65.0
100
AcDbText
  0
LINE
  5
2C8
330
27D
100
AcDbEntity
  8
1
  6
Continuous
 62
     7
100
AcDbLine
 10
-65.90573309380004
 20
34.13222888960002
 30
65.0
 11
-69.62582009380001
 21
34.13222888960002
 31
65.0
  0
CIRCLE
  5
2C9
330
27D
100
AcDbEntity
  8
1
  6
Continuous
 62
     7
100
AcDbCircle
 10
-64.25236109380001
 20
34.95891488960001
 30
65.0
 40
0.8266860000000001
  0
LINE
  5
2CA
330
27D
100
AcDbEntity
  8
1
  6
Continuous
 62
     7
100
AcDbLine
 10
-56.60551559380003
 20
34.95891488960001
 30
65.0
 11
-56.60551559380003
 21
34.13222888960002
 31
65.0
  0
LINE
  5
2CB
330
27D
100
AcDbEntity
  8
1
  6
Continuous
 62
     7
100
AcDbLine
 10
-56.60551559380003
 20
34.13222888960002
 30
65.0
 11
-54.95214359380002
 21
34.13222888960002
 31
65.0
  0
ARC
  5
2CC
330
27D
100
AcDbEntity
  8
1
  6
Continuous
 62
     7
100
AcDbCircle
 10
-60.94561709380004
 20
35.37225788960004
 30
65.0
 40
1.240029
100
AcDbArc
 50
180.0
 51
270.0
  0
LINE
  5
2CD
330
27D
100
AcDbEntity
  8
1
  6
Continuous
 62
     7
100
AcDbLine
 10
-60.94561709380004
 20
34.13222888960002
 30
65.0
 11
-60.53227409380001
 21
34.13222888960002
 31
65.0
  0
LINE
  5
2CE
330
27D
100
AcDbEntity
  8
1
  6
Continuous
 62
     7
100
AcDbLine
 10
-62.18564609380003
 20
35.37225788960004
 30
65.0
 11
-62.18564609380003
 21
39.91903088960004
 31
65.0
  0
CIRCLE
  5
2CF
330
27D
100
AcDbEntity
  8
1
  6
Continuous
 62
     7
100
AcDbCircle
 10
-53.50544309380002
 20
34.95891488960001
 30
65.0
 40
0.8266860000000001
  0
ARC
  5
2D0
330
27D
100
AcDbEntity
  8
1
  6
Continuous
 62
     7
100
AcDbCircle
 10
-49.99202759380001
 20
35.37225788960004
 30
65.0
 40
1.240029
100
AcDbArc
 50
180.0
 51
270.0
  0
LINE
  5
2D1
330
27D
100
AcDbEntity
  8
1
  6
Continuous
 62
     7
100
AcDbLine
 10
-45.44525459380001
 20
34.13222888960002
 30
65.0
 11
-49.99202759380001
 21
34.13222888960002
 31
65.0
  0
ARC
  5
2D2
330
27D
100
AcDbEntity
  8
1
  6
Continuous
 62
     7
100
AcDbCircle
 10
-45.44525459380001
 20
35.37225788960004
 30
65.0
 40
1.240029
100
AcDbArc
 50
270.0
 51
0.0
  0
LINE
  5
2D3
330
27D
100
AcDbEntity
  8
1
  6
Continuous
 62
     7
100
AcDbLine
 10
-51.23205659380004
 20
35.37225788960004
 30
65.0
 11
-51.23205659380004
 21
36.40561538960003
 31
65.0
  0
LINE
  5
2D4
330
27D
100
AcDbEntity
  8
1
  6
Continuous
 62
     7
100
AcDbLine
 10
-44.20522559380002
 20
39.91903088960004
 30
65.0
 11
-44.20522559380002
 21
38.88567338960001
 31
65.0
  0
CIRCLE
  5
2D5
330
27D
100
AcDbEntity
  8
1
  6
Continuous
 62
     7
100
AcDbCircle
 10
-42.75852509380003
 20
34.95891488960001
 30
65.0
 40
0.8266860000000001
  0
LINE
  5
2D6
330
27D
100
AcDbEntity
  8
1
  6
Continuous
 62
     7
100
AcDbLine
 10
-54.95214359380002
 20
39.09234488960001
 30
65.0
 11
-56.39884409380004
 21
39.09234488960001
 31
65.0
  0
LINE
  5
2D7
330
27D
100
AcDbEntity
  8
1
  6
Continuous
 62
     7
100
AcDbLine
 10
-56.39884409380004
 20
39.09234488960001
 30
65.0
 11
-56.39884409380004
 21
39.71235938960001
 31
65.0
  0
LINE
  5
2D8
330
27D
100
AcDbEntity
  8
1
  6
Continuous
 62
     7
100
AcDbLine
 10
-56.39884409380004
 20
39.71235938960001
 30
65.0
 11
-60.73894559380001
 21
39.71235938960001
 31
65.0
  0
LINE
  5
2D9
330
27D
100
AcDbEntity
  8
1
  6
Continuous
 62
     7
100
AcDbLine
 10
-60.73894559380001
 20
39.71235938960001
 30
65.0
 11
-60.73894559380001
 21
35.57892938960004
 31
65.0
  0
LINE
  5
2DA
330
27D
100
AcDbEntity
  8
1
  6
Continuous
 62
     7
100
AcDbLine
 10
-56.39884409380004
 20
37.02562988960003
 30
65.0
 11
-58.46555909380002
 21
37.02562988960003
 31
65.0
  0
LINE
  5
2DB
330
27D
100
AcDbEntity
  8
1
  6
Continuous
 62
     7
100
AcDbLine
 10
-58.46555909380002
 20
37.02562988960003
 30
65.0
 11
-58.46555909380002
 21
38.26565888960002
 31
65.0
  0
LINE
  5
2DC
330
27D
100
AcDbEntity
  8
1
  6
Continuous
 62
     7
100
AcDbLine
 10
-54.95214359380002
 20
39.09234488960001
 30
65.0
 11
-54.95214359380002
 21
39.91903088960004
 31
65.0
  0
LINE
  5
2DD
330
27D
100
AcDbEntity
  8
1
  6
Continuous
 62
     7
100
AcDbLine
 10
-56.39884409380004
 20
36.40561538960003
 30
65.0
 11
-56.39884409380004
 21
37.02562988960003
 31
65.0
  0
LINE
  5
2DE
330
27D
100
AcDbEntity
  8
1
  6
Continuous
 62
     7
100
AcDbLine
 10
-56.19217259380004
 20
38.26565888960002
 30
65.0
 11
-58.46555909380002
 21
38.26565888960002
 31
65.0
  0
LINE
  5
2DF
330
27D
100
AcDbEntity
  8
1
  6
Continuous
 62
     7
100
AcDbLine
 10
-54.95214359380002
 20
37.02562988960003
 30
65.0
 11
-54.95214359380002
 21
34.13222888960002
 31
65.0
  0
ARC
  5
2E0
330
27D
100
AcDbEntity
  8
1
  6
Continuous
 62
     7
100
AcDbCircle
 10
-56.19217259380004
 20
37.02562988960003
 30
65.0
 40
1.240029
100
AcDbArc
 50
0.0
 51
90.0
  0
LINE
  5
2E1
330
27D
100
AcDbEntity
  8
1
  6
Continuous
 62
     7
100
AcDbLine
 10
-58.10710069440005
 20
36.40561538960003
 30
65.0
 11
-56.39884409380004
 21
36.40561538960003
 31
65.0
  0
ARC
  5
2E2
330
27D
100
AcDbEntity
  8
1
  6
Continuous
 62
     7
100
AcDbCircle
 10
-58.10710069440005
 20
35.16558638960004
 30
65.0
 40
1.240029
100
AcDbArc
 50
90.0
 51
119.7448812969
  0
LINE
  5
2E3
330
27D
100
AcDbEntity
  8
1
  6
Continuous
 62
     7
100
AcDbLine
 10
-60.21241640110007
 20
35.57892938960004
 30
65.0
 11
-60.73894559380001
 21
35.57892938960004
 31
65.0
  0
LINE
  5
2E4
330
27D
100
AcDbEntity
  8
1
  6
Continuous
 62
     7
100
AcDbLine
 10
-59.59718972950007
 20
35.74231171430003
 30
65.0
 11
-58.72232736600004
 21
36.24223306480002
 31
65.0
  0
ARC
  5
2E5
330
27D
100
AcDbEntity
  8
1
  6
Continuous
 62
     7
100
AcDbCircle
 10
-60.21241640110007
 20
36.81895838960003
 30
65.0
 40
1.240029
100
AcDbArc
 50
270.0
 51
299.7448812969
  0
ARC
  5
2E6
330
27D
100
AcDbEntity
  8
1
  6
Continuous
 62
     7
100
AcDbCircle
 10
-57.72290849050005
 20
33.71888588960002
 30
65.0
 40
1.240029
100
AcDbArc
 50
90.0
 51
119.7448812969
  0
LINE
  5
2E7
330
27D
100
AcDbEntity
  8
1
  6
Continuous
 62
     7
100
AcDbLine
 10
-59.82822419720001
 20
34.13222888960002
 30
65.0
 11
-60.94561709380004
 21
34.13222888960002
 31
65.0
  0
ARC
  5
2E8
330
27D
100
AcDbEntity
  8
1
  6
Continuous
 62
     7
100
AcDbCircle
 10
-59.82822419720001
 20
35.37225788960004
 30
65.0
 40
1.240029
100
AcDbArc
 50
270.0
 51
299.7448812969
  0
LINE
  5
2E9
330
27D
100
AcDbEntity
  8
1
  6
Continuous
 62
     7
100
AcDbLine
 10
-58.33813516210004
 20
34.79553256480003
 30
65.0
 11
-59.21299752560002
 21
34.29561121430004
 31
65.0
  0
LINE
  5
2EA
330
27D
100
AcDbEntity
  8
1
  6
Continuous
 62
     7
100
AcDbLine
 10
-57.72290849050005
 20
34.95891488960001
 30
65.0
 11
-56.60551559380003
 21
34.95891488960001
 31
65.0
  0
LINE
  5
2EB
330
27D
100
AcDbEntity
  8
1
  6
Continuous
 62
     7
100
AcDbLine
 10
-68.59246259380002
 20
34.95891488960001
 30
65.0
 11
-69.62582009380001
 21
34.95891488960001
 31
65.0
  0
LINE
  5
2EC
330
27D
100
AcDbEntity
  8
1
  6
Continuous
 62
     7
100
AcDbLine
 10
-66.93909059380003
 20
34.95891488960001
 30
65.0
 11
-65.90573309380004
 21
34.95891488960001
 31
65.0
  0
LINE
  5
2ED
330
27D
100
AcDbEntity
  8
1
  6
Continuous
 62
     7
100
AcDbLine
 10
-69.62582009380001
 20
34.13222888960002
 30
65.0
 11
-69.62582009380001
 21
34.95891488960001
 31
65.0
  0
LINE
  5
2EE
330
27D
100
AcDbEntity
  8
1
  6
Continuous
 62
     7
100
AcDbLine
 10
-65.90573309380004
 20
34.95891488960001
 30
65.0
 11
-65.90573309380004
 21
34.13222888960002
 31
65.0
  0
LINE
  5
2EF
330
27D
100
AcDbEntity
  8
1
  6
Continuous
 62
     7
100
AcDbLine
 10
-49.78535609380002
 20
39.71235938960001
 30
65.0
 11
-45.65192609380001
 21
39.71235938960001
 31
65.0
  0
LINE
  5
2F0
330
27D
100
AcDbEntity
  8
1
  6
Continuous
 62
     7
100
AcDbLine
 10
-45.65192609380001
 20
39.71235938960001
 30
65.0
 11
-45.65192609380001
 21
38.88567338960001
 31
65.0
  0
LINE
  5
2F1
330
27D
100
AcDbEntity
  8
1
  6
Continuous
 62
     7
100
AcDbLine
 10
-49.78535609380002
 20
36.40561538960003
 30
65.0
 11
-49.78535609380002
 21
35.57892938960004
 31
65.0
  0
LINE
  5
2F2
330
27D
100
AcDbEntity
  8
1
  6
Continuous
 62
     7
100
AcDbLine
 10
-49.78535609380002
 20
35.57892938960004
 30
65.0
 11
-45.65192609380001
 21
35.57892938960004
 31
65.0
  0
LINE
  5
2F3
330
27D
100
AcDbEntity
  8
1
  6
Continuous
 62
     7
100
AcDbLine
 10
-49.78535609380002
 20
36.40561538960003
 30
65.0
 11
-51.23205659380004
 21
36.40561538960003
 31
65.0
  0
LINE
  5
2F4
330
27D
100
AcDbEntity
  8
1
  6
Continuous
 62
     7
100
AcDbLine
 10
-44.20522559380002
 20
38.88567338960001
 30
65.0
 11
-45.65192609380001
 21
38.88567338960001
 31
65.0
  0
LINE
  5
2F5
330
27D
100
AcDbEntity
  8
1
  6
Continuous
 62
     7
100
AcDbLine
 10
-45.65192609380001
 20
35.57892938960004
 30
65.0
 11
-45.65192609380001
 21
37.02562988960003
 31
65.0
  0
LINE
  5
2F6
330
27D
100
AcDbEntity
  8
1
  6
Continuous
 62
     7
100
AcDbLine
 10
-49.78535609380002
 20
38.26565888960002
 30
65.0
 11
-49.78535609380002
 21
39.71235938960001
 31
65.0
  0
LINE
  5
2F7
330
27D
100
AcDbEntity
  8
1
  6
Continuous
 62
     7
100
AcDbLine
 10
-44.20522559380002
 20
37.02562988960003
 30
65.0
 11
-44.20522559380002
 21
35.37225788960004
 31
65.0
  0
LINE
  5
2F8
330
27D
100
AcDbEntity
  8
1
  6
Continuous
 62
     7
100
AcDbLine
 10
-45.44525459380001
 20
38.26565888960002
 30
65.0
 11
-49.78535609380002
 21
38.26565888960002
 31
65.0
  0
ARC
  5
2F9
330
27D
100
AcDbEntity
  8
1
  6
Continuous
 62
     7
100
AcDbCircle
 10
-45.44525459380001
 20
37.02562988960003
 30
65.0
 40
1.240029
100
AcDbArc
 50
0.0
 51
90.0
  0
LINE
  5
2FA
330
27D
100
AcDbEntity
  8
1
  6
Continuous
 62
     7
100
AcDbLine
 10
-49.99202759400002
 20
37.02562988960003
 30
65.0
 11
-45.65192609380001
 21
37.02562988960003
 31
65.0
  0
LINE
  5
2FB
330
27D
100
AcDbEntity
  8
1
  6
Continuous
 62
     7
100
AcDbLine
 10
-51.23205659380004
 20
38.26565888960002
 30
65.0
 11
-51.23205659380004
 21
39.91903088960004
 31
65.0
  0
ARC
  5
2FC
330
27D
100
AcDbEntity
  8
1
  6
Continuous
 62
     7
100
AcDbCircle
 10
-49.99202759400002
 20
38.26565888960002
 30
65.0
 40
1.240029
100
AcDbArc
 50
180.0
 51
270.0
  0
LINE
  5
2FD
330
27D
100
AcDbEntity
  8
1
  6
Continuous
 62
     7
100
AcDbLine
 10
-4.999032258100001
 20
-0.0001612902999852
 30
65.0
 11
5.000967741899998
 21
9.999838709700014
 31
65.0
  0
LINE
  5
2FE
330
27D
100
AcDbEntity
  8
1
  6
Continuous
 62
     7
100
AcDbLine
 10
-4.999032258100001
 20
19.99983870970001
 30
65.0
 11
5.000967741899998
 21
30.99983870970002
 31
65.0
  0
TEXT
  5
2FF
330
27D
100
AcDbEntity
  8
1
  6
Continuous
 62
     7
100
AcDbText
 10
-179.7089845162
 20
23.95225941940004
 30
65.0
 40
8.0
  1
△
 41
1.153846153846153
 72
     5
 11
-171.7089845162
 21
23.95225941940004
 31
65.0
100
AcDbText
  0
TEXT
  5
300
330
27D
100
AcDbEntity
  8
1
  6
Continuous
 62
     7
100
AcDbText
 10
-204.7089845162
 20
23.95225941940004
 30
65.0
 40
8.0
  1
△
 41
1.153846153846153
 72
     5
 11
-196.7089845162
 21
23.95225941940004
 31
65.0
100
AcDbText
  0
TEXT
  5
301
330
27D
100
AcDbEntity
  8
1
  6
Continuous
 62
     7
100
AcDbText
 10
-229.7089845162
 20
23.95225941940004
 30
65.0
 40
8.0
  1
△
 41
1.153846153846153
 72
     5
 11
-221.7089845162
 21
23.95225941940004
 31
65.0
100
AcDbText
  0
TEXT
  5
302
330
27D
100
AcDbEntity
  8
1
  6
Continuous
 62
     7
100
AcDbText
 10
-254.7089845162
 20
23.95225941940004
 30
65.0
 40
8.0
  1
△
 41
1.153846153846153
 72
     5
 11
-246.7089845162
 21
23.95225941940004
 31
65.0
100
AcDbText
  0
TEXT
  5
303
330
27D
100
AcDbEntity
  8
1
  6
Continuous
 62
     7
100
AcDbText
 10
-279.7089845162
 20
23.95225941940004
 30
65.0
 40
8.0
  1
△
 41
1.153846153846153
 72
     5
 11
-271.7089845162
 21
23.95225941940004
 31
65.0
100
AcDbText
  0
LINE
  5
304
330
27D
100
AcDbEntity
  8
0
100
AcDbLine
 10
-287.9990322581
 20
-0.0001612902999852
 30
65.0
 11
5.000967741899998
 21
-0.0001612902999852
 31
65.0
  0
LINE
  5
305
330
27D
100
AcDbEntity
  8
0
100
AcDbLine
 10
5.000967741899998
 20
-0.0001612902999852
 30
65.0
 11
5.000967741899998
 21
30.99983870970002
 31
65.0
  0
ENDBLK
  5
307
330
27D
100
AcDbEntity
  8
0
100
AcDbBlockEnd
  0
BLOCK
  5
3B8
330
335
100
AcDbEntity
  8
0
100
AcDbBlockBegin
  2
IGS2
 70
     2
 10
0.0
 20
0.0
 30
0.0
  3
IGS2
  1

  0
POINT
  5
336
330
335
100
AcDbEntity
  8
0
 60
     1
100
AcDbPoint
 10
0.0
 20
0.0
 30
0.0
1001
GENIUS_GENODEF_13
1002
{
1000
HIER
1070
     1
1002
}
1002
{
1000
MANEDIT
1070
     0
1002
}
1002
{
1000
NOSEL
1070
     0
1002
}
1002
{
1000
BEHIND
1070
     0
1002
}
1002
{
1000
REACTOR
1002
}
1001
GENIUS_GENTITLE_13
1002
{
1000
SCALE
1000
1:1
1002
}
1002
{
1000
BORDER
1000
IGS-A4
1002
}
1002
{
1000
TITLE
1000
IGS-TITLE
1002
}
1002
{
1000
UNCHG
1002
{
1000
GEN-TITLE-SCA
1000
GEN-TITLE-SIZ
1002
}
1002
}
1002
{
1000
HRA
1005
0
1002
}
1002
{
1000
HTIT
1005
0
1002
}
1002
{
1000
GENIUSID
1005
336
1002
}
1001
GENIUS_GENOBJ-N-TIT_13
1002
{
1000
OWNER
1000
GEN
1002
}
1001
GENIUS_GENOENT_13
1002
{
1000
MYREF
1005
336
1002
}
1002
{
1000
GRP
1005
0
1002
}
1001
GENIUS_GENOLIS_13
1002
{
1000
ENT
1005
0
1005
0
1002
}
  0
LINE
  5
337
330
335
100
AcDbEntity
  8
RAHM3
100
AcDbLine
 10
-148.4080564410193
 20
8.825237325416161
 30
52.0
 11
-145.4319868410194
 21
8.825237325416161
 31
52.0
  0
ARC
  5
338
330
335
100
AcDbEntity
  8
RAHM3
100
AcDbCircle
 10
-141.4638940410194
 20
7.833214125416168
 30
52.0
 40
0.9920232
100
AcDbArc
 50
90.0
 51
180.0
  0
LINE
  5
339
330
335
100
AcDbEntity
  8
RAHM3
100
AcDbLine
 10
-137.6611384410193
 20
8.825237325416161
 30
52.0
 11
-141.4638940410194
 21
8.825237325416161
 31
52.0
  0
ARC
  5
33A
330
335
100
AcDbEntity
  8
RAHM3
100
AcDbCircle
 10
-137.6611384410193
 20
7.833214125416168
 30
52.0
 40
0.9920232
100
AcDbArc
 50
0.0
 51
90.0
  0
ARC
  5
33B
330
335
100
AcDbEntity
  8
RAHM3
100
AcDbCircle
 10
-129.0636040410194
 20
7.833214125416168
 30
52.0
 40
0.9920232
100
AcDbArc
 50
0.0
 51
90.0
  0
LINE
  5
33C
330
335
100
AcDbEntity
  8
RAHM3
100
AcDbLine
 10
-132.7010224410193
 20
8.825237325416161
 30
52.0
 11
-129.0636040410194
 21
8.825237325416161
 31
52.0
  0
ARC
  5
33D
330
335
100
AcDbEntity
  8
RAHM3
100
AcDbCircle
 10
-132.7010224410193
 20
7.833214125416168
 30
52.0
 40
0.9920232
100
AcDbArc
 50
90.0
 51
180.0
  0
LINE
  5
33E
330
335
100
AcDbEntity
  8
RAHM3
100
AcDbLine
 10
-148.4080564410193
 20
8.163888525416165
 30
52.0
 11
-147.5813704410193
 21
8.163888525416165
 31
52.0
  0
LINE
  5
33F
330
335
100
AcDbEntity
  8
RAHM3
100
AcDbLine
 10
-147.5813704410193
 20
8.163888525416165
 30
52.0
 11
-147.5813704410193
 21
3.865121325416145
 31
52.0
  0
LINE
  5
340
330
335
100
AcDbEntity
  8
RAHM3
100
AcDbLine
 10
-146.2586728410194
 20
3.865121325416145
 30
52.0
 11
-146.2586728410194
 21
8.163888525416165
 31
52.0
  0
LINE
  5
341
330
335
100
AcDbEntity
  8
RAHM3
100
AcDbLine
 10
-146.2586728410194
 20
8.163888525416165
 30
52.0
 11
-145.4319868410194
 21
8.163888525416165
 31
52.0
  0
LINE
  5
342
330
335
100
AcDbEntity
  8
RAHM3
100
AcDbLine
 10
-145.4319868410194
 20
8.825237325416161
 30
52.0
 11
-145.4319868410194
 21
8.163888525416165
 31
52.0
  0
LINE
  5
343
330
335
100
AcDbEntity
  8
RAHM3
100
AcDbLine
 10
-148.4080564410193
 20
8.163888525416165
 30
52.0
 11
-148.4080564410193
 21
8.825237325416161
 31
52.0
  0
LINE
  5
344
330
335
100
AcDbEntity
  8
RAHM3
100
AcDbLine
 10
-145.4319868410194
 20
3.203772525416149
 30
52.0
 11
-148.4080564410193
 21
3.203772525416149
 31
52.0
  0
CIRCLE
  5
345
330
335
100
AcDbEntity
  8
RAHM3
100
AcDbCircle
 10
-144.1092892410194
 20
3.865121325416145
 30
52.0
 40
0.6613488000000001
  0
LINE
  5
346
330
335
100
AcDbEntity
  8
RAHM3
100
AcDbLine
 10
-137.9918128410194
 20
3.865121325416145
 30
52.0
 11
-137.9918128410194
 21
3.203772525416149
 31
52.0
  0
LINE
  5
347
330
335
100
AcDbEntity
  8
RAHM3
100
AcDbLine
 10
-137.9918128410194
 20
3.203772525416149
 30
52.0
 11
-136.6691152410193
 21
3.203772525416149
 31
52.0
  0
ARC
  5
348
330
335
100
AcDbEntity
  8
RAHM3
100
AcDbCircle
 10
-141.4638940410194
 20
4.195795725416166
 30
52.0
 40
0.9920232
100
AcDbArc
 50
180.0
 51
270.0
  0
LINE
  5
349
330
335
100
AcDbEntity
  8
RAHM3
100
AcDbLine
 10
-141.4638940410194
 20
3.203772525416149
 30
52.0
 11
-141.1332196410193
 21
3.203772525416149
 31
52.0
  0
LINE
  5
34A
330
335
100
AcDbEntity
  8
RAHM3
100
AcDbLine
 10
-142.4559172410194
 20
4.195795725416166
 30
52.0
 11
-142.4559172410194
 21
7.833214125416168
 31
52.0
  0
CIRCLE
  5
34B
330
335
100
AcDbEntity
  8
RAHM3
100
AcDbCircle
 10
-135.5117548410193
 20
3.865121325416145
 30
52.0
 40
0.6613488000000001
  0
ARC
  5
34C
330
335
100
AcDbEntity
  8
RAHM3
100
AcDbCircle
 10
-132.7010224410193
 20
4.195795725416166
 30
52.0
 40
0.9920232
100
AcDbArc
 50
180.0
 51
270.0
  0
LINE
  5
34D
330
335
100
AcDbEntity
  8
RAHM3
100
AcDbLine
 10
-129.0636040410194
 20
3.203772525416149
 30
52.0
 11
-132.7010224410193
 21
3.203772525416149
 31
52.0
  0
ARC
  5
34E
330
335
100
AcDbEntity
  8
RAHM3
100
AcDbCircle
 10
-129.0636040410194
 20
4.195795725416166
 30
52.0
 40
0.9920232
100
AcDbArc
 50
270.0
 51
0.0
  0
LINE
  5
34F
330
335
100
AcDbEntity
  8
RAHM3
100
AcDbLine
 10
-133.6930456410194
 20
4.195795725416166
 30
52.0
 11
-133.6930456410194
 21
5.022481725416161
 31
52.0
  0
LINE
  5
350
330
335
100
AcDbEntity
  8
RAHM3
100
AcDbLine
 10
-128.0715808410194
 20
7.833214125416168
 30
52.0
 11
-128.0715808410194
 21
7.00652812541615
 31
52.0
  0
CIRCLE
  5
351
330
335
100
AcDbEntity
  8
RAHM3
100
AcDbCircle
 10
-126.9142204410194
 20
3.865121325416145
 30
52.0
 40
0.6613488000000001
  0
LINE
  5
352
330
335
100
AcDbEntity
  8
RAHM3
100
AcDbLine
 10
-136.6691152410193
 20
7.171865325416149
 30
52.0
 11
-137.8264756410194
 21
7.171865325416149
 31
52.0
  0
LINE
  5
353
330
335
100
AcDbEntity
  8
RAHM3
100
AcDbLine
 10
-137.8264756410194
 20
7.171865325416149
 30
52.0
 11
-137.8264756410194
 21
7.667876925416146
 31
52.0
  0
LINE
  5
354
330
335
100
AcDbEntity
  8
RAHM3
100
AcDbLine
 10
-137.8264756410194
 20
7.667876925416146
 30
52.0
 11
-141.2985568410193
 21
7.667876925416146
 31
52.0
  0
LINE
  5
355
330
335
100
AcDbEntity
  8
RAHM3
100
AcDbLine
 10
-141.2985568410193
 20
7.667876925416146
 30
52.0
 11
-141.2985568410193
 21
4.361132925416165
 31
52.0
  0
LINE
  5
356
330
335
100
AcDbEntity
  8
RAHM3
100
AcDbLine
 10
-137.8264756410194
 20
5.518493325416158
 30
52.0
 11
-139.4798476410193
 21
5.518493325416158
 31
52.0
  0
LINE
  5
357
330
335
100
AcDbEntity
  8
RAHM3
100
AcDbLine
 10
-139.4798476410193
 20
5.518493325416158
 30
52.0
 11
-139.4798476410193
 21
6.510516525416153
 31
52.0
  0
LINE
  5
358
330
335
100
AcDbEntity
  8
RAHM3
100
AcDbLine
 10
-136.6691152410193
 20
7.171865325416149
 30
52.0
 11
-136.6691152410193
 21
7.833214125416168
 31
52.0
  0
LINE
  5
359
330
335
100
AcDbEntity
  8
RAHM3
100
AcDbLine
 10
-137.8264756410194
 20
5.022481725416161
 30
52.0
 11
-137.8264756410194
 21
5.518493325416158
 31
52.0
  0
LINE
  5
35A
330
335
100
AcDbEntity
  8
RAHM3
100
AcDbLine
 10
-137.6611384410193
 20
6.510516525416153
 30
52.0
 11
-139.4798476410193
 21
6.510516525416153
 31
52.0
  0
LINE
  5
35B
330
335
100
AcDbEntity
  8
RAHM3
100
AcDbLine
 10
-136.6691152410193
 20
5.518493325416158
 30
52.0
 11
-136.6691152410193
 21
3.203772525416149
 31
52.0
  0
ARC
  5
35C
330
335
100
AcDbEntity
  8
RAHM3
100
AcDbCircle
 10
-137.6611384410193
 20
5.518493325416158
 30
52.0
 40
0.9920232
100
AcDbArc
 50
0.0
 51
90.0
  0
LINE
  5
35D
330
335
100
AcDbEntity
  8
RAHM3
100
AcDbLine
 10
-139.1930809214994
 20
5.022481725416161
 30
52.0
 11
-137.8264756410194
 21
5.022481725416161
 31
52.0
  0
ARC
  5
35E
330
335
100
AcDbEntity
  8
RAHM3
100
AcDbCircle
 10
-139.1930809214994
 20
4.030458525416167
 30
52.0
 40
0.9920232
100
AcDbArc
 50
90.0
 51
119.7448812969
  0
LINE
  5
35F
330
335
100
AcDbEntity
  8
RAHM3
100
AcDbLine
 10
-140.8773334868594
 20
4.361132925416165
 30
52.0
 11
-141.2985568410193
 21
4.361132925416165
 31
52.0
  0
LINE
  5
360
330
335
100
AcDbEntity
  8
RAHM3
100
AcDbLine
 10
-140.3851521495794
 20
4.491838785176161
 30
52.0
 11
-139.6852622587794
 21
4.891775865576152
 31
52.0
  0
ARC
  5
361
330
335
100
AcDbEntity
  8
RAHM3
100
AcDbCircle
 10
-140.8773334868594
 20
5.35315612541616
 30
52.0
 40
0.9920232
100
AcDbArc
 50
270.0
 51
299.7448812969
  0
ARC
  5
362
330
335
100
AcDbEntity
  8
RAHM3
100
AcDbCircle
 10
-138.8857271583794
 20
2.873098125416151
 30
52.0
 40
0.9920232
100
AcDbArc
 50
90.0
 51
119.7448812969
  0
LINE
  5
363
330
335
100
AcDbEntity
  8
RAHM3
100
AcDbLine
 10
-140.5699797237394
 20
3.203772525416149
 30
52.0
 11
-141.4638940410194
 21
3.203772525416149
 31
52.0
  0
ARC
  5
364
330
335
100
AcDbEntity
  8
RAHM3
100
AcDbCircle
 10
-140.5699797237394
 20
4.195795725416166
 30
52.0
 40
0.9920232
100
AcDbArc
 50
270.0
 51
299.7448812969
  0
LINE
  5
365
330
335
100
AcDbEntity
  8
RAHM3
100
AcDbLine
 10
-139.3779084956594
 20
3.734415465576159
 30
52.0
 11
-140.0777983864594
 21
3.334478385176168
 31
52.0
  0
LINE
  5
366
330
335
100
AcDbEntity
  8
RAHM3
100
AcDbLine
 10
-138.8857271583794
 20
3.865121325416145
 30
52.0
 11
-137.9918128410194
 21
3.865121325416145
 31
52.0
  0
LINE
  5
367
330
335
100
AcDbEntity
  8
RAHM3
100
AcDbLine
 10
-147.5813704410193
 20
3.865121325416145
 30
52.0
 11
-148.4080564410193
 21
3.865121325416145
 31
52.0
  0
LINE
  5
368
330
335
100
AcDbEntity
  8
RAHM3
100
AcDbLine
 10
-146.2586728410194
 20
3.865121325416145
 30
52.0
 11
-145.4319868410194
 21
3.865121325416145
 31
52.0
  0
LINE
  5
369
330
335
100
AcDbEntity
  8
RAHM3
100
AcDbLine
 10
-148.4080564410193
 20
3.203772525416149
 30
52.0
 11
-148.4080564410193
 21
3.865121325416145
 31
52.0
  0
LINE
  5
36A
330
335
100
AcDbEntity
  8
RAHM3
100
AcDbLine
 10
-145.4319868410194
 20
3.865121325416145
 30
52.0
 11
-145.4319868410194
 21
3.203772525416149
 31
52.0
  0
LINE
  5
36B
330
335
100
AcDbEntity
  8
RAHM3
100
AcDbLine
 10
-132.5356852410194
 20
7.667876925416146
 30
52.0
 11
-129.2289412410193
 21
7.667876925416146
 31
52.0
  0
LINE
  5
36C
330
335
100
AcDbEntity
  8
RAHM3
100
AcDbLine
 10
-129.2289412410193
 20
7.667876925416146
 30
52.0
 11
-129.2289412410193
 21
7.00652812541615
 31
52.0
  0
LINE
  5
36D
330
335
100
AcDbEntity
  8
RAHM3
100
AcDbLine
 10
-132.5356852410194
 20
5.022481725416161
 30
52.0
 11
-132.5356852410194
 21
4.361132925416165
 31
52.0
  0
LINE
  5
36E
330
335
100
AcDbEntity
  8
RAHM3
100
AcDbLine
 10
-132.5356852410194
 20
4.361132925416165
 30
52.0
 11
-129.2289412410193
 21
4.361132925416165
 31
52.0
  0
LINE
  5
36F
330
335
100
AcDbEntity
  8
RAHM3
100
AcDbLine
 10
-132.5356852410194
 20
5.022481725416161
 30
52.0
 11
-133.6930456410194
 21
5.022481725416161
 31
52.0
  0
LINE
  5
370
330
335
100
AcDbEntity
  8
RAHM3
100
AcDbLine
 10
-128.0715808410194
 20
7.00652812541615
 30
52.0
 11
-129.2289412410193
 21
7.00652812541615
 31
52.0
  0
LINE
  5
371
330
335
100
AcDbEntity
  8
RAHM3
100
AcDbLine
 10
-129.2289412410193
 20
4.361132925416165
 30
52.0
 11
-129.2289412410193
 21
5.518493325416158
 31
52.0
  0
LINE
  5
372
330
335
100
AcDbEntity
  8
RAHM3
100
AcDbLine
 10
-132.5356852410194
 20
6.510516525416153
 30
52.0
 11
-132.5356852410194
 21
7.667876925416146
 31
52.0
  0
LINE
  5
373
330
335
100
AcDbEntity
  8
RAHM3
100
AcDbLine
 10
-128.0715808410194
 20
5.518493325416158
 30
52.0
 11
-128.0715808410194
 21
4.195795725416166
 31
52.0
  0
LINE
  5
374
330
335
100
AcDbEntity
  8
RAHM3
100
AcDbLine
 10
-129.0636040410194
 20
6.510516525416153
 30
52.0
 11
-132.5356852410194
 21
6.510516525416153
 31
52.0
  0
ARC
  5
375
330
335
100
AcDbEntity
  8
RAHM3
100
AcDbCircle
 10
-129.0636040410194
 20
5.518493325416158
 30
52.0
 40
0.9920232
100
AcDbArc
 50
0.0
 51
90.0
  0
LINE
  5
376
330
335
100
AcDbEntity
  8
RAHM3
100
AcDbLine
 10
-132.7010224411794
 20
5.518493325416158
 30
52.0
 11
-129.2289412410193
 21
5.518493325416158
 31
52.0
  0
LINE
  5
377
330
335
100
AcDbEntity
  8
RAHM3
100
AcDbLine
 10
-133.6930456410194
 20
6.510516525416153
 30
52.0
 11
-133.6930456410194
 21
7.833214125416168
 31
52.0
  0
ARC
  5
378
330
335
100
AcDbEntity
  8
RAHM3
100
AcDbCircle
 10
-132.7010224411794
 20
6.510516525416153
 30
52.0
 40
0.9920232
100
AcDbArc
 50
180.0
 51
270.0
  0
POINT
  5
379
330
335
100
AcDbEntity
  8
0
 60
     1
100
AcDbPoint
 10
0.0
 20
0.0
 30
0.0
1001
GENIUS_GENODEF_13
1002
{
1000
HIER
1070
     1
1002
}
1002
{
1000
MANEDIT
1070
     0
1002
}
1002
{
1000
NOSEL
1070
     0
1002
}
1002
{
1000
BEHIND
1070
     0
1002
}
1002
{
1000
REACTOR
1002
}
1001
GENIUS_GENTITLE_13
1002
{
1000
SCALE
1000
1:1
1002
}
1002
{
1000
BORDER
1000
GEN_A4
1002
}
1002
{
1000
TITLE
1000
GENTITUS
1002
}
1002
{
1000
UNCHG
1002
{
1000
GEN-TITLE-SCA
1000
GEN-TITLE-SIZ
1002
}
1002
}
1002
{
1000
HRA
1005
0
1002
}
1002
{
1000
HTIT
1005
0
1002
}
1002
{
1000
GENIUSID
1005
379
1002
}
1001
GENIUS_GENOBJ-N-TIT_13
1002
{
1000
OWNER
1000
GEN
1002
}
1001
GENIUS_GENOENT_13
1002
{
1000
MYREF
1005
379
1002
}
1002
{
1000
GRP
1005
0
1002
}
1001
GENIUS_GENOLIS_13
1002
{
1000
ENT
1005
0
1005
0
1002
}
  0
TEXT
  5
37A
330
335
100
AcDbEntity
  8
0
 60
     1
100
AcDbText
 10
210.0
 20
297.0
 30
0.0
 40
3.5
  1
!GENTITLE-MAX
100
AcDbText
  0
TEXT
  5
37B
330
335
100
AcDbEntity
  8
0
 60
     1
100
AcDbText
 10
205.0
 20
287.0
 30
0.0
 40
3.5
  1
!GENTITLE-RU
100
AcDbText
  0
TEXT
  5
37C
330
335
100
AcDbEntity
  8
0
 60
     1
100
AcDbText
 10
15.0
 20
59.99
 30
0.0
 40
3.5
  1
!GENTITLE-LL
100
AcDbText
  0
TEXT
  5
37D
330
335
100
AcDbEntity
  8
0
 60
     1
100
AcDbText
 10
205.0
 20
5.0
 30
0.0
 40
3.5
  1
!GENTITLE-INSERT
100
AcDbText
  0
LINE
  5
37E
330
335
100
AcDbEntity
  8
RAHM2
100
AcDbLine
 10
-155.0
 20
12.0
 30
0.0
 11
0.0
 21
12.0
 31
0.0
  0
LINE
  5
37F
330
335
100
AcDbEntity
  8
RAHM2
100
AcDbLine
 10
-12.0
 20
12.0
 30
0.0
 11
-12.00000000000727
 21
0.0
 31
0.0
  0
LINE
  5
380
330
335
100
AcDbEntity
  8
RAHM2
100
AcDbLine
 10
-80.0
 20
19.99999999999272
 30
0.0
 11
0.0
 21
20.0
 31
0.0
  0
LINE
  5
381
330
335
100
AcDbEntity
  8
RAHM2
100
AcDbLine
 10
0.0
 20
27.0
 30
0.0
 11
-80.0
 21
27.0
 31
0.0
  0
MTEXT
  5
382
330
335
100
AcDbEntity
  8
RAHM2
100
AcDbMText
 10
-78.39748281353763
 20
37.79972226353243
 30
0.0
 40
2.5
 41
2.458156240282278
 71
     1
 72
     5
  1

 73
     1
 44
1.0
  0
TEXT
  5
383
330
335
100
AcDbEntity
  8
RAHM3
100
AcDbText
 10
-79.00900277736832
 20
36.89804600214973
 30
0.0
 40
2.299999999999999
  1
名称 ＴＩＴＬＥ
 41
0.8
100
AcDbText
  0
LINE
  5
384
330
335
100
AcDbEntity
  8
RAHM2
100
AcDbLine
 10
-80.0
 20
40.00000000000727
 30
0.0
 11
-80.0
 21
0.0
 31
0.0
  0
TEXT
  5
385
330
335
100
AcDbEntity
  8
RAHM3
100
AcDbText
 10
-79.00900277736832
 20
23.89804600216055
 30
0.0
 40
2.299999999999999
  1
符号 
 41
0.8
100
AcDbText
  0
TEXT
  5
386
330
335
100
AcDbEntity
  8
RAHM3
100
AcDbText
 10
-79.00900277736832
 20
16.89804600215146
 30
0.0
 40
2.299999999999999
  1
件名
 41
0.8
100
AcDbText
  0
TEXT
  5
387
330
335
100
AcDbEntity
  8
RAHM3
100
AcDbText
 10
-79.00900277736832
 20
8.898046002160548
 30
0.0
 40
2.299999999999999
  1
図番 ＤＲＡＷＩＮＧ ＮＯ．
 41
0.8
100
AcDbText
  0
CIRCLE
  5
388
330
335
100
AcDbEntity
  8
RAHM2
100
AcDbCircle
 10
-5.0
 20
5.0
 30
0.0
 40
4.5
  0
LINE
  5
389
330
335
100
AcDbEntity
  8
RAHM2
100
AcDbLine
 10
-130.0000000000018
 20
40.00000000000916
 30
0.0
 11
-130.0000000000018
 21
12.0
 31
0.0
  0
LINE
  5
38A
330
335
100
AcDbEntity
  8
RAHM2
100
AcDbLine
 10
-130.0000000000018
 20
26.00000000000458
 30
0.0
 11
-80.0
 21
25.99999999999818
 31
0.0
  0
LINE
  5
38B
330
335
100
AcDbEntity
  8
RAHM2
100
AcDbLine
 10
-105.0000000000018
 20
40.00000000000916
 30
0.0
 11
-105.0000000000018
 21
12.0
 31
0.0
  0
TEXT
  5
38C
330
335
100
AcDbEntity
  8
RAHM3
100
AcDbText
 10
-129.0090027773683
 20
36.89804600215881
 30
0.0
 40
2.299999999999999
  1
承認 ＡＰＰＤ
 41
0.8
100
AcDbText
  0
TEXT
  5
38D
330
335
100
AcDbEntity
  8
RAHM3
100
AcDbText
 10
-104.0090027773683
 20
36.8980460021551
 30
0.0
 40
2.299999999999999
  1
検図 ＣＨＫ
 41
0.8
100
AcDbText
  0
TEXT
  5
38E
330
335
100
AcDbEntity
  8
RAHM3
100
AcDbText
 10
-129.0090027773683
 20
22.89804600215422
 30
0.0
 40
2.299999999999999
  1
設計 ＥＮＧＲ
 41
0.8
100
AcDbText
  0
TEXT
  5
38F
330
335
100
AcDbEntity
  8
RAHM3
100
AcDbText
 10
-104.0090027773683
 20
22.89804600214964
 30
0.0
 40
2.299999999999999
  1
製図 ＤＲ ＤＡＴＥ
 41
0.8
100
AcDbText
  0
LINE
  5
390
330
335
100
AcDbEntity
  8
RAHM2
100
AcDbLine
 10
-155.0
 20
30.60000000000036
 30
0.0
 11
-130.0000000000018
 21
30.60000000000036
 31
0.0
  0
LINE
  5
391
330
335
100
AcDbEntity
  8
RAHM2
100
AcDbLine
 10
-155.0
 20
21.29999999999927
 30
0.0
 11
-130.0000000000018
 21
21.30000000000109
 31
0.0
  0
TEXT
  5
392
330
335
100
AcDbEntity
  8
RAHM3
100
AcDbText
 10
-121.7843516157921
 20
6.885079184961092
 30
0.0
 40
4.0
  1
伊藤鉄工株式会社
100
AcDbText
  0
TEXT
  5
393
330
335
100
AcDbEntity
  8
RAHM3
100
AcDbText
 10
-120.6675998914835
 20
3.578884653066273
 30
0.0
 40
2.0
  1
ITO TEKKO  CO.,LTD.
100
AcDbText
1001
GENIUS_GENTRA_14
1002
{
1070
     1
1000
/
1000
ITO TEKKO  CO.,LTD.
1000
JPN
1070
     0
1040
1.0
1070
     0
1002
}
  0
TEXT
  5
394
330
335
100
AcDbEntity
  8
RAHM3
100
AcDbText
 10
-120.6675998914835
 20
0.9279960228792472
 30
0.0
 40
2.0
  1
KAWAGUCHI  JAPAN
100
AcDbText
  0
TEXT
  5
395
330
335
100
AcDbEntity
  8
RAHM3
100
AcDbText
 10
-11.85206060358336
 20
9.69362381988742
 30
0.0
 40
1.8
  1
ＲＥＶ．ＭＡＲＫ
 41
0.6800000000000001
100
AcDbText
  0
TEXT
  5
396
330
335
100
AcDbEntity
  8
RAHM3
100
AcDbText
 10
-11.57052530051805
 20
7.425435269030799
 30
0.0
 40
1.8
  1
変
100
AcDbText
  0
TEXT
  5
397
330
335
100
AcDbEntity
  8
RAHM3
100
AcDbText
 10
-11.59004395148213
 20
4.996441785248862
 30
0.0
 40
1.8
  1
更
100
AcDbText
  0
TEXT
  5
398
330
335
100
AcDbEntity
  8
RAHM3
100
AcDbText
 10
-11.62938531906752
 20
2.617267270587205
 30
0.0
 40
1.8
  1
回
100
AcDbText
  0
TEXT
  5
399
330
335
100
AcDbEntity
  8
RAHM3
100
AcDbText
 10
-11.56556962136267
 20
0.3551115072955326
 30
0.0
 40
1.8
  1
数
100
AcDbText
  0
TEXT
  5
39A
330
335
100
AcDbEntity
  8
RAHM3
100
AcDbText
 10
-154.0090027773665
 20
36.89804600217056
 30
0.0
 40
2.299999999999999
  1
尺度 ＳＣＡＬＥ
 41
0.8
100
AcDbText
  0
TEXT
  5
39B
330
335
100
AcDbEntity
  8
RAHM3
100
AcDbText
 10
-154.0090027773665
 20
27.49804600215
 30
0.0
 40
2.299999999999999
  1
図面枚数 ＮＯ．  
 41
0.8
100
AcDbText
  0
LINE
  5
39C
330
335
100
AcDbEntity
  8
7A
100
AcDbLine
 10
-151.7551228444401
 20
16.64999999999988
 30
0.0
 11
-149.2551228444401
 21
16.64999999999988
 31
0.0
1001
GENIUS_GENOREF_13
1005
3A0
  0
LINE
  5
39D
330
335
100
AcDbEntity
  8
7A
100
AcDbLine
 10
-151.7551228444401
 20
16.64999999999988
 30
0.0
 11
-151.7551228444401
 21
19.14999999999988
 31
0.0
1001
GENIUS_GENOREF_13
1005
3A0
  0
LINE
  5
39E
330
335
100
AcDbEntity
  8
7A
100
AcDbLine
 10
-151.7551228444401
 20
16.64999999999988
 30
0.0
 11
-154.2551228444401
 21
16.64999999999988
 31
0.0
1001
GENIUS_GENOREF_13
1005
3A0
  0
LINE
  5
39F
330
335
100
AcDbEntity
  8
7A
100
AcDbLine
 10
-151.7551228444401
 20
16.64999999999988
 30
0.0
 11
-151.7551228444401
 21
14.14999999999988
 31
0.0
1001
GENIUS_GENOREF_13
1005
3A0
  0
POINT
  5
3A0
330
335
100
AcDbEntity
  8
0
 60
     1
100
AcDbPoint
 10
0.0
 20
0.0
 30
0.0
1001
GENIUS_GENODEF_13
1002
{
1000
HIER
1070
    10
1002
}
1002
{
1000
MANEDIT
1070
     0
1002
}
1002
{
1000
NOSEL
1070
     0
1002
}
1002
{
1000
BEHIND
1070
     0
1002
}
1002
{
1000
REACTOR
1002
}
1001
GENIUS_GENOBJ-N-CRS_13
1002
{
1000
OWNER
1000
GEN
1002
}
1001
GENIUS_GENOENT_13
1002
{
1000
MYREF
1005
3A0
1002
}
1002
{
1000
GRP
1005
0
1002
}
1001
GENIUS_GENOLIS_13
1002
{
1000
ENT
1005
39F
1005
39E
1005
39D
1005
39C
1002
}
  0
CIRCLE
  5
3A1
330
335
100
AcDbEntity
  8
RAHM3
100
AcDbCircle
 10
-151.7551228444401
 20
16.64999999999988
 30
0.0
 40
2.0
  0
CIRCLE
  5
3A2
330
335
100
AcDbEntity
  8
RAHM3
100
AcDbCircle
 10
-151.7551228444401
 20
16.64999999999952
 30
0.0
 40
1.0
  0
LINE
  5
3A3
330
335
100
AcDbEntity
  8
RAHM3
100
AcDbLine
 10
-147.7659442035316
 20
17.64999999999929
 30
0.0
 11
-147.7659442035316
 21
15.64999999999929
 31
0.0
  0
LINE
  5
3A4
330
335
100
AcDbEntity
  8
RAHM3
100
AcDbLine
 10
-147.7659442035316
 20
15.64999999999929
 30
0.0
 11
-143.7659442035316
 21
14.64999999999928
 31
0.0
  0
LINE
  5
3A5
330
335
100
AcDbEntity
  8
RAHM3
100
AcDbLine
 10
-143.7659442035316
 20
14.64999999999928
 30
0.0
 11
-143.7659442035316
 21
18.64999999999929
 31
0.0
  0
LINE
  5
3A6
330
335
100
AcDbEntity
  8
RAHM3
100
AcDbLine
 10
-143.7659442035316
 20
18.64999999999929
 30
0.0
 11
-147.7659442035316
 21
17.64999999999929
 31
0.0
  0
LINE
  5
3A7
330
335
100
AcDbEntity
  8
7A
100
AcDbLine
 10
-148.6350563849704
 20
16.64999999999929
 30
0.0
 11
-142.8462596443259
 21
16.64999999999929
 31
0.0
1001
GENIUS_GENODEF_13
1002
{
1000
HIER
1070
     0
1002
}
1002
{
1000
MANEDIT
1070
     0
1002
}
1002
{
1000
NOSEL
1070
     0
1002
}
1002
{
1000
BEHIND
1070
     0
1002
}
1002
{
1000
REACTOR
1002
}
1001
GENIUS_GENOBJ-N-CEN_13
1002
{
1000
OWNER
1000
GEN
1002
}
  0
TEXT
  5
3A8
330
335
100
AcDbEntity
  8
RAHM3
100
AcDbText
 10
-141.8454810851357
 20
18.28209750892168
 30
0.0
 40
2.1
  1
単位 ＵＮＩＴ
 41
0.7
100
AcDbText
  0
LINE
  5
3A9
330
335
100
AcDbEntity
  8
RAHM2
100
AcDbLine
 10
-142.5000000000009
 20
21.29999999999927
 30
0.0
 11
-142.5000000000009
 21
12.0
 31
0.0
  0
TEXT
  5
3AA
330
335
100
AcDbEntity
  8
RAHM3
100
AcDbText
 10
-139.6782849929894
 20
13.82826889824218
 30
0.0
 40
4.0
  1
ｍｍ
 41
0.8
100
AcDbText
  0
POLYLINE
  5
3AB
330
335
100
AcDbEntity
  8
RAHM2
100
AcDb2dPolyline
 66
     1
 10
0.0
 20
0.0
 30
0.0
 70
     1
  0
VERTEX
  5
3AC
330
3AB
100
AcDbEntity
  8
RAHM2
100
AcDbVertex
100
AcDb2dVertex
 10
-155.0
 20
-0.000000000001819
 30
0.0
  0
VERTEX
  5
3AD
330
3AB
100
AcDbEntity
  8
RAHM2
100
AcDbVertex
100
AcDb2dVertex
 10
-155.0
 20
40.00000000002091
 30
0.0
  0
VERTEX
  5
3AE
330
3AB
100
AcDbEntity
  8
RAHM2
100
AcDbVertex
100
AcDb2dVertex
 10
0.0
 20
39.99999999999273
 30
0.0
  0
VERTEX
  5
3AF
330
3AB
100
AcDbEntity
  8
RAHM2
100
AcDbVertex
100
AcDb2dVertex
 10
0.0
 20
0.0
 30
0.0
  0
SEQEND
  5
3B0
330
3AB
100
AcDbEntity
  8
RAHM2
  0
ATTDEF
  5
3B1
330
335
100
AcDbEntity
  8
RAHM3
100
AcDbText
 10
-147.2595867131855
 20
31.94728899818607
 30
0.0
 40
4.0
  1

100
AcDbAttributeDefinition
  3
尺度
  2
GEN-TITLE-SCA
 70
     0
  0
ATTDEF
  5
3B2
330
335
100
AcDbEntity
  8
RAHM3
100
AcDbText
 10
-73.09000000000001
 20
29.74
 30
0.0
 40
5.0
  1

100
AcDbAttributeDefinition
  3
名称
  2
ＴＩＴＬＥ
 70
     0
  0
ATTDEF
  5
3B3
330
335
100
AcDbEntity
  8
RAHM3
100
AcDbText
 10
-71.56287815584043
 20
21.80438312711384
 30
0.0
 40
3.0
  1

100
AcDbAttributeDefinition
  3
符号
  2
ｃｏｄｅ
 70
     0
  0
ATTDEF
  5
3B4
330
335
100
AcDbEntity
  8
RAHM3
100
AcDbText
 10
-70.74480649396313
 20
14.80438312710657
 30
0.0
 40
3.0
  1

100
AcDbAttributeDefinition
  3
件名
  2
件名
 70
     0
  0
ATTDEF
  5
3B5
330
335
100
AcDbEntity
  8
RAHM3
100
AcDbText
 10
-73.09000000000001
 20
1.739999999992722
 30
0.0
 40
5.0
  1

100
AcDbAttributeDefinition
  3
図面番号
  2
Ｎｏ．
 70
     0
  0
ATTDEF
  5
3B6
330
335
100
AcDbEntity
  8
RAHM3
100
AcDbText
 10
-100.45
 20
17.40708932112655
 30
0.0
 40
4.0
  1

100
AcDbAttributeDefinition
  3
製図者
  2
ＤＲ
 70
     0
  0
ATTDEF
  5
3B7
330
335
100
AcDbEntity
  8
RAHM3
100
AcDbText
 10
-103.7180853038729
 20
12.76999999999999
 30
0.0
 40
3.0
  1

 41
0.8
100
AcDbAttributeDefinition
  3
日付
  2
ｄａｔｅ
 70
     0
  0
ENDBLK
  5
3B9
330
335
100
AcDbEntity
  8
0
100
AcDbBlockEnd
  0
BLOCK
  5
411
330
3FC
100
AcDbEntity
  8
0
100
AcDbBlockBegin
  2
IGS_A1
 70
     0
 10
0.0
 20
0.0
 30
0.0
  3
IGS_A1
  1

  0
LINE
  5
3FD
330
3FC
100
AcDbEntity
  8
AM_BOR
100
AcDbLine
 10
0.0
 20
0.0
 30
0.0
 11
0.0
 21
15.0
 31
0.0
  0
LINE
  5
3FE
330
3FC
100
AcDbEntity
  8
AM_BOR
100
AcDbLine
 10
0.0
 20
594.0
 30
0.0
 11
15.0
 21
594.0
 31
0.0
  0
LINE
  5
3FF
330
3FC
100
AcDbEntity
  8
AM_BOR
100
AcDbLine
 10
841.0
 20
594.0
 30
0.0
 11
841.0
 21
579.0
 31
0.0
  0
LINE
  5
400
330
3FC
100
AcDbEntity
  8
AM_BOR
100
AcDbLine
 10
841.0
 20
0.0
 30
0.0
 11
826.0
 21
0.0
 31
0.0
  0
LINE
  5
401
330
3FC
100
AcDbEntity
  8
0
100
AcDbLine
 10
25.0
 20
20.0
 30
0.0
 11
25.0
 21
574.0
 31
0.0
  0
LINE
  5
402
330
3FC
100
AcDbEntity
  8
0
100
AcDbLine
 10
821.0
 20
20.0
 30
0.0
 11
25.0
 21
20.0
 31
0.0
  0
LINE
  5
403
330
3FC
100
AcDbEntity
  8
0
100
AcDbLine
 10
821.0
 20
574.0
 30
0.0
 11
821.0
 21
20.0
 31
0.0
  0
LINE
  5
404
330
3FC
100
AcDbEntity
  8
0
100
AcDbLine
 10
25.0
 20
574.0
 30
0.0
 11
821.0
 21
574.0
 31
0.0
  0
LINE
  5
405
330
3FC
100
AcDbEntity
  8
AM_BOR
100
AcDbLine
 10
15.0
 20
0.0
 30
0.0
 11
0.0
 21
0.0
 31
0.0
  0
LINE
  5
406
330
3FC
100
AcDbEntity
  8
AM_BOR
100
AcDbLine
 10
841.0
 20
15.0
 30
0.0
 11
841.0
 21
0.0
 31
0.0
  0
LINE
  5
407
330
3FC
100
AcDbEntity
  8
AM_BOR
100
AcDbLine
 10
826.0
 20
594.0
 30
0.0
 11
841.0
 21
594.0
 31
0.0
  0
LINE
  5
408
330
3FC
100
AcDbEntity
  8
AM_BOR
100
AcDbLine
 10
0.0
 20
579.0
 30
0.0
 11
0.0
 21
594.0
 31
0.0
  0
TEXT
  5
409
330
3FC
100
AcDbEntity
  8
0
 60
     1
100
AcDbText
 10
25.0
 20
20.0
 30
0.0
 40
12.0
  1
!GENTITLE-LL
  7
ACJISTS
100
AcDbText
  0
TEXT
  5
40A
330
3FC
100
AcDbEntity
  8
0
 60
     1
100
AcDbText
 10
841.0
 20
594.0
 30
0.0
 40
12.0
  1
!GENTITLE-MAX
  7
ACJISTS
100
AcDbText
  0
TEXT
  5
40B
330
3FC
100
AcDbEntity
  8
0
 60
     1
100
AcDbText
 10
821.0
 20
574.0
 30
0.0
 40
12.0
  1
!GENTITLE-RU
  7
ACJISTS
100
AcDbText
  0
TEXT
  5
40C
330
3FC
100
AcDbEntity
  8
0
 60
     1
100
AcDbText
 10
821.0
 20
20.0
 30
0.0
 40
12.0
  1
!GENTITLE-INSERT
  7
ACJISTS
100
AcDbText
  0
LINE
  5
40D
330
3FC
100
AcDbEntity
  8
AM_BOR
 62
     1
370
    25
100
AcDbLine
 10
0.0
 20
594.0
 30
0.0
 11
841.0
 21
594.0
 31
0.0
  0
LINE
  5
40E
330
3FC
100
AcDbEntity
  8
AM_BOR
 62
     1
370
    25
100
AcDbLine
 10
841.0
 20
594.0
 30
0.0
 11
841.0
 21
0.0
 31
0.0
  0
LINE
  5
40F
330
3FC
100
AcDbEntity
  8
AM_BOR
 62
     1
370
    25
100
AcDbLine
 10
841.0
 20
0.0
 30
0.0
 11
0.0
 21
0.0
 31
0.0
  0
LINE
  5
410
330
3FC
100
AcDbEntity
  8
AM_BOR
 62
     1
370
    25
100
AcDbLine
 10
0.0
 20
0.0
 30
0.0
 11
0.0
 21
594.0
 31
0.0
  0
ENDBLK
  5
412
330
3FC
100
AcDbEntity
  8
0
100
AcDbBlockEnd
  0
BLOCK
  5
51E
330
50A
100
AcDbEntity
  8
0
100
AcDbBlockBegin
  2
jis_bl_revisionlist1
 70
     2
 10
0.0
 20
0.0
 30
0.0
  3
jis_bl_revisionlist1
  1

  0
LINE
  5
680
330
50A
100
AcDbEntity
  8
0
100
AcDbLine
 10
0.0
 20
-4.999999963957748
 30
0.0
 11
182.8800000000001
 21
-4.999999963957748
 31
0.0
  0
LINE
  5
681
330
50A
100
AcDbEntity
  8
AM_BOR
 62
     1
370
    25
100
AcDbLine
 10
28.88000000000011
 20
-9.999999963957748
 30
0.0
 11
159.8800000000001
 21
-9.999999963957748
 31
0.0
  0
LINE
  5
682
330
50A
100
AcDbEntity
  8
0
100
AcDbLine
 10
0.0000000675292995
 20
-9.999999963957804
 30
0.0
 11
182.8800000675292
 21
-9.999999963957804
 31
0.0
  0
LINE
  5
683
330
50A
100
AcDbEntity
  8
0
100
AcDbLine
 10
8.880000000000109
 20
-9.999999963957804
 30
0.0
 11
8.880000000000109
 21
-4.999999963957748
 31
0.0
  0
LINE
  5
684
330
50A
100
AcDbEntity
  8
0
100
AcDbLine
 10
0.0
 20
-9.999999963957748
 30
0.0
 11
0.0
 21
-10.0
 31
0.0
  0
LINE
  5
685
330
50A
100
AcDbEntity
  8
AM_BOR
 62
     1
370
    25
100
AcDbLine
 10
8.880000000000109
 20
-10.0
 30
0.0
 11
8.880000000000109
 21
-4.999999963957748
 31
0.0
  0
LINE
  5
686
330
50A
100
AcDbEntity
  8
AM_BOR
 62
     1
370
    25
100
AcDbLine
 10
28.88000000000011
 20
-10.0
 30
0.0
 11
28.88000000000011
 21
-9.999999963957748
 31
0.0
  0
LINE
  5
687
330
50A
100
AcDbEntity
  8
0
100
AcDbLine
 10
0.0
 20
-4.999999963957748
 30
0.0
 11
0.0
 21
-9.999999963957748
 31
0.0
  0
LINE
  5
688
330
50A
100
AcDbEntity
  8
AM_BOR
 62
     1
370
    25
100
AcDbLine
 10
28.88000000000011
 20
-9.999999963957748
 30
0.0
 11
28.88000000000011
 21
-4.999999963957748
 31
0.0
  0
LINE
  5
689
330
50A
100
AcDbEntity
  8
AM_BOR
 62
     1
370
    25
100
AcDbLine
 10
159.8800000000001
 20
-10.0
 30
0.0
 11
159.8800000000001
 21
-9.999999963957748
 31
0.0
  0
LINE
  5
68A
330
50A
100
AcDbEntity
  8
0
100
AcDbLine
 10
182.8800000000001
 20
-10.0
 30
0.0
 11
182.8800000000001
 21
-9.999999963957748
 31
0.0
  0
LINE
  5
68B
330
50A
100
AcDbEntity
  8
AM_BOR
 62
     1
370
    25
100
AcDbLine
 10
159.8800000000001
 20
-9.999999963957748
 30
0.0
 11
159.8800000000001
 21
-4.999999963957748
 31
0.0
  0
LINE
  5
68C
330
50A
100
AcDbEntity
  8
0
100
AcDbLine
 10
182.8800000000001
 20
-9.999999963957748
 30
0.0
 11
182.8800000000001
 21
-4.999999963957748
 31
0.0
  0
ATTDEF
  5
68D
330
50A
100
AcDbEntity
  8
AM_BOR
 62
     1
370
    25
100
AcDbText
 10
9.880000000000109
 20
-8.999999999999658
 30
0.0
 40
3.0
  1

  7
ACJISTS
100
AcDbAttributeDefinition
  3
図面名
  2
GEN-REV-BLK{6}
 70
     0
1001
GENIUS_GENTRA_14
1002
{
1070
     3
1000
GENTRAPR,%s,(GENMSG gendwg 93)
1000
図面名
1000
JPN
1070
     0
1070
     0
1002
}
  0
ATTDEF
  5
68E
330
50A
100
AcDbEntity
  8
AM_BOR
 62
     1
370
    25
100
AcDbText
 10
29.88000000000011
 20
-9.000000000001477
 30
0.0
 40
3.0
  1

  7
ACJISTS
100
AcDbAttributeDefinition
  3
履歴 2 行目
  2
GEN-REV-TEXT2{43}
 70
     0
1001
GENIUS_GENTRA_14
1002
{
1070
     3
1000
GENTRAPR,%s,(GENMSG gendwg 92)
1000
履歴 2 行目
1000
JPN
1070
     0
1070
     0
1002
}
  0
ATTDEF
  5
68F
330
50A
100
AcDbEntity
  8
AM_BOR
 62
     1
370
    25
100
AcDbText
 10
0.9326324110411405
 20
-8.999999963957748
 30
0.0
 40
3.0
  1

  7
ACJISTS
100
AcDbAttributeDefinition
  3
番号
  2
GEN-REV-NR{2}
 70
     0
1001
GENIUS_GENTRA_14
1002
{
1070
     3
1000
GENTRAPR,%s,(GENMSG gendwg 98)
1000
番号
1000
JPN
1070
     0
1070
     0
1002
}
  0
ATTDEF
  5
690
330
50A
100
AcDbEntity
  8
AM_BOR
 62
     1
370
    25
100
AcDbText
 10
9.880000000000109
 20
-8.999999963957407
 30
0.0
 40
3.0
  1

  7
ACJISTS
100
AcDbAttributeDefinition
  3
日付
  2
GEN-REV-DAT{6}
 70
     0
1001
GENIUS_GENTRA_14
1002
{
1070
     3
1000
GENTRAPR,%s,(GENMSG gendwg 95)
1000
日付
1000
JPN
1070
     0
1070
     0
1002
}
  0
ATTDEF
  5
691
330
50A
100
AcDbEntity
  8
AM_BOR
 62
     1
370
    25
100
AcDbText
 10
160.8800000000001
 20
-8.713127708901765
 30
0.0
 40
3.0
  1

  7
ACJISTS
100
AcDbAttributeDefinition
  3
名前
  2
GEN-REV-NAME{7}
 70
     0
1001
GENIUS_GENTRA_14
1002
{
1070
     3
1000
GENTRAPR,%s,(GENMSG gendwg 97)
1000
名前
1000
JPN
1070
     0
1070
     0
1002
}
  0
ENDBLK
  5
51F
330
50A
100
AcDbEntity
  8
0
100
AcDbBlockEnd
  0
BLOCK
  5
52C
330
520
100
AcDbEntity
  8
0
100
AcDbBlockBegin
  2
jis_bl_revisionlist0
 70
     0
 10
0.0
 20
0.0
 30
0.0
  3
jis_bl_revisionlist0
  1

  0
LINE
  5
521
330
520
100
AcDbEntity
  8
0
100
AcDbLine
 10
182.88
 20
-5.347300637836838
 30
0.0
 11
0.0
 21
-5.347300637836809
 31
0.0
  0
LINE
  5
522
330
520
100
AcDbEntity
  8
0
100
AcDbLine
 10
0.0
 20
0.0
 30
0.0
 11
182.88
 21
0.0
 31
0.0
  0
TEXT
  5
523
330
520
100
AcDbEntity
  8
AM_BOR
 62
     1
370
    25
100
AcDbText
 10
9.879999999999995
 20
-4.105772405495713
 30
0.0
 40
3.0
  1
日付
  7
ACJISTS
100
AcDbText
1001
GENIUS_GENTRA_14
1002
{
1070
     1
1000
GENTRATX{6},%s,(GENMSG gendwg 95)
1000
日付
1000
JPN
1070
     0
1040
1.0
1070
     0
1002
}
  0
TEXT
  5
524
330
520
100
AcDbEntity
  8
AM_BOR
 62
     1
370
    25
100
AcDbText
 10
1.0
 20
-4.105772405495713
 30
0.0
 40
3.0
  1
番号
 41
0.9374999999999998
  7
ACJISTS
100
AcDbText
1001
GENIUS_GENTRA_14
1002
{
1070
     1
1000
GENTRATX{2},%s,(GENMSG gendwg 98)
1000
番号
1000
JPN
1070
     0
1040
1.0
1070
     0
1002
}
  0
TEXT
  5
525
330
520
100
AcDbEntity
  8
AM_BOR
 62
     1
370
    25
100
AcDbText
 10
29.87999999999999
 20
-4.10577240549685
 30
0.0
 40
3.0
  1
履歴
  7
ACJISTS
100
AcDbText
1001
GENIUS_GENTRA_14
1002
{
1070
     1
1000
GENTRATX{43},%s,(GENMSG gendwg 96)
1000
履歴
1000
JPN
1070
     0
1040
1.0
1070
     0
1002
}
  0
LINE
  5
526
330
520
100
AcDbEntity
  8
0
100
AcDbLine
 10
0.0
 20
-5.347300637836809
 30
0.0
 11
0.0
 21
0.0
 31
0.0
  0
LINE
  5
527
330
520
100
AcDbEntity
  8
AM_BOR
 62
     1
370
    25
100
AcDbLine
 10
8.879999999999995
 20
-5.347300637836809
 30
0.0
 11
8.879999999999995
 21
0.0
 31
0.0
  0
LINE
  5
528
330
520
100
AcDbEntity
  8
AM_BOR
 62
     1
370
    25
100
AcDbLine
 10
28.88
 20
0.0
 30
0.0
 11
28.88
 21
-5.347300637836809
 31
0.0
  0
TEXT
  5
529
330
520
100
AcDbEntity
  8
AM_BOR
 62
     1
370
    25
100
AcDbText
 10
160.8542175266192
 20
-4.105772405495201
 30
0.0
 40
3.0
  1
名前
  7
ACJISTS
100
AcDbText
1001
GENIUS_GENTRA_14
1002
{
1070
     1
1000
GENTRATX{7},%s,(GENMSG gendwg 97)
1000
名前
1000
JPN
1070
     0
1040
1.0
1070
     0
1002
}
  0
LINE
  5
52A
330
520
100
AcDbEntity
  8
AM_BOR
 62
     1
370
    25
100
AcDbLine
 10
159.88
 20
0.0
 30
0.0
 11
159.88
 21
-5.347300637836838
 31
0.0
  0
LINE
  5
52B
330
520
100
AcDbEntity
  8
0
100
AcDbLine
 10
182.88
 20
0.0
 30
0.0
 11
182.88
 21
-5.347300637836838
 31
0.0
  0
ENDBLK
  5
52D
330
520
100
AcDbEntity
  8
0
100
AcDbBlockEnd
  0
BLOCK
  5
538
330
52E
100
AcDbEntity
  8
0
100
AcDbBlockBegin
  2
jis_bl_revisionlist
 70
     0
 10
0.0
 20
0.0
 30
0.0
  3
jis_bl_revisionlist
  1

  0
INSERT
  5
52F
330
52E
100
AcDbEntity
  8
0
100
AcDbBlockReference
 66
     1
  2
jis_bl_revisionlist1
 10
0.0
 20
15.34730060179461
 30
0.0
  0
ATTRIB
  5
530
330
52F
100
AcDbEntity
  8
AM_BOR
 62
     1
370
    25
100
AcDbText
 10
9.879999999999995
 20
6.347300601794955
 30
0.0
 40
3.0
  1

  7
ACJISTS
100
AcDbAttribute
  2
GEN-REV-BLK{6}
 70
     0
1001
GENIUS_GENBLLY_14
1000
BOR2
  0
ATTRIB
  5
531
330
52F
100
AcDbEntity
  8
AM_BOR
 62
     1
370
    25
100
AcDbText
 10
29.87999999999999
 20
6.347300601793136
 30
0.0
 40
3.0
  1

  7
ACJISTS
100
AcDbAttribute
  2
GEN-REV-TEXT2{43}
 70
     0
1001
GENIUS_GENBLLY_14
1000
BOR2
  0
ATTRIB
  5
532
330
52F
100
AcDbEntity
  8
AM_BOR
 62
     1
370
    25
100
AcDbText
 10
0.9326324110412542
 20
11.34730060179461
 30
0.0
 40
3.0
  1

  7
ACJISTS
100
AcDbAttribute
  2
GEN-REV-NR{2}
 70
     0
1001
GENIUS_GENBLLY_14
1000
BOR2
  0
ATTRIB
  5
533
330
52F
100
AcDbEntity
  8
AM_BOR
 62
     1
370
    25
100
AcDbText
 10
9.879999999999995
 20
11.34730060179495
 30
0.0
 40
3.0
  1

  7
ACJISTS
100
AcDbAttribute
  2
GEN-REV-DAT{6}
 70
     0
1001
GENIUS_GENBLLY_14
1000
BOR2
  0
ATTRIB
  5
534
330
52F
100
AcDbEntity
  8
AM_BOR
 62
     1
370
    25
100
AcDbText
 10
29.87999999999999
 20
11.34730060179313
 30
0.0
 40
3.0
  1

  7
ACJISTS
100
AcDbAttribute
  2
GEN-REV-TEXT1{43}
 70
     0
1001
GENIUS_GENBLLY_14
1000
BOR2
  0
ATTRIB
  5
535
330
52F
100
AcDbEntity
  8
AM_BOR
 62
     1
370
    25
100
AcDbText
 10
160.88
 20
11.63417285685059
 30
0.0
 40
3.0
  1

  7
ACJISTS
100
AcDbAttribute
  2
GEN-REV-NAME{7}
 70
     0
1001
GENIUS_GENBLLY_14
1000
BOR2
  0
SEQEND
  5
536
330
52F
100
AcDbEntity
  8
0
  0
INSERT
  5
537
330
52E
100
AcDbEntity
  8
0
100
AcDbBlockReference
  2
jis_bl_revisionlist0
 10
0.0
 20
5.347300637836809
 30
0.0
  0
ENDBLK
  5
539
330
52E
100
AcDbEntity
  8
0
100
AcDbBlockEnd
  0
BLOCK
  5
5E2
330
5D6
100
AcDbEntity
  8
0
100
AcDbBlockBegin
  2
jis_br_revisionlist0
 70
     0
 10
0.0
 20
0.0
 30
0.0
  3
jis_br_revisionlist0
  1

  0
TEXT
  5
5D7
330
5D6
100
AcDbEntity
  8
AM_BOR
 62
     1
370
    25
100
AcDbText
 10
-22.02578247338079
 20
-4.105772405495201
 30
0.0
 40
3.0
  1
名前
  7
ACJISTS
100
AcDbText
1001
GENIUS_GENBLLY_14
1000
BOR2
1001
GENIUS_GENTRA_14
1002
{
1070
     1
1000
GENTRATX{7},%s,(GENMSG gendwg 97)
1000
名前
1000
JPN
1070
     0
1040
1.0
1070
     0
1002
}
  0
TEXT
  5
5D8
330
5D6
100
AcDbEntity
  8
AM_BOR
 62
     1
370
    25
100
AcDbText
 10
-153.0
 20
-4.10577240549685
 30
0.0
 40
3.0
  1
履歴
  7
ACJISTS
100
AcDbText
1001
GENIUS_GENBLLY_14
1000
BOR2
1001
GENIUS_GENTRA_14
1002
{
1070
     1
1000
GENTRATX{43},%s,(GENMSG gendwg 96)
1000
履歴
1000
JPN
1070
     0
1040
1.0
1070
     0
1002
}
  0
LINE
  5
5D9
330
5D6
100
AcDbEntity
  8
0
100
AcDbLine
 10
0.0
 20
-5.347300637836838
 30
0.0
 11
-182.88
 21
-5.347300637836809
 31
0.0
  0
LINE
  5
5DA
330
5D6
100
AcDbEntity
  8
0
100
AcDbLine
 10
-182.88
 20
0.0
 30
0.0
 11
0.0
 21
0.0
 31
0.0
  0
TEXT
  5
5DB
330
5D6
100
AcDbEntity
  8
AM_BOR
 62
     1
370
    25
100
AcDbText
 10
-173.0
 20
-4.105772405495713
 30
0.0
 40
3.0
  1
日付
  7
ACJISTS
100
AcDbText
1001
GENIUS_GENBLLY_14
1000
BOR2
1001
GENIUS_GENTRA_14
1002
{
1070
     1
1000
GENTRATX{6},%s,(GENMSG gendwg 95)
1000
日付
1000
JPN
1070
     0
1040
1.0
1070
     0
1002
}
  0
TEXT
  5
5DC
330
5D6
100
AcDbEntity
  8
AM_BOR
 62
     1
370
    25
100
AcDbText
 10
-181.88
 20
-4.105772405495713
 30
0.0
 40
3.0
  1
番号
 41
0.9374999999999998
  7
ACJISTS
100
AcDbText
1001
GENIUS_GENBLLY_14
1000
BOR2
1001
GENIUS_GENTRA_14
1002
{
1070
     1
1000
GENTRATX{2},%s,(GENMSG gendwg 98)
1000
番号
1000
JPN
1070
     0
1040
1.0
1070
     0
1002
}
  0
LINE
  5
5DD
330
5D6
100
AcDbEntity
  8
0
100
AcDbLine
 10
-182.88
 20
-5.347300637836809
 30
0.0
 11
-182.88
 21
0.0
 31
0.0
  0
LINE
  5
5DE
330
5D6
100
AcDbEntity
  8
AM_BOR
 62
     1
370
    25
100
AcDbLine
 10
-174.0
 20
-5.347300637836809
 30
0.0
 11
-174.0
 21
0.0
 31
0.0
1001
GENIUS_GENBLLY_14
1000
BOR2
  0
LINE
  5
5DF
330
5D6
100
AcDbEntity
  8
AM_BOR
 62
     1
370
    25
100
AcDbLine
 10
-154.0
 20
0.0
 30
0.0
 11
-154.0
 21
-5.347300637836809
 31
0.0
1001
GENIUS_GENBLLY_14
1000
BOR2
  0
LINE
  5
5E0
330
5D6
100
AcDbEntity
  8
AM_BOR
 62
     1
370
    25
100
AcDbLine
 10
-23.0
 20
0.0
 30
0.0
 11
-23.0
 21
-5.347300637836838
 31
0.0
1001
GENIUS_GENBLLY_14
1000
BOR2
  0
LINE
  5
5E1
330
5D6
100
AcDbEntity
  8
0
100
AcDbLine
 10
0.0
 20
0.0
 30
0.0
 11
0.0
 21
-5.347300637836838
 31
0.0
  0
ENDBLK
  5
5E3
330
5D6
100
AcDbEntity
  8
0
100
AcDbBlockEnd
  0
BLOCK
  5
5F8
330
5E4
100
AcDbEntity
  8
0
100
AcDbBlockBegin
  2
jis_br_revisionlist1
 70
     2
 10
0.0
 20
0.0
 30
0.0
  3
jis_br_revisionlist1
  1

  0
LINE
  5
5E5
330
5E4
100
AcDbEntity
  8
0
100
AcDbLine
 10
0.0
 20
-5.0
 30
0.0
 11
0.0
 21
0.0
 31
0.0
  0
LINE
  5
5E6
330
5E4
100
AcDbEntity
  8
AM_BOR
 62
     1
370
    25
100
AcDbLine
 10
-23.0
 20
-5.0
 30
0.0
 11
-23.0
 21
0.0
 31
0.0
1001
GENIUS_GENBLLY_14
1000
BOR2
  0
ATTDEF
  5
5E7
330
5E4
100
AcDbEntity
  8
AM_BOR
 62
     1
370
    25
100
AcDbText
 10
-22.0
 20
-3.713127744944017
 30
0.0
 40
3.0
  1

  7
ACJISTS
100
AcDbAttributeDefinition
  3
名前
  2
GEN-REV-NAME{7}
 70
     0
1001
GENIUS_GENBLLY_14
1000
BOR2
1001
GENIUS_GENTRA_14
1002
{
1070
     3
1000
GENTRAPR,%s,(GENMSG gendwg 97)
1000
名前
1000
JPN
1070
     0
1070
     0
1002
}
  0
LINE
  5
5E8
330
5E4
100
AcDbEntity
  8
0
100
AcDbLine
 10
0.0
 20
-10.0
 30
0.0
 11
0.0
 21
-5.0
 31
0.0
  0
LINE
  5
5E9
330
5E4
100
AcDbEntity
  8
AM_BOR
 62
     1
370
    25
100
AcDbLine
 10
-23.0
 20
-10.0
 30
0.0
 11
-23.0
 21
-5.0
 31
0.0
1001
GENIUS_GENBLLY_14
1000
BOR2
  0
LINE
  5
5EA
330
5E4
100
AcDbEntity
  8
AM_BOR
 62
     1
370
    25
100
AcDbLine
 10
-154.0
 20
-5.0
 30
0.0
 11
-154.0
 21
0.0
 31
0.0
1001
GENIUS_GENBLLY_14
1000
BOR2
  0
LINE
  5
5EB
330
5E4
100
AcDbEntity
  8
AM_BOR
 62
     1
370
    25
100
AcDbLine
 10
-154.0
 20
-10.0
 30
0.0
 11
-154.0
 21
-5.0
 31
0.0
1001
GENIUS_GENBLLY_14
1000
BOR2
  0
ATTDEF
  5
5EC
330
5E4
100
AcDbEntity
  8
AM_BOR
 62
     1
370
    25
100
AcDbText
 10
-153.0
 20
-4.000000000001477
 30
0.0
 40
3.0
  1

  7
ACJISTS
100
AcDbAttributeDefinition
  3
履歴 1 行目
  2
GEN-REV-TEXT1{43}
 70
     0
1001
GENIUS_GENBLLY_14
1000
BOR2
1001
GENIUS_GENTRA_14
1002
{
1070
     3
1000
GENTRAPR,%s,(GENMSG gendwg 94)
1000
履歴 1 行目
1000
JPN
1070
     0
1070
     0
1002
}
  0
ATTDEF
  5
5ED
330
5E4
100
AcDbEntity
  8
AM_BOR
 62
     1
370
    25
100
AcDbText
 10
-153.0
 20
-9.000000000001477
 30
0.0
 40
3.0
  1

  7
ACJISTS
100
AcDbAttributeDefinition
  3
履歴 2 行目
  2
GEN-REV-TEXT2{43}
 70
     0
1001
GENIUS_GENBLLY_14
1000
BOR2
1001
GENIUS_GENTRA_14
1002
{
1070
     3
1000
GENTRAPR,%s,(GENMSG gendwg 92)
1000
履歴 2 行目
1000
JPN
1070
     0
1070
     0
1002
}
  0
LINE
  5
5EE
330
5E4
100
AcDbEntity
  8
0
100
AcDbLine
 10
-182.88
 20
0.0
 30
0.0
 11
-182.88
 21
-5.0
 31
0.0
  0
LINE
  5
5EF
330
5E4
100
AcDbEntity
  8
AM_BOR
 62
     1
370
    25
100
AcDbLine
 10
-174.0
 20
-10.0
 30
0.0
 11
-174.0
 21
0.0
 31
0.0
1001
GENIUS_GENBLLY_14
1000
BOR2
  0
LINE
  5
5F0
330
5E4
100
AcDbEntity
  8
0
100
AcDbLine
 10
-182.88
 20
-5.0
 30
0.0
 11
-182.88
 21
-10.0
 31
0.0
  0
LINE
  5
5F1
330
5E4
100
AcDbEntity
  8
0
100
AcDbLine
 10
-174.0
 20
-9.999999963957804
 30
0.0
 11
-174.0
 21
0.0
 31
0.0
  0
ATTDEF
  5
5F2
330
5E4
100
AcDbEntity
  8
AM_BOR
 62
     1
370
    25
100
AcDbText
 10
-173.0
 20
-8.999999999999658
 30
0.0
 40
3.0
  1

  7
ACJISTS
100
AcDbAttributeDefinition
  3
図面名
  2
GEN-REV-BLK{6}
 70
     0
1001
GENIUS_GENBLLY_14
1000
BOR2
1001
GENIUS_GENTRA_14
1002
{
1070
     3
1000
GENTRAPR,%s,(GENMSG gendwg 93)
1000
図面名
1000
JPN
1070
     0
1070
     0
1002
}
  0
ATTDEF
  5
5F3
330
5E4
100
AcDbEntity
  8
AM_BOR
 62
     1
370
    25
100
AcDbText
 10
-173.0
 20
-3.999999999999658
 30
0.0
 40
3.0
  1

  7
ACJISTS
100
AcDbAttributeDefinition
  3
日付
  2
GEN-REV-DAT{6}
 70
     0
1001
GENIUS_GENBLLY_14
1000
BOR2
1001
GENIUS_GENTRA_14
1002
{
1070
     3
1000
GENTRAPR,%s,(GENMSG gendwg 95)
1000
日付
1000
JPN
1070
     0
1070
     0
1002
}
  0
ATTDEF
  5
5F4
330
5E4
100
AcDbEntity
  8
AM_BOR
 62
     1
370
    25
100
AcDbText
 10
-181.9473675889587
 20
-4.0
 30
0.0
 40
3.0
  1

  7
ACJISTS
100
AcDbAttributeDefinition
  3
番号
  2
GEN-REV-NR{2}
 70
     0
1001
GENIUS_GENBLLY_14
1000
BOR2
1001
GENIUS_GENTRA_14
1002
{
1070
     3
1000
GENTRAPR,%s,(GENMSG gendwg 98)
1000
番号
1000
JPN
1070
     0
1070
     0
1002
}
  0
LINE
  5
5F5
330
5E4
100
AcDbEntity
  8
0
100
AcDbLine
 10
-182.8799999324707
 20
-9.999999963957804
 30
0.0
 11
0.0000000675292426
 21
-9.999999963957804
 31
0.0
  0
LINE
  5
5F6
330
5E4
100
AcDbEntity
  8
AM_BOR
 62
     1
370
    25
100
AcDbLine
 10
-154.0
 20
-5.0
 30
0.0
 11
-23.0
 21
-5.0
 31
0.0
1001
GENIUS_GENBLLY_14
1000
BOR2
  0
LINE
  5
5F7
330
5E4
100
AcDbEntity
  8
0
100
AcDbLine
 10
-182.88
 20
0.0
 30
0.0
 11
0.0
 21
0.0
 31
0.0
  0
ENDBLK
  5
5F9
330
5E4
100
AcDbEntity
  8
0
100
AcDbBlockEnd
  0
BLOCK
  5
604
330
5FA
100
AcDbEntity
  8
0
100
AcDbBlockBegin
  2
jis_br_revisionlist
 70
     0
 10
0.0
 20
0.0
 30
0.0
  3
jis_br_revisionlist
  1

  0
INSERT
  5
5FB
330
5FA
100
AcDbEntity
  8
0
100
AcDbBlockReference
 66
     1
  2
jis_br_revisionlist1
 10
0.0
 20
15.34730060179464
 30
0.0
  0
ATTRIB
  5
5FC
330
5FB
100
AcDbEntity
  8
AM_BOR
 62
     1
370
    25
100
AcDbText
 10
-22.0
 20
11.63417285685062
 30
0.0
 40
3.0
  1

  7
ACJISTS
100
AcDbAttribute
  2
GEN-REV-NAME{7}
 70
     0
1001
GENIUS_GENBLLY_14
1000
BOR2
  0
ATTRIB
  5
5FD
330
5FB
100
AcDbEntity
  8
AM_BOR
 62
     1
370
    25
100
AcDbText
 10
-153.0
 20
11.34730060179316
 30
0.0
 40
3.0
  1

  7
ACJISTS
100
AcDbAttribute
  2
GEN-REV-TEXT1{43}
 70
     0
1001
GENIUS_GENBLLY_14
1000
BOR2
  0
ATTRIB
  5
5FE
330
5FB
100
AcDbEntity
  8
AM_BOR
 62
     1
370
    25
100
AcDbText
 10
-153.0
 20
6.347300601793168
 30
0.0
 40
3.0
  1

  7
ACJISTS
100
AcDbAttribute
  2
GEN-REV-TEXT2{43}
 70
     0
1001
GENIUS_GENBLLY_14
1000
BOR2
  0
ATTRIB
  5
5FF
330
5FB
100
AcDbEntity
  8
AM_BOR
 62
     1
370
    25
100
AcDbText
 10
-173.0
 20
6.347300601794987
 30
0.0
 40
3.0
  1

  7
ACJISTS
100
AcDbAttribute
  2
GEN-REV-BLK{6}
 70
     0
1001
GENIUS_GENBLLY_14
1000
BOR2
  0
ATTRIB
  5
600
330
5FB
100
AcDbEntity
  8
AM_BOR
 62
     1
370
    25
100
AcDbText
 10
-173.0
 20
11.34730060179498
 30
0.0
 40
3.0
  1

  7
ACJISTS
100
AcDbAttribute
  2
GEN-REV-DAT{6}
 70
     0
1001
GENIUS_GENBLLY_14
1000
BOR2
  0
ATTRIB
  5
601
330
5FB
100
AcDbEntity
  8
AM_BOR
 62
     1
370
    25
100
AcDbText
 10
-181.9473675889587
 20
11.34730060179464
 30
0.0
 40
3.0
  1

  7
ACJISTS
100
AcDbAttribute
  2
GEN-REV-NR{2}
 70
     0
1001
GENIUS_GENBLLY_14
1000
BOR2
  0
SEQEND
  5
602
330
5FB
100
AcDbEntity
  8
0
  0
INSERT
  5
603
330
5FA
100
AcDbEntity
  8
0
100
AcDbBlockReference
  2
jis_br_revisionlist0
 10
0.0
 20
5.347300637836838
 30
0.0
  0
ENDBLK
  5
605
330
5FA
100
AcDbEntity
  8
0
100
AcDbBlockEnd
  0
BLOCK
  5
6BE
330
6A8
100
AcDbEntity
  8
0
100
AcDbBlockBegin
  2
IGS_A3
 70
     0
 10
0.0
 20
0.0
 30
0.0
  3
IGS_A3
  1

  0
LINE
  5
6A9
330
6A8
100
AcDbEntity
  8
AM_BOR
100
AcDbLine
 10
0.0
 20
0.0
 30
0.0
 11
0.0
 21
10.0
 31
0.0
  0
LINE
  5
6AA
330
6A8
100
AcDbEntity
  8
AM_BOR
100
AcDbLine
 10
0.0
 20
297.0
 30
0.0
 11
10.0
 21
297.0
 31
0.0
  0
LINE
  5
6AB
330
6A8
100
AcDbEntity
  8
AM_BOR
100
AcDbLine
 10
420.0
 20
297.0
 30
0.0
 11
420.0
 21
287.0
 31
0.0
  0
LINE
  5
6AC
330
6A8
100
AcDbEntity
  8
AM_BOR
100
AcDbLine
 10
420.0
 20
0.0
 30
0.0
 11
410.0
 21
0.0
 31
0.0
  0
LINE
  5
6AD
330
6A8
100
AcDbEntity
  8
0
100
AcDbLine
 10
25.0
 20
10.0
 30
0.0
 11
25.0
 21
287.0
 31
0.0
  0
LINE
  5
6AE
330
6A8
100
AcDbEntity
  8
0
100
AcDbLine
 10
410.0
 20
10.0
 30
0.0
 11
25.0
 21
10.0
 31
0.0
  0
LINE
  5
6AF
330
6A8
100
AcDbEntity
  8
0
100
AcDbLine
 10
410.0
 20
287.0
 30
0.0
 11
410.0
 21
10.0
 31
0.0
  0
LINE
  5
6B0
330
6A8
100
AcDbEntity
  8
0
100
AcDbLine
 10
25.0
 20
287.0
 30
0.0
 11
410.0
 21
287.0
 31
0.0
  0
LINE
  5
6B1
330
6A8
100
AcDbEntity
  8
AM_BOR
100
AcDbLine
 10
0.0
 20
287.0
 30
0.0
 11
0.0
 21
297.0
 31
0.0
  0
LINE
  5
6B2
330
6A8
100
AcDbEntity
  8
AM_BOR
100
AcDbLine
 10
10.0
 20
0.0
 30
0.0
 11
0.0
 21
0.0
 31
0.0
  0
LINE
  5
6B3
330
6A8
100
AcDbEntity
  8
AM_BOR
100
AcDbLine
 10
420.0
 20
10.0
 30
0.0
 11
420.0
 21
0.0
 31
0.0
  0
LINE
  5
6B4
330
6A8
100
AcDbEntity
  8
AM_BOR
100
AcDbLine
 10
410.0
 20
297.0
 30
0.0
 11
420.0
 21
297.0
 31
0.0
  0
TEXT
  5
6B5
330
6A8
100
AcDbEntity
  8
0
 60
     1
100
AcDbText
 10
410.0
 20
287.0
 30
0.0
 40
3.5
  1
!GENTITLE-RU
  7
ACJISTS
100
AcDbText
  0
TEXT
  5
6B6
330
6A8
100
AcDbEntity
  8
0
 60
     1
100
AcDbText
 10
420.0
 20
297.0
 30
0.0
 40
3.5
  1
!GENTITLE-MAX
  7
ACJISTS
100
AcDbText
  0
TEXT
  5
6B7
330
6A8
100
AcDbEntity
  8
0
 60
     1
100
AcDbText
 10
410.0
 20
10.0
 30
0.0
 40
3.5
  1
!GENTITLE-INSERT
  7
ACJISTS
100
AcDbText
  0
TEXT
  5
6B8
330
6A8
100
AcDbEntity
  8
0
 60
     1
100
AcDbText
 10
25.0
 20
10.0
 30
0.0
 40
3.5
  1
!GENTITLE-LL
  7
ACJISTS
100
AcDbText
  0
LINE
  5
6B9
330
6A8
100
AcDbEntity
  8
AM_BOR
 62
     1
370
    25
100
AcDbLine
 10
0.0
 20
297.0
 30
0.0
 11
420.0
 21
297.0
 31
0.0
  0
LINE
  5
6BA
330
6A8
100
AcDbEntity
  8
AM_BOR
 62
     1
370
    25
100
AcDbLine
 10
420.0
 20
297.0
 30
0.0
 11
420.0
 21
0.0
 31
0.0
  0
LINE
  5
6BB
330
6A8
100
AcDbEntity
  8
AM_BOR
 62
     1
370
    25
100
AcDbLine
 10
420.0
 20
0.0
 30
0.0
 11
0.0
 21
0.0
 31
0.0
  0
LINE
  5
6BC
330
6A8
100
AcDbEntity
  8
AM_BOR
 62
     1
370
    25
100
AcDbLine
 10
0.0
 20
0.0
 30
0.0
 11
0.0
 21
297.0
 31
0.0
  0
TEXT
  5
6BD
330
6A8
100
AcDbEntity
  8
DEFPOINTS
100
AcDbText
 10
19.5941472374451
 20
2.504073349097552
 30
0.0
 40
5.0
  1
A3
100
AcDbText
  0
ENDBLK
  5
6BF
330
6A8
100
AcDbEntity
  8
0
100
AcDbBlockEnd
  0
BLOCK
  5
9EE
330
9ED
100
AcDbEntity
  8
1
100
AcDbBlockBegin
  2
MAKR0
 70
     0
 10
506.3141274830999
 20
1202.653390307
 30
0.0
  3
MAKR0
  1

  0
CIRCLE
  5
9EF
330
9ED
100
AcDbEntity
  8
1
  6
ByBlock
 62
     2
100
AcDbCircle
 10
506.3141274830999
 20
1202.653390307
 30
0.0
 40
17.5
  0
TEXT
  5
9F0
330
9ED
100
AcDbEntity
  8
1
  6
Continuous
 62
     7
100
AcDbText
 10
498.8141269999998
 20
1192.65339
 30
0.0
 40
20.0
  1
１
 41
1.406250000000005
  7
MDRAFSTD
 72
     5
 11
513.814127
 21
1192.65339
 31
0.0
100
AcDbText
  0
ENDBLK
  5
9F1
330
9ED
100
AcDbEntity
  8
1
100
AcDbBlockEnd
  0
BLOCK
  5
A69
330
A68
100
AcDbEntity
  8
1
100
AcDbBlockBegin
  2
BALN0
 70
     0
 10
296.8417074955
 20
614.4157388258999
 30
0.0
  3
BALN0
  1

  0
LINE
  5
A6A
330
A68
100
AcDbEntity
  8
1
  6
ByBlock
 62
     2
100
AcDbLine
 10
303.6184139793
 20
621.7693943271999
 30
0.0
 11
296.8417074955
 21
614.4157388258999
 31
0.0
  0
LINE
  5
A6B
330
A68
100
AcDbEntity
  8
1
  6
ByBlock
 62
     2
100
AcDbLine
 10
296.8417074955
 20
614.4157388258999
 30
0.0
 11
306.3873352151
 21
617.3958380588
 31
0.0
  0
LINE
  5
A6C
330
A68
100
AcDbEntity
  8
1
  6
ByBlock
 62
     2
100
AcDbLine
 10
296.8417074955
 20
614.4157388258999
 30
0.0
 11
456.7733427732
 21
715.6692894896
 31
0.0
  0
CIRCLE
  5
A6D
330
A68
100
AcDbEntity
  8
1
  6
ByBlock
 62
     2
100
AcDbCircle
 10
477.8959975351
 20
729.0421521527999
 30
0.0
 40
25.0
  0
TEXT
  5
A6E
330
A68
100
AcDbEntity
  8
1
  6
Continuous
 62
     7
100
AcDbText
 10
467.895998
 20
716.5421519999999
 30
0.0
 40
25.0
  1
１
 41
1.5
  7
MDRAFSTD
 72
     5
 11
487.895998
 21
716.5421519999999
 31
0.0
100
AcDbText
  0
ENDBLK
  5
A6F
330
A68
100
AcDbEntity
  8
1
100
AcDbBlockEnd
  0
BLOCK
  5
DC5
330
DBA
100
AcDbEntity
  8
0
100
AcDbBlockBegin
  2
*D21
 70
     1
 10
0.0
 20
0.0
 30
0.0
  3
*D21
  1

  0
LINE
  5
14B0
330
DBA
100
AcDbEntity
  8
1
  6
Continuous
 62
     3
100
AcDbLine
 10
4050.920554882789
 20
1113.541318938881
 30
0.0
 11
3990.578106035932
 21
1218.057506194765
 31
0.0
  0
LINE
  5
14B1
330
DBA
100
AcDbEntity
  8
1
  6
Continuous
 62
     3
100
AcDbLine
 10
4210.920554882789
 20
1113.541318938881
 30
0.0
 11
4150.578106035931
 21
1218.057506194765
 31
0.0
  0
LINE
  5
14B2
330
DBA
100
AcDbEntity
  8
1
  6
Continuous
 62
     3
100
AcDbLine
 10
4005.964857381879
 20
1213.057506194765
 30
0.0
 11
4140.964857381879
 21
1213.057506194765
 31
0.0
  0
INSERT
  5
14B3
330
DBA
100
AcDbEntity
  8
1
  6
Continuous
 62
     3
100
AcDbBlockReference
  2
_Open30
 10
3993.46485738188
 20
1213.057506194765
 30
0.0
 41
12.5
 42
12.5
 43
12.5
 50
180.0
  0
INSERT
  5
14B4
330
DBA
100
AcDbEntity
  8
1
  6
Continuous
 62
     3
100
AcDbBlockReference
  2
_Open30
 10
4153.464857381879
 20
1213.057506194765
 30
0.0
 41
12.5
 42
12.5
 43
12.5
  0
MTEXT
  5
14B5
330
DBA
100
AcDbEntity
  8
1
  6
Continuous
 62
     2
100
AcDbMText
 10
4091.243089860561
 20
1231.807506194765
 30
0.0
 40
22.5
 41
0.0
 71
     5
 72
     1
  1
160
 73
     1
 44
1.0
  0
POINT
  5
14B6
330
DBA
100
AcDbEntity
  8
DEFPOINTS
  6
Continuous
 62
     0
100
AcDbPoint
 10
4053.807306228737
 20
1108.541318938881
 30
0.0
  0
POINT
  5
14B7
330
DBA
100
AcDbEntity
  8
DEFPOINTS
  6
Continuous
 62
     0
100
AcDbPoint
 10
4213.807306228737
 20
1108.541318938881
 30
0.0
  0
POINT
  5
14B8
330
DBA
100
AcDbEntity
  8
DEFPOINTS
  6
Continuous
 62
     0
100
AcDbPoint
 10
4153.464857381879
 20
1213.057506194765
 30
0.0
  0
ENDBLK
  5
DC6
330
DBA
100
AcDbEntity
  8
0
100
AcDbBlockEnd
  0
BLOCK
  5
DD2
330
DC7
100
AcDbEntity
  8
0
100
AcDbBlockBegin
  2
*D22
 70
     1
 10
0.0
 20
0.0
 30
0.0
  3
*D22
  1

  0
LINE
  5
1457
330
DC7
100
AcDbEntity
  8
1
  6
Continuous
 62
     3
100
AcDbLine
 10
4352.661373461438
 20
1881.541318938881
 30
0.0
 11
4352.661373461438
 21
1926.509282739395
 31
0.0
  0
LINE
  5
1458
330
DC7
100
AcDbEntity
  8
1
  6
Continuous
 62
     3
100
AcDbLine
 10
4452.661373461438
 20
1881.541318938881
 30
0.0
 11
4452.661373461438
 21
1926.509282739395
 31
0.0
  0
LINE
  5
1459
330
DC7
100
AcDbEntity
  8
1
  6
Continuous
 62
     3
100
AcDbLine
 10
4365.161373461438
 20
1921.509282739395
 30
0.0
 11
4440.161373461438
 21
1921.509282739395
 31
0.0
  0
INSERT
  5
145A
330
DC7
100
AcDbEntity
  8
1
  6
Continuous
 62
     3
100
AcDbBlockReference
  2
_Open30
 10
4352.661373461438
 20
1921.509282739395
 30
0.0
 41
12.5
 42
12.5
 43
12.5
 50
180.0
  0
INSERT
  5
145B
330
DC7
100
AcDbEntity
  8
1
  6
Continuous
 62
     3
100
AcDbBlockReference
  2
_Open30
 10
4452.661373461438
 20
1921.509282739395
 30
0.0
 41
12.5
 42
12.5
 43
12.5
  0
MTEXT
  5
145C
330
DC7
100
AcDbEntity
  8
1
  6
Continuous
 62
     2
100
AcDbMText
 10
4402.661373461438
 20
1940.259282739395
 30
0.0
 40
22.5
 41
0.0
 71
     5
 72
     1
  1
100
 73
     1
 44
1.0
  0
POINT
  5
145D
330
DC7
100
AcDbEntity
  8
DEFPOINTS
  6
Continuous
 62
     0
100
AcDbPoint
 10
4352.661373461438
 20
1876.541318938881
 30
0.0
  0
POINT
  5
145E
330
DC7
100
AcDbEntity
  8
DEFPOINTS
  6
Continuous
 62
     0
100
AcDbPoint
 10
4452.661373461438
 20
1876.541318938881
 30
0.0
  0
POINT
  5
145F
330
DC7
100
AcDbEntity
  8
DEFPOINTS
  6
Continuous
 62
     0
100
AcDbPoint
 10
4452.661373461438
 20
1921.509282739395
 30
0.0
  0
ENDBLK
  5
DD3
330
DC7
100
AcDbEntity
  8
0
100
AcDbBlockEnd
  0
BLOCK
  5
1160
330
114A
100
AcDbEntity
  8
0
100
AcDbBlockBegin
  2
*D23
 70
     1
 10
0.0
 20
0.0
 30
0.0
  3
*D23
  1

  0
LINE
  5
144E
330
114A
100
AcDbEntity
  8
AM_5
100
AcDbLine
 10
4058.807306228738
 20
1798.541318938881
 30
0.0
 11
4058.807306228738
 21
1932.275826091673
 31
0.0
  0
LINE
  5
144F
330
114A
100
AcDbEntity
  8
AM_5
100
AcDbLine
 10
4208.807306228737
 20
1798.541318938881
 30
0.0
 11
4208.807306228737
 21
1932.275826091673
 31
0.0
  0
LINE
  5
1450
330
114A
100
AcDbEntity
  8
AM_5
100
AcDbLine
 10
4071.307306228738
 20
1927.275826091673
 30
0.0
 11
4196.307306228738
 21
1927.275826091673
 31
0.0
  0
INSERT
  5
1451
330
114A
100
AcDbEntity
  8
AM_5
100
AcDbBlockReference
  2
_Open30
 10
4058.807306228738
 20
1927.275826091673
 30
0.0
 41
12.5
 42
12.5
 43
12.5
 50
180.0
  0
INSERT
  5
1452
330
114A
100
AcDbEntity
  8
AM_5
100
AcDbBlockReference
  2
_Open30
 10
4208.807306228737
 20
1927.275826091673
 30
0.0
 41
12.5
 42
12.5
 43
12.5
  0
MTEXT
  5
1453
330
114A
100
AcDbEntity
  8
AM_5
 62
     2
100
AcDbMText
 10
4133.807306228738
 20
1946.025826091673
 30
0.0
 40
22.5
 41
0.0
 71
     5
 72
     1
  1
150
 73
     1
 44
1.0
  0
POINT
  5
1454
330
114A
100
AcDbEntity
  8
DEFPOINTS
 62
     0
100
AcDbPoint
 10
4058.807306228738
 20
1793.541318938881
 30
0.0
  0
POINT
  5
1455
330
114A
100
AcDbEntity
  8
DEFPOINTS
 62
     0
100
AcDbPoint
 10
4208.807306228737
 20
1793.541318938881
 30
0.0
  0
POINT
  5
1456
330
114A
100
AcDbEntity
  8
DEFPOINTS
 62
     0
100
AcDbPoint
 10
4208.807306228737
 20
1927.275826091673
 30
0.0
  0
ENDBLK
  5
1161
330
114A
100
AcDbEntity
  8
0
100
AcDbBlockEnd
  0
BLOCK
  5
1188
330
1172
100
AcDbEntity
  8
0
100
AcDbBlockBegin
  2
*D24
 70
     1
 10
0.0
 20
0.0
 30
0.0
  3
*D24
  1

  0
LINE
  5
1445
330
1172
100
AcDbEntity
  8
AM_5
100
AcDbLine
 10
4128.807306228737
 20
1878.541318938881
 30
0.0
 11
3830.807306228738
 21
1878.541318938881
 31
0.0
  0
LINE
  5
1446
330
1172
100
AcDbEntity
  8
AM_5
100
AcDbLine
 10
3869.822837617199
 20
1078.541318938881
 30
0.0
 11
3830.807306228738
 21
1078.541318938881
 31
0.0
  0
LINE
  5
1447
330
1172
100
AcDbEntity
  8
AM_5
100
AcDbLine
 10
3835.807306228737
 20
1866.041318938881
 30
0.0
 11
3835.807306228737
 21
1091.041318938881
 31
0.0
  0
INSERT
  5
1448
330
1172
100
AcDbEntity
  8
AM_5
100
AcDbBlockReference
  2
_Open30
 10
3835.807306228737
 20
1878.541318938881
 30
0.0
 41
12.5
 42
12.5
 43
12.5
 50
90.0
  0
INSERT
  5
1449
330
1172
100
AcDbEntity
  8
AM_5
100
AcDbBlockReference
  2
_Open30
 10
3835.807306228737
 20
1078.541318938881
 30
0.0
 41
12.5
 42
12.5
 43
12.5
 50
270.0
  0
MTEXT
  5
144A
330
1172
100
AcDbEntity
  8
AM_5
 62
     2
100
AcDbMText
 10
3817.057306228738
 20
1478.541318938882
 30
0.0
 40
22.5
 41
0.0
 71
     5
 72
     1
  1
800
 11
0.0000000000000001
 21
1.0
 31
0.0
 73
     1
 44
1.0
  0
POINT
  5
144B
330
1172
100
AcDbEntity
  8
DEFPOINTS
 62
     0
100
AcDbPoint
 10
4133.807306228738
 20
1878.541318938881
 30
0.0
  0
POINT
  5
144C
330
1172
100
AcDbEntity
  8
DEFPOINTS
 62
     0
100
AcDbPoint
 10
3874.8228376172
 20
1078.541318938881
 30
0.0
  0
POINT
  5
144D
330
1172
100
AcDbEntity
  8
DEFPOINTS
 62
     0
100
AcDbPoint
 10
3835.807306228737
 20
1078.541318938881
 30
0.0
  0
ENDBLK
  5
1189
330
1172
100
AcDbEntity
  8
0
100
AcDbBlockEnd
  0
BLOCK
  5
11C9
330
11B3
100
AcDbEntity
  8
0
100
AcDbBlockBegin
  2
*D25
 70
     1
 10
0.0
 20
0.0
 30
0.0
  3
*D25
  1

  0
LINE
  5
143C
330
11B3
100
AcDbEntity
  8
AM_5
100
AcDbLine
 10
3828.107914436638
 20
1078.541318938881
 30
0.0
 11
3840.807306228738
 21
1078.541318938881
 31
0.0
  0
LINE
  5
143D
330
11B3
100
AcDbEntity
  8
AM_5
100
AcDbLine
 10
4048.807306228737
 20
778.5413189388812
 30
0.0
 11
3830.807306228737
 21
778.5413189388813
 31
0.0
  0
LINE
  5
143E
330
11B3
100
AcDbEntity
  8
AM_5
100
AcDbLine
 10
3835.807306228737
 20
1066.041318938881
 30
0.0
 11
3835.807306228737
 21
791.0413189388813
 31
0.0
  0
INSERT
  5
143F
330
11B3
100
AcDbEntity
  8
AM_5
100
AcDbBlockReference
  2
_Open30
 10
3835.807306228737
 20
1078.541318938881
 30
0.0
 41
12.5
 42
12.5
 43
12.5
 50
90.0
  0
INSERT
  5
1440
330
11B3
100
AcDbEntity
  8
AM_5
100
AcDbBlockReference
  2
_Open30
 10
3835.807306228737
 20
778.5413189388813
 30
0.0
 41
12.5
 42
12.5
 43
12.5
 50
270.0
  0
MTEXT
  5
1441
330
11B3
100
AcDbEntity
  8
AM_5
 62
     2
100
AcDbMText
 10
3817.057306228738
 20
928.5413189388819
 30
0.0
 40
22.5
 41
0.0
 71
     5
 72
     1
  1
300
 11
0.0000000000000001
 21
1.0
 31
0.0
 73
     1
 44
1.0
  0
POINT
  5
1442
330
11B3
100
AcDbEntity
  8
DEFPOINTS
 62
     0
100
AcDbPoint
 10
3823.107914436638
 20
1078.541318938881
 30
0.0
  0
POINT
  5
1443
330
11B3
100
AcDbEntity
  8
DEFPOINTS
 62
     0
100
AcDbPoint
 10
4053.807306228737
 20
778.5413189388812
 30
0.0
  0
POINT
  5
1444
330
11B3
100
AcDbEntity
  8
DEFPOINTS
 62
     0
100
AcDbPoint
 10
3835.807306228737
 20
778.5413189388813
 30
0.0
  0
ENDBLK
  5
11CA
330
11B3
100
AcDbEntity
  8
0
100
AcDbBlockEnd
  0
BLOCK
  5
11F1
330
11DB
100
AcDbEntity
  8
0
100
AcDbBlockBegin
  2
*D26
 70
     1
 10
0.0
 20
0.0
 30
0.0
  3
*D26
  1

  0
LINE
  5
1433
330
11DB
100
AcDbEntity
  8
AM_5
100
AcDbLine
 10
4128.807306228737
 20
1878.541318938881
 30
0.0
 11
3745.882069664977
 21
1878.541318938881
 31
0.0
  0
LINE
  5
1434
330
11DB
100
AcDbEntity
  8
AM_5
100
AcDbLine
 10
4048.807306228737
 20
778.5413189388812
 30
0.0
 11
3745.882069664977
 21
778.5413189388813
 31
0.0
  0
LINE
  5
1435
330
11DB
100
AcDbEntity
  8
AM_5
100
AcDbLine
 10
3750.882069664977
 20
1866.041318938881
 30
0.0
 11
3750.882069664977
 21
791.0413189388813
 31
0.0
  0
INSERT
  5
1436
330
11DB
100
AcDbEntity
  8
AM_5
100
AcDbBlockReference
  2
_Open30
 10
3750.882069664977
 20
1878.541318938881
 30
0.0
 41
12.5
 42
12.5
 43
12.5
 50
90.0
  0
INSERT
  5
1437
330
11DB
100
AcDbEntity
  8
AM_5
100
AcDbBlockReference
  2
_Open30
 10
3750.882069664977
 20
778.5413189388813
 30
0.0
 41
12.5
 42
12.5
 43
12.5
 50
270.0
  0
MTEXT
  5
1438
330
11DB
100
AcDbEntity
  8
AM_5
 62
     2
100
AcDbMText
 10
3732.132069664976
 20
1328.541318938882
 30
0.0
 40
22.5
 41
0.0
 71
     5
 72
     1
  1
1100
 11
0.0000000000000001
 21
1.0
 31
0.0
 73
     1
 44
1.0
  0
POINT
  5
1439
330
11DB
100
AcDbEntity
  8
DEFPOINTS
 62
     0
100
AcDbPoint
 10
4133.807306228738
 20
1878.541318938881
 30
0.0
  0
POINT
  5
143A
330
11DB
100
AcDbEntity
  8
DEFPOINTS
 62
     0
100
AcDbPoint
 10
4053.807306228737
 20
778.5413189388812
 30
0.0
  0
POINT
  5
143B
330
11DB
100
AcDbEntity
  8
DEFPOINTS
 62
     0
100
AcDbPoint
 10
3750.882069664977
 20
778.5413189388813
 30
0.0
  0
ENDBLK
  5
11F2
330
11DB
100
AcDbEntity
  8
0
100
AcDbBlockEnd
  0
BLOCK
  5
1228
330
1212
100
AcDbEntity
  8
0
100
AcDbBlockBegin
  2
*D27
 70
     1
 10
0.0
 20
0.0
 30
0.0
  3
*D27
  1

  0
LINE
  5
142A
330
1212
100
AcDbEntity
  8
AM_5
100
AcDbLine
 10
4053.807306228737
 20
773.7864560232178
 30
0.0
 11
4053.807306228737
 21
532.296485264821
 31
0.0
  0
LINE
  5
142B
330
1212
100
AcDbEntity
  8
AM_5
100
AcDbLine
 10
4213.807306228737
 20
773.5413189388812
 30
0.0
 11
4213.807306228737
 21
532.296485264821
 31
0.0
  0
LINE
  5
142C
330
1212
100
AcDbEntity
  8
AM_5
100
AcDbLine
 10
4066.307306228737
 20
537.296485264821
 30
0.0
 11
4201.307306228737
 21
537.296485264821
 31
0.0
  0
INSERT
  5
142D
330
1212
100
AcDbEntity
  8
AM_5
100
AcDbBlockReference
  2
_Open30
 10
4053.807306228737
 20
537.296485264821
 30
0.0
 41
12.5
 42
12.5
 43
12.5
 50
180.0
  0
INSERT
  5
142E
330
1212
100
AcDbEntity
  8
AM_5
100
AcDbBlockReference
  2
_Open30
 10
4213.807306228737
 20
537.296485264821
 30
0.0
 41
12.5
 42
12.5
 43
12.5
  0
MTEXT
  5
142F
330
1212
100
AcDbEntity
  8
AM_5
 62
     2
100
AcDbMText
 10
4133.807306228738
 20
556.046485264821
 30
0.0
 40
22.5
 41
0.0
 71
     5
 72
     1
  1
160
 73
     1
 44
1.0
  0
POINT
  5
1430
330
1212
100
AcDbEntity
  8
DEFPOINTS
 62
     0
100
AcDbPoint
 10
4053.807306228737
 20
778.7864560232178
 30
0.0
  0
POINT
  5
1431
330
1212
100
AcDbEntity
  8
DEFPOINTS
 62
     0
100
AcDbPoint
 10
4213.807306228737
 20
778.5413189388812
 30
0.0
  0
POINT
  5
1432
330
1212
100
AcDbEntity
  8
DEFPOINTS
 62
     0
100
AcDbPoint
 10
4213.807306228737
 20
537.296485264821
 30
0.0
  0
ENDBLK
  5
1229
330
1212
100
AcDbEntity
  8
0
100
AcDbBlockEnd
  0
BLOCK
  5
1286
330
1270
100
AcDbEntity
  8
0
100
AcDbBlockBegin
  2
*D28
 70
     1
 10
0.0
 20
0.0
 30
0.0
  3
*D28
  1

  0
LINE
  5
1421
330
1270
100
AcDbEntity
  8
AM_5
100
AcDbLine
 10
3933.807306228738
 20
673.5413189388812
 30
0.0
 11
3933.807306228738
 21
462.8102336666843
 31
0.0
  0
LINE
  5
1422
330
1270
100
AcDbEntity
  8
AM_5
100
AcDbLine
 10
4333.807306228737
 20
672.9549367370812
 30
0.0
 11
4333.807306228737
 21
462.8102336666843
 31
0.0
  0
LINE
  5
1423
330
1270
100
AcDbEntity
  8
AM_5
100
AcDbLine
 10
3946.307306228738
 20
467.8102336666843
 30
0.0
 11
4321.307306228738
 21
467.8102336666843
 31
0.0
  0
INSERT
  5
1424
330
1270
100
AcDbEntity
  8
AM_5
100
AcDbBlockReference
  2
_Open30
 10
3933.807306228738
 20
467.8102336666843
 30
0.0
 41
12.5
 42
12.5
 43
12.5
 50
180.0
  0
INSERT
  5
1425
330
1270
100
AcDbEntity
  8
AM_5
100
AcDbBlockReference
  2
_Open30
 10
4333.807306228737
 20
467.8102336666843
 30
0.0
 41
12.5
 42
12.5
 43
12.5
  0
MTEXT
  5
1426
330
1270
100
AcDbEntity
  8
AM_5
 62
     2
100
AcDbMText
 10
4133.807306228738
 20
486.5602336666843
 30
0.0
 40
22.5
 41
0.0
 71
     5
 72
     1
  1
{\Famgdt|c128;o}400
 73
     1
 44
1.0
  0
POINT
  5
1427
330
1270
100
AcDbEntity
  8
DEFPOINTS
 62
     0
100
AcDbPoint
 10
3933.807306228738
 20
678.5413189388812
 30
0.0
  0
POINT
  5
1428
330
1270
100
AcDbEntity
  8
DEFPOINTS
 62
     0
100
AcDbPoint
 10
4333.807306228737
 20
677.9549367370812
 30
0.0
  0
POINT
  5
1429
330
1270
100
AcDbEntity
  8
DEFPOINTS
 62
     0
100
AcDbPoint
 10
4333.807306228737
 20
467.8102336666843
 30
0.0
  0
ENDBLK
  5
1287
330
1270
100
AcDbEntity
  8
0
100
AcDbBlockEnd
  0
BLOCK
  5
12B8
330
12A2
100
AcDbEntity
  8
0
100
AcDbBlockBegin
  2
*D29
 70
     1
 10
0.0
 20
0.0
 30
0.0
  3
*D29
  1

  0
LINE
  5
1418
330
12A2
100
AcDbEntity
  8
AM_5
100
AcDbLine
 10
4442.284212417438
 20
1078.541318938881
 30
0.0
 11
4536.807306228737
 21
1078.541318938881
 31
0.0
  0
LINE
  5
1419
330
12A2
100
AcDbEntity
  8
AM_5
100
AcDbLine
 10
4388.807306228737
 20
678.5413189388812
 30
0.0
 11
4536.807306228737
 21
678.5413189388812
 31
0.0
  0
LINE
  5
141A
330
12A2
100
AcDbEntity
  8
AM_5
100
AcDbLine
 10
4531.807306228738
 20
1066.041318938881
 30
0.0
 11
4531.807306228738
 21
691.0413189388812
 31
0.0
  0
INSERT
  5
141B
330
12A2
100
AcDbEntity
  8
AM_5
100
AcDbBlockReference
  2
_Open30
 10
4531.807306228738
 20
1078.541318938881
 30
0.0
 41
12.5
 42
12.5
 43
12.5
 50
90.0
  0
INSERT
  5
141C
330
12A2
100
AcDbEntity
  8
AM_5
100
AcDbBlockReference
  2
_Open30
 10
4531.807306228738
 20
678.5413189388812
 30
0.0
 41
12.5
 42
12.5
 43
12.5
 50
270.0
  0
MTEXT
  5
141D
330
12A2
100
AcDbEntity
  8
AM_5
 62
     2
100
AcDbMText
 10
4513.057306228737
 20
878.5413189388819
 30
0.0
 40
22.5
 41
0.0
 71
     5
 72
     1
  1
400
 11
0.0000000000000001
 21
1.0
 31
0.0
 73
     1
 44
1.0
  0
POINT
  5
141E
330
12A2
100
AcDbEntity
  8
DEFPOINTS
 62
     0
100
AcDbPoint
 10
4437.284212417437
 20
1078.541318938881
 30
0.0
  0
POINT
  5
141F
330
12A2
100
AcDbEntity
  8
DEFPOINTS
 62
     0
100
AcDbPoint
 10
4383.807306228738
 20
678.5413189388812
 30
0.0
  0
POINT
  5
1420
330
12A2
100
AcDbEntity
  8
DEFPOINTS
 62
     0
100
AcDbPoint
 10
4531.807306228738
 20
678.5413189388812
 30
0.0
  0
ENDBLK
  5
12B9
330
12A2
100
AcDbEntity
  8
0
100
AcDbBlockEnd
  0
BLOCK
  5
12F6
330
12CE
100
AcDbEntity
  8
0
100
AcDbBlockBegin
  2
*D30
 70
     1
 10
0.0
 20
0.0
 30
0.0
  3
*D30
  1

  0
LINE
  5
140F
330
12CE
100
AcDbEntity
  8
AM_5
100
AcDbLine
 10
4388.807306228737
 20
578.5413189388812
 30
0.0
 11
4536.807306228737
 21
578.5413189388812
 31
0.0
  0
LINE
  5
1410
330
12CE
100
AcDbEntity
  8
AM_5
100
AcDbLine
 10
4388.807306228737
 20
678.5413189388812
 30
0.0
 11
4536.807306228737
 21
678.5413189388812
 31
0.0
  0
LINE
  5
1411
330
12CE
100
AcDbEntity
  8
AM_5
100
AcDbLine
 10
4531.807306228738
 20
591.0413189388812
 30
0.0
 11
4531.807306228738
 21
666.0413189388812
 31
0.0
  0
INSERT
  5
1412
330
12CE
100
AcDbEntity
  8
AM_5
100
AcDbBlockReference
  2
_Open30
 10
4531.807306228738
 20
578.5413189388812
 30
0.0
 41
12.5
 42
12.5
 43
12.5
 50
270.0
  0
INSERT
  5
1413
330
12CE
100
AcDbEntity
  8
AM_5
100
AcDbBlockReference
  2
_Open30
 10
4531.807306228738
 20
678.5413189388812
 30
0.0
 41
12.5
 42
12.5
 43
12.5
 50
90.0
  0
MTEXT
  5
1414
330
12CE
100
AcDbEntity
  8
AM_5
 62
     2
100
AcDbMText
 10
4513.057306228737
 20
628.541318938882
 30
0.0
 40
22.5
 41
0.0
 71
     5
 72
     1
  1
100
 11
0.0000000000000001
 21
1.0
 31
0.0
 73
     1
 44
1.0
  0
POINT
  5
1415
330
12CE
100
AcDbEntity
  8
DEFPOINTS
 62
     0
100
AcDbPoint
 10
4383.807306228738
 20
578.5413189388812
 30
0.0
  0
POINT
  5
1416
330
12CE
100
AcDbEntity
  8
DEFPOINTS
 62
     0
100
AcDbPoint
 10
4383.807306228738
 20
678.5413189388812
 30
0.0
  0
POINT
  5
1417
330
12CE
100
AcDbEntity
  8
DEFPOINTS
 62
     0
100
AcDbPoint
 10
4531.807306228738
 20
678.5413189388812
 30
0.0
  0
ENDBLK
  5
12F7
330
12CE
100
AcDbEntity
  8
0
100
AcDbBlockEnd
  0
BLOCK
  5
15AA
330
15A3
100
AcDbEntity
  8
0
100
AcDbBlockBegin
  2
Xsec
 70
     2
 10
0.0
 20
0.0
 30
0.0
  3
Xsec
  1

  0
SOLID
  5
15A4
330
15A3
100
AcDbEntity
  8
0
  6
Continuous
 62
     7
100
AcDbTrace
 10
-2.0
 20
0.0
 30
0.0
 11
0.0
 21
0.0
 31
0.0
 12
0.0
 22
-4.0
 32
0.0
 13
0.0
 23
-4.0
 33
0.0
  0
LINE
  5
15A5
330
15A3
100
AcDbEntity
  8
0
  6
Continuous
 62
     7
100
AcDbLine
 10
0.0
 20
-4.0
 30
0.0
 11
-2.0
 21
0.0
 31
0.0
  0
LINE
  5
15A6
330
15A3
100
AcDbEntity
  8
0
  6
Continuous
 62
     7
100
AcDbLine
 10
0.0
 20
0.0
 30
0.0
 11
-5.0
 21
0.0
 31
0.0
  0
LINE
  5
15A7
330
15A3
100
AcDbEntity
  8
0
  6
Continuous
 62
     7
100
AcDbLine
 10
0.0
 20
-4.0
 30
0.0
 11
0.0
 21
0.0
 31
0.0
  0
CIRCLE
  5
15A8
330
15A3
100
AcDbEntity
  8
0
  6
Continuous
 62
     7
100
AcDbCircle
 10
5.0
 20
-2.0
 30
0.0
 40
4.0
  0
ATTDEF
  5
15A9
330
15A3
100
AcDbEntity
  8
0
  6
Continuous
 62
     7
100
AcDbText
 10
5.0
 20
-1.999999999999943
 30
0.0
 40
3.2
  1

 41
1.199999999999999
  7
MSG
 72
     4
 11
5.0
 21
-1.999999999999943
 31
0.0
100
AcDbAttributeDefinition
  3
MARK
  2
XSEC
 70
     0
  0
ENDBLK
  5
15AB
330
15A3
100
AcDbEntity
  8
0
100
AcDbBlockEnd
  0
BLOCK
  5
1661
330
165D
100
AcDbEntity
  8
0
100
AcDbBlockBegin
  2
*S32
 70
     1
 10
0.0
 20
0.0
 30
0.0
  3
*S32
  1

  0
CIRCLE
  5
165E
330
165D
100
AcDbEntity
  8
AM_12
 62
     4
100
AcDbCircle
 10
4208.340405012719
 20
1508.148497357843
 30
0.0
 40
7.875
  0
LINE
  5
165F
330
165D
100
AcDbEntity
  8
AM_12
 62
     4
100
AcDbLine
 10
4200.465405012719
 20
1500.273497357843
 30
0.0
 11
4216.215405012719
 21
1516.023497357843
 31
0.0
  0
LINE
  5
1660
330
165D
100
AcDbEntity
  8
AM_12
 62
     4
100
AcDbLine
 10
4200.465405012719
 20
1516.023497357843
 30
0.0
 11
4216.215405012719
 21
1500.273497357843
 31
0.0
  0
ENDBLK
  5
1662
330
165D
100
AcDbEntity
  8
0
100
AcDbBlockEnd
  0
BLOCK
  5
1669
330
1664
100
AcDbEntity
  8
0
100
AcDbBlockBegin
  2
*S33
 70
     1
 10
0.0
 20
0.0
 30
0.0
  3
*S33
  1

  0
LINE
  5
1665
330
1664
100
AcDbEntity
  8
AM_5
100
AcDbLine
 10
4284.151172122223
 20
1571.797794980627
 30
0.0
 11
4221.038049977576
 21
1516.948368512809
 31
0.0
  0
TRACE
  5
1666
330
1664
100
AcDbEntity
  8
AM_5
100
AcDbTrace
 10
4219.677891363101
 20
1518.513450634894
 30
0.0
 11
4222.39820859205
 21
1515.383286390723
 31
0.0
 12
4209.150070958954
 22
1506.616938076861
 32
0.0
 13
4209.150070958954
 23
1506.616938076861
 33
0.0
  0
MTEXT
  5
1667
330
1664
100
AcDbEntity
  8
AM_5
 62
     2
100
AcDbMText
 10
4302.973805568373
 20
1588.155893170877
 30
0.0
 40
17.5
 41
0.0
 71
     5
 72
     5
  1
1
  7
ACJISTS
 73
     1
 44
1.0
  0
CIRCLE
  5
1668
330
1664
100
AcDbEntity
  8
AM_5
 62
     3
100
AcDbCircle
 10
4302.973805568373
 20
1588.155893170877
 30
0.0
 40
24.9375
  0
ENDBLK
  5
166A
330
1664
100
AcDbEntity
  8
0
100
AcDbBlockEnd
  0
BLOCK
  5
1688
330
166C
100
AcDbEntity
  8
0
100
AcDbBlockBegin
  2
*S34
 70
     1
 10
0.0
 20
0.0
 30
0.0
  3
*S34
  1

  0
MTEXT
  5
166D
330
166C
100
AcDbEntity
  8
0
 62
     7
100
AcDbMText
 10
4037.546745333017
 20
2098.70230108668
 30
0.0
 40
22.5
 41
49.49999999999999
 71
     2
 72
     5
  1
1
  7
ACJISTS
 73
     1
 44
1.0
  0
LINE
  5
166E
330
166C
100
AcDbEntity
  8
0
 62
     1
100
AcDbLine
 10
4066.796745333017
 20
2105.45230108668
 30
0.0
 11
4066.796745333017
 21
2068.32730108668
 31
0.0
  0
MTEXT
  5
166F
330
166C
100
AcDbEntity
  8
0
 62
     7
100
AcDbMText
 10
4179.296745333018
 20
2098.70230108668
 30
0.0
 40
22.5
 41
216.0
 71
     2
 72
     5
  1
本体
  7
ACJISTS
 73
     1
 44
1.0
  0
LINE
  5
1670
330
166C
100
AcDbEntity
  8
0
 62
     1
100
AcDbLine
 10
4291.796745333018
 20
2105.45230108668
 30
0.0
 11
4291.796745333018
 21
2068.32730108668
 31
0.0
  0
MTEXT
  5
1671
330
166C
100
AcDbEntity
  8
0
 62
     7
100
AcDbMText
 10
4321.046745333017
 20
2098.70230108668
 30
0.0
 40
22.5
 41
49.5
 71
     2
 72
     5
  1
1
  7
ACJISTS
 73
     1
 44
1.0
  0
LINE
  5
1672
330
166C
100
AcDbEntity
  8
0
 62
     1
100
AcDbLine
 10
4350.296745333017
 20
2105.45230108668
 30
0.0
 11
4350.296745333017
 21
2068.32730108668
 31
0.0
  0
MTEXT
  5
1673
330
166C
100
AcDbEntity
  8
0
 62
     7
100
AcDbMText
 10
4407.796745333017
 20
2098.70230108668
 30
0.0
 40
22.5
 41
106.0
 71
     2
 72
     5
  1
FCD
  7
ACJISTS
 73
     1
 44
1.0
  0
LINE
  5
1674
330
166C
100
AcDbEntity
  8
0
 62
     1
100
AcDbLine
 10
4465.296745333017
 20
2105.45230108668
 30
0.0
 11
4465.296745333017
 21
2068.32730108668
 31
0.0
  0
MTEXT
  5
1675
330
166C
100
AcDbEntity
  8
0
 62
     7
100
AcDbMText
 10
4515.296745333017
 20
2098.70230108668
 30
0.0
 40
22.5
 41
91.0
 71
     2
 72
     5
  1
26
  7
ACJISTS
 73
     1
 44
1.0
  0
LINE
  5
1676
330
166C
100
AcDbEntity
  8
0
 62
     1
100
AcDbLine
 10
4565.296745333017
 20
2105.45230108668
 30
0.0
 11
4565.296745333017
 21
2068.32730108668
 31
0.0
  0
MTEXT
  5
1677
330
166C
100
AcDbEntity
  8
0
 62
     7
100
AcDbMText
 10
4765.296745333017
 20
2098.70230108668
 30
0.0
 40
22.5
 41
391.0
 71
     2
 72
     5
  1
防錆塗装の上、樹脂系塗料塗装
  7
ACJISTS
 73
     1
 44
1.0
  0
LINE
  5
1678
330
166C
100
AcDbEntity
  8
0
 62
     1
100
AcDbLine
 10
4008.296745333018
 20
2105.45230108668
 30
0.0
 11
4965.296745333017
 21
2105.45230108668
 31
0.0
  0
MTEXT
  5
1679
330
166C
100
AcDbEntity
  8
0
 62
     7
100
AcDbMText
 10
4037.546745333017
 20
2135.827301086679
 30
0.0
 40
22.5
 41
49.49999999999999
 71
     2
 72
     5
  1
部番
  7
ACJISTS
 73
     1
 44
1.0
  0
LINE
  5
167A
330
166C
100
AcDbEntity
  8
0
 62
     1
100
AcDbLine
 10
4066.796745333017
 20
2142.57730108668
 30
0.0
 11
4066.796745333017
 21
2105.45230108668
 31
0.0
  0
MTEXT
  5
167B
330
166C
100
AcDbEntity
  8
0
 62
     7
100
AcDbMText
 10
4179.296745333018
 20
2135.827301086679
 30
0.0
 40
22.5
 41
216.0
 71
     2
 72
     5
  1
部  品  名
  7
ACJISTS
 73
     1
 44
1.0
  0
LINE
  5
167C
330
166C
100
AcDbEntity
  8
0
 62
     1
100
AcDbLine
 10
4291.796745333018
 20
2142.57730108668
 30
0.0
 11
4291.796745333018
 21
2105.45230108668
 31
0.0
  0
MTEXT
  5
167D
330
166C
100
AcDbEntity
  8
0
 62
     7
100
AcDbMText
 10
4321.046745333017
 20
2135.827301086679
 30
0.0
 40
22.5
 41
49.5
 71
     2
 72
     5
  1
数量
  7
ACJISTS
 73
     1
 44
1.0
  0
LINE
  5
167E
330
166C
100
AcDbEntity
  8
0
 62
     1
100
AcDbLine
 10
4350.296745333017
 20
2142.57730108668
 30
0.0
 11
4350.296745333017
 21
2105.45230108668
 31
0.0
  0
MTEXT
  5
167F
330
166C
100
AcDbEntity
  8
0
 62
     7
100
AcDbMText
 10
4407.796745333017
 20
2135.827301086679
 30
0.0
 40
22.5
 41
106.0
 71
     2
 72
     5
  1
材  質
  7
ACJISTS
 73
     1
 44
1.0
  0
LINE
  5
1680
330
166C
100
AcDbEntity
  8
0
 62
     1
100
AcDbLine
 10
4465.296745333017
 20
2142.57730108668
 30
0.0
 11
4465.296745333017
 21
2105.45230108668
 31
0.0
  0
MTEXT
  5
1681
330
166C
100
AcDbEntity
  8
0
 62
     7
100
AcDbMText
 10
4515.296745333017
 20
2135.827301086679
 30
0.0
 40
22.5
 41
91.0
 71
     2
 72
     5
  1
重量
  7
ACJISTS
 73
     1
 44
1.0
  0
LINE
  5
1682
330
166C
100
AcDbEntity
  8
0
 62
     1
100
AcDbLine
 10
4565.296745333017
 20
2142.57730108668
 30
0.0
 11
4565.296745333017
 21
2105.45230108668
 31
0.0
  0
MTEXT
  5
1683
330
166C
100
AcDbEntity
  8
0
 62
     7
100
AcDbMText
 10
4765.296745333017
 20
2135.827301086679
 30
0.0
 40
22.5
 41
391.0
 71
     2
 72
     5
  1
備　　考
  7
ACJISTS
 73
     1
 44
1.0
  0
LINE
  5
1684
330
166C
100
AcDbEntity
  8
0
 62
     7
100
AcDbLine
 10
4008.296745333018
 20
2142.57730108668
 30
0.0
 11
4965.296745333017
 21
2142.57730108668
 31
0.0
  0
LINE
  5
1685
330
166C
100
AcDbEntity
  8
0
 62
     7
100
AcDbLine
 10
4965.296745333017
 20
2142.57730108668
 30
0.0
 11
4965.296745333017
 21
2068.32730108668
 31
0.0
  0
LINE
  5
1686
330
166C
100
AcDbEntity
  8
0
 62
     7
100
AcDbLine
 10
4965.296745333017
 20
2068.32730108668
 30
0.0
 11
4008.296745333018
 21
2068.32730108668
 31
0.0
  0
LINE
  5
1687
330
166C
100
AcDbEntity
  8
0
 62
     7
100
AcDbLine
 10
4008.296745333018
 20
2068.32730108668
 30
0.0
 11
4008.296745333018
 21
2142.57730108668
 31
0.0
  0
ENDBLK
  5
1689
330
166C
100
AcDbEntity
  8
0
100
AcDbBlockEnd
  0
ENDSEC
  0
SECTION
  2
ENTITIES
  0
LINE
  5
BFC
330
1F
100
AcDbEntity
  8
AM_7
100
AcDbLine
 10
4402.661373461437
 20
1902.240984126281
 30
0.0
 11
4402.661373461437
 21
1716.303230094081
 31
0.0
  0
LINE
  5
BFD
330
1F
100
AcDbEntity
  8
1
  6
Continuous
 62
     7
100
AcDbLine
 10
4452.661373461438
 20
1793.541318938881
 30
0.0
 11
4452.661373461438
 21
1715.541318938881
 31
0.0
  0
LINE
  5
BFE
330
1F
100
AcDbEntity
  8
1
  6
Continuous
 62
     7
100
AcDbLine
 10
4352.661373461438
 20
1793.541318938881
 30
0.0
 11
4352.661373461438
 21
1715.541318938881
 31
0.0
  0
LINE
  5
BFF
330
1F
100
AcDbEntity
  8
1
  6
Continuous
 62
     7
100
AcDbLine
 10
4437.661373461438
 20
1795.541318938881
 30
0.0
 11
4437.661373461438
 21
1715.541318938881
 31
0.0
  0
LINE
  5
C00
330
1F
100
AcDbEntity
  8
1
  6
Continuous
 62
     7
100
AcDbLine
 10
4367.661373461437
 20
1795.541318938881
 30
0.0
 11
4367.661373461437
 21
1715.541318938881
 31
0.0
  0
LINE
  5
C01
330
1F
100
AcDbEntity
  8
AM_7
100
AcDbLine
 10
4693.279726216338
 20
1596.541318938881
 30
0.0
 11
4693.279726216338
 21
1460.541318938881
 31
0.0
  0
LINE
  5
C02
330
1F
100
AcDbEntity
  8
AM_7
100
AcDbLine
 10
4598.279726216338
 20
1528.541318938881
 30
0.0
 11
4788.279726216337
 21
1528.541318938881
 31
0.0
  0
ARC
  5
C03
330
1F
100
AcDbEntity
  8
1
  6
Continuous
 62
     7
100
AcDbCircle
 10
4634.234504503138
 20
1569.387120055981
 30
0.0
 40
2.0
100
AcDbArc
 50
197.9194413419021
 51
17.3317897454971
  0
ARC
  5
C04
330
1F
100
AcDbEntity
  8
1
  6
Continuous
 62
     7
100
AcDbCircle
 10
4693.279726216338
 20
1383.541318938881
 30
0.0
 40
195.0
100
AcDbArc
 50
90.58765159640151
 51
92.35324754219989
  0
ARC
  5
C05
330
1F
100
AcDbEntity
  8
1
  6
Continuous
 62
     7
100
AcDbCircle
 10
4693.279726216338
 20
1383.541318938881
 30
0.0
 40
195.0
100
AcDbArc
 50
93.51809935070013
 51
95.28369529649975
  0
ARC
  5
C06
330
1F
100
AcDbEntity
  8
1
  6
Continuous
 62
     7
100
AcDbCircle
 10
4693.279726216338
 20
1383.541318938881
 30
0.0
 40
195.0
100
AcDbArc
 50
96.45899848919999
 51
98.22226245920077
  0
ARC
  5
C07
330
1F
100
AcDbEntity
  8
1
  6
Continuous
 62
     7
100
AcDbCircle
 10
4693.279726216338
 20
1383.541318938881
 30
0.0
 40
195.0
100
AcDbArc
 50
99.39756565189917
 51
101.1608296218998
  0
ARC
  5
C08
330
1F
100
AcDbEntity
  8
1
  6
Continuous
 62
     7
100
AcDbCircle
 10
4693.279726216338
 20
1383.541318938881
 30
0.0
 40
195.0
100
AcDbArc
 50
102.3361328146004
 51
104.0993967845989
  0
ARC
  5
C09
330
1F
100
AcDbEntity
  8
1
  6
Continuous
 62
     7
100
AcDbCircle
 10
4693.279726216338
 20
1383.541318938881
 30
0.0
 40
195.0
100
AcDbArc
 50
105.2746999774002
 51
107.0638267336008
  0
ARC
  5
C0A
330
1F
100
AcDbEntity
  8
1
  6
Continuous
 62
     7
100
AcDbCircle
 10
4693.279726216338
 20
1383.541318938881
 30
0.0
 40
195.0
100
AcDbArc
 50
108.2132671400983
 51
112.0243128369997
  0
ARC
  5
C0B
330
1F
100
AcDbEntity
  8
1
  6
Continuous
 62
     7
100
AcDbCircle
 10
4643.839564904338
 20
1572.169711418481
 30
0.0
 40
2.0
100
AcDbArc
 50
194.9808741792012
 51
14.39322258280039
  0
ARC
  5
C0C
330
1F
100
AcDbEntity
  8
1
  6
Continuous
 62
     7
100
AcDbCircle
 10
4653.574645453538
 20
1574.456238632581
 30
0.0
 40
2.0
100
AcDbArc
 50
192.0423070164997
 51
11.45465542009654
  0
ARC
  5
C0D
330
1F
100
AcDbEntity
  8
1
  6
Continuous
 62
     7
100
AcDbCircle
 10
4663.414144361038
 20
1576.240688477181
 30
0.0
 40
2.0
100
AcDbArc
 50
189.1037398537011
 51
8.516088257401749
  0
ARC
  5
C0E
330
1F
100
AcDbEntity
  8
1
  6
Continuous
 62
     7
100
AcDbCircle
 10
4673.332185232736
 20
1577.518368119281
 30
0.0
 40
2.0
100
AcDbArc
 50
186.1651726910024
 51
5.577521094600401
  0
ARC
  5
C0F
330
1F
100
AcDbEntity
  8
1
  6
Continuous
 62
     7
100
AcDbCircle
 10
4683.279726216337
 20
1578.541318938881
 30
0.0
 40
2.0
100
AcDbArc
 50
190.5878133929975
 51
355.2835334999019
  0
ARC
  5
C10
330
1F
100
AcDbEntity
  8
1
  6
Continuous
 62
     7
100
AcDbCircle
 10
4752.324947929538
 20
1569.387120055981
 30
0.0
 40
2.0
100
AcDbArc
 50
162.6682102544966
 51
342.080558658098
  0
ARC
  5
C11
330
1F
100
AcDbEntity
  8
1
  6
Continuous
 62
     7
100
AcDbCircle
 10
4693.279726216338
 20
1383.541318938881
 30
0.0
 40
195.0
100
AcDbArc
 50
87.6467524578001
 51
89.41234840359847
  0
ARC
  5
C12
330
1F
100
AcDbEntity
  8
1
  6
Continuous
 62
     7
100
AcDbCircle
 10
4693.279726216338
 20
1383.541318938881
 30
0.0
 40
195.0
100
AcDbArc
 50
84.71630470350024
 51
86.48190064929986
  0
ARC
  5
C13
330
1F
100
AcDbEntity
  8
1
  6
Continuous
 62
     7
100
AcDbCircle
 10
4693.279726216338
 20
1383.541318938881
 30
0.0
 40
195.0
100
AcDbArc
 50
81.77773754079924
 51
83.54100151080002
  0
ARC
  5
C14
330
1F
100
AcDbEntity
  8
1
  6
Continuous
 62
     7
100
AcDbCircle
 10
4693.279726216338
 20
1383.541318938881
 30
0.0
 40
195.0
100
AcDbArc
 50
78.83917037810019
 51
80.60243434810082
  0
ARC
  5
C15
330
1F
100
AcDbEntity
  8
1
  6
Continuous
 62
     7
100
AcDbCircle
 10
4693.279726216338
 20
1383.541318938881
 30
0.0
 40
195.0
100
AcDbArc
 50
75.90060321540104
 51
77.66386718539961
  0
ARC
  5
C16
330
1F
100
AcDbEntity
  8
1
  6
Continuous
 62
     7
100
AcDbCircle
 10
4693.279726216338
 20
1383.541318938881
 30
0.0
 40
195.0
100
AcDbArc
 50
72.93617326639921
 51
74.72530002259976
  0
ARC
  5
C17
330
1F
100
AcDbEntity
  8
1
  6
Continuous
 62
     7
100
AcDbCircle
 10
4693.279726216338
 20
1383.541318938881
 30
0.0
 40
195.0
100
AcDbArc
 50
67.97568716300027
 51
71.78673285990171
  0
ARC
  5
C18
330
1F
100
AcDbEntity
  8
1
  6
Continuous
 62
     7
100
AcDbCircle
 10
4742.719887528437
 20
1572.169711418481
 30
0.0
 40
2.0
100
AcDbArc
 50
165.6067774171996
 51
345.0191258207988
  0
ARC
  5
C19
330
1F
100
AcDbEntity
  8
1
  6
Continuous
 62
     7
100
AcDbCircle
 10
4732.984806979238
 20
1574.456238632581
 30
0.0
 40
2.0
100
AcDbArc
 50
168.5453445799034
 51
347.9576929835002
  0
ARC
  5
C1A
330
1F
100
AcDbEntity
  8
1
  6
Continuous
 62
     7
100
AcDbCircle
 10
4723.145308071639
 20
1576.240688477181
 30
0.0
 40
2.0
100
AcDbArc
 50
171.4839117425982
 51
350.896260146299
  0
ARC
  5
C1B
330
1F
100
AcDbEntity
  8
1
  6
Continuous
 62
     7
100
AcDbCircle
 10
4713.227267199938
 20
1577.518368119281
 30
0.0
 40
2.0
100
AcDbArc
 50
174.4224789053996
 51
353.8348273089976
  0
ARC
  5
C1C
330
1F
100
AcDbEntity
  8
1
  6
Continuous
 62
     7
100
AcDbCircle
 10
4703.279726216337
 20
1578.541318938881
 30
0.0
 40
2.0
100
AcDbArc
 50
184.716466500098
 51
349.4121866070024
  0
ARC
  5
C1D
330
1F
100
AcDbEntity
  8
1
  6
Continuous
 62
     7
100
AcDbCircle
 10
4693.279726216338
 20
1578.541318938881
 30
0.0
 40
2.0
100
AcDbArc
 50
180.2938257981977
 51
359.7061742018023
  0
ARC
  5
C1E
330
1F
100
AcDbEntity
  8
1
  6
Continuous
 62
     7
100
AcDbCircle
 10
4629.279726216338
 20
1556.052188161681
 30
0.0
 40
3.0
100
AcDbArc
 50
110.354406398201
 51
180.0
  0
ARC
  5
C1F
330
1F
100
AcDbEntity
  8
1
  6
Continuous
 62
     7
100
AcDbCircle
 10
4693.279726216338
 20
1383.541318938881
 30
0.0
 40
187.0
100
AcDbArc
 50
69.64559360179895
 51
110.354406398201
  0
ARC
  5
C20
330
1F
100
AcDbEntity
  8
1
  6
Continuous
 62
     7
100
AcDbCircle
 10
4757.279726216338
 20
1556.052188161681
 30
0.0
 40
3.0
100
AcDbArc
 50
0.0
 51
69.64559360179895
  0
ARC
  5
C21
330
1F
100
AcDbEntity
  8
1
  6
Continuous
 62
     7
100
AcDbCircle
 10
4621.279726216338
 20
1561.530082629181
 30
0.0
 40
3.0
100
AcDbArc
 50
112.0243128369997
 51
180.0
  0
ARC
  5
C22
330
1F
100
AcDbEntity
  8
1
  6
Continuous
 62
     7
100
AcDbCircle
 10
4765.279726216337
 20
1561.530082629181
 30
0.0
 40
3.0
100
AcDbArc
 50
0.0
 51
67.97568716300027
  0
ARC
  5
C23
330
1F
100
AcDbEntity
  8
1
  6
Continuous
 62
     7
100
AcDbCircle
 10
4634.234504503138
 20
1487.695517821881
 30
0.0
 40
2.0
100
AcDbArc
 50
342.6682102545029
 51
162.0805586580979
  0
ARC
  5
C24
330
1F
100
AcDbEntity
  8
1
  6
Continuous
 62
     7
100
AcDbCircle
 10
4693.279726216338
 20
1673.541318938881
 30
0.0
 40
195.0
100
AcDbArc
 50
267.6467524578001
 51
269.4123484035984
  0
ARC
  5
C25
330
1F
100
AcDbEntity
  8
1
  6
Continuous
 62
     7
100
AcDbCircle
 10
4693.279726216338
 20
1673.541318938881
 30
0.0
 40
195.0
100
AcDbArc
 50
264.7163047035002
 51
266.4819006492999
  0
ARC
  5
C26
330
1F
100
AcDbEntity
  8
1
  6
Continuous
 62
     7
100
AcDbCircle
 10
4693.279726216338
 20
1673.541318938881
 30
0.0
 40
195.0
100
AcDbArc
 50
261.7777375407992
 51
263.5410015108
  0
ARC
  5
C27
330
1F
100
AcDbEntity
  8
1
  6
Continuous
 62
     7
100
AcDbCircle
 10
4693.279726216338
 20
1673.541318938881
 30
0.0
 40
195.0
100
AcDbArc
 50
258.8391703781002
 51
260.6024343481009
  0
ARC
  5
C28
330
1F
100
AcDbEntity
  8
1
  6
Continuous
 62
     7
100
AcDbCircle
 10
4693.279726216338
 20
1673.541318938881
 30
0.0
 40
195.0
100
AcDbArc
 50
255.900603215401
 51
257.6638671853995
  0
ARC
  5
C29
330
1F
100
AcDbEntity
  8
1
  6
Continuous
 62
     7
100
AcDbCircle
 10
4693.279726216338
 20
1673.541318938881
 30
0.0
 40
195.0
100
AcDbArc
 50
252.9361732663992
 51
254.7253000225998
  0
ARC
  5
C2A
330
1F
100
AcDbEntity
  8
1
  6
Continuous
 62
     7
100
AcDbCircle
 10
4693.279726216338
 20
1673.541318938881
 30
0.0
 40
195.0
100
AcDbArc
 50
247.9756871630003
 51
251.7867328599017
  0
ARC
  5
C2B
330
1F
100
AcDbEntity
  8
1
  6
Continuous
 62
     7
100
AcDbCircle
 10
4643.839564904338
 20
1484.912926459281
 30
0.0
 40
2.0
100
AcDbArc
 50
345.6067774171996
 51
165.0191258207988
  0
ARC
  5
C2C
330
1F
100
AcDbEntity
  8
1
  6
Continuous
 62
     7
100
AcDbCircle
 10
4653.574645453538
 20
1482.626399245281
 30
0.0
 40
2.0
100
AcDbArc
 50
348.5453445798964
 51
167.9576929835002
  0
ARC
  5
C2D
330
1F
100
AcDbEntity
  8
1
  6
Continuous
 62
     7
100
AcDbCircle
 10
4663.414144361038
 20
1480.841949400681
 30
0.0
 40
2.0
100
AcDbArc
 50
351.4839117425982
 51
170.8962601462989
  0
ARC
  5
C2E
330
1F
100
AcDbEntity
  8
1
  6
Continuous
 62
     7
100
AcDbCircle
 10
4673.332185232736
 20
1479.564269758581
 30
0.0
 40
2.0
100
AcDbArc
 50
354.4224789053996
 51
173.8348273089976
  0
ARC
  5
C2F
330
1F
100
AcDbEntity
  8
1
  6
Continuous
 62
     7
100
AcDbCircle
 10
4683.279726216337
 20
1478.541318938881
 30
0.0
 40
2.0
100
AcDbArc
 50
4.71646650009808
 51
169.4121866070025
  0
ARC
  5
C30
330
1F
100
AcDbEntity
  8
1
  6
Continuous
 62
     7
100
AcDbCircle
 10
4752.324947929538
 20
1487.695517821881
 30
0.0
 40
2.0
100
AcDbArc
 50
17.91944134190207
 51
197.3317897454971
  0
ARC
  5
C31
330
1F
100
AcDbEntity
  8
1
  6
Continuous
 62
     7
100
AcDbCircle
 10
4693.279726216338
 20
1673.541318938881
 30
0.0
 40
195.0
100
AcDbArc
 50
270.5876515964015
 51
272.3532475422
  0
ARC
  5
C32
330
1F
100
AcDbEntity
  8
1
  6
Continuous
 62
     7
100
AcDbCircle
 10
4693.279726216338
 20
1673.541318938881
 30
0.0
 40
195.0
100
AcDbArc
 50
273.5180993507001
 51
275.2836952964998
  0
ARC
  5
C33
330
1F
100
AcDbEntity
  8
1
  6
Continuous
 62
     7
100
AcDbCircle
 10
4693.279726216338
 20
1673.541318938881
 30
0.0
 40
195.0
100
AcDbArc
 50
276.4589984892
 51
278.2222624592008
  0
ARC
  5
C34
330
1F
100
AcDbEntity
  8
1
  6
Continuous
 62
     7
100
AcDbCircle
 10
4693.279726216338
 20
1673.541318938881
 30
0.0
 40
195.0
100
AcDbArc
 50
279.3975656518991
 51
281.1608296218998
  0
ARC
  5
C35
330
1F
100
AcDbEntity
  8
1
  6
Continuous
 62
     7
100
AcDbCircle
 10
4693.279726216338
 20
1673.541318938881
 30
0.0
 40
195.0
100
AcDbArc
 50
282.3361328146004
 51
284.099396784599
  0
ARC
  5
C36
330
1F
100
AcDbEntity
  8
1
  6
Continuous
 62
     7
100
AcDbCircle
 10
4693.279726216338
 20
1673.541318938881
 30
0.0
 40
195.0
100
AcDbArc
 50
285.2746999774002
 51
287.0638267336008
  0
ARC
  5
C37
330
1F
100
AcDbEntity
  8
1
  6
Continuous
 62
     7
100
AcDbCircle
 10
4693.279726216338
 20
1673.541318938881
 30
0.0
 40
195.0
100
AcDbArc
 50
288.2132671400983
 51
292.0243128369997
  0
ARC
  5
C38
330
1F
100
AcDbEntity
  8
1
  6
Continuous
 62
     7
100
AcDbCircle
 10
4742.719887528437
 20
1484.912926459281
 30
0.0
 40
2.0
100
AcDbArc
 50
14.98087417920117
 51
194.3932225828004
  0
ARC
  5
C39
330
1F
100
AcDbEntity
  8
1
  6
Continuous
 62
     7
100
AcDbCircle
 10
4732.984806979238
 20
1482.626399245281
 30
0.0
 40
2.0
100
AcDbArc
 50
12.04230701640011
 51
191.4546554200965
  0
ARC
  5
C3A
330
1F
100
AcDbEntity
  8
1
  6
Continuous
 62
     7
100
AcDbCircle
 10
4723.145308071639
 20
1480.841949400681
 30
0.0
 40
2.0
100
AcDbArc
 50
9.103739853701036
 51
188.5160882574017
  0
ARC
  5
C3B
330
1F
100
AcDbEntity
  8
1
  6
Continuous
 62
     7
100
AcDbCircle
 10
4713.227267199938
 20
1479.564269758581
 30
0.0
 40
2.0
100
AcDbArc
 50
6.165172691002402
 51
185.5775210946004
  0
ARC
  5
C3C
330
1F
100
AcDbEntity
  8
1
  6
Continuous
 62
     7
100
AcDbCircle
 10
4703.279726216337
 20
1478.541318938881
 30
0.0
 40
2.0
100
AcDbArc
 50
10.58781339299753
 51
175.2835334999019
  0
ARC
  5
C3D
330
1F
100
AcDbEntity
  8
1
  6
Continuous
 62
     7
100
AcDbCircle
 10
4693.279726216338
 20
1478.541318938881
 30
0.0
 40
2.0
100
AcDbArc
 50
0.2938257981976926
 51
179.7061742018023
  0
ARC
  5
C3E
330
1F
100
AcDbEntity
  8
1
  6
Continuous
 62
     7
100
AcDbCircle
 10
4629.279726216338
 20
1501.030449716181
 30
0.0
 40
3.0
100
AcDbArc
 50
180.0
 51
249.645593601799
  0
LINE
  5
C3F
330
1F
100
AcDbEntity
  8
1
  6
Continuous
 62
     7
100
AcDbLine
 10
4626.279726216337
 20
1501.030449716181
 30
0.0
 11
4626.279726216337
 21
1556.052188161681
 31
0.0
  0
ARC
  5
C40
330
1F
100
AcDbEntity
  8
1
  6
Continuous
 62
     7
100
AcDbCircle
 10
4693.279726216338
 20
1673.541318938881
 30
0.0
 40
187.0
100
AcDbArc
 50
249.645593601799
 51
290.354406398201
  0
LINE
  5
C41
330
1F
100
AcDbEntity
  8
1
  6
Continuous
 62
     7
100
AcDbLine
 10
4760.279726216338
 20
1556.052188161681
 30
0.0
 11
4760.279726216338
 21
1501.030449716181
 31
0.0
  0
ARC
  5
C42
330
1F
100
AcDbEntity
  8
1
  6
Continuous
 62
     7
100
AcDbCircle
 10
4757.279726216338
 20
1501.030449716181
 30
0.0
 40
3.0
100
AcDbArc
 50
290.354406398201
 51
0.0
  0
ARC
  5
C43
330
1F
100
AcDbEntity
  8
1
  6
Continuous
 62
     7
100
AcDbCircle
 10
4621.279726216338
 20
1495.552555248681
 30
0.0
 40
3.0
100
AcDbArc
 50
180.0
 51
247.9756871630003
  0
LINE
  5
C44
330
1F
100
AcDbEntity
  8
1
  6
Continuous
 62
     7
100
AcDbLine
 10
4618.279726216337
 20
1495.552555248681
 30
0.0
 11
4618.279726216337
 21
1561.530082629181
 31
0.0
  0
ARC
  5
C45
330
1F
100
AcDbEntity
  8
1
  6
Continuous
 62
     7
100
AcDbCircle
 10
4765.279726216337
 20
1495.552555248681
 30
0.0
 40
3.0
100
AcDbArc
 50
292.0243128369997
 51
0.0
  0
LINE
  5
C46
330
1F
100
AcDbEntity
  8
1
  6
Continuous
 62
     7
100
AcDbLine
 10
4768.279726216337
 20
1495.552555248681
 30
0.0
 11
4768.279726216337
 21
1561.530082629181
 31
0.0
  0
LINE
  5
C48
330
1F
100
AcDbEntity
  8
AM_7
100
AcDbLine
 10
4133.807306228738
 20
1895.578255782881
 30
0.0
 11
4133.807306228738
 21
563.5413189388811
 31
0.0
  0
LINE
  5
C4A
330
1F
100
AcDbEntity
  8
1
  6
Continuous
 62
     7
100
AcDbLine
 10
4208.807306228737
 20
1006.541318938881
 30
0.0
 11
4208.807306228737
 21
788.5413189388811
 31
0.0
  0
LINE
  5
C4B
330
1F
100
AcDbEntity
  8
1
  6
Continuous
 62
     7
100
AcDbLine
 10
4058.807306228738
 20
788.5413189388811
 30
0.0
 11
4058.807306228738
 21
1006.541318938881
 31
0.0
  0
LINE
  5
C4C
330
1F
100
AcDbEntity
  8
1
  6
Continuous
 62
     7
100
AcDbLine
 10
4053.807306228737
 20
778.5413189388812
 30
0.0
 11
4213.807306228737
 21
778.5413189388812
 31
0.0
  0
LINE
  5
C4D
330
1F
100
AcDbEntity
  8
1
  6
Continuous
 62
     7
100
AcDbLine
 10
4213.807306228737
 20
788.5413189388811
 30
0.0
 11
4213.807306228737
 21
778.5413189388812
 31
0.0
  0
LINE
  5
C4E
330
1F
100
AcDbEntity
  8
1
  6
Continuous
 62
     7
100
AcDbLine
 10
4053.807306228737
 20
788.5413189388811
 30
0.0
 11
4213.807306228737
 21
788.5413189388811
 31
0.0
  0
LINE
  5
C4F
330
1F
100
AcDbEntity
  8
1
  6
Continuous
 62
     7
100
AcDbLine
 10
4053.807306228737
 20
788.5413189388811
 30
0.0
 11
4053.807306228737
 21
778.5413189388812
 31
0.0
  0
LINE
  5
C50
330
1F
100
AcDbEntity
  8
1
  6
Continuous
 62
     7
100
AcDbLine
 10
4121.807306228737
 20
1765.541318938881
 30
0.0
 11
4121.807306228737
 21
1246.541318938881
 31
0.0
  0
LINE
  5
C51
330
1F
100
AcDbEntity
  8
1
  6
Continuous
 62
     7
100
AcDbLine
 10
4125.807306228738
 20
1765.541318938881
 30
0.0
 11
4121.807306228737
 21
1765.541318938881
 31
0.0
  0
LINE
  5
C52
330
1F
100
AcDbEntity
  8
1
  6
Continuous
 62
     7
100
AcDbLine
 10
4125.807306228738
 20
1246.541318938881
 30
0.0
 11
4125.807306228738
 21
1765.541318938881
 31
0.0
  0
LINE
  5
C53
330
1F
100
AcDbEntity
  8
1
  6
Continuous
 62
     7
100
AcDbLine
 10
4121.807306228737
 20
1246.541318938881
 30
0.0
 11
4125.807306228738
 21
1246.541318938881
 31
0.0
  0
LINE
  5
C54
330
1F
100
AcDbEntity
  8
1
  6
Continuous
 62
     7
100
AcDbLine
 10
4111.807306228738
 20
1765.541318938881
 30
0.0
 11
4111.807306228738
 21
1246.541318938881
 31
0.0
  0
LINE
  5
C55
330
1F
100
AcDbEntity
  8
1
  6
Continuous
 62
     7
100
AcDbLine
 10
4115.807306228737
 20
1765.541318938881
 30
0.0
 11
4111.807306228738
 21
1765.541318938881
 31
0.0
  0
LINE
  5
C56
330
1F
100
AcDbEntity
  8
1
  6
Continuous
 62
     7
100
AcDbLine
 10
4115.807306228737
 20
1246.541318938881
 30
0.0
 11
4115.807306228737
 21
1765.541318938881
 31
0.0
  0
LINE
  5
C57
330
1F
100
AcDbEntity
  8
1
  6
Continuous
 62
     7
100
AcDbLine
 10
4111.807306228738
 20
1246.541318938881
 30
0.0
 11
4115.807306228737
 21
1246.541318938881
 31
0.0
  0
LINE
  5
C58
330
1F
100
AcDbEntity
  8
1
  6
Continuous
 62
     7
100
AcDbLine
 10
4101.807306228738
 20
1765.541318938881
 30
0.0
 11
4101.807306228738
 21
1246.541318938881
 31
0.0
  0
LINE
  5
C59
330
1F
100
AcDbEntity
  8
1
  6
Continuous
 62
     7
100
AcDbLine
 10
4105.807306228737
 20
1765.541318938881
 30
0.0
 11
4101.807306228738
 21
1765.541318938881
 31
0.0
  0
LINE
  5
C5A
330
1F
100
AcDbEntity
  8
1
  6
Continuous
 62
     7
100
AcDbLine
 10
4105.807306228737
 20
1246.541318938881
 30
0.0
 11
4105.807306228737
 21
1765.541318938881
 31
0.0
  0
LINE
  5
C5B
330
1F
100
AcDbEntity
  8
1
  6
Continuous
 62
     7
100
AcDbLine
 10
4101.807306228738
 20
1246.541318938881
 30
0.0
 11
4105.807306228737
 21
1246.541318938881
 31
0.0
  0
LINE
  5
C5C
330
1F
100
AcDbEntity
  8
1
  6
Continuous
 62
     7
100
AcDbLine
 10
4091.807306228737
 20
1765.541318938881
 30
0.0
 11
4091.807306228737
 21
1246.541318938881
 31
0.0
  0
LINE
  5
C5D
330
1F
100
AcDbEntity
  8
1
  6
Continuous
 62
     7
100
AcDbLine
 10
4095.807306228738
 20
1765.541318938881
 30
0.0
 11
4091.807306228737
 21
1765.541318938881
 31
0.0
  0
LINE
  5
C5E
330
1F
100
AcDbEntity
  8
1
  6
Continuous
 62
     7
100
AcDbLine
 10
4095.807306228738
 20
1246.541318938881
 30
0.0
 11
4095.807306228738
 21
1765.541318938881
 31
0.0
  0
LINE
  5
C5F
330
1F
100
AcDbEntity
  8
1
  6
Continuous
 62
     7
100
AcDbLine
 10
4091.807306228737
 20
1246.541318938881
 30
0.0
 11
4095.807306228738
 21
1246.541318938881
 31
0.0
  0
LINE
  5
C60
330
1F
100
AcDbEntity
  8
1
  6
Continuous
 62
     7
100
AcDbLine
 10
4081.807306228737
 20
1765.541318938881
 30
0.0
 11
4081.807306228737
 21
1246.541318938881
 31
0.0
  0
LINE
  5
C61
330
1F
100
AcDbEntity
  8
1
  6
Continuous
 62
     7
100
AcDbLine
 10
4085.807306228737
 20
1765.541318938881
 30
0.0
 11
4081.807306228737
 21
1765.541318938881
 31
0.0
  0
LINE
  5
C62
330
1F
100
AcDbEntity
  8
1
  6
Continuous
 62
     7
100
AcDbLine
 10
4085.807306228737
 20
1246.541318938881
 30
0.0
 11
4085.807306228737
 21
1765.541318938881
 31
0.0
  0
LINE
  5
C63
330
1F
100
AcDbEntity
  8
1
  6
Continuous
 62
     7
100
AcDbLine
 10
4081.807306228737
 20
1246.541318938881
 30
0.0
 11
4085.807306228737
 21
1246.541318938881
 31
0.0
  0
LINE
  5
C64
330
1F
100
AcDbEntity
  8
1
  6
Continuous
 62
     7
100
AcDbLine
 10
4071.807306228737
 20
1765.541318938881
 30
0.0
 11
4071.807306228737
 21
1246.541318938881
 31
0.0
  0
LINE
  5
C65
330
1F
100
AcDbEntity
  8
1
  6
Continuous
 62
     7
100
AcDbLine
 10
4075.807306228738
 20
1765.541318938881
 30
0.0
 11
4071.807306228737
 21
1765.541318938881
 31
0.0
  0
LINE
  5
C66
330
1F
100
AcDbEntity
  8
1
  6
Continuous
 62
     7
100
AcDbLine
 10
4075.807306228738
 20
1246.541318938881
 30
0.0
 11
4075.807306228738
 21
1765.541318938881
 31
0.0
  0
LINE
  5
C67
330
1F
100
AcDbEntity
  8
1
  6
Continuous
 62
     7
100
AcDbLine
 10
4071.807306228737
 20
1246.541318938881
 30
0.0
 11
4075.807306228738
 21
1246.541318938881
 31
0.0
  0
LINE
  5
C68
330
1F
100
AcDbEntity
  8
1
  6
Continuous
 62
     7
100
AcDbLine
 10
4141.807306228737
 20
1765.541318938881
 30
0.0
 11
4141.807306228737
 21
1246.541318938881
 31
0.0
  0
LINE
  5
C69
330
1F
100
AcDbEntity
  8
1
  6
Continuous
 62
     7
100
AcDbLine
 10
4145.807306228737
 20
1765.541318938881
 30
0.0
 11
4141.807306228737
 21
1765.541318938881
 31
0.0
  0
LINE
  5
C6A
330
1F
100
AcDbEntity
  8
1
  6
Continuous
 62
     7
100
AcDbLine
 10
4145.807306228737
 20
1246.541318938881
 30
0.0
 11
4145.807306228737
 21
1765.541318938881
 31
0.0
  0
LINE
  5
C6B
330
1F
100
AcDbEntity
  8
1
  6
Continuous
 62
     7
100
AcDbLine
 10
4141.807306228737
 20
1246.541318938881
 30
0.0
 11
4145.807306228737
 21
1246.541318938881
 31
0.0
  0
LINE
  5
C6C
330
1F
100
AcDbEntity
  8
1
  6
Continuous
 62
     7
100
AcDbLine
 10
4151.807306228738
 20
1765.541318938881
 30
0.0
 11
4151.807306228738
 21
1246.541318938881
 31
0.0
  0
LINE
  5
C6D
330
1F
100
AcDbEntity
  8
1
  6
Continuous
 62
     7
100
AcDbLine
 10
4155.807306228737
 20
1765.541318938881
 30
0.0
 11
4151.807306228738
 21
1765.541318938881
 31
0.0
  0
LINE
  5
C6E
330
1F
100
AcDbEntity
  8
1
  6
Continuous
 62
     7
100
AcDbLine
 10
4155.807306228737
 20
1246.541318938881
 30
0.0
 11
4155.807306228737
 21
1765.541318938881
 31
0.0
  0
LINE
  5
C6F
330
1F
100
AcDbEntity
  8
1
  6
Continuous
 62
     7
100
AcDbLine
 10
4151.807306228738
 20
1246.541318938881
 30
0.0
 11
4155.807306228737
 21
1246.541318938881
 31
0.0
  0
LINE
  5
C70
330
1F
100
AcDbEntity
  8
1
  6
Continuous
 62
     7
100
AcDbLine
 10
4161.807306228737
 20
1765.541318938881
 30
0.0
 11
4161.807306228737
 21
1246.541318938881
 31
0.0
  0
LINE
  5
C71
330
1F
100
AcDbEntity
  8
1
  6
Continuous
 62
     7
100
AcDbLine
 10
4165.807306228738
 20
1765.541318938881
 30
0.0
 11
4161.807306228737
 21
1765.541318938881
 31
0.0
  0
LINE
  5
C72
330
1F
100
AcDbEntity
  8
1
  6
Continuous
 62
     7
100
AcDbLine
 10
4165.807306228738
 20
1246.541318938881
 30
0.0
 11
4165.807306228738
 21
1765.541318938881
 31
0.0
  0
LINE
  5
C73
330
1F
100
AcDbEntity
  8
1
  6
Continuous
 62
     7
100
AcDbLine
 10
4161.807306228737
 20
1246.541318938881
 30
0.0
 11
4165.807306228738
 21
1246.541318938881
 31
0.0
  0
LINE
  5
C74
330
1F
100
AcDbEntity
  8
1
  6
Continuous
 62
     7
100
AcDbLine
 10
4171.807306228737
 20
1765.541318938881
 30
0.0
 11
4171.807306228737
 21
1246.541318938881
 31
0.0
  0
LINE
  5
C75
330
1F
100
AcDbEntity
  8
1
  6
Continuous
 62
     7
100
AcDbLine
 10
4175.807306228738
 20
1765.541318938881
 30
0.0
 11
4171.807306228737
 21
1765.541318938881
 31
0.0
  0
LINE
  5
C76
330
1F
100
AcDbEntity
  8
1
  6
Continuous
 62
     7
100
AcDbLine
 10
4175.807306228738
 20
1246.541318938881
 30
0.0
 11
4175.807306228738
 21
1765.541318938881
 31
0.0
  0
LINE
  5
C77
330
1F
100
AcDbEntity
  8
1
  6
Continuous
 62
     7
100
AcDbLine
 10
4171.807306228737
 20
1246.541318938881
 30
0.0
 11
4175.807306228738
 21
1246.541318938881
 31
0.0
  0
LINE
  5
C78
330
1F
100
AcDbEntity
  8
1
  6
Continuous
 62
     7
100
AcDbLine
 10
4181.807306228737
 20
1765.541318938881
 30
0.0
 11
4181.807306228737
 21
1246.541318938881
 31
0.0
  0
LINE
  5
C79
330
1F
100
AcDbEntity
  8
1
  6
Continuous
 62
     7
100
AcDbLine
 10
4185.807306228737
 20
1765.541318938881
 30
0.0
 11
4181.807306228737
 21
1765.541318938881
 31
0.0
  0
LINE
  5
C7A
330
1F
100
AcDbEntity
  8
1
  6
Continuous
 62
     7
100
AcDbLine
 10
4185.807306228737
 20
1246.541318938881
 30
0.0
 11
4185.807306228737
 21
1765.541318938881
 31
0.0
  0
LINE
  5
C7B
330
1F
100
AcDbEntity
  8
1
  6
Continuous
 62
     7
100
AcDbLine
 10
4181.807306228737
 20
1246.541318938881
 30
0.0
 11
4185.807306228737
 21
1246.541318938881
 31
0.0
  0
LINE
  5
C7C
330
1F
100
AcDbEntity
  8
1
  6
Continuous
 62
     7
100
AcDbLine
 10
4191.807306228738
 20
1765.541318938881
 30
0.0
 11
4191.807306228738
 21
1246.541318938881
 31
0.0
  0
LINE
  5
C7D
330
1F
100
AcDbEntity
  8
1
  6
Continuous
 62
     7
100
AcDbLine
 10
4195.807306228737
 20
1765.541318938881
 30
0.0
 11
4191.807306228738
 21
1765.541318938881
 31
0.0
  0
LINE
  5
C7E
330
1F
100
AcDbEntity
  8
1
  6
Continuous
 62
     7
100
AcDbLine
 10
4195.807306228737
 20
1246.541318938881
 30
0.0
 11
4195.807306228737
 21
1765.541318938881
 31
0.0
  0
LINE
  5
C7F
330
1F
100
AcDbEntity
  8
1
  6
Continuous
 62
     7
100
AcDbLine
 10
4191.807306228738
 20
1246.541318938881
 30
0.0
 11
4195.807306228737
 21
1246.541318938881
 31
0.0
  0
LINE
  5
C80
330
1F
100
AcDbEntity
  8
1
  6
Continuous
 62
     7
100
AcDbLine
 10
4131.807306228737
 20
1765.541318938881
 30
0.0
 11
4131.807306228737
 21
1246.541318938881
 31
0.0
  0
LINE
  5
C81
330
1F
100
AcDbEntity
  8
1
  6
Continuous
 62
     7
100
AcDbLine
 10
4135.807306228737
 20
1765.541318938881
 30
0.0
 11
4131.807306228737
 21
1765.541318938881
 31
0.0
  0
LINE
  5
C82
330
1F
100
AcDbEntity
  8
1
  6
Continuous
 62
     7
100
AcDbLine
 10
4135.807306228737
 20
1246.541318938881
 30
0.0
 11
4135.807306228737
 21
1765.541318938881
 31
0.0
  0
LINE
  5
C83
330
1F
100
AcDbEntity
  8
1
  6
Continuous
 62
     7
100
AcDbLine
 10
4131.807306228737
 20
1246.541318938881
 30
0.0
 11
4135.807306228737
 21
1246.541318938881
 31
0.0
  0
LINE
  5
C8A
330
1F
100
AcDbEntity
  8
1
  6
DIVIDE
 62
     7
100
AcDbLine
 10
4213.807306228737
 20
1078.541318938881
 30
0.0
 11
4437.284212417437
 21
1078.541318938881
 31
0.0
  0
LINE
  5
C8B
330
1F
100
AcDbEntity
  8
1
  6
DIVIDE
 62
     7
100
AcDbLine
 10
3823.107914436638
 20
1078.541318938881
 30
0.0
 11
4053.807306228737
 21
1078.541318938881
 31
0.0
  0
LINE
  5
C92
330
1F
100
AcDbEntity
  8
1
  6
DIVIDE
 62
     7
100
AcDbLine
 10
3883.807306228738
 20
678.5413189388812
 30
0.0
 11
3883.807306228738
 21
578.5413189388812
 31
0.0
  0
LINE
  5
C93
330
1F
100
AcDbEntity
  8
1
  6
DIVIDE
 62
     7
100
AcDbLine
 10
3883.807306228738
 20
578.5413189388812
 30
0.0
 11
4383.807306228738
 21
578.5413189388812
 31
0.0
  0
LINE
  5
C94
330
1F
100
AcDbEntity
  8
1
  6
DIVIDE
 62
     7
100
AcDbLine
 10
4383.807306228738
 20
678.5413189388812
 30
0.0
 11
4383.807306228738
 21
578.5413189388812
 31
0.0
  0
LINE
  5
C95
330
1F
100
AcDbEntity
  8
1
  6
DIVIDE
 62
     7
100
AcDbLine
 10
3891.534464086938
 20
678.5413189388812
 30
0.0
 11
4383.807306228738
 21
678.5413189388812
 31
0.0
  0
LINE
  5
C96
330
1F
100
AcDbEntity
  8
1
  6
DIVIDE
 62
     7
100
AcDbLine
 10
3933.807306228738
 20
1078.541318938881
 30
0.0
 11
3933.807306228738
 21
677.9549367370812
 31
0.0
  0
LINE
  5
C97
330
1F
100
AcDbEntity
  8
1
  6
DIVIDE
 62
     7
100
AcDbLine
 10
4333.807306228737
 20
677.9549367370812
 30
0.0
 11
4333.807306228737
 21
1078.541318938881
 31
0.0
  0
LINE
  5
C9B
330
1F
100
AcDbEntity
  8
1
  6
Continuous
 62
     7
100
AcDbLine
 10
4053.807306228737
 20
1010.541318938881
 30
0.0
 11
4053.807306228737
 21
1108.541318938881
 31
0.0
  0
LINE
  5
C9C
330
1F
100
AcDbEntity
  8
1
  6
Continuous
 62
     7
100
AcDbLine
 10
4213.807306228737
 20
1010.541318938881
 30
0.0
 11
4213.807306228737
 21
1108.541318938881
 31
0.0
  0
LINE
  5
CA0
330
1F
100
AcDbEntity
  8
1
  6
Continuous
 62
     7
100
AcDbLine
 10
4368.329383330038
 20
678.5413189388812
 30
0.0
 11
4341.534464086937
 21
578.5413189388812
 31
0.0
  0
LINE
  5
CA1
330
1F
100
AcDbEntity
  8
1
  6
Continuous
 62
     7
100
AcDbLine
 10
3968.329383330038
 20
678.5413189388812
 30
0.0
 11
3941.534464086938
 21
578.5413189388812
 31
0.0
  0
LINE
  5
CA2
330
1F
100
AcDbEntity
  8
1
  6
Continuous
 62
     7
100
AcDbLine
 10
4018.329383330037
 20
678.5413189388812
 30
0.0
 11
3991.534464086938
 21
578.5413189388812
 31
0.0
  0
LINE
  5
CA3
330
1F
100
AcDbEntity
  8
1
  6
Continuous
 62
     7
100
AcDbLine
 10
4068.329383330037
 20
678.5413189388812
 30
0.0
 11
4041.534464086938
 21
578.5413189388812
 31
0.0
  0
LINE
  5
CA4
330
1F
100
AcDbEntity
  8
1
  6
Continuous
 62
     7
100
AcDbLine
 10
4118.329383330038
 20
678.5413189388812
 30
0.0
 11
4091.534464086937
 21
578.5413189388812
 31
0.0
  0
LINE
  5
CA5
330
1F
100
AcDbEntity
  8
1
  6
Continuous
 62
     7
100
AcDbLine
 10
4168.329383330037
 20
678.5413189388812
 30
0.0
 11
4141.534464086937
 21
578.5413189388812
 31
0.0
  0
LINE
  5
CA6
330
1F
100
AcDbEntity
  8
1
  6
Continuous
 62
     7
100
AcDbLine
 10
4218.329383330037
 20
678.5413189388812
 30
0.0
 11
4191.534464086937
 21
578.5413189388812
 31
0.0
  0
LINE
  5
CA7
330
1F
100
AcDbEntity
  8
1
  6
Continuous
 62
     7
100
AcDbLine
 10
4268.329383330037
 20
678.5413189388812
 30
0.0
 11
4241.534464086938
 21
578.5413189388812
 31
0.0
  0
LINE
  5
CA8
330
1F
100
AcDbEntity
  8
1
  6
Continuous
 62
     7
100
AcDbLine
 10
4318.329383330037
 20
678.5413189388812
 30
0.0
 11
4291.534464086938
 21
578.5413189388812
 31
0.0
  0
LINE
  5
CA9
330
1F
100
AcDbEntity
  8
1
  6
Continuous
 62
     7
100
AcDbLine
 10
3918.329383330038
 20
678.5413189388812
 30
0.0
 11
3891.534464086938
 21
578.5413189388812
 31
0.0
  0
LINE
  5
CAA
330
1F
100
AcDbEntity
  8
1
  6
Continuous
 62
     7
100
AcDbLine
 10
4349.572939859838
 20
608.5413189388812
 30
0.0
 11
4357.611415632738
 21
578.5413189388812
 31
0.0
  0
LINE
  5
CAB
330
1F
100
AcDbEntity
  8
1
  6
Continuous
 62
     7
100
AcDbLine
 10
3949.572939859838
 20
608.5413189388812
 30
0.0
 11
3957.611415632738
 21
578.5413189388812
 31
0.0
  0
LINE
  5
CAC
330
1F
100
AcDbEntity
  8
1
  6
Continuous
 62
     7
100
AcDbLine
 10
3999.572939859838
 20
608.5413189388812
 30
0.0
 11
4007.611415632737
 21
578.5413189388812
 31
0.0
  0
LINE
  5
CAD
330
1F
100
AcDbEntity
  8
1
  6
Continuous
 62
     7
100
AcDbLine
 10
4049.572939859838
 20
608.5413189388812
 30
0.0
 11
4057.611415632737
 21
578.5413189388812
 31
0.0
  0
LINE
  5
CAE
330
1F
100
AcDbEntity
  8
1
  6
Continuous
 62
     7
100
AcDbLine
 10
4099.572939859838
 20
608.5413189388812
 30
0.0
 11
4107.611415632738
 21
578.5413189388812
 31
0.0
  0
LINE
  5
CAF
330
1F
100
AcDbEntity
  8
1
  6
Continuous
 62
     7
100
AcDbLine
 10
4149.572939859837
 20
608.5413189388812
 30
0.0
 11
4157.611415632738
 21
578.5413189388812
 31
0.0
  0
LINE
  5
CB0
330
1F
100
AcDbEntity
  8
1
  6
Continuous
 62
     7
100
AcDbLine
 10
4199.572939859837
 20
608.5413189388812
 30
0.0
 11
4207.611415632737
 21
578.5413189388812
 31
0.0
  0
LINE
  5
CB1
330
1F
100
AcDbEntity
  8
1
  6
Continuous
 62
     7
100
AcDbLine
 10
4249.572939859837
 20
608.5413189388812
 30
0.0
 11
4257.611415632737
 21
578.5413189388812
 31
0.0
  0
LINE
  5
CB2
330
1F
100
AcDbEntity
  8
1
  6
Continuous
 62
     7
100
AcDbLine
 10
4299.572939859838
 20
608.5413189388812
 30
0.0
 11
4307.611415632737
 21
578.5413189388812
 31
0.0
  0
LINE
  5
CB3
330
1F
100
AcDbEntity
  8
1
  6
Continuous
 62
     7
100
AcDbLine
 10
3899.572939859838
 20
608.5413189388812
 30
0.0
 11
3907.611415632738
 21
578.5413189388812
 31
0.0
  0
LINE
  5
CB4
330
1F
100
AcDbEntity
  8
1
  6
Continuous
 62
     7
100
AcDbLine
 10
4360.290907557038
 20
648.5413189388812
 30
0.0
 11
4352.252431784138
 21
678.5413189388812
 31
0.0
  0
LINE
  5
CB5
330
1F
100
AcDbEntity
  8
1
  6
Continuous
 62
     7
100
AcDbLine
 10
4260.290907557037
 20
648.5413189388812
 30
0.0
 11
4252.252431784138
 21
678.5413189388812
 31
0.0
  0
LINE
  5
CB6
330
1F
100
AcDbEntity
  8
1
  6
Continuous
 62
     7
100
AcDbLine
 10
3960.290907557038
 20
648.5413189388812
 30
0.0
 11
3952.252431784138
 21
678.5413189388812
 31
0.0
  0
LINE
  5
CB7
330
1F
100
AcDbEntity
  8
1
  6
Continuous
 62
     7
100
AcDbLine
 10
4010.290907557037
 20
648.5413189388812
 30
0.0
 11
4002.252431784138
 21
678.5413189388812
 31
0.0
  0
LINE
  5
CB8
330
1F
100
AcDbEntity
  8
1
  6
Continuous
 62
     7
100
AcDbLine
 10
4060.290907557038
 20
648.5413189388812
 30
0.0
 11
4052.252431784138
 21
678.5413189388812
 31
0.0
  0
LINE
  5
CB9
330
1F
100
AcDbEntity
  8
1
  6
Continuous
 62
     7
100
AcDbLine
 10
4110.290907557038
 20
648.5413189388812
 30
0.0
 11
4102.252431784138
 21
678.5413189388812
 31
0.0
  0
LINE
  5
CBA
330
1F
100
AcDbEntity
  8
1
  6
Continuous
 62
     7
100
AcDbLine
 10
4160.290907557038
 20
648.5413189388812
 30
0.0
 11
4152.252431784138
 21
678.5413189388812
 31
0.0
  0
LINE
  5
CBB
330
1F
100
AcDbEntity
  8
1
  6
Continuous
 62
     7
100
AcDbLine
 10
4210.290907557038
 20
648.5413189388812
 30
0.0
 11
4202.252431784137
 21
678.5413189388812
 31
0.0
  0
LINE
  5
CBC
330
1F
100
AcDbEntity
  8
1
  6
Continuous
 62
     7
100
AcDbLine
 10
4310.290907557038
 20
648.5413189388812
 30
0.0
 11
4302.252431784138
 21
678.5413189388812
 31
0.0
  0
LINE
  5
CBD
330
1F
100
AcDbEntity
  8
1
  6
Continuous
 62
     7
100
AcDbLine
 10
3910.290907557038
 20
648.5413189388812
 30
0.0
 11
3902.252431784138
 21
678.5413189388812
 31
0.0
  0
ARC
  5
CBE
330
1F
100
AcDbEntity
  8
1
  6
Continuous
 62
     7
100
AcDbCircle
 10
4211.807306228737
 20
1010.541318938881
 30
0.0
 40
2.0
100
AcDbArc
 50
270.0
 51
0.0
  0
LINE
  5
CBF
330
1F
100
AcDbEntity
  8
1
  6
Continuous
 62
     7
100
AcDbLine
 10
4211.807306228737
 20
1008.541318938881
 30
0.0
 11
4055.807306228738
 21
1008.541318938881
 31
0.0
  0
ARC
  5
CC0
330
1F
100
AcDbEntity
  8
1
  6
Continuous
 62
     7
100
AcDbCircle
 10
4055.807306228738
 20
1010.541318938881
 30
0.0
 40
2.0
100
AcDbArc
 50
180.0
 51
270.0
  0
ARC
  5
CC1
330
1F
100
AcDbEntity
  8
1
  6
Continuous
 62
     7
100
AcDbCircle
 10
4210.807306228737
 20
1006.541318938881
 30
0.0
 40
2.0
100
AcDbArc
 50
90.0
 51
180.0
  0
ARC
  5
CC2
330
1F
100
AcDbEntity
  8
1
  6
Continuous
 62
     7
100
AcDbCircle
 10
4056.807306228737
 20
1006.541318938881
 30
0.0
 40
2.0
100
AcDbArc
 50
0.0
 51
90.0
  0
DIMENSION
  5
CC3
330
1F
100
AcDbEntity
  8
1
  6
Continuous
 62
     7
100
AcDbDimension
  2
*D21
 10
4153.464857381879
 20
1213.057506194765
 30
0.0
 11
4091.243089860561
 21
1213.057506194765
 31
0.0
 70
   160
  1
<>
 71
     5
 42
160.0
  3
IGS
100
AcDbAlignedDimension
 13
4053.807306228737
 23
1108.541318938881
 33
0.0
 14
4213.807306228737
 24
1108.541318938881
 34
0.0
100
AcDbRotatedDimension
1001
ACAD
1000
DSTYLE
1002
{
1070
   178
1070
     2
1070
   177
1070
     3
1070
   176
1070
     3
1002
}
  0
DIMENSION
  5
CC4
330
1F
100
AcDbEntity
  8
1
  6
Continuous
 62
     7
100
AcDbDimension
  2
*D22
 10
4452.661373461438
 20
1921.509282739395
 30
0.0
 11
4402.661373461438
 21
1940.259282739395
 31
0.0
 70
    32
  1
<>
 71
     5
 42
100.0000000000009
  3
IGS
100
AcDbAlignedDimension
 13
4352.661373461438
 23
1876.541318938881
 33
0.0
 14
4452.661373461438
 24
1876.541318938881
 34
0.0
100
AcDbRotatedDimension
1001
ACAD
1000
DSTYLE
1002
{
1070
   178
1070
     2
1070
   177
1070
     3
1070
   176
1070
     3
1002
}
  0
ARC
  5
CC6
330
1F
100
AcDbEntity
  8
1
  6
Continuous
 62
     7
100
AcDbCircle
 10
4354.661373461437
 20
1876.541318938881
 30
0.0
 40
2.0
100
AcDbArc
 50
90.0
 51
180.0
  0
LINE
  5
CC7
330
1F
100
AcDbEntity
  8
1
  6
Continuous
 62
     7
100
AcDbLine
 10
4354.661373461437
 20
1878.541318938881
 30
0.0
 11
4450.661373461438
 21
1878.541318938881
 31
0.0
  0
LINE
  5
CC8
330
1F
100
AcDbEntity
  8
1
  6
Continuous
 62
     7
100
AcDbLine
 10
4352.661373461438
 20
1876.541318938881
 30
0.0
 11
4352.661373461438
 21
1805.541318938881
 31
0.0
  0
ARC
  5
CC9
330
1F
100
AcDbEntity
  8
1
  6
Continuous
 62
     7
100
AcDbCircle
 10
4450.661373461438
 20
1876.541318938881
 30
0.0
 40
2.0
100
AcDbArc
 50
0.0
 51
90.0
  0
LINE
  5
CCA
330
1F
100
AcDbEntity
  8
1
  6
Continuous
 62
     7
100
AcDbLine
 10
4452.661373461438
 20
1876.541318938881
 30
0.0
 11
4452.661373461438
 21
1805.541318938881
 31
0.0
  0
ARC
  5
CCB
330
1F
100
AcDbEntity
  8
1
  6
Continuous
 62
     7
100
AcDbCircle
 10
4637.658875942737
 20
1802.541818442681
 30
0.0
 40
200.0
100
AcDbArc
 50
158.7804553704003
 51
179.7136630078031
  0
ARC
  5
CCC
330
1F
100
AcDbEntity
  8
1
  6
Continuous
 62
     7
100
AcDbCircle
 10
4167.663870980137
 20
1802.541818442681
 30
0.0
 40
200.0
100
AcDbArc
 50
0.2863369921968482
 51
21.59803198249692
  0
ARC
  5
CCD
330
1F
100
AcDbEntity
  8
1
  6
Continuous
 62
     7
100
AcDbCircle
 10
4355.661373461437
 20
1797.541318938881
 30
0.0
 40
2.0
100
AcDbArc
 50
270.0
 51
0.0
  0
LINE
  5
CCE
330
1F
100
AcDbEntity
  8
1
  6
Continuous
 62
     7
100
AcDbLine
 10
4357.661373461438
 20
1797.541318938881
 30
0.0
 11
4357.661373461438
 21
1801.541318938881
 31
0.0
  0
ARC
  5
CCF
330
1F
100
AcDbEntity
  8
1
  6
Continuous
 62
     7
100
AcDbCircle
 10
4355.661373461437
 20
1801.541318938881
 30
0.0
 40
2.0
100
AcDbArc
 50
0.0
 51
90.0
  0
ARC
  5
CD0
330
1F
100
AcDbEntity
  8
1
  6
Continuous
 62
     7
100
AcDbCircle
 10
4449.661373461438
 20
1801.541318938881
 30
0.0
 40
2.0
100
AcDbArc
 50
90.0
 51
180.0
  0
LINE
  5
CD1
330
1F
100
AcDbEntity
  8
1
  6
Continuous
 62
     7
100
AcDbLine
 10
4447.661373461438
 20
1801.541318938881
 30
0.0
 11
4447.661373461438
 21
1797.541318938881
 31
0.0
  0
ARC
  5
CD2
330
1F
100
AcDbEntity
  8
1
  6
Continuous
 62
     7
100
AcDbCircle
 10
4449.661373461438
 20
1797.541318938881
 30
0.0
 40
2.0
100
AcDbArc
 50
180.0
 51
270.0
  0
ARC
  5
CD3
330
1F
100
AcDbEntity
  8
1
  6
Continuous
 62
     7
100
AcDbCircle
 10
4450.661373461438
 20
1793.541318938881
 30
0.0
 40
2.0
100
AcDbArc
 50
0.0
 51
90.0
  0
LINE
  5
CD4
330
1F
100
AcDbEntity
  8
1
  6
Continuous
 62
     7
100
AcDbLine
 10
4450.661373461438
 20
1795.541318938881
 30
0.0
 11
4354.661373461437
 21
1795.541318938881
 31
0.0
  0
ARC
  5
CD5
330
1F
100
AcDbEntity
  8
1
  6
Continuous
 62
     7
100
AcDbCircle
 10
4450.661373461438
 20
1805.541318938881
 30
0.0
 40
2.0
100
AcDbArc
 50
270.0
 51
0.0
  0
LINE
  5
CD6
330
1F
100
AcDbEntity
  8
1
  6
Continuous
 62
     7
100
AcDbLine
 10
4450.661373461438
 20
1803.541318938881
 30
0.0
 11
4354.661373461437
 21
1803.541318938881
 31
0.0
  0
ARC
  5
CD7
330
1F
100
AcDbEntity
  8
1
  6
Continuous
 62
     7
100
AcDbCircle
 10
4354.661373461437
 20
1793.541318938881
 30
0.0
 40
2.0
100
AcDbArc
 50
90.0
 51
180.0
  0
ARC
  5
CD8
330
1F
100
AcDbEntity
  8
1
  6
Continuous
 62
     7
100
AcDbCircle
 10
4354.661373461437
 20
1805.541318938881
 30
0.0
 40
2.0
100
AcDbArc
 50
180.0
 51
270.0
  0
ARC
  5
CD9
330
1F
100
AcDbEntity
  8
1
  6
Continuous
 62
     7
100
AcDbCircle
 10
4206.807306228737
 20
1793.541318938881
 30
0.0
 40
2.0
100
AcDbArc
 50
0.0
 51
90.0
  0
LINE
  5
CDA
330
1F
100
AcDbEntity
  8
1
  6
Continuous
 62
     7
100
AcDbLine
 10
4206.807306228737
 20
1795.541318938881
 30
0.0
 11
4060.807306228737
 21
1795.541318938881
 31
0.0
  0
LINE
  5
CDB
330
1F
100
AcDbEntity
  8
1
  6
Continuous
 62
     7
100
AcDbLine
 10
4208.807306228737
 20
1793.541318938881
 30
0.0
 11
4208.807306228737
 21
1218.541318938881
 31
0.0
  0
ARC
  5
CDC
330
1F
100
AcDbEntity
  8
1
  6
Continuous
 62
     7
100
AcDbCircle
 10
4206.779903825338
 20
1805.541318938881
 30
0.0
 40
2.0
100
AcDbArc
 50
270.0
 51
1.569943828297065
  0
ARC
  5
CDD
330
1F
100
AcDbEntity
  8
1
  6
Continuous
 62
     7
100
AcDbCircle
 10
4133.807306228738
 20
1803.541318938881
 30
0.0
 40
75.0
100
AcDbArc
 50
1.569943828297065
 51
178.4300561717029
  0
LINE
  5
CDE
330
1F
100
AcDbEntity
  8
1
  6
Continuous
 62
     7
100
AcDbLine
 10
4206.779903825338
 20
1803.541318938881
 30
0.0
 11
4060.834708632138
 21
1803.541318938881
 31
0.0
  0
ARC
  5
CDF
330
1F
100
AcDbEntity
  8
1
  6
Continuous
 62
     7
100
AcDbCircle
 10
4060.834708632138
 20
1805.541318938881
 30
0.0
 40
2.0
100
AcDbArc
 50
178.4300561717029
 51
270.0
  0
ARC
  5
CE0
330
1F
100
AcDbEntity
  8
1
  6
Continuous
 62
     7
100
AcDbCircle
 10
4060.807306228737
 20
1793.541318938881
 30
0.0
 40
2.0
100
AcDbArc
 50
90.0
 51
180.0
  0
LINE
  5
CE1
330
1F
100
AcDbEntity
  8
1
  6
Continuous
 62
     7
100
AcDbLine
 10
4058.807306228738
 20
1793.541318938881
 30
0.0
 11
4058.807306228738
 21
1218.541318938881
 31
0.0
  0
ARC
  5
CE2
330
1F
100
AcDbEntity
  8
1
  6
Continuous
 62
     7
100
AcDbCircle
 10
4205.807306228737
 20
1797.541318938881
 30
0.0
 40
2.0
100
AcDbArc
 50
180.0
 51
270.0
  0
LINE
  5
CE3
330
1F
100
AcDbEntity
  8
1
  6
Continuous
 62
     7
100
AcDbLine
 10
4203.807306228737
 20
1797.541318938881
 30
0.0
 11
4203.807306228737
 21
1801.541318938881
 31
0.0
  0
ARC
  5
CE4
330
1F
100
AcDbEntity
  8
1
  6
Continuous
 62
     7
100
AcDbCircle
 10
4205.807306228737
 20
1801.541318938881
 30
0.0
 40
2.0
100
AcDbArc
 50
90.0
 51
180.0
  0
ARC
  5
CE5
330
1F
100
AcDbEntity
  8
1
  6
Continuous
 62
     7
100
AcDbCircle
 10
4061.807306228738
 20
1801.541318938881
 30
0.0
 40
2.0
100
AcDbArc
 50
0.0
 51
90.0
  0
LINE
  5
CE6
330
1F
100
AcDbEntity
  8
1
  6
Continuous
 62
     7
100
AcDbLine
 10
4063.807306228738
 20
1801.541318938881
 30
0.0
 11
4063.807306228738
 21
1797.541318938881
 31
0.0
  0
ARC
  5
CE7
330
1F
100
AcDbEntity
  8
1
  6
Continuous
 62
     7
100
AcDbCircle
 10
4061.807306228738
 20
1797.541318938881
 30
0.0
 40
2.0
100
AcDbArc
 50
270.0
 51
0.0
  0
ARC
  5
CE8
330
1F
100
AcDbEntity
  8
1
  6
Continuous
 62
     7
100
AcDbCircle
 10
4061.807306228738
 20
1180.541318938881
 30
0.0
 40
2.0
100
AcDbArc
 50
270.0
 51
0.0
  0
LINE
  5
CE9
330
1F
100
AcDbEntity
  8
1
  6
Continuous
 62
     7
100
AcDbLine
 10
4063.807306228738
 20
1180.541318938881
 30
0.0
 11
4063.807306228738
 21
1182.541318938881
 31
0.0
  0
ARC
  5
CEA
330
1F
100
AcDbEntity
  8
1
  6
Continuous
 62
     7
100
AcDbCircle
 10
4061.807306228738
 20
1182.541318938881
 30
0.0
 40
2.0
100
AcDbArc
 50
0.0
 51
90.0
  0
ARC
  5
CEB
330
1F
100
AcDbEntity
  8
1
  6
Continuous
 62
     7
100
AcDbCircle
 10
4061.807306228738
 20
1196.541318938881
 30
0.0
 40
2.0
100
AcDbArc
 50
270.0
 51
0.0
  0
LINE
  5
CEC
330
1F
100
AcDbEntity
  8
1
  6
Continuous
 62
     7
100
AcDbLine
 10
4063.807306228738
 20
1196.541318938881
 30
0.0
 11
4063.807306228738
 21
1198.541318938881
 31
0.0
  0
ARC
  5
CED
330
1F
100
AcDbEntity
  8
1
  6
Continuous
 62
     7
100
AcDbCircle
 10
4061.807306228738
 20
1198.541318938881
 30
0.0
 40
2.0
100
AcDbArc
 50
0.0
 51
90.0
  0
ARC
  5
CEE
330
1F
100
AcDbEntity
  8
1
  6
Continuous
 62
     7
100
AcDbCircle
 10
4061.807306228738
 20
1212.541318938881
 30
0.0
 40
2.0
100
AcDbArc
 50
270.0
 51
0.0
  0
LINE
  5
CEF
330
1F
100
AcDbEntity
  8
1
  6
Continuous
 62
     7
100
AcDbLine
 10
4063.807306228738
 20
1212.541318938881
 30
0.0
 11
4063.807306228738
 21
1214.541318938881
 31
0.0
  0
ARC
  5
CF0
330
1F
100
AcDbEntity
  8
1
  6
Continuous
 62
     7
100
AcDbCircle
 10
4061.807306228738
 20
1214.541318938881
 30
0.0
 40
2.0
100
AcDbArc
 50
0.0
 51
90.0
  0
ARC
  5
CF1
330
1F
100
AcDbEntity
  8
1
  6
Continuous
 62
     7
100
AcDbCircle
 10
4205.807306228737
 20
1180.541318938881
 30
0.0
 40
2.0
100
AcDbArc
 50
180.0
 51
270.0
  0
LINE
  5
CF2
330
1F
100
AcDbEntity
  8
1
  6
Continuous
 62
     7
100
AcDbLine
 10
4203.807306228737
 20
1180.541318938881
 30
0.0
 11
4203.807306228737
 21
1182.541318938881
 31
0.0
  0
ARC
  5
CF3
330
1F
100
AcDbEntity
  8
1
  6
Continuous
 62
     7
100
AcDbCircle
 10
4205.807306228737
 20
1182.541318938881
 30
0.0
 40
2.0
100
AcDbArc
 50
90.0
 51
180.0
  0
ARC
  5
CF4
330
1F
100
AcDbEntity
  8
1
  6
Continuous
 62
     7
100
AcDbCircle
 10
4205.807306228737
 20
1196.541318938881
 30
0.0
 40
2.0
100
AcDbArc
 50
180.0
 51
270.0
  0
LINE
  5
CF5
330
1F
100
AcDbEntity
  8
1
  6
Continuous
 62
     7
100
AcDbLine
 10
4203.807306228737
 20
1196.541318938881
 30
0.0
 11
4203.807306228737
 21
1198.541318938881
 31
0.0
  0
ARC
  5
CF6
330
1F
100
AcDbEntity
  8
1
  6
Continuous
 62
     7
100
AcDbCircle
 10
4205.807306228737
 20
1198.541318938881
 30
0.0
 40
2.0
100
AcDbArc
 50
90.0
 51
180.0
  0
ARC
  5
CF7
330
1F
100
AcDbEntity
  8
1
  6
Continuous
 62
     7
100
AcDbCircle
 10
4205.807306228737
 20
1212.541318938881
 30
0.0
 40
2.0
100
AcDbArc
 50
180.0
 51
270.0
  0
LINE
  5
CF8
330
1F
100
AcDbEntity
  8
1
  6
Continuous
 62
     7
100
AcDbLine
 10
4203.807306228737
 20
1212.541318938881
 30
0.0
 11
4203.807306228737
 21
1214.541318938881
 31
0.0
  0
ARC
  5
CF9
330
1F
100
AcDbEntity
  8
1
  6
Continuous
 62
     7
100
AcDbCircle
 10
4205.807306228737
 20
1214.541318938881
 30
0.0
 40
2.0
100
AcDbArc
 50
90.0
 51
180.0
  0
ARC
  5
CFA
330
1F
100
AcDbEntity
  8
1
  6
Continuous
 62
     7
100
AcDbCircle
 10
4206.807306228737
 20
1218.541318938881
 30
0.0
 40
2.0
100
AcDbArc
 50
270.0
 51
0.0
  0
LINE
  5
CFB
330
1F
100
AcDbEntity
  8
1
  6
Continuous
 62
     7
100
AcDbLine
 10
4206.807306228737
 20
1216.541318938881
 30
0.0
 11
4060.807306228737
 21
1216.541318938881
 31
0.0
  0
ARC
  5
CFC
330
1F
100
AcDbEntity
  8
1
  6
Continuous
 62
     7
100
AcDbCircle
 10
4206.807306228737
 20
1208.541318938881
 30
0.0
 40
2.0
100
AcDbArc
 50
0.0
 51
90.0
  0
LINE
  5
CFD
330
1F
100
AcDbEntity
  8
1
  6
Continuous
 62
     7
100
AcDbLine
 10
4208.807306228737
 20
1208.541318938881
 30
0.0
 11
4208.807306228737
 21
1202.541318938881
 31
0.0
  0
LINE
  5
CFE
330
1F
100
AcDbEntity
  8
1
  6
Continuous
 62
     7
100
AcDbLine
 10
4206.807306228737
 20
1210.541318938881
 30
0.0
 11
4060.807306228737
 21
1210.541318938881
 31
0.0
  0
ARC
  5
CFF
330
1F
100
AcDbEntity
  8
1
  6
Continuous
 62
     7
100
AcDbCircle
 10
4206.807306228737
 20
1202.541318938881
 30
0.0
 40
2.0
100
AcDbArc
 50
270.0
 51
0.0
  0
LINE
  5
D00
330
1F
100
AcDbEntity
  8
1
  6
Continuous
 62
     7
100
AcDbLine
 10
4206.807306228737
 20
1200.541318938881
 30
0.0
 11
4060.807306228737
 21
1200.541318938881
 31
0.0
  0
ARC
  5
D01
330
1F
100
AcDbEntity
  8
1
  6
Continuous
 62
     7
100
AcDbCircle
 10
4206.807306228737
 20
1192.541318938881
 30
0.0
 40
2.0
100
AcDbArc
 50
0.0
 51
90.0
  0
LINE
  5
D02
330
1F
100
AcDbEntity
  8
1
  6
Continuous
 62
     7
100
AcDbLine
 10
4208.807306228737
 20
1192.541318938881
 30
0.0
 11
4208.807306228737
 21
1186.541318938881
 31
0.0
  0
LINE
  5
D03
330
1F
100
AcDbEntity
  8
1
  6
Continuous
 62
     7
100
AcDbLine
 10
4206.807306228737
 20
1194.541318938881
 30
0.0
 11
4060.807306228737
 21
1194.541318938881
 31
0.0
  0
ARC
  5
D04
330
1F
100
AcDbEntity
  8
1
  6
Continuous
 62
     7
100
AcDbCircle
 10
4206.807306228737
 20
1186.541318938881
 30
0.0
 40
2.0
100
AcDbArc
 50
270.0
 51
0.0
  0
LINE
  5
D05
330
1F
100
AcDbEntity
  8
1
  6
Continuous
 62
     7
100
AcDbLine
 10
4206.807306228737
 20
1184.541318938881
 30
0.0
 11
4060.807306228737
 21
1184.541318938881
 31
0.0
  0
ARC
  5
D06
330
1F
100
AcDbEntity
  8
1
  6
Continuous
 62
     7
100
AcDbCircle
 10
4206.807306228737
 20
1176.541318938881
 30
0.0
 40
2.0
100
AcDbArc
 50
0.0
 51
90.0
  0
LINE
  5
D07
330
1F
100
AcDbEntity
  8
1
  6
Continuous
 62
     7
100
AcDbLine
 10
4206.807306228737
 20
1178.541318938881
 30
0.0
 11
4060.807306228737
 21
1178.541318938881
 31
0.0
  0
LINE
  5
D08
330
1F
100
AcDbEntity
  8
1
  6
Continuous
 62
     7
100
AcDbLine
 10
4208.807306228737
 20
1176.541318938881
 30
0.0
 11
4208.807306228737
 21
1118.541318938881
 31
0.0
  0
ARC
  5
D09
330
1F
100
AcDbEntity
  8
1
  6
Continuous
 62
     7
100
AcDbCircle
 10
4060.807306228737
 20
1176.541318938881
 30
0.0
 40
2.0
100
AcDbArc
 50
90.0
 51
180.0
  0
LINE
  5
D0A
330
1F
100
AcDbEntity
  8
1
  6
Continuous
 62
     7
100
AcDbLine
 10
4058.807306228738
 20
1176.541318938881
 30
0.0
 11
4058.807306228738
 21
1118.541318938881
 31
0.0
  0
ARC
  5
D0B
330
1F
100
AcDbEntity
  8
1
  6
Continuous
 62
     7
100
AcDbCircle
 10
4060.807306228737
 20
1186.541318938881
 30
0.0
 40
2.0
100
AcDbArc
 50
180.0
 51
270.0
  0
LINE
  5
D0C
330
1F
100
AcDbEntity
  8
1
  6
Continuous
 62
     7
100
AcDbLine
 10
4058.807306228738
 20
1186.541318938881
 30
0.0
 11
4058.807306228738
 21
1192.541318938881
 31
0.0
  0
ARC
  5
D0D
330
1F
100
AcDbEntity
  8
1
  6
Continuous
 62
     7
100
AcDbCircle
 10
4060.807306228737
 20
1192.541318938881
 30
0.0
 40
2.0
100
AcDbArc
 50
90.0
 51
180.0
  0
ARC
  5
D0E
330
1F
100
AcDbEntity
  8
1
  6
Continuous
 62
     7
100
AcDbCircle
 10
4060.807306228737
 20
1202.541318938881
 30
0.0
 40
2.0
100
AcDbArc
 50
180.0
 51
270.0
  0
LINE
  5
D0F
330
1F
100
AcDbEntity
  8
1
  6
Continuous
 62
     7
100
AcDbLine
 10
4058.807306228738
 20
1202.541318938881
 30
0.0
 11
4058.807306228738
 21
1208.541318938881
 31
0.0
  0
ARC
  5
D10
330
1F
100
AcDbEntity
  8
1
  6
Continuous
 62
     7
100
AcDbCircle
 10
4060.807306228737
 20
1208.541318938881
 30
0.0
 40
2.0
100
AcDbArc
 50
90.0
 51
180.0
  0
ARC
  5
D11
330
1F
100
AcDbEntity
  8
1
  6
Continuous
 62
     7
100
AcDbCircle
 10
4060.807306228737
 20
1218.541318938881
 30
0.0
 40
2.0
100
AcDbArc
 50
180.0
 51
270.0
  0
LINE
  5
D12
330
1F
100
AcDbEntity
  8
1
  6
Continuous
 62
     7
100
AcDbLine
 10
4208.807306228737
 20
1118.541318938881
 30
0.0
 11
4213.807306228737
 21
1108.541318938881
 31
0.0
  0
LINE
  5
D13
330
1F
100
AcDbEntity
  8
1
  6
Continuous
 62
     7
100
AcDbLine
 10
4058.807306228738
 20
1118.541318938881
 30
0.0
 11
4208.807306228737
 21
1118.541318938881
 31
0.0
  0
LINE
  5
D14
330
1F
100
AcDbEntity
  8
1
  6
Continuous
 62
     7
100
AcDbLine
 10
4053.807306228737
 20
1108.541318938881
 30
0.0
 11
4058.807306228738
 21
1118.541318938881
 31
0.0
  0
LINE
  5
D15
330
1F
100
AcDbEntity
  8
1
  6
Continuous
 62
     7
100
AcDbLine
 10
4213.807306228737
 20
1108.541318938881
 30
0.0
 11
4053.807306228737
 21
1108.541318938881
 31
0.0
  0
DIMENSION
  5
1149
330
1F
100
AcDbEntity
  8
AM_5
100
AcDbDimension
  2
*D23
 10
4208.807306228737
 20
1927.275826091673
 30
0.0
 11
4133.807306228738
 21
1946.025826091673
 31
0.0
 70
    32
 71
     5
 42
150.0
  3
IGS
100
AcDbAlignedDimension
 13
4058.807306228738
 23
1793.541318938881
 33
0.0
 14
4208.807306228737
 24
1793.541318938881
 34
0.0
100
AcDbRotatedDimension
  0
DIMENSION
  5
1171
330
1F
100
AcDbEntity
  8
AM_5
100
AcDbDimension
  2
*D24
 10
3835.807306228737
 20
1078.541318938881
 30
0.0
 11
3817.057306228738
 21
1478.541318938882
 31
0.0
 70
    32
 71
     5
 42
799.9999999999998
  3
IGS
100
AcDbAlignedDimension
 13
4133.807306228738
 23
1878.541318938881
 33
0.0
 14
3874.8228376172
 24
1078.541318938881
 34
0.0
 50
90.0
100
AcDbRotatedDimension
  0
DIMENSION
  5
11B2
330
1F
100
AcDbEntity
  8
AM_5
100
AcDbDimension
  2
*D25
 10
3835.807306228737
 20
778.5413189388813
 30
0.0
 11
3817.057306228738
 21
928.5413189388819
 31
0.0
 70
    32
 71
     5
 42
300.0
  3
IGS
100
AcDbAlignedDimension
 13
3823.107914436638
 23
1078.541318938881
 33
0.0
 14
4053.807306228737
 24
778.5413189388812
 34
0.0
 50
90.0
100
AcDbRotatedDimension
  0
DIMENSION
  5
11DA
330
1F
100
AcDbEntity
  8
AM_5
100
AcDbDimension
  2
*D26
 10
3750.882069664977
 20
778.5413189388813
 30
0.0
 11
3732.132069664976
 21
1328.541318938882
 31
0.0
 70
    32
 71
     5
 42
1100.0
  3
IGS
100
AcDbAlignedDimension
 13
4133.807306228738
 23
1878.541318938881
 33
0.0
 14
4053.807306228737
 24
778.5413189388812
 34
0.0
 50
90.0
100
AcDbRotatedDimension
  0
DIMENSION
  5
1211
330
1F
100
AcDbEntity
  8
AM_5
100
AcDbDimension
  2
*D27
 10
4213.807306228737
 20
537.296485264821
 30
0.0
 11
4133.807306228738
 21
556.046485264821
 31
0.0
 70
    32
 71
     5
 42
160.0
  3
IGS
100
AcDbAlignedDimension
 13
4053.807306228737
 23
778.7864560232178
 33
0.0
 14
4213.807306228737
 24
778.5413189388812
 34
0.0
100
AcDbRotatedDimension
  0
DIMENSION
  5
126F
330
1F
100
AcDbEntity
  8
AM_5
100
AcDbDimension
  2
*D28
 10
4333.807306228737
 20
467.8102336666843
 30
0.0
 11
4133.807306228738
 21
486.5602336666843
 31
0.0
 70
    32
  1
{\Famgdt;o}<>
 71
     5
 42
400.0
  3
IGS
100
AcDbAlignedDimension
 13
3933.807306228738
 23
678.5413189388812
 33
0.0
 14
4333.807306228737
 24
677.9549367370812
 34
0.0
100
AcDbRotatedDimension
  0
DIMENSION
  5
12A1
330
1F
100
AcDbEntity
  8
AM_5
100
AcDbDimension
  2
*D29
 10
4531.807306228738
 20
678.5413189388812
 30
0.0
 11
4513.057306228737
 21
878.5413189388819
 31
0.0
 70
    32
 71
     5
 42
399.9999999999999
  3
IGS
100
AcDbAlignedDimension
 13
4437.284212417437
 23
1078.541318938881
 33
0.0
 14
4383.807306228738
 24
678.5413189388812
 34
0.0
 50
90.0
100
AcDbRotatedDimension
1001
ACAD
1000
DSTYLE
1002
{
1070
   174
1070
     1
1002
}
  0
DIMENSION
  5
12CD
330
1F
100
AcDbEntity
  8
AM_5
100
AcDbDimension
  2
*D30
 10
4531.807306228738
 20
678.5413189388812
 30
0.0
 11
4513.057306228737
 21
628.541318938882
 31
0.0
 70
    32
 71
     5
 42
100.0
  3
IGS
100
AcDbAlignedDimension
 13
4383.807306228738
 23
578.5413189388812
 33
0.0
 14
4383.807306228738
 24
678.5413189388812
 34
0.0
 50
90.0
100
AcDbRotatedDimension
1001
ACAD
1000
DSTYLE
1002
{
1070
   174
1070
     1
1002
}
  0
INSERT
  5
132C
102
{ACAD_REACTORS
330
1329
102
}
330
1F
100
AcDbEntity
  8
AM_12
100
AcDbBlockReference
  2
*S32
 10
0.0
 20
0.0
 30
0.0
  0
INSERT
  5
133A
330
1F
100
AcDbEntity
  8
0
370
     0
100
AcDbBlockReference
  2
IGS_A3
 10
3530.296745333018
 20
2267.57730108668
 30
0.0
 41
5.0
 42
5.0
 43
5.0
 50
270.0
1001
GENIUS_GENOREF_13
1005
1344
1001
GENIUS_GENODEF_13
1002
{
1000
HIER
1070
     0
1002
}
1002
{
1000
MANEDIT
1070
     0
1002
}
1002
{
1000
NOSEL
1070
     0
1002
}
1002
{
1000
BEHIND
1070
     0
1002
}
1002
{
1000
OTHER
1070
     0
1002
}
1002
{
1000
REACTOR
1002
}
1001
GENIUS_GENOBJ-N-SDF_13
1002
{
1000
OWNER
1000
GEN
1002
}
1001
GENIUS_GENSCREG_15
1040
5.0
1040
1.0
1011
3530.296745333018
1021
2267.577301086681
1031
0.0
1011
5015.296745333017
1021
167.5773010866803
1031
0.0
1070
     3
  0
INSERT
  5
133B
330
1F
100
AcDbEntity
  8
0
370
     0
100
AcDbBlockReference
 66
     1
  2
IGS2
 10
4965.296745333017
 20
217.5773010866797
 30
0.0
 41
5.0
 42
5.0
 43
5.0
1001
GENIUS_GENOREF_13
1005
1344
  0
ATTRIB
  5
133D
330
133B
100
AcDbEntity
  8
RAHM3
100
AcDbText
 10
4228.998811767089
 20
377.31374607761
 30
0.0
 40
20.0
  1
1:5
100
AcDbAttribute
  2
GEN-TITLE-SCA
 70
     0
  0
ATTRIB
  5
133E
330
133B
100
AcDbEntity
  8
RAHM3
100
AcDbText
 10
4599.846745333016
 20
366.2773010866796
 30
0.0
 40
25.0
  1
車止め（固定式）
100
AcDbAttribute
  2
ＴＩＴＬＥ
 70
     0
  0
ATTRIB
  5
133F
330
133B
100
AcDbEntity
  8
RAHM3
100
AcDbText
 10
4607.482354553814
 20
326.5992167222489
 30
0.0
 40
15.0
  1
IGP-04
100
AcDbAttribute
  2
ｃｏｄｅ
 70
     0
  0
ATTRIB
  5
1340
330
133B
100
AcDbEntity
  8
RAHM3
100
AcDbText
 10
4611.572712863201
 20
291.5992167222125
 30
0.0
 40
15.0
  1

100
AcDbAttribute
  2
件名
 70
     0
  0
ATTRIB
  5
1341
330
133B
100
AcDbEntity
  8
RAHM3
100
AcDbText
 10
4599.846745333016
 20
226.2773010866433
 30
0.0
 40
25.0
  1
Ｔ２１Ａ００６４１
100
AcDbAttribute
  2
Ｎｏ．
 70
     0
  0
ATTRIB
  5
1342
330
133B
100
AcDbEntity
  8
RAHM3
100
AcDbText
 10
4463.046745333016
 20
304.6127476923124
 30
0.0
 40
20.0
  1
滝沢
100
AcDbAttribute
  2
ＤＲ
 70
     0
  0
ATTRIB
  5
1343
330
133B
100
AcDbEntity
  8
RAHM3
100
AcDbText
 10
4446.706318813652
 20
281.4273010866796
 30
0.0
 40
15.0
  1
９６．１２．４
 41
0.8000000000000001
100
AcDbAttribute
  2
ｄａｔｅ
 70
     0
  0
SEQEND
  5
133C
330
133B
100
AcDbEntity
  8
0
370
     0
  0
POINT
  5
1344
330
1F
100
AcDbEntity
  8
0
 60
     1
100
AcDbPoint
 10
0.0
 20
0.0
 30
0.0
1001
GENIUS_GENOLIS_13
1002
{
1000
ENT
1005
133B
1005
133A
1002
}
1001
GENIUS_GENOENT_13
1002
{
1000
MYREF
1005
1344
1002
}
1002
{
1000
GRP
1005
0
1002
}
1001
GENIUS_GENOBJ-N-TIT_13
1002
{
1000
OWNER
1000
GEN
1002
}
1001
GENIUS_GENODEF_13
1002
{
1000
HIER
1070
     1
1002
}
1002
{
1000
MANEDIT
1070
     0
1002
}
1002
{
1000
NOSEL
1070
     0
1002
}
1002
{
1000
BEHIND
1070
     0
1002
}
1002
{
1000
OTHER
1070
     0
1002
}
1002
{
1000
REACTOR
1002
}
1001
GENIUS_GENTITLE_13
1002
{
1000
BORDER
1000
C:\WINNT\Profiles\Administrator\Application Data\Autodesk\AutoCAD\Recent\format\igs_a3
1002
}
1002
{
1000
TITLE
1000
C:\WINNT\Profiles\Administrator\Application Data\Autodesk\AutoCAD\Recent\format\IGS2
1002
}
1002
{
1000
SCALE
1000
1:5
1002
}
1002
{
1000
TITLESTD
1000
IGS
1002
}
1002
{
1000
HRA
1005
133A
1002
}
1002
{
1000
HTIT
1005
133B
1002
}
1002
{
1000
UNCHG
1002
{
1000
GEN-TITLE-SIZ
1000
GEN-TITLE-SCA
1002
}
1002
}
1002
{
1000
GENIUSID
1005
1344
1002
}
  0
HATCH
  5
1579
330
1F
100
AcDbEntity
  8
AM_8
100
AcDbHatch
 10
0.0
 20
0.0
 30
0.0
210
0.0
220
0.0
230
1.0
  2
PLAST
 70
     0
 71
     0
 91
        1
 92
        1
 93
       20
 72
     1
 10
4213.807306228737
 20
788.5413189388811
 11
4213.807306228737
 21
778.5413189388812
 72
     1
 10
4213.807306228737
 20
778.5413189388812
 11
4053.807306228737
 21
778.5413189388812
 72
     1
 10
4053.807306228737
 20
778.5413189388812
 11
4053.807306228737
 21
788.5413189388811
 72
     1
 10
4053.807306228737
 20
788.5413189388811
 11
4058.807306228738
 21
788.5413189388811
 72
     1
 10
4058.807306228738
 20
788.5413189388811
 11
4058.807306228738
 21
1006.541318938881
 72
     2
 10
4056.807306228737
 20
1006.541318938881
 40
2.0
 50
0.0
 51
90.0
 73
     1
 72
     1
 10
4056.807306228737
 20
1008.541318938881
 11
4055.807306228738
 21
1008.541318938881
 72
     2
 10
4055.807306228738
 20
1010.541318938881
 40
2.0
 50
90.0
 51
180.0
 73
     0
 72
     1
 10
4053.807306228737
 20
1010.541318938881
 11
4053.807306228737
 21
1078.541318938881
 72
     1
 10
4053.807306228737
 20
1078.541318938881
 11
3933.807306228738
 21
1078.541318938881
 72
     1
 10
3933.807306228738
 20
1078.541318938881
 11
3933.807306228738
 21
678.5413189388812
 72
     1
 10
3933.807306228738
 20
678.5413189388812
 11
4333.807306228737
 21
678.5413189388812
 72
     1
 10
4333.807306228737
 20
678.5413189388812
 11
4333.807306228737
 21
1078.541318938881
 72
     1
 10
4333.807306228737
 20
1078.541318938881
 11
4213.807306228737
 21
1078.541318938881
 72
     1
 10
4213.807306228737
 20
1078.541318938881
 11
4213.807306228737
 21
1010.541318938881
 72
     2
 10
4211.807306228737
 20
1010.541318938881
 40
2.0
 50
360.0
 51
450.0
 73
     0
 72
     1
 10
4211.807306228737
 20
1008.541318938881
 11
4210.807306228737
 21
1008.541318938881
 72
     2
 10
4210.807306228737
 20
1006.541318938881
 40
2.0
 50
90.0
 51
180.0
 73
     1
 72
     1
 10
4208.807306228737
 20
1006.541318938881
 11
4208.807306228737
 21
788.5413189388811
 72
     1
 10
4208.807306228737
 20
788.5413189388811
 11
4213.807306228737
 21
788.5413189388811
 97
        0
 75
     0
 76
     1
 52
45.0
 41
20.0
 77
     0
 78
     3
 53
45.0
 43
0.0
 44
0.0
 45
-89.80256121069151
 46
89.80256121069153
 79
     0
 53
45.0
 43
-11.22532015133644
 44
11.22532015133644
 45
-89.80256121069151
 46
89.80256121069153
 79
     0
 53
45.0
 43
-22.45064030267288
 44
22.45064030267288
 45
-89.80256121069151
 46
89.80256121069153
 79
     0
 98
        1
 10
0.0
 20
0.0
1001
GENIUS_GENOBJ-N-HTC_13
1002
{
1000
OWNER
1000
GEN
1002
}
1001
GENIUS_GENODEF_13
1002
{
1000
HIER
1070
     0
1002
}
1002
{
1000
MANEDIT
1070
     0
1002
}
1002
{
1000
NOSEL
1070
     0
1002
}
1002
{
1000
BEHIND
1070
     0
1002
}
1002
{
1000
OTHER
1070
     0
1002
}
1002
{
1000
REACTOR
1002
}
1001
GENIUS_GENHATCH_13
1002
{
1000
DATA
1040
45.0
1042
4.0
1000
PLAST
1070
     0
1011
4234.201117550004
1021
993.6953391541706
1031
0.0
1002
}
1002
{
1000
UCS
1010
0.0
1020
0.0
1030
0.0
1010
1.0
1020
0.0
1030
0.0
1010
0.0
1020
1.0
1030
0.0
1002
}
  0
INSERT
  5
15AD
330
1F
100
AcDbEntity
  8
SUNPO
100
AcDbBlockReference
 66
     1
  2
Xsec
 10
4254.114272498738
 20
1313.993450515581
 30
0.0
 41
5.0
 42
5.0
  0
ATTRIB
  5
15AF
330
15AD
100
AcDbEntity
  8
0
  6
Continuous
 62
     7
100
AcDbText
 10
4271.914272498738
 20
1295.993450515581
 30
0.0
 40
16.0
  1
A
 72
     4
 11
4279.114272498738
 21
1303.993450515581
 31
0.0
100
AcDbAttribute
  2
XSEC
 70
     0
  0
SEQEND
  5
15AE
330
15AD
100
AcDbEntity
  8
SUNPO
  0
MTEXT
  5
15B3
330
1F
100
AcDbEntity
  8
AM_6
 62
    30
370
    70
100
AcDbMText
 10
4620.553981536648
 20
1424.099789163935
 30
0.0
 40
35.0
 41
335.1825237481362
 71
     1
 72
     5
  1
{\C7;A矢視図}
 73
     1
 44
1.0
1001
GENIUS_AMGTXT_16
1040
7.0
1040
0.24
  0
ATTDEF
  5
1601
330
1F
100
AcDbEntity
  8
RAHM3
100
AcDbText
 10
4321.706318813652
 20
281.4273010866795
 30
0.0
 40
15.0
  1

 41
0.8
100
AcDbAttributeDefinition
  3
日付
  2
９６．１２．４
 70
     0
  0
ATTDEF
  5
1602
330
1F
100
AcDbEntity
  8
RAHM3
100
AcDbText
 10
4338.046745333016
 20
304.6127476923125
 30
0.0
 40
20.0
  1

100
AcDbAttributeDefinition
  3
製図者
  2
滝沢
 70
     0
  0
ATTDEF
  5
1603
330
1F
100
AcDbEntity
  8
RAHM3
100
AcDbText
 10
4321.706318813652
 20
351.4273010867025
 30
0.0
 40
15.0
  1

 41
0.8
100
AcDbAttributeDefinition
  3
日付
  2
９６．１２．４
 70
     0
  0
ATTDEF
  5
1604
330
1F
100
AcDbEntity
  8
RAHM3
100
AcDbText
 10
4338.046745333016
 20
374.6127476923355
 30
0.0
 40
20.0
  1

100
AcDbAttributeDefinition
  3
製図者
  2
篠崎
 70
     0
  0
ATTDEF
  5
1605
330
1F
100
AcDbEntity
  8
RAHM3
100
AcDbText
 10
4446.706318813652
 20
351.4273010867025
 30
0.0
 40
15.0
  1

 41
0.8
100
AcDbAttributeDefinition
  3
日付
  2
９６．１２．４
 70
     0
  0
ATTDEF
  5
1606
330
1F
100
AcDbEntity
  8
RAHM3
100
AcDbText
 10
4463.046745333016
 20
374.6127476923355
 30
0.0
 40
20.0
  1

100
AcDbAttributeDefinition
  3
製図者
  2
鈴木
 70
     0
  0
INSERT
  5
162B
102
{ACAD_REACTORS
330
132F
102
}
330
1F
100
AcDbEntity
  8
AM_5
100
AcDbBlockReference
  2
*S33
 10
0.0
 20
0.0
 30
0.0
  0
INSERT
  5
162C
102
{ACAD_REACTORS
330
4A6
102
}
330
1F
100
AcDbEntity
  8
0
100
AcDbBlockReference
  2
*S34
 10
0.0
 20
0.0
 30
0.0
  0
ENDSEC
  0
SECTION
  2
OBJECTS
  0
DICTIONARY
  5
C
330
0
100
AcDbDictionary
281
     1
  3
ACAD_COLOR
350
985
  3
ACAD_GROUP
350
D
  3
ACAD_LAYOUT
350
1A
  3
ACAD_MATERIAL
350
984
  3
ACAD_MLINESTYLE
350
17
  3
ACAD_PLOTSETTINGS
350
19
  3
ACAD_PLOTSTYLENAME
350
E
  3
AcDbVariableDictionary
350
43
  3
AcmDictionary
350
55
  3
AMG
350
2B
  3
AMGSNAPSETTINGS
350
A8
  3
ASE_INDEX_DICTIONARY
350
942
  0
DICTIONARY
  5
1575
330
2
100
AcDbDictionary
280
     1
281
     1
  3
AMLAYER_GROUPCOLORS
360
1576
  0
DICTIONARY
  5
B1
330
1F
100
AcDbDictionary
280
     1
281
     1
  3
ACAD_INDEX
360
15B7
  0
DICTIONARY
  5
985
102
{ACAD_REACTORS
330
C
102
}
330
C
100
AcDbDictionary
281
     1
  0
DICTIONARY
  5
D
102
{ACAD_REACTORS
330
C
102
}
330
C
100
AcDbDictionary
281
     1
  0
DICTIONARY
  5
1A
102
{ACAD_REACTORS
330
C
102
}
330
C
100
AcDbDictionary
281
     1
  3
Model
350
22
  3
ﾚｲｱｳﾄ1
350
1E
  3
ﾚｲｱｳﾄ2
350
26
  0
DICTIONARY
  5
984
102
{ACAD_REACTORS
330
C
102
}
330
C
100
AcDbDictionary
281
     1
  0
DICTIONARY
  5
17
102
{ACAD_REACTORS
330
C
102
}
330
C
100
AcDbDictionary
281
     1
  3
Standard
350
18
  0
DICTIONARY
  5
19
102
{ACAD_REACTORS
330
C
102
}
330
C
100
AcDbDictionary
281
     1
  0
ACDBDICTIONARYWDFLT
  5
E
102
{ACAD_REACTORS
330
C
102
}
330
C
100
AcDbDictionary
281
     1
  3
Normal
350
F
100
AcDbDictionaryWithDefault
340
F
  0
DICTIONARY
  5
43
102
{ACAD_REACTORS
330
C
102
}
330
C
100
AcDbDictionary
281
     1
  3
INDEXCTL
350
44
  3
SORTENTS
350
774
  0
DICTIONARY
  5
55
102
{ACAD_REACTORS
330
C
102
}
330
C
100
AcDbDictionary
281
     1
  3
AcmBOM
350
3D1
  3
AcmStdDictionary
350
59
  3
AMDTSECTSYM_ARROWCOLOR
350
98E
  0
DICTIONARY
  5
2B
102
{ACAD_REACTORS
330
C
102
}
330
C
100
AcDbDictionary
281
     1
  0
DICTIONARY
  5
A8
102
{ACAD_REACTORS
330
C
102
}
330
C
100
AcDbDictionary
281
     1
  0
DICTIONARY
  5
942
102
{ACAD_REACTORS
330
C
102
}
330
C
100
AcDbDictionary
281
     1
  3
ASEBlockHierarchyIndexRecord
350
944
1001
DCO15
1040
1418113613.734
  0
DICTIONARY
  5
1576
102
{ACAD_REACTORS
330
1575
102
}
330
1575
100
AcDbDictionary
280
     1
281
     1
  0
DICTIONARY
  5
15B7
102
{ACAD_REACTORS
330
B1
102
}
330
B1
100
AcDbDictionary
281
     1
  3
*A1
350
15B8
  0
LAYOUT
  5
22
102
{ACAD_REACTORS
330
1A
102
}
330
1A
100
AcDbPlotSettings
  1

  2
\\PC01\CASIO SPEEDIA N4
  4
A3
  6
AM_VIEW1
 40
5.873749732971191
 41
5.958403587341308
 42
5.958404541015625
 43
5.873748779296875
 44
296.9259948730469
 45
419.9466552734374
 46
9.609999999999999
 47
0.0
 48
0.0
 49
0.0
140
0.0
141
0.0
142
1.0
143
3.458210785390119
 70
 11956
 72
     1
 73
     1
 74
     0
  7
monochrome.ctb
 75
     0
147
0.2891668732931762
 76
     0
 77
     2
 78
   300
148
295.8822165187813
149
247.9752015480118
100
AcDbLayout
  1
Model
 70
     1
 71
     0
 10
0.0
 20
0.0
 11
12.0
 21
9.0
 12
0.0
 22
0.0
 32
0.0
 14
0.0
 24
0.0
 34
0.0
 15
0.0
 25
0.0
 35
0.0
146
0.0
 13
0.0
 23
0.0
 33
0.0
 16
1.0
 26
0.0
 36
0.0
 17
0.0
 27
1.0
 37
0.0
 76
     0
330
1F
  0
LAYOUT
  5
1E
102
{ACAD_REACTORS
330
1A
102
}
330
1A
100
AcDbPlotSettings
  1

  2
MUTOH RL-803C(ﾌﾟﾛｯﾀﾓｰﾄﾞ)
  4

  6

 40
0.0
 41
0.0
 42
0.0
 43
0.0
 44
0.0
 45
0.0
 46
0.0
 47
0.0
 48
0.0
 49
0.0
140
0.0
141
0.0
142
1.0
143
1.0
 70
   688
 72
     0
 73
     0
 74
     5
  7
monochrome.ctb
 75
    16
147
1.0
 76
     0
 77
     2
 78
   300
148
0.0
149
0.0
100
AcDbLayout
  1
ﾚｲｱｳﾄ1
 70
     1
 71
     1
 10
0.0
 20
0.0
 11
420.0
 21
297.0
 12
0.0
 22
0.0
 32
0.0
 14
1.000000000000000E+20
 24
1.000000000000000E+20
 34
1.000000000000000E+20
 15
-1.000000000000000E+20
 25
-1.000000000000000E+20
 35
-1.000000000000000E+20
146
0.0
 13
0.0
 23
0.0
 33
0.0
 16
1.0
 26
0.0
 36
0.0
 17
0.0
 27
1.0
 37
0.0
 76
     0
330
1B
  0
LAYOUT
  5
26
102
{ACAD_REACTORS
330
1A
102
}
330
1A
100
AcDbPlotSettings
  1

  2
MUTOH RL-803C(ﾌﾟﾛｯﾀﾓｰﾄﾞ)
  4

  6

 40
0.0
 41
0.0
 42
0.0
 43
0.0
 44
0.0
 45
0.0
 46
0.0
 47
0.0
 48
0.0
 49
0.0
140
0.0
141
0.0
142
1.0
143
1.0
 70
   688
 72
     0
 73
     0
 74
     5
  7
monochrome.ctb
 75
    16
147
1.0
 76
     0
 77
     2
 78
   300
148
0.0
149
0.0
100
AcDbLayout
  1
ﾚｲｱｳﾄ2
 70
     1
 71
     2
 10
0.0
 20
0.0
 11
12.0
 21
9.0
 12
0.0
 22
0.0
 32
0.0
 14
0.0
 24
0.0
 34
0.0
 15
0.0
 25
0.0
 35
0.0
146
0.0
 13
0.0
 23
0.0
 33
0.0
 16
1.0
 26
0.0
 36
0.0
 17
0.0
 27
1.0
 37
0.0
 76
     0
330
23
  0
MLINESTYLE
  5
18
102
{ACAD_REACTORS
330
17
102
}
330
17
100
AcDbMlineStyle
  2
STANDARD
 70
     0
  3

 62
   256
 51
90.0
 52
90.0
 71
     2
 49
0.5
 62
   256
  6
BYLAYER
 49
-0.5
 62
   256
  6
BYLAYER
  0
ACDBPLACEHOLDER
  5
F
102
{ACAD_REACTORS
330
E
102
}
330
E
  0
DICTIONARYVAR
  5
44
102
{ACAD_REACTORS
330
43
102
}
330
43
100
DictionaryVariables
280
     0
  1
1
  0
DICTIONARYVAR
  5
774
102
{ACAD_REACTORS
330
43
102
}
330
43
100
DictionaryVariables
280
     0
  1
96
  0
DICTIONARY
  5
3D1
102
{ACAD_REACTORS
330
55
102
}
330
55
100
AcDbDictionary
281
     1
  0
DICTIONARY
  5
59
102
{ACAD_REACTORS
330
55
102
}
330
55
100
AcDbDictionary
281
     1
  0
XRECORD
  5
98E
102
{ACAD_REACTORS
330
55
102
}
330
55
100
AcDbXrecord
280
     1
 90
-1023410169
  0
XRECORD
  5
944
102
{ACAD_REACTORS
330
942
102
}
330
942
100
AcDbXrecord
280
     1
330
52F
330
537
330
5FB
330
603
  0
LAYER_INDEX
  5
15B8
102
{ACAD_REACTORS
330
15B7
102
}
330
15B7
100
AcDbIndex
 40
2454714.736253253
100
AcDbLayerIndex
  8
0
360
15B9
 90
        4
  8
RAHM2
360
15BA
 90
        0
  8
AM_BOR
360
15BB
 90
        0
  8
RAHM3
360
15BC
 90
        6
  8
RAHM5
360
15BD
 90
        0
  8
1
360
15BE
 90
      257
  8
DEFPOINTS
360
15BF
 90
        0
  8
7A
360
15C0
 90
        0
  8
AM_5
360
15C1
 90
        9
  8
AM_7
360
15C2
 90
        4
  8
AM_12
360
15C3
 90
        1
  8
AM_PAREF
360
15C4
 90
        0
  8
AM_8
360
15C5
 90
        1
  8
AM_0
360
15C6
 90
        0
  8
AM_4
360
15C7
 90
        0
  8
SUNPO
360
15C8
 90
        1
  8
AM_6
360
15C9
 90
        1
  8
AM_3
360
1607
 90
        0
  0
IDBUFFER
  5
15B9
330
0
100
AcDbIdBuffer
330
162C
330
133A
330
133B
330
1344
  0
IDBUFFER
  5
15BA
330
0
100
AcDbIdBuffer
  0
IDBUFFER
  5
15BB
330
0
100
AcDbIdBuffer
  0
IDBUFFER
  5
15BC
330
0
100
AcDbIdBuffer
330
1601
330
1602
330
1603
330
1604
330
1605
330
1606
  0
IDBUFFER
  5
15BD
330
0
100
AcDbIdBuffer
  0
IDBUFFER
  5
15BE
330
0
100
AcDbIdBuffer
330
D05
330
D06
330
D07
330
D08
330
D09
330
D0A
330
D0B
330
D0C
330
D0D
330
D0E
330
D0F
330
D10
330
D11
330
D12
330
D13
330
D14
330
D15
330
D04
330
D03
330
D02
330
D01
330
D00
330
CFF
330
CFE
330
CFD
330
CFC
330
CFB
330
CFA
330
CF9
330
CF8
330
CF7
330
CF6
330
CF5
330
CF4
330
CF3
330
CF2
330
BFD
330
BFE
330
BFF
330
C00
330
C03
330
C04
330
C05
330
C06
330
C07
330
C08
330
C09
330
C0A
330
C0B
330
C0C
330
C0D
330
C0E
330
C0F
330
C10
330
C11
330
C12
330
C13
330
C14
330
C15
330
C16
330
C17
330
C18
330
C19
330
C1A
330
C1B
330
C1C
330
C1D
330
C1E
330
C1F
330
C20
330
C21
330
C22
330
C23
330
C24
330
C25
330
C26
330
C27
330
C28
330
C29
330
C2A
330
C2B
330
C2C
330
C2D
330
C2E
330
C2F
330
C30
330
C31
330
C32
330
C33
330
C34
330
C35
330
C36
330
C37
330
C38
330
C39
330
C3A
330
C3B
330
C3C
330
C3D
330
C3E
330
C3F
330
C40
330
C41
330
C42
330
C43
330
C44
330
C45
330
C46
330
C4A
330
C4B
330
C4C
330
C4D
330
C4E
330
C4F
330
C50
330
C51
330
C52
330
C53
330
C54
330
C55
330
C56
330
C57
330
C58
330
C59
330
C5A
330
C5B
330
C5C
330
C5D
330
C5E
330
C5F
330
C60
330
C61
330
C62
330
C63
330
C64
330
C65
330
C66
330
C67
330
C68
330
C69
330
C6A
330
C6B
330
C6C
330
C6D
330
C6E
330
C6F
330
C70
330
C71
330
C72
330
C73
330
C74
330
C75
330
C76
330
C77
330
C78
330
C79
330
C7A
330
C7B
330
C7C
330
C7D
330
C7E
330
C7F
330
C80
330
C81
330
C82
330
C83
330
C8A
330
C8B
330
C92
330
C93
330
C94
330
C95
330
C96
330
C97
330
C9B
330
C9C
330
CA0
330
CA1
330
CA2
330
CA3
330
CA4
330
CA5
330
CA6
330
CA7
330
CA8
330
CA9
330
CAA
330
CAB
330
CAC
330
CAD
330
CAE
330
CAF
330
CB0
330
CB1
330
CB2
330
CB3
330
CB4
330
CB5
330
CB6
330
CB7
330
CB8
330
CB9
330
CBA
330
CBB
330
CBC
330
CBD
330
CBE
330
CBF
330
CC0
330
CC1
330
CC2
330
CC3
330
CC4
330
CC6
330
CC7
330
CC8
330
CC9
330
CCA
330
CCB
330
CCC
330
CCD
330
CCE
330
CCF
330
CD0
330
CD1
330
CD2
330
CD3
330
CD4
330
CD5
330
CD6
330
CD7
330
CD8
330
CD9
330
CDA
330
CDB
330
CDC
330
CDD
330
CDE
330
CDF
330
CE0
330
CE1
330
CE2
330
CE3
330
CE4
330
CE5
330
CE6
330
CE7
330
CE8
330
CE9
330
CEA
330
CEB
330
CEC
330
CED
330
CEE
330
CEF
330
CF0
330
CF1
  0
IDBUFFER
  5
15BF
330
0
100
AcDbIdBuffer
  0
IDBUFFER
  5
15C0
330
0
100
AcDbIdBuffer
  0
IDBUFFER
  5
15C1
330
0
100
AcDbIdBuffer
330
162B
330
1149
330
1171
330
11B2
330
11DA
330
1211
330
126F
330
12A1
330
12CD
  0
IDBUFFER
  5
15C2
330
0
100
AcDbIdBuffer
330
BFC
330
C01
330
C02
330
C48
  0
IDBUFFER
  5
15C3
330
0
100
AcDbIdBuffer
330
132C
  0
IDBUFFER
  5
15C4
330
0
100
AcDbIdBuffer
  0
IDBUFFER
  5
15C5
330
0
100
AcDbIdBuffer
330
1579
  0
IDBUFFER
  5
15C6
330
0
100
AcDbIdBuffer
  0
IDBUFFER
  5
15C7
330
0
100
AcDbIdBuffer
  0
IDBUFFER
  5
15C8
330
0
100
AcDbIdBuffer
330
15AD
  0
IDBUFFER
  5
15C9
330
0
100
AcDbIdBuffer
330
15B3
  0
IDBUFFER
  5
1607
330
0
100
AcDbIdBuffer
  0
ENDSEC
  0
EOF
