  0
SECTION
  2
HEADER
  9
$ACADVER
  1
AC1018
  9
$ACADMAINTVER
 70
     2
  9
$DWGCODEPAGE
  3
ANSI_932
  9
$CUSTOMPROPERTYTAG
  1
AmdtFileType
  9
$CUSTOMPROPERTY
  1
84
  9
$INSBASE
 10
0.0
 20
0.0
 30
0.0
  9
$EXTMIN
 10
1632.022093824093
 20
151.1306678920487
 30
0.0
  9
$EXTMAX
 10
2820.022093824094
 20
1831.130667892049
 30
208.0
  9
$LIMMIN
 10
1672.022093824093
 20
191.1306678920489
  9
$LIMMAX
 10
2780.022093824094
 20
1731.130667892049
  9
$ORTHOMODE
 70
     0
  9
$REGENMODE
 70
     1
  9
$FILLMODE
 70
     1
  9
$QTEXTMODE
 70
     0
  9
$MIRRTEXT
 70
     1
  9
$LTSCALE
 40
4.0
  9
$ATTMODE
 70
     1
  9
$TEXTSIZE
 40
2.5
  9
$TRACEWID
 40
1.0
  9
$TEXTSTYLE
  7
STANDARD
  9
$CLAYER
  8
0
  9
$CELTYPE
  6
ByLayer
  9
$CECOLOR
 62
   256
  9
$CELTSCALE
 40
1.0
  9
$DISPSILH
 70
     0
  9
$DIMSCALE
 40
1.0
  9
$DIMASZ
 40
2.5
  9
$DIMEXO
 40
1.0
  9
$DIMDLI
 40
10.0
  9
$DIMRND
 40
0.0
  9
$DIMDLE
 40
0.0
  9
$DIMEXE
 40
1.0
  9
$DIMTP
 40
0.1
  9
$DIMTM
 40
0.1
  9
$DIMTXT
 40
4.5
  9
$DIMCEN
 40
0.0
  9
$DIMTSZ
 40
0.0
  9
$DIMTOL
 70
     0
  9
$DIMLIM
 70
     0
  9
$DIMTIH
 70
     0
  9
$DIMTOH
 70
     0
  9
$DIMSE1
 70
     0
  9
$DIMSE2
 70
     0
  9
$DIMTAD
 70
     3
  9
$DIMZIN
 70
     8
  9
$DIMBLK
  1
Open30
  9
$DIMASO
 70
     1
  9
$DIMSHO
 70
     1
  9
$DIMPOST
  1

  9
$DIMAPOST
  1
"
  9
$DIMALT
 70
     0
  9
$DIMALTD
 70
     2
  9
$DIMALTF
 40
0.0393701
  9
$DIMLFAC
 40
1.0
  9
$DIMTOFL
 70
     1
  9
$DIMTVP
 40
0.0
  9
$DIMTIX
 70
     0
  9
$DIMSOXD
 70
     0
  9
$DIMSAH
 70
     0
  9
$DIMBLK1
  1

  9
$DIMBLK2
  1

  9
$DIMSTYLE
  2
IGS
  9
$DIMCLRD
 70
   256
  9
$DIMCLRE
 70
   256
  9
$DIMCLRT
 70
     2
  9
$DIMTFAC
 40
0.71
  9
$DIMGAP
 40
1.5
  9
$DIMJUST
 70
     0
  9
$DIMSD1
 70
     0
  9
$DIMSD2
 70
     0
  9
$DIMTOLJ
 70
     0
  9
$DIMTZIN
 70
     8
  9
$DIMALTZ
 70
     0
  9
$DIMALTTZ
 70
     0
  9
$DIMUPT
 70
     0
  9
$DIMDEC
 70
     2
  9
$DIMTDEC
 70
     2
  9
$DIMALTU
 70
     2
  9
$DIMALTTD
 70
     2
  9
$DIMTXSTY
  7
STANDARD
  9
$DIMAUNIT
 70
     0
  9
$DIMADEC
 70
     0
  9
$DIMALTRND
 40
0.0
  9
$DIMAZIN
 70
     2
  9
$DIMDSEP
 70
    46
  9
$DIMATFIT
 70
     3
  9
$DIMFRAC
 70
     0
  9
$DIMLDRBLK
  1
Open30
  9
$DIMLUNIT
 70
     2
  9
$DIMLWD
 70
    -1
  9
$DIMLWE
 70
    -1
  9
$DIMTMOVE
 70
     0
  9
$LUNITS
 70
     2
  9
$LUPREC
 70
     2
  9
$SKETCHINC
 40
1.0
  9
$FILLETRAD
 40
0.0
  9
$AUNITS
 70
     0
  9
$AUPREC
 70
     0
  9
$MENU
  1
.
  9
$ELEVATION
 40
0.0
  9
$PELEVATION
 40
0.0
  9
$THICKNESS
 40
0.0
  9
$LIMCHECK
 70
     0
  9
$CHAMFERA
 40
10.0
  9
$CHAMFERB
 40
10.0
  9
$CHAMFERC
 40
20.0
  9
$CHAMFERD
 40
0.0
  9
$SKPOLY
 70
     0
  9
$TDCREATE
 40
2453487.365740012
  9
$TDUCREATE
 40
2453486.990740012
  9
$TDUPDATE
 40
2454714.740712882
  9
$TDUUPDATE
 40
2454714.365712882
  9
$TDINDWG
 40
0.0195641551
  9
$TDUSRTIMER
 40
0.0195641551
  9
$USRTIMER
 70
     1
  9
$ANGBASE
 50
0.0
  9
$ANGDIR
 70
     0
  9
$PDMODE
 70
     0
  9
$PDSIZE
 40
0.0
  9
$PLINEWID
 40
0.0
  9
$SPLFRAME
 70
     0
  9
$SPLINETYPE
 70
     6
  9
$SPLINESEGS
 70
     8
  9
$HANDSEED
  5
13F7
  9
$SURFTAB1
 70
     6
  9
$SURFTAB2
 70
     6
  9
$SURFTYPE
 70
     6
  9
$SURFU
 70
     6
  9
$SURFV
 70
     6
  9
$UCSBASE
  2

  9
$UCSNAME
  2

  9
$UCSORG
 10
0.0
 20
0.0
 30
0.0
  9
$UCSXDIR
 10
1.0
 20
0.0
 30
0.0
  9
$UCSYDIR
 10
0.0
 20
1.0
 30
0.0
  9
$UCSORTHOREF
  2

  9
$UCSORTHOVIEW
 70
     0
  9
$UCSORGTOP
 10
0.0
 20
0.0
 30
0.0
  9
$UCSORGBOTTOM
 10
0.0
 20
0.0
 30
0.0
  9
$UCSORGLEFT
 10
0.0
 20
0.0
 30
0.0
  9
$UCSORGRIGHT
 10
0.0
 20
0.0
 30
0.0
  9
$UCSORGFRONT
 10
0.0
 20
0.0
 30
0.0
  9
$UCSORGBACK
 10
0.0
 20
0.0
 30
0.0
  9
$PUCSBASE
  2

  9
$PUCSNAME
  2

  9
$PUCSORG
 10
0.0
 20
0.0
 30
0.0
  9
$PUCSXDIR
 10
1.0
 20
0.0
 30
0.0
  9
$PUCSYDIR
 10
0.0
 20
1.0
 30
0.0
  9
$PUCSORTHOREF
  2

  9
$PUCSORTHOVIEW
 70
     0
  9
$PUCSORGTOP
 10
0.0
 20
0.0
 30
0.0
  9
$PUCSORGBOTTOM
 10
0.0
 20
0.0
 30
0.0
  9
$PUCSORGLEFT
 10
0.0
 20
0.0
 30
0.0
  9
$PUCSORGRIGHT
 10
0.0
 20
0.0
 30
0.0
  9
$PUCSORGFRONT
 10
0.0
 20
0.0
 30
0.0
  9
$PUCSORGBACK
 10
0.0
 20
0.0
 30
0.0
  9
$USERI1
 70
     0
  9
$USERI2
 70
     0
  9
$USERI3
 70
     0
  9
$USERI4
 70
     0
  9
$USERI5
 70
     0
  9
$USERR1
 40
0.0
  9
$USERR2
 40
0.0
  9
$USERR3
 40
0.0
  9
$USERR4
 40
0.0
  9
$USERR5
 40
0.0
  9
$WORLDVIEW
 70
     1
  9
$SHADEDGE
 70
     3
  9
$SHADEDIF
 70
    70
  9
$TILEMODE
 70
     1
  9
$MAXACTVP
 70
    64
  9
$PINSBASE
 10
0.0
 20
0.0
 30
0.0
  9
$PLIMCHECK
 70
     0
  9
$PEXTMIN
 10
1.000000000000000E+20
 20
1.000000000000000E+20
 30
1.000000000000000E+20
  9
$PEXTMAX
 10
-1.000000000000000E+20
 20
-1.000000000000000E+20
 30
-1.000000000000000E+20
  9
$PLIMMIN
 10
0.0
 20
0.0
  9
$PLIMMAX
 10
420.0
 20
297.0
  9
$UNITMODE
 70
     0
  9
$VISRETAIN
 70
     1
  9
$PLINEGEN
 70
     0
  9
$PSLTSCALE
 70
     1
  9
$TREEDEPTH
 70
  3020
  9
$CMLSTYLE
  2
Standard
  9
$CMLJUST
 70
     0
  9
$CMLSCALE
 40
20.0
  9
$PROXYGRAPHICS
 70
     1
  9
$MEASUREMENT
 70
     1
  9
$CELWEIGHT
370
    -1
  9
$ENDCAPS
280
     0
  9
$JOINSTYLE
280
     0
  9
$LWDISPLAY
290
     0
  9
$INSUNITS
 70
     4
  9
$HYPERLINKBASE
  1

  9
$STYLESHEET
  1
monochrome.ctb
  9
$XEDIT
290
     1
  9
$CEPSNTYPE
380
     0
  9
$PSTYLEMODE
290
     1
  9
$FINGERPRINTGUID
  2
{A179640A-E7AE-11D4-BDB4-00B0D0A1239A}
  9
$VERSIONGUID
  2
{C562E796-DE74-4819-9C17-5425C14002CE}
  9
$EXTNAMES
290
     1
  9
$PSVPSCALE
 40
0.0
  9
$OLESTARTUP
290
     0
  9
$SORTENTS
280
   103
  9
$INDEXCTL
280
     1
  9
$HIDETEXT
280
     0
  9
$XCLIPFRAME
290
     0
  9
$HALOGAP
280
     0
  9
$OBSCOLOR
 70
   257
  9
$OBSLTYPE
280
     0
  9
$INTERSECTIONDISPLAY
280
     0
  9
$INTERSECTIONCOLOR
 70
   257
  9
$DIMASSOC
280
     1
  9
$PROJECTNAME
  1

  0
ENDSEC
  0
SECTION
  2
CLASSES
  0
CLASS
  1
ACDBDICTIONARYWDFLT
  2
AcDbDictionaryWithDefault
  3
ObjectDBX Classes
 90
        0
 91
        1
280
     0
281
     0
  0
CLASS
  1
AMGSETTINGSOBJ
  2
AmgSettingsObj
  3
"AcadM|Product Description: AutoCAD Mechanical 2000|Company: Autodesk"
 90
        0
 91
        4
280
     0
281
     0
  0
CLASS
  1
AMGOBJPROPCFG
  2
AmgObjPropCfg
  3
"AmgLay|Product Description: AutoCAD Mechanical 2000|Company: Autodesk"
 90
        1
 91
        1
280
     0
281
     0
  0
CLASS
  1
ACME_DOCUMENT
  2
AcMeDbDoc
  3
AcMeServices
 90
        0
 91
        2
280
     0
281
     0
  0
CLASS
  1
ACMESCOPE
  2
AcMeScope
  3
AcMeServices
 90
        0
 91
        1
280
     0
281
     0
  0
CLASS
  1
ACMECOMMANDHISTORY
  2
AcMeCommandHistory
  3
AcMeServices
 90
        0
 91
        1
280
     0
281
     0
  0
CLASS
  1
DICTIONARYVAR
  2
AcDbDictionaryVar
  3
ObjectDBX Classes
 90
        0
 91
        2
280
     0
281
     0
  0
CLASS
  1
ACIMSYSVARMAN
  2
AcImSysVarManager
  3
AcMeServices
 90
        0
 91
        5
280
     0
281
     0
  0
CLASS
  1
ACIMREALSYSVAR
  2
AcImRealSysVar
  3
AcMeServices
 90
        0
 91
        3
280
     0
281
     0
  0
CLASS
  1
ACIMINTSYSVAR
  2
AcImIntSysVar
  3
AcMeServices
 90
        0
 91
       26
280
     0
281
     0
  0
CLASS
  1
ACMEDRAWINGMAN
  2
AcMeDrawingMan
  3
AcMeServices
 90
        0
 91
        1
280
     0
281
     0
  0
CLASS
  1
ACMEVIEW
  2
AcMeView
  3
AcMeServices
 90
        0
 91
        1
280
     0
281
     0
  0
CLASS
  1
ACDBENTITYCACHE
  2
AcMeEntityCache
  3
AcMeServices
 90
        0
 91
        1
280
     0
281
     0
  0
CLASS
  1
GSMANAGER
  2
AcMeGSManager
  3
AcMeServices
 90
        0
 91
        1
280
     0
281
     0
  0
CLASS
  1
AMDTINTERNALREACTOR
  2
AmdtInternalReactor
  3
AcMeServices
 90
        0
 91
        6
280
     0
281
     0
  0
CLASS
  1
ACMESTATEMGR
  2
AcMeStateMgr
  3
AcMeServices
 90
        0
 91
        1
280
     0
281
     0
  0
CLASS
  1
ACGREFMASTER
  2
AcGrefMaster
  3
AcAttribServices
 90
        0
 91
        1
280
     0
281
     0
  0
CLASS
  1
ACME_DATABASE
  2
AcMeDbDatabase
  3
AcMeServices
 90
        0
 91
        1
280
     0
281
     0
  0
CLASS
  1
ACRFINSADJUSTERMGR
  2
AcRfInsAdjusterMgr
  3
AcMeServices
 90
        0
 91
        1
280
     0
281
     0
  0
CLASS
  1
ACGREFACADMASTER
  2
AcGrefacadMaster
  3
AcGrefServices
 90
        0
 91
        1
280
     0
281
     0
  0
CLASS
  1
AMIMASTER
  2
AmiMaster
  3
AmiServices
 90
        0
 91
        1
280
     0
281
     0
  0
CLASS
  1
ACMDATADICTIONARY
  2
AcmDataDictionary
  3
"AcmSymBB|Product Description: AutoCAD Mechanical 2004 DX|Company: Autodesk"
 90
        0
 91
        1
280
     0
281
     0
  0
CLASS
  1
ACMDATAENTRYBLOCK
  2
AcmDataEntryBlock
  3
"AcmSymBB|Product Description: AutoCAD Mechanical 2004 DX|Company: Autodesk"
 90
        0
 91
        1
280
     0
281
     0
  0
CLASS
  1
ACMSTANDARDJIS
  2
AcmStandardJIS
  3
"Amdt_StdImp|Product Description: AutoCAD Mechanical 2004 DX|Company: Autodesk"
 90
        0
 91
        1
280
     0
281
     0
  0
CLASS
  1
ACMSURFSTANDARDJIS
  2
AcmSurfTextStdJIS
  3
"Amdt_StdImp|Product Description: AutoCAD Mechanical 2004 DX|Company: Autodesk"
 90
        0
 91
        1
280
     0
281
     0
  0
CLASS
  1
ACMFCFSTANDARDJIS
  2
AcmFCFStdJIS
  3
"Amdt_StdImp|Product Description: AutoCAD Mechanical 2004 DX|Company: Autodesk"
 90
        0
 91
        1
280
     0
281
     0
  0
CLASS
  1
ACMWELDSTANDARDJIS
  2
AcmWeldingStdJIS
  3
"Amdt_StdImp|Product Description: AutoCAD Mechanical 2004 DX|Company: Autodesk"
 90
        0
 91
        1
280
     0
281
     0
  0
CLASS
  1
ACMIDSTANDARDJIS
  2
AcmIdStdJIS
  3
"Amdt_StdImp|Product Description: AutoCAD Mechanical 2004 DX|Company: Autodesk"
 90
        0
 91
        1
280
     0
281
     0
  0
CLASS
  1
ACMDATUMSTANDARDJIS
  2
AcmDatumStdJIS
  3
"Amdt_StdImp|Product Description: AutoCAD Mechanical 2004 DX|Company: Autodesk"
 90
        0
 91
        1
280
     0
281
     0
  0
CLASS
  1
ACMBOMSTANDARDJIS
  2
AcmBOMStdJIS
  3
"Amdt_StdImp|Product Description: AutoCAD Mechanical 2004 DX|Company: Autodesk"
 90
        0
 91
        1
280
     0
281
     0
  0
CLASS
  1
ACMDETAILSTANDARDJIS
  2
AmdtDetailSymStdJIS
  3
"Amdt_StdImp|Product Description: AutoCAD Mechanical 2004 DX|Company: Autodesk"
 90
        0
 91
        1
280
     0
281
     0
  0
CLASS
  1
ACMSECTIONSTANDARDJIS
  2
AmdtSectionSymStdJIS
  3
"Amdt_StdImp|Product Description: AutoCAD Mechanical 2004 DX|Company: Autodesk"
 90
        0
 91
        1
280
     0
281
     0
  0
CLASS
  1
ACMCENTERLINESTANDARDJIS
  2
AmdtCenterLineStdJIS
  3
"Amdt_StdImp|Product Description: AutoCAD Mechanical 2004 DX|Company: Autodesk"
 90
        0
 91
        1
280
     0
281
     0
  0
CLASS
  1
ACAMGLAYSTD
  2
AcAmgLayStd
  3
"AcAmgLayStd|Product Description: AutoCAD Mechanical 2000|Company: Autodesk"
 90
        0
 91
        2
280
     0
281
     0
  0
CLASS
  1
ACAMGDIMSTD
  2
AcAmgDimStd
  3
"AcAmgDimStd|Product Description: AutoCAD Mechanical 2000|Company: Autodesk"
 90
        0
 91
        2
280
     0
281
     0
  0
CLASS
  1
ACAMGTITLESTD
  2
AcAmgTitleStd
  3
"TITLEAPP"
 90
        0
 91
        2
280
     0
281
     0
  0
CLASS
  1
ACMSTANDARDISO
  2
AcmStandardISO
  3
"Amdt_StdImp|Product Description: AutoCAD Mechanical 2004 DX|Company: Autodesk"
 90
        0
 91
        1
280
     0
281
     0
  0
CLASS
  1
AMDTEDGESTANDARDISO
  2
AmdtEdgeStdISO
  3
"Amdt_StdImp|Product Description: AutoCAD Mechanical 2004 DX|Company: Autodesk"
 90
        0
 91
        1
280
     0
281
     0
  0
CLASS
  1
ACMSURFSTANDARDISO
  2
AcmSurfTextStdISO
  3
"Amdt_StdImp|Product Description: AutoCAD Mechanical 2004 DX|Company: Autodesk"
 90
        0
 91
        1
280
     0
281
     0
  0
CLASS
  1
ACMFCFSTANDARDISO
  2
AcmFCFStdISO
  3
"Amdt_StdImp|Product Description: AutoCAD Mechanical 2004 DX|Company: Autodesk"
 90
        0
 91
        1
280
     0
281
     0
  0
CLASS
  1
ACMWELDSTANDARDISO
  2
AcmWeldingStdISO
  3
"Amdt_StdImp|Product Description: AutoCAD Mechanical 2004 DX|Company: Autodesk"
 90
        0
 91
        1
280
     0
281
     0
  0
CLASS
  1
ACMIDSTANDARDISO
  2
AcmIdStdISO
  3
"Amdt_StdImp|Product Description: AutoCAD Mechanical 2004 DX|Company: Autodesk"
 90
        0
 91
        1
280
     0
281
     0
  0
CLASS
  1
ACMDATUMSTANDARDISO
  2
AcmDatumStdISO
  3
"Amdt_StdImp|Product Description: AutoCAD Mechanical 2004 DX|Company: Autodesk"
 90
        0
 91
        1
280
     0
281
     0
  0
CLASS
  1
ACMBOMSTANDARDISO
  2
AcmBOMStdISO
  3
"Amdt_StdImp|Product Description: AutoCAD Mechanical 2004 DX|Company: Autodesk"
 90
        0
 91
        1
280
     0
281
     0
  0
CLASS
  1
ACMDETAILSTANDARDISO
  2
AmdtDetailSymStdISO
  3
"Amdt_StdImp|Product Description: AutoCAD Mechanical 2004 DX|Company: Autodesk"
 90
        0
 91
        1
280
     0
281
     0
  0
CLASS
  1
ACMSECTIONSTANDARDISO
  2
AmdtSectionSymStdISO
  3
"Amdt_StdImp|Product Description: AutoCAD Mechanical 2004 DX|Company: Autodesk"
 90
        0
 91
        1
280
     0
281
     0
  0
CLASS
  1
ACMCENTERLINESTANDARDISO
  2
AmdtCenterLineStdISO
  3
"Amdt_StdImp|Product Description: AutoCAD Mechanical 2004 DX|Company: Autodesk"
 90
        0
 91
        1
280
     0
281
     0
  0
CLASS
  1
ACIMSTRSYSVAR
  2
AcImStrSysVar
  3
AcMeServices
 90
        0
 91
        5
280
     0
281
     0
  0
CLASS
  1
ACAMGFILTERDAT
  2
AcAmgFilterDat
  3
"AcadM|Product Description: AutoCAD Mechanical 2000|Company: Autodesk"
 90
        0
 91
        6
280
     0
281
     0
  0
CLASS
  1
LAYER_INDEX
  2
AcDbLayerIndex
  3
ObjectDBX Classes
 90
        0
 91
        1
280
     0
281
     0
  0
CLASS
  1
IDBUFFER
  2
AcDbIdBuffer
  3
ObjectDBX Classes
 90
        0
 91
       21
280
     0
281
     0
  0
CLASS
  1
AMDTFORMULAUPDATEDISPATCHER
  2
AmdtFormulaUpdateDispatcher
  3
AcMeServices
 90
        0
 91
        1
280
     0
281
     0
  0
CLASS
  1
ACMDATAENTRYPART
  2
AcmDataEntryPart
  3
"AcmSymBB|Product Description: AutoCAD Mechanical 2004 DX|Company: Autodesk"
 90
        0
 91
        1
280
     0
281
     0
  0
CLASS
  1
ACMPARTREF
  2
AcmPartRef
  3
"AcmSymBB|Product Description: AutoCAD Mechanical 2004 DX|Company: Autodesk"
 90
     1023
 91
        1
280
     0
281
     1
  0
CLASS
  1
ACMDATAENTRY
  2
AcmDataEntry
  3
"AcmSymBB|Product Description: AutoCAD Mechanical 2004 DX|Company: Autodesk"
 90
        0
 91
        5
280
     0
281
     0
  0
CLASS
  1
ACMBOM
  2
AcmBom
  3
"AcmSymBB|Product Description: AutoCAD Mechanical 2004 DX|Company: Autodesk"
 90
        0
 91
        2
280
     0
281
     0
  0
CLASS
  1
ACMBOMROW
  2
AcmBomRow
  3
"AcmSymBB|Product Description: AutoCAD Mechanical 2004 DX|Company: Autodesk"
 90
        0
 91
        2
280
     0
281
     0
  0
CLASS
  1
ACMBALLOON
  2
AcmBalloon
  3
"AcmSymBB|Product Description: AutoCAD Mechanical 2004 DX|Company: Autodesk"
 90
     1023
 91
        1
280
     0
281
     1
  0
CLASS
  1
ACMPARTLIST
  2
AcmPartList
  3
"AcmSymBB|Product Description: AutoCAD Mechanical 2004 DX|Company: Autodesk"
 90
     1023
 91
        1
280
     0
281
     1
  0
CLASS
  1
ACDBLINERES
  2
AcDbLineRes
  3
AcGrefServices
 90
        0
 91
        2
280
     0
281
     0
  0
CLASS
  1
ACRFINSADJ
  2
AcRfInsAdjuster
  3
AcMeServices
 90
        0
 91
        1
280
     0
281
     0
  0
CLASS
  1
STDPART2D
  2
AmgStdPart
  3
"AmgStdPart|Product Description: AutoCAD Mechanical 2000|Company: Autodesk"
 90
     1023
 91
        0
280
     0
281
     1
  0
CLASS
  1
ACDBSTDPARTRES_ARC
  2
AcDbStdPartRes_Arc
  3
"AcDbStdPartRes_Arc|Product Description: AutoCAD Mechanical 2000|Company: Autodesk"
 90
        0
 91
        0
280
     0
281
     0
  0
CLASS
  1
ACMPICKOBJ
  2
AcmPickEnt
  3
"AcmSymBB|Product Description: AutoCAD Mechanical 2004 DX|Company: Autodesk"
 90
        0
 91
        0
280
     0
281
     1
  0
CLASS
  1
ACDBSTDPARTRES_LINE
  2
AcDbStdPartRes_Line
  3
"AcDbStdPartRes_Line|Product Description: AutoCAD Mechanical 2000|Company: Autodesk"
 90
        0
 91
        0
280
     0
281
     0
  0
CLASS
  1
AM_DRAWING_MGR
  2
AcDmDwgMgr
  3
AcMechDwgViewMgmt
 90
        0
 91
        1
280
     0
281
     0
  0
CLASS
  1
AM_DWG_DOCUMENT
  2
AcDmDwgDocument
  3
AcMechDwgViewMgmt
 90
        0
 91
        1
280
     0
281
     0
  0
CLASS
  1
AM_DWG_SHEET
  2
AcDmSheet
  3
AcMechDwgViewMgmt
 90
        0
 91
        2
280
     0
281
     0
  0
CLASS
  1
AM_VIEWDIMPARMAP
  2
AcDmViewDimParMap
  3
AcMechDwgViewMgmt
 90
        0
 91
        2
280
     0
281
     0
  0
CLASS
  1
AM_DWGMGR_NAME
  2
AcDmDwgMgrName
  3
AcMechDwgViewMgmt
 90
        0
 91
        1
280
     0
281
     0
  0
CLASS
  1
AMDTMENUSTATEMGR
  2
AmdtMenuStateMgr
  3
McadcomServices
 90
        0
 91
        1
280
     0
281
     0
  0
CLASS
  1
AMDTMCOMMENUSTATE
  2
AmdtMcomMenuState
  3
McadcomServices
 90
        0
 91
        1
280
     0
281
     0
  0
CLASS
  1
MAPIAMMOUDLE
  2
MApiAmModule
  3
MApiAmServices
 90
        0
 91
        1
280
     0
281
     0
  0
CLASS
  1
AMDTADMENUSTATE
  2
AmdtAdMenuState
  3
DesignerServices
 90
        0
 91
        1
280
     0
281
     0
  0
CLASS
  1
ADAPPL
  2
AcAdAppl
  3
DesignerServices
 90
        0
 91
        1
280
     0
281
     0
  0
CLASS
  1
DEPMGR
  2
AcAdDepMgr
  3
DesignerServices
 90
        0
 91
        1
280
     0
281
     0
  0
CLASS
  1
PARAMMGR
  2
AcAdParamMgr
  3
DesignerServices
 90
        0
 91
        1
280
     0
281
     0
  0
CLASS
  1
PARAMSCOPE
  2
AcAdParamScope
  3
DesignerServices
 90
        0
 91
        1
280
     0
281
     0
  0
CLASS
  1
NAMEDAPPL
  2
AcAdNamedAppl
  3
DesignerServices
 90
        0
 91
        1
280
     0
281
     0
  0
CLASS
  1
AMDTDMMENUSTATE
  2
AmdtDmMenuState
  3
AcMechDwgViewMgmt
 90
        0
 91
        1
280
     0
281
     0
  0
CLASS
  1
AMDTAMMENUSTATE
  2
AmdtAmMenuState
  3
DesignerAssemblies
 90
        0
 91
        1
280
     0
281
     0
  0
CLASS
  1
ACAMPROJECT
  2
AcAmProject
  3
DesignerAssemblies
 90
        0
 91
        1
280
     0
281
     0
  0
CLASS
  1
ACAMGRCOMPDEF
  2
AcAmGrCompDef
  3
DesignerAssemblies
 90
        0
 91
        1
280
     0
281
     0
  0
CLASS
  1
ACCMCONTEXT
  2
AcCmContext
  3
DesignerAssemblies
 90
        0
 91
        1
280
     0
281
     0
  0
CLASS
  1
ACAMCOMPDEF
  2
AcAmCompDef
  3
DesignerAssemblies
 90
        0
 91
        1
280
     0
281
     0
  0
CLASS
  1
ACAMCOMPDEFMGR
  2
AcAmCompDefMgr
  3
DesignerAssemblies
 90
        0
 91
        1
280
     0
281
     0
  0
CLASS
  1
AMCONTEXTMGR
  2
AcAmContextMgr
  3
DesignerAssemblies
 90
        0
 91
        1
280
     0
281
     0
  0
CLASS
  1
ACAMCONTEXTMODELER
  2
AcAmContextModeler
  3
DesignerAssemblies
 90
        0
 91
        1
280
     0
281
     0
  0
CLASS
  1
ACMTHREADLINESTANDARDJIS
  2
AmdtThreadLineStdJIS
  3
"Amdt_StdImp|Product Description: AutoCAD Mechanical 2004 DX|Company: Autodesk"
 90
        0
 91
        1
280
     0
281
     0
  0
CLASS
  1
ACMNOTESTANDARDJIS
  2
AmdtNoteStdJIS
  3
"Amdt_StdImp|Product Description: AutoCAD Mechanical 2004 DX|Company: Autodesk"
 90
        0
 91
        1
280
     0
281
     0
  0
CLASS
  1
AMDTNOTETEMPLATEDB
  2
AmdtNoteTemplateDB
  3
AMDT_STDIMP_MODULE_NAME
 90
        0
 91
        8
280
     0
281
     0
  0
CLASS
  1
ACMTHREADLINESTANDARDISO
  2
AmdtThreadLineStdISO
  3
"Amdt_StdImp|Product Description: AutoCAD Mechanical 2004 DX|Company: Autodesk"
 90
        0
 91
        1
280
     0
281
     0
  0
CLASS
  1
ACMNOTESTANDARDISO
  2
AmdtNoteStdISO
  3
"Amdt_StdImp|Product Description: AutoCAD Mechanical 2004 DX|Company: Autodesk"
 90
        0
 91
        1
280
     0
281
     0
  0
CLASS
  1
CATALOGSTATE
  2
AcAmCatalogState
  3
DesignerAssemblies
 90
        0
 91
        1
280
     0
281
     0
  0
CLASS
  1
ACAMGRCOMPDEFSET
  2
AcAmGrCompDefSet
  3
DesignerAssemblies
 90
        0
 91
        1
280
     0
281
     0
  0
CLASS
  1
AMDTBROWSERDBTAB
  2
AmdtBrowserDbTab
  3
McadcomServices
 90
        0
 91
        1
280
     0
281
     0
  0
CLASS
  1
CBROWSERAPPOBJECT
  2
CBrowserAppObject
  3
McadcomServices
 90
        0
 91
        3
280
     0
281
     0
  0
CLASS
  1
DM_PLACEHOLDER
  2
AcDmSelsetPlaceholder
  3
AcMechDwgViewMgmt
 90
        0
 91
        1
280
     0
281
     0
  0
CLASS
  1
AMDTNOTE
  2
AmdtNote
  3
"AcmSymBB|Product Description: AutoCAD Mechanical 2004 DX|Company: Autodesk"
 90
     1023
 91
        1
280
     0
281
     1
  0
CLASS
  1
AMDTSECTIONSYM
  2
AmdtSectionSym
  3
"AcmSymBB|Product Description: AutoCAD Mechanical 2004 DX|Company: Autodesk"
 90
     1023
 91
        0
280
     0
281
     1
  0
CLASS
  1
AMDTSECTIONSYMLABEL
  2
AmdtSectionSymLabel
  3
"AcmSymBB|Product Description: AutoCAD Mechanical 2004 DX|Company: Autodesk"
 90
     1023
 91
        0
280
     0
281
     1
  0
CLASS
  1
ACDBCIRCARCRES
  2
AcDbCircArcRes
  3
AcGrefServices
 90
        0
 91
        1
280
     0
281
     0
  0
CLASS
  1
ACRFATTGENMGR
  2
AcRfAttGeneralMgr
  3
AcAttribServices
 90
        0
 91
        1
280
     0
281
     0
  0
CLASS
  1
ACRFOBJATTMGR
  2
AcRfObjAttGroupMgr
  3
AcAttribServices
 90
        0
 91
        1
280
     0
281
     0
  0
CLASS
  1
ACRFMCADAPIATTHOLDER
  2
AcRfMCADAPIAttHolder
  3
AcAttribServices
 90
        0
 91
        1
280
     0
281
     0
  0
CLASS
  1
AMDTSYSATTR
  2
AmdtSystemAttribute
  3
AcAttribServices
 90
        0
 91
        2
280
     0
281
     0
  0
ENDSEC
  0
SECTION
  2
TABLES
  0
TABLE
  2
VPORT
  5
8
330
0
100
AcDbSymbolTable
 70
     3
  0
VPORT
  5
13F6
330
8
100
AcDbSymbolTableRecord
100
AcDbViewportTableRecord
  2
*Active
 70
     0
 10
0.0
 20
0.0
 11
1.0
 21
1.0
 12
2226.022104888796
 22
991.1306835391044
 13
0.0
 23
0.0
 14
10.0
 24
10.0
 15
40.0
 25
40.0
 16
0.0
 26
0.0
 36
1.0
 17
0.0
 27
0.0
 37
0.0
 40
1692.930634179802
 41
1.498730964467005
 42
50.0
 43
0.0
 44
0.0
 50
0.0
 51
0.0
 71
    16
 72
   100
 73
     1
 74
     3
 75
     0
 76
     0
 77
     0
 78
     0
281
     0
 65
     1
110
0.0
120
0.0
130
0.0
111
1.0
121
0.0
131
0.0
112
0.0
122
1.0
132
0.0
 79
     0
146
0.0
  0
ENDTAB
  0
TABLE
  2
LTYPE
  5
5
330
0
100
AcDbSymbolTable
 70
    28
  0
LTYPE
  5
14
330
5
100
AcDbSymbolTableRecord
100
AcDbLinetypeTableRecord
  2
ByBlock
 70
     0
  3

 72
    65
 73
     0
 40
0.0
  0
LTYPE
  5
15
330
5
100
AcDbSymbolTableRecord
100
AcDbLinetypeTableRecord
  2
ByLayer
 70
     0
  3

 72
    65
 73
     0
 40
0.0
  0
LTYPE
  5
16
330
5
100
AcDbSymbolTableRecord
100
AcDbLinetypeTableRecord
  2
Continuous
 70
     0
  3
Solid line
 72
    65
 73
     0
 40
0.0
  0
LTYPE
  5
35
330
5
100
AcDbSymbolTableRecord
100
AcDbLinetypeTableRecord
  2
AM_ISO02W050
 70
     0
  3
__ __ __ __ __ __ __ __ __ __ __ __ __ __ __
 72
    65
 73
     2
 40
7.5
 49
6.0
 74
     0
 49
-1.5
 74
     0
  0
LTYPE
  5
36
330
5
100
AcDbSymbolTableRecord
100
AcDbLinetypeTableRecord
  2
AM_ISO08W050
 70
     0
  3
____ . ____ . ____ . ____ . ____ . ____ . ____
 72
    65
 73
     4
 40
18.0
 49
12.0
 74
     0
 49
-1.5
 74
     0
 49
3.0
 74
     0
 49
-1.5
 74
     0
  0
LTYPE
  5
37
330
5
100
AcDbSymbolTableRecord
100
AcDbLinetypeTableRecord
  2
AM_ISO09W050
 70
     0
  3
_____ . . _____ . . _____ . . ____ .. ____
 72
    65
 73
     6
 40
22.5
 49
12.0
 74
     0
 49
-1.5
 74
     0
 49
3.0
 74
     0
 49
-1.5
 74
     0
 49
3.0
 74
     0
 49
-1.5
 74
     0
  0
LTYPE
  5
38
330
5
100
AcDbSymbolTableRecord
100
AcDbLinetypeTableRecord
  2
Amconstr
 70
     0
  3
_______________________
 72
    65
 73
     2
 40
9999.0
 49
9999.0
 74
     0
 49
0.0
 74
     0
  0
LTYPE
  5
39
330
5
100
AcDbSymbolTableRecord
100
AcDbLinetypeTableRecord
  2
AM_ISO08W050x2
 70
     0
  3
__ . __ . __ . __ . __ . __
 72
    65
 73
     4
 40
9.0
 49
6.0
 74
     0
 49
-0.75
 74
     0
 49
1.5
 74
     0
 49
-0.75
 74
     0
  0
LTYPE
  5
3A
330
5
100
AcDbSymbolTableRecord
100
AcDbLinetypeTableRecord
  2
AM_ISO02W050x2
 70
     0
  3
 _ _ _ _ _ _ _ _ _ _ _ _
 72
    65
 73
     2
 40
3.75
 49
3.0
 74
     0
 49
-0.75
 74
     0
  0
LTYPE
  5
3B
330
5
100
AcDbSymbolTableRecord
100
AcDbLinetypeTableRecord
  2
Amzigzag
 70
     0
  3
/\/-/\/-/\/-/\/-/\/-/\/
 72
    65
 73
     2
 40
11.0001
 49
0.0001
 74
     4
 75
   135
340
3C
 46
0.04
 50
0.0
 44
0.0
 45
0.0
 49
-11.0
 74
     0
  0
LTYPE
  5
64
330
5
100
AcDbSymbolTableRecord
100
AcDbLinetypeTableRecord
  2
ACJISTGB
 70
     0
  3
__ . . __ . .
 72
    65
 73
     6
 40
9.0
 49
4.0
 74
     0
 49
-1.0
 74
     0
 49
1.0
 74
     0
 49
-1.0
 74
     0
 49
1.0
 74
     0
 49
-1.0
 74
     0
  0
LTYPE
  5
65
330
5
100
AcDbSymbolTableRecord
100
AcDbLinetypeTableRecord
  2
ACJISTGL
 70
     0
  3
_ _ _ _ _
 72
    65
 73
     2
 40
3.0
 49
2.0
 74
     0
 49
-1.0
 74
     0
  0
LTYPE
  5
69
330
5
100
AcDbSymbolTableRecord
100
AcDbLinetypeTableRecord
  2
CENTER
 70
     0
  3
__ . __
 72
    65
 73
     4
 40
7.0
 49
4.0
 74
     0
 49
-1.0
 74
     0
 49
1.0
 74
     0
 49
-1.0
 74
     0
  0
LTYPE
  5
8F
330
5
100
AcDbSymbolTableRecord
100
AcDbLinetypeTableRecord
  2
ACISOWELD
 70
     0
  3
_ _ _ _ _
 72
    65
 73
     2
 40
2.0
 49
2.0
 74
     0
 49
-1.0
 74
     0
  0
LTYPE
  5
92
330
5
100
AcDbSymbolTableRecord
100
AcDbLinetypeTableRecord
  2
ACISOTGB
 70
     0
  3
__ . . __ . .
 72
    65
 73
     6
 40
9.0
 49
4.0
 74
     0
 49
-1.0
 74
     0
 49
1.0
 74
     0
 49
-1.0
 74
     0
 49
1.0
 74
     0
 49
-1.0
 74
     0
  0
LTYPE
  5
93
330
5
100
AcDbSymbolTableRecord
100
AcDbLinetypeTableRecord
  2
ACISOTGL
 70
     0
  3
_ _ _ _ _
 72
    65
 73
     2
 40
3.0
 49
2.0
 74
     0
 49
-1.0
 74
     0
  0
LTYPE
  5
308
330
5
100
AcDbSymbolTableRecord
100
AcDbLinetypeTableRecord
  2
DASHED
 70
     0
  3
__ __ __ __ __ __ __ __ __ __ __ __ __ __ __
 72
    65
 73
     2
 40
3.0
 49
2.0
 74
     0
 49
-1.0
 74
     0
  0
LTYPE
  5
309
330
5
100
AcDbSymbolTableRecord
100
AcDbLinetypeTableRecord
  2
HIDDEN
 70
     0
  3
_ _ _ _ _ _ _ _ _ _ _ _ _ _ _ _ _ _ _ _ _ _ _
 72
    65
 73
     2
 40
1.5
 49
1.0
 74
     0
 49
-0.5
 74
     0
  0
LTYPE
  5
30A
330
5
100
AcDbSymbolTableRecord
100
AcDbLinetypeTableRecord
  2
PHANTOM
 70
     0
  3
_____ _ _ _____ _ _ _____ _ _ _____ _ _ ____
 72
    65
 73
     6
 40
27.0
 49
20.0
 74
     0
 49
-1.0
 74
     0
 49
2.0
 74
     0
 49
-1.0
 74
     0
 49
2.0
 74
     0
 49
-1.0
 74
     0
  0
LTYPE
  5
30B
330
5
100
AcDbSymbolTableRecord
100
AcDbLinetypeTableRecord
  2
DOT
 70
     0
  3
...............................................
 72
    65
 73
     2
 40
1.5
 49
0.5
 74
     0
 49
-1.0
 74
     0
  0
LTYPE
  5
30C
330
5
100
AcDbSymbolTableRecord
100
AcDbLinetypeTableRecord
  2
DASHDOT
 70
     0
  3
__ . __ . __ . __ . __ . __ . __ . __ . __ . __
 72
    65
 73
     4
 40
8.5
 49
6.0
 74
     0
 49
-1.0
 74
     0
 49
0.5
 74
     0
 49
-1.0
 74
     0
  0
LTYPE
  5
30D
330
5
100
AcDbSymbolTableRecord
100
AcDbLinetypeTableRecord
  2
DIVIDE
 70
     0
  3
__ . . __ . . __ . . __ . . __ . . __ . . __
 72
    65
 73
     6
 40
10.0
 49
6.0
 74
     0
 49
-1.0
 74
     0
 49
0.5
 74
     0
 49
-1.0
 74
     0
 49
0.5
 74
     0
 49
-1.0
 74
     0
  0
LTYPE
  5
30E
330
5
100
AcDbSymbolTableRecord
100
AcDbLinetypeTableRecord
  2
BORDER
 70
     0
  3
__ __ . __ __ . __ __ . __ __ . __ __ . __ __
 72
    65
 73
     6
 40
15.5
 49
6.0
 74
     0
 49
-1.0
 74
     0
 49
6.0
 74
     0
 49
-1.0
 74
     0
 49
0.5
 74
     0
 49
-1.0
 74
     0
  0
LTYPE
  5
30F
330
5
100
AcDbSymbolTableRecord
100
AcDbLinetypeTableRecord
  2
GEN7A
 70
     0
  3
__ . __ . __
 72
    65
 73
     4
 40
6.875
 49
5.0
 74
     0
 49
-0.625
 74
     0
 49
0.625
 74
     0
 49
-0.625
 74
     0
  0
LTYPE
  5
9B5
330
5
100
AcDbSymbolTableRecord
100
AcDbLinetypeTableRecord
  2
PHANTOM2
 70
     0
  3
Phantom (.5x) ___ _ _ ___ _ _ ___ _ _ ___ _ _
 72
    65
 73
     6
 40
31.75
 49
15.875
 74
     0
 49
-3.174999999999999
 74
     0
 49
3.174999999999999
 74
     0
 49
-3.174999999999999
 74
     0
 49
3.174999999999999
 74
     0
 49
-3.174999999999999
 74
     0
  0
LTYPE
  5
A7D
330
5
100
AcDbSymbolTableRecord
100
AcDbLinetypeTableRecord
  2
GEN7
 70
     0
  3
____ . ____ . ____ . ____ . ____ . ____ . ____
 72
    65
 73
     4
 40
13.75
 49
10.0
 74
     0
 49
-1.25
 74
     0
 49
1.25
 74
     0
 49
-1.25
 74
     0
  0
LTYPE
  5
A7E
330
5
100
AcDbSymbolTableRecord
100
AcDbLinetypeTableRecord
  2
GEN4A
 70
     0
  3
_____ . . _____ . . _____ . . ____ .. ____
 72
    65
 73
     6
 40
16.25
 49
10.0
 74
     0
 49
-1.25
 74
     0
 49
1.25
 74
     0
 49
-1.25
 74
     0
 49
1.25
 74
     0
 49
-1.25
 74
     0
  0
LTYPE
  5
A7F
330
5
100
AcDbSymbolTableRecord
100
AcDbLinetypeTableRecord
  2
gen3
 70
     0
  3
-- -- -- -- -- -- -- -- -- -- -- -- -- -- --
 72
    65
 73
     2
 40
6.25
 49
4.75
 74
     0
 49
-1.5
 74
     0
  0
LTYPE
  5
A80
330
5
100
AcDbSymbolTableRecord
100
AcDbLinetypeTableRecord
  2
gen3a
 70
     0
  3
 - - - - -
 72
    65
 73
     2
 40
3.125
 49
2.25
 74
     0
 49
-0.875
 74
     0
  0
LTYPE
  5
A81
330
5
100
AcDbSymbolTableRecord
100
AcDbLinetypeTableRecord
  2
genzigzag
 70
     0
  3
/\/-/\/-/\/-/\/-/\/-/\/
 72
    65
 73
     2
 40
12.0001
 49
0.0001
 74
     4
 75
   135
340
A88
 46
2.0
 50
0.0
 44
0.0
 45
0.0
 49
-12.0
 74
     0
  0
ENDTAB
  0
TABLE
  2
LAYER
  5
2
330
0
100
AcDbSymbolTable
 70
    21
  0
LAYER
  5
10
330
2
100
AcDbSymbolTableRecord
100
AcDbLayerTableRecord
  2
0
 70
     0
 62
     7
  6
Continuous
370
    -3
390
F
  0
LAYER
  5
F5
330
2
100
AcDbSymbolTableRecord
100
AcDbLayerTableRecord
  2
RAHM2
 70
     0
 62
     1
  6
Continuous
370
    -3
390
F
  0
LAYER
  5
1EF
330
2
100
AcDbSymbolTableRecord
100
AcDbLayerTableRecord
  2
AM_BOR
 70
     0
 62
     7
  6
Continuous
370
    50
390
F
  0
LAYER
  5
310
330
2
100
AcDbSymbolTableRecord
100
AcDbLayerTableRecord
  2
RAHM3
 70
     0
 62
     2
  6
Continuous
370
    -3
390
F
  0
LAYER
  5
311
330
2
100
AcDbSymbolTableRecord
100
AcDbLayerTableRecord
  2
RAHM5
 70
     0
 62
     7
  6
Continuous
370
    -3
390
F
  0
LAYER
  5
312
330
2
100
AcDbSymbolTableRecord
100
AcDbLayerTableRecord
  2
1
 70
     0
 62
     7
  6
Continuous
370
    -3
390
F
  0
LAYER
  5
313
330
2
100
AcDbSymbolTableRecord
100
AcDbLayerTableRecord
  2
DEFPOINTS
 70
     0
 62
     7
  6
Continuous
290
     0
370
    -3
390
F
  0
LAYER
  5
316
330
2
100
AcDbSymbolTableRecord
100
AcDbLayerTableRecord
  2
7A
 70
     0
 62
     4
  6
GEN7A
370
    -3
390
F
  0
LAYER
  5
A82
330
2
100
AcDbSymbolTableRecord
100
AcDbLayerTableRecord
  2
2
 70
     0
 62
     7
  6
Continuous
370
    -3
390
F
  0
LAYER
  5
A83
330
2
100
AcDbSymbolTableRecord
100
AcDbLayerTableRecord
  2
5
 70
     0
 62
     7
  6
Continuous
370
    -3
390
F
  0
LAYER
  5
A84
330
2
100
AcDbSymbolTableRecord
100
AcDbLayerTableRecord
  2
40
 70
     0
 62
     7
  6
Continuous
370
    -3
390
F
  0
LAYER
  5
A85
330
2
100
AcDbSymbolTableRecord
100
AcDbLayerTableRecord
  2
7
 70
     0
 62
     4
  6
GEN7
370
    -3
390
F
  0
LAYER
  5
A86
330
2
100
AcDbSymbolTableRecord
100
AcDbLayerTableRecord
  2
4
 70
     0
 62
     1
  6
GEN4A
370
    -3
390
F
  0
LAYER
  5
A87
330
2
100
AcDbSymbolTableRecord
100
AcDbLayerTableRecord
  2
8
 70
     0
 62
     5
  6
Continuous
370
    -3
390
F
  0
LAYER
  5
F79
330
2
100
AcDbSymbolTableRecord
100
AcDbLayerTableRecord
  2
AM_5
 70
     0
 62
     3
  6
Continuous
370
    25
390
F
  0
LAYER
  5
1017
330
2
100
AcDbSymbolTableRecord
100
AcDbLayerTableRecord
  2
AM_4
 70
     0
 62
     3
  6
Continuous
370
    25
390
F
  0
LAYER
  5
10CC
330
2
100
AcDbSymbolTableRecord
100
AcDbLayerTableRecord
  2
SUNPO
 70
     0
 62
   144
  6
Continuous
370
    -3
390
F
  0
LAYER
  5
10E7
330
2
100
AcDbSymbolTableRecord
100
AcDbLayerTableRecord
  2
AM_10
 70
     0
 62
     7
  6
AM_ISO08W050
370
    50
390
F
  0
LAYER
  5
1179
330
2
100
AcDbSymbolTableRecord
100
AcDbLayerTableRecord
  2
AM_8
 70
     0
 62
     1
  6
Continuous
370
    25
390
F
  0
LAYER
  5
137F
330
2
100
AcDbSymbolTableRecord
100
AcDbLayerTableRecord
  2
AM_12
 70
     0
 62
     7
  6
Continuous
290
     0
370
    50
390
F
  0
LAYER
  5
1380
330
2
100
AcDbSymbolTableRecord
100
AcDbLayerTableRecord
  2
AM_PAREF
 70
     0
 62
     4
  6
Continuous
290
     0
370
    25
390
F
  0
ENDTAB
  0
TABLE
  2
STYLE
  5
3
330
0
100
AcDbSymbolTable
 70
    13
  0
STYLE
  5
11
330
3
100
AcDbSymbolTableRecord
100
AcDbTextStyleTableRecord
  2
STANDARD
 70
     0
 40
0.0
 41
1.0
 50
0.0
 71
     0
 42
2.5
  3
ISOCP.SHX
  4
EXTFONT.SHX
  0
STYLE
  5
3C
330
3
100
AcDbSymbolTableRecord
100
AcDbTextStyleTableRecord
  2

 70
     1
 40
0.0
 41
1.0
 50
0.0
 71
     0
 42
2.5
  3
ltypeshp.shx
  4

  0
STYLE
  5
5D
330
3
100
AcDbSymbolTableRecord
100
AcDbTextStyleTableRecord
  2
ACJISTS
 70
     0
 40
1.0
 41
1.0
 50
0.0
 71
     0
 42
2.5
  3
isocp.shx
  4
extfont.shx
  0
STYLE
  5
60
330
3
100
AcDbSymbolTableRecord
100
AcDbTextStyleTableRecord
  2
ACJISGDT
 70
     0
 40
0.0
 41
1.0
 50
0.0
 71
     0
 42
2.5
  3
amgdt.shx
  4

  0
STYLE
  5
89
330
3
100
AcDbSymbolTableRecord
100
AcDbTextStyleTableRecord
  2
ACISOTS
 70
     0
 40
1.0
 41
1.0
 50
0.0
 71
     0
 42
2.5
  3
isocp.shx
  4
extfont.shx
  0
STYLE
  5
8D
330
3
100
AcDbSymbolTableRecord
100
AcDbTextStyleTableRecord
  2
ACISOGDT
 70
     0
 40
0.0
 41
1.0
 50
0.0
 71
     0
 42
2.5
  3
amgdt.shx
  4

  0
STYLE
  5
A4
330
3
100
AcDbSymbolTableRecord
100
AcDbTextStyleTableRecord
  2
USER1
 70
     0
 40
0.0
 41
1.0
 50
0.0
 71
     0
 42
2.5
  3
TXT.SHX
  4

  0
STYLE
  5
A5
330
3
100
AcDbSymbolTableRecord
100
AcDbTextStyleTableRecord
  2
USER2
 70
     0
 40
0.0
 41
1.0
 50
0.0
 71
     0
 42
2.5
  3
SIMPLEX.SHX
  4

  0
STYLE
  5
A6
330
3
100
AcDbSymbolTableRecord
100
AcDbTextStyleTableRecord
  2
USER3
 70
     0
 40
0.0
 41
1.0
 50
0.0
 71
     0
 42
2.5
  3
ITALIC.SHX
  4

  0
STYLE
  5
A88
330
3
100
AcDbSymbolTableRecord
100
AcDbTextStyleTableRecord
  2

 70
     1
 40
0.0
 41
1.0
 50
0.0
 71
     0
 42
20.0
  3
genltshp.shx
  4

  0
STYLE
  5
106B
330
3
100
AcDbSymbolTableRecord
100
AcDbTextStyleTableRecord
  2
MSG
 70
     0
 40
0.0
 41
1.0
 50
0.0
 71
     0
 42
2.5
  3
MS Gothic.ttf
  4

1001
ACAD
1000
MS Gothic
1071
    32817
  0
STYLE
  5
10A8
330
3
100
AcDbSymbolTableRecord
100
AcDbTextStyleTableRecord
  2
ROMANS15
 70
     0
 40
0.0
 41
1.0
 50
15.0
 71
     0
 42
2.5
  3
romans
  4

  0
STYLE
  5
10A9
330
3
100
AcDbSymbolTableRecord
100
AcDbTextStyleTableRecord
  2
STANDARD2
 70
     0
 40
0.0
 41
1.0
 50
0.0
 71
     0
 42
50.0
  3
ROMANS
  4
BIGFONT
  0
ENDTAB
  0
TABLE
  2
VIEW
  5
6
330
0
100
AcDbSymbolTable
 70
     6
  0
VIEW
  5
3C5
330
6
100
AcDbSymbolTableRecord
100
AcDbViewTableRecord
  2
AM_VIEW1
 70
     0
 40
594.0
 10
1789.247570283583
 20
1083.160891275341
 41
873.6164383561645
 11
0.0
 21
0.0
 31
1.0
 12
0.0
 22
0.0
 32
0.0
 42
50.0
 43
0.0
 44
0.0
 50
0.0
 71
    16
281
     0
 72
     0
  0
VIEW
  5
3C6
330
6
100
AcDbSymbolTableRecord
100
AcDbViewTableRecord
  2
AM_VIEW2
 70
     0
 40
594.0
 10
2595.631131927418
 20
1083.160891275341
 41
873.6164383561645
 11
0.0
 21
0.0
 31
1.0
 12
0.0
 22
0.0
 32
0.0
 42
50.0
 43
0.0
 44
0.0
 50
0.0
 71
    16
281
     0
 72
     0
  0
VIEW
  5
3C7
330
6
100
AcDbSymbolTableRecord
100
AcDbViewTableRecord
  2
AM_VIEW3
 70
     0
 40
594.0
 10
1789.247570283583
 20
489.1608912753413
 41
873.6164383561645
 11
0.0
 21
0.0
 31
1.0
 12
0.0
 22
0.0
 32
0.0
 42
50.0
 43
0.0
 44
0.0
 50
0.0
 71
    16
281
     0
 72
     0
  0
VIEW
  5
3C8
330
6
100
AcDbSymbolTableRecord
100
AcDbViewTableRecord
  2
AM_VIEW4
 70
     0
 40
594.0
 10
2595.631131927418
 20
489.1608912753413
 41
873.6164383561645
 11
0.0
 21
0.0
 31
1.0
 12
0.0
 22
0.0
 32
0.0
 42
50.0
 43
0.0
 44
0.0
 50
0.0
 71
    16
281
     0
 72
     0
  0
VIEW
  5
3C9
330
6
100
AcDbSymbolTableRecord
100
AcDbViewTableRecord
  2
AM_VIEW5
 70
     0
 40
594.0
 10
2192.4393511055
 20
786.1608912753413
 41
873.6164383561645
 11
0.0
 21
0.0
 31
1.0
 12
0.0
 22
0.0
 32
0.0
 42
50.0
 43
0.0
 44
0.0
 50
0.0
 71
    16
281
     0
 72
     0
  0
VIEW
  5
3CA
330
6
100
AcDbSymbolTableRecord
100
AcDbViewTableRecord
  2
AM_VIEW6
 70
     0
 40
1187.98812
 10
2192.4393511055
 20
786.1608912753413
 41
1747.215404383561
 11
0.0
 21
0.0
 31
1.0
 12
0.0
 22
0.0
 32
0.0
 42
50.0
 43
0.0
 44
0.0
 50
0.0
 71
    16
281
     0
 72
     0
  0
ENDTAB
  0
TABLE
  2
UCS
  5
7
330
0
100
AcDbSymbolTable
 70
     0
  0
ENDTAB
  0
TABLE
  2
APPID
  5
9
330
0
100
AcDbSymbolTable
 70
    48
  0
APPID
  5
12
330
9
100
AcDbSymbolTableRecord
100
AcDbRegAppTableRecord
  2
ACAD
 70
     0
  0
APPID
  5
2D
330
9
100
AcDbSymbolTableRecord
100
AcDbRegAppTableRecord
  2
MCAD_NO_VIS
 70
     0
  0
APPID
  5
2E
330
9
100
AcDbSymbolTableRecord
100
AcDbRegAppTableRecord
  2
ACAD_TEMP_GRAPHIC
 70
     0
  0
APPID
  5
2F
330
9
100
AcDbSymbolTableRecord
100
AcDbRegAppTableRecord
  2
ACATTRIBSERVICES
 70
     0
  0
APPID
  5
1F0
330
9
100
AcDbSymbolTableRecord
100
AcDbRegAppTableRecord
  2
GENIUS_GENBLLY_14
 70
     0
  0
APPID
  5
321
330
9
100
AcDbSymbolTableRecord
100
AcDbRegAppTableRecord
  2
GENIUS_GENCFG_13
 70
     0
  0
APPID
  5
322
330
9
100
AcDbSymbolTableRecord
100
AcDbRegAppTableRecord
  2
GENIUS_GENOBJ_13
 70
     0
  0
APPID
  5
323
330
9
100
AcDbSymbolTableRecord
100
AcDbRegAppTableRecord
  2
GENIUS_GENODEF_13
 70
     0
  0
APPID
  5
324
330
9
100
AcDbSymbolTableRecord
100
AcDbRegAppTableRecord
  2
GENIUS_GENOENT_13
 70
     0
  0
APPID
  5
325
330
9
100
AcDbSymbolTableRecord
100
AcDbRegAppTableRecord
  2
GENIUS_GENOLIS_13
 70
     0
  0
APPID
  5
326
330
9
100
AcDbSymbolTableRecord
100
AcDbRegAppTableRecord
  2
GENIUS_GENOREF_13
 70
     0
  0
APPID
  5
327
330
9
100
AcDbSymbolTableRecord
100
AcDbRegAppTableRecord
  2
GENIUS_GENOBJ-N-TIT_13
 70
     0
  0
APPID
  5
328
330
9
100
AcDbSymbolTableRecord
100
AcDbRegAppTableRecord
  2
GENIUS_GENTITLE_13
 70
     0
  0
APPID
  5
329
330
9
100
AcDbSymbolTableRecord
100
AcDbRegAppTableRecord
  2
GENIUS_GENZVEED_13
 70
     0
  0
APPID
  5
32A
330
9
100
AcDbSymbolTableRecord
100
AcDbRegAppTableRecord
  2
GENIUS_GENOBJ-N-SDF_13
 70
     0
  0
APPID
  5
32B
330
9
100
AcDbSymbolTableRecord
100
AcDbRegAppTableRecord
  2
GENIUS_GENSCREG_13
 70
     0
  0
APPID
  5
32C
330
9
100
AcDbSymbolTableRecord
100
AcDbRegAppTableRecord
  2
GENIUS_GENCFG0_13
 70
     0
  0
APPID
  5
32D
330
9
100
AcDbSymbolTableRecord
100
AcDbRegAppTableRecord
  2
GENIUS_GENCFG1_13
 70
     0
  0
APPID
  5
32E
330
9
100
AcDbSymbolTableRecord
100
AcDbRegAppTableRecord
  2
GENIUS_GENCFG2_13
 70
     0
  0
APPID
  5
32F
330
9
100
AcDbSymbolTableRecord
100
AcDbRegAppTableRecord
  2
GENIUS_GENCFG3_13
 70
     0
  0
APPID
  5
330
330
9
100
AcDbSymbolTableRecord
100
AcDbRegAppTableRecord
  2
GENIUS_GENCFG4_13
 70
     0
  0
APPID
  5
331
330
9
100
AcDbSymbolTableRecord
100
AcDbRegAppTableRecord
  2
GENIUS_GEVCFG0_13
 70
     0
  0
APPID
  5
332
330
9
100
AcDbSymbolTableRecord
100
AcDbRegAppTableRecord
  2
GENIUS_GENOBJ-N-CRS_13
 70
     0
  0
APPID
  5
333
330
9
100
AcDbSymbolTableRecord
100
AcDbRegAppTableRecord
  2
GENIUS_GENOBJ-N-CEN_13
 70
     0
  0
APPID
  5
334
330
9
100
AcDbSymbolTableRecord
100
AcDbRegAppTableRecord
  2
GENIUS_GEFCFG0_13
 70
     0
  0
APPID
  5
3BA
330
9
100
AcDbSymbolTableRecord
100
AcDbRegAppTableRecord
  2
GENIUS_GENTRA_14
 70
     0
  0
APPID
  5
3CB
330
9
100
AcDbSymbolTableRecord
100
AcDbRegAppTableRecord
  2
GENIUS_GENSCREG_15
 70
     0
  0
APPID
  5
436
330
9
100
AcDbSymbolTableRecord
100
AcDbRegAppTableRecord
  2
GEVID984623613
 70
     0
  0
APPID
  5
437
330
9
100
AcDbSymbolTableRecord
100
AcDbRegAppTableRecord
  2
GEVDC
 70
     0
  0
APPID
  5
438
330
9
100
AcDbSymbolTableRecord
100
AcDbRegAppTableRecord
  2
GEVCON
 70
     0
  0
APPID
  5
43C
330
9
100
AcDbSymbolTableRecord
100
AcDbRegAppTableRecord
  2
GENIUS_GENBH_13
 70
     0
  0
APPID
  5
43E
330
9
100
AcDbSymbolTableRecord
100
AcDbRegAppTableRecord
  2
GENIUS_GENOBJ-NBEHI-BHF_13
 70
     0
  0
APPID
  5
440
330
9
100
AcDbSymbolTableRecord
100
AcDbRegAppTableRecord
  2
GENIUS_GENOBJ-NBEHI-BHB_13
 70
     0
  0
APPID
  5
455
330
9
100
AcDbSymbolTableRecord
100
AcDbRegAppTableRecord
  2
GENIUS_GENOBJ-F-SCPASSM_13
 70
     0
  0
APPID
  5
47B
330
9
100
AcDbSymbolTableRecord
100
AcDbRegAppTableRecord
  2
GEVID984623614
 70
     0
  0
APPID
  5
48B
330
9
100
AcDbSymbolTableRecord
100
AcDbRegAppTableRecord
  2
GEVID984623615
 70
     0
  0
APPID
  5
54A
330
9
100
AcDbSymbolTableRecord
100
AcDbRegAppTableRecord
  2
GENIUS_GENOBJ-N-REV_13
 70
     0
  0
APPID
  5
54B
330
9
100
AcDbSymbolTableRecord
100
AcDbRegAppTableRecord
  2
GENIUS_GENOBJ-N-RSSYM_13
 70
     0
  0
APPID
  5
54C
330
9
100
AcDbSymbolTableRecord
100
AcDbRegAppTableRecord
  2
GENIUS_GENSYMENT_13
 70
     0
  0
APPID
  5
54D
330
9
100
AcDbSymbolTableRecord
100
AcDbRegAppTableRecord
  2
GENIUS_GENSCSYM_13
 70
     0
  0
APPID
  5
943
330
9
100
AcDbSymbolTableRecord
100
AcDbRegAppTableRecord
  2
DCO15
 70
     0
  0
APPID
  5
9B7
330
9
100
AcDbSymbolTableRecord
100
AcDbRegAppTableRecord
  2
AD_DRAW
 70
     0
  0
APPID
  5
9D5
330
9
100
AcDbSymbolTableRecord
100
AcDbRegAppTableRecord
  2
DESIGNERASSEMBLIES
 70
     0
  0
APPID
  5
9E5
330
9
100
AcDbSymbolTableRecord
100
AcDbRegAppTableRecord
  2
ACADM_DIM_EDIT
 70
     0
  0
APPID
  5
9E6
330
9
100
AcDbSymbolTableRecord
100
AcDbRegAppTableRecord
  2
AMDT_DM_ADJ
 70
     0
  0
APPID
  5
A89
330
9
100
AcDbSymbolTableRecord
100
AcDbRegAppTableRecord
  2
GENIUS_GENDTOL_13
 70
     0
  0
APPID
  5
A8A
330
9
100
AcDbSymbolTableRecord
100
AcDbRegAppTableRecord
  2
GENIUS_GENOBJ-N-HTC_13
 70
     0
  0
APPID
  5
A8B
330
9
100
AcDbSymbolTableRecord
100
AcDbRegAppTableRecord
  2
GENIUS_GENHATCH_13
 70
     0
  0
ENDTAB
  0
TABLE
  2
DIMSTYLE
  5
A
330
0
100
AcDbSymbolTable
 70
    26
100
AcDbDimStyleTable
 71
     1
340
76
  0
DIMSTYLE
105
27
330
A
100
AcDbSymbolTableRecord
100
AcDbDimStyleTableRecord
  2
ISO-25
 70
     0
 41
2.5
 42
0.625
 43
3.75
 44
1.25
 73
     0
 74
     0
 77
     1
 78
     8
140
2.5
141
2.5
143
0.03937007874016
147
0.625
171
     3
172
     1
271
     2
272
     2
274
     3
283
     0
284
     8
340
11
  0
DIMSTYLE
105
76
102
{ACAD_REACTORS
330
BFE
330
BFC
330
BFA
330
BF9
330
BF8
330
BC6
330
BC5
330
BA9
330
F88
330
11FC
102
}
330
A
100
AcDbSymbolTableRecord
100
AcDbDimStyleTableRecord
  2
IGS
 70
     0
  4
"
 41
2.5
 42
1.0
 43
10.0
 44
1.0
 47
0.1
 48
0.1
 73
     0
 74
     0
 77
     3
 78
     8
 79
     2
140
4.5
141
0.0
143
0.0393701
146
0.71
147
1.5
172
     1
176
   256
177
   256
178
     2
271
     2
272
     2
283
     0
284
     8
340
11
341
77
342
77
371
    -1
372
    -1
  0
DIMSTYLE
105
7D
330
A
100
AcDbSymbolTableRecord
100
AcDbDimStyleTableRecord
  2
IGS$3
 70
     0
  4
"
 41
2.5
 42
1.0
 43
10.0
 44
1.0
 47
0.1
 48
0.1
 73
     0
 77
     3
 78
     8
 79
     2
140
4.5
141
0.0
143
0.0393701
146
0.71
147
1.5
176
   256
177
   256
178
     2
271
     2
272
     2
283
     0
284
     8
288
     1
289
     0
340
11
341
77
342
77
371
    -1
372
    -1
  0
DIMSTYLE
105
7E
330
A
100
AcDbSymbolTableRecord
100
AcDbDimStyleTableRecord
  2
IGS$4
 70
     0
  4
"
 41
2.5
 42
1.0
 43
10.0
 44
1.0
 47
0.1
 48
0.1
 73
     0
 77
     3
 78
     8
 79
     2
140
4.5
141
0.0
143
0.0393701
146
0.71
147
1.5
176
   256
177
   256
178
     2
271
     2
272
     2
283
     0
284
     8
288
     1
289
     0
340
11
341
77
342
77
371
    -1
372
    -1
  0
DIMSTYLE
105
7F
330
A
100
AcDbSymbolTableRecord
100
AcDbDimStyleTableRecord
  2
IGS$6
 70
     0
  4
"
 41
2.5
 42
1.0
 43
10.0
 44
1.0
 47
0.1
 48
0.1
 73
     0
 74
     0
 78
     8
 79
     2
140
4.5
141
0.0
143
0.0393701
146
0.71
147
1.5
172
     1
176
   256
177
   256
178
     2
271
     2
272
     2
283
     0
284
     8
340
11
341
77
342
77
371
    -1
372
    -1
  0
DIMSTYLE
105
80
330
A
100
AcDbSymbolTableRecord
100
AcDbDimStyleTableRecord
  2
IGS$7
 70
     0
  4
"
 41
2.5
 42
1.0
 43
10.0
 44
1.0
 47
0.1
 48
0.1
 73
     0
 74
     0
 77
     3
 78
     8
 79
     2
140
5.0
141
0.0
143
0.0393701
146
0.71
147
1.5
172
     1
176
   256
177
   256
178
     2
271
     2
272
     2
283
     0
284
     8
340
11
341
77
342
77
371
    -1
372
    -1
  0
DIMSTYLE
105
81
330
A
100
AcDbSymbolTableRecord
100
AcDbDimStyleTableRecord
  2
IGS$SF
 70
     0
  4
"
 41
2.5
 42
1.0
 43
10.0
 44
1.0
 47
0.1
 48
0.1
 73
     0
 74
     0
 75
     1
 76
     1
 77
     3
 78
     8
 79
     2
140
3.5
141
0.0
143
0.0393701
146
0.71
147
1.5
172
     1
176
   256
177
   256
178
     2
271
     2
272
     3
274
     4
283
     0
284
     8
340
11
341
77
342
77
343
77
344
77
371
    -1
372
    -1
  0
DIMSTYLE
105
82
330
A
100
AcDbSymbolTableRecord
100
AcDbDimStyleTableRecord
  2
IGS$SH
 70
     0
  4
"
 41
2.5
 42
1.0
 43
10.0
 44
1.0
 47
0.1
 48
0.1
 73
     0
 74
     0
 75
     1
 76
     1
 77
     3
 78
     8
 79
     2
140
3.5
141
0.0
143
0.0393701
144
2.0
146
0.71
147
1.5
172
     1
173
     1
176
   256
177
   256
178
     2
271
     2
272
     3
274
     4
283
     0
284
     8
340
11
341
77
342
77
343
83
344
77
371
    -1
372
    -1
  0
DIMSTYLE
105
9A
330
A
100
AcDbSymbolTableRecord
100
AcDbDimStyleTableRecord
  2
AM_ISO
 70
     0
  4
"
 41
2.5
 42
1.0
 43
10.0
 44
1.0
 47
0.1
 48
0.1
 73
     0
 74
     0
 77
     1
 78
     8
 79
     2
140
3.5
141
0.0
143
0.0393701
146
0.71
147
1.5
172
     1
176
   256
177
   256
178
     2
271
     2
272
     3
274
     4
283
     0
284
     8
340
11
371
    -1
372
    -1
  0
DIMSTYLE
105
9B
330
A
100
AcDbSymbolTableRecord
100
AcDbDimStyleTableRecord
  2
AM_ISO$3
 70
     0
  4
"
 41
2.5
 42
1.0
 43
10.0
 44
1.0
 47
0.1
 48
0.1
 73
     0
 77
     1
 78
     8
 79
     2
140
3.5
141
0.0
143
0.0393701
146
0.71
147
1.5
176
   256
177
   256
178
     2
271
     2
272
     3
274
     4
283
     0
284
     8
288
     1
289
     0
340
11
371
    -1
372
    -1
  0
DIMSTYLE
105
9C
330
A
100
AcDbSymbolTableRecord
100
AcDbDimStyleTableRecord
  2
AM_ISO$4
 70
     0
  4
"
 41
2.5
 42
1.0
 43
10.0
 44
1.0
 47
0.1
 48
0.1
 73
     0
 77
     1
 78
     8
 79
     2
140
3.5
141
0.0
143
0.0393701
146
0.71
147
1.5
176
   256
177
   256
178
     2
271
     2
272
     3
274
     4
283
     0
284
     8
288
     1
289
     0
340
11
371
    -1
372
    -1
  0
DIMSTYLE
105
9D
330
A
100
AcDbSymbolTableRecord
100
AcDbDimStyleTableRecord
  2
AM_ISO$6
 70
     0
  4
"
 41
2.5
 42
1.0
 43
10.0
 44
1.0
 47
0.1
 48
0.1
 73
     0
 74
     0
 78
     8
 79
     2
140
3.5
141
0.0
143
0.0393701
146
0.71
147
1.5
172
     1
176
   256
177
   256
178
     2
271
     2
272
     3
274
     4
283
     0
284
     8
340
11
371
    -1
372
    -1
  0
DIMSTYLE
105
9E
330
A
100
AcDbSymbolTableRecord
100
AcDbDimStyleTableRecord
  2
AM_ISO$7
 70
     0
  4
"
 41
2.5
 42
1.0
 43
10.0
 44
1.0
 47
0.1
 48
0.1
 73
     0
 74
     0
 77
     1
 78
     8
 79
     2
140
5.0
141
0.0
143
0.0393701
146
0.71
147
1.5
172
     1
176
   256
177
   256
178
     2
271
     2
272
     3
274
     4
283
     0
284
     8
340
11
371
    -1
372
    -1
  0
DIMSTYLE
105
9F
330
A
100
AcDbSymbolTableRecord
100
AcDbDimStyleTableRecord
  2
AM_ISO$SF
 70
     0
  4
"
 41
2.5
 42
1.0
 43
10.0
 44
1.0
 47
0.1
 48
0.1
 73
     0
 74
     0
 75
     1
 76
     1
 77
     1
 78
     8
 79
     2
140
3.5
141
0.0
143
0.0393701
146
0.71
147
1.5
172
     1
176
   256
177
   256
178
     2
271
     2
272
     3
274
     4
283
     0
284
     8
340
11
371
    -1
372
    -1
  0
DIMSTYLE
105
A0
330
A
100
AcDbSymbolTableRecord
100
AcDbDimStyleTableRecord
  2
AM_ISO$SH
 70
     0
  4
"
 41
2.5
 42
1.0
 43
10.0
 44
1.0
 47
0.1
 48
0.1
 73
     0
 74
     0
 75
     1
 76
     1
 77
     1
 78
     8
 79
     2
140
3.5
141
0.0
143
0.0393701
144
2.0
146
0.71
147
1.5
172
     1
173
     1
176
   256
177
   256
178
     2
271
     2
272
     3
274
     4
283
     0
284
     8
340
11
343
83
371
    -1
372
    -1
  0
DIMSTYLE
105
317
330
A
100
AcDbSymbolTableRecord
100
AcDbDimStyleTableRecord
  2
STANDARD
 70
     0
340
11
  0
DIMSTYLE
105
318
330
A
100
AcDbSymbolTableRecord
100
AcDbDimStyleTableRecord
  2
ISO-35
 70
     0
 41
3.5
 42
0.875
 43
5.25
 44
1.75
 74
     0
 77
     1
 78
     8
140
3.5
141
3.5
143
0.0394
145
1.399999999999999
147
0.875
172
     1
340
11
  0
DIMSTYLE
105
319
330
A
100
AcDbSymbolTableRecord
100
AcDbDimStyleTableRecord
  2
ISO-5
 70
     0
 41
5.0
 42
1.25
 43
7.5
 44
2.5
 74
     0
 77
     1
 78
     8
140
5.0
141
5.0
143
0.0394
145
2.0
147
1.25
172
     1
340
11
  0
DIMSTYLE
105
31A
330
A
100
AcDbSymbolTableRecord
100
AcDbDimStyleTableRecord
  2
ISO-7
 70
     0
 41
7.0
 42
1.75
 43
10.5
 44
3.5
 74
     0
 77
     1
 78
     8
140
7.0
141
7.0
143
0.0394
145
2.799999999999999
147
1.75
172
     1
340
11
  0
DIMSTYLE
105
31B
330
A
100
AcDbSymbolTableRecord
100
AcDbDimStyleTableRecord
  2
ISO1
 70
     0
 41
10.0
 42
2.5
 43
15.0
 44
5.0
 74
     0
 77
     1
 78
     8
140
10.0
141
10.0
143
0.0394
145
4.0
147
2.5
172
     1
340
11
  0
DIMSTYLE
105
31C
330
A
100
AcDbSymbolTableRecord
100
AcDbDimStyleTableRecord
  2
ISO1-4
 70
     0
 41
14.0
 42
3.5
 43
21.0
 44
7.0
 74
     0
 77
     1
 78
     8
140
14.0
141
14.0
143
0.0394
145
5.599999999999999
147
3.5
172
     1
340
11
  0
DIMSTYLE
105
31D
330
A
100
AcDbSymbolTableRecord
100
AcDbDimStyleTableRecord
  2
ISO2
 70
     0
 41
20.0
 42
5.0
 43
30.0
 44
10.0
 74
     0
 77
     1
 78
     8
140
20.0
141
20.0
143
0.0394
145
8.0
147
5.0
172
     1
340
11
  0
DIMSTYLE
105
31E
330
A
100
AcDbSymbolTableRecord
100
AcDbDimStyleTableRecord
  2
GEN-ISO$4
 70
     0
  3
<>
 41
2.5
 42
1.0
 43
10.0
 44
1.0
 47
0.1
 48
0.1
 73
     0
 77
     1
 78
     8
140
3.5
141
0.0
143
0.0393701
146
0.71
147
1.5
176
   256
177
   256
178
     2
271
     2
272
     3
274
     4
283
     0
288
     1
289
     0
340
11
  0
DIMSTYLE
105
31F
330
A
100
AcDbSymbolTableRecord
100
AcDbDimStyleTableRecord
  2
GEN-ISO$3
 70
     0
  3
<>
 41
2.5
 42
1.0
 43
10.0
 44
1.0
 47
0.1
 48
0.1
 73
     0
 77
     1
 78
     8
140
3.5
141
0.0
143
0.0393701
146
0.71
147
1.5
176
   256
177
   256
178
     2
271
     2
272
     3
274
     4
283
     0
288
     1
289
     0
340
11
  0
DIMSTYLE
105
320
330
A
100
AcDbSymbolTableRecord
100
AcDbDimStyleTableRecord
  2
GEN-ISO
 70
     0
  3
<>
 41
2.5
 42
1.0
 43
10.0
 44
1.0
 47
0.1
 48
0.1
 73
     0
 74
     0
 77
     1
 78
     8
140
3.5
141
0.0
143
0.0393701
146
0.71
147
1.5
172
     1
176
   256
177
   256
178
     2
271
     2
272
     3
274
     4
283
     0
340
11
  0
DIMSTYLE
105
10AA
330
A
100
AcDbSymbolTableRecord
100
AcDbDimStyleTableRecord
  2
ADD
 70
     0
 40
20.0
 41
2.5
 42
2.0
 43
7.0
 44
0.5
 73
     0
 74
     0
 78
     8
140
2.299999999999999
141
-2.5
143
0.0394
145
1.0
147
0.625
172
     1
176
   144
177
   144
178
     7
271
     1
272
     1
279
     1
284
     8
340
10A8
  0
ENDTAB
  0
TABLE
  2
BLOCK_RECORD
  5
1
330
0
100
AcDbSymbolTable
 70
    46
  0
BLOCK_RECORD
  5
1F
102
{ACAD_XDICTIONARY
360
B1
102
}
330
1
100
AcDbSymbolTableRecord
100
AcDbBlockTableRecord
  2
*Model_Space
340
22
  0
BLOCK_RECORD
  5
1B
330
1
100
AcDbSymbolTableRecord
100
AcDbBlockTableRecord
  2
*Paper_Space
340
1E
  0
BLOCK_RECORD
  5
23
330
1
100
AcDbSymbolTableRecord
100
AcDbBlockTableRecord
  2
*Paper_Space0
340
26
  0
BLOCK_RECORD
  5
77
330
1
100
AcDbSymbolTableRecord
100
AcDbBlockTableRecord
  2
_Open30
340
0
310
2800000020000000200000000100080000000000000400000000000000000000000000000000000000000000000080000080000000808000800000008000800080800000C0C0C000C0DCC000F0CAA6000020400000206000002080000020A0000020C0000020E00000400000004020000040400000406000004080000040A0
310
000040C0000040E00000600000006020000060400000606000006080000060A0000060C0000060E00000800000008020000080400000806000008080000080A0000080C0000080E00000A0000000A0200000A0400000A0600000A0800000A0A00000A0C00000A0E00000C0000000C0200000C0400000C0600000C0800000C0
310
A00000C0C00000C0E00000E0000000E0200000E0400000E0600000E0800000E0A00000E0C00000E0E00040000000400020004000400040006000400080004000A0004000C0004000E00040200000402020004020400040206000402080004020A0004020C0004020E000404000004040200040404000404060004040800040
310
40A0004040C0004040E00040600000406020004060400040606000406080004060A0004060C0004060E00040800000408020004080400040806000408080004080A0004080C0004080E00040A0000040A0200040A0400040A0600040A0800040A0A00040A0C00040A0E00040C0000040C0200040C0400040C0600040C08000
310
40C0A00040C0C00040C0E00040E0000040E0200040E0400040E0600040E0800040E0A00040E0C00040E0E00080000000800020008000400080006000800080008000A0008000C0008000E00080200000802020008020400080206000802080008020A0008020C0008020E00080400000804020008040400080406000804080
310
008040A0008040C0008040E00080600000806020008060400080606000806080008060A0008060C0008060E00080800000808020008080400080806000808080008080A0008080C0008080E00080A0000080A0200080A0400080A0600080A0800080A0A00080A0C00080A0E00080C0000080C0200080C0400080C0600080C0
310
800080C0A00080C0C00080C0E00080E0000080E0200080E0400080E0600080E0800080E0A00080E0C00080E0E000C0000000C0002000C0004000C0006000C0008000C000A000C000C000C000E000C0200000C0202000C0204000C0206000C0208000C020A000C020C000C020E000C0400000C0402000C0404000C0406000C0
310
408000C040A000C040C000C040E000C0600000C0602000C0604000C0606000C0608000C060A000C060C000C060E000C0800000C0802000C0804000C0806000C0808000C080A000C080C000C080E000C0A00000C0A02000C0A04000C0A06000C0A08000C0A0A000C0A0C000C0A0E000C0C00000C0C02000C0C04000C0C06000
310
C0C08000C0C0A000F0FBFF00A4A0A000808080000000FF0000FF000000FFFF00FF000000FF00FF00FFFF0000FFFFFF0000000000000000000000000000000000000000000000000000000000000000000000000000000000000000000000000000000000000000000000000000000000000000000000000000000000000000
310
00000000000000000000000000000000000000000000000000000000000000000000000000000000000000000000000000000000000000000000000000000000000000000000000000000000000000000000000000000000000000000000000000000000000000000000000000000000000000000000000000000000000000
310
000000000000000000000000000000000000000000000000000000000000000000000000000000000000000000000000000000FFFF0000000000000000000000000000000000000000000000000000000000000000FFFFFFFF0000000000000000000000000000000000000000000000000000000000000000FFFFFFFF0000
310
000000000000000000000000000000000000000000000000000000000000FFFFFF0000000000000000000000000000000000000000000000000000000000000000FFFFFFFF0000000000000000000000000000000000000000000000000000000000000000FFFFFF0000000000000000000000000000000000000000000000
310
000000000000000000FFFFFFFF0000000000000000000000000000000000000000000000000000000000000000FFFFFFFF00000000FFFFFFFFFFFFFFFFFFFFFFFFFFFFFFFFFFFFFFFFFFFFFFFFFFFFFFFFFFFF00000000000000000000000000000000000000000000000000FFFFFFFF000000000000000000000000000000
310
000000000000000000FFFFFFFF000000000000000000000000000000000000000000000000FFFFFFFF000000000000000000000000000000000000000000000000FFFFFFFF000000000000000000000000000000000000000000000000FFFFFFFF000000000000000000000000000000000000000000000000FFFFFFFF0000
310
0000000000000000000000000000000000000000000000FFFFFF0000000000000000000000000000000000000000000000000000000000000000000000000000000000000000000000000000000000000000000000000000000000000000000000000000000000000000000000000000000000000000000000000000000000
310
00000000000000000000000000000000000000000000000000000000000000000000000000000000000000000000000000000000000000000000000000000000000000000000000000000000000000000000000000000000000000000000000000000000000000000000000000000000000000000000000000000000000000
310
0000000000000000000000000000000000000000000000000000000000000000000000000000000000000000000000000000000000000000
102
{BLKREFS
331
F21
331
F22
331
F2A
331
F2B
331
F33
331
F34
331
F60
331
F61
331
F69
331
F6A
331
FBF
331
FC0
331
116A
331
116B
331
1187
331
1188
331
119A
331
119B
331
129B
331
129C
102
}
  0
BLOCK_RECORD
  5
83
330
1
100
AcDbSymbolTableRecord
100
AcDbBlockTableRecord
  2
GENAXEH
340
0
310
2800000020000000200000000100080000000000000400000000000000000000000000000000000000000000000080000080000000808000800000008000800080800000C0C0C000C0DCC000F0CAA6000020400000206000002080000020A0000020C0000020E00000400000004020000040400000406000004080000040A0
310
000040C0000040E00000600000006020000060400000606000006080000060A0000060C0000060E00000800000008020000080400000806000008080000080A0000080C0000080E00000A0000000A0200000A0400000A0600000A0800000A0A00000A0C00000A0E00000C0000000C0200000C0400000C0600000C0800000C0
310
A00000C0C00000C0E00000E0000000E0200000E0400000E0600000E0800000E0A00000E0C00000E0E00040000000400020004000400040006000400080004000A0004000C0004000E00040200000402020004020400040206000402080004020A0004020C0004020E000404000004040200040404000404060004040800040
310
40A0004040C0004040E00040600000406020004060400040606000406080004060A0004060C0004060E00040800000408020004080400040806000408080004080A0004080C0004080E00040A0000040A0200040A0400040A0600040A0800040A0A00040A0C00040A0E00040C0000040C0200040C0400040C0600040C08000
310
40C0A00040C0C00040C0E00040E0000040E0200040E0400040E0600040E0800040E0A00040E0C00040E0E00080000000800020008000400080006000800080008000A0008000C0008000E00080200000802020008020400080206000802080008020A0008020C0008020E00080400000804020008040400080406000804080
310
008040A0008040C0008040E00080600000806020008060400080606000806080008060A0008060C0008060E00080800000808020008080400080806000808080008080A0008080C0008080E00080A0000080A0200080A0400080A0600080A0800080A0A00080A0C00080A0E00080C0000080C0200080C0400080C0600080C0
310
800080C0A00080C0C00080C0E00080E0000080E0200080E0400080E0600080E0800080E0A00080E0C00080E0E000C0000000C0002000C0004000C0006000C0008000C000A000C000C000C000E000C0200000C0202000C0204000C0206000C0208000C020A000C020C000C020E000C0400000C0402000C0404000C0406000C0
310
408000C040A000C040C000C040E000C0600000C0602000C0604000C0606000C0608000C060A000C060C000C060E000C0800000C0802000C0804000C0806000C0808000C080A000C080C000C080E000C0A00000C0A02000C0A04000C0A06000C0A08000C0A0A000C0A0C000C0A0E000C0C00000C0C02000C0C04000C0C06000
310
C0C08000C0C0A000F0FBFF00A4A0A000808080000000FF0000FF000000FFFF00FF000000FF00FF00FFFF0000FFFFFF0000000000000000000000000000000000000000000000000000000000000000000000000000000000000000000000000000000000000000000000000000000000000000000000000000000000000000
310
00000000000000000000000000000000000000000000000000000000000000000000000000000000000000000000000000000000000000000000000000000000000000000000000000000000000000000000000000000000000000000000000000000000000000000000000000000000000000000000000000000000000000
310
00000000000000000000000000000000000000000000000000000000000000000000000000000000000000000000000000000000000000000000000000000000000000000000000000000000000000000000000000000000000000000000000000000000000000000000000000000000000000000000000000000000000000
310
00000000000000000000000000000000000000000000000000000000000000000000000000000000000000000000000000000000000000000000000000000000000000000000000000000000000000000000000000000000000000000000000000000000000000000000000000000000000000000000000000000000000000
310
0000000000000000000000000000000000000000000000000000000000000000000000000000000000000000000000000000000000FFFFFFFFFFFFFFFFFFFFFFFFFFFFFFFFFFFFFFFFFFFFFFFFFFFFFFFFFFFF0000000000000000000000000000000000000000000000000000000000000000000000000000000000000000
310
00000000000000000000000000000000000000000000000000000000000000000000000000000000000000000000000000000000000000000000000000000000000000000000000000000000000000000000000000000000000000000000000000000000000000000000000000000000000000000000000000000000000000
310
00000000000000000000000000000000000000000000000000000000000000000000000000000000000000000000000000000000000000000000000000000000000000000000000000000000000000000000000000000000000000000000000000000000000000000000000000000000000000000000000000000000000000
310
00000000000000000000000000000000000000000000000000000000000000000000000000000000000000000000000000000000000000000000000000000000000000000000000000000000000000000000000000000000000000000000000000000000000000000000000000000000000000000000000000000000000000
310
0000000000000000000000000000000000000000000000000000000000000000000000000000000000000000000000000000000000000000
  0
BLOCK_RECORD
  5
1F1
330
1
100
AcDbSymbolTableRecord
100
AcDbBlockTableRecord
  2
IGS_A2
340
0
310
2800000020000000200000000100080000000000000400000000000000000000000000000000000000000000000080000080000000808000800000008000800080800000C0C0C000C0DCC000F0CAA6000020400000206000002080000020A0000020C0000020E00000400000004020000040400000406000004080000040A0
310
000040C0000040E00000600000006020000060400000606000006080000060A0000060C0000060E00000800000008020000080400000806000008080000080A0000080C0000080E00000A0000000A0200000A0400000A0600000A0800000A0A00000A0C00000A0E00000C0000000C0200000C0400000C0600000C0800000C0
310
A00000C0C00000C0E00000E0000000E0200000E0400000E0600000E0800000E0A00000E0C00000E0E00040000000400020004000400040006000400080004000A0004000C0004000E00040200000402020004020400040206000402080004020A0004020C0004020E000404000004040200040404000404060004040800040
310
40A0004040C0004040E00040600000406020004060400040606000406080004060A0004060C0004060E00040800000408020004080400040806000408080004080A0004080C0004080E00040A0000040A0200040A0400040A0600040A0800040A0A00040A0C00040A0E00040C0000040C0200040C0400040C0600040C08000
310
40C0A00040C0C00040C0E00040E0000040E0200040E0400040E0600040E0800040E0A00040E0C00040E0E00080000000800020008000400080006000800080008000A0008000C0008000E00080200000802020008020400080206000802080008020A0008020C0008020E00080400000804020008040400080406000804080
310
008040A0008040C0008040E00080600000806020008060400080606000806080008060A0008060C0008060E00080800000808020008080400080806000808080008080A0008080C0008080E00080A0000080A0200080A0400080A0600080A0800080A0A00080A0C00080A0E00080C0000080C0200080C0400080C0600080C0
310
800080C0A00080C0C00080C0E00080E0000080E0200080E0400080E0600080E0800080E0A00080E0C00080E0E000C0000000C0002000C0004000C0006000C0008000C000A000C000C000C000E000C0200000C0202000C0204000C0206000C0208000C020A000C020C000C020E000C0400000C0402000C0404000C0406000C0
310
408000C040A000C040C000C040E000C0600000C0602000C0604000C0606000C0608000C060A000C060C000C060E000C0800000C0802000C0804000C0806000C0808000C080A000C080C000C080E000C0A00000C0A02000C0A04000C0A06000C0A08000C0A0A000C0A0C000C0A0E000C0C00000C0C02000C0C04000C0C06000
310
C0C08000C0C0A000F0FBFF00A4A0A000808080000000FF0000FF000000FFFF00FF000000FF00FF00FFFF0000FFFFFF0000000000000000000000000000000000000000000000000000000000000000000000000000000000000000000000000000000000000000000000000000000000000000000000000000000000000000
310
000000000000000000000000000000000000000000000000000000000000000000000000000000000000000000000000000000000000000000000000000000000000000000000000000000000000000000000000000000000000000000000000000000000000000000000000000000000000F9F9F9F9F9F9F9F9F9F9F9F9F9
310
F9F9F9F9F9F9F9F9F9F9F9F9F9F90000000000F9FFFFFFFFFFFFFFFFFFFFFFFFFFFFFFFFFFFFFFFFFFFFFFFFFFF90000000000F9FF0000000000000000000000000000000000000000000000FFF90000000000F9FF0000000000000000000000000000000000000000000000FFF90000000000F9FF00000000000000000000
310
00000000000000000000000000FFF90000000000F9FF0000000000000000000000000000000000000000000000FFF90000000000F9FF0000000000000000000000000000000000000000000000FFF90000000000F9FF0000000000000000000000000000000000000000000000FFF90000000000F9FF000000000000000000
310
0000000000000000000000000000FFF90000000000F9FF0000000000000000000000000000000000000000000000FFF90000000000F9FF0000000000000000000000000000000000000000000000FFF90000000000F9FF0000000000000000000000000000000000000000000000FFF90000000000F9FF0000000000000000
310
000000000000000000000000000000FFF90000000000F9FF0000000000000000000000000000000000000000000000FFF90000000000F9FF0000000000000000000000000000000000000000000000FFF90000000000F9FF0000000000000000000000000000000000000000000000FFF90000000000F9FF00000000000000
310
00000000000000000000000000000000FFF90000000000F9FF0000000000000000000000000000000000000000000000FFF90000000000F9F9F9F9F9F9F9F9F9F9F9F9F9F9F9F9F9F9F9F9F9F9F9F9F9F9F9000000000000000000000000000000000000000000000000000000000000000000000000000000000000000000
310
00000000000000000000000000000000000000000000000000000000000000000000000000000000000000000000000000000000000000000000000000000000000000000000000000000000000000000000000000000000000000000000000000000000000000000000000000000000000000000000000000000000000000
310
0000000000000000000000000000000000000000000000000000000000000000000000000000000000000000000000000000000000000000
  0
BLOCK_RECORD
  5
210
330
1
100
AcDbSymbolTableRecord
100
AcDbBlockTableRecord
  2
GEN_A4
340
0
310
2800000020000000200000000100080000000000000400000000000000000000000000000000000000000000000080000080000000808000800000008000800080800000C0C0C000C0DCC000F0CAA6000020400000206000002080000020A0000020C0000020E00000400000004020000040400000406000004080000040A0
310
000040C0000040E00000600000006020000060400000606000006080000060A0000060C0000060E00000800000008020000080400000806000008080000080A0000080C0000080E00000A0000000A0200000A0400000A0600000A0800000A0A00000A0C00000A0E00000C0000000C0200000C0400000C0600000C0800000C0
310
A00000C0C00000C0E00000E0000000E0200000E0400000E0600000E0800000E0A00000E0C00000E0E00040000000400020004000400040006000400080004000A0004000C0004000E00040200000402020004020400040206000402080004020A0004020C0004020E000404000004040200040404000404060004040800040
310
40A0004040C0004040E00040600000406020004060400040606000406080004060A0004060C0004060E00040800000408020004080400040806000408080004080A0004080C0004080E00040A0000040A0200040A0400040A0600040A0800040A0A00040A0C00040A0E00040C0000040C0200040C0400040C0600040C08000
310
40C0A00040C0C00040C0E00040E0000040E0200040E0400040E0600040E0800040E0A00040E0C00040E0E00080000000800020008000400080006000800080008000A0008000C0008000E00080200000802020008020400080206000802080008020A0008020C0008020E00080400000804020008040400080406000804080
310
008040A0008040C0008040E00080600000806020008060400080606000806080008060A0008060C0008060E00080800000808020008080400080806000808080008080A0008080C0008080E00080A0000080A0200080A0400080A0600080A0800080A0A00080A0C00080A0E00080C0000080C0200080C0400080C0600080C0
310
800080C0A00080C0C00080C0E00080E0000080E0200080E0400080E0600080E0800080E0A00080E0C00080E0E000C0000000C0002000C0004000C0006000C0008000C000A000C000C000C000E000C0200000C0202000C0204000C0206000C0208000C020A000C020C000C020E000C0400000C0402000C0404000C0406000C0
310
408000C040A000C040C000C040E000C0600000C0602000C0604000C0606000C0608000C060A000C060C000C060E000C0800000C0802000C0804000C0806000C0808000C080A000C080C000C080E000C0A00000C0A02000C0A04000C0A06000C0A08000C0A0A000C0A0C000C0A0E000C0C00000C0C02000C0C04000C0C06000
310
C0C08000C0C0A000F0FBFF00A4A0A000808080000000FF0000FF000000FFFF00FF000000FF00FF00FFFF0000FFFFFF00000000000000000000000000000000000000000000000000000000000000000000000000F9F9F9F9F9F9F9F9F9F9F9F9F9F9F9F9F9F9F9F9F90000000000000000000000F900FFFFFFFFFFFFFFFFFF
310
FFFFFFFFFFFFFFFFFFF90000000000000000000000F900FF00000000000000000000000000000000FFF90000000000000000000000F900FF00000000000000000000000000000000FFF90000000000000000000000F900FF00000000000000000000000000000000FFF90000000000000000000000F900FF00000000000000
310
000000000000000000FFF90000000000000000000000F900FF00000000000000000000000000000000FFF90000000000000000000000F900FF00000000000000000000000000000000FFF90000000000000000000000F900FF00000000000000000000000000000000FFF90000000000000000000000F900FF000000000000
310
00000000000000000000FFF90000000000000000000000F9F9F900000000000000000000000000000000FFF90000000000000000000000F9F9FF00000000000000000000000000000000FFF90000000000000000000000F9F9FF00000000000000000000000000000000FFF90000000000000000000000F9F9FF0000000000
310
0000000000000000000000FFF90000000000000000000000F9F9F900000000000000000000000000000000FFF90000000000000000000000F9F9FF00000000000000000000000000000000FFF90000000000000000000000F9F9FF00000000000000000000000000000000FFF90000000000000000000000F9F9FF00000000
310
000000000000000000000000FFF90000000000000000000000F9F9FF00000000000000000000000000000000FFF90000000000000000000000F9F9F900000000000000000000000000000000FFF90000000000000000000000F9F9FF00000000000000000000000000000000FFF90000000000000000000000F9F9FF000000
310
00000000000000000000000000FFF90000000000000000000000F9F9FF00000000000000000000000000000000FFF90000000000000000000000F9F9F900000000000000000000000000000000FFF90000000000000000000000F9F9FF00000000000000000000000000000000FFF90000000000000000000000F9F9FF0000
310
0000000000000000000000000000FFF90000000000000000000000F9F9FF00000000000000000000000000000000FFF90000000000000000000000F9F9FFF9F9F9F9F9F9F9F9F9F9F9F9F9F9F9F9F9F90000000000000000000000F9F9F9FFF9FFF9FFF9FFF9FFFFF9FFF9FFF9FFFFF9000000000000000000000000000000
310
0000000000000000000000000000000000000000000000000000000000000000000000000000000000000000000000000000000000000000
  0
BLOCK_RECORD
  5
232
330
1
100
AcDbSymbolTableRecord
100
AcDbBlockTableRecord
  2
GENTITUS
340
0
310
2800000020000000200000000100080000000000000400000000000000000000000000000000000000000000000080000080000000808000800000008000800080800000C0C0C000C0DCC000F0CAA6000020400000206000002080000020A0000020C0000020E00000400000004020000040400000406000004080000040A0
310
000040C0000040E00000600000006020000060400000606000006080000060A0000060C0000060E00000800000008020000080400000806000008080000080A0000080C0000080E00000A0000000A0200000A0400000A0600000A0800000A0A00000A0C00000A0E00000C0000000C0200000C0400000C0600000C0800000C0
310
A00000C0C00000C0E00000E0000000E0200000E0400000E0600000E0800000E0A00000E0C00000E0E00040000000400020004000400040006000400080004000A0004000C0004000E00040200000402020004020400040206000402080004020A0004020C0004020E000404000004040200040404000404060004040800040
310
40A0004040C0004040E00040600000406020004060400040606000406080004060A0004060C0004060E00040800000408020004080400040806000408080004080A0004080C0004080E00040A0000040A0200040A0400040A0600040A0800040A0A00040A0C00040A0E00040C0000040C0200040C0400040C0600040C08000
310
40C0A00040C0C00040C0E00040E0000040E0200040E0400040E0600040E0800040E0A00040E0C00040E0E00080000000800020008000400080006000800080008000A0008000C0008000E00080200000802020008020400080206000802080008020A0008020C0008020E00080400000804020008040400080406000804080
310
008040A0008040C0008040E00080600000806020008060400080606000806080008060A0008060C0008060E00080800000808020008080400080806000808080008080A0008080C0008080E00080A0000080A0200080A0400080A0600080A0800080A0A00080A0C00080A0E00080C0000080C0200080C0400080C0600080C0
310
800080C0A00080C0C00080C0E00080E0000080E0200080E0400080E0600080E0800080E0A00080E0C00080E0E000C0000000C0002000C0004000C0006000C0008000C000A000C000C000C000E000C0200000C0202000C0204000C0206000C0208000C020A000C020C000C020E000C0400000C0402000C0404000C0406000C0
310
408000C040A000C040C000C040E000C0600000C0602000C0604000C0606000C0608000C060A000C060C000C060E000C0800000C0802000C0804000C0806000C0808000C080A000C080C000C080E000C0A00000C0A02000C0A04000C0A06000C0A08000C0A0A000C0A0C000C0A0E000C0C00000C0C02000C0C04000C0C06000
310
C0C08000C0C0A000F0FBFF00A4A0A000808080000000FF0000FF000000FFFF00FF000000FF00FF00FFFF0000FFFFFF0000000000000000000000000000000000000000000000000000000000000000000000000000000000000000000000000000000000000000000000000000000000000000000000000000000000000000
310
00000000000000000000000000000000000000000000000000000000000000000000000000000000000000000000000000000000000000000000000000000000000000000000000000000000000000000000000000000000000000000000000000000000000000000000000000000000000000000000000000000000000000
310
00000000000000000000000000000000000000000000000000000000000000000000000000000000000000000000000000000000000000000000000000000000000000000000000000000000000000000000000000000000000000000000000000000000000000000000000000000000000000000000000000000000000000
310
0000000000000000000000000000000000000000FFFFFFFFFFFFFFFFFFF9F9FFFFFFFFF9FFFFFFFFFFFFF9F9FFFFFFFFFFFFF900F9F9F9F9F9F9F9F9F9F9F9F9F9F9F9F9F9F9F9F9F9F9F9F9F9F9F9F9F9F9F900FF0000000000000000F9F9F9F9F9F9F9F9F9FFFFFFFFFFFFFFFFFFF9FFFF0000F9F9F9F9F9F9F9F9F9F9FF
310
F9FFFFFFF9FFFFFFFFFFFFFFFFFFFFFFF9FFFF0000F9F9F9F9F9F9F9F9F9F9F9F9F9FBFBFBFBFBFBFBFB0000000000000000FF0000F9F9F9F9F9F9F9F9F9F9F9F9F9FFFFFFFFFFFFFFFFFFFFFF0000000000FF0000F9F9F9F9F9F9F9F9F9F9F9F9F9FFFFFFFFFFFFFFFFFFFFFF0000000000FF0000F9F9F9F9F9F9F9F9F9F9
310
F9F9F9F9F9F9F9F9F9F9F9F9F9F9F9F9F9F9F9FF0000FFF9F9F900F9F9F9F9FFF9F9FBFBFBFBFBFBFBFBFB0000000000000000FF0000F9F9F9F9F9F9F9F9F9F9FFFFFFFFFFFFFFFFFFFFFFFFFFFFFFFFFFFFFFFF00000000000000000000000000000000000000000000000000000000000000000000000000000000000000
310
00000000000000000000000000000000000000000000000000000000000000000000000000000000000000000000000000000000000000000000000000000000000000000000000000000000000000000000000000000000000000000000000000000000000000000000000000000000000000000000000000000000000000
310
00000000000000000000000000000000000000000000000000000000000000000000000000000000000000000000000000000000000000000000000000000000000000000000000000000000000000000000000000000000000000000000000000000000000000000000000000000000000000000000000000000000000000
310
0000000000000000000000000000000000000000000000000000000000000000000000000000000000000000000000000000000000000000
  0
BLOCK_RECORD
  5
26D
330
1
100
AcDbSymbolTableRecord
100
AcDbBlockTableRecord
  2
IGS-A4
340
0
310
2800000020000000200000000100080000000000000400000000000000000000000000000000000000000000000080000080000000808000800000008000800080800000C0C0C000C0DCC000F0CAA6000020400000206000002080000020A0000020C0000020E00000400000004020000040400000406000004080000040A0
310
000040C0000040E00000600000006020000060400000606000006080000060A0000060C0000060E00000800000008020000080400000806000008080000080A0000080C0000080E00000A0000000A0200000A0400000A0600000A0800000A0A00000A0C00000A0E00000C0000000C0200000C0400000C0600000C0800000C0
310
A00000C0C00000C0E00000E0000000E0200000E0400000E0600000E0800000E0A00000E0C00000E0E00040000000400020004000400040006000400080004000A0004000C0004000E00040200000402020004020400040206000402080004020A0004020C0004020E000404000004040200040404000404060004040800040
310
40A0004040C0004040E00040600000406020004060400040606000406080004060A0004060C0004060E00040800000408020004080400040806000408080004080A0004080C0004080E00040A0000040A0200040A0400040A0600040A0800040A0A00040A0C00040A0E00040C0000040C0200040C0400040C0600040C08000
310
40C0A00040C0C00040C0E00040E0000040E0200040E0400040E0600040E0800040E0A00040E0C00040E0E00080000000800020008000400080006000800080008000A0008000C0008000E00080200000802020008020400080206000802080008020A0008020C0008020E00080400000804020008040400080406000804080
310
008040A0008040C0008040E00080600000806020008060400080606000806080008060A0008060C0008060E00080800000808020008080400080806000808080008080A0008080C0008080E00080A0000080A0200080A0400080A0600080A0800080A0A00080A0C00080A0E00080C0000080C0200080C0400080C0600080C0
310
800080C0A00080C0C00080C0E00080E0000080E0200080E0400080E0600080E0800080E0A00080E0C00080E0E000C0000000C0002000C0004000C0006000C0008000C000A000C000C000C000E000C0200000C0202000C0204000C0206000C0208000C020A000C020C000C020E000C0400000C0402000C0404000C0406000C0
310
408000C040A000C040C000C040E000C0600000C0602000C0604000C0606000C0608000C060A000C060C000C060E000C0800000C0802000C0804000C0806000C0808000C080A000C080C000C080E000C0A00000C0A02000C0A04000C0A06000C0A08000C0A0A000C0A0C000C0A0E000C0C00000C0C02000C0C04000C0C06000
310
C0C08000C0C0A000F0FBFF00A4A0A000808080000000FF0000FF000000FFFF00FF000000FF00FF00FFFF0000FFFFFF0000000000000000000000000000000000000000000000000000000000000000000000000000000000000000000000000000000000000000000000000000000000000000000000FFFFFFFFFFFFFFFFFF
310
FFFFFFFFFFFFFFFFFF0000000000000000000000000000FF00000000000000000000000000000000FF0000000000000000000000000000FF00000000000000000000000000000000FF0000000000000000000000000000FF00000000000000000000000000000000FF0000000000000000000000000000FF00000000000000
310
000000000000000000FF0000000000000000000000000000FF00000000000000000000000000000000FF0000000000000000000000000000FF00000000000000000000000000000000FF0000000000000000000000000000FF00000000000000000000000000000000FF0000000000000000000000000000FF000000000000
310
00000000000000000000FF0000000000000000000000000000FF00000000000000000000000000000000FF0000000000000000000000000000FF00000000000000000000000000000000FF0000000000000000000000000000FF00000000000000000000000000000000FF0000000000000000000000000000FF0000000000
310
0000000000000000000000FF0000000000000000000000000000FF00000000000000000000000000000000FF0000000000000000000000000000FF00000000000000000000000000000000FF0000000000000000000000000000FF00000000000000000000000000000000FF0000000000000000000000000000FF00000000
310
000000000000000000000000FF0000000000000000000000000000FF00000000000000000000000000000000FF0000000000000000000000000000FF00000000000000000000000000000000FF0000000000000000000000000000FF00000000000000000000000000000000FF0000000000000000000000000000FF000000
310
00000000000000000000000000FF0000000000000000000000000000FF00000000000000000000000000000000FF0000000000000000000000000000FF00000000000000000000000000000000FF0000000000000000000000000000FF00000000000000000000000000000000FF0000000000000000000000000000FF0000
310
0000000000000000000000000000FF0000000000000000000000000000FF00000000000000000000000000000000FF0000000000000000000000000000FF00000000000000000000000000000000FF0000000000000000000000000000FFFFFFFFFFFFFFFFFFFFFFFFFFFFFFFFFFFF00000000000000000000000000000000
310
0000000000000000000000000000000000000000000000000000000000000000000000000000000000000000000000000000000000000000
  0
BLOCK_RECORD
  5
279
330
1
100
AcDbSymbolTableRecord
100
AcDbBlockTableRecord
  2
CI
340
0
310
2800000020000000200000000100080000000000000400000000000000000000000000000000000000000000000080000080000000808000800000008000800080800000C0C0C000C0DCC000F0CAA6000020400000206000002080000020A0000020C0000020E00000400000004020000040400000406000004080000040A0
310
000040C0000040E00000600000006020000060400000606000006080000060A0000060C0000060E00000800000008020000080400000806000008080000080A0000080C0000080E00000A0000000A0200000A0400000A0600000A0800000A0A00000A0C00000A0E00000C0000000C0200000C0400000C0600000C0800000C0
310
A00000C0C00000C0E00000E0000000E0200000E0400000E0600000E0800000E0A00000E0C00000E0E00040000000400020004000400040006000400080004000A0004000C0004000E00040200000402020004020400040206000402080004020A0004020C0004020E000404000004040200040404000404060004040800040
310
40A0004040C0004040E00040600000406020004060400040606000406080004060A0004060C0004060E00040800000408020004080400040806000408080004080A0004080C0004080E00040A0000040A0200040A0400040A0600040A0800040A0A00040A0C00040A0E00040C0000040C0200040C0400040C0600040C08000
310
40C0A00040C0C00040C0E00040E0000040E0200040E0400040E0600040E0800040E0A00040E0C00040E0E00080000000800020008000400080006000800080008000A0008000C0008000E00080200000802020008020400080206000802080008020A0008020C0008020E00080400000804020008040400080406000804080
310
008040A0008040C0008040E00080600000806020008060400080606000806080008060A0008060C0008060E00080800000808020008080400080806000808080008080A0008080C0008080E00080A0000080A0200080A0400080A0600080A0800080A0A00080A0C00080A0E00080C0000080C0200080C0400080C0600080C0
310
800080C0A00080C0C00080C0E00080E0000080E0200080E0400080E0600080E0800080E0A00080E0C00080E0E000C0000000C0002000C0004000C0006000C0008000C000A000C000C000C000E000C0200000C0202000C0204000C0206000C0208000C020A000C020C000C020E000C0400000C0402000C0404000C0406000C0
310
408000C040A000C040C000C040E000C0600000C0602000C0604000C0606000C0608000C060A000C060C000C060E000C0800000C0802000C0804000C0806000C0808000C080A000C080C000C080E000C0A00000C0A02000C0A04000C0A06000C0A08000C0A0A000C0A0C000C0A0E000C0C00000C0C02000C0C04000C0C06000
310
C0C08000C0C0A000F0FBFF00A4A0A000808080000000FF0000FF000000FFFF00FF000000FF00FF00FFFF0000FFFFFF0000000000000000000000000000000000000000000000000000000000000000000000000000000000000000000000000000000000000000000000000000000000000000000000000000000000FFFFFF
310
00000000000000000000000000000000000000000000000000000000FF000000FFFFFFFFFFFF0000000000000000000000000000000000000000FFFF00000000000000000000FFFFFFFF000000000000000000000000000000FF00000000000000000000000000000000FF00000000000000000000000000FF000000000000
310
0000000000000000000000FF0000000000000000000000FFFF00000000000000000000000000000000000000FF000000000000000000FF000000000000000000000000000000000000000000FF0000000000000000FF0000000000000000000000000000000000000000000000FF00000000000000FF000000000000000000
310
0000000000000000000000000000FF00000000000000FF000000000000000000000000000000000000000000000000FF000000000000FF000000000000000000000000000000000000000000000000FF000000000000FF00000000000000000000000000000000000000000000000000FF0000000000FF0000000000000000
310
0000000000000000000000000000000000FF0000000000FF0000000000000000000000000000000000000000000000000000FF00000000FF0000000000000000000000000000000000000000000000000000FF00000000FF00000000000000000000000000000000000000000000000000FF0000000000FF00000000000000
310
000000000000000000000000000000000000FF0000000000FF000000000000000000000000000000000000000000000000FF000000000000FF000000000000000000000000000000000000000000000000FF000000000000FF0000000000000000000000000000000000000000000000FF00000000000000FF000000000000
310
0000000000000000000000000000000000FF0000000000000000FF000000000000000000000000000000000000000000FF00000000000000000000FFFF00000000000000000000000000000000000000FF000000000000000000000000FF0000000000000000000000000000000000FF0000000000000000000000000000FF
310
00000000000000000000000000000000FF000000000000000000000000000000FFFF0000000000000000000000FFFFFF000000000000000000000000000000000000FF00000000FFFFFFFFFFFF00000000000000000000000000000000000000000000FFFFFFFF000000000000000000000000000000000000000000000000
310
0000000000000000000000000000000000000000000000000000000000000000000000000000000000000000000000000000000000000000
  0
BLOCK_RECORD
  5
27D
330
1
100
AcDbSymbolTableRecord
100
AcDbBlockTableRecord
  2
IGS-TITLE
340
0
310
2800000020000000200000000100080000000000000400000000000000000000000000000000000000000000000080000080000000808000800000008000800080800000C0C0C000C0DCC000F0CAA6000020400000206000002080000020A0000020C0000020E00000400000004020000040400000406000004080000040A0
310
000040C0000040E00000600000006020000060400000606000006080000060A0000060C0000060E00000800000008020000080400000806000008080000080A0000080C0000080E00000A0000000A0200000A0400000A0600000A0800000A0A00000A0C00000A0E00000C0000000C0200000C0400000C0600000C0800000C0
310
A00000C0C00000C0E00000E0000000E0200000E0400000E0600000E0800000E0A00000E0C00000E0E00040000000400020004000400040006000400080004000A0004000C0004000E00040200000402020004020400040206000402080004020A0004020C0004020E000404000004040200040404000404060004040800040
310
40A0004040C0004040E00040600000406020004060400040606000406080004060A0004060C0004060E00040800000408020004080400040806000408080004080A0004080C0004080E00040A0000040A0200040A0400040A0600040A0800040A0A00040A0C00040A0E00040C0000040C0200040C0400040C0600040C08000
310
40C0A00040C0C00040C0E00040E0000040E0200040E0400040E0600040E0800040E0A00040E0C00040E0E00080000000800020008000400080006000800080008000A0008000C0008000E00080200000802020008020400080206000802080008020A0008020C0008020E00080400000804020008040400080406000804080
310
008040A0008040C0008040E00080600000806020008060400080606000806080008060A0008060C0008060E00080800000808020008080400080806000808080008080A0008080C0008080E00080A0000080A0200080A0400080A0600080A0800080A0A00080A0C00080A0E00080C0000080C0200080C0400080C0600080C0
310
800080C0A00080C0C00080C0E00080E0000080E0200080E0400080E0600080E0800080E0A00080E0C00080E0E000C0000000C0002000C0004000C0006000C0008000C000A000C000C000C000E000C0200000C0202000C0204000C0206000C0208000C020A000C020C000C020E000C0400000C0402000C0404000C0406000C0
310
408000C040A000C040C000C040E000C0600000C0602000C0604000C0606000C0608000C060A000C060C000C060E000C0800000C0802000C0804000C0806000C0808000C080A000C080C000C080E000C0A00000C0A02000C0A04000C0A06000C0A08000C0A0A000C0A0C000C0A0E000C0C00000C0C02000C0C04000C0C06000
310
C0C08000C0C0A000F0FBFF00A4A0A000808080000000FF0000FF000000FFFF00FF000000FF00FF00FFFF0000FFFFFF0000000000000000000000000000000000000000000000000000000000000000000000000000000000000000000000000000000000000000000000000000000000000000000000000000000000000000
310
00000000000000000000000000000000000000000000000000000000000000000000000000000000000000000000000000000000000000000000000000000000000000000000000000000000000000000000000000000000000000000000000000000000000000000000000000000000000000000000000000000000000000
310
00000000000000000000000000000000000000000000000000000000000000000000000000000000000000000000000000000000000000000000000000000000000000000000000000000000000000000000000000000000000000000000000000000000000000000000000000000000000000000000000000000000000000
310
0000000000000000000000000000000000000000000000000000000000000000000000000000000000000000000000000000000000000000000000000000000000000000000000000000000000000000000000000000000000000000000000000000000000000000000000000000000000000000FFFFFFFFFFFFFFFFFFFFFF
310
FFFFFFFFFFFFFFFFFFFFFFFFFFFFFFFFFFFFFF0000FFFFFFFFFFFFFFFFFFFFFFFFFFFFFFFFFFFFFFFFFFFFFFFFFFFFFFFFFFFF0000FFFFFFFFFFFFFFFFFFFFFFFFFFFFFFFFFFFF00000000FFFF000000FFFFFF0000FFFFFFFFFFFFFFFFFFFFFFFFFFFFFFFFFFFFFFFFFFFFFFFFFFFFFFFFFFFF000000000000000000000000
310
00000000000000000000000000000000000000000000000000000000000000000000000000000000000000000000000000000000000000000000000000000000000000000000000000000000000000000000000000000000000000000000000000000000000000000000000000000000000000000000000000000000000000
310
00000000000000000000000000000000000000000000000000000000000000000000000000000000000000000000000000000000000000000000000000000000000000000000000000000000000000000000000000000000000000000000000000000000000000000000000000000000000000000000000000000000000000
310
00000000000000000000000000000000000000000000000000000000000000000000000000000000000000000000000000000000000000000000000000000000000000000000000000000000000000000000000000000000000000000000000000000000000000000000000000000000000000000000000000000000000000
310
0000000000000000000000000000000000000000000000000000000000000000000000000000000000000000000000000000000000000000
  0
BLOCK_RECORD
  5
335
330
1
100
AcDbSymbolTableRecord
100
AcDbBlockTableRecord
  2
IGS2
340
0
310
2800000020000000200000000100080000000000000400000000000000000000000000000000000000000000000080000080000000808000800000008000800080800000C0C0C000C0DCC000F0CAA6000020400000206000002080000020A0000020C0000020E00000400000004020000040400000406000004080000040A0
310
000040C0000040E00000600000006020000060400000606000006080000060A0000060C0000060E00000800000008020000080400000806000008080000080A0000080C0000080E00000A0000000A0200000A0400000A0600000A0800000A0A00000A0C00000A0E00000C0000000C0200000C0400000C0600000C0800000C0
310
A00000C0C00000C0E00000E0000000E0200000E0400000E0600000E0800000E0A00000E0C00000E0E00040000000400020004000400040006000400080004000A0004000C0004000E00040200000402020004020400040206000402080004020A0004020C0004020E000404000004040200040404000404060004040800040
310
40A0004040C0004040E00040600000406020004060400040606000406080004060A0004060C0004060E00040800000408020004080400040806000408080004080A0004080C0004080E00040A0000040A0200040A0400040A0600040A0800040A0A00040A0C00040A0E00040C0000040C0200040C0400040C0600040C08000
310
40C0A00040C0C00040C0E00040E0000040E0200040E0400040E0600040E0800040E0A00040E0C00040E0E00080000000800020008000400080006000800080008000A0008000C0008000E00080200000802020008020400080206000802080008020A0008020C0008020E00080400000804020008040400080406000804080
310
008040A0008040C0008040E00080600000806020008060400080606000806080008060A0008060C0008060E00080800000808020008080400080806000808080008080A0008080C0008080E00080A0000080A0200080A0400080A0600080A0800080A0A00080A0C00080A0E00080C0000080C0200080C0400080C0600080C0
310
800080C0A00080C0C00080C0E00080E0000080E0200080E0400080E0600080E0800080E0A00080E0C00080E0E000C0000000C0002000C0004000C0006000C0008000C000A000C000C000C000E000C0200000C0202000C0204000C0206000C0208000C020A000C020C000C020E000C0400000C0402000C0404000C0406000C0
310
408000C040A000C040C000C040E000C0600000C0602000C0604000C0606000C0608000C060A000C060C000C060E000C0800000C0802000C0804000C0806000C0808000C080A000C080C000C080E000C0A00000C0A02000C0A04000C0A06000C0A08000C0A0A000C0A0C000C0A0E000C0C00000C0C02000C0C04000C0C06000
310
C0C08000C0C0A000F0FBFF00A4A0A000808080000000FF0000FF000000FFFF00FF000000FF00FF00FFFF0000FFFFFF0000000000000000000000000000000000000000000000000000000000000000000000000000000000000000000000000000000000000000000000000000000000000000000000000000000000000000
310
00000000000000000000000000000000000000000000000000000000000000000000000000000000000000000000000000000000000000000000000000000000000000000000000000000000000000000000F9FBFBF9F9F9FBFBF9F9F9F90000000000000000000000000000000000000000F9F9FBFBFBFBFBFBFBF9F9F900
310
00000000000000000000000000000000000000F9FBFBFBFBFBFBFBFBF9F9F90000000000000000000000000000000000000000F9F9F9F9F9F9F9F9F9F9F9F900000000000000000000000000000000000000000000000000000000000000000000000000000000000000000000000000000000000000000000000000000000
310
00000000000000000000000000000000000000000000000000000000000000000000000000000000000000000000000000000000000000000000000000000000000000000000000000000000000000000000000000000000000000000000000000000000000000000000000000000000000000000000000000000000000000
310
00000000000000000000000000000000000000000000000000000000000000000000000000000000000000000000000000000000000000000000000000000000000000000000000000000000000000000000000000000000000000000000000000000000000000000000000000000000000000000000000000000000000000
310
00000000000000000000000000000000000000000000000000000000000000000000000000000000000000000000000000000000000000000000000000000000000000000000000000000000000000000000000000000000000000000000000000000000000000000000000000000000000000000000000000000000000000
310
00000000000000000000000000000000000000000000000000000000000000000000000000000000000000000000000000000000000000000000000000000000000000000000000000000000000000000000000000000000000000000000000000000000000000000000000000000000000000000000000000000000000000
310
00000000000000000000000000000000000000000000000000000000000000000000000000000000000000000000000000000000000000000000000000000000000000000000000000000000000000000000000000000000000000000000000000000000000000000000000000000000000000000000000000000000000000
310
0000000000000000000000000000000000000000000000000000000000000000000000000000000000000000000000000000000000000000
102
{BLKREFS
331
D3C
102
}
  0
BLOCK_RECORD
  5
3FC
330
1
100
AcDbSymbolTableRecord
100
AcDbBlockTableRecord
  2
IGS_A1
340
0
310
2800000020000000200000000100080000000000000400000000000000000000000000000000000000000000000080000080000000808000800000008000800080800000C0C0C000C0DCC000F0CAA6000020400000206000002080000020A0000020C0000020E00000400000004020000040400000406000004080000040A0
310
000040C0000040E00000600000006020000060400000606000006080000060A0000060C0000060E00000800000008020000080400000806000008080000080A0000080C0000080E00000A0000000A0200000A0400000A0600000A0800000A0A00000A0C00000A0E00000C0000000C0200000C0400000C0600000C0800000C0
310
A00000C0C00000C0E00000E0000000E0200000E0400000E0600000E0800000E0A00000E0C00000E0E00040000000400020004000400040006000400080004000A0004000C0004000E00040200000402020004020400040206000402080004020A0004020C0004020E000404000004040200040404000404060004040800040
310
40A0004040C0004040E00040600000406020004060400040606000406080004060A0004060C0004060E00040800000408020004080400040806000408080004080A0004080C0004080E00040A0000040A0200040A0400040A0600040A0800040A0A00040A0C00040A0E00040C0000040C0200040C0400040C0600040C08000
310
40C0A00040C0C00040C0E00040E0000040E0200040E0400040E0600040E0800040E0A00040E0C00040E0E00080000000800020008000400080006000800080008000A0008000C0008000E00080200000802020008020400080206000802080008020A0008020C0008020E00080400000804020008040400080406000804080
310
008040A0008040C0008040E00080600000806020008060400080606000806080008060A0008060C0008060E00080800000808020008080400080806000808080008080A0008080C0008080E00080A0000080A0200080A0400080A0600080A0800080A0A00080A0C00080A0E00080C0000080C0200080C0400080C0600080C0
310
800080C0A00080C0C00080C0E00080E0000080E0200080E0400080E0600080E0800080E0A00080E0C00080E0E000C0000000C0002000C0004000C0006000C0008000C000A000C000C000C000E000C0200000C0202000C0204000C0206000C0208000C020A000C020C000C020E000C0400000C0402000C0404000C0406000C0
310
408000C040A000C040C000C040E000C0600000C0602000C0604000C0606000C0608000C060A000C060C000C060E000C0800000C0802000C0804000C0806000C0808000C080A000C080C000C080E000C0A00000C0A02000C0A04000C0A06000C0A08000C0A0A000C0A0C000C0A0E000C0C00000C0C02000C0C04000C0C06000
310
C0C08000C0C0A000F0FBFF00A4A0A000808080000000FF0000FF000000FFFF00FF000000FF00FF00FFFF0000FFFFFF0000000000000000000000000000000000000000000000000000000000000000000000000000000000000000000000000000000000000000000000000000000000000000000000000000000000000000
310
00000000000000000000000000000000000000000000000000000000000000000000000000000000000000000000000000000000000000000000000000000000000000000000000000000000000000000000000000000000000000000000000000000000000000000000000000000000000000000000000000000000000000
310
00000000000000000000000000000000000000F9F9F9F9F9F9F9F9F9F9F9F9F9F9F9F9F9F9F9F9F9F9F9F9F9F9000000000000F9FF0000000000000000000000000000000000000000000000F9000000000000F9FF0000000000000000000000000000000000000000000000F9000000000000F9FF00000000000000000000
310
00000000000000000000000000F9000000000000F9FF0000000000000000000000000000000000000000000000F9000000000000F9FF0000000000000000000000000000000000000000000000F9000000000000F9FF0000000000000000000000000000000000000000000000F9000000000000F9FF000000000000000000
310
0000000000000000000000000000F9000000000000F9FF0000000000000000000000000000000000000000000000F9000000000000F9FF0000000000000000000000000000000000000000000000F9000000000000F9FF0000000000000000000000000000000000000000000000F9000000000000F9FF0000000000000000
310
000000000000000000000000000000F9000000000000F9FF0000000000000000000000000000000000000000000000F9000000000000F9FF0000000000000000000000000000000000000000000000F9000000000000F9FF0000000000000000000000000000000000000000000000F9000000000000F9FF00000000000000
310
00000000000000000000000000000000F9000000000000F9FF0000000000000000000000000000000000000000000000F9000000000000F9F9F9F9F9F9F9F9F9F9F9F9F9F9F9F9F9F9F9F9F9F9F9F9F9F900000000000000000000000000000000000000000000000000000000000000000000000000000000000000000000
310
00000000000000000000000000000000000000000000000000000000000000000000000000000000000000000000000000000000000000000000000000000000000000000000000000000000000000000000000000000000000000000000000000000000000000000000000000000000000000000000000000000000000000
310
0000000000000000000000000000000000000000000000000000000000000000000000000000000000000000000000000000000000000000
  0
BLOCK_RECORD
  5
50A
330
1
100
AcDbSymbolTableRecord
100
AcDbBlockTableRecord
  2
jis_bl_revisionlist1
340
0
310
2800000020000000200000000100080000000000000400000000000000000000000000000000000000000000000080000080000000808000800000008000800080800000C0C0C000C0DCC000F0CAA6000020400000206000002080000020A0000020C0000020E00000400000004020000040400000406000004080000040A0
310
000040C0000040E00000600000006020000060400000606000006080000060A0000060C0000060E00000800000008020000080400000806000008080000080A0000080C0000080E00000A0000000A0200000A0400000A0600000A0800000A0A00000A0C00000A0E00000C0000000C0200000C0400000C0600000C0800000C0
310
A00000C0C00000C0E00000E0000000E0200000E0400000E0600000E0800000E0A00000E0C00000E0E00040000000400020004000400040006000400080004000A0004000C0004000E00040200000402020004020400040206000402080004020A0004020C0004020E000404000004040200040404000404060004040800040
310
40A0004040C0004040E00040600000406020004060400040606000406080004060A0004060C0004060E00040800000408020004080400040806000408080004080A0004080C0004080E00040A0000040A0200040A0400040A0600040A0800040A0A00040A0C00040A0E00040C0000040C0200040C0400040C0600040C08000
310
40C0A00040C0C00040C0E00040E0000040E0200040E0400040E0600040E0800040E0A00040E0C00040E0E00080000000800020008000400080006000800080008000A0008000C0008000E00080200000802020008020400080206000802080008020A0008020C0008020E00080400000804020008040400080406000804080
310
008040A0008040C0008040E00080600000806020008060400080606000806080008060A0008060C0008060E00080800000808020008080400080806000808080008080A0008080C0008080E00080A0000080A0200080A0400080A0600080A0800080A0A00080A0C00080A0E00080C0000080C0200080C0400080C0600080C0
310
800080C0A00080C0C00080C0E00080E0000080E0200080E0400080E0600080E0800080E0A00080E0C00080E0E000C0000000C0002000C0004000C0006000C0008000C000A000C000C000C000E000C0200000C0202000C0204000C0206000C0208000C020A000C020C000C020E000C0400000C0402000C0404000C0406000C0
310
408000C040A000C040C000C040E000C0600000C0602000C0604000C0606000C0608000C060A000C060C000C060E000C0800000C0802000C0804000C0806000C0808000C080A000C080C000C080E000C0A00000C0A02000C0A04000C0A06000C0A08000C0A0A000C0A0C000C0A0E000C0C00000C0C02000C0C04000C0C06000
310
C0C08000C0C0A000F0FBFF00A4A0A000808080000000FF0000FF000000FFFF00FF000000FF00FF00FFFF0000FFFFFF0000000000000000000000000000000000000000000000000000000000000000000000000000000000000000000000000000000000000000000000000000000000000000000000000000000000000000
310
00000000000000000000000000000000000000000000000000000000000000000000000000000000000000000000000000000000000000000000000000000000000000000000000000000000000000000000000000000000000000000000000000000000000000000000000000000000000000000000000000000000000000
310
00000000000000000000000000000000000000000000000000000000000000000000000000000000000000000000000000000000000000000000000000000000000000000000000000000000000000000000000000000000000000000000000000000000000000000000000000000000000000000000000000000000000000
310
00000000000000000000000000000000000000000000000000000000000000000000000000000000000000000000000000000000000000000000000000000000000000000000000000000000000000000000000000000000000000000000000000000000000000000000000000000000000000000000000000000000000000
310
000000000000000000000000000000000000000000FFFFFFFFFFFFFFFFFFFFFFFFFFFFFFFFFFFFFFFFFFFFFFFFFFFFFFFF00000000FFFFFFFFFFFFFFFFFFFFFFFFFFFFFFFFFFFFFFFFFFFFFFFFFFFFFFFFFFFF0000000000000000000000000000000000000000000000000000000000000000000000000000000000000000
310
00000000000000000000000000000000000000000000000000000000000000000000000000000000000000000000000000000000000000000000000000000000000000000000000000000000000000000000000000000000000000000000000000000000000000000000000000000000000000000000000000000000000000
310
00000000000000000000000000000000000000000000000000000000000000000000000000000000000000000000000000000000000000000000000000000000000000000000000000000000000000000000000000000000000000000000000000000000000000000000000000000000000000000000000000000000000000
310
00000000000000000000000000000000000000000000000000000000000000000000000000000000000000000000000000000000000000000000000000000000000000000000000000000000000000000000000000000000000000000000000000000000000000000000000000000000000000000000000000000000000000
310
0000000000000000000000000000000000000000000000000000000000000000000000000000000000000000000000000000000000000000
102
{BLKREFS
331
52F
102
}
1001
ACAD
1000
DesignCenter Data
1002
{
1070
     1
1070
     1
1002
}
  0
BLOCK_RECORD
  5
520
330
1
100
AcDbSymbolTableRecord
100
AcDbBlockTableRecord
  2
jis_bl_revisionlist0
340
0
310
2800000020000000200000000100080000000000000400000000000000000000000000000000000000000000000080000080000000808000800000008000800080800000C0C0C000C0DCC000F0CAA6000020400000206000002080000020A0000020C0000020E00000400000004020000040400000406000004080000040A0
310
000040C0000040E00000600000006020000060400000606000006080000060A0000060C0000060E00000800000008020000080400000806000008080000080A0000080C0000080E00000A0000000A0200000A0400000A0600000A0800000A0A00000A0C00000A0E00000C0000000C0200000C0400000C0600000C0800000C0
310
A00000C0C00000C0E00000E0000000E0200000E0400000E0600000E0800000E0A00000E0C00000E0E00040000000400020004000400040006000400080004000A0004000C0004000E00040200000402020004020400040206000402080004020A0004020C0004020E000404000004040200040404000404060004040800040
310
40A0004040C0004040E00040600000406020004060400040606000406080004060A0004060C0004060E00040800000408020004080400040806000408080004080A0004080C0004080E00040A0000040A0200040A0400040A0600040A0800040A0A00040A0C00040A0E00040C0000040C0200040C0400040C0600040C08000
310
40C0A00040C0C00040C0E00040E0000040E0200040E0400040E0600040E0800040E0A00040E0C00040E0E00080000000800020008000400080006000800080008000A0008000C0008000E00080200000802020008020400080206000802080008020A0008020C0008020E00080400000804020008040400080406000804080
310
008040A0008040C0008040E00080600000806020008060400080606000806080008060A0008060C0008060E00080800000808020008080400080806000808080008080A0008080C0008080E00080A0000080A0200080A0400080A0600080A0800080A0A00080A0C00080A0E00080C0000080C0200080C0400080C0600080C0
310
800080C0A00080C0C00080C0E00080E0000080E0200080E0400080E0600080E0800080E0A00080E0C00080E0E000C0000000C0002000C0004000C0006000C0008000C000A000C000C000C000E000C0200000C0202000C0204000C0206000C0208000C020A000C020C000C020E000C0400000C0402000C0404000C0406000C0
310
408000C040A000C040C000C040E000C0600000C0602000C0604000C0606000C0608000C060A000C060C000C060E000C0800000C0802000C0804000C0806000C0808000C080A000C080C000C080E000C0A00000C0A02000C0A04000C0A06000C0A08000C0A0A000C0A0C000C0A0E000C0C00000C0C02000C0C04000C0C06000
310
C0C08000C0C0A000F0FBFF00A4A0A000808080000000FF0000FF000000FFFF00FF000000FF00FF00FFFF0000FFFFFF0000000000000000000000000000000000000000000000000000000000000000000000000000000000000000000000000000000000000000000000000000000000000000000000000000000000000000
310
00000000000000000000000000000000000000000000000000000000000000000000000000000000000000000000000000000000000000000000000000000000000000000000000000000000000000000000000000000000000000000000000000000000000000000000000000000000000000000000000000000000000000
310
00000000000000000000000000000000000000000000000000000000000000000000000000000000000000000000000000000000000000000000000000000000000000000000000000000000000000000000000000000000000000000000000000000000000000000000000000000000000000000000000000000000000000
310
00000000000000000000000000000000000000000000000000000000000000000000000000000000000000000000000000000000000000000000000000000000000000000000000000000000000000000000000000000000000000000000000000000000000000000000000000000000000000000000000000000000000000
310
000000000000000000000000000000000000000000FFFFFFFFFFFFFFFFFFFFFFFFFFFFFFFFFFFFFFFFFFFFFFFFFFFFFFFFFFFF0000FFFFFFFFFFFFFFFFFFFFFFFFFFFFFFFFFFFFFFFFFFFFFFFFFFFFFFFFFFFF0000000000000000000000000000000000000000000000000000000000000000000000000000000000000000
310
00000000000000000000000000000000000000000000000000000000000000000000000000000000000000000000000000000000000000000000000000000000000000000000000000000000000000000000000000000000000000000000000000000000000000000000000000000000000000000000000000000000000000
310
00000000000000000000000000000000000000000000000000000000000000000000000000000000000000000000000000000000000000000000000000000000000000000000000000000000000000000000000000000000000000000000000000000000000000000000000000000000000000000000000000000000000000
310
00000000000000000000000000000000000000000000000000000000000000000000000000000000000000000000000000000000000000000000000000000000000000000000000000000000000000000000000000000000000000000000000000000000000000000000000000000000000000000000000000000000000000
310
0000000000000000000000000000000000000000000000000000000000000000000000000000000000000000000000000000000000000000
102
{BLKREFS
331
537
102
}
1001
ACAD
1000
DesignCenter Data
1002
{
1070
     1
1070
     1
1002
}
  0
BLOCK_RECORD
  5
52E
330
1
100
AcDbSymbolTableRecord
100
AcDbBlockTableRecord
  2
jis_bl_revisionlist
340
0
310
2800000020000000200000000100080000000000000400000000000000000000000000000000000000000000000080000080000000808000800000008000800080800000C0C0C000C0DCC000F0CAA6000020400000206000002080000020A0000020C0000020E00000400000004020000040400000406000004080000040A0
310
000040C0000040E00000600000006020000060400000606000006080000060A0000060C0000060E00000800000008020000080400000806000008080000080A0000080C0000080E00000A0000000A0200000A0400000A0600000A0800000A0A00000A0C00000A0E00000C0000000C0200000C0400000C0600000C0800000C0
310
A00000C0C00000C0E00000E0000000E0200000E0400000E0600000E0800000E0A00000E0C00000E0E00040000000400020004000400040006000400080004000A0004000C0004000E00040200000402020004020400040206000402080004020A0004020C0004020E000404000004040200040404000404060004040800040
310
40A0004040C0004040E00040600000406020004060400040606000406080004060A0004060C0004060E00040800000408020004080400040806000408080004080A0004080C0004080E00040A0000040A0200040A0400040A0600040A0800040A0A00040A0C00040A0E00040C0000040C0200040C0400040C0600040C08000
310
40C0A00040C0C00040C0E00040E0000040E0200040E0400040E0600040E0800040E0A00040E0C00040E0E00080000000800020008000400080006000800080008000A0008000C0008000E00080200000802020008020400080206000802080008020A0008020C0008020E00080400000804020008040400080406000804080
310
008040A0008040C0008040E00080600000806020008060400080606000806080008060A0008060C0008060E00080800000808020008080400080806000808080008080A0008080C0008080E00080A0000080A0200080A0400080A0600080A0800080A0A00080A0C00080A0E00080C0000080C0200080C0400080C0600080C0
310
800080C0A00080C0C00080C0E00080E0000080E0200080E0400080E0600080E0800080E0A00080E0C00080E0E000C0000000C0002000C0004000C0006000C0008000C000A000C000C000C000E000C0200000C0202000C0204000C0206000C0208000C020A000C020C000C020E000C0400000C0402000C0404000C0406000C0
310
408000C040A000C040C000C040E000C0600000C0602000C0604000C0606000C0608000C060A000C060C000C060E000C0800000C0802000C0804000C0806000C0808000C080A000C080C000C080E000C0A00000C0A02000C0A04000C0A06000C0A08000C0A0A000C0A0C000C0A0E000C0C00000C0C02000C0C04000C0C06000
310
C0C08000C0C0A000F0FBFF00A4A0A000808080000000FF0000FF000000FFFF00FF000000FF00FF00FFFF0000FFFFFF0000000000000000000000000000000000000000000000000000000000000000000000000000000000000000000000000000000000000000000000000000000000000000000000000000000000000000
310
00000000000000000000000000000000000000000000000000000000000000000000000000000000000000000000000000000000000000000000000000000000000000000000000000000000000000000000000000000000000000000000000000000000000000000000000000000000000000000000000000000000000000
310
00000000000000000000000000000000000000000000000000000000000000000000000000000000000000000000000000000000000000000000000000000000000000000000000000000000000000000000000000000000000000000000000000000000000000000000000000000000000000000000000000000000000000
310
00000000000000000000000000000000000000000000000000000000000000000000000000000000000000000000000000000000000000000000000000000000000000000000000000000000000000000000000000000000000000000000000000000000000000000000000000000000000000000000000000000000000000
310
000000000000000000000000000000000000000000FFF9F9F9FFF9F9FFFFFFFFFFFFFFFFFFFFFFFFFFFFFFFFFFFFF9F9FFFFFF0000FFFFF9FFFFF9FFFFFFFFFFFFFFFFFFFFFFFFFFFFFFFFFFFFFFF9FFFFFFFF0000000000000000000000000000000000000000000000000000000000000000000000000000000000000000
310
00000000000000000000000000000000000000000000000000000000000000000000000000000000000000000000000000000000000000000000000000000000000000000000000000000000000000000000000000000000000000000000000000000000000000000000000000000000000000000000000000000000000000
310
00000000000000000000000000000000000000000000000000000000000000000000000000000000000000000000000000000000000000000000000000000000000000000000000000000000000000000000000000000000000000000000000000000000000000000000000000000000000000000000000000000000000000
310
00000000000000000000000000000000000000000000000000000000000000000000000000000000000000000000000000000000000000000000000000000000000000000000000000000000000000000000000000000000000000000000000000000000000000000000000000000000000000000000000000000000000000
310
0000000000000000000000000000000000000000000000000000000000000000000000000000000000000000000000000000000000000000
  0
BLOCK_RECORD
  5
5D6
330
1
100
AcDbSymbolTableRecord
100
AcDbBlockTableRecord
  2
jis_br_revisionlist0
340
0
310
2800000020000000200000000100080000000000000400000000000000000000000000000000000000000000000080000080000000808000800000008000800080800000C0C0C000C0DCC000F0CAA6000020400000206000002080000020A0000020C0000020E00000400000004020000040400000406000004080000040A0
310
000040C0000040E00000600000006020000060400000606000006080000060A0000060C0000060E00000800000008020000080400000806000008080000080A0000080C0000080E00000A0000000A0200000A0400000A0600000A0800000A0A00000A0C00000A0E00000C0000000C0200000C0400000C0600000C0800000C0
310
A00000C0C00000C0E00000E0000000E0200000E0400000E0600000E0800000E0A00000E0C00000E0E00040000000400020004000400040006000400080004000A0004000C0004000E00040200000402020004020400040206000402080004020A0004020C0004020E000404000004040200040404000404060004040800040
310
40A0004040C0004040E00040600000406020004060400040606000406080004060A0004060C0004060E00040800000408020004080400040806000408080004080A0004080C0004080E00040A0000040A0200040A0400040A0600040A0800040A0A00040A0C00040A0E00040C0000040C0200040C0400040C0600040C08000
310
40C0A00040C0C00040C0E00040E0000040E0200040E0400040E0600040E0800040E0A00040E0C00040E0E00080000000800020008000400080006000800080008000A0008000C0008000E00080200000802020008020400080206000802080008020A0008020C0008020E00080400000804020008040400080406000804080
310
008040A0008040C0008040E00080600000806020008060400080606000806080008060A0008060C0008060E00080800000808020008080400080806000808080008080A0008080C0008080E00080A0000080A0200080A0400080A0600080A0800080A0A00080A0C00080A0E00080C0000080C0200080C0400080C0600080C0
310
800080C0A00080C0C00080C0E00080E0000080E0200080E0400080E0600080E0800080E0A00080E0C00080E0E000C0000000C0002000C0004000C0006000C0008000C000A000C000C000C000E000C0200000C0202000C0204000C0206000C0208000C020A000C020C000C020E000C0400000C0402000C0404000C0406000C0
310
408000C040A000C040C000C040E000C0600000C0602000C0604000C0606000C0608000C060A000C060C000C060E000C0800000C0802000C0804000C0806000C0808000C080A000C080C000C080E000C0A00000C0A02000C0A04000C0A06000C0A08000C0A0A000C0A0C000C0A0E000C0C00000C0C02000C0C04000C0C06000
310
C0C08000C0C0A000F0FBFF00A4A0A000808080000000FF0000FF000000FFFF00FF000000FF00FF00FFFF0000FFFFFF0000000000000000000000000000000000000000000000000000000000000000000000000000000000000000000000000000000000000000000000000000000000000000000000000000000000000000
310
00000000000000000000000000000000000000000000000000000000000000000000000000000000000000000000000000000000000000000000000000000000000000000000000000000000000000000000000000000000000000000000000000000000000000000000000000000000000000000000000000000000000000
310
00000000000000000000000000000000000000000000000000000000000000000000000000000000000000000000000000000000000000000000000000000000000000000000000000000000000000000000000000000000000000000000000000000000000000000000000000000000000000000000000000000000000000
310
00000000000000000000000000000000000000000000000000000000000000000000000000000000000000000000000000000000000000000000000000000000000000000000000000000000000000000000000000000000000000000000000000000000000000000000000000000000000000000000000000000000000000
310
000000000000000000000000000000000000000000FFFFFFFFFFFFFFFFFFFFFFFFFFFFFFFFFFFFFFFFFFFFFFFFFFFFFFFFFFFF0000FFFFFFFFFFFFFFFFFFFFFFFFFFFFFFFFFFFFFFFFFFFFFFFFFFFFFFFFFFFF0000000000000000000000000000000000000000000000000000000000000000000000000000000000000000
310
00000000000000000000000000000000000000000000000000000000000000000000000000000000000000000000000000000000000000000000000000000000000000000000000000000000000000000000000000000000000000000000000000000000000000000000000000000000000000000000000000000000000000
310
00000000000000000000000000000000000000000000000000000000000000000000000000000000000000000000000000000000000000000000000000000000000000000000000000000000000000000000000000000000000000000000000000000000000000000000000000000000000000000000000000000000000000
310
00000000000000000000000000000000000000000000000000000000000000000000000000000000000000000000000000000000000000000000000000000000000000000000000000000000000000000000000000000000000000000000000000000000000000000000000000000000000000000000000000000000000000
310
0000000000000000000000000000000000000000000000000000000000000000000000000000000000000000000000000000000000000000
102
{BLKREFS
331
603
102
}
1001
ACAD
1000
DesignCenter Data
1002
{
1070
     1
1070
     1
1002
}
  0
BLOCK_RECORD
  5
5E4
330
1
100
AcDbSymbolTableRecord
100
AcDbBlockTableRecord
  2
jis_br_revisionlist1
340
0
310
2800000020000000200000000100080000000000000400000000000000000000000000000000000000000000000080000080000000808000800000008000800080800000C0C0C000C0DCC000F0CAA6000020400000206000002080000020A0000020C0000020E00000400000004020000040400000406000004080000040A0
310
000040C0000040E00000600000006020000060400000606000006080000060A0000060C0000060E00000800000008020000080400000806000008080000080A0000080C0000080E00000A0000000A0200000A0400000A0600000A0800000A0A00000A0C00000A0E00000C0000000C0200000C0400000C0600000C0800000C0
310
A00000C0C00000C0E00000E0000000E0200000E0400000E0600000E0800000E0A00000E0C00000E0E00040000000400020004000400040006000400080004000A0004000C0004000E00040200000402020004020400040206000402080004020A0004020C0004020E000404000004040200040404000404060004040800040
310
40A0004040C0004040E00040600000406020004060400040606000406080004060A0004060C0004060E00040800000408020004080400040806000408080004080A0004080C0004080E00040A0000040A0200040A0400040A0600040A0800040A0A00040A0C00040A0E00040C0000040C0200040C0400040C0600040C08000
310
40C0A00040C0C00040C0E00040E0000040E0200040E0400040E0600040E0800040E0A00040E0C00040E0E00080000000800020008000400080006000800080008000A0008000C0008000E00080200000802020008020400080206000802080008020A0008020C0008020E00080400000804020008040400080406000804080
310
008040A0008040C0008040E00080600000806020008060400080606000806080008060A0008060C0008060E00080800000808020008080400080806000808080008080A0008080C0008080E00080A0000080A0200080A0400080A0600080A0800080A0A00080A0C00080A0E00080C0000080C0200080C0400080C0600080C0
310
800080C0A00080C0C00080C0E00080E0000080E0200080E0400080E0600080E0800080E0A00080E0C00080E0E000C0000000C0002000C0004000C0006000C0008000C000A000C000C000C000E000C0200000C0202000C0204000C0206000C0208000C020A000C020C000C020E000C0400000C0402000C0404000C0406000C0
310
408000C040A000C040C000C040E000C0600000C0602000C0604000C0606000C0608000C060A000C060C000C060E000C0800000C0802000C0804000C0806000C0808000C080A000C080C000C080E000C0A00000C0A02000C0A04000C0A06000C0A08000C0A0A000C0A0C000C0A0E000C0C00000C0C02000C0C04000C0C06000
310
C0C08000C0C0A000F0FBFF00A4A0A000808080000000FF0000FF000000FFFF00FF000000FF00FF00FFFF0000FFFFFF0000000000000000000000000000000000000000000000000000000000000000000000000000000000000000000000000000000000000000000000000000000000000000000000000000000000000000
310
00000000000000000000000000000000000000000000000000000000000000000000000000000000000000000000000000000000000000000000000000000000000000000000000000000000000000000000000000000000000000000000000000000000000000000000000000000000000000000000000000000000000000
310
00000000000000000000000000000000000000000000000000000000000000000000000000000000000000000000000000000000000000000000000000000000000000000000000000000000000000000000000000000000000000000000000000000000000000000000000000000000000000000000000000000000000000
310
00000000000000000000000000000000000000000000000000000000000000000000000000000000000000000000000000000000000000000000000000000000000000000000000000000000000000000000000000000000000000000000000000000000000000000000000000000000000000000000000000000000000000
310
000000000000000000000000000000000000000000FFFFFFFFFFFFFFFFFFFFFFFFFFFFFFFFFFFFFFFFFFFFFFFFFFFFFFFF00000000FFFFFFFFFFFFFFFFFFFFFFFFFFFFFFFFFFFFFFFFFFFFFFFFFFFFFFFFFFFF0000000000000000000000000000000000000000000000000000000000000000000000000000000000000000
310
00000000000000000000000000000000000000000000000000000000000000000000000000000000000000000000000000000000000000000000000000000000000000000000000000000000000000000000000000000000000000000000000000000000000000000000000000000000000000000000000000000000000000
310
00000000000000000000000000000000000000000000000000000000000000000000000000000000000000000000000000000000000000000000000000000000000000000000000000000000000000000000000000000000000000000000000000000000000000000000000000000000000000000000000000000000000000
310
00000000000000000000000000000000000000000000000000000000000000000000000000000000000000000000000000000000000000000000000000000000000000000000000000000000000000000000000000000000000000000000000000000000000000000000000000000000000000000000000000000000000000
310
0000000000000000000000000000000000000000000000000000000000000000000000000000000000000000000000000000000000000000
102
{BLKREFS
331
5FB
102
}
1001
ACAD
1000
DesignCenter Data
1002
{
1070
     1
1070
     1
1002
}
  0
BLOCK_RECORD
  5
5FA
330
1
100
AcDbSymbolTableRecord
100
AcDbBlockTableRecord
  2
jis_br_revisionlist
340
0
310
2800000020000000200000000100080000000000000400000000000000000000000000000000000000000000000080000080000000808000800000008000800080800000C0C0C000C0DCC000F0CAA6000020400000206000002080000020A0000020C0000020E00000400000004020000040400000406000004080000040A0
310
000040C0000040E00000600000006020000060400000606000006080000060A0000060C0000060E00000800000008020000080400000806000008080000080A0000080C0000080E00000A0000000A0200000A0400000A0600000A0800000A0A00000A0C00000A0E00000C0000000C0200000C0400000C0600000C0800000C0
310
A00000C0C00000C0E00000E0000000E0200000E0400000E0600000E0800000E0A00000E0C00000E0E00040000000400020004000400040006000400080004000A0004000C0004000E00040200000402020004020400040206000402080004020A0004020C0004020E000404000004040200040404000404060004040800040
310
40A0004040C0004040E00040600000406020004060400040606000406080004060A0004060C0004060E00040800000408020004080400040806000408080004080A0004080C0004080E00040A0000040A0200040A0400040A0600040A0800040A0A00040A0C00040A0E00040C0000040C0200040C0400040C0600040C08000
310
40C0A00040C0C00040C0E00040E0000040E0200040E0400040E0600040E0800040E0A00040E0C00040E0E00080000000800020008000400080006000800080008000A0008000C0008000E00080200000802020008020400080206000802080008020A0008020C0008020E00080400000804020008040400080406000804080
310
008040A0008040C0008040E00080600000806020008060400080606000806080008060A0008060C0008060E00080800000808020008080400080806000808080008080A0008080C0008080E00080A0000080A0200080A0400080A0600080A0800080A0A00080A0C00080A0E00080C0000080C0200080C0400080C0600080C0
310
800080C0A00080C0C00080C0E00080E0000080E0200080E0400080E0600080E0800080E0A00080E0C00080E0E000C0000000C0002000C0004000C0006000C0008000C000A000C000C000C000E000C0200000C0202000C0204000C0206000C0208000C020A000C020C000C020E000C0400000C0402000C0404000C0406000C0
310
408000C040A000C040C000C040E000C0600000C0602000C0604000C0606000C0608000C060A000C060C000C060E000C0800000C0802000C0804000C0806000C0808000C080A000C080C000C080E000C0A00000C0A02000C0A04000C0A06000C0A08000C0A0A000C0A0C000C0A0E000C0C00000C0C02000C0C04000C0C06000
310
C0C08000C0C0A000F0FBFF00A4A0A000808080000000FF0000FF000000FFFF00FF000000FF00FF00FFFF0000FFFFFF0000000000000000000000000000000000000000000000000000000000000000000000000000000000000000000000000000000000000000000000000000000000000000000000000000000000000000
310
00000000000000000000000000000000000000000000000000000000000000000000000000000000000000000000000000000000000000000000000000000000000000000000000000000000000000000000000000000000000000000000000000000000000000000000000000000000000000000000000000000000000000
310
00000000000000000000000000000000000000000000000000000000000000000000000000000000000000000000000000000000000000000000000000000000000000000000000000000000000000000000000000000000000000000000000000000000000000000000000000000000000000000000000000000000000000
310
0000000000000000000000000000000000000000000000000000000000000000000000000000000000000000000000000000000000000000000000000000000000000000000000000000000000000000000000000000000000000000000000000000000000000000000000000000000000000000FFFFF9FFFFF9FFFFFFFFFF
310
FFFFFFFFFFFFFFFFFFFFFFFFFFFFF9FFFFFFFF0000FFF9F9F9FFF9FFFFFFFFFFFFFFFFFFFFFFFFFFFFFFFFFFFFFFF9FFFFFFFF0000FF00FF0000F9F9F9F9F9F9F9F9F9F9F9F9F9F9F9F9F9F9F9F9F9000000FF0000FFFFFFFFFFFFFFFFFFFFFFFFFFFFFFFFFFFFFFFFFFFFFFFFFFFFFFFFFFFF000000000000000000000000
310
00000000000000000000000000000000000000000000000000000000000000000000000000000000000000000000000000000000000000000000000000000000000000000000000000000000000000000000000000000000000000000000000000000000000000000000000000000000000000000000000000000000000000
310
00000000000000000000000000000000000000000000000000000000000000000000000000000000000000000000000000000000000000000000000000000000000000000000000000000000000000000000000000000000000000000000000000000000000000000000000000000000000000000000000000000000000000
310
00000000000000000000000000000000000000000000000000000000000000000000000000000000000000000000000000000000000000000000000000000000000000000000000000000000000000000000000000000000000000000000000000000000000000000000000000000000000000000000000000000000000000
310
0000000000000000000000000000000000000000000000000000000000000000000000000000000000000000000000000000000000000000
  0
BLOCK_RECORD
  5
6A8
330
1
100
AcDbSymbolTableRecord
100
AcDbBlockTableRecord
  2
IGS_A3
340
0
310
2800000020000000200000000100080000000000000400000000000000000000000000000000000000000000000080000080000000808000800000008000800080800000C0C0C000C0DCC000F0CAA6000020400000206000002080000020A0000020C0000020E00000400000004020000040400000406000004080000040A0
310
000040C0000040E00000600000006020000060400000606000006080000060A0000060C0000060E00000800000008020000080400000806000008080000080A0000080C0000080E00000A0000000A0200000A0400000A0600000A0800000A0A00000A0C00000A0E00000C0000000C0200000C0400000C0600000C0800000C0
310
A00000C0C00000C0E00000E0000000E0200000E0400000E0600000E0800000E0A00000E0C00000E0E00040000000400020004000400040006000400080004000A0004000C0004000E00040200000402020004020400040206000402080004020A0004020C0004020E000404000004040200040404000404060004040800040
310
40A0004040C0004040E00040600000406020004060400040606000406080004060A0004060C0004060E00040800000408020004080400040806000408080004080A0004080C0004080E00040A0000040A0200040A0400040A0600040A0800040A0A00040A0C00040A0E00040C0000040C0200040C0400040C0600040C08000
310
40C0A00040C0C00040C0E00040E0000040E0200040E0400040E0600040E0800040E0A00040E0C00040E0E00080000000800020008000400080006000800080008000A0008000C0008000E00080200000802020008020400080206000802080008020A0008020C0008020E00080400000804020008040400080406000804080
310
008040A0008040C0008040E00080600000806020008060400080606000806080008060A0008060C0008060E00080800000808020008080400080806000808080008080A0008080C0008080E00080A0000080A0200080A0400080A0600080A0800080A0A00080A0C00080A0E00080C0000080C0200080C0400080C0600080C0
310
800080C0A00080C0C00080C0E00080E0000080E0200080E0400080E0600080E0800080E0A00080E0C00080E0E000C0000000C0002000C0004000C0006000C0008000C000A000C000C000C000E000C0200000C0202000C0204000C0206000C0208000C020A000C020C000C020E000C0400000C0402000C0404000C0406000C0
310
408000C040A000C040C000C040E000C0600000C0602000C0604000C0606000C0608000C060A000C060C000C060E000C0800000C0802000C0804000C0806000C0808000C080A000C080C000C080E000C0A00000C0A02000C0A04000C0A06000C0A08000C0A0A000C0A0C000C0A0E000C0C00000C0C02000C0C04000C0C06000
310
C0C08000C0C0A000F0FBFF00A4A0A000808080000000FF0000FF000000FFFF00FF000000FF00FF00FFFF0000FFFFFF0000000000000000000000000000000000000000000000000000000000000000000000000000000000000000000000000000000000000000000000000000000000000000000000000000000000000000
310
000000000000000000000000000000000000000000000000000000000000000000000000000000000000000000000000000000000000000000000000000000000000000000000000000000000000000000000000000000000000000000000000000000000000000000000000000000000000F9F9FFF9F9F9F9F9F9F9F9F9F9
310
F9F9F9F9F9F9F9F9F9F9F9F9F9F9F900000000F900FFFFFFFFFFFFFFFFFFFFFFFFFFFFFFFFFFFFFFFFFFFFFFFFFFF900000000F900FF0000000000000000000000000000000000000000000000FFF900000000F900FF0000000000000000000000000000000000000000000000FFF900000000F900FF000000000000000000
310
0000000000000000000000000000FFF900000000F900FF0000000000000000000000000000000000000000000000FFF900000000F900FF0000000000000000000000000000000000000000000000FFF900000000F900FF0000000000000000000000000000000000000000000000FFF900000000F900FF0000000000000000
310
000000000000000000000000000000FFF900000000F900FF0000000000000000000000000000000000000000000000FFF900000000F900FF0000000000000000000000000000000000000000000000FFF900000000F900FF0000000000000000000000000000000000000000000000FFF900000000F900FF00000000000000
310
00000000000000000000000000000000FFF900000000F900FF0000000000000000000000000000000000000000000000FFF900000000F900FF0000000000000000000000000000000000000000000000FFF900000000F900FF0000000000000000000000000000000000000000000000FFF900000000F900FF000000000000
310
0000000000000000000000000000000000FFF900000000F900FF0000000000000000000000000000000000000000000000FFF900000000F900FFFFFFFFFFFFFFFFFFFFFFFFFFFFFFFFFFFFFFFFFFFFFFFFFFF900000000F9F9F9F9F9F9F9F9F9F9F9F9F9F9F9F9F9F9F9F9F9F9F9F9F9F9F9F9000000000000000000000000
310
00000000000000000000000000000000000000000000000000000000000000000000000000000000000000000000000000000000000000000000000000000000000000000000000000000000000000000000000000000000000000000000000000000000000000000000000000000000000000000000000000000000000000
310
0000000000000000000000000000000000000000000000000000000000000000000000000000000000000000000000000000000000000000
102
{BLKREFS
331
D3B
102
}
  0
BLOCK_RECORD
  5
9F9
330
1
100
AcDbSymbolTableRecord
100
AcDbBlockTableRecord
  2
SSLT1
340
0
  0
BLOCK_RECORD
  5
A11
330
1
100
AcDbSymbolTableRecord
100
AcDbBlockTableRecord
  2
SSLT3
340
0
  0
BLOCK_RECORD
  5
A3F
330
1
100
AcDbSymbolTableRecord
100
AcDbBlockTableRecord
  2
MAKR0
340
0
  0
BLOCK_RECORD
  5
A44
330
1
100
AcDbSymbolTableRecord
100
AcDbBlockTableRecord
  2
BALN0
340
0
  0
BLOCK_RECORD
  5
A62
330
1
100
AcDbSymbolTableRecord
100
AcDbBlockTableRecord
  2
*X23
340
0
102
{BLKREFS
331
B9C
331
BB1
102
}
  0
BLOCK_RECORD
  5
C8A
330
1
100
AcDbSymbolTableRecord
100
AcDbBlockTableRecord
  2
*D24
340
0
  0
BLOCK_RECORD
  5
C96
330
1
100
AcDbSymbolTableRecord
100
AcDbBlockTableRecord
  2
*D25
340
0
  0
BLOCK_RECORD
  5
CA2
330
1
100
AcDbSymbolTableRecord
100
AcDbBlockTableRecord
  2
*D26
340
0
  0
BLOCK_RECORD
  5
CAE
330
1
100
AcDbSymbolTableRecord
100
AcDbBlockTableRecord
  2
*D27
340
0
  0
BLOCK_RECORD
  5
CBA
330
1
100
AcDbSymbolTableRecord
100
AcDbBlockTableRecord
  2
*D28
340
0
  0
BLOCK_RECORD
  5
CC6
330
1
100
AcDbSymbolTableRecord
100
AcDbBlockTableRecord
  2
*D29
340
0
  0
BLOCK_RECORD
  5
CD2
330
1
100
AcDbSymbolTableRecord
100
AcDbBlockTableRecord
  2
*D30
340
0
  0
BLOCK_RECORD
  5
CDE
330
1
100
AcDbSymbolTableRecord
100
AcDbBlockTableRecord
  2
*D31
340
0
  0
BLOCK_RECORD
  5
F89
330
1
100
AcDbSymbolTableRecord
100
AcDbBlockTableRecord
  2
*D32
340
0
  0
BLOCK_RECORD
  5
106C
330
1
100
AcDbSymbolTableRecord
100
AcDbBlockTableRecord
  2
BALOON
340
0
  0
BLOCK_RECORD
  5
1075
330
1
100
AcDbSymbolTableRecord
100
AcDbBlockTableRecord
  2
LEVEL
340
0
  0
BLOCK_RECORD
  5
107D
330
1
100
AcDbSymbolTableRecord
100
AcDbBlockTableRecord
  2
TORISINYL
340
0
  0
BLOCK_RECORD
  5
1085
330
1
100
AcDbSymbolTableRecord
100
AcDbBlockTableRecord
  2
KOUBAI01
340
0
  0
BLOCK_RECORD
  5
10AC
330
1
100
AcDbSymbolTableRecord
100
AcDbBlockTableRecord
  2
P
340
0
  0
BLOCK_RECORD
  5
10CD
330
1
100
AcDbSymbolTableRecord
100
AcDbBlockTableRecord
  2
Xsec2
340
0
  0
BLOCK_RECORD
  5
10D8
330
1
100
AcDbSymbolTableRecord
100
AcDbBlockTableRecord
  2
X1sec2
340
0
  0
BLOCK_RECORD
  5
115A
330
1
100
AcDbSymbolTableRecord
100
AcDbBlockTableRecord
  2
Xsec
340
0
102
{BLKREFS
331
1163
102
}
  0
BLOCK_RECORD
  5
11FD
330
1
100
AcDbSymbolTableRecord
100
AcDbBlockTableRecord
  2
*D41
340
0
  0
BLOCK_RECORD
  5
13BE
330
1
100
AcDbSymbolTableRecord
100
AcDbBlockTableRecord
  2
*S42
340
0
  0
BLOCK_RECORD
  5
13C8
330
1
100
AcDbSymbolTableRecord
100
AcDbBlockTableRecord
  2
*S43
340
0
  0
BLOCK_RECORD
  5
13CF
330
1
100
AcDbSymbolTableRecord
100
AcDbBlockTableRecord
  2
*S44
340
0
  0
BLOCK_RECORD
  5
13D7
330
1
100
AcDbSymbolTableRecord
100
AcDbBlockTableRecord
  2
*S45
340
0
  0
ENDTAB
  0
ENDSEC
  0
SECTION
  2
BLOCKS
  0
BLOCK
  5
20
330
1F
100
AcDbEntity
  8
0
100
AcDbBlockBegin
  2
*Model_Space
 70
     0
 10
0.0
 20
0.0
 30
0.0
  3
*Model_Space
  1

  0
ENDBLK
  5
21
330
1F
100
AcDbEntity
  8
0
100
AcDbBlockEnd
  0
BLOCK
  5
1C
330
1B
100
AcDbEntity
 67
     1
  8
0
100
AcDbBlockBegin
  2
*Paper_Space
 70
     0
 10
0.0
 20
0.0
 30
0.0
  3
*Paper_Space
  1

  0
ENDBLK
  5
1D
330
1B
100
AcDbEntity
 67
     1
  8
0
100
AcDbBlockEnd
  0
BLOCK
  5
24
330
23
100
AcDbEntity
  8
0
100
AcDbBlockBegin
  2
*Paper_Space0
 70
     0
 10
0.0
 20
0.0
 30
0.0
  3
*Paper_Space0
  1

  0
ENDBLK
  5
25
330
23
100
AcDbEntity
  8
0
100
AcDbBlockEnd
  0
BLOCK
  5
7B
330
77
100
AcDbEntity
  8
0
100
AcDbBlockBegin
  2
_Open30
 70
     0
 10
0.0
 20
0.0
 30
0.0
  3
_Open30
  1

  0
LINE
  5
78
330
77
100
AcDbEntity
  8
0
  6
ByBlock
 62
     0
370
    -2
100
AcDbLine
 10
-1.0
 20
0.26794919
 30
0.0
 11
0.0
 21
0.0
 31
0.0
  0
LINE
  5
79
330
77
100
AcDbEntity
  8
0
  6
ByBlock
 62
     0
370
    -2
100
AcDbLine
 10
0.0
 20
0.0
 30
0.0
 11
-1.0
 21
-0.26794919
 31
0.0
  0
LINE
  5
7A
330
77
100
AcDbEntity
  8
0
  6
ByBlock
 62
     0
370
    -2
100
AcDbLine
 10
0.0
 20
0.0
 30
0.0
 11
-1.0
 21
0.0
 31
0.0
  0
ENDBLK
  5
7C
330
77
100
AcDbEntity
  8
0
100
AcDbBlockEnd
  0
BLOCK
  5
85
330
83
100
AcDbEntity
  8
0
100
AcDbBlockBegin
  2
GENAXEH
 70
     0
 10
0.0
 20
0.0
 30
0.0
  3
GENAXEH
  1

  0
LINE
  5
84
330
83
100
AcDbEntity
  8
0
100
AcDbLine
 10
-1.0
 20
0.0
 30
0.0
 11
1.0
 21
0.0
 31
0.0
  0
ENDBLK
  5
86
330
83
100
AcDbEntity
  8
0
100
AcDbBlockEnd
  0
BLOCK
  5
206
330
1F1
100
AcDbEntity
  8
0
100
AcDbBlockBegin
  2
IGS_A2
 70
     0
 10
0.0
 20
0.0
 30
0.0
  3
IGS_A2
  1

  0
LINE
  5
1F2
330
1F1
100
AcDbEntity
  8
AM_BOR
100
AcDbLine
 10
0.0
 20
0.0
 30
0.0
 11
0.0
 21
10.0
 31
0.0
  0
LINE
  5
1F3
330
1F1
100
AcDbEntity
  8
AM_BOR
100
AcDbLine
 10
0.0
 20
420.0
 30
0.0
 11
10.0
 21
420.0
 31
0.0
  0
LINE
  5
1F4
330
1F1
100
AcDbEntity
  8
AM_BOR
100
AcDbLine
 10
594.0
 20
420.0
 30
0.0
 11
594.0
 21
410.0
 31
0.0
  0
LINE
  5
1F5
330
1F1
100
AcDbEntity
  8
AM_BOR
100
AcDbLine
 10
594.0
 20
0.0
 30
0.0
 11
584.0
 21
0.0
 31
0.0
  0
LINE
  5
1F6
330
1F1
100
AcDbEntity
  8
0
100
AcDbLine
 10
20.0
 20
10.0
 30
0.0
 11
20.0
 21
410.0
 31
0.0
  0
LINE
  5
1F7
330
1F1
100
AcDbEntity
  8
0
100
AcDbLine
 10
574.0
 20
10.0
 30
0.0
 11
20.0
 21
10.0
 31
0.0
  0
LINE
  5
1F8
330
1F1
100
AcDbEntity
  8
0
100
AcDbLine
 10
574.0
 20
410.0
 30
0.0
 11
574.0
 21
10.0
 31
0.0
  0
LINE
  5
1F9
330
1F1
100
AcDbEntity
  8
0
100
AcDbLine
 10
20.0
 20
410.0
 30
0.0
 11
574.0
 21
410.0
 31
0.0
  0
LINE
  5
1FA
330
1F1
100
AcDbEntity
  8
AM_BOR
100
AcDbLine
 10
10.0
 20
0.0
 30
0.0
 11
0.0
 21
0.0
 31
0.0
  0
LINE
  5
1FB
330
1F1
100
AcDbEntity
  8
AM_BOR
100
AcDbLine
 10
0.0
 20
410.0
 30
0.0
 11
0.0
 21
420.0
 31
0.0
  0
LINE
  5
1FC
330
1F1
100
AcDbEntity
  8
AM_BOR
100
AcDbLine
 10
594.0
 20
10.0
 30
0.0
 11
594.0
 21
0.0
 31
0.0
  0
LINE
  5
1FD
330
1F1
100
AcDbEntity
  8
AM_BOR
100
AcDbLine
 10
584.0
 20
420.0
 30
0.0
 11
594.0
 21
420.0
 31
0.0
  0
TEXT
  5
1FE
330
1F1
100
AcDbEntity
  8
0
 60
     1
100
AcDbText
 10
574.0
 20
410.0
 30
0.0
 40
6.0
  1
!GENTITLE-RU
  7
ACJISTS
100
AcDbText
  0
TEXT
  5
1FF
330
1F1
100
AcDbEntity
  8
0
 60
     1
100
AcDbText
 10
594.0
 20
420.0
 30
0.0
 40
6.0
  1
!GENTITLE-MAX
  7
ACJISTS
100
AcDbText
  0
TEXT
  5
200
330
1F1
100
AcDbEntity
  8
0
 60
     1
100
AcDbText
 10
574.0
 20
10.0
 30
0.0
 40
6.0
  1
!GENTITLE-INSERT
  7
ACJISTS
100
AcDbText
  0
TEXT
  5
201
330
1F1
100
AcDbEntity
  8
0
 60
     1
100
AcDbText
 10
20.0
 20
10.0
 30
0.0
 40
6.0
  1
!GENTITLE-LL
  7
ACJISTS
100
AcDbText
  0
LINE
  5
202
330
1F1
100
AcDbEntity
  8
AM_BOR
 62
     1
370
    25
100
AcDbLine
 10
0.0
 20
420.0
 30
0.0
 11
594.0
 21
420.0
 31
0.0
  0
LINE
  5
203
330
1F1
100
AcDbEntity
  8
AM_BOR
 62
     1
370
    25
100
AcDbLine
 10
594.0
 20
420.0
 30
0.0
 11
594.0
 21
0.0
 31
0.0
  0
LINE
  5
204
330
1F1
100
AcDbEntity
  8
AM_BOR
 62
     1
370
    25
100
AcDbLine
 10
594.0
 20
0.0
 30
0.0
 11
0.0
 21
0.0
 31
0.0
  0
LINE
  5
205
330
1F1
100
AcDbEntity
  8
AM_BOR
 62
     1
370
    25
100
AcDbLine
 10
0.0
 20
0.0
 30
0.0
 11
0.0
 21
420.0
 31
0.0
  0
ENDBLK
  5
207
330
1F1
100
AcDbEntity
  8
0
100
AcDbBlockEnd
  0
BLOCK
  5
230
330
210
100
AcDbEntity
  8
0
100
AcDbBlockBegin
  2
GEN_A4
 70
     0
 10
0.0
 20
0.0
 30
0.0
  3
GEN_A4
  1

  0
LINE
  5
211
330
210
100
AcDbEntity
  8
RAHM2
100
AcDbLine
 10
0.0
 20
0.0
 30
0.0
 11
210.0
 21
0.0
 31
0.0
  0
LINE
  5
212
330
210
100
AcDbEntity
  8
RAHM2
100
AcDbLine
 10
210.0
 20
0.0
 30
0.0
 11
210.0
 21
297.0
 31
0.0
  0
LINE
  5
213
330
210
100
AcDbEntity
  8
RAHM2
100
AcDbLine
 10
210.0
 20
297.0
 30
0.0
 11
0.0
 21
297.0
 31
0.0
  0
LINE
  5
214
330
210
100
AcDbEntity
  8
RAHM2
100
AcDbLine
 10
0.0
 20
297.0
 30
0.0
 11
0.0
 21
0.0
 31
0.0
  0
LINE
  5
215
330
210
100
AcDbEntity
  8
0
100
AcDbLine
 10
15.0
 20
5.0
 30
0.0
 11
205.0
 21
5.0
 31
0.0
  0
LINE
  5
216
330
210
100
AcDbEntity
  8
0
100
AcDbLine
 10
205.0
 20
5.0
 30
0.0
 11
205.0
 21
292.0
 31
0.0
  0
LINE
  5
217
330
210
100
AcDbEntity
  8
0
100
AcDbLine
 10
205.0
 20
292.0
 30
0.0
 11
15.0
 21
292.0
 31
0.0
  0
LINE
  5
218
330
210
100
AcDbEntity
  8
0
100
AcDbLine
 10
15.0
 20
292.0
 30
0.0
 11
15.0
 21
287.0
 31
0.0
  0
LINE
  5
219
330
210
100
AcDbEntity
  8
RAHM2
100
AcDbLine
 10
62.5
 20
292.0
 30
0.0
 11
62.5
 21
287.0
 31
0.0
  0
TEXT
  5
21A
330
210
100
AcDbEntity
  8
RAHM2
100
AcDbText
 10
37.4
 20
287.5
 30
0.0
 40
4.0
  1
4
100
AcDbText
  0
TEXT
  5
21B
330
210
100
AcDbEntity
  8
RAHM2
100
AcDbText
 10
84.9
 20
287.5
 30
0.0
 40
4.0
  1
3
100
AcDbText
  0
LINE
  5
21C
330
210
100
AcDbEntity
  8
RAHM2
100
AcDbLine
 10
110.0
 20
292.0
 30
0.0
 11
110.0
 21
287.0
 31
0.0
  0
TEXT
  5
21D
330
210
100
AcDbEntity
  8
RAHM2
100
AcDbText
 10
132.4
 20
287.5
 30
0.0
 40
4.0
  1
2
100
AcDbText
  0
LINE
  5
21E
330
210
100
AcDbEntity
  8
RAHM2
100
AcDbLine
 10
157.5
 20
292.0
 30
0.0
 11
157.5
 21
287.0
 31
0.0
  0
TEXT
  5
21F
330
210
100
AcDbEntity
  8
RAHM2
100
AcDbText
 10
179.9
 20
287.5
 30
0.0
 40
4.0
  1
1
100
AcDbText
  0
LINE
  5
220
330
210
100
AcDbEntity
  8
RAHM2
100
AcDbLine
 10
15.0
 20
292.0
 30
0.0
 11
10.0
 21
292.0
 31
0.0
  0
LINE
  5
221
330
210
100
AcDbEntity
  8
RAHM2
100
AcDbLine
 10
15.0
 20
287.0
 30
0.0
 11
205.0
 21
287.0
 31
0.0
  0
LINE
  5
222
330
210
100
AcDbEntity
  8
0
100
AcDbLine
 10
15.0
 20
287.0
 30
0.0
 11
15.0
 21
5.0
 31
0.0
  0
TEXT
  5
223
330
210
100
AcDbEntity
  8
RAHM2
100
AcDbText
 10
11.15
 20
120.5
 30
0.0
 40
4.0
  1
A
100
AcDbText
  0
LINE
  5
224
330
210
100
AcDbEntity
  8
RAHM2
100
AcDbLine
 10
10.0
 20
146.0
 30
0.0
 11
15.0
 21
146.0
 31
0.0
  0
TEXT
  5
225
330
210
100
AcDbEntity
  8
RAHM2
100
AcDbText
 10
11.15
 20
167.5
 30
0.0
 40
4.0
  1
B
100
AcDbText
  0
LINE
  5
226
330
210
100
AcDbEntity
  8
RAHM2
100
AcDbLine
 10
10.0
 20
193.0
 30
0.0
 11
15.0
 21
193.0
 31
0.0
  0
TEXT
  5
227
330
210
100
AcDbEntity
  8
RAHM2
100
AcDbText
 10
11.15
 20
214.5
 30
0.0
 40
4.0
  1
C
100
AcDbText
  0
LINE
  5
228
330
210
100
AcDbEntity
  8
RAHM2
100
AcDbLine
 10
10.0
 20
240.0
 30
0.0
 11
15.0
 21
240.0
 31
0.0
  0
TEXT
  5
229
330
210
100
AcDbEntity
  8
RAHM2
100
AcDbText
 10
11.15
 20
261.5
 30
0.0
 40
4.0
  1
D
100
AcDbText
  0
LINE
  5
22A
330
210
100
AcDbEntity
  8
RAHM2
100
AcDbLine
 10
10.0
 20
99.0
 30
0.0
 11
15.0
 21
99.0
 31
0.0
  0
LINE
  5
22B
330
210
100
AcDbEntity
  8
RAHM2
100
AcDbLine
 10
10.0
 20
99.0
 30
0.0
 11
10.0
 21
292.0
 31
0.0
  0
TEXT
  5
22C
330
210
100
AcDbEntity
  8
0
 60
     1
100
AcDbText
 10
210.0
 20
297.0
 30
0.0
 40
3.5
  1
!GENTITLE-MAX
100
AcDbText
  0
TEXT
  5
22D
330
210
100
AcDbEntity
  8
0
 60
     1
100
AcDbText
 10
205.0
 20
287.0
 30
0.0
 40
3.5
  1
!GENTITLE-RU
100
AcDbText
  0
TEXT
  5
22E
330
210
100
AcDbEntity
  8
0
 60
     1
100
AcDbText
 10
15.0
 20
59.99
 30
0.0
 40
3.5
  1
!GENTITLE-LL
100
AcDbText
  0
TEXT
  5
22F
330
210
100
AcDbEntity
  8
0
 60
     1
100
AcDbText
 10
205.0
 20
5.0
 30
0.0
 40
3.5
  1
!GENTITLE-INSERT
100
AcDbText
  0
ENDBLK
  5
231
330
210
100
AcDbEntity
  8
0
100
AcDbBlockEnd
  0
BLOCK
  5
26B
330
232
100
AcDbEntity
  8
0
100
AcDbBlockBegin
  2
GENTITUS
 70
     2
 10
0.0
 20
0.0
 30
0.0
  3
GENTITUS
  1

  0
ATTDEF
  5
233
330
232
100
AcDbEntity
  8
RAHM2
100
AcDbText
 10
-161.2719926438011
 20
59.77949705640509
 30
0.0
 40
3.047999999999999
  1

100
AcDbAttributeDefinition
  3
File Name
  2
GEN-TITLE-DWG{10.58}
 70
     0
  0
ATTDEF
  5
234
330
232
100
AcDbEntity
  8
RAHM2
100
AcDbText
 10
-113.0375060754025
 20
1.655316229755442
 30
0.0
 40
3.047999999999999
  1

100
AcDbAttributeDefinition
  3
Scale
  2
GEN-TITLE-SCA{7.49}
 70
     0
  0
ATTDEF
  5
235
330
232
100
AcDbEntity
  8
RAHM2
100
AcDbText
 10
-170.5791365852594
 20
44.08298086452544
 30
0.0
 40
3.047999999999999
  1

100
AcDbAttributeDefinition
  3
Draft Date
  2
GEN-TITLE-DAT{6.03}
 70
     0
  0
ATTDEF
  5
236
330
232
100
AcDbEntity
  8
RAHM2
100
AcDbText
 10
-148.8439999999988
 20
44.06900000000002
 30
0.0
 40
3.047999999999999
  1

100
AcDbAttributeDefinition
  3
Drawn by
  2
GEN-TITLE-NAME{6.72}
 70
     0
  0
ATTDEF
  5
237
330
232
100
AcDbEntity
  8
RAHM5
100
AcDbText
 10
-121.9520790451008
 20
36.30136743197994
 30
0.0
 40
6.349999999999999
  1

100
AcDbAttributeDefinition
  3
Drawing Title
  2
GEN-TITLE-DES1{18.22}
 70
     0
  0
ATTDEF
  5
238
330
232
100
AcDbEntity
  8
RAHM3
100
AcDbText
 10
-121.9520790451008
 20
26.25984032860009
 30
0.0
 40
4.571999999999999
  1

100
AcDbAttributeDefinition
  3
Drawing Subtitle
  2
GEN-TITLE-DES2{26.26}
 70
     0
  0
ATTDEF
  5
239
330
232
100
AcDbEntity
  8
RAHM5
100
AcDbText
 10
-74.05731360850683
 20
9.398000000000024
 30
0.0
 40
6.349999999999999
  1
-
100
AcDbAttributeDefinition
  3
Drawing Number
  2
GEN-TITLE-NR{8.40}
 70
     0
  0
ATTDEF
  5
23A
330
232
100
AcDbEntity
  8
RAHM3
100
AcDbText
 10
-122.5443157926048
 20
49.65700000000004
 30
0.0
 40
4.571999999999999
  1

100
AcDbAttributeDefinition
  3
Design Activity
  2
GEN-TITLE-DACT{25.89}
 70
     0
  0
ATTDEF
  5
23B
330
232
100
AcDbEntity
  8
RAHM2
100
AcDbText
 10
-115.3186639642027
 20
9.398000000000024
 30
0.0
 40
3.047999999999999
  1
-
100
AcDbAttributeDefinition
  3
FSCM Number
  2
GEN-TITLE-FSCM{8.01}
 70
     0
  0
ATTDEF
  5
23C
330
232
100
AcDbEntity
  8
RAHM2
100
AcDbText
 10
-148.8439999999988
 20
28.82900000000001
 30
0.0
 40
3.047999999999999
  1

100
AcDbAttributeDefinition
  3
Approved by
  2
GEN-TITLE-APPM{6.72}
 70
     0
  0
ATTDEF
  5
23D
330
232
100
AcDbEntity
  8
RAHM2
100
AcDbText
 10
-170.7495891837786
 20
28.76581702429371
 30
0.0
 40
3.047999999999999
  1

100
AcDbAttributeDefinition
  3
Approval Date
  2
GEN-TITLE-APPD{6.08}
 70
     0
  0
ATTDEF
  5
23E
330
232
100
AcDbEntity
  8
RAHM2
100
AcDbText
 10
-148.8439999999989
 20
21.20900000000003
 30
0.0
 40
3.047999999999999
  1

100
AcDbAttributeDefinition
  3
Issued by
  2
GEN-TITLE-ISSM{6.72}
 70
     0
  0
ATTDEF
  5
23F
330
232
100
AcDbEntity
  8
RAHM2
100
AcDbText
 10
-170.5791365852594
 20
21.27742535250911
 30
0.0
 40
3.047999999999999
  1

100
AcDbAttributeDefinition
  3
Issue Date
  2
GEN-TITLE-ISSD{6.03}
 70
     0
  0
ATTDEF
  5
240
330
232
100
AcDbEntity
  8
RAHM2
100
AcDbText
 10
-122.025627714063
 20
9.007830168911709
 30
0.0
 40
3.047999999999999
  1

 72
     1
 11
-122.025627714063
 21
9.007830168911709
 31
0.0
100
AcDbAttributeDefinition
  3
Size
  2
GEN-TITLE-SIZ{2.46}
 70
     0
  0
ATTDEF
  5
241
330
232
100
AcDbEntity
  8
RAHM2
100
AcDbText
 10
-148.8439999999988
 20
36.44900000000004
 30
0.0
 40
3.047999999999999
  1

100
AcDbAttributeDefinition
  3
Checked by
  2
GEN-TITLE-CHKM{6.72}
 70
     0
  0
ATTDEF
  5
242
330
232
100
AcDbEntity
  8
RAHM2
100
AcDbText
 10
-155.7496724495927
 20
51.74156347614825
 30
0.0
 40
3.047999999999999
  1
-
100
AcDbAttributeDefinition
  3
Contract Number
  2
GEN-TITLE-CTRN{9.04}
 70
     0
  0
ATTDEF
  5
243
330
232
100
AcDbEntity
  8
RAHM2
100
AcDbText
 10
-170.7495891837786
 20
36.42439894440952
 30
0.0
 40
3.047999999999999
  1

100
AcDbAttributeDefinition
  3
Check Date
  2
GEN-TITLE-CHKD{6.16}
 70
     0
  0
ATTDEF
  5
244
330
232
100
AcDbEntity
  8
RAHM2
100
AcDbText
 10
-26.47195988711838
 20
1.564076906827722
 30
0.0
 40
3.047999999999999
  1

100
AcDbAttributeDefinition
  3
Sheet Number
  2
GEN-TITLE-SHEET{10.30}
 70
     0
  0
ATTDEF
  5
245
330
232
100
AcDbEntity
  8
RAHM2
100
AcDbText
 10
-6.220641135027562
 20
8.879862113045646
 30
0.0
 40
3.047999999999999
  1

 72
     1
 11
-6.220641135027562
 21
8.879862113045646
 31
0.0
100
AcDbAttributeDefinition
  3
Revision
  2
GEN-TITLE-REV{3.27}
 70
     0
  0
ATTDEF
  5
246
330
232
100
AcDbEntity
  8
RAHM2
100
AcDbText
 10
-69.95172301045787
 20
1.65100000000001
 30
0.0
 40
3.047999999999999
  1

100
AcDbAttributeDefinition
  3
Weight
  2
GEN-TITLE-WT{7.43}
 70
     0
  0
LINE
  5
247
330
232
100
AcDbEntity
  8
RAHM2
100
AcDbLine
 10
0.0
 20
47.49800000000004
 30
0.0
 11
-127.0
 21
47.49800000000004
 31
0.0
  0
TEXT
  5
248
330
232
100
AcDbEntity
  8
RAHM2
100
AcDbText
 10
-87.88400000000001
 20
16.00200000000004
 30
0.0
 40
2.032
  1
DWG NO
100
AcDbText
  0
TEXT
  5
249
330
232
100
AcDbEntity
  8
RAHM2
100
AcDbText
 10
-88.25401012743839
 20
1.705415101054569
 30
0.0
 40
2.032
  1
WEIGHT
100
AcDbText
  0
POLYLINE
  5
24A
330
232
100
AcDbEntity
  8
RAHM5
100
AcDb2dPolyline
 66
     1
 10
0.0
 20
0.0
 30
0.0
 70
     1
  0
VERTEX
  5
24B
330
24A
100
AcDbEntity
  8
RAHM5
100
AcDbVertex
100
AcDb2dVertex
 10
0.0
 20
63.50000000000003
 30
0.0
  0
VERTEX
  5
24C
330
24A
100
AcDbEntity
  8
RAHM5
100
AcDbVertex
100
AcDb2dVertex
 10
-182.8799999999977
 20
63.50000000000003
 30
0.0
  0
VERTEX
  5
24D
330
24A
100
AcDbEntity
  8
RAHM5
100
AcDbVertex
100
AcDb2dVertex
 10
-182.8799999999977
 20
0.0000000000000284
 30
0.0
  0
VERTEX
  5
24E
330
24A
100
AcDbEntity
  8
RAHM5
100
AcDbVertex
100
AcDb2dVertex
 10
0.0
 20
0.0
 30
0.0
  0
SEQEND
  5
24F
330
24A
100
AcDbEntity
  8
RAHM5
  0
LINE
  5
250
330
232
100
AcDbEntity
  8
RAHM5
100
AcDbLine
 10
0.0
 20
19.05000000000004
 30
0.0
 11
-127.0
 21
19.05000000000004
 31
0.0
  0
LINE
  5
251
330
232
100
AcDbEntity
  8
RAHM2
100
AcDbLine
 10
0.0
 20
6.350000000000036
 30
0.0
 11
-127.0
 21
6.350000000000036
 31
0.0
  0
LINE
  5
252
330
232
100
AcDbEntity
  8
RAHM5
100
AcDbLine
 10
-127.0
 20
0.0000000000000284
 30
0.0
 11
-127.0
 21
63.50000000000003
 31
0.0
  0
LINE
  5
253
330
232
100
AcDbEntity
  8
RAHM2
100
AcDbLine
 10
-127.0
 20
19.05000000000004
 30
0.0
 11
-182.8799999999977
 21
19.05000000000004
 31
0.0
  0
LINE
  5
254
330
232
100
AcDbEntity
  8
RAHM2
100
AcDbLine
 10
-127.0
 20
9.525000000000034
 30
0.0
 11
-182.8799999999977
 21
9.525000000000034
 31
0.0
  0
LINE
  5
255
330
232
100
AcDbEntity
  8
RAHM2
100
AcDbLine
 10
-127.0
 20
26.67000000000003
 30
0.0
 11
-182.8799999999977
 21
26.67000000000003
 31
0.0
  0
TEXT
  5
256
330
232
100
AcDbEntity
  8
RAHM2
100
AcDbText
 10
-182.0827700595082
 20
28.82900000000003
 30
0.0
 40
2.032
  1
APPR.
 11
-182.0827700595082
 21
29.84500000000003
 31
0.0
100
AcDbText
 73
     2
  0
TEXT
  5
257
330
232
100
AcDbEntity
  8
RAHM2
100
AcDbText
 10
-182.0827700595081
 20
21.20900000000004
 30
0.0
 40
2.032
  1
ISSUED
 11
-182.0827700595081
 21
22.22500000000004
 31
0.0
100
AcDbText
 73
     2
  0
LINE
  5
258
330
232
100
AcDbEntity
  8
0
100
AcDbLine
 10
-182.8799999999911
 20
0.0000000000001137
 30
0.0
 11
-182.8799999999911
 21
4.230000000000075
 31
0.0
  0
LINE
  5
259
330
232
100
AcDbEntity
  8
RAHM2
100
AcDbLine
 10
-117.348
 20
19.05000000000004
 30
0.0
 11
-117.348
 21
6.350000000000036
 31
0.0
  0
LINE
  5
25A
330
232
100
AcDbEntity
  8
RAHM2
100
AcDbLine
 10
-88.89999999999998
 20
19.05000000000004
 30
0.0
 11
-88.89999999999998
 21
6.350000000000036
 31
0.0
  0
TEXT
  5
25B
330
232
100
AcDbEntity
  8
RAHM2
100
AcDbText
 10
-125.984
 20
1.651000000000015
 30
0.0
 40
2.032
  1
SCALE
 11
-125.984
 21
2.667000000000015
 31
0.0
100
AcDbText
 73
     2
  0
LINE
  5
25C
330
232
100
AcDbEntity
  8
RAHM2
100
AcDbLine
 10
-88.89999999999998
 20
0.0000000000000142
 30
0.0
 11
-88.89999999999998
 21
6.350000000000036
 31
0.0
  0
TEXT
  5
25D
330
232
100
AcDbEntity
  8
RAHM2
100
AcDbText
 10
-116.332
 20
16.00200000000004
 30
0.0
 40
2.032
  1
FSCM NO
100
AcDbText
  0
TEXT
  5
25E
330
232
100
AcDbEntity
  8
RAHM2
100
AcDbText
 10
-125.984
 20
16.00200000000004
 30
0.0
 40
2.032
  1
SIZE
100
AcDbText
  0
LINE
  5
25F
330
232
100
AcDbEntity
  8
RAHM2
100
AcDbLine
 10
-182.8799999999977
 20
58.92800000000005
 30
0.0
 11
-127.0
 21
58.92800000000005
 31
0.0
  0
LINE
  5
260
330
232
100
AcDbEntity
  8
RAHM2
100
AcDbLine
 10
-127.0
 20
34.29000000000002
 30
0.0
 11
-182.8799999999977
 21
34.29000000000002
 31
0.0
  0
LINE
  5
261
330
232
100
AcDbEntity
  8
RAHM2
100
AcDbLine
 10
-127.0
 20
41.91000000000005
 30
0.0
 11
-182.8799999999977
 21
41.91000000000005
 31
0.0
  0
LINE
  5
262
330
232
100
AcDbEntity
  8
RAHM2
100
AcDbLine
 10
-127.0
 20
49.53000000000002
 30
0.0
 11
-182.8799999999977
 21
49.53000000000002
 31
0.0
  0
TEXT
  5
263
330
232
100
AcDbEntity
  8
RAHM2
100
AcDbText
 10
-180.3172639642003
 20
51.68900000000002
 30
0.0
 40
2.032
  1
CONTRACT NO
100
AcDbText
  0
TEXT
  5
264
330
232
100
AcDbEntity
  8
RAHM2
100
AcDbText
 10
-182.0827700595081
 20
44.06900000000002
 30
0.0
 40
2.032
  1
DRAWN
100
AcDbText
  0
TEXT
  5
265
330
232
100
AcDbEntity
  8
RAHM2
100
AcDbText
 10
-182.0827700595081
 20
36.44900000000003
 30
0.0
 40
2.032
  1
CHECK
 11
-182.0827700595081
 21
37.46500000000003
 31
0.0
100
AcDbText
 73
     2
  0
TEXT
  5
266
330
232
100
AcDbEntity
  8
RAHM2
100
AcDbText
 10
-180.3172639642003
 20
59.817
 30
0.0
 40
2.032
  1
FILE NAME
100
AcDbText
  0
TEXT
  5
267
330
232
100
AcDbEntity
  8
RAHM2
100
AcDbText
 10
-43.43400000000002
 20
1.651000000000015
 30
0.0
 40
2.032
  1
SHEET
 11
-43.43400000000002
 21
2.667000000000015
 31
0.0
100
AcDbText
 73
     2
  0
LINE
  5
268
330
232
100
AcDbEntity
  8
RAHM2
100
AcDbLine
 10
-44.44999999999999
 20
0.0
 30
0.0
 11
-44.44999999999999
 21
6.350000000000036
 31
0.0
  0
LINE
  5
269
330
232
100
AcDbEntity
  8
RAHM2
100
AcDbLine
 10
-12.69999999999999
 20
19.05000000000004
 30
0.0
 11
-12.69999999999999
 21
6.350000000000036
 31
0.0
  0
TEXT
  5
26A
330
232
100
AcDbEntity
  8
RAHM2
100
AcDbText
 10
-11.68400000000002
 20
16.00200000000004
 30
0.0
 40
2.032
  1
REV
100
AcDbText
  0
ENDBLK
  5
26C
330
232
100
AcDbEntity
  8
0
100
AcDbBlockEnd
  0
BLOCK
  5
277
330
26D
100
AcDbEntity
  8
0
100
AcDbBlockBegin
  2
IGS-A4
 70
     0
 10
0.0
 20
0.0
 30
0.0
  3
IGS-A4
  1

  0
POINT
  5
26E
330
26D
100
AcDbEntity
  8
0
 60
     1
100
AcDbPoint
 10
0.0
 20
0.0
 30
0.0
1001
GENIUS_GENODEF_13
1002
{
1000
HIER
1070
     1
1002
}
1002
{
1000
MANEDIT
1070
     0
1002
}
1002
{
1000
NOSEL
1070
     0
1002
}
1002
{
1000
BEHIND
1070
     0
1002
}
1002
{
1000
REACTOR
1002
}
1001
GENIUS_GENTITLE_13
1002
{
1000
SCALE
1000
1:1
1002
}
1002
{
1000
BORDER
1000
GEN_A4
1002
}
1002
{
1000
TITLE
1000
GENTITUS
1002
}
1002
{
1000
UNCHG
1002
{
1000
GEN-TITLE-SCA
1000
GEN-TITLE-SIZ
1002
}
1002
}
1002
{
1000
HRA
1005
0
1002
}
1002
{
1000
HTIT
1005
0
1002
}
1002
{
1000
GENIUSID
1005
26E
1002
}
1001
GENIUS_GENOBJ-N-TIT_13
1002
{
1000
OWNER
1000
GEN
1002
}
1001
GENIUS_GENOENT_13
1002
{
1000
MYREF
1005
26E
1002
}
1002
{
1000
GRP
1005
0
1002
}
1001
GENIUS_GENOLIS_13
1002
{
1000
ENT
1005
0
1005
0
1002
}
  0
LINE
  5
26F
330
26D
100
AcDbEntity
  8
0
100
AcDbLine
 10
15.0
 20
5.0
 30
0.0
 11
205.0
 21
5.0
 31
0.0
  0
LINE
  5
270
330
26D
100
AcDbEntity
  8
0
100
AcDbLine
 10
205.0
 20
5.0
 30
0.0
 11
205.0
 21
292.0
 31
0.0
  0
LINE
  5
271
330
26D
100
AcDbEntity
  8
0
100
AcDbLine
 10
205.0
 20
292.0
 30
0.0
 11
15.0
 21
292.0
 31
0.0
  0
LINE
  5
272
330
26D
100
AcDbEntity
  8
0
100
AcDbLine
 10
15.0
 20
292.0
 30
0.0
 11
15.0
 21
5.0
 31
0.0
  0
TEXT
  5
273
330
26D
100
AcDbEntity
  8
0
 60
     1
100
AcDbText
 10
210.0
 20
297.0
 30
0.0
 40
3.5
  1
!GENTITLE-MAX
100
AcDbText
  0
TEXT
  5
274
330
26D
100
AcDbEntity
  8
0
 60
     1
100
AcDbText
 10
205.0
 20
287.0
 30
0.0
 40
3.5
  1
!GENTITLE-RU
100
AcDbText
  0
TEXT
  5
275
330
26D
100
AcDbEntity
  8
0
 60
     1
100
AcDbText
 10
15.0
 20
59.99
 30
0.0
 40
3.5
  1
!GENTITLE-LL
100
AcDbText
  0
TEXT
  5
276
330
26D
100
AcDbEntity
  8
0
 60
     1
100
AcDbText
 10
205.0
 20
5.0
 30
0.0
 40
3.5
  1
!GENTITLE-INSERT
100
AcDbText
  0
ENDBLK
  5
278
330
26D
100
AcDbEntity
  8
0
100
AcDbBlockEnd
  0
BLOCK
  5
27B
330
279
100
AcDbEntity
  8
0
100
AcDbBlockBegin
  2
CI
 70
     0
 10
0.0
 20
0.0
 30
0.0
  3
CI
  1

  0
CIRCLE
  5
27A
330
279
100
AcDbEntity
  8
0
 62
     0
100
AcDbCircle
 10
0.0
 20
0.0
 30
0.0
 40
0.1666666666
  0
ENDBLK
  5
27C
330
279
100
AcDbEntity
  8
0
100
AcDbBlockEnd
  0
BLOCK
  5
306
330
27D
100
AcDbEntity
  8
0
100
AcDbBlockBegin
  2
IGS-TITLE
 70
     0
 10
0.0
 20
0.0
 30
0.0
  3
IGS-TITLE
  1

  0
LINE
  5
27E
330
27D
100
AcDbEntity
  8
1
  6
Continuous
 62
     7
100
AcDbLine
 10
-187.9990322581
 20
30.99983870970002
 30
65.0
 11
-187.9990322581
 21
-0.0001612902999852
 31
65.0
  0
LINE
  5
27F
330
27D
100
AcDbEntity
  8
1
  6
Continuous
 62
     7
100
AcDbLine
 10
-162.9990322581
 20
30.99983870970002
 30
65.0
 11
-162.9990322581
 21
-0.0001612902999852
 31
65.0
  0
LINE
  5
280
330
27D
100
AcDbEntity
  8
1
  6
Continuous
 62
     7
100
AcDbLine
 10
-127.9990322581
 20
30.99983870970002
 30
65.0
 11
-127.9990322581
 21
-0.0001612902999852
 31
65.0
  0
TEXT
  5
281
330
27D
100
AcDbEntity
  8
1
  6
Continuous
 62
     7
100
AcDbText
 10
-123.7222235162
 20
4.473885419400033
 30
65.0
 40
3.5
  1
ＲＥＶＩＳＩＯＮＳ
 50
90.0
 41
0.5824175824175821
 72
     5
 11
-123.7222235162
 21
25.67388541940002
 31
65.0
100
AcDbText
  0
TEXT
  5
282
330
27D
100
AcDbEntity
  8
1
  6
Continuous
 62
     7
100
AcDbText
 10
-152.9468905162
 20
26.24983841940002
 30
65.0
 40
3.5
  1
ＲＥＶ．ＭＡＲＫ
 41
0.583850931677019
 72
     5
 11
-134.1468905162
 21
26.24983841940002
 31
65.0
100
AcDbText
  0
TEXT
  5
283
330
27D
100
AcDbEntity
  8
1
  6
Continuous
 62
     7
100
AcDbText
 10
-152.9366495162
 20
20.24983841940002
 30
65.0
 40
3.5
  1
ＤＡＴＥ
 41
0.5974025974025966
 72
     5
 11
-143.7366495162
 21
20.24983841940002
 31
65.0
100
AcDbText
  0
TEXT
  5
284
330
27D
100
AcDbEntity
  8
1
  6
Continuous
 62
     7
100
AcDbText
 10
-152.9768155162
 20
14.24983841940002
 30
65.0
 40
3.5
  1
ＲＥＶＩＳＥＤ　ＢＹ
 41
0.5812807881773391
 72
     5
 11
-129.3768155162
 21
14.24983841940002
 31
65.0
100
AcDbText
  0
TEXT
  5
285
330
27D
100
AcDbEntity
  8
1
  6
Continuous
 62
     7
100
AcDbText
 10
-152.8294145162
 20
4.74983841940002
 30
65.0
 40
3.5
  1
ＣＯＮＴＥＮＴＳ
 41
0.5838509316770175
 72
     5
 11
-134.0294145162
 21
4.74983841940002
 31
65.0
100
AcDbText
  0
TEXT
  5
286
330
27D
100
AcDbEntity
  8
1
  6
Continuous
 62
     7
100
AcDbText
 10
-161.2490325162
 20
26.24983841940002
 30
65.0
 40
3.5
  1
変更
 41
0.8705357142857142
 72
     5
 11
-154.7490325162
 21
26.24983841940002
 31
65.0
100
AcDbText
  0
TEXT
  5
287
330
27D
100
AcDbEntity
  8
1
  6
Continuous
 62
     7
100
AcDbText
 10
-161.3990325162
 20
20.24983841940002
 30
65.0
 40
3.5
  1
年月日
 41
0.6071428571428532
 72
     5
 11
-154.5990325162
 21
20.24983841940002
 31
65.0
100
AcDbText
  0
TEXT
  5
288
330
27D
100
AcDbEntity
  8
1
  6
Continuous
 62
     7
100
AcDbText
 10
-161.3990325162
 20
14.24983841940002
 30
65.0
 40
3.5
  1
変更者
 41
0.582857142857139
 72
     5
 11
-154.5990325162
 21
14.24983841940002
 31
65.0
100
AcDbText
  0
TEXT
  5
289
330
27D
100
AcDbEntity
  8
1
  6
Continuous
 62
     7
100
AcDbText
 10
-161.2490325162
 20
4.74983841940002
 30
65.0
 40
3.5
  1
記事
 41
0.8705357142857144
 72
     5
 11
-154.7490325162
 21
4.74983841940002
 31
65.0
100
AcDbText
  0
LINE
  5
28A
330
27D
100
AcDbEntity
  8
1
  6
Continuous
 62
     7
100
AcDbLine
 10
-212.9990322581
 20
30.99983870970002
 30
65.0
 11
-212.9990322581
 21
-0.0001612902999852
 31
65.0
  0
LINE
  5
28B
330
27D
100
AcDbEntity
  8
1
  6
Continuous
 62
     7
100
AcDbLine
 10
-237.9990322581
 20
30.99983870970002
 30
65.0
 11
-237.9990322581
 21
-0.0001612902999852
 31
65.0
  0
LINE
  5
28C
330
27D
100
AcDbEntity
  8
1
  6
Continuous
 62
     7
100
AcDbLine
 10
-262.9990322581
 20
30.99983870970002
 30
65.0
 11
-262.9990322581
 21
-0.0001612902999852
 31
65.0
  0
LINE
  5
28D
330
27D
100
AcDbEntity
  8
1
  6
Continuous
 62
     7
100
AcDbLine
 10
-287.9990322581
 20
30.99983870970002
 30
65.0
 11
-287.9990322581
 21
-0.0001612902999852
 31
65.0
  0
LINE
  5
28E
330
27D
100
AcDbEntity
  8
1
  6
Continuous
 62
     7
100
AcDbLine
 10
-122.9990322581
 20
30.99983870970002
 30
65.0
 11
-287.9990322581
 21
30.99983870970002
 31
65.0
  0
LINE
  5
28F
330
27D
100
AcDbEntity
  8
1
  6
Continuous
 62
     7
100
AcDbLine
 10
-287.9990322581
 20
24.99983870970002
 30
65.0
 11
-127.9990322581
 21
24.99983870970002
 31
65.0
  0
LINE
  5
290
330
27D
100
AcDbEntity
  8
1
  6
Continuous
 62
     7
100
AcDbLine
 10
-287.9990322581
 20
18.99983870970001
 30
65.0
 11
-127.9990322581
 21
18.99983870970001
 31
65.0
  0
LINE
  5
291
330
27D
100
AcDbEntity
  8
1
  6
Continuous
 62
     7
100
AcDbLine
 10
-287.9990322581
 20
12.99983870970001
 30
65.0
 11
-127.9990322581
 21
12.99983870970001
 31
65.0
  0
LINE
  5
292
330
27D
100
AcDbEntity
  8
1
  6
Continuous
 62
     7
100
AcDbLine
 10
-54.99903225810003
 20
30.99983870970002
 30
65.0
 11
-54.99903225810003
 21
-0.0001612902999852
 31
65.0
  0
LINE
  5
293
330
27D
100
AcDbEntity
  8
1
  6
Continuous
 62
     7
100
AcDbLine
 10
-59.99903225810003
 20
-0.0001612902999852
 30
65.0
 11
-59.99903225810003
 21
30.99983870970002
 31
65.0
  0
LINE
  5
294
330
27D
100
AcDbEntity
  8
1
  6
Continuous
 62
     7
100
AcDbLine
 10
-75.99903225810002
 20
19.99983870970001
 30
65.0
 11
-75.99903225810002
 21
9.999838709700014
 31
65.0
  0
LINE
  5
295
330
27D
100
AcDbEntity
  8
1
  6
Continuous
 62
     7
100
AcDbLine
 10
-80.99903225810002
 20
9.999838709700014
 30
65.0
 11
-80.99903225810002
 21
19.99983870970001
 31
65.0
  0
LINE
  5
296
330
27D
100
AcDbEntity
  8
1
  6
Continuous
 62
     7
100
AcDbLine
 10
-96.99903225810006
 20
19.99983870970001
 30
65.0
 11
-96.99903225810006
 21
9.999838709700014
 31
65.0
  0
LINE
  5
297
330
27D
100
AcDbEntity
  8
1
  6
Continuous
 62
     7
100
AcDbLine
 10
-101.9990322581
 20
9.999838709700014
 30
65.0
 11
-101.9990322581
 21
19.99983870970001
 31
65.0
  0
LINE
  5
298
330
27D
100
AcDbEntity
  8
1
  6
Continuous
 62
     7
100
AcDbLine
 10
-117.9990322581
 20
30.99983870970002
 30
65.0
 11
-117.9990322581
 21
9.999838709700014
 31
65.0
  0
LINE
  5
299
330
27D
100
AcDbEntity
  8
1
  6
Continuous
 62
     7
100
AcDbLine
 10
-4.999032258100001
 20
30.99983870970002
 30
65.0
 11
-4.999032258100001
 21
19.99983870970001
 31
65.0
  0
LINE
  5
29A
330
27D
100
AcDbEntity
  8
1
  6
Continuous
 62
     7
100
AcDbLine
 10
-9.999032258100001
 20
30.99983870970002
 30
65.0
 11
-9.999032258100001
 21
19.99983870970001
 31
65.0
  0
LINE
  5
29B
330
27D
100
AcDbEntity
  8
1
  6
Continuous
 62
     7
100
AcDbLine
 10
-4.999032258100001
 20
9.999838709700014
 30
65.0
 11
-4.999032258100001
 21
-0.0001612902999852
 31
65.0
  0
LINE
  5
29C
330
27D
100
AcDbEntity
  8
1
  6
Continuous
 62
     7
100
AcDbLine
 10
-9.999032258100001
 20
9.999838709700014
 30
65.0
 11
-9.999032258100001
 21
-0.0001612902999852
 31
65.0
  0
LINE
  5
29D
330
27D
100
AcDbEntity
  8
1
  6
Continuous
 62
     7
100
AcDbLine
 10
-18.99903225810003
 20
9.999838709700014
 30
65.0
 11
-18.99903225810003
 21
-0.0001612902999852
 31
65.0
  0
LINE
  5
29E
330
27D
100
AcDbEntity
  8
1
  6
Continuous
 62
     7
100
AcDbLine
 10
-117.9990322581
 20
15.99983870970001
 30
65.0
 11
-101.9990322581
 21
15.99983870970001
 31
65.0
  0
LINE
  5
29F
330
27D
100
AcDbEntity
  8
1
  6
Continuous
 62
     7
100
AcDbLine
 10
-122.9990322581
 20
9.999838709700014
 30
65.0
 11
5.000967741899998
 21
9.999838709700014
 31
65.0
  0
LINE
  5
2A0
330
27D
100
AcDbEntity
  8
1
  6
Continuous
 62
     7
100
AcDbLine
 10
5.000967741899998
 20
19.99983870970001
 30
65.0
 11
-122.9990322581
 21
19.99983870970001
 31
65.0
  0
LINE
  5
2A1
330
27D
100
AcDbEntity
  8
1
  6
Continuous
 62
     7
100
AcDbLine
 10
-122.9990322581
 20
30.99983870970002
 30
65.0
 11
5.000967741899998
 21
30.99983870970002
 31
65.0
  0
LINE
  5
2A2
330
27D
100
AcDbEntity
  8
1
  6
Continuous
 62
     7
100
AcDbLine
 10
-122.9990322581
 20
30.99983870970002
 30
65.0
 11
-122.9990322581
 21
-0.0001612902999852
 31
65.0
  0
LINE
  5
2A3
330
27D
100
AcDbEntity
  8
1
  6
Continuous
 62
     7
100
AcDbLine
 10
-117.9990322581
 20
30.99983870970002
 30
65.0
 11
-117.9990322581
 21
9.999838709700014
 31
65.0
  0
TEXT
  5
2A4
330
27D
100
AcDbEntity
  8
1
  6
Continuous
 62
     7
100
AcDbText
 10
-122.2490325162
 20
25.74983841940002
 30
65.0
 40
3.5
  1
図
 41
1.153846153846153
 72
     5
 11
-118.7490325162
 21
25.74983841940002
 31
65.0
100
AcDbText
  0
TEXT
  5
2A5
330
27D
100
AcDbEntity
  8
1
  6
Continuous
 62
     7
100
AcDbText
 10
-101.2490325162
 20
10.74983841940002
 30
65.0
 40
3.5
  1
図
 41
1.153846153846153
 72
     5
 11
-97.74903251620004
 21
10.74983841940002
 31
65.0
100
AcDbText
  0
TEXT
  5
2A6
330
27D
100
AcDbEntity
  8
1
  6
Continuous
 62
     7
100
AcDbText
 10
-80.24903251620004
 20
10.74983841940002
 30
65.0
 40
3.5
  1
図
 41
1.153846153846153
 72
     5
 11
-76.74903251620005
 21
10.74983841940002
 31
65.0
100
AcDbText
  0
TEXT
  5
2A7
330
27D
100
AcDbEntity
  8
1
  6
Continuous
 62
     7
100
AcDbText
 10
-59.24903251620005
 20
4.74983841940002
 30
65.0
 40
3.5
  1
図
 41
1.153846153846153
 72
     5
 11
-55.74903251620004
 21
4.74983841940002
 31
65.0
100
AcDbText
  0
TEXT
  5
2A8
330
27D
100
AcDbEntity
  8
1
  6
Continuous
 62
     7
100
AcDbText
 10
-122.2490325162
 20
21.74983841940002
 30
65.0
 40
3.5
  1
名
 41
1.153846153846153
 72
     5
 11
-118.7490325162
 21
21.74983841940002
 31
65.0
100
AcDbText
  0
TEXT
  5
2A9
330
27D
100
AcDbEntity
  8
1
  6
Continuous
 62
     7
100
AcDbText
 10
-80.24903251620004
 20
14.74983841940002
 30
65.0
 40
3.5
  1
検
 41
1.071428571428571
 72
     5
 11
-76.74903251620005
 21
14.74983841940002
 31
65.0
100
AcDbText
  0
TEXT
  5
2AA
330
27D
100
AcDbEntity
  8
1
  6
Continuous
 62
     7
100
AcDbText
 10
-59.24903251620005
 20
0.749838419400021
 30
65.0
 40
3.5
  1
番
 41
1.071428571428571
 72
     5
 11
-55.74903251620004
 21
0.749838419400021
 31
65.0
100
AcDbText
  0
TEXT
  5
2AB
330
27D
100
AcDbEntity
  8
1
  6
Continuous
 62
     7
100
AcDbText
 10
-122.2490325162
 20
14.74983841940002
 30
65.0
 40
3.5
  1
設
 41
1.071428571428571
 72
     5
 11
-118.7490325162
 21
14.74983841940002
 31
65.0
100
AcDbText
  0
TEXT
  5
2AC
330
27D
100
AcDbEntity
  8
1
  6
Continuous
 62
     7
100
AcDbText
 10
-122.2490325162
 20
10.74983841940002
 30
65.0
 40
3.5
  1
計
 41
1.071428571428571
 72
     5
 11
-118.7490325162
 21
10.74983841940002
 31
65.0
100
AcDbText
  0
TEXT
  5
2AD
330
27D
100
AcDbEntity
  8
1
  6
Continuous
 62
     7
100
AcDbText
 10
-59.24903251620005
 20
14.74983841940002
 30
65.0
 40
3.5
  1
記
 41
1.071428571428571
 72
     5
 11
-55.74903251620004
 21
14.74983841940002
 31
65.0
100
AcDbText
  0
TEXT
  5
2AE
330
27D
100
AcDbEntity
  8
1
  6
Continuous
 62
     7
100
AcDbText
 10
-59.24903251620005
 20
10.74983841940002
 30
65.0
 40
3.5
  1
事
 41
1.071428571428571
 72
     5
 11
-55.74903251620004
 21
10.74983841940002
 31
65.0
100
AcDbText
  0
TEXT
  5
2AF
330
27D
100
AcDbEntity
  8
1
  6
Continuous
 62
     7
100
AcDbText
 10
-9.249032516200045
 20
25.74983841940002
 30
65.0
 40
3.5
  1
縮
 41
1.071428571428571
 72
     5
 11
-5.749032516200045
 21
25.74983841940002
 31
65.0
100
AcDbText
  0
TEXT
  5
2B0
330
27D
100
AcDbEntity
  8
1
  6
Continuous
 62
     7
100
AcDbText
 10
-9.249032516200045
 20
21.74983841940002
 30
65.0
 40
3.5
  1
尺
 41
1.071428571428571
 72
     5
 11
-5.749032516200045
 21
21.74983841940002
 31
65.0
100
AcDbText
  0
TEXT
  5
2B1
330
27D
100
AcDbEntity
  8
1
  6
Continuous
 62
     7
100
AcDbText
 10
-119.7490325162
 20
2.74983841940002
 30
65.0
 40
4.5
  1
伊藤鉄工株式会社
 41
1.369047619047618
 72
     5
 11
-62.24903251620005
 21
2.74983841940002
 31
65.0
100
AcDbText
  0
TEXT
  5
2B2
330
27D
100
AcDbEntity
  8
1
  6
Continuous
 62
     7
100
AcDbText
 10
-9.249032516200045
 20
5.99983841940002
 30
65.0
 40
3.0
  1
葉
 41
1.25
 72
     5
 11
-5.749032516200045
 21
5.99983841940002
 31
65.0
100
AcDbText
  0
TEXT
  5
2B3
330
27D
100
AcDbEntity
  8
1
  6
Continuous
 62
     7
100
AcDbText
 10
-9.249032516200045
 20
3.49983841940002
 30
65.0
 40
3.0
  1
ノ
 41
1.59090909090909
 72
     5
 11
-5.749032516200045
 21
3.49983841940002
 31
65.0
100
AcDbText
  0
TEXT
  5
2B4
330
27D
100
AcDbEntity
  8
1
  6
Continuous
 62
     7
100
AcDbText
 10
-9.249032516200045
 20
0.9998384194000209
 30
65.0
 40
3.0
  1
内
 41
1.346153846153846
 72
     5
 11
-5.749032516200045
 21
0.9998384194000209
 31
65.0
100
AcDbText
  0
LINE
  5
2B5
330
27D
100
AcDbEntity
  8
1
  6
Continuous
 62
     7
100
AcDbLine
 10
-122.9990322581
 20
30.99983870970002
 30
65.0
 11
-122.9990322581
 21
-0.0001612902999852
 31
65.0
  0
TEXT
  5
2B6
330
27D
100
AcDbEntity
  8
1
  6
Continuous
 62
     7
100
AcDbText
 10
-101.2490325162
 20
14.74983841940002
 30
65.0
 40
3.5
  1
製
 41
1.071428571428571
 72
     5
 11
-97.74903251620004
 21
14.74983841940002
 31
65.0
100
AcDbText
  0
LINE
  5
2B7
330
27D
100
AcDbEntity
  8
1
  6
Continuous
 62
     7
100
AcDbLine
 10
-69.62582009380001
 20
41.15905988960003
 30
65.0
 11
-65.90573309380004
 21
41.15905988960003
 31
65.0
  0
ARC
  5
2B8
330
27D
100
AcDbEntity
  8
1
  6
Continuous
 62
     7
100
AcDbCircle
 10
-60.94561709380004
 20
39.91903088960004
 30
65.0
 40
1.240029
100
AcDbArc
 50
90.0
 51
180.0
  0
LINE
  5
2B9
330
27D
100
AcDbEntity
  8
1
  6
Continuous
 62
     7
100
AcDbLine
 10
-56.19217259380004
 20
41.15905988960003
 30
65.0
 11
-60.94561709380004
 21
41.15905988960003
 31
65.0
  0
ARC
  5
2BA
330
27D
100
AcDbEntity
  8
1
  6
Continuous
 62
     7
100
AcDbCircle
 10
-56.19217259380004
 20
39.91903088960004
 30
65.0
 40
1.240029
100
AcDbArc
 50
0.0
 51
90.0
  0
ARC
  5
2BB
330
27D
100
AcDbEntity
  8
1
  6
Continuous
 62
     7
100
AcDbCircle
 10
-45.44525459380001
 20
39.91903088960004
 30
65.0
 40
1.240029
100
AcDbArc
 50
0.0
 51
90.0
  0
LINE
  5
2BC
330
27D
100
AcDbEntity
  8
1
  6
Continuous
 62
     7
100
AcDbLine
 10
-49.99202759380001
 20
41.15905988960003
 30
65.0
 11
-45.44525459380001
 21
41.15905988960003
 31
65.0
  0
ARC
  5
2BD
330
27D
100
AcDbEntity
  8
1
  6
Continuous
 62
     7
100
AcDbCircle
 10
-49.99202759380001
 20
39.91903088960004
 30
65.0
 40
1.240029
100
AcDbArc
 50
90.0
 51
180.0
  0
LINE
  5
2BE
330
27D
100
AcDbEntity
  8
1
  6
Continuous
 62
     7
100
AcDbLine
 10
-69.62582009380001
 20
40.33237388960003
 30
65.0
 11
-68.59246259380002
 21
40.33237388960003
 31
65.0
  0
LINE
  5
2BF
330
27D
100
AcDbEntity
  8
1
  6
Continuous
 62
     7
100
AcDbLine
 10
-68.59246259380002
 20
40.33237388960003
 30
65.0
 11
-68.59246259380002
 21
34.95891488960001
 31
65.0
  0
LINE
  5
2C0
330
27D
100
AcDbEntity
  8
1
  6
Continuous
 62
     7
100
AcDbLine
 10
-66.93909059380003
 20
34.95891488960001
 30
65.0
 11
-66.93909059380003
 21
40.33237388960003
 31
65.0
  0
LINE
  5
2C1
330
27D
100
AcDbEntity
  8
1
  6
Continuous
 62
     7
100
AcDbLine
 10
-66.93909059380003
 20
40.33237388960003
 30
65.0
 11
-65.90573309380004
 21
40.33237388960003
 31
65.0
  0
LINE
  5
2C2
330
27D
100
AcDbEntity
  8
1
  6
Continuous
 62
     7
100
AcDbLine
 10
-65.90573309380004
 20
41.15905988960003
 30
65.0
 11
-65.90573309380004
 21
40.33237388960003
 31
65.0
  0
LINE
  5
2C3
330
27D
100
AcDbEntity
  8
1
  6
Continuous
 62
     7
100
AcDbLine
 10
-69.62582009380001
 20
40.33237388960003
 30
65.0
 11
-69.62582009380001
 21
41.15905988960003
 31
65.0
  0
LINE
  5
2C4
330
27D
100
AcDbEntity
  8
1
  6
Continuous
 62
     7
100
AcDbLine
 10
-96.99903225810006
 20
15.99983870970001
 30
65.0
 11
-80.99903225810002
 21
15.99983870970001
 31
65.0
  0
LINE
  5
2C5
330
27D
100
AcDbEntity
  8
1
  6
Continuous
 62
     7
100
AcDbLine
 10
-75.99903225810002
 20
15.99983870970001
 30
65.0
 11
-59.99903225810003
 21
15.99983870970001
 31
65.0
  0
TEXT
  5
2C6
330
27D
100
AcDbEntity
  8
1
  6
Continuous
 62
     7
100
AcDbText
 10
-59.24903251620005
 20
25.74983841940002
 30
65.0
 40
3.5
  1
符
 41
1.071428571428571
 72
     5
 11
-55.74903251620004
 21
25.74983841940002
 31
65.0
100
AcDbText
  0
TEXT
  5
2C7
330
27D
100
AcDbEntity
  8
1
  6
Continuous
 62
     7
100
AcDbText
 10
-59.24903251620005
 20
21.74983841940002
 30
65.0
 40
3.5
  1
号
 41
1.071428571428571
 72
     5
 11
-55.74903251620004
 21
21.74983841940002
 31
65.0
100
AcDbText
  0
LINE
  5
2C8
330
27D
100
AcDbEntity
  8
1
  6
Continuous
 62
     7
100
AcDbLine
 10
-65.90573309380004
 20
34.13222888960002
 30
65.0
 11
-69.62582009380001
 21
34.13222888960002
 31
65.0
  0
CIRCLE
  5
2C9
330
27D
100
AcDbEntity
  8
1
  6
Continuous
 62
     7
100
AcDbCircle
 10
-64.25236109380001
 20
34.95891488960001
 30
65.0
 40
0.8266860000000001
  0
LINE
  5
2CA
330
27D
100
AcDbEntity
  8
1
  6
Continuous
 62
     7
100
AcDbLine
 10
-56.60551559380003
 20
34.95891488960001
 30
65.0
 11
-56.60551559380003
 21
34.13222888960002
 31
65.0
  0
LINE
  5
2CB
330
27D
100
AcDbEntity
  8
1
  6
Continuous
 62
     7
100
AcDbLine
 10
-56.60551559380003
 20
34.13222888960002
 30
65.0
 11
-54.95214359380002
 21
34.13222888960002
 31
65.0
  0
ARC
  5
2CC
330
27D
100
AcDbEntity
  8
1
  6
Continuous
 62
     7
100
AcDbCircle
 10
-60.94561709380004
 20
35.37225788960004
 30
65.0
 40
1.240029
100
AcDbArc
 50
180.0
 51
270.0
  0
LINE
  5
2CD
330
27D
100
AcDbEntity
  8
1
  6
Continuous
 62
     7
100
AcDbLine
 10
-60.94561709380004
 20
34.13222888960002
 30
65.0
 11
-60.53227409380001
 21
34.13222888960002
 31
65.0
  0
LINE
  5
2CE
330
27D
100
AcDbEntity
  8
1
  6
Continuous
 62
     7
100
AcDbLine
 10
-62.18564609380003
 20
35.37225788960004
 30
65.0
 11
-62.18564609380003
 21
39.91903088960004
 31
65.0
  0
CIRCLE
  5
2CF
330
27D
100
AcDbEntity
  8
1
  6
Continuous
 62
     7
100
AcDbCircle
 10
-53.50544309380002
 20
34.95891488960001
 30
65.0
 40
0.8266860000000001
  0
ARC
  5
2D0
330
27D
100
AcDbEntity
  8
1
  6
Continuous
 62
     7
100
AcDbCircle
 10
-49.99202759380001
 20
35.37225788960004
 30
65.0
 40
1.240029
100
AcDbArc
 50
180.0
 51
270.0
  0
LINE
  5
2D1
330
27D
100
AcDbEntity
  8
1
  6
Continuous
 62
     7
100
AcDbLine
 10
-45.44525459380001
 20
34.13222888960002
 30
65.0
 11
-49.99202759380001
 21
34.13222888960002
 31
65.0
  0
ARC
  5
2D2
330
27D
100
AcDbEntity
  8
1
  6
Continuous
 62
     7
100
AcDbCircle
 10
-45.44525459380001
 20
35.37225788960004
 30
65.0
 40
1.240029
100
AcDbArc
 50
270.0
 51
0.0
  0
LINE
  5
2D3
330
27D
100
AcDbEntity
  8
1
  6
Continuous
 62
     7
100
AcDbLine
 10
-51.23205659380004
 20
35.37225788960004
 30
65.0
 11
-51.23205659380004
 21
36.40561538960003
 31
65.0
  0
LINE
  5
2D4
330
27D
100
AcDbEntity
  8
1
  6
Continuous
 62
     7
100
AcDbLine
 10
-44.20522559380002
 20
39.91903088960004
 30
65.0
 11
-44.20522559380002
 21
38.88567338960001
 31
65.0
  0
CIRCLE
  5
2D5
330
27D
100
AcDbEntity
  8
1
  6
Continuous
 62
     7
100
AcDbCircle
 10
-42.75852509380003
 20
34.95891488960001
 30
65.0
 40
0.8266860000000001
  0
LINE
  5
2D6
330
27D
100
AcDbEntity
  8
1
  6
Continuous
 62
     7
100
AcDbLine
 10
-54.95214359380002
 20
39.09234488960001
 30
65.0
 11
-56.39884409380004
 21
39.09234488960001
 31
65.0
  0
LINE
  5
2D7
330
27D
100
AcDbEntity
  8
1
  6
Continuous
 62
     7
100
AcDbLine
 10
-56.39884409380004
 20
39.09234488960001
 30
65.0
 11
-56.39884409380004
 21
39.71235938960001
 31
65.0
  0
LINE
  5
2D8
330
27D
100
AcDbEntity
  8
1
  6
Continuous
 62
     7
100
AcDbLine
 10
-56.39884409380004
 20
39.71235938960001
 30
65.0
 11
-60.73894559380001
 21
39.71235938960001
 31
65.0
  0
LINE
  5
2D9
330
27D
100
AcDbEntity
  8
1
  6
Continuous
 62
     7
100
AcDbLine
 10
-60.73894559380001
 20
39.71235938960001
 30
65.0
 11
-60.73894559380001
 21
35.57892938960004
 31
65.0
  0
LINE
  5
2DA
330
27D
100
AcDbEntity
  8
1
  6
Continuous
 62
     7
100
AcDbLine
 10
-56.39884409380004
 20
37.02562988960003
 30
65.0
 11
-58.46555909380002
 21
37.02562988960003
 31
65.0
  0
LINE
  5
2DB
330
27D
100
AcDbEntity
  8
1
  6
Continuous
 62
     7
100
AcDbLine
 10
-58.46555909380002
 20
37.02562988960003
 30
65.0
 11
-58.46555909380002
 21
38.26565888960002
 31
65.0
  0
LINE
  5
2DC
330
27D
100
AcDbEntity
  8
1
  6
Continuous
 62
     7
100
AcDbLine
 10
-54.95214359380002
 20
39.09234488960001
 30
65.0
 11
-54.95214359380002
 21
39.91903088960004
 31
65.0
  0
LINE
  5
2DD
330
27D
100
AcDbEntity
  8
1
  6
Continuous
 62
     7
100
AcDbLine
 10
-56.39884409380004
 20
36.40561538960003
 30
65.0
 11
-56.39884409380004
 21
37.02562988960003
 31
65.0
  0
LINE
  5
2DE
330
27D
100
AcDbEntity
  8
1
  6
Continuous
 62
     7
100
AcDbLine
 10
-56.19217259380004
 20
38.26565888960002
 30
65.0
 11
-58.46555909380002
 21
38.26565888960002
 31
65.0
  0
LINE
  5
2DF
330
27D
100
AcDbEntity
  8
1
  6
Continuous
 62
     7
100
AcDbLine
 10
-54.95214359380002
 20
37.02562988960003
 30
65.0
 11
-54.95214359380002
 21
34.13222888960002
 31
65.0
  0
ARC
  5
2E0
330
27D
100
AcDbEntity
  8
1
  6
Continuous
 62
     7
100
AcDbCircle
 10
-56.19217259380004
 20
37.02562988960003
 30
65.0
 40
1.240029
100
AcDbArc
 50
0.0
 51
90.0
  0
LINE
  5
2E1
330
27D
100
AcDbEntity
  8
1
  6
Continuous
 62
     7
100
AcDbLine
 10
-58.10710069440005
 20
36.40561538960003
 30
65.0
 11
-56.39884409380004
 21
36.40561538960003
 31
65.0
  0
ARC
  5
2E2
330
27D
100
AcDbEntity
  8
1
  6
Continuous
 62
     7
100
AcDbCircle
 10
-58.10710069440005
 20
35.16558638960004
 30
65.0
 40
1.240029
100
AcDbArc
 50
90.0
 51
119.7448812969
  0
LINE
  5
2E3
330
27D
100
AcDbEntity
  8
1
  6
Continuous
 62
     7
100
AcDbLine
 10
-60.21241640110007
 20
35.57892938960004
 30
65.0
 11
-60.73894559380001
 21
35.57892938960004
 31
65.0
  0
LINE
  5
2E4
330
27D
100
AcDbEntity
  8
1
  6
Continuous
 62
     7
100
AcDbLine
 10
-59.59718972950007
 20
35.74231171430003
 30
65.0
 11
-58.72232736600004
 21
36.24223306480002
 31
65.0
  0
ARC
  5
2E5
330
27D
100
AcDbEntity
  8
1
  6
Continuous
 62
     7
100
AcDbCircle
 10
-60.21241640110007
 20
36.81895838960003
 30
65.0
 40
1.240029
100
AcDbArc
 50
270.0
 51
299.7448812969
  0
ARC
  5
2E6
330
27D
100
AcDbEntity
  8
1
  6
Continuous
 62
     7
100
AcDbCircle
 10
-57.72290849050005
 20
33.71888588960002
 30
65.0
 40
1.240029
100
AcDbArc
 50
90.0
 51
119.7448812969
  0
LINE
  5
2E7
330
27D
100
AcDbEntity
  8
1
  6
Continuous
 62
     7
100
AcDbLine
 10
-59.82822419720001
 20
34.13222888960002
 30
65.0
 11
-60.94561709380004
 21
34.13222888960002
 31
65.0
  0
ARC
  5
2E8
330
27D
100
AcDbEntity
  8
1
  6
Continuous
 62
     7
100
AcDbCircle
 10
-59.82822419720001
 20
35.37225788960004
 30
65.0
 40
1.240029
100
AcDbArc
 50
270.0
 51
299.7448812969
  0
LINE
  5
2E9
330
27D
100
AcDbEntity
  8
1
  6
Continuous
 62
     7
100
AcDbLine
 10
-58.33813516210004
 20
34.79553256480003
 30
65.0
 11
-59.21299752560002
 21
34.29561121430004
 31
65.0
  0
LINE
  5
2EA
330
27D
100
AcDbEntity
  8
1
  6
Continuous
 62
     7
100
AcDbLine
 10
-57.72290849050005
 20
34.95891488960001
 30
65.0
 11
-56.60551559380003
 21
34.95891488960001
 31
65.0
  0
LINE
  5
2EB
330
27D
100
AcDbEntity
  8
1
  6
Continuous
 62
     7
100
AcDbLine
 10
-68.59246259380002
 20
34.95891488960001
 30
65.0
 11
-69.62582009380001
 21
34.95891488960001
 31
65.0
  0
LINE
  5
2EC
330
27D
100
AcDbEntity
  8
1
  6
Continuous
 62
     7
100
AcDbLine
 10
-66.93909059380003
 20
34.95891488960001
 30
65.0
 11
-65.90573309380004
 21
34.95891488960001
 31
65.0
  0
LINE
  5
2ED
330
27D
100
AcDbEntity
  8
1
  6
Continuous
 62
     7
100
AcDbLine
 10
-69.62582009380001
 20
34.13222888960002
 30
65.0
 11
-69.62582009380001
 21
34.95891488960001
 31
65.0
  0
LINE
  5
2EE
330
27D
100
AcDbEntity
  8
1
  6
Continuous
 62
     7
100
AcDbLine
 10
-65.90573309380004
 20
34.95891488960001
 30
65.0
 11
-65.90573309380004
 21
34.13222888960002
 31
65.0
  0
LINE
  5
2EF
330
27D
100
AcDbEntity
  8
1
  6
Continuous
 62
     7
100
AcDbLine
 10
-49.78535609380002
 20
39.71235938960001
 30
65.0
 11
-45.65192609380001
 21
39.71235938960001
 31
65.0
  0
LINE
  5
2F0
330
27D
100
AcDbEntity
  8
1
  6
Continuous
 62
     7
100
AcDbLine
 10
-45.65192609380001
 20
39.71235938960001
 30
65.0
 11
-45.65192609380001
 21
38.88567338960001
 31
65.0
  0
LINE
  5
2F1
330
27D
100
AcDbEntity
  8
1
  6
Continuous
 62
     7
100
AcDbLine
 10
-49.78535609380002
 20
36.40561538960003
 30
65.0
 11
-49.78535609380002
 21
35.57892938960004
 31
65.0
  0
LINE
  5
2F2
330
27D
100
AcDbEntity
  8
1
  6
Continuous
 62
     7
100
AcDbLine
 10
-49.78535609380002
 20
35.57892938960004
 30
65.0
 11
-45.65192609380001
 21
35.57892938960004
 31
65.0
  0
LINE
  5
2F3
330
27D
100
AcDbEntity
  8
1
  6
Continuous
 62
     7
100
AcDbLine
 10
-49.78535609380002
 20
36.40561538960003
 30
65.0
 11
-51.23205659380004
 21
36.40561538960003
 31
65.0
  0
LINE
  5
2F4
330
27D
100
AcDbEntity
  8
1
  6
Continuous
 62
     7
100
AcDbLine
 10
-44.20522559380002
 20
38.88567338960001
 30
65.0
 11
-45.65192609380001
 21
38.88567338960001
 31
65.0
  0
LINE
  5
2F5
330
27D
100
AcDbEntity
  8
1
  6
Continuous
 62
     7
100
AcDbLine
 10
-45.65192609380001
 20
35.57892938960004
 30
65.0
 11
-45.65192609380001
 21
37.02562988960003
 31
65.0
  0
LINE
  5
2F6
330
27D
100
AcDbEntity
  8
1
  6
Continuous
 62
     7
100
AcDbLine
 10
-49.78535609380002
 20
38.26565888960002
 30
65.0
 11
-49.78535609380002
 21
39.71235938960001
 31
65.0
  0
LINE
  5
2F7
330
27D
100
AcDbEntity
  8
1
  6
Continuous
 62
     7
100
AcDbLine
 10
-44.20522559380002
 20
37.02562988960003
 30
65.0
 11
-44.20522559380002
 21
35.37225788960004
 31
65.0
  0
LINE
  5
2F8
330
27D
100
AcDbEntity
  8
1
  6
Continuous
 62
     7
100
AcDbLine
 10
-45.44525459380001
 20
38.26565888960002
 30
65.0
 11
-49.78535609380002
 21
38.26565888960002
 31
65.0
  0
ARC
  5
2F9
330
27D
100
AcDbEntity
  8
1
  6
Continuous
 62
     7
100
AcDbCircle
 10
-45.44525459380001
 20
37.02562988960003
 30
65.0
 40
1.240029
100
AcDbArc
 50
0.0
 51
90.0
  0
LINE
  5
2FA
330
27D
100
AcDbEntity
  8
1
  6
Continuous
 62
     7
100
AcDbLine
 10
-49.99202759400002
 20
37.02562988960003
 30
65.0
 11
-45.65192609380001
 21
37.02562988960003
 31
65.0
  0
LINE
  5
2FB
330
27D
100
AcDbEntity
  8
1
  6
Continuous
 62
     7
100
AcDbLine
 10
-51.23205659380004
 20
38.26565888960002
 30
65.0
 11
-51.23205659380004
 21
39.91903088960004
 31
65.0
  0
ARC
  5
2FC
330
27D
100
AcDbEntity
  8
1
  6
Continuous
 62
     7
100
AcDbCircle
 10
-49.99202759400002
 20
38.26565888960002
 30
65.0
 40
1.240029
100
AcDbArc
 50
180.0
 51
270.0
  0
LINE
  5
2FD
330
27D
100
AcDbEntity
  8
1
  6
Continuous
 62
     7
100
AcDbLine
 10
-4.999032258100001
 20
-0.0001612902999852
 30
65.0
 11
5.000967741899998
 21
9.999838709700014
 31
65.0
  0
LINE
  5
2FE
330
27D
100
AcDbEntity
  8
1
  6
Continuous
 62
     7
100
AcDbLine
 10
-4.999032258100001
 20
19.99983870970001
 30
65.0
 11
5.000967741899998
 21
30.99983870970002
 31
65.0
  0
TEXT
  5
2FF
330
27D
100
AcDbEntity
  8
1
  6
Continuous
 62
     7
100
AcDbText
 10
-179.7089845162
 20
23.95225941940004
 30
65.0
 40
8.0
  1
△
 41
1.153846153846153
 72
     5
 11
-171.7089845162
 21
23.95225941940004
 31
65.0
100
AcDbText
  0
TEXT
  5
300
330
27D
100
AcDbEntity
  8
1
  6
Continuous
 62
     7
100
AcDbText
 10
-204.7089845162
 20
23.95225941940004
 30
65.0
 40
8.0
  1
△
 41
1.153846153846153
 72
     5
 11
-196.7089845162
 21
23.95225941940004
 31
65.0
100
AcDbText
  0
TEXT
  5
301
330
27D
100
AcDbEntity
  8
1
  6
Continuous
 62
     7
100
AcDbText
 10
-229.7089845162
 20
23.95225941940004
 30
65.0
 40
8.0
  1
△
 41
1.153846153846153
 72
     5
 11
-221.7089845162
 21
23.95225941940004
 31
65.0
100
AcDbText
  0
TEXT
  5
302
330
27D
100
AcDbEntity
  8
1
  6
Continuous
 62
     7
100
AcDbText
 10
-254.7089845162
 20
23.95225941940004
 30
65.0
 40
8.0
  1
△
 41
1.153846153846153
 72
     5
 11
-246.7089845162
 21
23.95225941940004
 31
65.0
100
AcDbText
  0
TEXT
  5
303
330
27D
100
AcDbEntity
  8
1
  6
Continuous
 62
     7
100
AcDbText
 10
-279.7089845162
 20
23.95225941940004
 30
65.0
 40
8.0
  1
△
 41
1.153846153846153
 72
     5
 11
-271.7089845162
 21
23.95225941940004
 31
65.0
100
AcDbText
  0
LINE
  5
304
330
27D
100
AcDbEntity
  8
0
100
AcDbLine
 10
-287.9990322581
 20
-0.0001612902999852
 30
65.0
 11
5.000967741899998
 21
-0.0001612902999852
 31
65.0
  0
LINE
  5
305
330
27D
100
AcDbEntity
  8
0
100
AcDbLine
 10
5.000967741899998
 20
-0.0001612902999852
 30
65.0
 11
5.000967741899998
 21
30.99983870970002
 31
65.0
  0
ENDBLK
  5
307
330
27D
100
AcDbEntity
  8
0
100
AcDbBlockEnd
  0
BLOCK
  5
3B8
330
335
100
AcDbEntity
  8
0
100
AcDbBlockBegin
  2
IGS2
 70
     2
 10
0.0
 20
0.0
 30
0.0
  3
IGS2
  1

  0
POINT
  5
336
330
335
100
AcDbEntity
  8
0
 60
     1
100
AcDbPoint
 10
0.0
 20
0.0
 30
0.0
1001
GENIUS_GENODEF_13
1002
{
1000
HIER
1070
     1
1002
}
1002
{
1000
MANEDIT
1070
     0
1002
}
1002
{
1000
NOSEL
1070
     0
1002
}
1002
{
1000
BEHIND
1070
     0
1002
}
1002
{
1000
REACTOR
1002
}
1001
GENIUS_GENTITLE_13
1002
{
1000
SCALE
1000
1:1
1002
}
1002
{
1000
BORDER
1000
IGS-A4
1002
}
1002
{
1000
TITLE
1000
IGS-TITLE
1002
}
1002
{
1000
UNCHG
1002
{
1000
GEN-TITLE-SCA
1000
GEN-TITLE-SIZ
1002
}
1002
}
1002
{
1000
HRA
1005
0
1002
}
1002
{
1000
HTIT
1005
0
1002
}
1002
{
1000
GENIUSID
1005
336
1002
}
1001
GENIUS_GENOBJ-N-TIT_13
1002
{
1000
OWNER
1000
GEN
1002
}
1001
GENIUS_GENOENT_13
1002
{
1000
MYREF
1005
336
1002
}
1002
{
1000
GRP
1005
0
1002
}
1001
GENIUS_GENOLIS_13
1002
{
1000
ENT
1005
0
1005
0
1002
}
  0
LINE
  5
337
330
335
100
AcDbEntity
  8
RAHM3
100
AcDbLine
 10
-148.4080564410193
 20
8.825237325416161
 30
52.0
 11
-145.4319868410194
 21
8.825237325416161
 31
52.0
  0
ARC
  5
338
330
335
100
AcDbEntity
  8
RAHM3
100
AcDbCircle
 10
-141.4638940410194
 20
7.833214125416168
 30
52.0
 40
0.9920232
100
AcDbArc
 50
90.0
 51
180.0
  0
LINE
  5
339
330
335
100
AcDbEntity
  8
RAHM3
100
AcDbLine
 10
-137.6611384410193
 20
8.825237325416161
 30
52.0
 11
-141.4638940410194
 21
8.825237325416161
 31
52.0
  0
ARC
  5
33A
330
335
100
AcDbEntity
  8
RAHM3
100
AcDbCircle
 10
-137.6611384410193
 20
7.833214125416168
 30
52.0
 40
0.9920232
100
AcDbArc
 50
0.0
 51
90.0
  0
ARC
  5
33B
330
335
100
AcDbEntity
  8
RAHM3
100
AcDbCircle
 10
-129.0636040410194
 20
7.833214125416168
 30
52.0
 40
0.9920232
100
AcDbArc
 50
0.0
 51
90.0
  0
LINE
  5
33C
330
335
100
AcDbEntity
  8
RAHM3
100
AcDbLine
 10
-132.7010224410193
 20
8.825237325416161
 30
52.0
 11
-129.0636040410194
 21
8.825237325416161
 31
52.0
  0
ARC
  5
33D
330
335
100
AcDbEntity
  8
RAHM3
100
AcDbCircle
 10
-132.7010224410193
 20
7.833214125416168
 30
52.0
 40
0.9920232
100
AcDbArc
 50
90.0
 51
180.0
  0
LINE
  5
33E
330
335
100
AcDbEntity
  8
RAHM3
100
AcDbLine
 10
-148.4080564410193
 20
8.163888525416165
 30
52.0
 11
-147.5813704410193
 21
8.163888525416165
 31
52.0
  0
LINE
  5
33F
330
335
100
AcDbEntity
  8
RAHM3
100
AcDbLine
 10
-147.5813704410193
 20
8.163888525416165
 30
52.0
 11
-147.5813704410193
 21
3.865121325416145
 31
52.0
  0
LINE
  5
340
330
335
100
AcDbEntity
  8
RAHM3
100
AcDbLine
 10
-146.2586728410194
 20
3.865121325416145
 30
52.0
 11
-146.2586728410194
 21
8.163888525416165
 31
52.0
  0
LINE
  5
341
330
335
100
AcDbEntity
  8
RAHM3
100
AcDbLine
 10
-146.2586728410194
 20
8.163888525416165
 30
52.0
 11
-145.4319868410194
 21
8.163888525416165
 31
52.0
  0
LINE
  5
342
330
335
100
AcDbEntity
  8
RAHM3
100
AcDbLine
 10
-145.4319868410194
 20
8.825237325416161
 30
52.0
 11
-145.4319868410194
 21
8.163888525416165
 31
52.0
  0
LINE
  5
343
330
335
100
AcDbEntity
  8
RAHM3
100
AcDbLine
 10
-148.4080564410193
 20
8.163888525416165
 30
52.0
 11
-148.4080564410193
 21
8.825237325416161
 31
52.0
  0
LINE
  5
344
330
335
100
AcDbEntity
  8
RAHM3
100
AcDbLine
 10
-145.4319868410194
 20
3.203772525416149
 30
52.0
 11
-148.4080564410193
 21
3.203772525416149
 31
52.0
  0
CIRCLE
  5
345
330
335
100
AcDbEntity
  8
RAHM3
100
AcDbCircle
 10
-144.1092892410194
 20
3.865121325416145
 30
52.0
 40
0.6613488000000001
  0
LINE
  5
346
330
335
100
AcDbEntity
  8
RAHM3
100
AcDbLine
 10
-137.9918128410194
 20
3.865121325416145
 30
52.0
 11
-137.9918128410194
 21
3.203772525416149
 31
52.0
  0
LINE
  5
347
330
335
100
AcDbEntity
  8
RAHM3
100
AcDbLine
 10
-137.9918128410194
 20
3.203772525416149
 30
52.0
 11
-136.6691152410193
 21
3.203772525416149
 31
52.0
  0
ARC
  5
348
330
335
100
AcDbEntity
  8
RAHM3
100
AcDbCircle
 10
-141.4638940410194
 20
4.195795725416166
 30
52.0
 40
0.9920232
100
AcDbArc
 50
180.0
 51
270.0
  0
LINE
  5
349
330
335
100
AcDbEntity
  8
RAHM3
100
AcDbLine
 10
-141.4638940410194
 20
3.203772525416149
 30
52.0
 11
-141.1332196410193
 21
3.203772525416149
 31
52.0
  0
LINE
  5
34A
330
335
100
AcDbEntity
  8
RAHM3
100
AcDbLine
 10
-142.4559172410194
 20
4.195795725416166
 30
52.0
 11
-142.4559172410194
 21
7.833214125416168
 31
52.0
  0
CIRCLE
  5
34B
330
335
100
AcDbEntity
  8
RAHM3
100
AcDbCircle
 10
-135.5117548410193
 20
3.865121325416145
 30
52.0
 40
0.6613488000000001
  0
ARC
  5
34C
330
335
100
AcDbEntity
  8
RAHM3
100
AcDbCircle
 10
-132.7010224410193
 20
4.195795725416166
 30
52.0
 40
0.9920232
100
AcDbArc
 50
180.0
 51
270.0
  0
LINE
  5
34D
330
335
100
AcDbEntity
  8
RAHM3
100
AcDbLine
 10
-129.0636040410194
 20
3.203772525416149
 30
52.0
 11
-132.7010224410193
 21
3.203772525416149
 31
52.0
  0
ARC
  5
34E
330
335
100
AcDbEntity
  8
RAHM3
100
AcDbCircle
 10
-129.0636040410194
 20
4.195795725416166
 30
52.0
 40
0.9920232
100
AcDbArc
 50
270.0
 51
0.0
  0
LINE
  5
34F
330
335
100
AcDbEntity
  8
RAHM3
100
AcDbLine
 10
-133.6930456410194
 20
4.195795725416166
 30
52.0
 11
-133.6930456410194
 21
5.022481725416161
 31
52.0
  0
LINE
  5
350
330
335
100
AcDbEntity
  8
RAHM3
100
AcDbLine
 10
-128.0715808410194
 20
7.833214125416168
 30
52.0
 11
-128.0715808410194
 21
7.00652812541615
 31
52.0
  0
CIRCLE
  5
351
330
335
100
AcDbEntity
  8
RAHM3
100
AcDbCircle
 10
-126.9142204410194
 20
3.865121325416145
 30
52.0
 40
0.6613488000000001
  0
LINE
  5
352
330
335
100
AcDbEntity
  8
RAHM3
100
AcDbLine
 10
-136.6691152410193
 20
7.171865325416149
 30
52.0
 11
-137.8264756410194
 21
7.171865325416149
 31
52.0
  0
LINE
  5
353
330
335
100
AcDbEntity
  8
RAHM3
100
AcDbLine
 10
-137.8264756410194
 20
7.171865325416149
 30
52.0
 11
-137.8264756410194
 21
7.667876925416146
 31
52.0
  0
LINE
  5
354
330
335
100
AcDbEntity
  8
RAHM3
100
AcDbLine
 10
-137.8264756410194
 20
7.667876925416146
 30
52.0
 11
-141.2985568410193
 21
7.667876925416146
 31
52.0
  0
LINE
  5
355
330
335
100
AcDbEntity
  8
RAHM3
100
AcDbLine
 10
-141.2985568410193
 20
7.667876925416146
 30
52.0
 11
-141.2985568410193
 21
4.361132925416165
 31
52.0
  0
LINE
  5
356
330
335
100
AcDbEntity
  8
RAHM3
100
AcDbLine
 10
-137.8264756410194
 20
5.518493325416158
 30
52.0
 11
-139.4798476410193
 21
5.518493325416158
 31
52.0
  0
LINE
  5
357
330
335
100
AcDbEntity
  8
RAHM3
100
AcDbLine
 10
-139.4798476410193
 20
5.518493325416158
 30
52.0
 11
-139.4798476410193
 21
6.510516525416153
 31
52.0
  0
LINE
  5
358
330
335
100
AcDbEntity
  8
RAHM3
100
AcDbLine
 10
-136.6691152410193
 20
7.171865325416149
 30
52.0
 11
-136.6691152410193
 21
7.833214125416168
 31
52.0
  0
LINE
  5
359
330
335
100
AcDbEntity
  8
RAHM3
100
AcDbLine
 10
-137.8264756410194
 20
5.022481725416161
 30
52.0
 11
-137.8264756410194
 21
5.518493325416158
 31
52.0
  0
LINE
  5
35A
330
335
100
AcDbEntity
  8
RAHM3
100
AcDbLine
 10
-137.6611384410193
 20
6.510516525416153
 30
52.0
 11
-139.4798476410193
 21
6.510516525416153
 31
52.0
  0
LINE
  5
35B
330
335
100
AcDbEntity
  8
RAHM3
100
AcDbLine
 10
-136.6691152410193
 20
5.518493325416158
 30
52.0
 11
-136.6691152410193
 21
3.203772525416149
 31
52.0
  0
ARC
  5
35C
330
335
100
AcDbEntity
  8
RAHM3
100
AcDbCircle
 10
-137.6611384410193
 20
5.518493325416158
 30
52.0
 40
0.9920232
100
AcDbArc
 50
0.0
 51
90.0
  0
LINE
  5
35D
330
335
100
AcDbEntity
  8
RAHM3
100
AcDbLine
 10
-139.1930809214994
 20
5.022481725416161
 30
52.0
 11
-137.8264756410194
 21
5.022481725416161
 31
52.0
  0
ARC
  5
35E
330
335
100
AcDbEntity
  8
RAHM3
100
AcDbCircle
 10
-139.1930809214994
 20
4.030458525416167
 30
52.0
 40
0.9920232
100
AcDbArc
 50
90.0
 51
119.7448812969
  0
LINE
  5
35F
330
335
100
AcDbEntity
  8
RAHM3
100
AcDbLine
 10
-140.8773334868594
 20
4.361132925416165
 30
52.0
 11
-141.2985568410193
 21
4.361132925416165
 31
52.0
  0
LINE
  5
360
330
335
100
AcDbEntity
  8
RAHM3
100
AcDbLine
 10
-140.3851521495794
 20
4.491838785176161
 30
52.0
 11
-139.6852622587794
 21
4.891775865576152
 31
52.0
  0
ARC
  5
361
330
335
100
AcDbEntity
  8
RAHM3
100
AcDbCircle
 10
-140.8773334868594
 20
5.35315612541616
 30
52.0
 40
0.9920232
100
AcDbArc
 50
270.0
 51
299.7448812969
  0
ARC
  5
362
330
335
100
AcDbEntity
  8
RAHM3
100
AcDbCircle
 10
-138.8857271583794
 20
2.873098125416151
 30
52.0
 40
0.9920232
100
AcDbArc
 50
90.0
 51
119.7448812969
  0
LINE
  5
363
330
335
100
AcDbEntity
  8
RAHM3
100
AcDbLine
 10
-140.5699797237394
 20
3.203772525416149
 30
52.0
 11
-141.4638940410194
 21
3.203772525416149
 31
52.0
  0
ARC
  5
364
330
335
100
AcDbEntity
  8
RAHM3
100
AcDbCircle
 10
-140.5699797237394
 20
4.195795725416166
 30
52.0
 40
0.9920232
100
AcDbArc
 50
270.0
 51
299.7448812969
  0
LINE
  5
365
330
335
100
AcDbEntity
  8
RAHM3
100
AcDbLine
 10
-139.3779084956594
 20
3.734415465576159
 30
52.0
 11
-140.0777983864594
 21
3.334478385176168
 31
52.0
  0
LINE
  5
366
330
335
100
AcDbEntity
  8
RAHM3
100
AcDbLine
 10
-138.8857271583794
 20
3.865121325416145
 30
52.0
 11
-137.9918128410194
 21
3.865121325416145
 31
52.0
  0
LINE
  5
367
330
335
100
AcDbEntity
  8
RAHM3
100
AcDbLine
 10
-147.5813704410193
 20
3.865121325416145
 30
52.0
 11
-148.4080564410193
 21
3.865121325416145
 31
52.0
  0
LINE
  5
368
330
335
100
AcDbEntity
  8
RAHM3
100
AcDbLine
 10
-146.2586728410194
 20
3.865121325416145
 30
52.0
 11
-145.4319868410194
 21
3.865121325416145
 31
52.0
  0
LINE
  5
369
330
335
100
AcDbEntity
  8
RAHM3
100
AcDbLine
 10
-148.4080564410193
 20
3.203772525416149
 30
52.0
 11
-148.4080564410193
 21
3.865121325416145
 31
52.0
  0
LINE
  5
36A
330
335
100
AcDbEntity
  8
RAHM3
100
AcDbLine
 10
-145.4319868410194
 20
3.865121325416145
 30
52.0
 11
-145.4319868410194
 21
3.203772525416149
 31
52.0
  0
LINE
  5
36B
330
335
100
AcDbEntity
  8
RAHM3
100
AcDbLine
 10
-132.5356852410194
 20
7.667876925416146
 30
52.0
 11
-129.2289412410193
 21
7.667876925416146
 31
52.0
  0
LINE
  5
36C
330
335
100
AcDbEntity
  8
RAHM3
100
AcDbLine
 10
-129.2289412410193
 20
7.667876925416146
 30
52.0
 11
-129.2289412410193
 21
7.00652812541615
 31
52.0
  0
LINE
  5
36D
330
335
100
AcDbEntity
  8
RAHM3
100
AcDbLine
 10
-132.5356852410194
 20
5.022481725416161
 30
52.0
 11
-132.5356852410194
 21
4.361132925416165
 31
52.0
  0
LINE
  5
36E
330
335
100
AcDbEntity
  8
RAHM3
100
AcDbLine
 10
-132.5356852410194
 20
4.361132925416165
 30
52.0
 11
-129.2289412410193
 21
4.361132925416165
 31
52.0
  0
LINE
  5
36F
330
335
100
AcDbEntity
  8
RAHM3
100
AcDbLine
 10
-132.5356852410194
 20
5.022481725416161
 30
52.0
 11
-133.6930456410194
 21
5.022481725416161
 31
52.0
  0
LINE
  5
370
330
335
100
AcDbEntity
  8
RAHM3
100
AcDbLine
 10
-128.0715808410194
 20
7.00652812541615
 30
52.0
 11
-129.2289412410193
 21
7.00652812541615
 31
52.0
  0
LINE
  5
371
330
335
100
AcDbEntity
  8
RAHM3
100
AcDbLine
 10
-129.2289412410193
 20
4.361132925416165
 30
52.0
 11
-129.2289412410193
 21
5.518493325416158
 31
52.0
  0
LINE
  5
372
330
335
100
AcDbEntity
  8
RAHM3
100
AcDbLine
 10
-132.5356852410194
 20
6.510516525416153
 30
52.0
 11
-132.5356852410194
 21
7.667876925416146
 31
52.0
  0
LINE
  5
373
330
335
100
AcDbEntity
  8
RAHM3
100
AcDbLine
 10
-128.0715808410194
 20
5.518493325416158
 30
52.0
 11
-128.0715808410194
 21
4.195795725416166
 31
52.0
  0
LINE
  5
374
330
335
100
AcDbEntity
  8
RAHM3
100
AcDbLine
 10
-129.0636040410194
 20
6.510516525416153
 30
52.0
 11
-132.5356852410194
 21
6.510516525416153
 31
52.0
  0
ARC
  5
375
330
335
100
AcDbEntity
  8
RAHM3
100
AcDbCircle
 10
-129.0636040410194
 20
5.518493325416158
 30
52.0
 40
0.9920232
100
AcDbArc
 50
0.0
 51
90.0
  0
LINE
  5
376
330
335
100
AcDbEntity
  8
RAHM3
100
AcDbLine
 10
-132.7010224411794
 20
5.518493325416158
 30
52.0
 11
-129.2289412410193
 21
5.518493325416158
 31
52.0
  0
LINE
  5
377
330
335
100
AcDbEntity
  8
RAHM3
100
AcDbLine
 10
-133.6930456410194
 20
6.510516525416153
 30
52.0
 11
-133.6930456410194
 21
7.833214125416168
 31
52.0
  0
ARC
  5
378
330
335
100
AcDbEntity
  8
RAHM3
100
AcDbCircle
 10
-132.7010224411794
 20
6.510516525416153
 30
52.0
 40
0.9920232
100
AcDbArc
 50
180.0
 51
270.0
  0
POINT
  5
379
330
335
100
AcDbEntity
  8
0
 60
     1
100
AcDbPoint
 10
0.0
 20
0.0
 30
0.0
1001
GENIUS_GENODEF_13
1002
{
1000
HIER
1070
     1
1002
}
1002
{
1000
MANEDIT
1070
     0
1002
}
1002
{
1000
NOSEL
1070
     0
1002
}
1002
{
1000
BEHIND
1070
     0
1002
}
1002
{
1000
REACTOR
1002
}
1001
GENIUS_GENTITLE_13
1002
{
1000
SCALE
1000
1:1
1002
}
1002
{
1000
BORDER
1000
GEN_A4
1002
}
1002
{
1000
TITLE
1000
GENTITUS
1002
}
1002
{
1000
UNCHG
1002
{
1000
GEN-TITLE-SCA
1000
GEN-TITLE-SIZ
1002
}
1002
}
1002
{
1000
HRA
1005
0
1002
}
1002
{
1000
HTIT
1005
0
1002
}
1002
{
1000
GENIUSID
1005
379
1002
}
1001
GENIUS_GENOBJ-N-TIT_13
1002
{
1000
OWNER
1000
GEN
1002
}
1001
GENIUS_GENOENT_13
1002
{
1000
MYREF
1005
379
1002
}
1002
{
1000
GRP
1005
0
1002
}
1001
GENIUS_GENOLIS_13
1002
{
1000
ENT
1005
0
1005
0
1002
}
  0
TEXT
  5
37A
330
335
100
AcDbEntity
  8
0
 60
     1
100
AcDbText
 10
210.0
 20
297.0
 30
0.0
 40
3.5
  1
!GENTITLE-MAX
100
AcDbText
  0
TEXT
  5
37B
330
335
100
AcDbEntity
  8
0
 60
     1
100
AcDbText
 10
205.0
 20
287.0
 30
0.0
 40
3.5
  1
!GENTITLE-RU
100
AcDbText
  0
TEXT
  5
37C
330
335
100
AcDbEntity
  8
0
 60
     1
100
AcDbText
 10
15.0
 20
59.99
 30
0.0
 40
3.5
  1
!GENTITLE-LL
100
AcDbText
  0
TEXT
  5
37D
330
335
100
AcDbEntity
  8
0
 60
     1
100
AcDbText
 10
205.0
 20
5.0
 30
0.0
 40
3.5
  1
!GENTITLE-INSERT
100
AcDbText
  0
LINE
  5
37E
330
335
100
AcDbEntity
  8
RAHM2
100
AcDbLine
 10
-155.0
 20
12.0
 30
0.0
 11
0.0
 21
12.0
 31
0.0
  0
LINE
  5
37F
330
335
100
AcDbEntity
  8
RAHM2
100
AcDbLine
 10
-12.0
 20
12.0
 30
0.0
 11
-12.00000000000727
 21
0.0
 31
0.0
  0
LINE
  5
380
330
335
100
AcDbEntity
  8
RAHM2
100
AcDbLine
 10
-80.0
 20
19.99999999999272
 30
0.0
 11
0.0
 21
20.0
 31
0.0
  0
LINE
  5
381
330
335
100
AcDbEntity
  8
RAHM2
100
AcDbLine
 10
0.0
 20
27.0
 30
0.0
 11
-80.0
 21
27.0
 31
0.0
  0
MTEXT
  5
382
330
335
100
AcDbEntity
  8
RAHM2
100
AcDbMText
 10
-78.39748281353763
 20
37.79972226353243
 30
0.0
 40
2.5
 41
2.458156240282278
 71
     1
 72
     5
  1

 73
     1
 44
1.0
  0
TEXT
  5
383
330
335
100
AcDbEntity
  8
RAHM3
100
AcDbText
 10
-79.00900277736832
 20
36.89804600214973
 30
0.0
 40
2.299999999999999
  1
名称 ＴＩＴＬＥ
 41
0.8
100
AcDbText
  0
LINE
  5
384
330
335
100
AcDbEntity
  8
RAHM2
100
AcDbLine
 10
-80.0
 20
40.00000000000727
 30
0.0
 11
-80.0
 21
0.0
 31
0.0
  0
TEXT
  5
385
330
335
100
AcDbEntity
  8
RAHM3
100
AcDbText
 10
-79.00900277736832
 20
23.89804600216055
 30
0.0
 40
2.299999999999999
  1
符号 
 41
0.8
100
AcDbText
  0
TEXT
  5
386
330
335
100
AcDbEntity
  8
RAHM3
100
AcDbText
 10
-79.00900277736832
 20
16.89804600215146
 30
0.0
 40
2.299999999999999
  1
件名
 41
0.8
100
AcDbText
  0
TEXT
  5
387
330
335
100
AcDbEntity
  8
RAHM3
100
AcDbText
 10
-79.00900277736832
 20
8.898046002160548
 30
0.0
 40
2.299999999999999
  1
図番 ＤＲＡＷＩＮＧ ＮＯ．
 41
0.8
100
AcDbText
  0
CIRCLE
  5
388
330
335
100
AcDbEntity
  8
RAHM2
100
AcDbCircle
 10
-5.0
 20
5.0
 30
0.0
 40
4.5
  0
LINE
  5
389
330
335
100
AcDbEntity
  8
RAHM2
100
AcDbLine
 10
-130.0000000000018
 20
40.00000000000916
 30
0.0
 11
-130.0000000000018
 21
12.0
 31
0.0
  0
LINE
  5
38A
330
335
100
AcDbEntity
  8
RAHM2
100
AcDbLine
 10
-130.0000000000018
 20
26.00000000000458
 30
0.0
 11
-80.0
 21
25.99999999999818
 31
0.0
  0
LINE
  5
38B
330
335
100
AcDbEntity
  8
RAHM2
100
AcDbLine
 10
-105.0000000000018
 20
40.00000000000916
 30
0.0
 11
-105.0000000000018
 21
12.0
 31
0.0
  0
TEXT
  5
38C
330
335
100
AcDbEntity
  8
RAHM3
100
AcDbText
 10
-129.0090027773683
 20
36.89804600215881
 30
0.0
 40
2.299999999999999
  1
承認 ＡＰＰＤ
 41
0.8
100
AcDbText
  0
TEXT
  5
38D
330
335
100
AcDbEntity
  8
RAHM3
100
AcDbText
 10
-104.0090027773683
 20
36.8980460021551
 30
0.0
 40
2.299999999999999
  1
検図 ＣＨＫ
 41
0.8
100
AcDbText
  0
TEXT
  5
38E
330
335
100
AcDbEntity
  8
RAHM3
100
AcDbText
 10
-129.0090027773683
 20
22.89804600215422
 30
0.0
 40
2.299999999999999
  1
設計 ＥＮＧＲ
 41
0.8
100
AcDbText
  0
TEXT
  5
38F
330
335
100
AcDbEntity
  8
RAHM3
100
AcDbText
 10
-104.0090027773683
 20
22.89804600214964
 30
0.0
 40
2.299999999999999
  1
製図 ＤＲ ＤＡＴＥ
 41
0.8
100
AcDbText
  0
LINE
  5
390
330
335
100
AcDbEntity
  8
RAHM2
100
AcDbLine
 10
-155.0
 20
30.60000000000036
 30
0.0
 11
-130.0000000000018
 21
30.60000000000036
 31
0.0
  0
LINE
  5
391
330
335
100
AcDbEntity
  8
RAHM2
100
AcDbLine
 10
-155.0
 20
21.29999999999927
 30
0.0
 11
-130.0000000000018
 21
21.30000000000109
 31
0.0
  0
TEXT
  5
392
330
335
100
AcDbEntity
  8
RAHM3
100
AcDbText
 10
-121.7843516157921
 20
6.885079184961092
 30
0.0
 40
4.0
  1
伊藤鉄工株式会社
100
AcDbText
  0
TEXT
  5
393
330
335
100
AcDbEntity
  8
RAHM3
100
AcDbText
 10
-120.6675998914835
 20
3.578884653066273
 30
0.0
 40
2.0
  1
ITO TEKKO  CO.,LTD.
100
AcDbText
1001
GENIUS_GENTRA_14
1002
{
1070
     1
1000
/
1000
ITO TEKKO  CO.,LTD.
1000
JPN
1070
     0
1040
1.0
1070
     0
1002
}
  0
TEXT
  5
394
330
335
100
AcDbEntity
  8
RAHM3
100
AcDbText
 10
-120.6675998914835
 20
0.9279960228792472
 30
0.0
 40
2.0
  1
KAWAGUCHI  JAPAN
100
AcDbText
  0
TEXT
  5
395
330
335
100
AcDbEntity
  8
RAHM3
100
AcDbText
 10
-11.85206060358336
 20
9.69362381988742
 30
0.0
 40
1.8
  1
ＲＥＶ．ＭＡＲＫ
 41
0.6800000000000001
100
AcDbText
  0
TEXT
  5
396
330
335
100
AcDbEntity
  8
RAHM3
100
AcDbText
 10
-11.57052530051805
 20
7.425435269030799
 30
0.0
 40
1.8
  1
変
100
AcDbText
  0
TEXT
  5
397
330
335
100
AcDbEntity
  8
RAHM3
100
AcDbText
 10
-11.59004395148213
 20
4.996441785248862
 30
0.0
 40
1.8
  1
更
100
AcDbText
  0
TEXT
  5
398
330
335
100
AcDbEntity
  8
RAHM3
100
AcDbText
 10
-11.62938531906752
 20
2.617267270587205
 30
0.0
 40
1.8
  1
回
100
AcDbText
  0
TEXT
  5
399
330
335
100
AcDbEntity
  8
RAHM3
100
AcDbText
 10
-11.56556962136267
 20
0.3551115072955326
 30
0.0
 40
1.8
  1
数
100
AcDbText
  0
TEXT
  5
39A
330
335
100
AcDbEntity
  8
RAHM3
100
AcDbText
 10
-154.0090027773665
 20
36.89804600217056
 30
0.0
 40
2.299999999999999
  1
尺度 ＳＣＡＬＥ
 41
0.8
100
AcDbText
  0
TEXT
  5
39B
330
335
100
AcDbEntity
  8
RAHM3
100
AcDbText
 10
-154.0090027773665
 20
27.49804600215
 30
0.0
 40
2.299999999999999
  1
図面枚数 ＮＯ．  
 41
0.8
100
AcDbText
  0
LINE
  5
39C
330
335
100
AcDbEntity
  8
7A
100
AcDbLine
 10
-151.7551228444401
 20
16.64999999999988
 30
0.0
 11
-149.2551228444401
 21
16.64999999999988
 31
0.0
1001
GENIUS_GENOREF_13
1005
3A0
  0
LINE
  5
39D
330
335
100
AcDbEntity
  8
7A
100
AcDbLine
 10
-151.7551228444401
 20
16.64999999999988
 30
0.0
 11
-151.7551228444401
 21
19.14999999999988
 31
0.0
1001
GENIUS_GENOREF_13
1005
3A0
  0
LINE
  5
39E
330
335
100
AcDbEntity
  8
7A
100
AcDbLine
 10
-151.7551228444401
 20
16.64999999999988
 30
0.0
 11
-154.2551228444401
 21
16.64999999999988
 31
0.0
1001
GENIUS_GENOREF_13
1005
3A0
  0
LINE
  5
39F
330
335
100
AcDbEntity
  8
7A
100
AcDbLine
 10
-151.7551228444401
 20
16.64999999999988
 30
0.0
 11
-151.7551228444401
 21
14.14999999999988
 31
0.0
1001
GENIUS_GENOREF_13
1005
3A0
  0
POINT
  5
3A0
330
335
100
AcDbEntity
  8
0
 60
     1
100
AcDbPoint
 10
0.0
 20
0.0
 30
0.0
1001
GENIUS_GENODEF_13
1002
{
1000
HIER
1070
    10
1002
}
1002
{
1000
MANEDIT
1070
     0
1002
}
1002
{
1000
NOSEL
1070
     0
1002
}
1002
{
1000
BEHIND
1070
     0
1002
}
1002
{
1000
REACTOR
1002
}
1001
GENIUS_GENOBJ-N-CRS_13
1002
{
1000
OWNER
1000
GEN
1002
}
1001
GENIUS_GENOENT_13
1002
{
1000
MYREF
1005
3A0
1002
}
1002
{
1000
GRP
1005
0
1002
}
1001
GENIUS_GENOLIS_13
1002
{
1000
ENT
1005
39F
1005
39E
1005
39D
1005
39C
1002
}
  0
CIRCLE
  5
3A1
330
335
100
AcDbEntity
  8
RAHM3
100
AcDbCircle
 10
-151.7551228444401
 20
16.64999999999988
 30
0.0
 40
2.0
  0
CIRCLE
  5
3A2
330
335
100
AcDbEntity
  8
RAHM3
100
AcDbCircle
 10
-151.7551228444401
 20
16.64999999999952
 30
0.0
 40
1.0
  0
LINE
  5
3A3
330
335
100
AcDbEntity
  8
RAHM3
100
AcDbLine
 10
-147.7659442035316
 20
17.64999999999929
 30
0.0
 11
-147.7659442035316
 21
15.64999999999929
 31
0.0
  0
LINE
  5
3A4
330
335
100
AcDbEntity
  8
RAHM3
100
AcDbLine
 10
-147.7659442035316
 20
15.64999999999929
 30
0.0
 11
-143.7659442035316
 21
14.64999999999928
 31
0.0
  0
LINE
  5
3A5
330
335
100
AcDbEntity
  8
RAHM3
100
AcDbLine
 10
-143.7659442035316
 20
14.64999999999928
 30
0.0
 11
-143.7659442035316
 21
18.64999999999929
 31
0.0
  0
LINE
  5
3A6
330
335
100
AcDbEntity
  8
RAHM3
100
AcDbLine
 10
-143.7659442035316
 20
18.64999999999929
 30
0.0
 11
-147.7659442035316
 21
17.64999999999929
 31
0.0
  0
LINE
  5
3A7
330
335
100
AcDbEntity
  8
7A
100
AcDbLine
 10
-148.6350563849704
 20
16.64999999999929
 30
0.0
 11
-142.8462596443259
 21
16.64999999999929
 31
0.0
1001
GENIUS_GENODEF_13
1002
{
1000
HIER
1070
     0
1002
}
1002
{
1000
MANEDIT
1070
     0
1002
}
1002
{
1000
NOSEL
1070
     0
1002
}
1002
{
1000
BEHIND
1070
     0
1002
}
1002
{
1000
REACTOR
1002
}
1001
GENIUS_GENOBJ-N-CEN_13
1002
{
1000
OWNER
1000
GEN
1002
}
  0
TEXT
  5
3A8
330
335
100
AcDbEntity
  8
RAHM3
100
AcDbText
 10
-141.8454810851357
 20
18.28209750892168
 30
0.0
 40
2.1
  1
単位 ＵＮＩＴ
 41
0.7
100
AcDbText
  0
LINE
  5
3A9
330
335
100
AcDbEntity
  8
RAHM2
100
AcDbLine
 10
-142.5000000000009
 20
21.29999999999927
 30
0.0
 11
-142.5000000000009
 21
12.0
 31
0.0
  0
TEXT
  5
3AA
330
335
100
AcDbEntity
  8
RAHM3
100
AcDbText
 10
-139.6782849929894
 20
13.82826889824218
 30
0.0
 40
4.0
  1
ｍｍ
 41
0.8
100
AcDbText
  0
POLYLINE
  5
3AB
330
335
100
AcDbEntity
  8
RAHM2
100
AcDb2dPolyline
 66
     1
 10
0.0
 20
0.0
 30
0.0
 70
     1
  0
VERTEX
  5
3AC
330
3AB
100
AcDbEntity
  8
RAHM2
100
AcDbVertex
100
AcDb2dVertex
 10
-155.0
 20
-0.000000000001819
 30
0.0
  0
VERTEX
  5
3AD
330
3AB
100
AcDbEntity
  8
RAHM2
100
AcDbVertex
100
AcDb2dVertex
 10
-155.0
 20
40.00000000002091
 30
0.0
  0
VERTEX
  5
3AE
330
3AB
100
AcDbEntity
  8
RAHM2
100
AcDbVertex
100
AcDb2dVertex
 10
0.0
 20
39.99999999999273
 30
0.0
  0
VERTEX
  5
3AF
330
3AB
100
AcDbEntity
  8
RAHM2
100
AcDbVertex
100
AcDb2dVertex
 10
0.0
 20
0.0
 30
0.0
  0
SEQEND
  5
3B0
330
3AB
100
AcDbEntity
  8
RAHM2
  0
ATTDEF
  5
3B1
330
335
100
AcDbEntity
  8
RAHM3
100
AcDbText
 10
-147.2595867131855
 20
31.94728899818607
 30
0.0
 40
4.0
  1

100
AcDbAttributeDefinition
  3
尺度
  2
GEN-TITLE-SCA
 70
     0
  0
ATTDEF
  5
3B2
330
335
100
AcDbEntity
  8
RAHM3
100
AcDbText
 10
-73.09000000000001
 20
29.74
 30
0.0
 40
5.0
  1

100
AcDbAttributeDefinition
  3
名称
  2
ＴＩＴＬＥ
 70
     0
  0
ATTDEF
  5
3B3
330
335
100
AcDbEntity
  8
RAHM3
100
AcDbText
 10
-71.56287815584043
 20
21.80438312711384
 30
0.0
 40
3.0
  1

100
AcDbAttributeDefinition
  3
符号
  2
ｃｏｄｅ
 70
     0
  0
ATTDEF
  5
3B4
330
335
100
AcDbEntity
  8
RAHM3
100
AcDbText
 10
-70.74480649396313
 20
14.80438312710657
 30
0.0
 40
3.0
  1

100
AcDbAttributeDefinition
  3
件名
  2
件名
 70
     0
  0
ATTDEF
  5
3B5
330
335
100
AcDbEntity
  8
RAHM3
100
AcDbText
 10
-73.09000000000001
 20
1.739999999992722
 30
0.0
 40
5.0
  1

100
AcDbAttributeDefinition
  3
図面番号
  2
Ｎｏ．
 70
     0
  0
ATTDEF
  5
3B6
330
335
100
AcDbEntity
  8
RAHM3
100
AcDbText
 10
-100.45
 20
17.40708932112655
 30
0.0
 40
4.0
  1

100
AcDbAttributeDefinition
  3
製図者
  2
ＤＲ
 70
     0
  0
ATTDEF
  5
3B7
330
335
100
AcDbEntity
  8
RAHM3
100
AcDbText
 10
-103.7180853038729
 20
12.76999999999999
 30
0.0
 40
3.0
  1

 41
0.8
100
AcDbAttributeDefinition
  3
日付
  2
ｄａｔｅ
 70
     0
  0
ENDBLK
  5
3B9
330
335
100
AcDbEntity
  8
0
100
AcDbBlockEnd
  0
BLOCK
  5
411
330
3FC
100
AcDbEntity
  8
0
100
AcDbBlockBegin
  2
IGS_A1
 70
     0
 10
0.0
 20
0.0
 30
0.0
  3
IGS_A1
  1

  0
LINE
  5
3FD
330
3FC
100
AcDbEntity
  8
AM_BOR
100
AcDbLine
 10
0.0
 20
0.0
 30
0.0
 11
0.0
 21
15.0
 31
0.0
  0
LINE
  5
3FE
330
3FC
100
AcDbEntity
  8
AM_BOR
100
AcDbLine
 10
0.0
 20
594.0
 30
0.0
 11
15.0
 21
594.0
 31
0.0
  0
LINE
  5
3FF
330
3FC
100
AcDbEntity
  8
AM_BOR
100
AcDbLine
 10
841.0
 20
594.0
 30
0.0
 11
841.0
 21
579.0
 31
0.0
  0
LINE
  5
400
330
3FC
100
AcDbEntity
  8
AM_BOR
100
AcDbLine
 10
841.0
 20
0.0
 30
0.0
 11
826.0
 21
0.0
 31
0.0
  0
LINE
  5
401
330
3FC
100
AcDbEntity
  8
0
100
AcDbLine
 10
25.0
 20
20.0
 30
0.0
 11
25.0
 21
574.0
 31
0.0
  0
LINE
  5
402
330
3FC
100
AcDbEntity
  8
0
100
AcDbLine
 10
821.0
 20
20.0
 30
0.0
 11
25.0
 21
20.0
 31
0.0
  0
LINE
  5
403
330
3FC
100
AcDbEntity
  8
0
100
AcDbLine
 10
821.0
 20
574.0
 30
0.0
 11
821.0
 21
20.0
 31
0.0
  0
LINE
  5
404
330
3FC
100
AcDbEntity
  8
0
100
AcDbLine
 10
25.0
 20
574.0
 30
0.0
 11
821.0
 21
574.0
 31
0.0
  0
LINE
  5
405
330
3FC
100
AcDbEntity
  8
AM_BOR
100
AcDbLine
 10
15.0
 20
0.0
 30
0.0
 11
0.0
 21
0.0
 31
0.0
  0
LINE
  5
406
330
3FC
100
AcDbEntity
  8
AM_BOR
100
AcDbLine
 10
841.0
 20
15.0
 30
0.0
 11
841.0
 21
0.0
 31
0.0
  0
LINE
  5
407
330
3FC
100
AcDbEntity
  8
AM_BOR
100
AcDbLine
 10
826.0
 20
594.0
 30
0.0
 11
841.0
 21
594.0
 31
0.0
  0
LINE
  5
408
330
3FC
100
AcDbEntity
  8
AM_BOR
100
AcDbLine
 10
0.0
 20
579.0
 30
0.0
 11
0.0
 21
594.0
 31
0.0
  0
TEXT
  5
409
330
3FC
100
AcDbEntity
  8
0
 60
     1
100
AcDbText
 10
25.0
 20
20.0
 30
0.0
 40
12.0
  1
!GENTITLE-LL
  7
ACJISTS
100
AcDbText
  0
TEXT
  5
40A
330
3FC
100
AcDbEntity
  8
0
 60
     1
100
AcDbText
 10
841.0
 20
594.0
 30
0.0
 40
12.0
  1
!GENTITLE-MAX
  7
ACJISTS
100
AcDbText
  0
TEXT
  5
40B
330
3FC
100
AcDbEntity
  8
0
 60
     1
100
AcDbText
 10
821.0
 20
574.0
 30
0.0
 40
12.0
  1
!GENTITLE-RU
  7
ACJISTS
100
AcDbText
  0
TEXT
  5
40C
330
3FC
100
AcDbEntity
  8
0
 60
     1
100
AcDbText
 10
821.0
 20
20.0
 30
0.0
 40
12.0
  1
!GENTITLE-INSERT
  7
ACJISTS
100
AcDbText
  0
LINE
  5
40D
330
3FC
100
AcDbEntity
  8
AM_BOR
 62
     1
370
    25
100
AcDbLine
 10
0.0
 20
594.0
 30
0.0
 11
841.0
 21
594.0
 31
0.0
  0
LINE
  5
40E
330
3FC
100
AcDbEntity
  8
AM_BOR
 62
     1
370
    25
100
AcDbLine
 10
841.0
 20
594.0
 30
0.0
 11
841.0
 21
0.0
 31
0.0
  0
LINE
  5
40F
330
3FC
100
AcDbEntity
  8
AM_BOR
 62
     1
370
    25
100
AcDbLine
 10
841.0
 20
0.0
 30
0.0
 11
0.0
 21
0.0
 31
0.0
  0
LINE
  5
410
330
3FC
100
AcDbEntity
  8
AM_BOR
 62
     1
370
    25
100
AcDbLine
 10
0.0
 20
0.0
 30
0.0
 11
0.0
 21
594.0
 31
0.0
  0
ENDBLK
  5
412
330
3FC
100
AcDbEntity
  8
0
100
AcDbBlockEnd
  0
BLOCK
  5
51E
330
50A
100
AcDbEntity
  8
0
100
AcDbBlockBegin
  2
jis_bl_revisionlist1
 70
     2
 10
0.0
 20
0.0
 30
0.0
  3
jis_bl_revisionlist1
  1

  0
LINE
  5
680
330
50A
100
AcDbEntity
  8
0
100
AcDbLine
 10
0.0
 20
-4.999999963957748
 30
0.0
 11
182.8800000000001
 21
-4.999999963957748
 31
0.0
  0
LINE
  5
681
330
50A
100
AcDbEntity
  8
AM_BOR
 62
     1
370
    25
100
AcDbLine
 10
28.88000000000011
 20
-9.999999963957748
 30
0.0
 11
159.8800000000001
 21
-9.999999963957748
 31
0.0
  0
LINE
  5
682
330
50A
100
AcDbEntity
  8
0
100
AcDbLine
 10
0.0000000675292995
 20
-9.999999963957804
 30
0.0
 11
182.8800000675292
 21
-9.999999963957804
 31
0.0
  0
LINE
  5
683
330
50A
100
AcDbEntity
  8
0
100
AcDbLine
 10
8.880000000000109
 20
-9.999999963957804
 30
0.0
 11
8.880000000000109
 21
-4.999999963957748
 31
0.0
  0
LINE
  5
684
330
50A
100
AcDbEntity
  8
0
100
AcDbLine
 10
0.0
 20
-9.999999963957748
 30
0.0
 11
0.0
 21
-10.0
 31
0.0
  0
LINE
  5
685
330
50A
100
AcDbEntity
  8
AM_BOR
 62
     1
370
    25
100
AcDbLine
 10
8.880000000000109
 20
-10.0
 30
0.0
 11
8.880000000000109
 21
-4.999999963957748
 31
0.0
  0
LINE
  5
686
330
50A
100
AcDbEntity
  8
AM_BOR
 62
     1
370
    25
100
AcDbLine
 10
28.88000000000011
 20
-10.0
 30
0.0
 11
28.88000000000011
 21
-9.999999963957748
 31
0.0
  0
LINE
  5
687
330
50A
100
AcDbEntity
  8
0
100
AcDbLine
 10
0.0
 20
-4.999999963957748
 30
0.0
 11
0.0
 21
-9.999999963957748
 31
0.0
  0
LINE
  5
688
330
50A
100
AcDbEntity
  8
AM_BOR
 62
     1
370
    25
100
AcDbLine
 10
28.88000000000011
 20
-9.999999963957748
 30
0.0
 11
28.88000000000011
 21
-4.999999963957748
 31
0.0
  0
LINE
  5
689
330
50A
100
AcDbEntity
  8
AM_BOR
 62
     1
370
    25
100
AcDbLine
 10
159.8800000000001
 20
-10.0
 30
0.0
 11
159.8800000000001
 21
-9.999999963957748
 31
0.0
  0
LINE
  5
68A
330
50A
100
AcDbEntity
  8
0
100
AcDbLine
 10
182.8800000000001
 20
-10.0
 30
0.0
 11
182.8800000000001
 21
-9.999999963957748
 31
0.0
  0
LINE
  5
68B
330
50A
100
AcDbEntity
  8
AM_BOR
 62
     1
370
    25
100
AcDbLine
 10
159.8800000000001
 20
-9.999999963957748
 30
0.0
 11
159.8800000000001
 21
-4.999999963957748
 31
0.0
  0
LINE
  5
68C
330
50A
100
AcDbEntity
  8
0
100
AcDbLine
 10
182.8800000000001
 20
-9.999999963957748
 30
0.0
 11
182.8800000000001
 21
-4.999999963957748
 31
0.0
  0
ATTDEF
  5
68D
330
50A
100
AcDbEntity
  8
AM_BOR
 62
     1
370
    25
100
AcDbText
 10
9.880000000000109
 20
-8.999999999999658
 30
0.0
 40
3.0
  1

  7
ACJISTS
100
AcDbAttributeDefinition
  3
図面名
  2
GEN-REV-BLK{6}
 70
     0
1001
GENIUS_GENTRA_14
1002
{
1070
     3
1000
GENTRAPR,%s,(GENMSG gendwg 93)
1000
図面名
1000
JPN
1070
     0
1070
     0
1002
}
  0
ATTDEF
  5
68E
330
50A
100
AcDbEntity
  8
AM_BOR
 62
     1
370
    25
100
AcDbText
 10
29.88000000000011
 20
-9.000000000001477
 30
0.0
 40
3.0
  1

  7
ACJISTS
100
AcDbAttributeDefinition
  3
履歴 2 行目
  2
GEN-REV-TEXT2{43}
 70
     0
1001
GENIUS_GENTRA_14
1002
{
1070
     3
1000
GENTRAPR,%s,(GENMSG gendwg 92)
1000
履歴 2 行目
1000
JPN
1070
     0
1070
     0
1002
}
  0
ATTDEF
  5
68F
330
50A
100
AcDbEntity
  8
AM_BOR
 62
     1
370
    25
100
AcDbText
 10
0.9326324110411405
 20
-8.999999963957748
 30
0.0
 40
3.0
  1

  7
ACJISTS
100
AcDbAttributeDefinition
  3
番号
  2
GEN-REV-NR{2}
 70
     0
1001
GENIUS_GENTRA_14
1002
{
1070
     3
1000
GENTRAPR,%s,(GENMSG gendwg 98)
1000
番号
1000
JPN
1070
     0
1070
     0
1002
}
  0
ATTDEF
  5
690
330
50A
100
AcDbEntity
  8
AM_BOR
 62
     1
370
    25
100
AcDbText
 10
9.880000000000109
 20
-8.999999963957407
 30
0.0
 40
3.0
  1

  7
ACJISTS
100
AcDbAttributeDefinition
  3
日付
  2
GEN-REV-DAT{6}
 70
     0
1001
GENIUS_GENTRA_14
1002
{
1070
     3
1000
GENTRAPR,%s,(GENMSG gendwg 95)
1000
日付
1000
JPN
1070
     0
1070
     0
1002
}
  0
ATTDEF
  5
691
330
50A
100
AcDbEntity
  8
AM_BOR
 62
     1
370
    25
100
AcDbText
 10
160.8800000000001
 20
-8.713127708901765
 30
0.0
 40
3.0
  1

  7
ACJISTS
100
AcDbAttributeDefinition
  3
名前
  2
GEN-REV-NAME{7}
 70
     0
1001
GENIUS_GENTRA_14
1002
{
1070
     3
1000
GENTRAPR,%s,(GENMSG gendwg 97)
1000
名前
1000
JPN
1070
     0
1070
     0
1002
}
  0
ENDBLK
  5
51F
330
50A
100
AcDbEntity
  8
0
100
AcDbBlockEnd
  0
BLOCK
  5
52C
330
520
100
AcDbEntity
  8
0
100
AcDbBlockBegin
  2
jis_bl_revisionlist0
 70
     0
 10
0.0
 20
0.0
 30
0.0
  3
jis_bl_revisionlist0
  1

  0
LINE
  5
521
330
520
100
AcDbEntity
  8
0
100
AcDbLine
 10
182.88
 20
-5.347300637836838
 30
0.0
 11
0.0
 21
-5.347300637836809
 31
0.0
  0
LINE
  5
522
330
520
100
AcDbEntity
  8
0
100
AcDbLine
 10
0.0
 20
0.0
 30
0.0
 11
182.88
 21
0.0
 31
0.0
  0
TEXT
  5
523
330
520
100
AcDbEntity
  8
AM_BOR
 62
     1
370
    25
100
AcDbText
 10
9.879999999999995
 20
-4.105772405495713
 30
0.0
 40
3.0
  1
日付
  7
ACJISTS
100
AcDbText
1001
GENIUS_GENTRA_14
1002
{
1070
     1
1000
GENTRATX{6},%s,(GENMSG gendwg 95)
1000
日付
1000
JPN
1070
     0
1040
1.0
1070
     0
1002
}
  0
TEXT
  5
524
330
520
100
AcDbEntity
  8
AM_BOR
 62
     1
370
    25
100
AcDbText
 10
1.0
 20
-4.105772405495713
 30
0.0
 40
3.0
  1
番号
 41
0.9374999999999998
  7
ACJISTS
100
AcDbText
1001
GENIUS_GENTRA_14
1002
{
1070
     1
1000
GENTRATX{2},%s,(GENMSG gendwg 98)
1000
番号
1000
JPN
1070
     0
1040
1.0
1070
     0
1002
}
  0
TEXT
  5
525
330
520
100
AcDbEntity
  8
AM_BOR
 62
     1
370
    25
100
AcDbText
 10
29.87999999999999
 20
-4.10577240549685
 30
0.0
 40
3.0
  1
履歴
  7
ACJISTS
100
AcDbText
1001
GENIUS_GENTRA_14
1002
{
1070
     1
1000
GENTRATX{43},%s,(GENMSG gendwg 96)
1000
履歴
1000
JPN
1070
     0
1040
1.0
1070
     0
1002
}
  0
LINE
  5
526
330
520
100
AcDbEntity
  8
0
100
AcDbLine
 10
0.0
 20
-5.347300637836809
 30
0.0
 11
0.0
 21
0.0
 31
0.0
  0
LINE
  5
527
330
520
100
AcDbEntity
  8
AM_BOR
 62
     1
370
    25
100
AcDbLine
 10
8.879999999999995
 20
-5.347300637836809
 30
0.0
 11
8.879999999999995
 21
0.0
 31
0.0
  0
LINE
  5
528
330
520
100
AcDbEntity
  8
AM_BOR
 62
     1
370
    25
100
AcDbLine
 10
28.88
 20
0.0
 30
0.0
 11
28.88
 21
-5.347300637836809
 31
0.0
  0
TEXT
  5
529
330
520
100
AcDbEntity
  8
AM_BOR
 62
     1
370
    25
100
AcDbText
 10
160.8542175266192
 20
-4.105772405495201
 30
0.0
 40
3.0
  1
名前
  7
ACJISTS
100
AcDbText
1001
GENIUS_GENTRA_14
1002
{
1070
     1
1000
GENTRATX{7},%s,(GENMSG gendwg 97)
1000
名前
1000
JPN
1070
     0
1040
1.0
1070
     0
1002
}
  0
LINE
  5
52A
330
520
100
AcDbEntity
  8
AM_BOR
 62
     1
370
    25
100
AcDbLine
 10
159.88
 20
0.0
 30
0.0
 11
159.88
 21
-5.347300637836838
 31
0.0
  0
LINE
  5
52B
330
520
100
AcDbEntity
  8
0
100
AcDbLine
 10
182.88
 20
0.0
 30
0.0
 11
182.88
 21
-5.347300637836838
 31
0.0
  0
ENDBLK
  5
52D
330
520
100
AcDbEntity
  8
0
100
AcDbBlockEnd
  0
BLOCK
  5
538
330
52E
100
AcDbEntity
  8
0
100
AcDbBlockBegin
  2
jis_bl_revisionlist
 70
     0
 10
0.0
 20
0.0
 30
0.0
  3
jis_bl_revisionlist
  1

  0
INSERT
  5
52F
330
52E
100
AcDbEntity
  8
0
100
AcDbBlockReference
 66
     1
  2
jis_bl_revisionlist1
 10
0.0
 20
15.34730060179461
 30
0.0
  0
ATTRIB
  5
530
330
52F
100
AcDbEntity
  8
AM_BOR
 62
     1
370
    25
100
AcDbText
 10
9.879999999999995
 20
6.347300601794955
 30
0.0
 40
3.0
  1

  7
ACJISTS
100
AcDbAttribute
  2
GEN-REV-BLK{6}
 70
     0
1001
GENIUS_GENBLLY_14
1000
BOR2
  0
ATTRIB
  5
531
330
52F
100
AcDbEntity
  8
AM_BOR
 62
     1
370
    25
100
AcDbText
 10
29.87999999999999
 20
6.347300601793136
 30
0.0
 40
3.0
  1

  7
ACJISTS
100
AcDbAttribute
  2
GEN-REV-TEXT2{43}
 70
     0
1001
GENIUS_GENBLLY_14
1000
BOR2
  0
ATTRIB
  5
532
330
52F
100
AcDbEntity
  8
AM_BOR
 62
     1
370
    25
100
AcDbText
 10
0.9326324110412542
 20
11.34730060179461
 30
0.0
 40
3.0
  1

  7
ACJISTS
100
AcDbAttribute
  2
GEN-REV-NR{2}
 70
     0
1001
GENIUS_GENBLLY_14
1000
BOR2
  0
ATTRIB
  5
533
330
52F
100
AcDbEntity
  8
AM_BOR
 62
     1
370
    25
100
AcDbText
 10
9.879999999999995
 20
11.34730060179495
 30
0.0
 40
3.0
  1

  7
ACJISTS
100
AcDbAttribute
  2
GEN-REV-DAT{6}
 70
     0
1001
GENIUS_GENBLLY_14
1000
BOR2
  0
ATTRIB
  5
534
330
52F
100
AcDbEntity
  8
AM_BOR
 62
     1
370
    25
100
AcDbText
 10
29.87999999999999
 20
11.34730060179313
 30
0.0
 40
3.0
  1

  7
ACJISTS
100
AcDbAttribute
  2
GEN-REV-TEXT1{43}
 70
     0
1001
GENIUS_GENBLLY_14
1000
BOR2
  0
ATTRIB
  5
535
330
52F
100
AcDbEntity
  8
AM_BOR
 62
     1
370
    25
100
AcDbText
 10
160.88
 20
11.63417285685059
 30
0.0
 40
3.0
  1

  7
ACJISTS
100
AcDbAttribute
  2
GEN-REV-NAME{7}
 70
     0
1001
GENIUS_GENBLLY_14
1000
BOR2
  0
SEQEND
  5
536
330
52F
100
AcDbEntity
  8
0
  0
INSERT
  5
537
330
52E
100
AcDbEntity
  8
0
100
AcDbBlockReference
  2
jis_bl_revisionlist0
 10
0.0
 20
5.347300637836809
 30
0.0
  0
ENDBLK
  5
539
330
52E
100
AcDbEntity
  8
0
100
AcDbBlockEnd
  0
BLOCK
  5
5E2
330
5D6
100
AcDbEntity
  8
0
100
AcDbBlockBegin
  2
jis_br_revisionlist0
 70
     0
 10
0.0
 20
0.0
 30
0.0
  3
jis_br_revisionlist0
  1

  0
TEXT
  5
5D7
330
5D6
100
AcDbEntity
  8
AM_BOR
 62
     1
370
    25
100
AcDbText
 10
-22.02578247338079
 20
-4.105772405495201
 30
0.0
 40
3.0
  1
名前
  7
ACJISTS
100
AcDbText
1001
GENIUS_GENBLLY_14
1000
BOR2
1001
GENIUS_GENTRA_14
1002
{
1070
     1
1000
GENTRATX{7},%s,(GENMSG gendwg 97)
1000
名前
1000
JPN
1070
     0
1040
1.0
1070
     0
1002
}
  0
TEXT
  5
5D8
330
5D6
100
AcDbEntity
  8
AM_BOR
 62
     1
370
    25
100
AcDbText
 10
-153.0
 20
-4.10577240549685
 30
0.0
 40
3.0
  1
履歴
  7
ACJISTS
100
AcDbText
1001
GENIUS_GENBLLY_14
1000
BOR2
1001
GENIUS_GENTRA_14
1002
{
1070
     1
1000
GENTRATX{43},%s,(GENMSG gendwg 96)
1000
履歴
1000
JPN
1070
     0
1040
1.0
1070
     0
1002
}
  0
LINE
  5
5D9
330
5D6
100
AcDbEntity
  8
0
100
AcDbLine
 10
0.0
 20
-5.347300637836838
 30
0.0
 11
-182.88
 21
-5.347300637836809
 31
0.0
  0
LINE
  5
5DA
330
5D6
100
AcDbEntity
  8
0
100
AcDbLine
 10
-182.88
 20
0.0
 30
0.0
 11
0.0
 21
0.0
 31
0.0
  0
TEXT
  5
5DB
330
5D6
100
AcDbEntity
  8
AM_BOR
 62
     1
370
    25
100
AcDbText
 10
-173.0
 20
-4.105772405495713
 30
0.0
 40
3.0
  1
日付
  7
ACJISTS
100
AcDbText
1001
GENIUS_GENBLLY_14
1000
BOR2
1001
GENIUS_GENTRA_14
1002
{
1070
     1
1000
GENTRATX{6},%s,(GENMSG gendwg 95)
1000
日付
1000
JPN
1070
     0
1040
1.0
1070
     0
1002
}
  0
TEXT
  5
5DC
330
5D6
100
AcDbEntity
  8
AM_BOR
 62
     1
370
    25
100
AcDbText
 10
-181.88
 20
-4.105772405495713
 30
0.0
 40
3.0
  1
番号
 41
0.9374999999999998
  7
ACJISTS
100
AcDbText
1001
GENIUS_GENBLLY_14
1000
BOR2
1001
GENIUS_GENTRA_14
1002
{
1070
     1
1000
GENTRATX{2},%s,(GENMSG gendwg 98)
1000
番号
1000
JPN
1070
     0
1040
1.0
1070
     0
1002
}
  0
LINE
  5
5DD
330
5D6
100
AcDbEntity
  8
0
100
AcDbLine
 10
-182.88
 20
-5.347300637836809
 30
0.0
 11
-182.88
 21
0.0
 31
0.0
  0
LINE
  5
5DE
330
5D6
100
AcDbEntity
  8
AM_BOR
 62
     1
370
    25
100
AcDbLine
 10
-174.0
 20
-5.347300637836809
 30
0.0
 11
-174.0
 21
0.0
 31
0.0
1001
GENIUS_GENBLLY_14
1000
BOR2
  0
LINE
  5
5DF
330
5D6
100
AcDbEntity
  8
AM_BOR
 62
     1
370
    25
100
AcDbLine
 10
-154.0
 20
0.0
 30
0.0
 11
-154.0
 21
-5.347300637836809
 31
0.0
1001
GENIUS_GENBLLY_14
1000
BOR2
  0
LINE
  5
5E0
330
5D6
100
AcDbEntity
  8
AM_BOR
 62
     1
370
    25
100
AcDbLine
 10
-23.0
 20
0.0
 30
0.0
 11
-23.0
 21
-5.347300637836838
 31
0.0
1001
GENIUS_GENBLLY_14
1000
BOR2
  0
LINE
  5
5E1
330
5D6
100
AcDbEntity
  8
0
100
AcDbLine
 10
0.0
 20
0.0
 30
0.0
 11
0.0
 21
-5.347300637836838
 31
0.0
  0
ENDBLK
  5
5E3
330
5D6
100
AcDbEntity
  8
0
100
AcDbBlockEnd
  0
BLOCK
  5
5F8
330
5E4
100
AcDbEntity
  8
0
100
AcDbBlockBegin
  2
jis_br_revisionlist1
 70
     2
 10
0.0
 20
0.0
 30
0.0
  3
jis_br_revisionlist1
  1

  0
LINE
  5
5E5
330
5E4
100
AcDbEntity
  8
0
100
AcDbLine
 10
0.0
 20
-5.0
 30
0.0
 11
0.0
 21
0.0
 31
0.0
  0
LINE
  5
5E6
330
5E4
100
AcDbEntity
  8
AM_BOR
 62
     1
370
    25
100
AcDbLine
 10
-23.0
 20
-5.0
 30
0.0
 11
-23.0
 21
0.0
 31
0.0
1001
GENIUS_GENBLLY_14
1000
BOR2
  0
ATTDEF
  5
5E7
330
5E4
100
AcDbEntity
  8
AM_BOR
 62
     1
370
    25
100
AcDbText
 10
-22.0
 20
-3.713127744944017
 30
0.0
 40
3.0
  1

  7
ACJISTS
100
AcDbAttributeDefinition
  3
名前
  2
GEN-REV-NAME{7}
 70
     0
1001
GENIUS_GENBLLY_14
1000
BOR2
1001
GENIUS_GENTRA_14
1002
{
1070
     3
1000
GENTRAPR,%s,(GENMSG gendwg 97)
1000
名前
1000
JPN
1070
     0
1070
     0
1002
}
  0
LINE
  5
5E8
330
5E4
100
AcDbEntity
  8
0
100
AcDbLine
 10
0.0
 20
-10.0
 30
0.0
 11
0.0
 21
-5.0
 31
0.0
  0
LINE
  5
5E9
330
5E4
100
AcDbEntity
  8
AM_BOR
 62
     1
370
    25
100
AcDbLine
 10
-23.0
 20
-10.0
 30
0.0
 11
-23.0
 21
-5.0
 31
0.0
1001
GENIUS_GENBLLY_14
1000
BOR2
  0
LINE
  5
5EA
330
5E4
100
AcDbEntity
  8
AM_BOR
 62
     1
370
    25
100
AcDbLine
 10
-154.0
 20
-5.0
 30
0.0
 11
-154.0
 21
0.0
 31
0.0
1001
GENIUS_GENBLLY_14
1000
BOR2
  0
LINE
  5
5EB
330
5E4
100
AcDbEntity
  8
AM_BOR
 62
     1
370
    25
100
AcDbLine
 10
-154.0
 20
-10.0
 30
0.0
 11
-154.0
 21
-5.0
 31
0.0
1001
GENIUS_GENBLLY_14
1000
BOR2
  0
ATTDEF
  5
5EC
330
5E4
100
AcDbEntity
  8
AM_BOR
 62
     1
370
    25
100
AcDbText
 10
-153.0
 20
-4.000000000001477
 30
0.0
 40
3.0
  1

  7
ACJISTS
100
AcDbAttributeDefinition
  3
履歴 1 行目
  2
GEN-REV-TEXT1{43}
 70
     0
1001
GENIUS_GENBLLY_14
1000
BOR2
1001
GENIUS_GENTRA_14
1002
{
1070
     3
1000
GENTRAPR,%s,(GENMSG gendwg 94)
1000
履歴 1 行目
1000
JPN
1070
     0
1070
     0
1002
}
  0
ATTDEF
  5
5ED
330
5E4
100
AcDbEntity
  8
AM_BOR
 62
     1
370
    25
100
AcDbText
 10
-153.0
 20
-9.000000000001477
 30
0.0
 40
3.0
  1

  7
ACJISTS
100
AcDbAttributeDefinition
  3
履歴 2 行目
  2
GEN-REV-TEXT2{43}
 70
     0
1001
GENIUS_GENBLLY_14
1000
BOR2
1001
GENIUS_GENTRA_14
1002
{
1070
     3
1000
GENTRAPR,%s,(GENMSG gendwg 92)
1000
履歴 2 行目
1000
JPN
1070
     0
1070
     0
1002
}
  0
LINE
  5
5EE
330
5E4
100
AcDbEntity
  8
0
100
AcDbLine
 10
-182.88
 20
0.0
 30
0.0
 11
-182.88
 21
-5.0
 31
0.0
  0
LINE
  5
5EF
330
5E4
100
AcDbEntity
  8
AM_BOR
 62
     1
370
    25
100
AcDbLine
 10
-174.0
 20
-10.0
 30
0.0
 11
-174.0
 21
0.0
 31
0.0
1001
GENIUS_GENBLLY_14
1000
BOR2
  0
LINE
  5
5F0
330
5E4
100
AcDbEntity
  8
0
100
AcDbLine
 10
-182.88
 20
-5.0
 30
0.0
 11
-182.88
 21
-10.0
 31
0.0
  0
LINE
  5
5F1
330
5E4
100
AcDbEntity
  8
0
100
AcDbLine
 10
-174.0
 20
-9.999999963957804
 30
0.0
 11
-174.0
 21
0.0
 31
0.0
  0
ATTDEF
  5
5F2
330
5E4
100
AcDbEntity
  8
AM_BOR
 62
     1
370
    25
100
AcDbText
 10
-173.0
 20
-8.999999999999658
 30
0.0
 40
3.0
  1

  7
ACJISTS
100
AcDbAttributeDefinition
  3
図面名
  2
GEN-REV-BLK{6}
 70
     0
1001
GENIUS_GENBLLY_14
1000
BOR2
1001
GENIUS_GENTRA_14
1002
{
1070
     3
1000
GENTRAPR,%s,(GENMSG gendwg 93)
1000
図面名
1000
JPN
1070
     0
1070
     0
1002
}
  0
ATTDEF
  5
5F3
330
5E4
100
AcDbEntity
  8
AM_BOR
 62
     1
370
    25
100
AcDbText
 10
-173.0
 20
-3.999999999999658
 30
0.0
 40
3.0
  1

  7
ACJISTS
100
AcDbAttributeDefinition
  3
日付
  2
GEN-REV-DAT{6}
 70
     0
1001
GENIUS_GENBLLY_14
1000
BOR2
1001
GENIUS_GENTRA_14
1002
{
1070
     3
1000
GENTRAPR,%s,(GENMSG gendwg 95)
1000
日付
1000
JPN
1070
     0
1070
     0
1002
}
  0
ATTDEF
  5
5F4
330
5E4
100
AcDbEntity
  8
AM_BOR
 62
     1
370
    25
100
AcDbText
 10
-181.9473675889587
 20
-4.0
 30
0.0
 40
3.0
  1

  7
ACJISTS
100
AcDbAttributeDefinition
  3
番号
  2
GEN-REV-NR{2}
 70
     0
1001
GENIUS_GENBLLY_14
1000
BOR2
1001
GENIUS_GENTRA_14
1002
{
1070
     3
1000
GENTRAPR,%s,(GENMSG gendwg 98)
1000
番号
1000
JPN
1070
     0
1070
     0
1002
}
  0
LINE
  5
5F5
330
5E4
100
AcDbEntity
  8
0
100
AcDbLine
 10
-182.8799999324707
 20
-9.999999963957804
 30
0.0
 11
0.0000000675292426
 21
-9.999999963957804
 31
0.0
  0
LINE
  5
5F6
330
5E4
100
AcDbEntity
  8
AM_BOR
 62
     1
370
    25
100
AcDbLine
 10
-154.0
 20
-5.0
 30
0.0
 11
-23.0
 21
-5.0
 31
0.0
1001
GENIUS_GENBLLY_14
1000
BOR2
  0
LINE
  5
5F7
330
5E4
100
AcDbEntity
  8
0
100
AcDbLine
 10
-182.88
 20
0.0
 30
0.0
 11
0.0
 21
0.0
 31
0.0
  0
ENDBLK
  5
5F9
330
5E4
100
AcDbEntity
  8
0
100
AcDbBlockEnd
  0
BLOCK
  5
604
330
5FA
100
AcDbEntity
  8
0
100
AcDbBlockBegin
  2
jis_br_revisionlist
 70
     0
 10
0.0
 20
0.0
 30
0.0
  3
jis_br_revisionlist
  1

  0
INSERT
  5
5FB
330
5FA
100
AcDbEntity
  8
0
100
AcDbBlockReference
 66
     1
  2
jis_br_revisionlist1
 10
0.0
 20
15.34730060179464
 30
0.0
  0
ATTRIB
  5
5FC
330
5FB
100
AcDbEntity
  8
AM_BOR
 62
     1
370
    25
100
AcDbText
 10
-22.0
 20
11.63417285685062
 30
0.0
 40
3.0
  1

  7
ACJISTS
100
AcDbAttribute
  2
GEN-REV-NAME{7}
 70
     0
1001
GENIUS_GENBLLY_14
1000
BOR2
  0
ATTRIB
  5
5FD
330
5FB
100
AcDbEntity
  8
AM_BOR
 62
     1
370
    25
100
AcDbText
 10
-153.0
 20
11.34730060179316
 30
0.0
 40
3.0
  1

  7
ACJISTS
100
AcDbAttribute
  2
GEN-REV-TEXT1{43}
 70
     0
1001
GENIUS_GENBLLY_14
1000
BOR2
  0
ATTRIB
  5
5FE
330
5FB
100
AcDbEntity
  8
AM_BOR
 62
     1
370
    25
100
AcDbText
 10
-153.0
 20
6.347300601793168
 30
0.0
 40
3.0
  1

  7
ACJISTS
100
AcDbAttribute
  2
GEN-REV-TEXT2{43}
 70
     0
1001
GENIUS_GENBLLY_14
1000
BOR2
  0
ATTRIB
  5
5FF
330
5FB
100
AcDbEntity
  8
AM_BOR
 62
     1
370
    25
100
AcDbText
 10
-173.0
 20
6.347300601794987
 30
0.0
 40
3.0
  1

  7
ACJISTS
100
AcDbAttribute
  2
GEN-REV-BLK{6}
 70
     0
1001
GENIUS_GENBLLY_14
1000
BOR2
  0
ATTRIB
  5
600
330
5FB
100
AcDbEntity
  8
AM_BOR
 62
     1
370
    25
100
AcDbText
 10
-173.0
 20
11.34730060179498
 30
0.0
 40
3.0
  1

  7
ACJISTS
100
AcDbAttribute
  2
GEN-REV-DAT{6}
 70
     0
1001
GENIUS_GENBLLY_14
1000
BOR2
  0
ATTRIB
  5
601
330
5FB
100
AcDbEntity
  8
AM_BOR
 62
     1
370
    25
100
AcDbText
 10
-181.9473675889587
 20
11.34730060179464
 30
0.0
 40
3.0
  1

  7
ACJISTS
100
AcDbAttribute
  2
GEN-REV-NR{2}
 70
     0
1001
GENIUS_GENBLLY_14
1000
BOR2
  0
SEQEND
  5
602
330
5FB
100
AcDbEntity
  8
0
  0
INSERT
  5
603
330
5FA
100
AcDbEntity
  8
0
100
AcDbBlockReference
  2
jis_br_revisionlist0
 10
0.0
 20
5.347300637836838
 30
0.0
  0
ENDBLK
  5
605
330
5FA
100
AcDbEntity
  8
0
100
AcDbBlockEnd
  0
BLOCK
  5
6BE
330
6A8
100
AcDbEntity
  8
0
100
AcDbBlockBegin
  2
IGS_A3
 70
     0
 10
0.0
 20
0.0
 30
0.0
  3
IGS_A3
  1

  0
LINE
  5
6A9
330
6A8
100
AcDbEntity
  8
AM_BOR
100
AcDbLine
 10
0.0
 20
0.0
 30
0.0
 11
0.0
 21
10.0
 31
0.0
  0
LINE
  5
6AA
330
6A8
100
AcDbEntity
  8
AM_BOR
100
AcDbLine
 10
0.0
 20
297.0
 30
0.0
 11
10.0
 21
297.0
 31
0.0
  0
LINE
  5
6AB
330
6A8
100
AcDbEntity
  8
AM_BOR
100
AcDbLine
 10
420.0
 20
297.0
 30
0.0
 11
420.0
 21
287.0
 31
0.0
  0
LINE
  5
6AC
330
6A8
100
AcDbEntity
  8
AM_BOR
100
AcDbLine
 10
420.0
 20
0.0
 30
0.0
 11
410.0
 21
0.0
 31
0.0
  0
LINE
  5
6AD
330
6A8
100
AcDbEntity
  8
0
100
AcDbLine
 10
25.0
 20
10.0
 30
0.0
 11
25.0
 21
287.0
 31
0.0
  0
LINE
  5
6AE
330
6A8
100
AcDbEntity
  8
0
100
AcDbLine
 10
410.0
 20
10.0
 30
0.0
 11
25.0
 21
10.0
 31
0.0
  0
LINE
  5
6AF
330
6A8
100
AcDbEntity
  8
0
100
AcDbLine
 10
410.0
 20
287.0
 30
0.0
 11
410.0
 21
10.0
 31
0.0
  0
LINE
  5
6B0
330
6A8
100
AcDbEntity
  8
0
100
AcDbLine
 10
25.0
 20
287.0
 30
0.0
 11
410.0
 21
287.0
 31
0.0
  0
LINE
  5
6B1
330
6A8
100
AcDbEntity
  8
AM_BOR
100
AcDbLine
 10
0.0
 20
287.0
 30
0.0
 11
0.0
 21
297.0
 31
0.0
  0
LINE
  5
6B2
330
6A8
100
AcDbEntity
  8
AM_BOR
100
AcDbLine
 10
10.0
 20
0.0
 30
0.0
 11
0.0
 21
0.0
 31
0.0
  0
LINE
  5
6B3
330
6A8
100
AcDbEntity
  8
AM_BOR
100
AcDbLine
 10
420.0
 20
10.0
 30
0.0
 11
420.0
 21
0.0
 31
0.0
  0
LINE
  5
6B4
330
6A8
100
AcDbEntity
  8
AM_BOR
100
AcDbLine
 10
410.0
 20
297.0
 30
0.0
 11
420.0
 21
297.0
 31
0.0
  0
TEXT
  5
6B5
330
6A8
100
AcDbEntity
  8
0
 60
     1
100
AcDbText
 10
410.0
 20
287.0
 30
0.0
 40
3.5
  1
!GENTITLE-RU
  7
ACJISTS
100
AcDbText
  0
TEXT
  5
6B6
330
6A8
100
AcDbEntity
  8
0
 60
     1
100
AcDbText
 10
420.0
 20
297.0
 30
0.0
 40
3.5
  1
!GENTITLE-MAX
  7
ACJISTS
100
AcDbText
  0
TEXT
  5
6B7
330
6A8
100
AcDbEntity
  8
0
 60
     1
100
AcDbText
 10
410.0
 20
10.0
 30
0.0
 40
3.5
  1
!GENTITLE-INSERT
  7
ACJISTS
100
AcDbText
  0
TEXT
  5
6B8
330
6A8
100
AcDbEntity
  8
0
 60
     1
100
AcDbText
 10
25.0
 20
10.0
 30
0.0
 40
3.5
  1
!GENTITLE-LL
  7
ACJISTS
100
AcDbText
  0
LINE
  5
6B9
330
6A8
100
AcDbEntity
  8
AM_BOR
 62
     1
370
    25
100
AcDbLine
 10
0.0
 20
297.0
 30
0.0
 11
420.0
 21
297.0
 31
0.0
  0
LINE
  5
6BA
330
6A8
100
AcDbEntity
  8
AM_BOR
 62
     1
370
    25
100
AcDbLine
 10
420.0
 20
297.0
 30
0.0
 11
420.0
 21
0.0
 31
0.0
  0
LINE
  5
6BB
330
6A8
100
AcDbEntity
  8
AM_BOR
 62
     1
370
    25
100
AcDbLine
 10
420.0
 20
0.0
 30
0.0
 11
0.0
 21
0.0
 31
0.0
  0
LINE
  5
6BC
330
6A8
100
AcDbEntity
  8
AM_BOR
 62
     1
370
    25
100
AcDbLine
 10
0.0
 20
0.0
 30
0.0
 11
0.0
 21
297.0
 31
0.0
  0
TEXT
  5
6BD
330
6A8
100
AcDbEntity
  8
DEFPOINTS
100
AcDbText
 10
19.5941472374451
 20
2.504073349097552
 30
0.0
 40
5.0
  1
A3
100
AcDbText
  0
ENDBLK
  5
6BF
330
6A8
100
AcDbEntity
  8
0
100
AcDbBlockEnd
  0
BLOCK
  5
9FA
330
9F9
100
AcDbEntity
  8
0
100
AcDbBlockBegin
  2
SSLT1
 70
     0
 10
67.59526585100001
 20
664.5135177232999
 30
0.0
  3
SSLT1
  1

  0
LINE
  5
9FB
330
9F9
100
AcDbEntity
  8
1
  6
ByBlock
 62
     7
100
AcDbLine
 10
69.595265851
 20
661.0494161082
 30
0.0
 11
89.595265851
 21
626.4083999568001
 31
0.0
  0
LINE
  5
9FC
330
9F9
100
AcDbEntity
  8
1
  6
ByBlock
 62
     7
100
AcDbLine
 10
193.595265851
 20
661.0494161082
 30
0.0
 11
213.595265851
 21
626.4083999568001
 31
0.0
  0
LINE
  5
9FD
330
9F9
100
AcDbEntity
  8
1
  6
ByBlock
 62
     7
100
AcDbLine
 10
211.595265851
 20
629.8725015719
 30
0.0
 11
87.59526585100001
 21
629.8725015719
 31
0.0
  0
SOLID
  5
9FE
330
9F9
100
AcDbEntity
  8
1
  6
Continuous
 62
     7
100
AcDbTrace
 10
95.32267246129999
 20
631.9430539326999
 30
0.0
 11
95.32267246129999
 21
627.8019492111
 31
0.0
 12
87.59526585100001
 22
629.8725015719
 32
0.0
 13
87.59526585100001
 23
629.8725015719
 33
0.0
  0
SOLID
  5
9FF
330
9F9
100
AcDbEntity
  8
1
  6
Continuous
 62
     7
100
AcDbTrace
 10
203.8678592407
 20
627.8019492111
 30
0.0
 11
203.8678592407
 21
631.9430539326999
 31
0.0
 12
211.595265851
 22
629.8725015719
 32
0.0
 13
211.595265851
 23
629.8725015719
 33
0.0
  0
TEXT
  5
A00
330
9F9
100
AcDbEntity
  8
1
  6
Continuous
 62
     7
100
AcDbText
 10
135.207846
 20
630.8725019999999
 30
0.0
 40
16.0
  1
φ１２４
 41
0.825
100
AcDbText
  0
POINT
  5
A01
330
9F9
100
AcDbEntity
  8
DEFPOINTS
  6
ByBlock
 62
     7
100
AcDbPoint
 10
67.59526585100001
 20
664.5135177232999
 30
0.0
  0
POINT
  5
A02
330
9F9
100
AcDbEntity
  8
DEFPOINTS
  6
ByBlock
 62
     7
100
AcDbPoint
 10
191.595265851
 20
664.5135177232999
 30
0.0
  0
POINT
  5
A03
330
9F9
100
AcDbEntity
  8
DEFPOINTS
  6
ByBlock
 62
     7
100
AcDbPoint
 10
211.595265851
 20
629.8725015719
 30
0.0
  0
ENDBLK
  5
A04
330
9F9
100
AcDbEntity
  8
0
100
AcDbBlockEnd
  0
BLOCK
  5
A12
330
A11
100
AcDbEntity
  8
0
100
AcDbBlockBegin
  2
SSLT3
 70
     0
 10
77.59526585100001
 20
1332.5135177233
 30
0.0
  3
SSLT3
  1

  0
LINE
  5
A13
330
A11
100
AcDbEntity
  8
1
  6
ByBlock
 62
     7
100
AcDbLine
 10
75.59526585100001
 20
1335.9776193384
 30
0.0
 11
54.595265851
 21
1372.3506862974
 31
0.0
  0
LINE
  5
A14
330
A11
100
AcDbEntity
  8
1
  6
ByBlock
 62
     7
100
AcDbLine
 10
179.595265851
 20
1335.9776193384
 30
0.0
 11
158.595265851
 21
1372.3506862974
 31
0.0
  0
LINE
  5
A15
330
A11
100
AcDbEntity
  8
1
  6
ByBlock
 62
     7
100
AcDbLine
 10
160.595265851
 20
1368.8865846822
 30
0.0
 11
56.595265851
 21
1368.8865846822
 31
0.0
  0
SOLID
  5
A16
330
A11
100
AcDbEntity
  8
1
  6
Continuous
 62
     7
100
AcDbTrace
 10
64.3226724613
 20
1370.9571370431
 30
0.0
 11
64.3226724613
 21
1366.8160323214
 31
0.0
 12
56.595265851
 22
1368.8865846822
 32
0.0
 13
56.595265851
 23
1368.8865846822
 33
0.0
  0
SOLID
  5
A17
330
A11
100
AcDbEntity
  8
1
  6
Continuous
 62
     7
100
AcDbTrace
 10
152.8678592407
 20
1366.8160323214
 30
0.0
 11
152.8678592407
 21
1370.9571370431
 31
0.0
 12
160.595265851
 22
1368.8865846822
 32
0.0
 13
160.595265851
 23
1368.8865846822
 33
0.0
  0
TEXT
  5
A18
330
A11
100
AcDbEntity
  8
1
  6
Continuous
 62
     7
100
AcDbText
 10
85.47721000000001
 20
1369.886585
 30
0.0
 40
16.0
  1
φ１０４
 41
0.825
100
AcDbText
  0
POINT
  5
A19
330
A11
100
AcDbEntity
  8
DEFPOINTS
  6
ByBlock
 62
     7
100
AcDbPoint
 10
77.59526585100001
 20
1332.5135177233
 30
0.0
  0
POINT
  5
A1A
330
A11
100
AcDbEntity
  8
DEFPOINTS
  6
ByBlock
 62
     7
100
AcDbPoint
 10
181.595265851
 20
1332.5135177233
 30
0.0
  0
POINT
  5
A1B
330
A11
100
AcDbEntity
  8
DEFPOINTS
  6
ByBlock
 62
     7
100
AcDbPoint
 10
160.595265851
 20
1368.8865846822
 30
0.0
  0
ENDBLK
  5
A1C
330
A11
100
AcDbEntity
  8
0
100
AcDbBlockEnd
  0
BLOCK
  5
A40
330
A3F
100
AcDbEntity
  8
0
100
AcDbBlockBegin
  2
MAKR0
 70
     0
 10
406.8528529087999
 20
1418.4366433884
 30
0.0
  3
MAKR0
  1

  0
CIRCLE
  5
A41
330
A3F
100
AcDbEntity
  8
1
  6
ByBlock
 62
     2
100
AcDbCircle
 10
406.8528529087999
 20
1418.4366433884
 30
0.0
 40
14.0
  0
TEXT
  5
A42
330
A3F
100
AcDbEntity
  8
1
  6
Continuous
 62
     7
100
AcDbText
 10
400.8528529999999
 20
1410.436643
 30
0.0
 40
16.0
  1
１
 41
1.25
 72
     5
 11
412.8528529999999
 21
1410.436643
 31
0.0
100
AcDbText
  0
ENDBLK
  5
A43
330
A3F
100
AcDbEntity
  8
0
100
AcDbBlockEnd
  0
BLOCK
  5
A45
330
A44
100
AcDbEntity
  8
0
100
AcDbBlockBegin
  2
BALN0
 70
     0
 10
188.595265851
 20
941.6103487863999
 30
0.0
  3
BALN0
  1

  0
SOLID
  5
A46
330
A44
100
AcDbEntity
  8
1
  6
Continuous
 62
     2
100
AcDbTrace
 10
193.9484662509
 20
947.5553673295999
 30
0.0
 11
196.2037826604
 21
944.0822856708999
 31
0.0
 12
188.595265851
 22
941.6103487863999
 32
0.0
 13
188.595265851
 23
941.6103487863999
 33
0.0
  0
LINE
  5
A47
330
A44
100
AcDbEntity
  8
1
  6
ByBlock
 62
     2
100
AcDbLine
 10
188.595265851
 20
941.6103487863999
 30
0.0
 11
326.8215694959
 21
1031.3704182211
 31
0.0
  0
CIRCLE
  5
A48
330
A44
100
AcDbEntity
  8
1
  6
ByBlock
 62
     2
100
AcDbCircle
 10
343.595265851
 20
1042.2627600533
 30
0.0
 40
20.0
  0
TEXT
  5
A49
330
A44
100
AcDbEntity
  8
1
  6
Continuous
 62
     7
100
AcDbText
 10
335.595266
 20
1032.26276
 30
0.0
 40
20.0
  1
１
 41
1.333333333333333
 72
     5
 11
351.595266
 21
1032.26276
 31
0.0
100
AcDbText
  0
ENDBLK
  5
A4A
330
A44
100
AcDbEntity
  8
0
100
AcDbBlockEnd
  0
BLOCK
  5
A63
330
A62
100
AcDbEntity
  8
0
100
AcDbBlockBegin
  2
*X23
 70
     1
 10
0.0
 20
0.0
 30
0.0
  3
*X23
  1

  0
LINE
  5
A64
330
A62
100
AcDbEntity
  8
0
 62
     0
100
AcDbLine
 10
627.5060830294096
 20
1019.950346587943
 30
0.0
 11
686.3837299502996
 21
1078.827993508833
 31
0.0
  0
LINE
  5
A65
330
A62
100
AcDbEntity
  8
0
 62
     0
100
AcDbLine
 10
627.5060830294096
 20
1030.556948305742
 30
0.0
 11
676.5743723804681
 21
1079.6252376568
 31
0.0
  0
LINE
  5
A66
330
A62
100
AcDbEntity
  8
0
 62
     0
100
AcDbLine
 10
677.5060830294096
 20
1080.556948305742
 30
0.0
 11
679.574372380468
 21
1082.6252376568
 31
0.0
  0
LINE
  5
A67
330
A62
100
AcDbEntity
  8
0
 62
     0
100
AcDbLine
 10
627.5060830294096
 20
1041.16355002354
 30
0.0
 11
665.9677706626699
 21
1079.6252376568
 31
0.0
  0
LINE
  5
A68
330
A62
100
AcDbEntity
  8
0
 62
     0
100
AcDbLine
 10
627.5060830294096
 20
1051.770151741338
 30
0.0
 11
655.3611689448716
 21
1079.6252376568
 31
0.0
  0
LINE
  5
A69
330
A62
100
AcDbEntity
  8
0
 62
     0
100
AcDbLine
 10
627.5060830294096
 20
1062.376753459136
 30
0.0
 11
644.7545672270734
 21
1079.6252376568
 31
0.0
  0
LINE
  5
A6A
330
A62
100
AcDbEntity
  8
0
 62
     0
100
AcDbLine
 10
627.5060830294096
 20
1072.983355176934
 30
0.0
 11
634.1479655092753
 21
1079.6252376568
 31
0.0
  0
LINE
  5
A6B
330
A62
100
AcDbEntity
  8
0
 62
     0
100
AcDbLine
 10
637.7875758160645
 20
1019.6252376568
 30
0.0
 11
688.0167201919696
 21
1069.854382032705
 31
0.0
  0
LINE
  5
A6C
330
A62
100
AcDbEntity
  8
0
 62
     0
100
AcDbLine
 10
648.3941775338627
 20
1019.6252376568
 30
0.0
 11
689.0912438634605
 21
1060.322303986398
 31
0.0
  0
LINE
  5
A6D
330
A62
100
AcDbEntity
  8
0
 62
     0
100
AcDbLine
 10
659.0007792516608
 20
1019.6252376568
 30
0.0
 11
689.5051621138629
 21
1050.129620519002
 31
0.0
  0
LINE
  5
A6E
330
A62
100
AcDbEntity
  8
0
 62
     0
100
AcDbLine
 10
669.6073809694592
 20
1019.6252376568
 30
0.0
 11
689.1063296086699
 21
1039.12418629601
 31
0.0
  0
LINE
  5
A6F
330
A62
100
AcDbEntity
  8
0
 62
     0
100
AcDbLine
 10
677.5060830294096
 20
1016.917337998952
 30
0.0
 11
687.6507237016802
 21
1027.061978671223
 31
0.0
  0
ENDBLK
  5
A70
330
A62
100
AcDbEntity
  8
0
100
AcDbBlockEnd
  0
BLOCK
  5
C94
330
C8A
100
AcDbEntity
  8
0
100
AcDbBlockBegin
  2
*D24
 70
     1
 10
0.0
 20
0.0
 30
0.0
  3
*D24
  1

  0
LINE
  5
1167
330
C8A
100
AcDbEntity
  8
5
 62
     3
100
AcDbLine
 10
1818.07007532206
 20
880.1546217132921
 30
0.0
 11
1788.147564459989
 21
880.1546217132921
 31
0.0
  0
LINE
  5
1168
330
C8A
100
AcDbEntity
  8
5
 62
     3
100
AcDbLine
 10
1943.07007532206
 20
1380.15462171329
 30
0.0
 11
1788.147564459989
 21
1380.15462171329
 31
0.0
  0
LINE
  5
1169
330
C8A
100
AcDbEntity
  8
5
 62
     3
100
AcDbLine
 10
1792.147564459989
 20
890.1546217132921
 30
0.0
 11
1792.147564459989
 21
1370.15462171329
 31
0.0
  0
INSERT
  5
116A
330
C8A
100
AcDbEntity
  8
5
 62
     3
100
AcDbBlockReference
  2
_Open30
 10
1792.147564459989
 20
880.1546217132921
 30
0.0
 41
10.0
 42
10.0
 43
10.0
 50
270.0
  0
INSERT
  5
116B
330
C8A
100
AcDbEntity
  8
5
 62
     3
100
AcDbBlockReference
  2
_Open30
 10
1792.147564459989
 20
1380.15462171329
 30
0.0
 41
10.0
 42
10.0
 43
10.0
 50
90.0
  0
MTEXT
  5
116C
330
C8A
100
AcDbEntity
  8
5
 62
     2
100
AcDbMText
 10
1777.147564459988
 20
1130.154621713291
 30
0.0
 40
18.0
 41
0.0
 71
     5
 72
     1
  1
500
 11
0.0000000000000001
 21
1.0
 31
0.0
 73
     1
 44
1.0
  0
POINT
  5
116D
330
C8A
100
AcDbEntity
  8
DEFPOINTS
 62
     0
100
AcDbPoint
 10
1822.070075322059
 20
880.1546217132921
 30
0.0
  0
POINT
  5
116E
330
C8A
100
AcDbEntity
  8
DEFPOINTS
 62
     0
100
AcDbPoint
 10
1947.070075322059
 20
1380.15462171329
 30
0.0
  0
POINT
  5
116F
330
C8A
100
AcDbEntity
  8
DEFPOINTS
 62
     0
100
AcDbPoint
 10
1792.147564459989
 20
1380.15462171329
 30
0.0
  0
ENDBLK
  5
C95
330
C8A
100
AcDbEntity
  8
0
100
AcDbBlockEnd
  0
BLOCK
  5
CA0
330
C96
100
AcDbEntity
  8
0
100
AcDbBlockBegin
  2
*D25
 70
     1
 10
0.0
 20
0.0
 30
0.0
  3
*D25
  1

  0
LINE
  5
F27
330
C96
100
AcDbEntity
  8
1
  6
Continuous
 62
     3
100
AcDbLine
 10
1759.51068708476
 20
880.1546217132898
 30
0.0
 11
1742.129750705037
 21
880.1546217132898
 31
0.0
  0
LINE
  5
F28
330
C96
100
AcDbEntity
  8
1
  6
Continuous
 62
     3
100
AcDbLine
 10
1906.07007532206
 20
580.1546217132897
 30
0.0
 11
1742.129750705037
 21
580.1546217132899
 31
0.0
  0
LINE
  5
F29
330
C96
100
AcDbEntity
  8
1
  6
Continuous
 62
     3
100
AcDbLine
 10
1746.129750705037
 20
870.1546217132898
 30
0.0
 11
1746.129750705037
 21
590.1546217132898
 31
0.0
  0
INSERT
  5
F2A
330
C96
100
AcDbEntity
  8
1
  6
Continuous
 62
     3
100
AcDbBlockReference
  2
_Open30
 10
1746.129750705037
 20
880.1546217132898
 30
0.0
 41
10.0
 42
10.0
 43
10.0
 50
90.0
  0
INSERT
  5
F2B
330
C96
100
AcDbEntity
  8
1
  6
Continuous
 62
     3
100
AcDbBlockReference
  2
_Open30
 10
1746.129750705037
 20
580.1546217132899
 30
0.0
 41
10.0
 42
10.0
 43
10.0
 50
270.0
  0
MTEXT
  5
F2C
330
C96
100
AcDbEntity
  8
1
  6
Continuous
 62
     2
100
AcDbMText
 10
1731.129750705037
 20
730.1546217132901
 30
0.0
 40
18.0
 41
0.0
 71
     5
 72
     1
  1
300
 11
0.0000000000000001
 21
1.0
 31
0.0
 73
     1
 44
1.0
  0
POINT
  5
F2D
330
C96
100
AcDbEntity
  8
DEFPOINTS
  6
Continuous
 62
     0
100
AcDbPoint
 10
1763.51068708476
 20
880.1546217132898
 30
0.0
  0
POINT
  5
F2E
330
C96
100
AcDbEntity
  8
DEFPOINTS
  6
Continuous
 62
     0
100
AcDbPoint
 10
1910.07007532206
 20
580.1546217132897
 30
0.0
  0
POINT
  5
F2F
330
C96
100
AcDbEntity
  8
DEFPOINTS
  6
Continuous
 62
     0
100
AcDbPoint
 10
1746.129750705037
 20
580.1546217132899
 30
0.0
  0
ENDBLK
  5
CA1
330
C96
100
AcDbEntity
  8
0
100
AcDbBlockEnd
  0
BLOCK
  5
CAC
330
CA2
100
AcDbEntity
  8
0
100
AcDbBlockBegin
  2
*D26
 70
     1
 10
0.0
 20
0.0
 30
0.0
  3
*D26
  1

  0
LINE
  5
F1E
330
CA2
100
AcDbEntity
  8
1
  6
Continuous
 62
     3
100
AcDbLine
 10
1968.07007532206
 20
1680.154621713289
 30
0.0
 11
1742.129750705038
 21
1680.154621713289
 31
0.0
  0
LINE
  5
F1F
330
CA2
100
AcDbEntity
  8
1
  6
Continuous
 62
     3
100
AcDbLine
 10
1759.51068708476
 20
880.1546217132898
 30
0.0
 11
1742.129750705037
 21
880.1546217132898
 31
0.0
  0
LINE
  5
F20
330
CA2
100
AcDbEntity
  8
1
  6
Continuous
 62
     3
100
AcDbLine
 10
1746.129750705038
 20
1670.15462171329
 30
0.0
 11
1746.129750705037
 21
890.1546217132898
 31
0.0
  0
INSERT
  5
F21
330
CA2
100
AcDbEntity
  8
1
  6
Continuous
 62
     3
100
AcDbBlockReference
  2
_Open30
 10
1746.129750705038
 20
1680.154621713289
 30
0.0
 41
10.0
 42
10.0
 43
10.0
 50
90.0
  0
INSERT
  5
F22
330
CA2
100
AcDbEntity
  8
1
  6
Continuous
 62
     3
100
AcDbBlockReference
  2
_Open30
 10
1746.129750705037
 20
880.1546217132898
 30
0.0
 41
10.0
 42
10.0
 43
10.0
 50
270.0
  0
MTEXT
  5
F23
330
CA2
100
AcDbEntity
  8
1
  6
Continuous
 62
     2
100
AcDbMText
 10
1731.129750705037
 20
1280.15462171329
 30
0.0
 40
18.0
 41
0.0
 71
     5
 72
     1
  1
800
 11
0.0000000000000001
 21
1.0
 31
0.0
 73
     1
 44
1.0
  0
POINT
  5
F24
330
CA2
100
AcDbEntity
  8
DEFPOINTS
  6
Continuous
 62
     0
100
AcDbPoint
 10
1972.07007532206
 20
1680.154621713289
 30
0.0
  0
POINT
  5
F25
330
CA2
100
AcDbEntity
  8
DEFPOINTS
  6
Continuous
 62
     0
100
AcDbPoint
 10
1763.51068708476
 20
880.1546217132898
 30
0.0
  0
POINT
  5
F26
330
CA2
100
AcDbEntity
  8
DEFPOINTS
  6
Continuous
 62
     0
100
AcDbPoint
 10
1746.129750705037
 20
880.1546217132898
 30
0.0
  0
ENDBLK
  5
CAD
330
CA2
100
AcDbEntity
  8
0
100
AcDbBlockEnd
  0
BLOCK
  5
CB8
330
CAE
100
AcDbEntity
  8
0
100
AcDbBlockBegin
  2
*D27
 70
     1
 10
0.0
 20
0.0
 30
0.0
  3
*D27
  1

  0
LINE
  5
F5D
330
CAE
100
AcDbEntity
  8
1
  6
Continuous
 62
     3
100
AcDbLine
 10
2176.07007532206
 20
480.1546217132897
 30
0.0
 11
2292.596564893226
 21
480.1546217132897
 31
0.0
  0
LINE
  5
F5E
330
CAE
100
AcDbEntity
  8
1
  6
Continuous
 62
     3
100
AcDbLine
 10
2176.07007532206
 20
380.1546217132897
 30
0.0
 11
2292.596564893226
 21
380.1546217132897
 31
0.0
  0
LINE
  5
F5F
330
CAE
100
AcDbEntity
  8
1
  6
Continuous
 62
     3
100
AcDbLine
 10
2288.596564893226
 20
470.1546217132897
 30
0.0
 11
2288.596564893226
 21
390.1546217132897
 31
0.0
  0
INSERT
  5
F60
330
CAE
100
AcDbEntity
  8
1
  6
Continuous
 62
     3
100
AcDbBlockReference
  2
_Open30
 10
2288.596564893226
 20
480.1546217132897
 30
0.0
 41
10.0
 42
10.0
 43
10.0
 50
90.0
  0
INSERT
  5
F61
330
CAE
100
AcDbEntity
  8
1
  6
Continuous
 62
     3
100
AcDbBlockReference
  2
_Open30
 10
2288.596564893226
 20
380.1546217132897
 30
0.0
 41
10.0
 42
10.0
 43
10.0
 50
270.0
  0
MTEXT
  5
F62
330
CAE
100
AcDbEntity
  8
1
  6
Continuous
 62
     2
100
AcDbMText
 10
2273.596564893226
 20
430.1546217132901
 30
0.0
 40
18.0
 41
0.0
 71
     5
 72
     1
  1
100
 11
0.0000000000000001
 21
1.0
 31
0.0
 73
     1
 44
1.0
  0
POINT
  5
F63
330
CAE
100
AcDbEntity
  8
DEFPOINTS
  6
Continuous
 62
     0
100
AcDbPoint
 10
2172.07007532206
 20
480.1546217132898
 30
0.0
  0
POINT
  5
F64
330
CAE
100
AcDbEntity
  8
DEFPOINTS
  6
Continuous
 62
     0
100
AcDbPoint
 10
2172.07007532206
 20
380.1546217132898
 30
0.0
  0
POINT
  5
F65
330
CAE
100
AcDbEntity
  8
DEFPOINTS
  6
Continuous
 62
     0
100
AcDbPoint
 10
2288.596564893226
 20
380.1546217132897
 30
0.0
  0
ENDBLK
  5
CB9
330
CAE
100
AcDbEntity
  8
0
100
AcDbBlockEnd
  0
BLOCK
  5
CC4
330
CBA
100
AcDbEntity
  8
0
100
AcDbBlockBegin
  2
*D28
 70
     1
 10
0.0
 20
0.0
 30
0.0
  3
*D28
  1

  0
LINE
  5
F66
330
CBA
100
AcDbEntity
  8
1
  6
Continuous
 62
     3
100
AcDbLine
 10
2227.08591088286
 20
880.1546217132898
 30
0.0
 11
2292.596564893226
 21
880.1546217132898
 31
0.0
  0
LINE
  5
F67
330
CBA
100
AcDbEntity
  8
1
  6
Continuous
 62
     3
100
AcDbLine
 10
2176.07007532206
 20
480.1546217132897
 30
0.0
 11
2292.596564893226
 21
480.1546217132897
 31
0.0
  0
LINE
  5
F68
330
CBA
100
AcDbEntity
  8
1
  6
Continuous
 62
     3
100
AcDbLine
 10
2288.596564893226
 20
870.1546217132898
 30
0.0
 11
2288.596564893226
 21
490.1546217132898
 31
0.0
  0
INSERT
  5
F69
330
CBA
100
AcDbEntity
  8
1
  6
Continuous
 62
     3
100
AcDbBlockReference
  2
_Open30
 10
2288.596564893226
 20
880.1546217132898
 30
0.0
 41
10.0
 42
10.0
 43
10.0
 50
90.0
  0
INSERT
  5
F6A
330
CBA
100
AcDbEntity
  8
1
  6
Continuous
 62
     3
100
AcDbBlockReference
  2
_Open30
 10
2288.596564893226
 20
480.1546217132897
 30
0.0
 41
10.0
 42
10.0
 43
10.0
 50
270.0
  0
MTEXT
  5
F6B
330
CBA
100
AcDbEntity
  8
1
  6
Continuous
 62
     2
100
AcDbMText
 10
2273.596564893226
 20
680.1546217132901
 30
0.0
 40
18.0
 41
0.0
 71
     5
 72
     1
  1
400
 11
0.0000000000000001
 21
1.0
 31
0.0
 73
     1
 44
1.0
  0
POINT
  5
F6C
330
CBA
100
AcDbEntity
  8
DEFPOINTS
  6
Continuous
 62
     0
100
AcDbPoint
 10
2223.08591088286
 20
880.1546217132898
 30
0.0
  0
POINT
  5
F6D
330
CBA
100
AcDbEntity
  8
DEFPOINTS
  6
Continuous
 62
     0
100
AcDbPoint
 10
2172.07007532206
 20
480.1546217132898
 30
0.0
  0
POINT
  5
F6E
330
CBA
100
AcDbEntity
  8
DEFPOINTS
  6
Continuous
 62
     0
100
AcDbPoint
 10
2288.596564893226
 20
480.1546217132897
 30
0.0
  0
ENDBLK
  5
CC5
330
CBA
100
AcDbEntity
  8
0
100
AcDbBlockEnd
  0
BLOCK
  5
CD0
330
CC6
100
AcDbEntity
  8
0
100
AcDbBlockBegin
  2
*D29
 70
     1
 10
0.0
 20
0.0
 30
0.0
  3
*D29
  1

  0
LINE
  5
F30
330
CC6
100
AcDbEntity
  8
1
  6
Continuous
 62
     3
100
AcDbLine
 10
1968.07007532206
 20
1680.154621713289
 30
0.0
 11
1704.158918538
 21
1680.154621713289
 31
0.0
  0
LINE
  5
F31
330
CC6
100
AcDbEntity
  8
1
  6
Continuous
 62
     3
100
AcDbLine
 10
1906.07007532206
 20
580.1546217132897
 30
0.0
 11
1704.158918538
 21
580.1546217132899
 31
0.0
  0
LINE
  5
F32
330
CC6
100
AcDbEntity
  8
1
  6
Continuous
 62
     3
100
AcDbLine
 10
1708.158918538
 20
1670.15462171329
 30
0.0
 11
1708.158918538
 21
590.1546217132898
 31
0.0
  0
INSERT
  5
F33
330
CC6
100
AcDbEntity
  8
1
  6
Continuous
 62
     3
100
AcDbBlockReference
  2
_Open30
 10
1708.158918538
 20
1680.154621713289
 30
0.0
 41
10.0
 42
10.0
 43
10.0
 50
90.0
  0
INSERT
  5
F34
330
CC6
100
AcDbEntity
  8
1
  6
Continuous
 62
     3
100
AcDbBlockReference
  2
_Open30
 10
1708.158918538
 20
580.1546217132899
 30
0.0
 41
10.0
 42
10.0
 43
10.0
 50
270.0
  0
MTEXT
  5
F35
330
CC6
100
AcDbEntity
  8
1
  6
Continuous
 62
     2
100
AcDbMText
 10
1693.158918538
 20
1130.15462171329
 30
0.0
 40
18.0
 41
0.0
 71
     5
 72
     1
  1
1100
 11
0.0000000000000001
 21
1.0
 31
0.0
 73
     1
 44
1.0
  0
POINT
  5
F36
330
CC6
100
AcDbEntity
  8
DEFPOINTS
  6
Continuous
 62
     0
100
AcDbPoint
 10
1972.07007532206
 20
1680.154621713289
 30
0.0
  0
POINT
  5
F37
330
CC6
100
AcDbEntity
  8
DEFPOINTS
  6
Continuous
 62
     0
100
AcDbPoint
 10
1910.07007532206
 20
580.1546217132897
 30
0.0
  0
POINT
  5
F38
330
CC6
100
AcDbEntity
  8
DEFPOINTS
  6
Continuous
 62
     0
100
AcDbPoint
 10
1708.158918538
 20
580.1546217132899
 30
0.0
  0
ENDBLK
  5
CD1
330
CC6
100
AcDbEntity
  8
0
100
AcDbBlockEnd
  0
BLOCK
  5
CDC
330
CD2
100
AcDbEntity
  8
0
100
AcDbBlockBegin
  2
*D30
 70
     1
 10
0.0
 20
0.0
 30
0.0
  3
*D30
  1

  0
LINE
  5
1184
330
CD2
100
AcDbEntity
  8
1
  6
Continuous
 62
     3
100
AcDbLine
 10
1913.07007532206
 20
1634.15462171329
 30
0.0
 11
1913.07007532206
 21
1706.868208593023
 31
0.0
  0
LINE
  5
1185
330
CD2
100
AcDbEntity
  8
1
  6
Continuous
 62
     3
100
AcDbLine
 10
2031.07007532206
 20
1634.15462171329
 30
0.0
 11
2031.07007532206
 21
1706.868208593023
 31
0.0
  0
LINE
  5
1186
330
CD2
100
AcDbEntity
  8
1
  6
Continuous
 62
     3
100
AcDbLine
 10
1923.07007532206
 20
1702.868208593023
 30
0.0
 11
2021.07007532206
 21
1702.868208593023
 31
0.0
  0
INSERT
  5
1187
330
CD2
100
AcDbEntity
  8
1
  6
Continuous
 62
     3
100
AcDbBlockReference
  2
_Open30
 10
1913.07007532206
 20
1702.868208593023
 30
0.0
 41
10.0
 42
10.0
 43
10.0
 50
180.0
  0
INSERT
  5
1188
330
CD2
100
AcDbEntity
  8
1
  6
Continuous
 62
     3
100
AcDbBlockReference
  2
_Open30
 10
2031.07007532206
 20
1702.868208593023
 30
0.0
 41
10.0
 42
10.0
 43
10.0
  0
MTEXT
  5
1189
330
CD2
100
AcDbEntity
  8
1
  6
Continuous
 62
     2
100
AcDbMText
 10
1972.07007532206
 20
1717.868208593023
 30
0.0
 40
18.0
 41
0.0
 71
     5
 72
     1
  1
%%c118
 73
     1
 44
1.0
  0
POINT
  5
118A
330
CD2
100
AcDbEntity
  8
DEFPOINTS
  6
Continuous
 62
     0
100
AcDbPoint
 10
1913.07007532206
 20
1630.15462171329
 30
0.0
  0
POINT
  5
118B
330
CD2
100
AcDbEntity
  8
DEFPOINTS
  6
Continuous
 62
     0
100
AcDbPoint
 10
2031.07007532206
 20
1630.15462171329
 30
0.0
  0
POINT
  5
118C
330
CD2
100
AcDbEntity
  8
DEFPOINTS
  6
Continuous
 62
     0
100
AcDbPoint
 10
2031.07007532206
 20
1702.868208593023
 30
0.0
  0
ENDBLK
  5
CDD
330
CD2
100
AcDbEntity
  8
0
100
AcDbBlockEnd
  0
BLOCK
  5
CE8
330
CDE
100
AcDbEntity
  8
0
100
AcDbBlockBegin
  2
*D31
 70
     1
 10
0.0
 20
0.0
 30
0.0
  3
*D31
  1

  0
LINE
  5
1197
330
CDE
100
AcDbEntity
  8
1
  6
Continuous
 62
     3
100
AcDbLine
 10
2122.07007532206
 20
476.1546217132898
 30
0.0
 11
2122.07007532206
 21
315.3583798572299
 31
0.0
  0
LINE
  5
1198
330
CDE
100
AcDbEntity
  8
1
  6
Continuous
 62
     3
100
AcDbLine
 10
1822.070075322059
 20
476.1546217132898
 30
0.0
 11
1822.070075322059
 21
315.3583798572299
 31
0.0
  0
LINE
  5
1199
330
CDE
100
AcDbEntity
  8
1
  6
Continuous
 62
     3
100
AcDbLine
 10
2112.07007532206
 20
319.3583798572299
 30
0.0
 11
1832.07007532206
 21
319.3583798572299
 31
0.0
  0
INSERT
  5
119A
330
CDE
100
AcDbEntity
  8
1
  6
Continuous
 62
     3
100
AcDbBlockReference
  2
_Open30
 10
2122.07007532206
 20
319.3583798572299
 30
0.0
 41
10.0
 42
10.0
 43
10.0
  0
INSERT
  5
119B
330
CDE
100
AcDbEntity
  8
1
  6
Continuous
 62
     3
100
AcDbBlockReference
  2
_Open30
 10
1822.070075322059
 20
319.3583798572299
 30
0.0
 41
10.0
 42
10.0
 43
10.0
 50
180.0
  0
MTEXT
  5
119C
330
CDE
100
AcDbEntity
  8
1
  6
Continuous
 62
     2
100
AcDbMText
 10
1972.07007532206
 20
334.3583798572299
 30
0.0
 40
18.0
 41
0.0
 71
     5
 72
     1
  1
{\Famgdt|c128;o}300
 73
     1
 44
1.0
  0
POINT
  5
119D
330
CDE
100
AcDbEntity
  8
DEFPOINTS
  6
Continuous
 62
     0
100
AcDbPoint
 10
2122.07007532206
 20
480.1546217132898
 30
0.0
  0
POINT
  5
119E
330
CDE
100
AcDbEntity
  8
DEFPOINTS
  6
Continuous
 62
     0
100
AcDbPoint
 10
1822.070075322059
 20
480.1546217132898
 30
0.0
  0
POINT
  5
119F
330
CDE
100
AcDbEntity
  8
DEFPOINTS
  6
Continuous
 62
     0
100
AcDbPoint
 10
1822.070075322059
 20
319.3583798572299
 30
0.0
  0
ENDBLK
  5
CE9
330
CDE
100
AcDbEntity
  8
0
100
AcDbBlockEnd
  0
BLOCK
  5
FA8
330
F89
100
AcDbEntity
  8
0
100
AcDbBlockBegin
  2
*D32
 70
     1
 10
0.0
 20
0.0
 30
0.0
  3
*D32
  1

  0
LINE
  5
FBC
330
F89
100
AcDbEntity
  8
AM_5
100
AcDbLine
 10
1917.760674245301
 20
1602.15462171329
 30
0.0
 11
1895.028048870235
 21
1641.528683852334
 31
0.0
  0
LINE
  5
FBD
330
F89
100
AcDbEntity
  8
AM_5
100
AcDbLine
 10
2021.760674245301
 20
1602.15462171329
 30
0.0
 11
1999.028048870234
 21
1641.528683852334
 31
0.0
  0
LINE
  5
FBE
330
F89
100
AcDbEntity
  8
AM_5
100
AcDbLine
 10
1907.337449946993
 20
1637.528683852334
 30
0.0
 11
1991.337449946993
 21
1637.528683852334
 31
0.0
  0
INSERT
  5
FBF
330
F89
100
AcDbEntity
  8
AM_5
100
AcDbBlockReference
  2
_Open30
 10
1897.337449946993
 20
1637.528683852334
 30
0.0
 41
10.0
 42
10.0
 43
10.0
 50
180.0
  0
INSERT
  5
FC0
330
F89
100
AcDbEntity
  8
AM_5
100
AcDbBlockReference
  2
_Open30
 10
2001.337449946993
 20
1637.528683852334
 30
0.0
 41
10.0
 42
10.0
 43
10.0
  0
MTEXT
  5
FC1
330
F89
100
AcDbEntity
  8
AM_5
 62
     2
100
AcDbMText
 10
1949.337449946993
 20
1652.528683852334
 30
0.0
 40
18.0
 41
0.0
 71
     5
 72
     1
  1
%%c104
 73
     1
 44
1.0
  0
POINT
  5
FC2
330
F89
100
AcDbEntity
  8
DEFPOINTS
 62
     0
100
AcDbPoint
 10
1920.07007532206
 20
1598.15462171329
 30
0.0
  0
POINT
  5
FC3
330
F89
100
AcDbEntity
  8
DEFPOINTS
 62
     0
100
AcDbPoint
 10
2024.07007532206
 20
1598.154621713289
 30
0.0
  0
POINT
  5
FC4
330
F89
100
AcDbEntity
  8
DEFPOINTS
 62
     0
100
AcDbPoint
 10
2001.337449946993
 20
1637.528683852334
 30
0.0
  0
ENDBLK
  5
FA9
330
F89
100
AcDbEntity
  8
0
100
AcDbBlockEnd
  0
BLOCK
  5
106F
330
106C
100
AcDbEntity
  8
0
100
AcDbBlockBegin
  2
BALOON
 70
     2
 10
0.0
 20
0.0
 30
0.0
  3
BALOON
  1

  0
ATTDEF
  5
106D
330
106C
100
AcDbEntity
  8
0
  6
Continuous
 62
     7
100
AcDbText
 10
-0.0000000000000001
 20
-1.75
 30
0.0
 40
3.5
  1

  7
MSG
 72
     1
 11
0.0
 21
0.0
 31
0.0
100
AcDbAttributeDefinition
  3
番号
  2
NO
 70
     0
 74
     2
  0
CIRCLE
  5
106E
330
106C
100
AcDbEntity
  8
0
  6
Continuous
 62
     7
100
AcDbCircle
 10
0.0
 20
0.0
 30
0.0
 40
5.0
  0
ENDBLK
  5
1070
330
106C
100
AcDbEntity
  8
0
100
AcDbBlockEnd
  0
BLOCK
  5
1078
330
1075
100
AcDbEntity
  8
0
100
AcDbBlockBegin
  2
LEVEL
 70
     2
 10
0.0
 20
0.0
 30
0.0
  3
LEVEL
  1

  0
LWPOLYLINE
  5
1076
330
1075
100
AcDbEntity
  8
0
  6
Continuous
 62
     7
100
AcDbPolyline
 90
        3
 70
     1
 43
0.0
 10
1.5
 20
2.598076211353316
 10
-1.5
 20
2.598076211353316
 10
0.0
 20
0.0
  0
ATTDEF
  5
1077
330
1075
100
AcDbEntity
  8
0
  6
Continuous
 62
     7
100
AcDbText
 10
2.567107072004063
 20
0.4999999999999716
 30
0.0
 40
3.2
  1
LEVEL
 41
1.199999999999999
  7
MSG
100
AcDbAttributeDefinition
  3
レベル
  2
LEVEL
 70
     0
  0
ENDBLK
  5
1079
330
1075
100
AcDbEntity
  8
0
100
AcDbBlockEnd
  0
BLOCK
  5
1080
330
107D
100
AcDbEntity
  8
0
100
AcDbBlockBegin
  2
TORISINYL
 70
     2
 10
0.0
 20
0.0
 30
0.0
  3
TORISINYL
  1

  0
ATTDEF
  5
107E
330
107D
100
AcDbEntity
  8
0
  6
Continuous
 62
     7
100
AcDbText
 10
2.588832487309645
 20
-1.75
 30
0.0
 40
3.5
  1
YYY
  7
MSG
 72
     1
 11
6.0
 21
0.0
 31
0.0
100
AcDbAttributeDefinition
  3
通り芯名（Ｙ）
  2
YYY
 70
     0
 74
     2
  0
CIRCLE
  5
107F
330
107D
100
AcDbEntity
  8
0
  6
Continuous
 62
     7
100
AcDbCircle
 10
6.0
 20
0.0
 30
0.0
 40
4.0
  0
ENDBLK
  5
1081
330
107D
100
AcDbEntity
  8
0
100
AcDbBlockEnd
  0
BLOCK
  5
1089
330
1085
100
AcDbEntity
  8
0
100
AcDbBlockBegin
  2
KOUBAI01
 70
     0
 10
0.0
 20
0.0
 30
0.0
  3
KOUBAI01
  1

  0
LINE
  5
1086
330
1085
100
AcDbEntity
  8
0
  6
Continuous
 62
     7
100
AcDbLine
 10
0.0
 20
20.0
 30
0.0
 11
-20.0
 21
0.0
 31
0.0
  0
LINE
  5
1087
330
1085
100
AcDbEntity
  8
0
  6
Continuous
 62
     7
100
AcDbLine
 10
0.0
 20
0.0
 30
0.0
 11
0.0
 21
20.0
 31
0.0
  0
LINE
  5
1088
330
1085
100
AcDbEntity
  8
0
  6
Continuous
 62
     7
100
AcDbLine
 10
-20.0
 20
0.0
 30
0.0
 11
0.0
 21
0.0
 31
0.0
  0
ENDBLK
  5
108A
330
1085
100
AcDbEntity
  8
0
100
AcDbBlockEnd
  0
BLOCK
  5
10B0
330
10AC
100
AcDbEntity
  8
0
100
AcDbBlockBegin
  2
P
 70
     0
 10
0.0
 20
0.0
 30
0.0
  3
P
  1

  0
LINE
  5
10AD
330
10AC
100
AcDbEntity
  8
0
100
AcDbLine
 10
2.25
 20
0.0
 30
0.0
 11
2.25
 21
-1.5
 31
0.0
  0
LINE
  5
10AE
330
10AC
100
AcDbEntity
  8
0
100
AcDbLine
 10
5.25
 20
-1.5
 30
0.0
 11
5.25
 21
0.0
 31
0.0
  0
LINE
  5
10AF
330
10AC
100
AcDbEntity
  8
0
100
AcDbLine
 10
2.25
 20
-1.5
 30
0.0
 11
5.25
 21
-1.5
 31
0.0
  0
ENDBLK
  5
10B1
330
10AC
100
AcDbEntity
  8
0
100
AcDbBlockEnd
  0
BLOCK
  5
10D3
330
10CD
100
AcDbEntity
  8
0
100
AcDbBlockBegin
  2
Xsec2
 70
     2
 10
0.0
 20
0.0
 30
0.0
  3
Xsec2
  1

  0
SOLID
  5
10CE
330
10CD
100
AcDbEntity
  8
0
  6
Continuous
 62
     7
100
AcDbTrace
 10
-2.0
 20
0.0
 30
0.0
 11
0.0
 21
0.0
 31
0.0
 12
0.0
 22
-4.0
 32
0.0
 13
0.0
 23
-4.0
 33
0.0
  0
LINE
  5
10CF
330
10CD
100
AcDbEntity
  8
0
  6
Continuous
 62
     7
100
AcDbLine
 10
0.0
 20
-4.0
 30
0.0
 11
-2.0
 21
0.0
 31
0.0
  0
LINE
  5
10D0
330
10CD
100
AcDbEntity
  8
0
  6
Continuous
 62
     7
100
AcDbLine
 10
0.0
 20
0.0
 30
0.0
 11
-5.0
 21
0.0
 31
0.0
  0
LINE
  5
10D1
330
10CD
100
AcDbEntity
  8
0
  6
Continuous
 62
     7
100
AcDbLine
 10
0.0
 20
-4.0
 30
0.0
 11
0.0
 21
0.0
 31
0.0
  0
ATTDEF
  5
10D2
330
10CD
100
AcDbEntity
  8
0
  6
Continuous
 62
     7
100
AcDbText
 10
5.0
 20
-1.999999999999943
 30
0.0
 40
3.2
  1

 41
1.199999999999999
  7
MSG
 72
     4
 11
5.0
 21
-1.999999999999943
 31
0.0
100
AcDbAttributeDefinition
  3
MARK
  2
XSEC
 70
     0
  0
ENDBLK
  5
10D4
330
10CD
100
AcDbEntity
  8
0
100
AcDbBlockEnd
  0
BLOCK
  5
10DE
330
10D8
100
AcDbEntity
  8
0
100
AcDbBlockBegin
  2
X1sec2
 70
     2
 10
0.0
 20
0.0
 30
0.0
  3
X1sec2
  1

  0
ATTDEF
  5
10D9
330
10D8
100
AcDbEntity
  8
0
  6
Continuous
 62
     7
100
AcDbText
 10
-5.0
 20
-1.999999999999943
 30
0.0
 40
3.2
  1

 41
1.199999999999999
  7
MSG
 72
     4
 11
-5.0
 21
-1.999999999999943
 31
0.0
100
AcDbAttributeDefinition
  3
MARK
  2
X1SEC
 70
     0
  0
LINE
  5
10DA
330
10D8
100
AcDbEntity
  8
0
  6
Continuous
 62
     7
100
AcDbLine
 10
0.0
 20
-4.0
 30
0.0
 11
0.0
 21
0.0
 31
0.0
  0
LINE
  5
10DB
330
10D8
100
AcDbEntity
  8
0
  6
Continuous
 62
     7
100
AcDbLine
 10
0.0
 20
-4.0
 30
0.0
 11
2.0
 21
0.0
 31
0.0
  0
SOLID
  5
10DC
330
10D8
100
AcDbEntity
  8
0
  6
Continuous
 62
     7
100
AcDbTrace
 10
2.0
 20
0.0
 30
0.0
 11
0.0
 21
0.0
 31
0.0
 12
0.0
 22
-4.0
 32
0.0
 13
0.0
 23
-4.0
 33
0.0
  0
LINE
  5
10DD
330
10D8
100
AcDbEntity
  8
0
  6
Continuous
 62
     7
100
AcDbLine
 10
0.0
 20
0.0
 30
0.0
 11
5.0
 21
0.0
 31
0.0
  0
ENDBLK
  5
10DF
330
10D8
100
AcDbEntity
  8
0
100
AcDbBlockEnd
  0
BLOCK
  5
1161
330
115A
100
AcDbEntity
  8
0
100
AcDbBlockBegin
  2
Xsec
 70
     2
 10
0.0
 20
0.0
 30
0.0
  3
Xsec
  1

  0
SOLID
  5
115B
330
115A
100
AcDbEntity
  8
0
  6
Continuous
 62
     7
100
AcDbTrace
 10
-2.0
 20
0.0
 30
0.0
 11
0.0
 21
0.0
 31
0.0
 12
0.0
 22
-4.0
 32
0.0
 13
0.0
 23
-4.0
 33
0.0
  0
LINE
  5
115C
330
115A
100
AcDbEntity
  8
0
  6
Continuous
 62
     7
100
AcDbLine
 10
0.0
 20
-4.0
 30
0.0
 11
-2.0
 21
0.0
 31
0.0
  0
LINE
  5
115D
330
115A
100
AcDbEntity
  8
0
  6
Continuous
 62
     7
100
AcDbLine
 10
0.0
 20
0.0
 30
0.0
 11
-5.0
 21
0.0
 31
0.0
  0
LINE
  5
115E
330
115A
100
AcDbEntity
  8
0
  6
Continuous
 62
     7
100
AcDbLine
 10
0.0
 20
-4.0
 30
0.0
 11
0.0
 21
0.0
 31
0.0
  0
CIRCLE
  5
115F
330
115A
100
AcDbEntity
  8
0
  6
Continuous
 62
     7
100
AcDbCircle
 10
5.0
 20
-2.0
 30
0.0
 40
4.0
  0
ATTDEF
  5
1160
330
115A
100
AcDbEntity
  8
0
  6
Continuous
 62
     7
100
AcDbText
 10
5.0
 20
-1.999999999999943
 30
0.0
 40
3.2
  1

 41
1.199999999999999
  7
MSG
 72
     4
 11
5.0
 21
-1.999999999999943
 31
0.0
100
AcDbAttributeDefinition
  3
MARK
  2
XSEC
 70
     0
  0
ENDBLK
  5
1162
330
115A
100
AcDbEntity
  8
0
100
AcDbBlockEnd
  0
BLOCK
  5
1213
330
11FD
100
AcDbEntity
  8
0
100
AcDbBlockBegin
  2
*D41
 70
     1
 10
0.0
 20
0.0
 30
0.0
  3
*D41
  1

  0
LINE
  5
1298
330
11FD
100
AcDbEntity
  8
AM_5
100
AcDbLine
 10
1912.379476398818
 20
931.1546217132898
 30
0.0
 11
1942.819954482915
 21
983.8790763616321
 31
0.0
  0
LINE
  5
1299
330
11FD
100
AcDbEntity
  8
AM_5
100
AcDbLine
 10
2036.379476398819
 20
931.1546217132898
 30
0.0
 11
2066.819954482915
 21
983.8790763616321
 31
0.0
  0
LINE
  5
129A
330
11FD
100
AcDbEntity
  8
AM_5
100
AcDbLine
 10
1950.510553406157
 20
979.879076361632
 30
0.0
 11
2054.510553406157
 21
979.879076361632
 31
0.0
  0
INSERT
  5
129B
330
11FD
100
AcDbEntity
  8
AM_5
100
AcDbBlockReference
  2
_Open30
 10
1940.510553406156
 20
979.879076361632
 30
0.0
 41
10.0
 42
10.0
 43
10.0
 50
180.0
  0
INSERT
  5
129C
330
11FD
100
AcDbEntity
  8
AM_5
100
AcDbBlockReference
  2
_Open30
 10
2064.510553406157
 20
979.879076361632
 30
0.0
 41
10.0
 42
10.0
 43
10.0
  0
MTEXT
  5
129D
330
11FD
100
AcDbEntity
  8
AM_5
 62
     2
100
AcDbMText
 10
2002.510553406157
 20
994.8808480151754
 30
0.0
 40
18.0
 41
0.0
 71
     5
 72
     1
  1
%%c124
 73
     1
 44
1.0
  0
POINT
  5
129E
330
11FD
100
AcDbEntity
  8
DEFPOINTS
 62
     0
100
AcDbPoint
 10
1910.07007532206
 20
927.1546217132897
 30
0.0
  0
POINT
  5
129F
330
11FD
100
AcDbEntity
  8
DEFPOINTS
 62
     0
100
AcDbPoint
 10
2034.07007532206
 20
927.1546217132897
 30
0.0
  0
POINT
  5
12A0
330
11FD
100
AcDbEntity
  8
DEFPOINTS
 62
     0
100
AcDbPoint
 10
2064.510553406157
 20
979.879076361632
 30
0.0
  0
ENDBLK
  5
1214
330
11FD
100
AcDbEntity
  8
0
100
AcDbBlockEnd
  0
BLOCK
  5
13C5
330
13BE
100
AcDbEntity
  8
0
100
AcDbBlockBegin
  2
*S42
 70
     1
 10
0.0
 20
0.0
 30
0.0
  3
*S42
  1

  0
LINE
  5
13BF
330
13BE
100
AcDbEntity
  8
AM_5
100
AcDbLine
 10
2243.766663188097
 20
1468.042922896947
 30
0.0
 11
2053.186702558176
 21
1468.042922896947
 31
0.0
  0
LINE
  5
13C0
330
13BE
100
AcDbEntity
  8
AM_5
100
AcDbLine
 10
2053.186702558176
 20
1468.042922896947
 30
0.0
 11
1992.484806806752
 21
1402.273589555575
 31
0.0
  0
LINE
  5
13C1
330
13BE
100
AcDbEntity
  8
AM_5
100
AcDbLine
 10
1992.484806806752
 20
1402.273589555575
 30
0.0
 11
1983.93910525502
 21
1393.014486737875
 31
0.0
  0
LINE
  5
13C2
330
13BE
100
AcDbEntity
  8
AM_5
100
AcDbLine
 10
1991.265822800822
 20
1403.398652503477
 30
0.0
 11
1983.93910525502
 21
1393.014486737875
 31
0.0
  0
LINE
  5
13C3
330
13BE
100
AcDbEntity
  8
AM_5
100
AcDbLine
 10
1983.93910525502
 20
1393.014486737875
 30
0.0
 11
1993.703790812682
 21
1401.148526607672
 31
0.0
  0
MTEXT
  5
13C4
330
13BE
100
AcDbEntity
  8
AM_5
 62
     2
100
AcDbMText
 10
2065.786702558176
 20
1474.342922896947
 30
0.0
 40
12.6
 41
0.0
 71
     7
 72
     5
  1
2×%%C33 トゥインクルアイ
  7
ACJISTS
 73
     1
 44
1.0
  0
ENDBLK
  5
13C6
330
13BE
100
AcDbEntity
  8
0
100
AcDbBlockEnd
  0
BLOCK
  5
13CC
330
13C8
100
AcDbEntity
  8
0
100
AcDbBlockBegin
  2
*S43
 70
     1
 10
0.0
 20
0.0
 30
0.0
  3
*S43
  1

  0
CIRCLE
  5
13C9
330
13C8
100
AcDbEntity
  8
AM_12
 62
     4
100
AcDbCircle
 10
2032.682039178808
 20
1169.32425627345
 30
0.0
 40
6.299999999999954
  0
LINE
  5
13CA
330
13C8
100
AcDbEntity
  8
AM_12
 62
     4
100
AcDbLine
 10
2026.382039178807
 20
1163.02425627345
 30
0.0
 11
2038.982039178808
 21
1175.62425627345
 31
0.0
  0
LINE
  5
13CB
330
13C8
100
AcDbEntity
  8
AM_12
 62
     4
100
AcDbLine
 10
2026.382039178807
 20
1175.62425627345
 30
0.0
 11
2038.982039178808
 21
1163.02425627345
 31
0.0
  0
ENDBLK
  5
13CD
330
13C8
100
AcDbEntity
  8
0
100
AcDbBlockEnd
  0
BLOCK
  5
13D4
330
13CF
100
AcDbEntity
  8
0
100
AcDbBlockBegin
  2
*S44
 70
     1
 10
0.0
 20
0.0
 30
0.0
  3
*S44
  1

  0
LINE
  5
13D0
330
13CF
100
AcDbEntity
  8
AM_5
100
AcDbLine
 10
2128.744981844656
 20
1248.221414578513
 30
0.0
 11
2040.871845382159
 21
1177.241661384276
 31
0.0
  0
TRACE
  5
13D1
330
13CF
100
AcDbEntity
  8
AM_5
100
AcDbTrace
 10
2039.829499229559
 20
1178.532088887708
 30
0.0
 11
2041.91419153476
 21
1175.951233880844
 31
0.0
 12
2031.07007532206
 22
1169.32425627345
 32
0.0
 13
2031.07007532206
 23
1169.32425627345
 33
0.0
  0
MTEXT
  5
13D2
330
13CF
100
AcDbEntity
  8
AM_5
 62
     2
100
AcDbMText
 10
2144.264451106479
 20
1260.757306003989
 30
0.0
 40
14.0
 41
0.0
 71
     5
 72
     5
  1
1
  7
ACJISTS
 73
     1
 44
1.0
  0
CIRCLE
  5
13D3
330
13CF
100
AcDbEntity
  8
AM_5
 62
     3
100
AcDbCircle
 10
2144.264451106479
 20
1260.757306003989
 30
0.0
 40
19.94999999999982
  0
ENDBLK
  5
13D5
330
13CF
100
AcDbEntity
  8
0
100
AcDbBlockEnd
  0
BLOCK
  5
13F3
330
13D7
100
AcDbEntity
  8
0
100
AcDbBlockBegin
  2
*S45
 70
     1
 10
0.0
 20
0.0
 30
0.0
  3
*S45
  1

  0
MTEXT
  5
13D8
330
13D7
100
AcDbEntity
  8
0
 62
     7
100
AcDbMText
 10
2197.822093824094
 20
1696.030667892049
 30
0.0
 40
18.0
 41
39.59999999999999
 71
     2
 72
     5
  1
1
  7
ACJISTS
 73
     1
 44
1.0
  0
LINE
  5
13D9
330
13D7
100
AcDbEntity
  8
0
 62
     1
100
AcDbLine
 10
2221.222093824094
 20
1701.430667892048
 30
0.0
 11
2221.222093824094
 21
1642.030667892049
 31
0.0
  0
MTEXT
  5
13DA
330
13D7
100
AcDbEntity
  8
0
 62
     7
100
AcDbMText
 10
2311.222093824094
 20
1696.030667892049
 30
0.0
 40
18.0
 41
172.8
 71
     2
 72
     5
  1
本体
  7
ACJISTS
 73
     1
 44
1.0
  0
LINE
  5
13DB
330
13D7
100
AcDbEntity
  8
0
 62
     1
100
AcDbLine
 10
2401.222093824094
 20
1701.430667892048
 30
0.0
 11
2401.222093824094
 21
1642.030667892049
 31
0.0
  0
MTEXT
  5
13DC
330
13D7
100
AcDbEntity
  8
0
 62
     7
100
AcDbMText
 10
2424.622093824094
 20
1696.030667892049
 30
0.0
 40
18.0
 41
39.6
 71
     2
 72
     5
  1
1
  7
ACJISTS
 73
     1
 44
1.0
  0
LINE
  5
13DD
330
13D7
100
AcDbEntity
  8
0
 62
     1
100
AcDbLine
 10
2448.022093824094
 20
1701.430667892048
 30
0.0
 11
2448.022093824094
 21
1642.030667892049
 31
0.0
  0
MTEXT
  5
13DE
330
13D7
100
AcDbEntity
  8
0
 62
     7
100
AcDbMText
 10
2494.022093824094
 20
1696.030667892049
 30
0.0
 40
18.0
 41
84.8
 71
     2
 72
     5
  1
FCD
  7
ACJISTS
 73
     1
 44
1.0
  0
LINE
  5
13DF
330
13D7
100
AcDbEntity
  8
0
 62
     1
100
AcDbLine
 10
2540.022093824094
 20
1701.430667892048
 30
0.0
 11
2540.022093824094
 21
1642.030667892049
 31
0.0
  0
MTEXT
  5
13E0
330
13D7
100
AcDbEntity
  8
0
 62
     7
100
AcDbMText
 10
2580.022093824094
 20
1696.030667892049
 30
0.0
 40
18.0
 41
72.8
 71
     2
 72
     5
  1
19
  7
ACJISTS
 73
     1
 44
1.0
  0
LINE
  5
13E1
330
13D7
100
AcDbEntity
  8
0
 62
     1
100
AcDbLine
 10
2620.022093824094
 20
1701.430667892048
 30
0.0
 11
2620.022093824094
 21
1642.030667892049
 31
0.0
  0
MTEXT
  5
13E2
330
13D7
100
AcDbEntity
  8
0
 62
     7
100
AcDbMText
 10
2700.022093824094
 20
1696.030667892049
 30
0.0
 40
18.0
 41
152.8
 71
     2
 72
     5
  1
防錆塗装の上、樹脂系塗料塗装
  7
ACJISTS
 73
     1
 44
1.0
  0
LINE
  5
13E3
330
13D7
100
AcDbEntity
  8
0
 62
     1
100
AcDbLine
 10
2174.422093824094
 20
1701.430667892048
 30
0.0
 11
2780.022093824094
 21
1701.430667892048
 31
0.0
  0
MTEXT
  5
13E4
330
13D7
100
AcDbEntity
  8
0
 62
     7
100
AcDbMText
 10
2197.822093824094
 20
1725.730667892048
 30
0.0
 40
18.0
 41
39.59999999999999
 71
     2
 72
     5
  1
部番
  7
ACJISTS
 73
     1
 44
1.0
  0
LINE
  5
13E5
330
13D7
100
AcDbEntity
  8
0
 62
     1
100
AcDbLine
 10
2221.222093824094
 20
1731.130667892049
 30
0.0
 11
2221.222093824094
 21
1701.430667892048
 31
0.0
  0
MTEXT
  5
13E6
330
13D7
100
AcDbEntity
  8
0
 62
     7
100
AcDbMText
 10
2311.222093824094
 20
1725.730667892048
 30
0.0
 40
18.0
 41
172.8
 71
     2
 72
     5
  1
部  品  名
  7
ACJISTS
 73
     1
 44
1.0
  0
LINE
  5
13E7
330
13D7
100
AcDbEntity
  8
0
 62
     1
100
AcDbLine
 10
2401.222093824094
 20
1731.130667892049
 30
0.0
 11
2401.222093824094
 21
1701.430667892048
 31
0.0
  0
MTEXT
  5
13E8
330
13D7
100
AcDbEntity
  8
0
 62
     7
100
AcDbMText
 10
2424.622093824094
 20
1725.730667892048
 30
0.0
 40
18.0
 41
39.6
 71
     2
 72
     5
  1
数量
  7
ACJISTS
 73
     1
 44
1.0
  0
LINE
  5
13E9
330
13D7
100
AcDbEntity
  8
0
 62
     1
100
AcDbLine
 10
2448.022093824094
 20
1731.130667892049
 30
0.0
 11
2448.022093824094
 21
1701.430667892048
 31
0.0
  0
MTEXT
  5
13EA
330
13D7
100
AcDbEntity
  8
0
 62
     7
100
AcDbMText
 10
2494.022093824094
 20
1725.730667892048
 30
0.0
 40
18.0
 41
84.8
 71
     2
 72
     5
  1
材  質
  7
ACJISTS
 73
     1
 44
1.0
  0
LINE
  5
13EB
330
13D7
100
AcDbEntity
  8
0
 62
     1
100
AcDbLine
 10
2540.022093824094
 20
1731.130667892049
 30
0.0
 11
2540.022093824094
 21
1701.430667892048
 31
0.0
  0
MTEXT
  5
13EC
330
13D7
100
AcDbEntity
  8
0
 62
     7
100
AcDbMText
 10
2580.022093824094
 20
1725.730667892048
 30
0.0
 40
18.0
 41
72.8
 71
     2
 72
     5
  1
重量
  7
ACJISTS
 73
     1
 44
1.0
  0
LINE
  5
13ED
330
13D7
100
AcDbEntity
  8
0
 62
     1
100
AcDbLine
 10
2620.022093824094
 20
1731.130667892049
 30
0.0
 11
2620.022093824094
 21
1701.430667892048
 31
0.0
  0
MTEXT
  5
13EE
330
13D7
100
AcDbEntity
  8
0
 62
     7
100
AcDbMText
 10
2700.022093824094
 20
1725.730667892048
 30
0.0
 40
18.0
 41
152.8
 71
     2
 72
     5
  1
備　　考
  7
ACJISTS
 73
     1
 44
1.0
  0
LINE
  5
13EF
330
13D7
100
AcDbEntity
  8
0
 62
     7
100
AcDbLine
 10
2174.422093824094
 20
1731.130667892049
 30
0.0
 11
2780.022093824094
 21
1731.130667892049
 31
0.0
  0
LINE
  5
13F0
330
13D7
100
AcDbEntity
  8
0
 62
     7
100
AcDbLine
 10
2780.022093824094
 20
1731.130667892049
 30
0.0
 11
2780.022093824094
 21
1642.030667892049
 31
0.0
  0
LINE
  5
13F1
330
13D7
100
AcDbEntity
  8
0
 62
     7
100
AcDbLine
 10
2780.022093824094
 20
1642.030667892049
 30
0.0
 11
2174.422093824094
 21
1642.030667892049
 31
0.0
  0
LINE
  5
13F2
330
13D7
100
AcDbEntity
  8
0
 62
     7
100
AcDbLine
 10
2174.422093824094
 20
1642.030667892049
 30
0.0
 11
2174.422093824094
 21
1731.130667892049
 31
0.0
  0
ENDBLK
  5
13F4
330
13D7
100
AcDbEntity
  8
0
100
AcDbBlockEnd
  0
ENDSEC
  0
SECTION
  2
ENTITIES
  0
LINE
  5
B8F
330
1F
100
AcDbEntity
  8
0
 48
3.0
100
AcDbLine
 10
2540.760212252611
 20
1289.075344000278
 30
0.0
 11
2493.789587953923
 21
1289.075344000278
 31
0.0
  0
LINE
  5
B90
330
1F
100
AcDbEntity
  8
0
 48
3.0
100
AcDbLine
 10
2605.760212252611
 20
1253.075344000268
 30
0.0
 11
2627.958070758739
 21
1253.075344000265
 31
0.0
  0
LINE
  5
B91
330
1F
100
AcDbEntity
  8
0
 48
3.0
100
AcDbLine
 10
2509.958070758827
 20
1253.07534400028
 30
0.0
 11
2535.760212252611
 21
1253.075344000277
 31
0.0
  0
LINE
  5
B92
330
1F
100
AcDbEntity
  8
0
 48
3.0
100
AcDbLine
 10
2603.760212252611
 20
1253.075344000279
 30
0.0
 11
2603.760212252611
 21
1261.075344000279
 31
0.0
  0
LINE
  5
B93
330
1F
100
AcDbEntity
  8
0
 48
3.0
100
AcDbLine
 10
2605.760212252611
 20
1253.075344000279
 30
0.0
 11
2605.760212252611
 21
1261.075344000279
 31
0.0
  0
LINE
  5
B94
330
1F
100
AcDbEntity
  8
0
 48
3.0
100
AcDbLine
 10
2540.760212252611
 20
1261.075344000279
 30
0.0
 11
2535.760212252611
 21
1261.075344000279
 31
0.0
  0
LINE
  5
B95
330
1F
100
AcDbEntity
  8
0
 48
3.0
100
AcDbLine
 10
2537.760212252611
 20
1253.075344000279
 30
0.0
 11
2537.760212252611
 21
1261.075344000279
 31
0.0
  0
LINE
  5
B96
330
1F
100
AcDbEntity
  8
0
 48
3.0
100
AcDbLine
 10
2535.760212252611
 20
1253.075344000279
 30
0.0
 11
2535.760212252611
 21
1261.075344000279
 31
0.0
  0
LINE
  5
B97
330
1F
100
AcDbEntity
  8
0
 48
3.0
100
AcDbLine
 10
2540.760212252611
 20
1311.075344000278
 30
0.0
 11
2600.760212252611
 21
1311.075344000278
 31
0.0
  0
LINE
  5
B98
330
1F
100
AcDbEntity
  8
0
 48
3.0
100
AcDbLine
 10
2600.760212252611
 20
1261.075344000279
 30
0.0
 11
2600.760212252611
 21
1311.075344000278
 31
0.0
  0
LINE
  5
B99
330
1F
100
AcDbEntity
  8
0
 48
3.0
100
AcDbLine
 10
2540.760212252611
 20
1261.075344000279
 30
0.0
 11
2540.760212252611
 21
1311.075344000278
 31
0.0
  0
LINE
  5
B9A
330
1F
100
AcDbEntity
  8
0
 48
3.0
100
AcDbLine
 10
2605.760212252611
 20
1261.075344000279
 30
0.0
 11
2600.760212252611
 21
1261.075344000279
 31
0.0
  0
ARC
  5
B9B
330
1F
100
AcDbEntity
  8
0
100
AcDbCircle
 10
2570.76021225261
 20
1387.200344000278
 30
0.0
 40
138.1249999999999
100
AcDbArc
 50
256.1775457619507
 51
283.8224542380493
  0
INSERT
  5
B9C
330
1F
100
AcDbEntity
  8
AM_8
100
AcDbBlockReference
  2
*X23
 10
1521.13497459581
 20
1938.581427029689
 30
0.0
 50
270.0
1001
GENIUS_GENODEF_13
1002
{
1000
HIER
1070
     0
1002
}
1002
{
1000
MANEDIT
1070
     0
1002
}
1002
{
1000
NOSEL
1070
     0
1002
}
1002
{
1000
BEHIND
1070
     0
1002
}
1002
{
1000
REACTOR
1002
}
1001
GENIUS_GENOBJ-N-HTC_13
1002
{
1000
OWNER
1000
GEN
1002
}
1001
GENIUS_GENHATCH_13
1002
{
1000
DATA
1040
45.0
1042
0.25
1000
_U
1070
     0
1011
2553.922587708894
1021
1281.395241178379
1031
0.0
1002
}
1002
{
1000
UCS
1010
0.0
1020
0.0
1030
0.0
1010
1.0
1020
0.0
1030
0.0
1010
0.0
1020
1.0
1030
0.0
1002
}
1001
ACAD
1000
HATCH
1002
{
1070
    19
1000
_U
1040
7.5
1040
0.7853981633974483
1070
     0
1002
}
  0
LINE
  5
B9D
330
1F
100
AcDbEntity
  8
0
 48
3.0
100
AcDbLine
 10
2540.760212252611
 20
1421.457339293301
 30
0.0
 11
2493.789587953923
 21
1421.457339293301
 31
0.0
  0
ARC
  5
B9E
330
1F
100
AcDbEntity
  8
0
100
AcDbCircle
 10
2570.76021225261
 20
1355.266341646789
 30
0.0
 40
101.5171176421499
100
AcDbArc
 50
139.3060690460413
 51
220.6939309539584
  0
LINE
  5
B9F
330
1F
100
AcDbEntity
  8
0
 48
3.0
100
AcDbLine
 10
2647.730836551299
 20
1421.457339293301
 30
0.0
 11
2600.760212252611
 21
1421.457339293301
 31
0.0
  0
ARC
  5
BA0
330
1F
100
AcDbEntity
  8
0
100
AcDbCircle
 10
2570.76021225261
 20
1355.266341646789
 30
0.0
 40
101.5171176421499
100
AcDbArc
 50
319.3060690460415
 51
40.69393095395864
  0
LINE
  5
BA1
330
1F
100
AcDbEntity
  8
0
 48
3.0
100
AcDbLine
 10
2647.730836551299
 20
1289.075344000278
 30
0.0
 11
2600.760212252611
 21
1289.075344000278
 31
0.0
  0
TEXT
  5
BA2
330
1F
100
AcDbEntity
  8
0
100
AcDbText
 10
2480.241067064509
 20
1170.351970389633
 30
0.0
 40
20.0
  1
Ａ矢視図　S=1/2
100
AcDbText
  0
DIMENSION
  5
BA9
330
1F
100
AcDbEntity
  8
5
100
AcDbDimension
  2
*D24
 10
1792.147564459989
 20
1380.15462171329
 30
0.0
 11
1777.147564459988
 21
1130.154621713291
 31
0.0
 70
    32
  1
<>
 71
     5
 42
499.9999999999979
  3
IGS
100
AcDbAlignedDimension
 13
1822.070075322059
 23
880.1546217132921
 33
0.0
 14
1947.070075322059
 24
1380.15462171329
 34
0.0
 50
90.0
100
AcDbRotatedDimension
1001
GENIUS_GENDTOL_13
1000

1000
JS7
1000

1040
0.0
1001
ACAD
1000
DSTYLE
1002
{
1070
    40
1040
4.0
1070
   178
1070
     2
1070
   177
1070
     3
1070
   176
1070
     3
1002
}
  0
LINE
  5
BAA
330
1F
100
AcDbEntity
  8
7
 48
3.0
100
AcDbLine
 10
1972.07007532206
 20
1355.154621713292
 30
0.0
 11
1972.07007532206
 21
1405.154621713292
 31
0.0
  0
LINE
  5
BAB
330
1F
100
AcDbEntity
  8
1
  6
Continuous
 62
     7
 48
3.0
100
AcDbLine
 10
1972.07007532206
 20
1409.654621713283
 30
0.0
 11
1972.07007532206
 21
1530.15462171329
 31
0.0
  0
CIRCLE
  5
BAC
330
1F
100
AcDbEntity
  8
0
100
AcDbCircle
 10
1972.07007532206
 20
1380.154621713292
 30
0.0
 40
17.5
  0
CIRCLE
  5
BAD
330
1F
100
AcDbEntity
  8
0
100
AcDbCircle
 10
1972.070075322067
 20
1380.15462171329
 30
0.0
 40
16.5
  0
LINE
  5
BAE
330
1F
100
AcDbEntity
  8
1
  6
Continuous
 62
     7
 48
3.0
100
AcDbLine
 10
2001.57007532206
 20
1350.654621713283
 30
0.0
 11
1942.57007532206
 21
1350.654621713283
 31
0.0
  0
LINE
  5
BAF
330
1F
100
AcDbEntity
  8
1
  6
Continuous
 62
     7
 48
3.0
100
AcDbLine
 10
2001.57007532206
 20
1409.654621713283
 30
0.0
 11
1942.57007532206
 21
1409.654621713283
 31
0.0
  0
LINE
  5
BB0
330
1F
100
AcDbEntity
  8
7
 48
3.0
100
AcDbLine
 10
1947.070075322059
 20
1380.15462171329
 30
0.0
 11
1997.07007532206
 21
1380.15462171329
 31
0.0
  0
INSERT
  5
BB1
330
1F
100
AcDbEntity
  8
AM_8
100
AcDbBlockReference
  2
*X23
 10
3620.38544990941
 20
771.9512562638897
 30
0.0
 50
90.0
1001
GENIUS_GENODEF_13
1002
{
1000
HIER
1070
     0
1002
}
1002
{
1000
MANEDIT
1070
     0
1002
}
1002
{
1000
NOSEL
1070
     0
1002
}
1002
{
1000
BEHIND
1070
     0
1002
}
1002
{
1000
REACTOR
1002
}
1001
GENIUS_GENOBJ-N-HTC_13
1002
{
1000
OWNER
1000
GEN
1002
}
1001
GENIUS_GENHATCH_13
1002
{
1000
DATA
1040
45.0
1042
0.25
1000
_U
1070
     0
1011
2587.597836796327
1021
1429.137442115199
1031
0.0
1002
}
1002
{
1000
UCS
1010
0.0
1020
0.0
1030
0.0
1010
1.0
1020
0.0
1030
0.0
1010
0.0
1020
1.0
1030
0.0
1002
}
1001
ACAD
1000
HATCH
1002
{
1070
    19
1000
_U
1040
7.5
1040
0.7853981633974483
1070
     0
1002
}
  0
LINE
  5
BB2
330
1F
100
AcDbEntity
  8
0
 48
3.0
100
AcDbLine
 10
2600.760212252611
 20
1449.457339293299
 30
0.0
 11
2605.760212252611
 21
1449.457339293299
 31
0.0
  0
LINE
  5
BB3
330
1F
100
AcDbEntity
  8
0
 48
3.0
100
AcDbLine
 10
2605.760212252611
 20
1457.457339293311
 30
0.0
 11
2627.958070758739
 21
1457.457339293314
 31
0.0
  0
ARC
  5
BB4
330
1F
100
AcDbEntity
  8
0
100
AcDbCircle
 10
2570.76021225261
 20
1323.332339293299
 30
0.0
 40
138.1249999999999
100
AcDbArc
 50
76.17754576195068
 51
103.8224542380493
  0
LINE
  5
BB5
330
1F
100
AcDbEntity
  8
0
 48
3.0
100
AcDbLine
 10
2600.760212252611
 20
1449.457339293299
 30
0.0
 11
2600.760212252611
 21
1399.457339293299
 31
0.0
  0
LINE
  5
BB6
330
1F
100
AcDbEntity
  8
0
 48
3.0
100
AcDbLine
 10
2540.760212252611
 20
1449.457339293299
 30
0.0
 11
2540.760212252611
 21
1399.457339293299
 31
0.0
  0
LINE
  5
BB7
330
1F
100
AcDbEntity
  8
0
 48
3.0
100
AcDbLine
 10
2605.760212252611
 20
1457.457339293299
 30
0.0
 11
2605.760212252611
 21
1449.457339293299
 31
0.0
  0
LINE
  5
BB8
330
1F
100
AcDbEntity
  8
0
 48
3.0
100
AcDbLine
 10
2535.760212252611
 20
1457.457339293299
 30
0.0
 11
2535.760212252611
 21
1449.457339293299
 31
0.0
  0
LINE
  5
BB9
330
1F
100
AcDbEntity
  8
0
 48
3.0
100
AcDbLine
 10
2603.760212252611
 20
1457.457339293299
 30
0.0
 11
2603.760212252611
 21
1449.457339293299
 31
0.0
  0
LINE
  5
BBA
330
1F
100
AcDbEntity
  8
0
 48
3.0
100
AcDbLine
 10
2537.760212252611
 20
1457.457339293299
 30
0.0
 11
2537.760212252611
 21
1449.457339293299
 31
0.0
  0
LINE
  5
BBB
330
1F
100
AcDbEntity
  8
0
 48
3.0
100
AcDbLine
 10
2600.760212252611
 20
1399.457339293299
 30
0.0
 11
2540.760212252611
 21
1399.457339293299
 31
0.0
  0
LINE
  5
BBC
330
1F
100
AcDbEntity
  8
0
 48
3.0
100
AcDbLine
 10
2535.760212252611
 20
1449.457339293299
 30
0.0
 11
2540.760212252611
 21
1449.457339293299
 31
0.0
  0
LINE
  5
BBD
330
1F
100
AcDbEntity
  8
0
 48
3.0
100
AcDbLine
 10
2509.958070758827
 20
1457.457339293299
 30
0.0
 11
2535.760212252611
 21
1457.457339293302
 31
0.0
  0
LINE
  5
BBE
330
1F
100
AcDbEntity
  8
7
 48
3.0
100
AcDbLine
 10
2570.76021225261
 20
1494.71904585849
 30
0.0
 11
2570.76021225261
 21
1215.81363743509
 31
0.0
  0
LINE
  5
BBF
330
1F
100
AcDbEntity
  8
1
  6
DIVIDE
 62
     7
 48
3.0
100
AcDbLine
 10
2172.07007532206
 20
480.1546217132897
 30
0.0
 11
2172.07007532206
 21
380.1546217132898
 31
0.0
  0
LINE
  5
BC0
330
1F
100
AcDbEntity
  8
1
  6
DIVIDE
 62
     7
 48
3.0
100
AcDbLine
 10
1772.07007532206
 20
480.1546217132897
 30
0.0
 11
1772.07007532206
 21
380.1546217132898
 31
0.0
  0
LINE
  5
BC1
330
1F
100
AcDbEntity
  8
1
  6
DIVIDE
 62
     7
 48
3.0
100
AcDbLine
 10
1772.07007532206
 20
380.1546217132898
 30
0.0
 11
2172.07007532206
 21
380.1546217132898
 31
0.0
  0
LINE
  5
BC2
330
1F
100
AcDbEntity
  8
1
  6
DIVIDE
 62
     7
 48
3.0
100
AcDbLine
 10
1772.07007532206
 20
480.1546217132897
 30
0.0
 11
2172.07007532206
 21
480.1546217132897
 31
0.0
  0
LINE
  5
BC3
330
1F
100
AcDbEntity
  8
1
  6
DIVIDE
 62
     7
 48
3.0
100
AcDbLine
 10
2122.07007532206
 20
480.1546217132897
 30
0.0
 11
2122.07007532206
 21
880.1546217132898
 31
0.0
  0
LINE
  5
BC4
330
1F
100
AcDbEntity
  8
1
  6
DIVIDE
 62
     7
 48
3.0
100
AcDbLine
 10
1822.070075322059
 20
880.1546217132898
 30
0.0
 11
1822.070075322059
 21
480.1546217132897
 31
0.0
  0
DIMENSION
  5
BC5
330
1F
100
AcDbEntity
  8
1
  6
Continuous
 62
     7
100
AcDbDimension
  2
*D25
 10
1746.129750705037
 20
580.1546217132899
 30
0.0
 11
1731.129750705037
 21
730.1546217132901
 31
0.0
 70
    32
 71
     5
 42
299.9999999999999
  3
IGS
100
AcDbAlignedDimension
 13
1763.51068708476
 23
880.1546217132898
 33
0.0
 14
1910.07007532206
 24
580.1546217132897
 34
0.0
 50
90.0
100
AcDbRotatedDimension
1001
ACAD
1000
DSTYLE
1002
{
1070
    40
1040
4.0
1070
   178
1070
     2
1070
   177
1070
     3
1070
   176
1070
     3
1002
}
  0
DIMENSION
  5
BC6
330
1F
100
AcDbEntity
  8
1
  6
Continuous
 62
     7
100
AcDbDimension
  2
*D26
 10
1746.129750705037
 20
880.1546217132898
 30
0.0
 11
1731.129750705037
 21
1280.15462171329
 31
0.0
 70
    32
 71
     5
 42
799.9999999999999
  3
IGS
100
AcDbAlignedDimension
 13
1972.07007532206
 23
1680.154621713289
 33
0.0
 14
1763.51068708476
 24
880.1546217132898
 34
0.0
 50
90.0
100
AcDbRotatedDimension
1001
ACAD
1000
DSTYLE
1002
{
1070
    40
1040
4.0
1070
   178
1070
     2
1070
   177
1070
     3
1070
   176
1070
     3
1002
}
  0
LINE
  5
BC7
330
1F
100
AcDbEntity
  8
1
  6
Continuous
 62
     7
 48
3.0
100
AcDbLine
 10
2191.54456243736
 20
859.7305792268898
 30
0.0
 11
2181.33254119416
 21
849.5185579836897
 31
0.0
  0
LINE
  5
BC8
330
1F
100
AcDbEntity
  8
1
  6
Continuous
 62
     7
 48
3.0
100
AcDbLine
 10
2130.27243497826
 20
880.1546217132898
 30
0.0
 11
2122.01934012286
 21
871.9015268578898
 31
0.0
  0
LINE
  5
BC9
330
1F
100
AcDbEntity
  8
1
  6
Continuous
 62
     7
 48
3.0
100
AcDbLine
 10
2140.48445622146
 20
869.9426004700898
 30
0.0
 11
2122.01934012286
 21
851.4774843714898
 31
0.0
  0
LINE
  5
BCA
330
1F
100
AcDbEntity
  8
1
  6
Continuous
 62
     7
 48
3.0
100
AcDbLine
 10
2150.69647746466
 20
859.7305792268898
 30
0.0
 11
2140.48445622146
 21
849.5185579836897
 31
0.0
  0
LINE
  5
BCB
330
1F
100
AcDbEntity
  8
1
  6
Continuous
 62
     7
 48
3.0
100
AcDbLine
 10
2130.27243497826
 20
880.1546217132898
 30
0.0
 11
2160.90849870776
 21
849.5185579837897
 31
0.0
  0
LINE
  5
BCC
330
1F
100
AcDbEntity
  8
1
  6
Continuous
 62
     7
 48
3.0
100
AcDbLine
 10
2150.69647746466
 20
880.1546217132898
 30
0.0
 11
2171.12051995096
 21
859.7305792268898
 31
0.0
  0
LINE
  5
BCD
330
1F
100
AcDbEntity
  8
1
  6
Continuous
 62
     7
 48
3.0
100
AcDbLine
 10
2171.12051995096
 20
880.1546217132898
 30
0.0
 11
2181.33254119416
 21
869.9426004700898
 31
0.0
  0
LINE
  5
BCE
330
1F
100
AcDbEntity
  8
1
  6
Continuous
 62
     7
 48
3.0
100
AcDbLine
 10
2191.54456243736
 20
880.1546217132898
 30
0.0
 11
2160.90849870776
 21
849.5185579836897
 31
0.0
  0
LINE
  5
BD1
330
1F
100
AcDbEntity
  8
7
 48
3.0
100
AcDbLine
 10
1972.07007532206
 20
960.1546217132897
 30
0.0
 11
1972.07007532206
 21
365.1546217132898
 31
0.0
  0
LINE
  5
BE4
330
1F
100
AcDbEntity
  8
7
 48
3.0
100
AcDbLine
 10
1972.07007532206
 20
1697.07927157129
 30
0.0
 11
1972.07007532206
 21
1530.15462171329
 31
0.0
  0
LINE
  5
BE5
330
1F
100
AcDbEntity
  8
1
  6
DIVIDE
 62
     7
 48
3.0
100
AcDbLine
 10
2034.07007532206
 20
880.1546217132898
 30
0.0
 11
2223.08591088286
 21
880.1546217132898
 31
0.0
  0
TEXT
  5
BE6
330
1F
100
AcDbEntity
  8
1
  6
Continuous
 62
     7
100
AcDbText
 10
1041.431028874252
 20
28.50317392052818
 30
0.0
 40
20.0
  1

 41
0.6193548387096774
 72
     5
 11
1169.431028874252
 21
28.50317392052818
 31
0.0
100
AcDbText
  0
TEXT
  5
BE7
330
1F
100
AcDbEntity
  8
1
  6
Continuous
 62
     7
100
AcDbText
 10
1049.025746874253
 20
109.5031739205282
 30
0.0
 40
22.0
  1

 41
0.3796555867040444
 72
     5
 11
1175.425746874253
 21
109.5031739205282
 31
0.0
100
AcDbText
  0
TEXT
  5
BE8
330
1F
100
AcDbEntity
  8
1
  6
Continuous
 62
     7
100
AcDbText
 10
788.2310288742528
 20
84.50317392052818
 30
0.0
 40
12.0
  1

 41
0.5384615384615383
 72
     5
 11
838.6310288742528
 21
84.50317392052818
 31
0.0
100
AcDbText
  0
TEXT
  5
BE9
330
1F
100
AcDbEntity
  8
1
  6
Continuous
 62
     7
100
AcDbText
 10
817.6086818742527
 20
109.5031739205282
 30
0.0
 40
22.0
  1

 41
0.9654062751407879
 72
     5
 11
977.6086818742527
 21
109.5031739205282
 31
0.0
100
AcDbText
  0
TEXT
  5
BEE
330
1F
100
AcDbEntity
  8
1
  6
Continuous
 62
     7
100
AcDbText
 10
797.6762658742527
 20
62.22270292052818
 30
0.0
 40
16.0
  1

 41
0.9375000000000001
 72
     5
 11
829.6762658742528
 21
62.22270292052818
 31
0.0
100
AcDbText
  0
LINE
  5
BEF
330
1F
100
AcDbEntity
  8
7
 48
3.0
100
AcDbLine
 10
2710.21291646431
 20
1355.26634164679
 30
0.0
 11
2431.30750804091
 21
1355.26634164679
 31
0.0
  0
LINE
  5
BF0
330
1F
100
AcDbEntity
  8
2
  6
Continuous
 62
     7
 48
3.0
100
AcDbLine
 10
2671.149068405311
 20
1414.26634164679
 30
0.0
 11
2627.95807075881
 21
1457.45733929329
 31
0.0
  0
LINE
  5
BF1
330
1F
100
AcDbEntity
  8
2
  6
Continuous
 62
     7
 48
3.0
100
AcDbLine
 10
2627.95807075881
 20
1253.07534400019
 30
0.0
 11
2671.149068405311
 21
1296.26634164679
 31
0.0
  0
LINE
  5
BF2
330
1F
100
AcDbEntity
  8
2
  6
Continuous
 62
     7
 48
3.0
100
AcDbLine
 10
2466.767073112211
 20
1296.26634164679
 30
0.0
 11
2509.95807075881
 21
1253.07534400019
 31
0.0
  0
LINE
  5
BF3
330
1F
100
AcDbEntity
  8
2
  6
Continuous
 62
     7
 48
3.0
100
AcDbLine
 10
2450.95807075881
 20
1355.26634164679
 30
0.0
 11
2466.767073112211
 21
1296.26634164679
 31
0.0
  0
LINE
  5
BF4
330
1F
100
AcDbEntity
  8
2
  6
Continuous
 62
     7
 48
3.0
100
AcDbLine
 10
2466.767073112211
 20
1414.26634164679
 30
0.0
 11
2450.95807075881
 21
1355.26634164679
 31
0.0
  0
LINE
  5
BF5
330
1F
100
AcDbEntity
  8
2
  6
Continuous
 62
     7
 48
3.0
100
AcDbLine
 10
2509.95807075881
 20
1457.45733929329
 30
0.0
 11
2466.767073112211
 21
1414.26634164679
 31
0.0
  0
LINE
  5
BF6
330
1F
100
AcDbEntity
  8
2
  6
Continuous
 62
     7
 48
3.0
100
AcDbLine
 10
2686.95807075881
 20
1355.26634164679
 30
0.0
 11
2671.149068405311
 21
1414.26634164679
 31
0.0
  0
LINE
  5
BF7
330
1F
100
AcDbEntity
  8
2
  6
Continuous
 62
     7
 48
3.0
100
AcDbLine
 10
2671.149068405311
 20
1296.26634164679
 30
0.0
 11
2686.95807075881
 21
1355.26634164679
 31
0.0
  0
DIMENSION
  5
BF8
330
1F
100
AcDbEntity
  8
1
  6
Continuous
 62
     2
100
AcDbDimension
  2
*D27
 10
2288.596564893226
 20
380.1546217132897
 30
0.0
 11
2273.596564893226
 21
430.1546217132901
 31
0.0
 70
    32
 71
     5
 42
100.0
  3
IGS
100
AcDbAlignedDimension
 13
2172.07007532206
 23
480.1546217132898
 33
0.0
 14
2172.07007532206
 24
380.1546217132898
 34
0.0
 50
90.0
100
AcDbRotatedDimension
1001
ACAD
1000
DSTYLE
1002
{
1070
    40
1040
4.0
1070
   178
1070
     2
1070
   177
1070
     3
1070
   176
1070
     3
1002
}
  0
DIMENSION
  5
BF9
330
1F
100
AcDbEntity
  8
1
  6
Continuous
 62
     2
100
AcDbDimension
  2
*D28
 10
2288.596564893226
 20
480.1546217132897
 30
0.0
 11
2273.596564893226
 21
680.1546217132901
 31
0.0
 70
    32
 71
     5
 42
400.0
  3
IGS
100
AcDbAlignedDimension
 13
2223.08591088286
 23
880.1546217132898
 33
0.0
 14
2172.07007532206
 24
480.1546217132898
 34
0.0
 50
90.0
100
AcDbRotatedDimension
1001
ACAD
1000
DSTYLE
1002
{
1070
    40
1040
4.0
1070
   178
1070
     2
1070
   177
1070
     3
1070
   176
1070
     3
1002
}
  0
DIMENSION
  5
BFA
330
1F
100
AcDbEntity
  8
1
  6
Continuous
 62
     7
100
AcDbDimension
  2
*D29
 10
1708.158918538
 20
580.1546217132899
 30
0.0
 11
1693.158918538
 21
1130.15462171329
 31
0.0
 70
    32
 71
     5
 42
1100.0
  3
IGS
100
AcDbAlignedDimension
 13
1972.07007532206
 23
1680.154621713289
 33
0.0
 14
1910.07007532206
 24
580.1546217132897
 34
0.0
 50
90.0
100
AcDbRotatedDimension
1001
ACAD
1000
DSTYLE
1002
{
1070
    40
1040
4.0
1070
   178
1070
     2
1070
   177
1070
     3
1070
   176
1070
     3
1002
}
  0
DIMENSION
  5
BFC
330
1F
100
AcDbEntity
  8
1
  6
Continuous
 62
     7
100
AcDbDimension
  2
*D30
 10
2031.07007532206
 20
1702.868208593023
 30
0.0
 11
1972.07007532206
 21
1717.868208593023
 31
0.0
 70
    32
  1
%%c<>
 71
     5
 42
118.0
  3
IGS
100
AcDbAlignedDimension
 13
1913.07007532206
 23
1630.15462171329
 33
0.0
 14
2031.07007532206
 24
1630.15462171329
 34
0.0
100
AcDbRotatedDimension
1001
ACAD
1000
DSTYLE
1002
{
1070
    40
1040
4.0
1070
   178
1070
     2
1070
   177
1070
     3
1070
   176
1070
     3
1002
}
  0
DIMENSION
  5
BFE
330
1F
100
AcDbEntity
  8
1
  6
Continuous
 62
     7
100
AcDbDimension
  2
*D31
 10
1822.070075322059
 20
319.3583798572299
 30
0.0
 11
1972.07007532206
 21
334.3583798572299
 31
0.0
 70
    32
  1
{\Famgdt;o}<>
 71
     5
 42
300.0
  3
IGS
100
AcDbAlignedDimension
 13
2122.07007532206
 23
480.1546217132898
 33
0.0
 14
1822.070075322059
 24
480.1546217132898
 34
0.0
100
AcDbRotatedDimension
1001
ACAD
1000
DSTYLE
1002
{
1070
    40
1040
4.0
1070
   178
1070
     2
1070
   177
1070
     3
1070
   176
1070
     3
1002
}
  0
TEXT
  5
BFF
330
1F
100
AcDbEntity
  8
1
  6
Continuous
 62
     7
100
AcDbText
 10
2164.72578647106
 20
883.9602319899897
 30
0.0
 40
24.0
  1
ＧＬ
 41
0.9166666666666666
 72
     5
 11
2208.72578647106
 21
883.9602319899897
 31
0.0
100
AcDbText
  0
LINE
  5
C00
330
1F
100
AcDbEntity
  8
1
  6
Continuous
 62
     7
 48
3.0
100
AcDbLine
 10
1793.50169815116
 20
480.1546217132897
 30
0.0
 11
1801.54017392406
 21
450.1546217132897
 31
0.0
  0
LINE
  5
C01
330
1F
100
AcDbEntity
  8
1
  6
Continuous
 62
     7
 48
3.0
100
AcDbLine
 10
1790.82220622676
 20
410.1546217132897
 30
0.0
 11
1798.86068199976
 21
380.1546217132898
 31
0.0
  0
LINE
  5
C02
330
1F
100
AcDbEntity
  8
1
  6
Continuous
 62
     7
 48
3.0
100
AcDbLine
 10
1809.57864969696
 20
480.1546217132897
 30
0.0
 11
1782.78373045386
 21
380.1546217132898
 31
0.0
  0
LINE
  5
C03
330
1F
100
AcDbEntity
  8
1
  6
Continuous
 62
     7
 48
3.0
100
AcDbLine
 10
1843.50169815116
 20
480.1546217132897
 30
0.0
 11
1851.54017392406
 21
450.1546217132897
 31
0.0
  0
LINE
  5
C04
330
1F
100
AcDbEntity
  8
1
  6
Continuous
 62
     7
 48
3.0
100
AcDbLine
 10
1840.82220622676
 20
410.1546217132897
 30
0.0
 11
1848.86068199976
 21
380.1546217132898
 31
0.0
  0
LINE
  5
C05
330
1F
100
AcDbEntity
  8
1
  6
Continuous
 62
     7
 48
3.0
100
AcDbLine
 10
1859.57864969696
 20
480.1546217132897
 30
0.0
 11
1832.78373045386
 21
380.1546217132898
 31
0.0
  0
LINE
  5
C06
330
1F
100
AcDbEntity
  8
1
  6
Continuous
 62
     7
 48
3.0
100
AcDbLine
 10
1893.50169815116
 20
480.1546217132897
 30
0.0
 11
1901.54017392406
 21
450.1546217132897
 31
0.0
  0
LINE
  5
C07
330
1F
100
AcDbEntity
  8
1
  6
Continuous
 62
     7
 48
3.0
100
AcDbLine
 10
1890.82220622676
 20
410.1546217132897
 30
0.0
 11
1898.86068199976
 21
380.1546217132898
 31
0.0
  0
LINE
  5
C08
330
1F
100
AcDbEntity
  8
1
  6
Continuous
 62
     7
 48
3.0
100
AcDbLine
 10
1909.57864969696
 20
480.1546217132897
 30
0.0
 11
1882.78373045386
 21
380.1546217132898
 31
0.0
  0
LINE
  5
C09
330
1F
100
AcDbEntity
  8
1
  6
Continuous
 62
     7
 48
3.0
100
AcDbLine
 10
1943.50169815116
 20
480.1546217132897
 30
0.0
 11
1951.54017392406
 21
450.1546217132897
 31
0.0
  0
LINE
  5
C0A
330
1F
100
AcDbEntity
  8
1
  6
Continuous
 62
     7
 48
3.0
100
AcDbLine
 10
1940.82220622676
 20
410.1546217132897
 30
0.0
 11
1948.86068199976
 21
380.1546217132898
 31
0.0
  0
LINE
  5
C0B
330
1F
100
AcDbEntity
  8
1
  6
Continuous
 62
     7
 48
3.0
100
AcDbLine
 10
1959.57864969696
 20
480.1546217132897
 30
0.0
 11
1932.783730453859
 21
380.1546217132898
 31
0.0
  0
LINE
  5
C0C
330
1F
100
AcDbEntity
  8
1
  6
Continuous
 62
     7
 48
3.0
100
AcDbLine
 10
1993.50169815116
 20
480.1546217132897
 30
0.0
 11
2001.54017392406
 21
450.1546217132897
 31
0.0
  0
LINE
  5
C0D
330
1F
100
AcDbEntity
  8
1
  6
Continuous
 62
     7
 48
3.0
100
AcDbLine
 10
1990.822206226759
 20
410.1546217132897
 30
0.0
 11
1998.86068199976
 21
380.1546217132898
 31
0.0
  0
LINE
  5
C0E
330
1F
100
AcDbEntity
  8
1
  6
Continuous
 62
     7
 48
3.0
100
AcDbLine
 10
2009.57864969696
 20
480.1546217132897
 30
0.0
 11
1982.78373045386
 21
380.1546217132898
 31
0.0
  0
LINE
  5
C0F
330
1F
100
AcDbEntity
  8
1
  6
Continuous
 62
     7
 48
3.0
100
AcDbLine
 10
2043.50169815116
 20
480.1546217132897
 30
0.0
 11
2051.54017392406
 21
450.1546217132897
 31
0.0
  0
LINE
  5
C10
330
1F
100
AcDbEntity
  8
1
  6
Continuous
 62
     7
 48
3.0
100
AcDbLine
 10
2040.82220622676
 20
410.1546217132897
 30
0.0
 11
2048.86068199976
 21
380.1546217132898
 31
0.0
  0
LINE
  5
C11
330
1F
100
AcDbEntity
  8
1
  6
Continuous
 62
     7
 48
3.0
100
AcDbLine
 10
2059.57864969696
 20
480.1546217132897
 30
0.0
 11
2032.78373045386
 21
380.1546217132898
 31
0.0
  0
LINE
  5
C12
330
1F
100
AcDbEntity
  8
1
  6
Continuous
 62
     7
 48
3.0
100
AcDbLine
 10
2093.50169815116
 20
480.1546217132897
 30
0.0
 11
2101.54017392406
 21
450.1546217132897
 31
0.0
  0
LINE
  5
C13
330
1F
100
AcDbEntity
  8
1
  6
Continuous
 62
     7
 48
3.0
100
AcDbLine
 10
2090.82220622676
 20
410.1546217132897
 30
0.0
 11
2098.86068199976
 21
380.1546217132898
 31
0.0
  0
LINE
  5
C14
330
1F
100
AcDbEntity
  8
1
  6
Continuous
 62
     7
 48
3.0
100
AcDbLine
 10
2109.57864969696
 20
480.1546217132897
 30
0.0
 11
2082.78373045386
 21
380.1546217132898
 31
0.0
  0
LINE
  5
C15
330
1F
100
AcDbEntity
  8
1
  6
Continuous
 62
     7
 48
3.0
100
AcDbLine
 10
2143.50169815116
 20
480.1546217132897
 30
0.0
 11
2151.54017392406
 21
450.1546217132897
 31
0.0
  0
LINE
  5
C16
330
1F
100
AcDbEntity
  8
1
  6
Continuous
 62
     7
 48
3.0
100
AcDbLine
 10
2140.82220622676
 20
410.1546217132897
 30
0.0
 11
2148.86068199976
 21
380.1546217132898
 31
0.0
  0
LINE
  5
C17
330
1F
100
AcDbEntity
  8
1
  6
Continuous
 62
     7
 48
3.0
100
AcDbLine
 10
2159.57864969696
 20
480.1546217132897
 30
0.0
 11
2132.78373045386
 21
380.1546217132898
 31
0.0
  0
ARC
  5
C21
330
1F
100
AcDbEntity
  8
1
  6
Continuous
 62
     7
100
AcDbCircle
 10
1972.07007532206
 20
1620.344621713289
 30
0.0
 40
59.81
100
AcDbArc
 50
9.440273862100211
 51
170.5597261378998
  0
LINE
  5
C22
330
1F
100
AcDbEntity
  8
1
  6
Continuous
 62
     7
 48
3.0
100
AcDbLine
 10
2001.57007532206
 20
960.1546217132897
 30
0.0
 11
2001.57007532206
 21
1530.15462171329
 31
0.0
  0
LINE
  5
C23
330
1F
100
AcDbEntity
  8
1
  6
Continuous
 62
     7
 48
3.0
100
AcDbLine
 10
2023.16557414526
 20
960.1546217132897
 30
0.0
 11
2023.16557414526
 21
1530.15462171329
 31
0.0
  0
LINE
  5
C24
330
1F
100
AcDbEntity
  8
1
  6
Continuous
 62
     7
 48
3.0
100
AcDbLine
 10
1942.57007532206
 20
960.1546217132897
 30
0.0
 11
1942.57007532206
 21
1530.15462171329
 31
0.0
  0
LINE
  5
C25
330
1F
100
AcDbEntity
  8
1
  6
Continuous
 62
     7
 48
3.0
100
AcDbLine
 10
1920.97457649876
 20
960.1546217132897
 30
0.0
 11
1920.97457649876
 21
1530.15462171329
 31
0.0
  0
LINE
  5
C26
330
1F
100
AcDbEntity
  8
1
  6
Continuous
 62
     7
 48
3.0
100
AcDbLine
 10
2031.07007532206
 20
930.1546217132898
 30
0.0
 11
2031.07007532206
 21
1527.15462171329
 31
0.0
  0
LINE
  5
C27
330
1F
100
AcDbEntity
  8
1
  6
Continuous
 62
     7
 48
3.0
100
AcDbLine
 10
1913.07007532206
 20
930.1546217132898
 30
0.0
 11
1913.07007532206
 21
1527.15462171329
 31
0.0
  0
LINE
  5
C28
330
1F
100
AcDbEntity
  8
1
  6
Continuous
 62
     7
 48
3.0
100
AcDbLine
 10
2028.07007532206
 20
1530.15462171329
 30
0.0
 11
1916.07007532206
 21
1530.15462171329
 31
0.0
  0
LINE
  5
C29
330
1F
100
AcDbEntity
  8
1
  6
Continuous
 62
     7
 48
3.0
100
AcDbLine
 10
1916.07007532206
 20
1540.15462171329
 30
0.0
 11
2028.07007532206
 21
1540.15462171329
 31
0.0
  0
LINE
  5
C2A
330
1F
100
AcDbEntity
  8
1
  6
Continuous
 62
     7
 48
3.0
100
AcDbLine
 10
2028.07007532206
 20
1560.15462171329
 30
0.0
 11
1916.07007532206
 21
1560.15462171329
 31
0.0
  0
LINE
  5
C2B
330
1F
100
AcDbEntity
  8
1
  6
Continuous
 62
     7
 48
3.0
100
AcDbLine
 10
1916.07007532206
 20
1570.15462171329
 30
0.0
 11
2028.07007532206
 21
1570.15462171329
 31
0.0
  0
LINE
  5
C2C
330
1F
100
AcDbEntity
  8
1
  6
Continuous
 62
     7
 48
3.0
100
AcDbLine
 10
2028.07007532206
 20
1590.15462171329
 30
0.0
 11
1916.07007532206
 21
1590.15462171329
 31
0.0
  0
LINE
  5
C2D
330
1F
100
AcDbEntity
  8
1
  6
Continuous
 62
     7
 48
3.0
100
AcDbLine
 10
1916.07007532206
 20
1600.15462171329
 30
0.0
 11
2028.07007532206
 21
1600.15462171329
 31
0.0
  0
ARC
  5
C2E
330
1F
100
AcDbEntity
  8
1
  6
Continuous
 62
     7
100
AcDbCircle
 10
1918.07007532206
 20
1532.15462171329
 30
0.0
 40
2.0
100
AcDbArc
 50
270.0
 51
0.0
  0
LINE
  5
C2F
330
1F
100
AcDbEntity
  8
1
  6
Continuous
 62
     7
 48
3.0
100
AcDbLine
 10
1920.07007532206
 20
1532.15462171329
 30
0.0
 11
1920.07007532206
 21
1538.15462171329
 31
0.0
  0
ARC
  5
C30
330
1F
100
AcDbEntity
  8
1
  6
Continuous
 62
     7
100
AcDbCircle
 10
1918.07007532206
 20
1538.15462171329
 30
0.0
 40
2.0
100
AcDbArc
 50
0.0
 51
90.0
  0
ARC
  5
C31
330
1F
100
AcDbEntity
  8
1
  6
Continuous
 62
     7
100
AcDbCircle
 10
1916.07007532206
 20
1527.15462171329
 30
0.0
 40
3.0
100
AcDbArc
 50
90.0
 51
180.0
  0
ARC
  5
C32
330
1F
100
AcDbEntity
  8
1
  6
Continuous
 62
     7
100
AcDbCircle
 10
1918.07007532206
 20
1562.15462171329
 30
0.0
 40
2.0
100
AcDbArc
 50
270.0
 51
0.0
  0
LINE
  5
C33
330
1F
100
AcDbEntity
  8
1
  6
Continuous
 62
     7
 48
3.0
100
AcDbLine
 10
1920.07007532206
 20
1562.15462171329
 30
0.0
 11
1920.07007532206
 21
1568.15462171329
 31
0.0
  0
ARC
  5
C34
330
1F
100
AcDbEntity
  8
1
  6
Continuous
 62
     7
100
AcDbCircle
 10
1918.07007532206
 20
1568.15462171329
 30
0.0
 40
2.0
100
AcDbArc
 50
0.0
 51
90.0
  0
ARC
  5
C35
330
1F
100
AcDbEntity
  8
1
  6
Continuous
 62
     7
100
AcDbCircle
 10
1916.07007532206
 20
1543.15462171329
 30
0.0
 40
3.0
100
AcDbArc
 50
180.0
 51
270.0
  0
LINE
  5
C36
330
1F
100
AcDbEntity
  8
1
  6
Continuous
 62
     7
 48
3.0
100
AcDbLine
 10
1913.07007532206
 20
1543.15462171329
 30
0.0
 11
1913.07007532206
 21
1557.15462171329
 31
0.0
  0
ARC
  5
C37
330
1F
100
AcDbEntity
  8
1
  6
Continuous
 62
     7
100
AcDbCircle
 10
1916.07007532206
 20
1557.15462171329
 30
0.0
 40
3.0
100
AcDbArc
 50
90.0
 51
180.0
  0
ARC
  5
C38
330
1F
100
AcDbEntity
  8
1
  6
Continuous
 62
     7
100
AcDbCircle
 10
1918.07007532206
 20
1592.15462171329
 30
0.0
 40
2.0
100
AcDbArc
 50
270.0
 51
0.0
  0
LINE
  5
C39
330
1F
100
AcDbEntity
  8
1
  6
Continuous
 62
     7
 48
3.0
100
AcDbLine
 10
1920.07007532206
 20
1592.15462171329
 30
0.0
 11
1920.07007532206
 21
1598.15462171329
 31
0.0
  0
ARC
  5
C3A
330
1F
100
AcDbEntity
  8
1
  6
Continuous
 62
     7
100
AcDbCircle
 10
1918.07007532206
 20
1598.15462171329
 30
0.0
 40
2.0
100
AcDbArc
 50
0.0
 51
90.0
  0
ARC
  5
C3B
330
1F
100
AcDbEntity
  8
1
  6
Continuous
 62
     7
100
AcDbCircle
 10
1916.07007532206
 20
1573.15462171329
 30
0.0
 40
3.0
100
AcDbArc
 50
180.0
 51
270.0
  0
LINE
  5
C3C
330
1F
100
AcDbEntity
  8
1
  6
Continuous
 62
     7
 48
3.0
100
AcDbLine
 10
1913.07007532206
 20
1573.15462171329
 30
0.0
 11
1913.07007532206
 21
1587.15462171329
 31
0.0
  0
ARC
  5
C3D
330
1F
100
AcDbEntity
  8
1
  6
Continuous
 62
     7
100
AcDbCircle
 10
1916.07007532206
 20
1587.15462171329
 30
0.0
 40
3.0
100
AcDbArc
 50
90.0
 51
180.0
  0
ARC
  5
C3E
330
1F
100
AcDbEntity
  8
1
  6
Continuous
 62
     7
100
AcDbCircle
 10
1916.07007532206
 20
1603.15462171329
 30
0.0
 40
3.0
100
AcDbArc
 50
180.0
 51
270.0
  0
LINE
  5
C3F
330
1F
100
AcDbEntity
  8
1
  6
Continuous
 62
     7
 48
3.0
100
AcDbLine
 10
1913.07007532206
 20
1603.15462171329
 30
0.0
 11
1913.07007532206
 21
1630.15462171329
 31
0.0
  0
ARC
  5
C40
330
1F
100
AcDbEntity
  8
1
  6
Continuous
 62
     7
100
AcDbCircle
 10
2026.07007532206
 20
1532.15462171329
 30
0.0
 40
2.0
100
AcDbArc
 50
180.0
 51
270.0
  0
LINE
  5
C41
330
1F
100
AcDbEntity
  8
1
  6
Continuous
 62
     7
 48
3.0
100
AcDbLine
 10
2024.07007532206
 20
1532.15462171329
 30
0.0
 11
2024.07007532206
 21
1538.15462171329
 31
0.0
  0
ARC
  5
C42
330
1F
100
AcDbEntity
  8
1
  6
Continuous
 62
     7
100
AcDbCircle
 10
2026.07007532206
 20
1538.15462171329
 30
0.0
 40
2.0
100
AcDbArc
 50
90.0
 51
180.0
  0
ARC
  5
C43
330
1F
100
AcDbEntity
  8
1
  6
Continuous
 62
     7
100
AcDbCircle
 10
2028.07007532206
 20
1527.15462171329
 30
0.0
 40
3.0
100
AcDbArc
 50
0.0
 51
90.0
  0
ARC
  5
C44
330
1F
100
AcDbEntity
  8
1
  6
Continuous
 62
     7
100
AcDbCircle
 10
2026.07007532206
 20
1562.15462171329
 30
0.0
 40
2.0
100
AcDbArc
 50
180.0
 51
270.0
  0
LINE
  5
C45
330
1F
100
AcDbEntity
  8
1
  6
Continuous
 62
     7
 48
3.0
100
AcDbLine
 10
2024.07007532206
 20
1562.15462171329
 30
0.0
 11
2024.07007532206
 21
1568.15462171329
 31
0.0
  0
ARC
  5
C46
330
1F
100
AcDbEntity
  8
1
  6
Continuous
 62
     7
100
AcDbCircle
 10
2026.07007532206
 20
1568.15462171329
 30
0.0
 40
2.0
100
AcDbArc
 50
90.0
 51
180.0
  0
ARC
  5
C47
330
1F
100
AcDbEntity
  8
1
  6
Continuous
 62
     7
100
AcDbCircle
 10
2028.07007532206
 20
1543.15462171329
 30
0.0
 40
3.0
100
AcDbArc
 50
270.0
 51
0.0
  0
LINE
  5
C48
330
1F
100
AcDbEntity
  8
1
  6
Continuous
 62
     7
 48
3.0
100
AcDbLine
 10
2031.07007532206
 20
1543.15462171329
 30
0.0
 11
2031.07007532206
 21
1557.15462171329
 31
0.0
  0
ARC
  5
C49
330
1F
100
AcDbEntity
  8
1
  6
Continuous
 62
     7
100
AcDbCircle
 10
2028.07007532206
 20
1557.15462171329
 30
0.0
 40
3.0
100
AcDbArc
 50
0.0
 51
90.0
  0
ARC
  5
C4A
330
1F
100
AcDbEntity
  8
1
  6
Continuous
 62
     7
100
AcDbCircle
 10
2026.07007532206
 20
1592.15462171329
 30
0.0
 40
2.0
100
AcDbArc
 50
180.0
 51
270.0
  0
LINE
  5
C4B
330
1F
100
AcDbEntity
  8
1
  6
Continuous
 62
     7
 48
3.0
100
AcDbLine
 10
2024.07007532206
 20
1592.15462171329
 30
0.0
 11
2024.07007532206
 21
1598.15462171329
 31
0.0
  0
ARC
  5
C4C
330
1F
100
AcDbEntity
  8
1
  6
Continuous
 62
     7
100
AcDbCircle
 10
2026.07007532206
 20
1598.15462171329
 30
0.0
 40
2.0
100
AcDbArc
 50
90.0
 51
180.0
  0
ARC
  5
C4D
330
1F
100
AcDbEntity
  8
1
  6
Continuous
 62
     7
100
AcDbCircle
 10
2028.07007532206
 20
1573.15462171329
 30
0.0
 40
3.0
100
AcDbArc
 50
270.0
 51
0.0
  0
LINE
  5
C4E
330
1F
100
AcDbEntity
  8
1
  6
Continuous
 62
     7
 48
3.0
100
AcDbLine
 10
2031.07007532206
 20
1573.15462171329
 30
0.0
 11
2031.07007532206
 21
1587.15462171329
 31
0.0
  0
ARC
  5
C4F
330
1F
100
AcDbEntity
  8
1
  6
Continuous
 62
     7
100
AcDbCircle
 10
2028.07007532206
 20
1587.15462171329
 30
0.0
 40
3.0
100
AcDbArc
 50
0.0
 51
90.0
  0
ARC
  5
C50
330
1F
100
AcDbEntity
  8
1
  6
Continuous
 62
     7
100
AcDbCircle
 10
2028.07007532206
 20
1603.15462171329
 30
0.0
 40
3.0
100
AcDbArc
 50
270.0
 51
0.0
  0
LINE
  5
C51
330
1F
100
AcDbEntity
  8
1
  6
Continuous
 62
     7
 48
3.0
100
AcDbLine
 10
2031.07007532206
 20
1603.15462171329
 30
0.0
 11
2031.07007532206
 21
1630.15462171329
 31
0.0
  0
LINE
  5
C52
330
1F
100
AcDbEntity
  8
1
  6
Continuous
 62
     7
 48
3.0
100
AcDbLine
 10
1972.07007532206
 20
960.1546217132897
 30
0.0
 11
1972.07007532206
 21
1350.654621713283
 31
0.0
  0
LINE
  5
C53
330
1F
100
AcDbEntity
  8
1
  6
Continuous
 62
     7
 48
3.0
100
AcDbLine
 10
1913.07007532206
 20
960.1546217132897
 30
0.0
 11
2031.07007532206
 21
960.1546217132897
 31
0.0
  0
LINE
  5
C54
330
1F
100
AcDbEntity
  8
1
  6
Continuous
 62
     7
 48
3.0
100
AcDbLine
 10
2031.07007532206
 20
930.1546217132898
 30
0.0
 11
1913.07007532206
 21
930.1546217132898
 31
0.0
  0
LINE
  5
C55
330
1F
100
AcDbEntity
  8
1
  6
Continuous
 62
     7
 48
3.0
100
AcDbLine
 10
1910.07007532206
 20
580.1546217132897
 30
0.0
 11
2034.07007532206
 21
580.1546217132897
 31
0.0
  0
LINE
  5
C56
330
1F
100
AcDbEntity
  8
1
  6
PHANTOM
 62
     7
 48
3.0
100
AcDbLine
 10
1763.51068708476
 20
880.1546217132898
 30
0.0
 11
1910.07007532206
 21
880.1546217132898
 31
0.0
  0
ARC
  5
C57
330
1F
100
AcDbEntity
  8
1
  6
Continuous
 62
     7
100
AcDbCircle
 10
1913.07007532206
 20
927.1546217132897
 30
0.0
 40
3.0
100
AcDbArc
 50
90.0
 51
180.0
  0
LINE
  5
C58
330
1F
100
AcDbEntity
  8
1
  6
Continuous
 62
     7
 48
3.0
100
AcDbLine
 10
1910.07007532206
 20
927.1546217132897
 30
0.0
 11
1910.07007532206
 21
580.1546217132897
 31
0.0
  0
ARC
  5
C59
330
1F
100
AcDbEntity
  8
1
  6
Continuous
 62
     7
100
AcDbCircle
 10
2031.07007532206
 20
927.1546217132897
 30
0.0
 40
3.0
100
AcDbArc
 50
0.0
 51
90.0
  0
LINE
  5
C5A
330
1F
100
AcDbEntity
  8
1
  6
Continuous
 62
     7
 48
3.0
100
AcDbLine
 10
2034.07007532206
 20
927.1546217132897
 30
0.0
 11
2034.07007532206
 21
580.1546217132897
 31
0.0
  0
INSERT
  5
D3B
330
1F
100
AcDbEntity
  8
0
370
     0
100
AcDbBlockReference
  2
IGS_A3
 10
1632.022093824093
 20
1831.130667892049
 30
0.0
 41
4.0
 42
4.0
 43
4.0
 50
270.0
1001
GENIUS_GENOREF_13
1005
D45
1001
GENIUS_GENODEF_13
1002
{
1000
HIER
1070
     0
1002
}
1002
{
1000
MANEDIT
1070
     0
1002
}
1002
{
1000
NOSEL
1070
     0
1002
}
1002
{
1000
BEHIND
1070
     0
1002
}
1002
{
1000
OTHER
1070
     0
1002
}
1002
{
1000
REACTOR
1002
}
1001
GENIUS_GENOBJ-N-SDF_13
1002
{
1000
OWNER
1000
GEN
1002
}
1001
GENIUS_GENSCREG_15
1040
4.0
1040
1.0
1011
1632.022093824093
1021
1831.130667892049
1031
0.0
1011
2820.022093824093
1021
151.1306678920487
1031
0.0
1070
     3
  0
INSERT
  5
D3C
330
1F
100
AcDbEntity
  8
0
370
     0
100
AcDbBlockReference
 66
     1
  2
IGS2
 10
2780.022093824094
 20
191.1306678920487
 30
0.0
 41
4.0
 42
4.0
 43
4.0
1001
GENIUS_GENOREF_13
1005
D45
  0
ATTRIB
  5
D3E
330
D3C
100
AcDbEntity
  8
RAHM3
100
AcDbText
 10
2190.983746971351
 20
318.919823884793
 30
0.0
 40
16.0
  1
1:4
100
AcDbAttribute
  2
GEN-TITLE-SCA
 70
     0
  0
ATTRIB
  5
D3F
330
D3C
100
AcDbEntity
  8
RAHM3
100
AcDbText
 10
2487.662093824094
 20
310.0906678920487
 30
0.0
 40
20.0
  1
車止（固定式）
100
AcDbAttribute
  2
ＴＩＴＬＥ
 70
     0
  0
ATTRIB
  5
D40
330
D3C
100
AcDbEntity
  8
RAHM3
100
AcDbText
 10
2493.770581200732
 20
278.3482004005041
 30
0.0
 40
12.0
  1
ＩＧＰ－１２０Ｔ－００００
100
AcDbAttribute
  2
ｃｏｄｅ
 70
     0
  0
ATTRIB
  5
D41
330
D3C
100
AcDbEntity
  8
RAHM3
100
AcDbText
 10
2497.042867848241
 20
250.348200400475
 30
0.0
 40
12.0
  1

100
AcDbAttribute
  2
件名
 70
     0
  0
ATTRIB
  5
D42
330
D3C
100
AcDbEntity
  8
RAHM3
100
AcDbText
 10
2487.662093824094
 20
198.0906678920195
 30
0.0
 40
20.0
  1
Ｔ２１Ａ００１２２
100
AcDbAttribute
  2
Ｎｏ．
 70
     0
  0
ATTRIB
  5
D43
330
D3C
100
AcDbEntity
  8
RAHM3
100
AcDbText
 10
2378.222093824093
 20
260.7590251765549
 30
0.0
 40
16.0
  1
滝沢
100
AcDbAttribute
  2
ＤＲ
 70
     0
  0
ATTRIB
  5
D44
330
D3C
100
AcDbEntity
  8
RAHM3
100
AcDbText
 10
2365.149752608602
 20
242.2106678920487
 30
0.0
 40
12.0
  1
９６．１２．１
 41
0.8000000000000001
100
AcDbAttribute
  2
ｄａｔｅ
 70
     0
  0
SEQEND
  5
D3D
330
D3C
100
AcDbEntity
  8
0
370
     0
  0
POINT
  5
D45
330
1F
100
AcDbEntity
  8
0
 60
     1
100
AcDbPoint
 10
0.0
 20
0.0
 30
0.0
1001
GENIUS_GENODEF_13
1002
{
1000
HIER
1070
     1
1002
}
1002
{
1000
MANEDIT
1070
     0
1002
}
1002
{
1000
NOSEL
1070
     0
1002
}
1002
{
1000
BEHIND
1070
     0
1002
}
1002
{
1000
OTHER
1070
     0
1002
}
1002
{
1000
REACTOR
1002
}
1001
GENIUS_GENOLIS_13
1002
{
1000
ENT
1005
D3C
1005
D3B
1002
}
1001
GENIUS_GENOENT_13
1002
{
1000
MYREF
1005
D45
1002
}
1002
{
1000
GRP
1005
0
1002
}
1001
GENIUS_GENOBJ-N-TIT_13
1002
{
1000
OWNER
1000
GEN
1002
}
1001
GENIUS_GENTITLE_13
1002
{
1000
BORDER
1000
C:\WINNT\Profiles\Administrator\Application Data\Autodesk\AutoCAD\Recent\format\igs_a3
1002
}
1002
{
1000
TITLE
1000
C:\WINNT\Profiles\Administrator\Application Data\Autodesk\AutoCAD\Recent\format\IGS2
1002
}
1002
{
1000
SCALE
1000
1:4
1002
}
1002
{
1000
TITLESTD
1000
IGS
1002
}
1002
{
1000
HRA
1005
D3B
1002
}
1002
{
1000
HTIT
1005
D3C
1002
}
1002
{
1000
UNCHG
1002
{
1000
GEN-TITLE-SIZ
1000
GEN-TITLE-SCA
1002
}
1002
}
1002
{
1000
GENIUSID
1005
D45
1002
}
  0
DIMENSION
  5
F88
330
1F
100
AcDbEntity
  8
AM_5
100
AcDbDimension
  2
*D32
 10
2001.337449946993
 20
1637.528683852334
 30
0.0
 11
1949.337449946993
 21
1652.528683852334
 31
0.0
 70
    32
  1
%%c<>
 71
     5
 42
103.9999999999998
  3
IGS
100
AcDbAlignedDimension
 13
1920.07007532206
 23
1598.15462171329
 33
0.0
 14
2024.07007532206
 24
1598.154621713289
 34
0.0
100
AcDbRotatedDimension
1001
ACAD
1000
DSTYLE
1002
{
1070
    40
1040
4.0
1002
}
  0
HATCH
  5
104A
330
1F
100
AcDbEntity
  8
AM_8
100
AcDbHatch
 10
0.0
 20
0.0
 30
0.0
210
0.0
220
0.0
230
1.0
  2
PLAST
 70
     0
 71
     0
 91
        2
 92
        7
 72
     0
 73
     1
 93
        6
 10
2122.07007532206
 20
880.1546217132898
 10
2034.07007532206
 20
880.1546217132898
 10
2034.07007532206
 20
580.1546217132897
 10
1972.07007532206
 20
580.1546217132897
 10
1972.07007532206
 20
480.1546217132897
 10
2122.07007532206
 20
480.1546217132899
 97
        0
 92
        7
 72
     0
 73
     1
 93
        6
 10
1972.07007532206
 20
580.1546217132897
 10
1910.07007532206
 20
580.1546217132897
 10
1910.07007532206
 20
880.1546217132896
 10
1822.070075322059
 20
880.1546217132894
 10
1822.070075322059
 20
480.1546217132897
 10
1972.07007532206
 20
480.1546217132895
 97
        0
 75
     0
 76
     1
 52
45.0
 41
20.0
 77
     0
 78
     3
 53
45.0
 43
0.0
 44
0.0
 45
-89.80256121069151
 46
89.80256121069153
 79
     0
 53
45.0
 43
-11.22532015133644
 44
11.22532015133644
 45
-89.80256121069151
 46
89.80256121069153
 79
     0
 53
45.0
 43
-22.45064030267288
 44
22.45064030267288
 45
-89.80256121069151
 46
89.80256121069153
 79
     0
 47
0.9118517735611799
 98
        2
 10
2114.618429807764
 20
800.5932129684815
 10
1897.511097282914
 20
537.9799028599882
  0
INSERT
  5
10ED
330
1F
100
AcDbEntity
  8
AM_5
100
AcDbBlockReference
  2
*S42
 10
0.0
 20
0.0
 30
0.0
  0
INSERT
  5
1163
330
1F
100
AcDbEntity
  8
SUNPO
100
AcDbBlockReference
 66
     1
  2
Xsec
 10
2066.366011615059
 20
1381.831943892412
 30
0.0
 41
4.0
 42
4.0
 43
4.0
  0
ATTRIB
  5
1165
330
1163
100
AcDbEntity
  8
0
  6
Continuous
 62
     7
100
AcDbText
 10
2080.606011615059
 20
1367.431943892412
 30
0.0
 40
12.8
  1
A
 72
     4
 11
2086.366011615059
 21
1373.831943892412
 31
0.0
100
AcDbAttribute
  2
XSEC
 70
     0
  0
SEQEND
  5
1164
330
1163
100
AcDbEntity
  8
SUNPO
  0
DIMENSION
  5
11FC
330
1F
100
AcDbEntity
  8
AM_5
100
AcDbDimension
  2
*D41
 10
2064.510553406157
 20
979.879076361632
 30
0.0
 11
2002.510553406157
 21
994.8808480151754
 31
0.0
 70
    32
  1
%%c<>
 71
     5
 42
124.0
  3
IGS
100
AcDbAlignedDimension
 13
1910.07007532206
 23
927.1546217132897
 33
0.0
 14
2034.07007532206
 24
927.1546217132897
 34
0.0
100
AcDbRotatedDimension
1001
ACAD
1000
DSTYLE
1002
{
1070
    40
1040
4.0
1002
}
  0
TEXT
  5
1311
330
1F
100
AcDbEntity
  8
0
 60
     1
100
AcDbText
 10
3620.022093824093
 20
712.0299220773141
 30
0.0
 40
14.0
  1
!GENTITLE-MAX
100
AcDbText
  0
TEXT
  5
1312
330
1F
100
AcDbEntity
  8
0
 60
     1
100
AcDbText
 10
3600.022093824094
 20
672.0299220773141
 30
0.0
 40
14.0
  1
!GENTITLE-RU
100
AcDbText
  0
TEXT
  5
1313
330
1F
100
AcDbEntity
  8
0
 60
     1
100
AcDbText
 10
2840.022093824093
 20
-236.0100779226858
 30
0.0
 40
14.0
  1
!GENTITLE-LL
100
AcDbText
  0
TEXT
  5
1314
330
1F
100
AcDbEntity
  8
0
 60
     1
100
AcDbText
 10
3600.022093824094
 20
-455.9700779226858
 30
0.0
 40
14.0
  1
!GENTITLE-INSERT
100
AcDbText
  0
MTEXT
  5
1319
330
1F
100
AcDbEntity
  8
RAHM2
100
AcDbMText
 10
2466.432162569943
 20
-324.7711888685561
 30
0.0
 40
10.0
 41
9.832624961129113
 71
     1
 72
     5
  1

 73
     1
 44
1.0
  0
ATTDEF
  5
1353
330
1F
100
AcDbEntity
  8
RAHM3
100
AcDbText
 10
2265.149752608602
 20
242.2106678920487
 30
0.0
 40
12.0
  1

 41
0.8
100
AcDbAttributeDefinition
  3
日付
  2
９６．１２．１
 70
     0
  0
ATTDEF
  5
1354
330
1F
100
AcDbEntity
  8
RAHM3
100
AcDbText
 10
2365.149752608694
 20
298.2106678920542
 30
0.0
 40
12.0
  1

 41
0.8
100
AcDbAttributeDefinition
  3
日付
  2
９６．１２．１
 70
     0
  0
ATTDEF
  5
1355
330
1F
100
AcDbEntity
  8
RAHM3
100
AcDbText
 10
2265.149752608602
 20
298.210667892067
 30
0.0
 40
12.0
  1

 41
0.8
100
AcDbAttributeDefinition
  3
日付
  2
９６．１２．１
 70
     0
  0
ATTDEF
  5
1356
330
1F
100
AcDbEntity
  8
RAHM3
100
AcDbText
 10
2378.222093824185
 20
316.7590251765478
 30
0.0
 40
16.0
  1

100
AcDbAttributeDefinition
  3
製図者
  2
鈴木
 70
     0
  0
ATTDEF
  5
1357
330
1F
100
AcDbEntity
  8
RAHM3
100
AcDbText
 10
2278.222093824086
 20
316.7590251765732
 30
0.0
 40
16.0
  1

100
AcDbAttributeDefinition
  3
製図者
  2
篠崎
 70
     0
  0
ATTDEF
  5
1358
330
1F
100
AcDbEntity
  8
RAHM3
100
AcDbText
 10
2278.222093824086
 20
260.7590251765549
 30
0.0
 40
16.0
  1

100
AcDbAttributeDefinition
  3
製図者
  2
滝沢
 70
     0
  0
INSERT
  5
1381
102
{ACAD_REACTORS
330
137E
102
}
330
1F
100
AcDbEntity
  8
AM_12
100
AcDbBlockReference
  2
*S43
 10
0.0
 20
0.0
 30
0.0
  0
INSERT
  5
1388
102
{ACAD_REACTORS
330
1387
102
}
330
1F
100
AcDbEntity
  8
AM_5
100
AcDbBlockReference
  2
*S44
 10
0.0
 20
0.0
 30
0.0
  0
INSERT
  5
1389
102
{ACAD_REACTORS
330
4A6
102
}
330
1F
100
AcDbEntity
  8
0
100
AcDbBlockReference
  2
*S45
 10
0.0
 20
0.0
 30
0.0
  0
ENDSEC
  0
SECTION
  2
OBJECTS
  0
DICTIONARY
  5
C
330
0
100
AcDbDictionary
281
     1
  3
ACAD_COLOR
350
985
  3
ACAD_GROUP
350
D
  3
ACAD_LAYOUT
350
1A
  3
ACAD_MATERIAL
350
984
  3
ACAD_MLINESTYLE
350
17
  3
ACAD_PLOTSETTINGS
350
19
  3
ACAD_PLOTSTYLENAME
350
E
  3
AcDbVariableDictionary
350
43
  3
AcmDictionary
350
55
  3
AMG
350
2B
  3
AMGSNAPSETTINGS
350
A8
  3
ASE_INDEX_DICTIONARY
350
942
  0
DICTIONARY
  5
B1
330
1F
100
AcDbDictionary
280
     1
281
     1
  3
ACAD_INDEX
360
B2
  0
DICTIONARY
  5
985
102
{ACAD_REACTORS
330
C
102
}
330
C
100
AcDbDictionary
281
     1
  0
DICTIONARY
  5
D
102
{ACAD_REACTORS
330
C
102
}
330
C
100
AcDbDictionary
281
     1
  0
DICTIONARY
  5
1A
102
{ACAD_REACTORS
330
C
102
}
330
C
100
AcDbDictionary
281
     1
  3
Model
350
22
  3
ﾚｲｱｳﾄ1
350
1E
  3
ﾚｲｱｳﾄ2
350
26
  0
DICTIONARY
  5
984
102
{ACAD_REACTORS
330
C
102
}
330
C
100
AcDbDictionary
281
     1
  0
DICTIONARY
  5
17
102
{ACAD_REACTORS
330
C
102
}
330
C
100
AcDbDictionary
281
     1
  3
PL6
350
10AB
  3
Standard
350
18
  0
DICTIONARY
  5
19
102
{ACAD_REACTORS
330
C
102
}
330
C
100
AcDbDictionary
281
     1
  0
ACDBDICTIONARYWDFLT
  5
E
102
{ACAD_REACTORS
330
C
102
}
330
C
100
AcDbDictionary
281
     1
  3
Normal
350
F
100
AcDbDictionaryWithDefault
340
F
  0
DICTIONARY
  5
43
102
{ACAD_REACTORS
330
C
102
}
330
C
100
AcDbDictionary
281
     1
  3
INDEXCTL
350
44
  3
SORTENTS
350
774
  0
DICTIONARY
  5
55
102
{ACAD_REACTORS
330
C
102
}
330
C
100
AcDbDictionary
281
     1
  3
AcmBOM
350
3D1
  3
AcmStdDictionary
350
59
  3
AMDTSECTSYM_ARROWCOLOR
350
98E
  0
DICTIONARY
  5
2B
102
{ACAD_REACTORS
330
C
102
}
330
C
100
AcDbDictionary
281
     1
  0
DICTIONARY
  5
A8
102
{ACAD_REACTORS
330
C
102
}
330
C
100
AcDbDictionary
281
     1
  0
DICTIONARY
  5
942
102
{ACAD_REACTORS
330
C
102
}
330
C
100
AcDbDictionary
281
     1
  3
ASEBlockHierarchyIndexRecord
350
944
1001
DCO15
1040
1418113613.734
  0
DICTIONARY
  5
B2
102
{ACAD_REACTORS
330
B1
102
}
330
B1
100
AcDbDictionary
281
     1
  3
*A1
350
B3
  0
LAYOUT
  5
22
102
{ACAD_REACTORS
330
1A
102
}
330
1A
100
AcDbPlotSettings
  1

  2
RICOH imagio Neo C380 RPCS
  4
A3
  6
AM_VIEW1
 40
5.873749732971191
 41
5.873747825622558
 42
5.873748779296875
 43
5.873748779296875
 44
296.9259948730469
 45
419.9466552734374
 46
4.089999999999999
 47
11.6
 48
0.0
 49
0.0
140
0.0
141
0.0
142
1.0
143
4.0
 70
 11956
 72
     1
 73
     0
 74
     2
  7
monochrome.ctb
 75
    18
147
0.25
 76
     0
 77
     2
 78
   300
148
-1672.022093824093
149
-191.1306678920489
100
AcDbLayout
  1
Model
 70
     1
 71
     0
 10
0.0
 20
0.0
 11
12.0
 21
9.0
 12
0.0
 22
0.0
 32
0.0
 14
0.0
 24
0.0
 34
0.0
 15
0.0
 25
0.0
 35
0.0
146
0.0
 13
0.0
 23
0.0
 33
0.0
 16
1.0
 26
0.0
 36
0.0
 17
0.0
 27
1.0
 37
0.0
 76
     0
330
1F
  0
LAYOUT
  5
1E
102
{ACAD_REACTORS
330
1A
102
}
330
1A
100
AcDbPlotSettings
  1

  2
MUTOH RL-803C(ﾌﾟﾛｯﾀﾓｰﾄﾞ)
  4

  6

 40
0.0
 41
0.0
 42
0.0
 43
0.0
 44
0.0
 45
0.0
 46
0.0
 47
0.0
 48
0.0
 49
0.0
140
0.0
141
0.0
142
1.0
143
1.0
 70
   688
 72
     0
 73
     0
 74
     5
  7
monochrome.ctb
 75
    16
147
1.0
 76
     0
 77
     2
 78
   300
148
0.0
149
0.0
100
AcDbLayout
  1
ﾚｲｱｳﾄ1
 70
     1
 71
     1
 10
0.0
 20
0.0
 11
420.0
 21
297.0
 12
0.0
 22
0.0
 32
0.0
 14
1.000000000000000E+20
 24
1.000000000000000E+20
 34
1.000000000000000E+20
 15
-1.000000000000000E+20
 25
-1.000000000000000E+20
 35
-1.000000000000000E+20
146
0.0
 13
0.0
 23
0.0
 33
0.0
 16
1.0
 26
0.0
 36
0.0
 17
0.0
 27
1.0
 37
0.0
 76
     0
330
1B
  0
LAYOUT
  5
26
102
{ACAD_REACTORS
330
1A
102
}
330
1A
100
AcDbPlotSettings
  1

  2
MUTOH RL-803C(ﾌﾟﾛｯﾀﾓｰﾄﾞ)
  4

  6

 40
0.0
 41
0.0
 42
0.0
 43
0.0
 44
0.0
 45
0.0
 46
0.0
 47
0.0
 48
0.0
 49
0.0
140
0.0
141
0.0
142
1.0
143
1.0
 70
   688
 72
     0
 73
     0
 74
     5
  7
monochrome.ctb
 75
    16
147
1.0
 76
     0
 77
     2
 78
   300
148
0.0
149
0.0
100
AcDbLayout
  1
ﾚｲｱｳﾄ2
 70
     1
 71
     2
 10
0.0
 20
0.0
 11
12.0
 21
9.0
 12
0.0
 22
0.0
 32
0.0
 14
0.0
 24
0.0
 34
0.0
 15
0.0
 25
0.0
 35
0.0
146
0.0
 13
0.0
 23
0.0
 33
0.0
 16
1.0
 26
0.0
 36
0.0
 17
0.0
 27
1.0
 37
0.0
 76
     0
330
23
  0
MLINESTYLE
  5
10AB
102
{ACAD_REACTORS
330
17
102
}
330
17
100
AcDbMlineStyle
  2
PL6
 70
   256
  3

 62
     0
 51
90.0
 52
90.0
 71
     2
 49
3.0
 62
   256
  6
BYLAYER
 49
-3.0
 62
   256
  6
BYLAYER
  0
MLINESTYLE
  5
18
102
{ACAD_REACTORS
330
17
102
}
330
17
100
AcDbMlineStyle
  2
STANDARD
 70
     0
  3

 62
   256
 51
90.0
 52
90.0
 71
     2
 49
0.5
 62
   256
  6
BYLAYER
 49
-0.5
 62
   256
  6
BYLAYER
  0
ACDBPLACEHOLDER
  5
F
102
{ACAD_REACTORS
330
E
102
}
330
E
  0
DICTIONARYVAR
  5
44
102
{ACAD_REACTORS
330
43
102
}
330
43
100
DictionaryVariables
280
     0
  1
1
  0
DICTIONARYVAR
  5
774
102
{ACAD_REACTORS
330
43
102
}
330
43
100
DictionaryVariables
280
     0
  1
96
  0
DICTIONARY
  5
3D1
102
{ACAD_REACTORS
330
55
102
}
330
55
100
AcDbDictionary
281
     1
  0
DICTIONARY
  5
59
102
{ACAD_REACTORS
330
55
102
}
330
55
100
AcDbDictionary
281
     1
  0
XRECORD
  5
98E
102
{ACAD_REACTORS
330
55
102
}
330
55
100
AcDbXrecord
280
     1
 90
-1023410169
  0
XRECORD
  5
944
102
{ACAD_REACTORS
330
942
102
}
330
942
100
AcDbXrecord
280
     1
330
52F
330
537
330
5FB
330
603
  0
LAYER_INDEX
  5
B3
102
{ACAD_REACTORS
330
B2
102
}
330
B2
100
AcDbIndex
 40
2454714.740712882
100
AcDbLayerIndex
  8
0
360
B4
 90
       41
  8
RAHM2
360
156
 90
        1
  8
AM_BOR
360
4B6
 90
        0
  8
RAHM3
360
4B7
 90
        6
  8
RAHM5
360
4B8
 90
        0
  8
1
360
4B9
 90
      113
  8
DEFPOINTS
360
4BA
 90
        0
  8
7A
360
4BD
 90
        0
  8
2
360
F05
 90
        8
  8
5
360
F06
 90
        1
  8
40
360
F07
 90
        0
  8
7
360
F08
 90
        6
  8
4
360
F09
 90
        0
  8
8
360
F0A
 90
        0
  8
AM_5
360
100A
 90
        4
  8
AM_4
360
1023
 90
        0
  8
SUNPO
360
10EF
 90
        1
  8
AM_10
360
10F0
 90
        0
  8
AM_8
360
11A0
 90
        3
  8
AM_12
360
1394
 90
        1
  8
AM_PAREF
360
1395
 90
        0
  0
IDBUFFER
  5
B4
330
0
100
AcDbIdBuffer
330
1389
330
1311
330
1312
330
1313
330
1314
330
BA0
330
BA1
330
BA2
330
B9F
330
B9E
330
B9D
330
B9B
330
B9A
330
BAC
330
BAD
330
BB2
330
BB3
330
BB4
330
BB5
330
BB6
330
BB7
330
BB8
330
BB9
330
BBA
330
BBB
330
BBC
330
BBD
330
D3B
330
D3C
330
D45
330
B99
330
B8F
330
B90
330
B91
330
B92
330
B93
330
B94
330
B95
330
B96
330
B97
330
B98
  0
IDBUFFER
  5
156
330
0
100
AcDbIdBuffer
330
1319
  0
IDBUFFER
  5
4B6
330
0
100
AcDbIdBuffer
  0
IDBUFFER
  5
4B7
330
0
100
AcDbIdBuffer
330
1353
330
1354
330
1355
330
1356
330
1357
330
1358
  0
IDBUFFER
  5
4B8
330
0
100
AcDbIdBuffer
  0
IDBUFFER
  5
4B9
330
0
100
AcDbIdBuffer
330
C3B
330
C3C
330
C3D
330
C3E
330
C3F
330
C40
330
C41
330
C42
330
C43
330
C44
330
C45
330
C46
330
C47
330
C48
330
C49
330
C4A
330
C4B
330
C4C
330
C4D
330
C4E
330
C4F
330
C50
330
C51
330
C52
330
C53
330
C54
330
C55
330
C56
330
C57
330
C58
330
C59
330
C5A
330
C2F
330
BAB
330
BAE
330
BAF
330
BBF
330
BC0
330
BC1
330
BC2
330
BC3
330
BC4
330
BC5
330
BC6
330
BC7
330
BC8
330
BC9
330
BCA
330
BCB
330
BCC
330
BCD
330
BCE
330
BFA
330
C2E
330
C2D
330
C2C
330
C2B
330
C2A
330
C29
330
C28
330
C27
330
C26
330
C25
330
C24
330
C23
330
C22
330
C21
330
C30
330
C31
330
C32
330
C33
330
C34
330
BE5
330
BE6
330
BE7
330
BE8
330
BE9
330
BEE
330
BF8
330
BF9
330
C3A
330
BFC
330
C39
330
BFE
330
BFF
330
C00
330
C01
330
C02
330
C03
330
C04
330
C05
330
C06
330
C07
330
C08
330
C09
330
C0A
330
C0B
330
C0C
330
C0D
330
C0E
330
C0F
330
C10
330
C11
330
C12
330
C13
330
C14
330
C15
330
C16
330
C17
330
C38
330
C37
330
C36
330
C35
  0
IDBUFFER
  5
4BA
330
0
100
AcDbIdBuffer
  0
IDBUFFER
  5
4BD
330
0
100
AcDbIdBuffer
  0
IDBUFFER
  5
F05
330
0
100
AcDbIdBuffer
330
BF0
330
BF1
330
BF2
330
BF3
330
BF4
330
BF5
330
BF6
330
BF7
  0
IDBUFFER
  5
F06
330
0
100
AcDbIdBuffer
330
BA9
  0
IDBUFFER
  5
F07
330
0
100
AcDbIdBuffer
  0
IDBUFFER
  5
F08
330
0
100
AcDbIdBuffer
330
BAA
330
BB0
330
BBE
330
BD1
330
BE4
330
BEF
  0
IDBUFFER
  5
F09
330
0
100
AcDbIdBuffer
  0
IDBUFFER
  5
F0A
330
0
100
AcDbIdBuffer
  0
IDBUFFER
  5
100A
330
0
100
AcDbIdBuffer
330
1388
330
11FC
330
10ED
330
F88
  0
IDBUFFER
  5
1023
330
0
100
AcDbIdBuffer
  0
IDBUFFER
  5
10EF
330
0
100
AcDbIdBuffer
330
1163
  0
IDBUFFER
  5
10F0
330
0
100
AcDbIdBuffer
  0
IDBUFFER
  5
11A0
330
0
100
AcDbIdBuffer
330
B9C
330
BB1
330
104A
  0
IDBUFFER
  5
1394
330
0
100
AcDbIdBuffer
330
1381
  0
IDBUFFER
  5
1395
330
0
100
AcDbIdBuffer
  0
ENDSEC
  0
EOF
