  0
SECTION
  2
HEADER
  9
$ACADVER
  1
AC1018
  9
$ACADMAINTVER
 70
     2
  9
$DWGCODEPAGE
  3
ANSI_932
  9
$CUSTOMPROPERTYTAG
  1
AmdtFileType
  9
$CUSTOMPROPERTY
  1
84
  9
$INSBASE
 10
0.0
 20
0.0
 30
0.0
  9
$EXTMIN
 10
2310.772549435335
 20
203.590230462803
 30
0.0
  9
$EXTMAX
 10
3795.772549435336
 20
2303.590230462804
 30
260.0
  9
$LIMMIN
 10
2360.772549435335
 20
253.5902304628034
  9
$LIMMAX
 10
3745.772549435336
 20
2178.590230462803
  9
$ORTHOMODE
 70
     0
  9
$REGENMODE
 70
     1
  9
$FILLMODE
 70
     1
  9
$QTEXTMODE
 70
     0
  9
$MIRRTEXT
 70
     1
  9
$LTSCALE
 40
5.0
  9
$ATTMODE
 70
     1
  9
$TEXTSIZE
 40
2.5
  9
$TRACEWID
 40
1.0
  9
$TEXTSTYLE
  7
STANDARD
  9
$CLAYER
  8
0
  9
$CELTYPE
  6
ByLayer
  9
$CECOLOR
 62
   256
  9
$CELTSCALE
 40
1.0
  9
$DISPSILH
 70
     0
  9
$DIMSCALE
 40
5.0
  9
$DIMASZ
 40
2.5
  9
$DIMEXO
 40
1.0
  9
$DIMDLI
 40
10.0
  9
$DIMRND
 40
0.0
  9
$DIMDLE
 40
0.0
  9
$DIMEXE
 40
1.0
  9
$DIMTP
 40
0.1
  9
$DIMTM
 40
0.1
  9
$DIMTXT
 40
4.5
  9
$DIMCEN
 40
0.0
  9
$DIMTSZ
 40
0.0
  9
$DIMTOL
 70
     0
  9
$DIMLIM
 70
     0
  9
$DIMTIH
 70
     0
  9
$DIMTOH
 70
     0
  9
$DIMSE1
 70
     0
  9
$DIMSE2
 70
     0
  9
$DIMTAD
 70
     3
  9
$DIMZIN
 70
     8
  9
$DIMBLK
  1
Open30
  9
$DIMASO
 70
     1
  9
$DIMSHO
 70
     1
  9
$DIMPOST
  1

  9
$DIMAPOST
  1
"
  9
$DIMALT
 70
     0
  9
$DIMALTD
 70
     2
  9
$DIMALTF
 40
0.0393701
  9
$DIMLFAC
 40
1.0
  9
$DIMTOFL
 70
     1
  9
$DIMTVP
 40
0.0
  9
$DIMTIX
 70
     0
  9
$DIMSOXD
 70
     0
  9
$DIMSAH
 70
     0
  9
$DIMBLK1
  1

  9
$DIMBLK2
  1

  9
$DIMSTYLE
  2
IGS
  9
$DIMCLRD
 70
   256
  9
$DIMCLRE
 70
   256
  9
$DIMCLRT
 70
     2
  9
$DIMTFAC
 40
0.71
  9
$DIMGAP
 40
1.5
  9
$DIMJUST
 70
     0
  9
$DIMSD1
 70
     0
  9
$DIMSD2
 70
     0
  9
$DIMTOLJ
 70
     0
  9
$DIMTZIN
 70
     8
  9
$DIMALTZ
 70
     0
  9
$DIMALTTZ
 70
     0
  9
$DIMUPT
 70
     0
  9
$DIMDEC
 70
     2
  9
$DIMTDEC
 70
     2
  9
$DIMALTU
 70
     2
  9
$DIMALTTD
 70
     2
  9
$DIMTXSTY
  7
STANDARD
  9
$DIMAUNIT
 70
     0
  9
$DIMADEC
 70
     0
  9
$DIMALTRND
 40
0.0
  9
$DIMAZIN
 70
     2
  9
$DIMDSEP
 70
    46
  9
$DIMATFIT
 70
     3
  9
$DIMFRAC
 70
     0
  9
$DIMLDRBLK
  1
Open30
  9
$DIMLUNIT
 70
     2
  9
$DIMLWD
 70
    -1
  9
$DIMLWE
 70
    -1
  9
$DIMTMOVE
 70
     0
  9
$LUNITS
 70
     2
  9
$LUPREC
 70
     2
  9
$SKETCHINC
 40
1.0
  9
$FILLETRAD
 40
0.0
  9
$AUNITS
 70
     0
  9
$AUPREC
 70
     0
  9
$MENU
  1
.
  9
$ELEVATION
 40
0.0
  9
$PELEVATION
 40
0.0
  9
$THICKNESS
 40
0.0
  9
$LIMCHECK
 70
     0
  9
$CHAMFERA
 40
12.5
  9
$CHAMFERB
 40
12.5
  9
$CHAMFERC
 40
20.0
  9
$CHAMFERD
 40
0.0
  9
$SKPOLY
 70
     0
  9
$TDCREATE
 40
2453489.357479988
  9
$TDUCREATE
 40
2453488.982479989
  9
$TDUPDATE
 40
2454714.740846713
  9
$TDUUPDATE
 40
2454714.365846713
  9
$TDINDWG
 40
0.0218875116
  9
$TDUSRTIMER
 40
0.0218875116
  9
$USRTIMER
 70
     1
  9
$ANGBASE
 50
0.0
  9
$ANGDIR
 70
     0
  9
$PDMODE
 70
     0
  9
$PDSIZE
 40
0.0
  9
$PLINEWID
 40
0.0
  9
$SPLFRAME
 70
     0
  9
$SPLINETYPE
 70
     6
  9
$SPLINESEGS
 70
     8
  9
$HANDSEED
  5
1AF5
  9
$SURFTAB1
 70
     6
  9
$SURFTAB2
 70
     6
  9
$SURFTYPE
 70
     6
  9
$SURFU
 70
     6
  9
$SURFV
 70
     6
  9
$UCSBASE
  2

  9
$UCSNAME
  2

  9
$UCSORG
 10
0.0
 20
0.0
 30
0.0
  9
$UCSXDIR
 10
1.0
 20
0.0
 30
0.0
  9
$UCSYDIR
 10
0.0
 20
1.0
 30
0.0
  9
$UCSORTHOREF
  2

  9
$UCSORTHOVIEW
 70
     0
  9
$UCSORGTOP
 10
0.0
 20
0.0
 30
0.0
  9
$UCSORGBOTTOM
 10
0.0
 20
0.0
 30
0.0
  9
$UCSORGLEFT
 10
0.0
 20
0.0
 30
0.0
  9
$UCSORGRIGHT
 10
0.0
 20
0.0
 30
0.0
  9
$UCSORGFRONT
 10
0.0
 20
0.0
 30
0.0
  9
$UCSORGBACK
 10
0.0
 20
0.0
 30
0.0
  9
$PUCSBASE
  2

  9
$PUCSNAME
  2

  9
$PUCSORG
 10
0.0
 20
0.0
 30
0.0
  9
$PUCSXDIR
 10
1.0
 20
0.0
 30
0.0
  9
$PUCSYDIR
 10
0.0
 20
1.0
 30
0.0
  9
$PUCSORTHOREF
  2

  9
$PUCSORTHOVIEW
 70
     0
  9
$PUCSORGTOP
 10
0.0
 20
0.0
 30
0.0
  9
$PUCSORGBOTTOM
 10
0.0
 20
0.0
 30
0.0
  9
$PUCSORGLEFT
 10
0.0
 20
0.0
 30
0.0
  9
$PUCSORGRIGHT
 10
0.0
 20
0.0
 30
0.0
  9
$PUCSORGFRONT
 10
0.0
 20
0.0
 30
0.0
  9
$PUCSORGBACK
 10
0.0
 20
0.0
 30
0.0
  9
$USERI1
 70
     0
  9
$USERI2
 70
     0
  9
$USERI3
 70
     0
  9
$USERI4
 70
     0
  9
$USERI5
 70
     0
  9
$USERR1
 40
0.0
  9
$USERR2
 40
0.0
  9
$USERR3
 40
0.0
  9
$USERR4
 40
0.0
  9
$USERR5
 40
0.0
  9
$WORLDVIEW
 70
     1
  9
$SHADEDGE
 70
     3
  9
$SHADEDIF
 70
    70
  9
$TILEMODE
 70
     1
  9
$MAXACTVP
 70
    64
  9
$PINSBASE
 10
0.0
 20
0.0
 30
0.0
  9
$PLIMCHECK
 70
     0
  9
$PEXTMIN
 10
1.000000000000000E+20
 20
1.000000000000000E+20
 30
1.000000000000000E+20
  9
$PEXTMAX
 10
-1.000000000000000E+20
 20
-1.000000000000000E+20
 30
-1.000000000000000E+20
  9
$PLIMMIN
 10
0.0
 20
0.0
  9
$PLIMMAX
 10
420.0
 20
297.0
  9
$UNITMODE
 70
     0
  9
$VISRETAIN
 70
     1
  9
$PLINEGEN
 70
     0
  9
$PSLTSCALE
 70
     1
  9
$TREEDEPTH
 70
  3020
  9
$CMLSTYLE
  2
Standard
  9
$CMLJUST
 70
     0
  9
$CMLSCALE
 40
20.0
  9
$PROXYGRAPHICS
 70
     1
  9
$MEASUREMENT
 70
     1
  9
$CELWEIGHT
370
    -1
  9
$ENDCAPS
280
     0
  9
$JOINSTYLE
280
     0
  9
$LWDISPLAY
290
     0
  9
$INSUNITS
 70
     4
  9
$HYPERLINKBASE
  1

  9
$STYLESHEET
  1
monochrome.ctb
  9
$XEDIT
290
     1
  9
$CEPSNTYPE
380
     0
  9
$PSTYLEMODE
290
     1
  9
$FINGERPRINTGUID
  2
{A179640A-E7AE-11D4-BDB4-00B0D0A1239A}
  9
$VERSIONGUID
  2
{189E1A98-02A2-4EAA-AF5D-1DCF74A89EC4}
  9
$EXTNAMES
290
     1
  9
$PSVPSCALE
 40
0.0
  9
$OLESTARTUP
290
     0
  9
$SORTENTS
280
   103
  9
$INDEXCTL
280
     1
  9
$HIDETEXT
280
     0
  9
$XCLIPFRAME
290
     0
  9
$HALOGAP
280
     0
  9
$OBSCOLOR
 70
   257
  9
$OBSLTYPE
280
     0
  9
$INTERSECTIONDISPLAY
280
     0
  9
$INTERSECTIONCOLOR
 70
   257
  9
$DIMASSOC
280
     1
  9
$PROJECTNAME
  1

  0
ENDSEC
  0
SECTION
  2
CLASSES
  0
CLASS
  1
ACDBDICTIONARYWDFLT
  2
AcDbDictionaryWithDefault
  3
ObjectDBX Classes
 90
        0
 91
        1
280
     0
281
     0
  0
CLASS
  1
AMGSETTINGSOBJ
  2
AmgSettingsObj
  3
"AcadM|Product Description: AutoCAD Mechanical 2000|Company: Autodesk"
 90
        0
 91
        4
280
     0
281
     0
  0
CLASS
  1
AMGOBJPROPCFG
  2
AmgObjPropCfg
  3
"AmgLay|Product Description: AutoCAD Mechanical 2000|Company: Autodesk"
 90
        1
 91
        1
280
     0
281
     0
  0
CLASS
  1
ACME_DOCUMENT
  2
AcMeDbDoc
  3
AcMeServices
 90
        0
 91
        2
280
     0
281
     0
  0
CLASS
  1
ACMESCOPE
  2
AcMeScope
  3
AcMeServices
 90
        0
 91
        1
280
     0
281
     0
  0
CLASS
  1
ACMECOMMANDHISTORY
  2
AcMeCommandHistory
  3
AcMeServices
 90
        0
 91
        1
280
     0
281
     0
  0
CLASS
  1
DICTIONARYVAR
  2
AcDbDictionaryVar
  3
ObjectDBX Classes
 90
        0
 91
        2
280
     0
281
     0
  0
CLASS
  1
ACIMSYSVARMAN
  2
AcImSysVarManager
  3
AcMeServices
 90
        0
 91
        5
280
     0
281
     0
  0
CLASS
  1
ACIMREALSYSVAR
  2
AcImRealSysVar
  3
AcMeServices
 90
        0
 91
        3
280
     0
281
     0
  0
CLASS
  1
ACIMINTSYSVAR
  2
AcImIntSysVar
  3
AcMeServices
 90
        0
 91
       26
280
     0
281
     0
  0
CLASS
  1
ACMEDRAWINGMAN
  2
AcMeDrawingMan
  3
AcMeServices
 90
        0
 91
        1
280
     0
281
     0
  0
CLASS
  1
ACMEVIEW
  2
AcMeView
  3
AcMeServices
 90
        0
 91
        1
280
     0
281
     0
  0
CLASS
  1
ACDBENTITYCACHE
  2
AcMeEntityCache
  3
AcMeServices
 90
        0
 91
        1
280
     0
281
     0
  0
CLASS
  1
GSMANAGER
  2
AcMeGSManager
  3
AcMeServices
 90
        0
 91
        1
280
     0
281
     0
  0
CLASS
  1
AMDTINTERNALREACTOR
  2
AmdtInternalReactor
  3
AcMeServices
 90
        0
 91
        2
280
     0
281
     0
  0
CLASS
  1
ACMESTATEMGR
  2
AcMeStateMgr
  3
AcMeServices
 90
        0
 91
        1
280
     0
281
     0
  0
CLASS
  1
ACGREFMASTER
  2
AcGrefMaster
  3
AcAttribServices
 90
        0
 91
        1
280
     0
281
     0
  0
CLASS
  1
ACME_DATABASE
  2
AcMeDbDatabase
  3
AcMeServices
 90
        0
 91
        1
280
     0
281
     0
  0
CLASS
  1
ACRFINSADJUSTERMGR
  2
AcRfInsAdjusterMgr
  3
AcMeServices
 90
        0
 91
        1
280
     0
281
     0
  0
CLASS
  1
ACGREFACADMASTER
  2
AcGrefacadMaster
  3
AcGrefServices
 90
        0
 91
        1
280
     0
281
     0
  0
CLASS
  1
AMIMASTER
  2
AmiMaster
  3
AmiServices
 90
        0
 91
        1
280
     0
281
     0
  0
CLASS
  1
ACMDATADICTIONARY
  2
AcmDataDictionary
  3
"AcmSymBB|Product Description: AutoCAD Mechanical 2004 DX|Company: Autodesk"
 90
        0
 91
        1
280
     0
281
     0
  0
CLASS
  1
ACMDATAENTRYBLOCK
  2
AcmDataEntryBlock
  3
"AcmSymBB|Product Description: AutoCAD Mechanical 2004 DX|Company: Autodesk"
 90
        0
 91
        1
280
     0
281
     0
  0
CLASS
  1
ACMSTANDARDJIS
  2
AcmStandardJIS
  3
"Amdt_StdImp|Product Description: AutoCAD Mechanical 2004 DX|Company: Autodesk"
 90
        0
 91
        1
280
     0
281
     0
  0
CLASS
  1
ACMSURFSTANDARDJIS
  2
AcmSurfTextStdJIS
  3
"Amdt_StdImp|Product Description: AutoCAD Mechanical 2004 DX|Company: Autodesk"
 90
        0
 91
        1
280
     0
281
     0
  0
CLASS
  1
ACMFCFSTANDARDJIS
  2
AcmFCFStdJIS
  3
"Amdt_StdImp|Product Description: AutoCAD Mechanical 2004 DX|Company: Autodesk"
 90
        0
 91
        1
280
     0
281
     0
  0
CLASS
  1
ACMWELDSTANDARDJIS
  2
AcmWeldingStdJIS
  3
"Amdt_StdImp|Product Description: AutoCAD Mechanical 2004 DX|Company: Autodesk"
 90
        0
 91
        1
280
     0
281
     0
  0
CLASS
  1
ACMIDSTANDARDJIS
  2
AcmIdStdJIS
  3
"Amdt_StdImp|Product Description: AutoCAD Mechanical 2004 DX|Company: Autodesk"
 90
        0
 91
        1
280
     0
281
     0
  0
CLASS
  1
ACMDATUMSTANDARDJIS
  2
AcmDatumStdJIS
  3
"Amdt_StdImp|Product Description: AutoCAD Mechanical 2004 DX|Company: Autodesk"
 90
        0
 91
        1
280
     0
281
     0
  0
CLASS
  1
ACMBOMSTANDARDJIS
  2
AcmBOMStdJIS
  3
"Amdt_StdImp|Product Description: AutoCAD Mechanical 2004 DX|Company: Autodesk"
 90
        0
 91
        1
280
     0
281
     0
  0
CLASS
  1
ACMDETAILSTANDARDJIS
  2
AmdtDetailSymStdJIS
  3
"Amdt_StdImp|Product Description: AutoCAD Mechanical 2004 DX|Company: Autodesk"
 90
        0
 91
        1
280
     0
281
     0
  0
CLASS
  1
ACMSECTIONSTANDARDJIS
  2
AmdtSectionSymStdJIS
  3
"Amdt_StdImp|Product Description: AutoCAD Mechanical 2004 DX|Company: Autodesk"
 90
        0
 91
        1
280
     0
281
     0
  0
CLASS
  1
ACMCENTERLINESTANDARDJIS
  2
AmdtCenterLineStdJIS
  3
"Amdt_StdImp|Product Description: AutoCAD Mechanical 2004 DX|Company: Autodesk"
 90
        0
 91
        1
280
     0
281
     0
  0
CLASS
  1
ACAMGLAYSTD
  2
AcAmgLayStd
  3
"AcAmgLayStd|Product Description: AutoCAD Mechanical 2000|Company: Autodesk"
 90
        0
 91
        2
280
     0
281
     0
  0
CLASS
  1
ACAMGDIMSTD
  2
AcAmgDimStd
  3
"AcAmgDimStd|Product Description: AutoCAD Mechanical 2000|Company: Autodesk"
 90
        0
 91
        2
280
     0
281
     0
  0
CLASS
  1
ACAMGTITLESTD
  2
AcAmgTitleStd
  3
"TITLEAPP"
 90
        0
 91
        2
280
     0
281
     0
  0
CLASS
  1
ACMSTANDARDISO
  2
AcmStandardISO
  3
"Amdt_StdImp|Product Description: AutoCAD Mechanical 2004 DX|Company: Autodesk"
 90
        0
 91
        1
280
     0
281
     0
  0
CLASS
  1
AMDTEDGESTANDARDISO
  2
AmdtEdgeStdISO
  3
"Amdt_StdImp|Product Description: AutoCAD Mechanical 2004 DX|Company: Autodesk"
 90
        0
 91
        1
280
     0
281
     0
  0
CLASS
  1
ACMSURFSTANDARDISO
  2
AcmSurfTextStdISO
  3
"Amdt_StdImp|Product Description: AutoCAD Mechanical 2004 DX|Company: Autodesk"
 90
        0
 91
        1
280
     0
281
     0
  0
CLASS
  1
ACMFCFSTANDARDISO
  2
AcmFCFStdISO
  3
"Amdt_StdImp|Product Description: AutoCAD Mechanical 2004 DX|Company: Autodesk"
 90
        0
 91
        1
280
     0
281
     0
  0
CLASS
  1
ACMWELDSTANDARDISO
  2
AcmWeldingStdISO
  3
"Amdt_StdImp|Product Description: AutoCAD Mechanical 2004 DX|Company: Autodesk"
 90
        0
 91
        1
280
     0
281
     0
  0
CLASS
  1
ACMIDSTANDARDISO
  2
AcmIdStdISO
  3
"Amdt_StdImp|Product Description: AutoCAD Mechanical 2004 DX|Company: Autodesk"
 90
        0
 91
        1
280
     0
281
     0
  0
CLASS
  1
ACMDATUMSTANDARDISO
  2
AcmDatumStdISO
  3
"Amdt_StdImp|Product Description: AutoCAD Mechanical 2004 DX|Company: Autodesk"
 90
        0
 91
        1
280
     0
281
     0
  0
CLASS
  1
ACMBOMSTANDARDISO
  2
AcmBOMStdISO
  3
"Amdt_StdImp|Product Description: AutoCAD Mechanical 2004 DX|Company: Autodesk"
 90
        0
 91
        1
280
     0
281
     0
  0
CLASS
  1
ACMDETAILSTANDARDISO
  2
AmdtDetailSymStdISO
  3
"Amdt_StdImp|Product Description: AutoCAD Mechanical 2004 DX|Company: Autodesk"
 90
        0
 91
        1
280
     0
281
     0
  0
CLASS
  1
ACMSECTIONSTANDARDISO
  2
AmdtSectionSymStdISO
  3
"Amdt_StdImp|Product Description: AutoCAD Mechanical 2004 DX|Company: Autodesk"
 90
        0
 91
        1
280
     0
281
     0
  0
CLASS
  1
ACMCENTERLINESTANDARDISO
  2
AmdtCenterLineStdISO
  3
"Amdt_StdImp|Product Description: AutoCAD Mechanical 2004 DX|Company: Autodesk"
 90
        0
 91
        1
280
     0
281
     0
  0
CLASS
  1
ACIMSTRSYSVAR
  2
AcImStrSysVar
  3
AcMeServices
 90
        0
 91
        5
280
     0
281
     0
  0
CLASS
  1
ACAMGFILTERDAT
  2
AcAmgFilterDat
  3
"AcadM|Product Description: AutoCAD Mechanical 2000|Company: Autodesk"
 90
        0
 91
        6
280
     0
281
     0
  0
CLASS
  1
LAYER_INDEX
  2
AcDbLayerIndex
  3
ObjectDBX Classes
 90
        0
 91
        1
280
     0
281
     0
  0
CLASS
  1
IDBUFFER
  2
AcDbIdBuffer
  3
ObjectDBX Classes
 90
        0
 91
       13
280
     0
281
     0
  0
CLASS
  1
AMDTFORMULAUPDATEDISPATCHER
  2
AmdtFormulaUpdateDispatcher
  3
AcMeServices
 90
        0
 91
        1
280
     0
281
     0
  0
CLASS
  1
ACMDATAENTRYPART
  2
AcmDataEntryPart
  3
"AcmSymBB|Product Description: AutoCAD Mechanical 2004 DX|Company: Autodesk"
 90
        0
 91
        0
280
     0
281
     0
  0
CLASS
  1
ACMPARTREF
  2
AcmPartRef
  3
"AcmSymBB|Product Description: AutoCAD Mechanical 2004 DX|Company: Autodesk"
 90
     1023
 91
        0
280
     0
281
     1
  0
CLASS
  1
ACMDATAENTRY
  2
AcmDataEntry
  3
"AcmSymBB|Product Description: AutoCAD Mechanical 2004 DX|Company: Autodesk"
 90
        0
 91
        4
280
     0
281
     0
  0
CLASS
  1
ACMBOM
  2
AcmBom
  3
"AcmSymBB|Product Description: AutoCAD Mechanical 2004 DX|Company: Autodesk"
 90
        0
 91
        1
280
     0
281
     0
  0
CLASS
  1
ACMBOMROW
  2
AcmBomRow
  3
"AcmSymBB|Product Description: AutoCAD Mechanical 2004 DX|Company: Autodesk"
 90
        0
 91
        0
280
     0
281
     0
  0
CLASS
  1
ACMBALLOON
  2
AcmBalloon
  3
"AcmSymBB|Product Description: AutoCAD Mechanical 2004 DX|Company: Autodesk"
 90
     1023
 91
        0
280
     0
281
     1
  0
CLASS
  1
ACMPARTLIST
  2
AcmPartList
  3
"AcmSymBB|Product Description: AutoCAD Mechanical 2004 DX|Company: Autodesk"
 90
     1023
 91
        0
280
     0
281
     1
  0
CLASS
  1
ACDBLINERES
  2
AcDbLineRes
  3
AcGrefServices
 90
        0
 91
        0
280
     0
281
     0
  0
CLASS
  1
ACRFINSADJ
  2
AcRfInsAdjuster
  3
AcMeServices
 90
        0
 91
        0
280
     0
281
     0
  0
CLASS
  1
STDPART2D
  2
AmgStdPart
  3
"AmgStdPart|Product Description: AutoCAD Mechanical 2000|Company: Autodesk"
 90
     1023
 91
        0
280
     0
281
     1
  0
CLASS
  1
ACDBSTDPARTRES_ARC
  2
AcDbStdPartRes_Arc
  3
"AcDbStdPartRes_Arc|Product Description: AutoCAD Mechanical 2000|Company: Autodesk"
 90
        0
 91
        0
280
     0
281
     0
  0
CLASS
  1
ACMPICKOBJ
  2
AcmPickEnt
  3
"AcmSymBB|Product Description: AutoCAD Mechanical 2004 DX|Company: Autodesk"
 90
        0
 91
        0
280
     0
281
     1
  0
CLASS
  1
ACDBSTDPARTRES_LINE
  2
AcDbStdPartRes_Line
  3
"AcDbStdPartRes_Line|Product Description: AutoCAD Mechanical 2000|Company: Autodesk"
 90
        0
 91
        0
280
     0
281
     0
  0
CLASS
  1
AM_DRAWING_MGR
  2
AcDmDwgMgr
  3
AcMechDwgViewMgmt
 90
        0
 91
        1
280
     0
281
     0
  0
CLASS
  1
AM_DWG_DOCUMENT
  2
AcDmDwgDocument
  3
AcMechDwgViewMgmt
 90
        0
 91
        1
280
     0
281
     0
  0
CLASS
  1
AM_DWG_SHEET
  2
AcDmSheet
  3
AcMechDwgViewMgmt
 90
        0
 91
        2
280
     0
281
     0
  0
CLASS
  1
AM_VIEWDIMPARMAP
  2
AcDmViewDimParMap
  3
AcMechDwgViewMgmt
 90
        0
 91
        2
280
     0
281
     0
  0
CLASS
  1
AM_DWGMGR_NAME
  2
AcDmDwgMgrName
  3
AcMechDwgViewMgmt
 90
        0
 91
        1
280
     0
281
     0
  0
CLASS
  1
AMDTMENUSTATEMGR
  2
AmdtMenuStateMgr
  3
McadcomServices
 90
        0
 91
        1
280
     0
281
     0
  0
CLASS
  1
AMDTMCOMMENUSTATE
  2
AmdtMcomMenuState
  3
McadcomServices
 90
        0
 91
        1
280
     0
281
     0
  0
CLASS
  1
MAPIAMMOUDLE
  2
MApiAmModule
  3
MApiAmServices
 90
        0
 91
        1
280
     0
281
     0
  0
CLASS
  1
AMDTADMENUSTATE
  2
AmdtAdMenuState
  3
DesignerServices
 90
        0
 91
        1
280
     0
281
     0
  0
CLASS
  1
ADAPPL
  2
AcAdAppl
  3
DesignerServices
 90
        0
 91
        1
280
     0
281
     0
  0
CLASS
  1
DEPMGR
  2
AcAdDepMgr
  3
DesignerServices
 90
        0
 91
        1
280
     0
281
     0
  0
CLASS
  1
PARAMMGR
  2
AcAdParamMgr
  3
DesignerServices
 90
        0
 91
        1
280
     0
281
     0
  0
CLASS
  1
PARAMSCOPE
  2
AcAdParamScope
  3
DesignerServices
 90
        0
 91
        1
280
     0
281
     0
  0
CLASS
  1
NAMEDAPPL
  2
AcAdNamedAppl
  3
DesignerServices
 90
        0
 91
        1
280
     0
281
     0
  0
CLASS
  1
AMDTDMMENUSTATE
  2
AmdtDmMenuState
  3
AcMechDwgViewMgmt
 90
        0
 91
        1
280
     0
281
     0
  0
CLASS
  1
AMDTAMMENUSTATE
  2
AmdtAmMenuState
  3
DesignerAssemblies
 90
        0
 91
        1
280
     0
281
     0
  0
CLASS
  1
ACAMPROJECT
  2
AcAmProject
  3
DesignerAssemblies
 90
        0
 91
        1
280
     0
281
     0
  0
CLASS
  1
ACAMGRCOMPDEF
  2
AcAmGrCompDef
  3
DesignerAssemblies
 90
        0
 91
        1
280
     0
281
     0
  0
CLASS
  1
ACCMCONTEXT
  2
AcCmContext
  3
DesignerAssemblies
 90
        0
 91
        1
280
     0
281
     0
  0
CLASS
  1
ACAMCOMPDEF
  2
AcAmCompDef
  3
DesignerAssemblies
 90
        0
 91
        1
280
     0
281
     0
  0
CLASS
  1
ACAMCOMPDEFMGR
  2
AcAmCompDefMgr
  3
DesignerAssemblies
 90
        0
 91
        1
280
     0
281
     0
  0
CLASS
  1
AMCONTEXTMGR
  2
AcAmContextMgr
  3
DesignerAssemblies
 90
        0
 91
        1
280
     0
281
     0
  0
CLASS
  1
ACAMCONTEXTMODELER
  2
AcAmContextModeler
  3
DesignerAssemblies
 90
        0
 91
        1
280
     0
281
     0
  0
CLASS
  1
ACMTHREADLINESTANDARDJIS
  2
AmdtThreadLineStdJIS
  3
"Amdt_StdImp|Product Description: AutoCAD Mechanical 2004 DX|Company: Autodesk"
 90
        0
 91
        1
280
     0
281
     0
  0
CLASS
  1
ACMNOTESTANDARDJIS
  2
AmdtNoteStdJIS
  3
"Amdt_StdImp|Product Description: AutoCAD Mechanical 2004 DX|Company: Autodesk"
 90
        0
 91
        1
280
     0
281
     0
  0
CLASS
  1
AMDTNOTETEMPLATEDB
  2
AmdtNoteTemplateDB
  3
AMDT_STDIMP_MODULE_NAME
 90
        0
 91
        8
280
     0
281
     0
  0
CLASS
  1
ACMTHREADLINESTANDARDISO
  2
AmdtThreadLineStdISO
  3
"Amdt_StdImp|Product Description: AutoCAD Mechanical 2004 DX|Company: Autodesk"
 90
        0
 91
        1
280
     0
281
     0
  0
CLASS
  1
ACMNOTESTANDARDISO
  2
AmdtNoteStdISO
  3
"Amdt_StdImp|Product Description: AutoCAD Mechanical 2004 DX|Company: Autodesk"
 90
        0
 91
        1
280
     0
281
     0
  0
CLASS
  1
CATALOGSTATE
  2
AcAmCatalogState
  3
DesignerAssemblies
 90
        0
 91
        1
280
     0
281
     0
  0
CLASS
  1
ACAMGRCOMPDEFSET
  2
AcAmGrCompDefSet
  3
DesignerAssemblies
 90
        0
 91
        1
280
     0
281
     0
  0
CLASS
  1
AMDTBROWSERDBTAB
  2
AmdtBrowserDbTab
  3
McadcomServices
 90
        0
 91
        1
280
     0
281
     0
  0
CLASS
  1
CBROWSERAPPOBJECT
  2
CBrowserAppObject
  3
McadcomServices
 90
        0
 91
        3
280
     0
281
     0
  0
CLASS
  1
DM_PLACEHOLDER
  2
AcDmSelsetPlaceholder
  3
AcMechDwgViewMgmt
 90
        0
 91
        1
280
     0
281
     0
  0
ENDSEC
  0
SECTION
  2
TABLES
  0
TABLE
  2
VPORT
  5
8
330
0
100
AcDbSymbolTable
 70
     3
  0
VPORT
  5
1AF4
330
8
100
AcDbSymbolTableRecord
100
AcDbViewportTableRecord
  2
*Active
 70
     0
 10
0.0
 20
0.0
 11
1.0
 21
1.0
 12
3071.591376276266
 22
1253.586177216431
 13
0.0
 23
0.0
 14
12.5
 24
12.5
 15
50.0
 25
50.0
 16
0.0
 26
0.0
 36
1.0
 17
0.0
 27
0.0
 37
0.0
 40
2115.668131441735
 41
1.498730964467005
 42
50.0
 43
0.0
 44
0.0
 50
0.0
 51
0.0
 71
    16
 72
   100
 73
     1
 74
     3
 75
     0
 76
     0
 77
     0
 78
     0
281
     0
 65
     1
110
0.0
120
0.0
130
0.0
111
1.0
121
0.0
131
0.0
112
0.0
122
1.0
132
0.0
 79
     0
146
0.0
  0
ENDTAB
  0
TABLE
  2
LTYPE
  5
5
330
0
100
AcDbSymbolTable
 70
    20
  0
LTYPE
  5
14
330
5
100
AcDbSymbolTableRecord
100
AcDbLinetypeTableRecord
  2
ByBlock
 70
     0
  3

 72
    65
 73
     0
 40
0.0
  0
LTYPE
  5
15
330
5
100
AcDbSymbolTableRecord
100
AcDbLinetypeTableRecord
  2
ByLayer
 70
     0
  3

 72
    65
 73
     0
 40
0.0
  0
LTYPE
  5
16
330
5
100
AcDbSymbolTableRecord
100
AcDbLinetypeTableRecord
  2
Continuous
 70
     0
  3
Solid line
 72
    65
 73
     0
 40
0.0
  0
LTYPE
  5
35
330
5
100
AcDbSymbolTableRecord
100
AcDbLinetypeTableRecord
  2
AM_ISO02W050
 70
     0
  3
__ __ __ __ __ __ __ __ __ __ __ __ __ __ __
 72
    65
 73
     2
 40
7.5
 49
6.0
 74
     0
 49
-1.5
 74
     0
  0
LTYPE
  5
36
330
5
100
AcDbSymbolTableRecord
100
AcDbLinetypeTableRecord
  2
AM_ISO08W050
 70
     0
  3
____ . ____ . ____ . ____ . ____ . ____ . ____
 72
    65
 73
     4
 40
18.0
 49
12.0
 74
     0
 49
-1.5
 74
     0
 49
3.0
 74
     0
 49
-1.5
 74
     0
  0
LTYPE
  5
37
330
5
100
AcDbSymbolTableRecord
100
AcDbLinetypeTableRecord
  2
AM_ISO09W050
 70
     0
  3
_____ . . _____ . . _____ . . ____ .. ____
 72
    65
 73
     6
 40
22.5
 49
12.0
 74
     0
 49
-1.5
 74
     0
 49
3.0
 74
     0
 49
-1.5
 74
     0
 49
3.0
 74
     0
 49
-1.5
 74
     0
  0
LTYPE
  5
38
330
5
100
AcDbSymbolTableRecord
100
AcDbLinetypeTableRecord
  2
Amconstr
 70
     0
  3
_______________________
 72
    65
 73
     2
 40
9999.0
 49
9999.0
 74
     0
 49
0.0
 74
     0
  0
LTYPE
  5
39
330
5
100
AcDbSymbolTableRecord
100
AcDbLinetypeTableRecord
  2
AM_ISO08W050x2
 70
     0
  3
__ . __ . __ . __ . __ . __
 72
    65
 73
     4
 40
9.0
 49
6.0
 74
     0
 49
-0.75
 74
     0
 49
1.5
 74
     0
 49
-0.75
 74
     0
  0
LTYPE
  5
3A
330
5
100
AcDbSymbolTableRecord
100
AcDbLinetypeTableRecord
  2
AM_ISO02W050x2
 70
     0
  3
 _ _ _ _ _ _ _ _ _ _ _ _
 72
    65
 73
     2
 40
3.75
 49
3.0
 74
     0
 49
-0.75
 74
     0
  0
LTYPE
  5
3B
330
5
100
AcDbSymbolTableRecord
100
AcDbLinetypeTableRecord
  2
Amzigzag
 70
     0
  3
/\/-/\/-/\/-/\/-/\/-/\/
 72
    65
 73
     2
 40
11.0001
 49
0.0001
 74
     4
 75
   135
340
3C
 46
0.04
 50
0.0
 44
0.0
 45
0.0
 49
-11.0
 74
     0
  0
LTYPE
  5
64
330
5
100
AcDbSymbolTableRecord
100
AcDbLinetypeTableRecord
  2
ACJISTGB
 70
     0
  3
__ . . __ . .
 72
    65
 73
     6
 40
9.0
 49
4.0
 74
     0
 49
-1.0
 74
     0
 49
1.0
 74
     0
 49
-1.0
 74
     0
 49
1.0
 74
     0
 49
-1.0
 74
     0
  0
LTYPE
  5
65
330
5
100
AcDbSymbolTableRecord
100
AcDbLinetypeTableRecord
  2
ACJISTGL
 70
     0
  3
_ _ _ _ _
 72
    65
 73
     2
 40
3.0
 49
2.0
 74
     0
 49
-1.0
 74
     0
  0
LTYPE
  5
69
330
5
100
AcDbSymbolTableRecord
100
AcDbLinetypeTableRecord
  2
CENTER
 70
     0
  3
__ . __
 72
    65
 73
     4
 40
7.0
 49
4.0
 74
     0
 49
-1.0
 74
     0
 49
1.0
 74
     0
 49
-1.0
 74
     0
  0
LTYPE
  5
8F
330
5
100
AcDbSymbolTableRecord
100
AcDbLinetypeTableRecord
  2
ACISOWELD
 70
     0
  3
_ _ _ _ _
 72
    65
 73
     2
 40
2.0
 49
2.0
 74
     0
 49
-1.0
 74
     0
  0
LTYPE
  5
92
330
5
100
AcDbSymbolTableRecord
100
AcDbLinetypeTableRecord
  2
ACISOTGB
 70
     0
  3
__ . . __ . .
 72
    65
 73
     6
 40
9.0
 49
4.0
 74
     0
 49
-1.0
 74
     0
 49
1.0
 74
     0
 49
-1.0
 74
     0
 49
1.0
 74
     0
 49
-1.0
 74
     0
  0
LTYPE
  5
93
330
5
100
AcDbSymbolTableRecord
100
AcDbLinetypeTableRecord
  2
ACISOTGL
 70
     0
  3
_ _ _ _ _
 72
    65
 73
     2
 40
3.0
 49
2.0
 74
     0
 49
-1.0
 74
     0
  0
LTYPE
  5
309
330
5
100
AcDbSymbolTableRecord
100
AcDbLinetypeTableRecord
  2
HIDDEN
 70
     0
  3
_ _ _ _ _ _ _ _ _ _ _ _ _ _ _ _ _ _ _ _ _ _ _
 72
    65
 73
     2
 40
1.5
 49
1.0
 74
     0
 49
-0.5
 74
     0
  0
LTYPE
  5
30A
330
5
100
AcDbSymbolTableRecord
100
AcDbLinetypeTableRecord
  2
PHANTOM
 70
     0
  3
_____ _ _ _____ _ _ _____ _ _ _____ _ _ ____
 72
    65
 73
     6
 40
27.0
 49
20.0
 74
     0
 49
-1.0
 74
     0
 49
2.0
 74
     0
 49
-1.0
 74
     0
 49
2.0
 74
     0
 49
-1.0
 74
     0
  0
LTYPE
  5
30C
330
5
100
AcDbSymbolTableRecord
100
AcDbLinetypeTableRecord
  2
DASHDOT
 70
     0
  3
__ . __ . __ . __ . __ . __ . __ . __ . __ . __
 72
    65
 73
     4
 40
8.5
 49
6.0
 74
     0
 49
-1.0
 74
     0
 49
0.5
 74
     0
 49
-1.0
 74
     0
  0
LTYPE
  5
30D
330
5
100
AcDbSymbolTableRecord
100
AcDbLinetypeTableRecord
  2
DIVIDE
 70
     0
  3
__ . . __ . . __ . . __ . . __ . . __ . . __
 72
    65
 73
     6
 40
10.0
 49
6.0
 74
     0
 49
-1.0
 74
     0
 49
0.5
 74
     0
 49
-1.0
 74
     0
 49
0.5
 74
     0
 49
-1.0
 74
     0
  0
LTYPE
  5
30F
330
5
100
AcDbSymbolTableRecord
100
AcDbLinetypeTableRecord
  2
GEN7A
 70
     0
  3
__ . __ . __
 72
    65
 73
     4
 40
6.875
 49
5.0
 74
     0
 49
-0.625
 74
     0
 49
0.625
 74
     0
 49
-0.625
 74
     0
  0
LTYPE
  5
9B5
330
5
100
AcDbSymbolTableRecord
100
AcDbLinetypeTableRecord
  2
PHANTOM2
 70
     0
  3
Phantom (.5x) ___ _ _ ___ _ _ ___ _ _ ___ _ _
 72
    65
 73
     6
 40
31.75
 49
15.875
 74
     0
 49
-3.174999999999999
 74
     0
 49
3.174999999999999
 74
     0
 49
-3.174999999999999
 74
     0
 49
3.174999999999999
 74
     0
 49
-3.174999999999999
 74
     0
  0
ENDTAB
  0
TABLE
  2
LAYER
  5
2
102
{ACAD_XDICTIONARY
360
1948
102
}
330
0
100
AcDbSymbolTable
 70
    13
  0
LAYER
  5
10
330
2
100
AcDbSymbolTableRecord
100
AcDbLayerTableRecord
  2
0
 70
     0
 62
     7
  6
Continuous
370
    -3
390
F
  0
LAYER
  5
F5
330
2
100
AcDbSymbolTableRecord
100
AcDbLayerTableRecord
  2
RAHM2
 70
     0
 62
     1
  6
Continuous
370
    -3
390
F
  0
LAYER
  5
1EF
330
2
100
AcDbSymbolTableRecord
100
AcDbLayerTableRecord
  2
AM_BOR
 70
     0
 62
     7
  6
Continuous
370
    50
390
F
  0
LAYER
  5
310
330
2
100
AcDbSymbolTableRecord
100
AcDbLayerTableRecord
  2
RAHM3
 70
     0
 62
     2
  6
Continuous
370
    -3
390
F
  0
LAYER
  5
312
330
2
100
AcDbSymbolTableRecord
100
AcDbLayerTableRecord
  2
1
 70
     0
 62
     7
  6
Continuous
370
    -3
390
F
  0
LAYER
  5
313
330
2
100
AcDbSymbolTableRecord
100
AcDbLayerTableRecord
  2
DEFPOINTS
 70
     0
 62
     7
  6
Continuous
290
     0
370
    -3
390
F
  0
LAYER
  5
316
330
2
100
AcDbSymbolTableRecord
100
AcDbLayerTableRecord
  2
7A
 70
     0
 62
     4
  6
GEN7A
370
    -3
390
F
  0
LAYER
  5
149A
330
2
100
AcDbSymbolTableRecord
100
AcDbLayerTableRecord
  2
AM_5
 70
     0
 62
     3
  6
Continuous
370
    25
390
F
  0
LAYER
  5
17AD
330
2
100
AcDbSymbolTableRecord
100
AcDbLayerTableRecord
  2
AM_8
 70
     0
 62
     1
  6
Continuous
370
    25
390
F
  0
LAYER
  5
17D9
330
2
100
AcDbSymbolTableRecord
100
AcDbLayerTableRecord
  2
AM_7
 70
     0
 62
     4
  6
AM_ISO08W050
370
    25
390
F
  0
LAYER
  5
1947
330
2
100
AcDbSymbolTableRecord
100
AcDbLayerTableRecord
  2
TEXT
 70
     0
 62
     7
  6
Continuous
370
    -3
390
F
  0
LAYER
  5
19B5
330
2
100
AcDbSymbolTableRecord
100
AcDbLayerTableRecord
  2
AM_11
 70
     0
 62
     3
  6
AM_ISO09W050
370
    25
390
F
  0
LAYER
  5
19DE
330
2
100
AcDbSymbolTableRecord
100
AcDbLayerTableRecord
  2
AM_4
 70
     0
 62
     3
  6
Continuous
370
    25
390
F
  0
ENDTAB
  0
TABLE
  2
STYLE
  5
3
330
0
100
AcDbSymbolTable
 70
     7
  0
STYLE
  5
11
330
3
100
AcDbSymbolTableRecord
100
AcDbTextStyleTableRecord
  2
STANDARD
 70
     0
 40
0.0
 41
1.0
 50
0.0
 71
     0
 42
2.5
  3
ISOCP.SHX
  4
EXTFONT.SHX
  0
STYLE
  5
3C
330
3
100
AcDbSymbolTableRecord
100
AcDbTextStyleTableRecord
  2

 70
     1
 40
0.0
 41
1.0
 50
0.0
 71
     0
 42
2.5
  3
ltypeshp.shx
  4

  0
STYLE
  5
5D
330
3
100
AcDbSymbolTableRecord
100
AcDbTextStyleTableRecord
  2
ACJISTS
 70
     0
 40
1.0
 41
1.0
 50
0.0
 71
     0
 42
2.5
  3
isocp.shx
  4
extfont.shx
  0
STYLE
  5
60
330
3
100
AcDbSymbolTableRecord
100
AcDbTextStyleTableRecord
  2
ACJISGDT
 70
     0
 40
0.0
 41
1.0
 50
0.0
 71
     0
 42
2.5
  3
amgdt.shx
  4

  0
STYLE
  5
89
330
3
100
AcDbSymbolTableRecord
100
AcDbTextStyleTableRecord
  2
ACISOTS
 70
     0
 40
1.0
 41
1.0
 50
0.0
 71
     0
 42
2.5
  3
isocp.shx
  4
extfont.shx
  0
STYLE
  5
8D
330
3
100
AcDbSymbolTableRecord
100
AcDbTextStyleTableRecord
  2
ACISOGDT
 70
     0
 40
0.0
 41
1.0
 50
0.0
 71
     0
 42
2.5
  3
amgdt.shx
  4

  0
STYLE
  5
AD3
330
3
100
AcDbSymbolTableRecord
100
AcDbTextStyleTableRecord
  2
MDRAFSTD
 70
     0
 40
0.0
 41
1.0
 50
0.0
 71
     0
 42
20.0
  3
TXT
  4
BIGFONT
  0
ENDTAB
  0
TABLE
  2
VIEW
  5
6
330
0
100
AcDbSymbolTable
 70
     6
  0
VIEW
  5
3C5
330
6
100
AcDbSymbolTableRecord
100
AcDbViewTableRecord
  2
AM_VIEW1
 70
     0
 40
901.8477043673012
 10
2220.77254943532
 20
1237.666378279153
 41
1050.0
 11
0.0
 21
0.0
 31
1.0
 12
0.0
 22
0.0
 32
0.0
 42
50.0
 43
0.0
 44
0.0
 50
0.0
 71
    16
281
     0
 72
     0
  0
VIEW
  5
3C6
330
6
100
AcDbSymbolTableRecord
100
AcDbViewTableRecord
  2
AM_VIEW2
 70
     0
 40
901.8477043673012
 10
3270.77254943532
 20
1237.666378279153
 41
1050.0
 11
0.0
 21
0.0
 31
1.0
 12
0.0
 22
0.0
 32
0.0
 42
50.0
 43
0.0
 44
0.0
 50
0.0
 71
    16
281
     0
 72
     0
  0
VIEW
  5
3C7
330
6
100
AcDbSymbolTableRecord
100
AcDbViewTableRecord
  2
AM_VIEW3
 70
     0
 40
901.847704367301
 10
2220.77254943532
 20
654.5140826464539
 41
1050.0
 11
0.0
 21
0.0
 31
1.0
 12
0.0
 22
0.0
 32
0.0
 42
50.0
 43
0.0
 44
0.0
 50
0.0
 71
    16
281
     0
 72
     0
  0
VIEW
  5
3C8
330
6
100
AcDbSymbolTableRecord
100
AcDbViewTableRecord
  2
AM_VIEW4
 70
     0
 40
901.847704367301
 10
3270.77254943532
 20
654.5140826464539
 41
1050.0
 11
0.0
 21
0.0
 31
1.0
 12
0.0
 22
0.0
 32
0.0
 42
50.0
 43
0.0
 44
0.0
 50
0.0
 71
    16
281
     0
 72
     0
  0
VIEW
  5
3C9
330
6
100
AcDbSymbolTableRecord
100
AcDbViewTableRecord
  2
AM_VIEW5
 70
     0
 40
901.847704367301
 10
2745.77254943532
 20
946.0902304628033
 41
1050.0
 11
0.0
 21
0.0
 31
1.0
 12
0.0
 22
0.0
 32
0.0
 42
50.0
 43
0.0
 44
0.0
 50
0.0
 71
    16
281
     0
 72
     0
  0
VIEW
  5
3CA
330
6
100
AcDbSymbolTableRecord
100
AcDbViewTableRecord
  2
AM_VIEW6
 70
     0
 40
1803.677371780515
 10
2745.77254943532
 20
946.0902304628033
 41
2099.979000000001
 11
0.0
 21
0.0
 31
1.0
 12
0.0
 22
0.0
 32
0.0
 42
50.0
 43
0.0
 44
0.0
 50
0.0
 71
    16
281
     0
 72
     0
  0
ENDTAB
  0
TABLE
  2
UCS
  5
7
330
0
100
AcDbSymbolTable
 70
     0
  0
ENDTAB
  0
TABLE
  2
APPID
  5
9
330
0
100
AcDbSymbolTable
 70
    47
  0
APPID
  5
12
330
9
100
AcDbSymbolTableRecord
100
AcDbRegAppTableRecord
  2
ACAD
 70
     0
  0
APPID
  5
2D
330
9
100
AcDbSymbolTableRecord
100
AcDbRegAppTableRecord
  2
MCAD_NO_VIS
 70
     0
  0
APPID
  5
2E
330
9
100
AcDbSymbolTableRecord
100
AcDbRegAppTableRecord
  2
ACAD_TEMP_GRAPHIC
 70
     0
  0
APPID
  5
2F
330
9
100
AcDbSymbolTableRecord
100
AcDbRegAppTableRecord
  2
ACATTRIBSERVICES
 70
     0
  0
APPID
  5
1F0
330
9
100
AcDbSymbolTableRecord
100
AcDbRegAppTableRecord
  2
GENIUS_GENBLLY_14
 70
     0
  0
APPID
  5
321
330
9
100
AcDbSymbolTableRecord
100
AcDbRegAppTableRecord
  2
GENIUS_GENCFG_13
 70
     0
  0
APPID
  5
322
330
9
100
AcDbSymbolTableRecord
100
AcDbRegAppTableRecord
  2
GENIUS_GENOBJ_13
 70
     0
  0
APPID
  5
323
330
9
100
AcDbSymbolTableRecord
100
AcDbRegAppTableRecord
  2
GENIUS_GENODEF_13
 70
     0
  0
APPID
  5
324
330
9
100
AcDbSymbolTableRecord
100
AcDbRegAppTableRecord
  2
GENIUS_GENOENT_13
 70
     0
  0
APPID
  5
325
330
9
100
AcDbSymbolTableRecord
100
AcDbRegAppTableRecord
  2
GENIUS_GENOLIS_13
 70
     0
  0
APPID
  5
326
330
9
100
AcDbSymbolTableRecord
100
AcDbRegAppTableRecord
  2
GENIUS_GENOREF_13
 70
     0
  0
APPID
  5
327
330
9
100
AcDbSymbolTableRecord
100
AcDbRegAppTableRecord
  2
GENIUS_GENOBJ-N-TIT_13
 70
     0
  0
APPID
  5
328
330
9
100
AcDbSymbolTableRecord
100
AcDbRegAppTableRecord
  2
GENIUS_GENTITLE_13
 70
     0
  0
APPID
  5
329
330
9
100
AcDbSymbolTableRecord
100
AcDbRegAppTableRecord
  2
GENIUS_GENZVEED_13
 70
     0
  0
APPID
  5
32A
330
9
100
AcDbSymbolTableRecord
100
AcDbRegAppTableRecord
  2
GENIUS_GENOBJ-N-SDF_13
 70
     0
  0
APPID
  5
32B
330
9
100
AcDbSymbolTableRecord
100
AcDbRegAppTableRecord
  2
GENIUS_GENSCREG_13
 70
     0
  0
APPID
  5
32C
330
9
100
AcDbSymbolTableRecord
100
AcDbRegAppTableRecord
  2
GENIUS_GENCFG0_13
 70
     0
  0
APPID
  5
32D
330
9
100
AcDbSymbolTableRecord
100
AcDbRegAppTableRecord
  2
GENIUS_GENCFG1_13
 70
     0
  0
APPID
  5
32E
330
9
100
AcDbSymbolTableRecord
100
AcDbRegAppTableRecord
  2
GENIUS_GENCFG2_13
 70
     0
  0
APPID
  5
32F
330
9
100
AcDbSymbolTableRecord
100
AcDbRegAppTableRecord
  2
GENIUS_GENCFG3_13
 70
     0
  0
APPID
  5
330
330
9
100
AcDbSymbolTableRecord
100
AcDbRegAppTableRecord
  2
GENIUS_GENCFG4_13
 70
     0
  0
APPID
  5
331
330
9
100
AcDbSymbolTableRecord
100
AcDbRegAppTableRecord
  2
GENIUS_GEVCFG0_13
 70
     0
  0
APPID
  5
332
330
9
100
AcDbSymbolTableRecord
100
AcDbRegAppTableRecord
  2
GENIUS_GENOBJ-N-CRS_13
 70
     0
  0
APPID
  5
333
330
9
100
AcDbSymbolTableRecord
100
AcDbRegAppTableRecord
  2
GENIUS_GENOBJ-N-CEN_13
 70
     0
  0
APPID
  5
334
330
9
100
AcDbSymbolTableRecord
100
AcDbRegAppTableRecord
  2
GENIUS_GEFCFG0_13
 70
     0
  0
APPID
  5
3BA
330
9
100
AcDbSymbolTableRecord
100
AcDbRegAppTableRecord
  2
GENIUS_GENTRA_14
 70
     0
  0
APPID
  5
3CB
330
9
100
AcDbSymbolTableRecord
100
AcDbRegAppTableRecord
  2
GENIUS_GENSCREG_15
 70
     0
  0
APPID
  5
436
330
9
100
AcDbSymbolTableRecord
100
AcDbRegAppTableRecord
  2
GEVID984623613
 70
     0
  0
APPID
  5
437
330
9
100
AcDbSymbolTableRecord
100
AcDbRegAppTableRecord
  2
GEVDC
 70
     0
  0
APPID
  5
438
330
9
100
AcDbSymbolTableRecord
100
AcDbRegAppTableRecord
  2
GEVCON
 70
     0
  0
APPID
  5
43C
330
9
100
AcDbSymbolTableRecord
100
AcDbRegAppTableRecord
  2
GENIUS_GENBH_13
 70
     0
  0
APPID
  5
43E
330
9
100
AcDbSymbolTableRecord
100
AcDbRegAppTableRecord
  2
GENIUS_GENOBJ-NBEHI-BHF_13
 70
     0
  0
APPID
  5
440
330
9
100
AcDbSymbolTableRecord
100
AcDbRegAppTableRecord
  2
GENIUS_GENOBJ-NBEHI-BHB_13
 70
     0
  0
APPID
  5
455
330
9
100
AcDbSymbolTableRecord
100
AcDbRegAppTableRecord
  2
GENIUS_GENOBJ-F-SCPASSM_13
 70
     0
  0
APPID
  5
47B
330
9
100
AcDbSymbolTableRecord
100
AcDbRegAppTableRecord
  2
GEVID984623614
 70
     0
  0
APPID
  5
48B
330
9
100
AcDbSymbolTableRecord
100
AcDbRegAppTableRecord
  2
GEVID984623615
 70
     0
  0
APPID
  5
54A
330
9
100
AcDbSymbolTableRecord
100
AcDbRegAppTableRecord
  2
GENIUS_GENOBJ-N-REV_13
 70
     0
  0
APPID
  5
54B
330
9
100
AcDbSymbolTableRecord
100
AcDbRegAppTableRecord
  2
GENIUS_GENOBJ-N-RSSYM_13
 70
     0
  0
APPID
  5
54C
330
9
100
AcDbSymbolTableRecord
100
AcDbRegAppTableRecord
  2
GENIUS_GENSYMENT_13
 70
     0
  0
APPID
  5
54D
330
9
100
AcDbSymbolTableRecord
100
AcDbRegAppTableRecord
  2
GENIUS_GENSCSYM_13
 70
     0
  0
APPID
  5
943
330
9
100
AcDbSymbolTableRecord
100
AcDbRegAppTableRecord
  2
DCO15
 70
     0
  0
APPID
  5
9B7
330
9
100
AcDbSymbolTableRecord
100
AcDbRegAppTableRecord
  2
AD_DRAW
 70
     0
  0
APPID
  5
9D5
330
9
100
AcDbSymbolTableRecord
100
AcDbRegAppTableRecord
  2
DESIGNERASSEMBLIES
 70
     0
  0
APPID
  5
9E5
330
9
100
AcDbSymbolTableRecord
100
AcDbRegAppTableRecord
  2
ACADM_DIM_EDIT
 70
     0
  0
APPID
  5
9E6
330
9
100
AcDbSymbolTableRecord
100
AcDbRegAppTableRecord
  2
AMDT_DM_ADJ
 70
     0
  0
APPID
  5
128A
330
9
100
AcDbSymbolTableRecord
100
AcDbRegAppTableRecord
  2
GENIUS_GENDIMSH_14
 70
     0
  0
APPID
  5
1804
330
9
100
AcDbSymbolTableRecord
100
AcDbRegAppTableRecord
  2
GENIUS_GENDTOL_13
 70
     0
  0
ENDTAB
  0
TABLE
  2
DIMSTYLE
  5
A
330
0
100
AcDbSymbolTable
 70
    15
100
AcDbDimStyleTable
 71
     1
340
76
  0
DIMSTYLE
105
76
102
{ACAD_REACTORS
330
14A9
330
1534
330
155A
330
15CA
330
1604
330
1630
330
1658
330
167E
330
1698
330
16C4
330
16F5
330
1047
330
1AAD
102
}
330
A
100
AcDbSymbolTableRecord
100
AcDbDimStyleTableRecord
  2
IGS
 70
     0
  4
"
 40
5.0
 41
2.5
 42
1.0
 43
10.0
 44
1.0
 47
0.1
 48
0.1
 73
     0
 74
     0
 77
     3
 78
     8
 79
     2
140
4.5
141
0.0
143
0.0393701
146
0.71
147
1.5
172
     1
176
   256
177
   256
178
     2
271
     2
272
     2
283
     0
284
     8
340
11
341
77
342
77
371
    -1
372
    -1
  0
DIMSTYLE
105
7D
330
A
100
AcDbSymbolTableRecord
100
AcDbDimStyleTableRecord
  2
IGS$3
 70
     0
  4
"
 40
5.0
 41
2.5
 42
1.0
 43
10.0
 44
1.0
 47
0.1
 48
0.1
 73
     0
 77
     3
 78
     8
 79
     2
140
4.5
141
0.0
143
0.0393701
146
0.71
147
1.5
176
   256
177
   256
178
     2
271
     2
272
     2
283
     0
284
     8
288
     1
289
     0
340
11
341
77
342
77
371
    -1
372
    -1
  0
DIMSTYLE
105
7E
330
A
100
AcDbSymbolTableRecord
100
AcDbDimStyleTableRecord
  2
IGS$4
 70
     0
  4
"
 40
5.0
 41
2.5
 42
1.0
 43
10.0
 44
1.0
 47
0.1
 48
0.1
 73
     0
 77
     3
 78
     8
 79
     2
140
4.5
141
0.0
143
0.0393701
146
0.71
147
1.5
176
   256
177
   256
178
     2
271
     2
272
     2
283
     0
284
     8
288
     1
289
     0
340
11
341
77
342
77
371
    -1
372
    -1
  0
DIMSTYLE
105
7F
330
A
100
AcDbSymbolTableRecord
100
AcDbDimStyleTableRecord
  2
IGS$6
 70
     0
  4
"
 40
5.0
 41
2.5
 42
1.0
 43
10.0
 44
1.0
 47
0.1
 48
0.1
 73
     0
 74
     0
 78
     8
 79
     2
140
4.5
141
0.0
143
0.0393701
146
0.71
147
1.5
172
     1
176
   256
177
   256
178
     2
271
     2
272
     2
283
     0
284
     8
340
11
341
77
342
77
371
    -1
372
    -1
  0
DIMSTYLE
105
80
330
A
100
AcDbSymbolTableRecord
100
AcDbDimStyleTableRecord
  2
IGS$7
 70
     0
  4
"
 40
5.0
 41
2.5
 42
1.0
 43
10.0
 44
1.0
 47
0.1
 48
0.1
 73
     0
 74
     0
 77
     3
 78
     8
 79
     2
140
5.0
141
0.0
143
0.0393701
146
0.71
147
1.5
172
     1
176
   256
177
   256
178
     2
271
     2
272
     2
283
     0
284
     8
340
11
341
77
342
77
371
    -1
372
    -1
  0
DIMSTYLE
105
81
330
A
100
AcDbSymbolTableRecord
100
AcDbDimStyleTableRecord
  2
IGS$SF
 70
     0
  4
"
 40
5.0
 41
2.5
 42
1.0
 43
10.0
 44
1.0
 47
0.1
 48
0.1
 73
     0
 74
     0
 75
     1
 76
     1
 77
     3
 78
     8
 79
     2
140
3.5
141
0.0
143
0.0393701
146
0.71
147
1.5
172
     1
176
   256
177
   256
178
     2
271
     2
272
     3
274
     4
283
     0
284
     8
340
11
341
77
342
77
343
77
344
77
371
    -1
372
    -1
  0
DIMSTYLE
105
82
330
A
100
AcDbSymbolTableRecord
100
AcDbDimStyleTableRecord
  2
IGS$SH
 70
     0
  4
"
 40
5.0
 41
2.5
 42
1.0
 43
10.0
 44
1.0
 47
0.1
 48
0.1
 73
     0
 74
     0
 75
     1
 76
     1
 77
     3
 78
     8
 79
     2
140
3.5
141
0.0
143
0.0393701
144
2.0
146
0.71
147
1.5
172
     1
173
     1
176
   256
177
   256
178
     2
271
     2
272
     3
274
     4
283
     0
284
     8
340
11
341
77
342
77
343
83
344
77
371
    -1
372
    -1
  0
DIMSTYLE
105
9A
330
A
100
AcDbSymbolTableRecord
100
AcDbDimStyleTableRecord
  2
AM_ISO
 70
     0
  4
"
 40
5.0
 41
2.5
 42
1.0
 43
10.0
 44
1.0
 47
0.1
 48
0.1
 73
     0
 74
     0
 77
     1
 78
     8
 79
     2
140
3.5
141
0.0
143
0.0393701
146
0.71
147
1.5
172
     1
176
   256
177
   256
178
     2
271
     2
272
     3
274
     4
283
     0
284
     8
340
11
371
    -1
372
    -1
  0
DIMSTYLE
105
9B
330
A
100
AcDbSymbolTableRecord
100
AcDbDimStyleTableRecord
  2
AM_ISO$3
 70
     0
  4
"
 40
5.0
 41
2.5
 42
1.0
 43
10.0
 44
1.0
 47
0.1
 48
0.1
 73
     0
 77
     1
 78
     8
 79
     2
140
3.5
141
0.0
143
0.0393701
146
0.71
147
1.5
176
   256
177
   256
178
     2
271
     2
272
     3
274
     4
283
     0
284
     8
288
     1
289
     0
340
11
371
    -1
372
    -1
  0
DIMSTYLE
105
9C
330
A
100
AcDbSymbolTableRecord
100
AcDbDimStyleTableRecord
  2
AM_ISO$4
 70
     0
  4
"
 40
5.0
 41
2.5
 42
1.0
 43
10.0
 44
1.0
 47
0.1
 48
0.1
 73
     0
 77
     1
 78
     8
 79
     2
140
3.5
141
0.0
143
0.0393701
146
0.71
147
1.5
176
   256
177
   256
178
     2
271
     2
272
     3
274
     4
283
     0
284
     8
288
     1
289
     0
340
11
371
    -1
372
    -1
  0
DIMSTYLE
105
9D
330
A
100
AcDbSymbolTableRecord
100
AcDbDimStyleTableRecord
  2
AM_ISO$6
 70
     0
  4
"
 40
5.0
 41
2.5
 42
1.0
 43
10.0
 44
1.0
 47
0.1
 48
0.1
 73
     0
 74
     0
 78
     8
 79
     2
140
3.5
141
0.0
143
0.0393701
146
0.71
147
1.5
172
     1
176
   256
177
   256
178
     2
271
     2
272
     3
274
     4
283
     0
284
     8
340
11
371
    -1
372
    -1
  0
DIMSTYLE
105
9E
330
A
100
AcDbSymbolTableRecord
100
AcDbDimStyleTableRecord
  2
AM_ISO$7
 70
     0
  4
"
 40
5.0
 41
2.5
 42
1.0
 43
10.0
 44
1.0
 47
0.1
 48
0.1
 73
     0
 74
     0
 77
     1
 78
     8
 79
     2
140
5.0
141
0.0
143
0.0393701
146
0.71
147
1.5
172
     1
176
   256
177
   256
178
     2
271
     2
272
     3
274
     4
283
     0
284
     8
340
11
371
    -1
372
    -1
  0
DIMSTYLE
105
9F
330
A
100
AcDbSymbolTableRecord
100
AcDbDimStyleTableRecord
  2
AM_ISO$SF
 70
     0
  4
"
 40
5.0
 41
2.5
 42
1.0
 43
10.0
 44
1.0
 47
0.1
 48
0.1
 73
     0
 74
     0
 75
     1
 76
     1
 77
     1
 78
     8
 79
     2
140
3.5
141
0.0
143
0.0393701
146
0.71
147
1.5
172
     1
176
   256
177
   256
178
     2
271
     2
272
     3
274
     4
283
     0
284
     8
340
11
371
    -1
372
    -1
  0
DIMSTYLE
105
A0
330
A
100
AcDbSymbolTableRecord
100
AcDbDimStyleTableRecord
  2
AM_ISO$SH
 70
     0
  4
"
 40
5.0
 41
2.5
 42
1.0
 43
10.0
 44
1.0
 47
0.1
 48
0.1
 73
     0
 74
     0
 75
     1
 76
     1
 77
     1
 78
     8
 79
     2
140
3.5
141
0.0
143
0.0393701
144
2.0
146
0.71
147
1.5
172
     1
173
     1
176
   256
177
   256
178
     2
271
     2
272
     3
274
     4
283
     0
284
     8
340
11
343
83
371
    -1
372
    -1
  0
DIMSTYLE
105
317
330
A
100
AcDbSymbolTableRecord
100
AcDbDimStyleTableRecord
  2
STANDARD
 70
     0
340
11
  0
ENDTAB
  0
TABLE
  2
BLOCK_RECORD
  5
1
330
0
100
AcDbSymbolTable
 70
    33
  0
BLOCK_RECORD
  5
1F
102
{ACAD_XDICTIONARY
360
B1
102
}
330
1
100
AcDbSymbolTableRecord
100
AcDbBlockTableRecord
  2
*Model_Space
340
22
  0
BLOCK_RECORD
  5
1B
330
1
100
AcDbSymbolTableRecord
100
AcDbBlockTableRecord
  2
*Paper_Space
340
1E
  0
BLOCK_RECORD
  5
23
330
1
100
AcDbSymbolTableRecord
100
AcDbBlockTableRecord
  2
*Paper_Space0
340
26
  0
BLOCK_RECORD
  5
77
330
1
100
AcDbSymbolTableRecord
100
AcDbBlockTableRecord
  2
_Open30
340
0
310
2800000020000000200000000100080000000000000400000000000000000000000000000000000000000000000080000080000000808000800000008000800080800000C0C0C000C0DCC000F0CAA6000020400000206000002080000020A0000020C0000020E00000400000004020000040400000406000004080000040A0
310
000040C0000040E00000600000006020000060400000606000006080000060A0000060C0000060E00000800000008020000080400000806000008080000080A0000080C0000080E00000A0000000A0200000A0400000A0600000A0800000A0A00000A0C00000A0E00000C0000000C0200000C0400000C0600000C0800000C0
310
A00000C0C00000C0E00000E0000000E0200000E0400000E0600000E0800000E0A00000E0C00000E0E00040000000400020004000400040006000400080004000A0004000C0004000E00040200000402020004020400040206000402080004020A0004020C0004020E000404000004040200040404000404060004040800040
310
40A0004040C0004040E00040600000406020004060400040606000406080004060A0004060C0004060E00040800000408020004080400040806000408080004080A0004080C0004080E00040A0000040A0200040A0400040A0600040A0800040A0A00040A0C00040A0E00040C0000040C0200040C0400040C0600040C08000
310
40C0A00040C0C00040C0E00040E0000040E0200040E0400040E0600040E0800040E0A00040E0C00040E0E00080000000800020008000400080006000800080008000A0008000C0008000E00080200000802020008020400080206000802080008020A0008020C0008020E00080400000804020008040400080406000804080
310
008040A0008040C0008040E00080600000806020008060400080606000806080008060A0008060C0008060E00080800000808020008080400080806000808080008080A0008080C0008080E00080A0000080A0200080A0400080A0600080A0800080A0A00080A0C00080A0E00080C0000080C0200080C0400080C0600080C0
310
800080C0A00080C0C00080C0E00080E0000080E0200080E0400080E0600080E0800080E0A00080E0C00080E0E000C0000000C0002000C0004000C0006000C0008000C000A000C000C000C000E000C0200000C0202000C0204000C0206000C0208000C020A000C020C000C020E000C0400000C0402000C0404000C0406000C0
310
408000C040A000C040C000C040E000C0600000C0602000C0604000C0606000C0608000C060A000C060C000C060E000C0800000C0802000C0804000C0806000C0808000C080A000C080C000C080E000C0A00000C0A02000C0A04000C0A06000C0A08000C0A0A000C0A0C000C0A0E000C0C00000C0C02000C0C04000C0C06000
310
C0C08000C0C0A000F0FBFF00A4A0A000808080000000FF0000FF000000FFFF00FF000000FF00FF00FFFF0000FFFFFF0000000000000000000000000000000000000000000000000000000000000000000000000000000000000000000000000000000000000000000000000000000000000000000000000000000000000000
310
00000000000000000000000000000000000000000000000000000000000000000000000000000000000000000000000000000000000000000000000000000000000000000000000000000000000000000000000000000000000000000000000000000000000000000000000000000000000000000000000000000000000000
310
000000000000000000000000000000000000000000000000000000000000000000000000000000000000000000000000000000FFFF0000000000000000000000000000000000000000000000000000000000000000FFFFFFFF0000000000000000000000000000000000000000000000000000000000000000FFFFFFFF0000
310
000000000000000000000000000000000000000000000000000000000000FFFFFF0000000000000000000000000000000000000000000000000000000000000000FFFFFFFF0000000000000000000000000000000000000000000000000000000000000000FFFFFF0000000000000000000000000000000000000000000000
310
000000000000000000FFFFFFFF0000000000000000000000000000000000000000000000000000000000000000FFFFFFFF00000000FFFFFFFFFFFFFFFFFFFFFFFFFFFFFFFFFFFFFFFFFFFFFFFFFFFFFFFFFFFF00000000000000000000000000000000000000000000000000FFFFFFFF000000000000000000000000000000
310
000000000000000000FFFFFFFF000000000000000000000000000000000000000000000000FFFFFFFF000000000000000000000000000000000000000000000000FFFFFFFF000000000000000000000000000000000000000000000000FFFFFFFF000000000000000000000000000000000000000000000000FFFFFFFF0000
310
0000000000000000000000000000000000000000000000FFFFFF0000000000000000000000000000000000000000000000000000000000000000000000000000000000000000000000000000000000000000000000000000000000000000000000000000000000000000000000000000000000000000000000000000000000
310
00000000000000000000000000000000000000000000000000000000000000000000000000000000000000000000000000000000000000000000000000000000000000000000000000000000000000000000000000000000000000000000000000000000000000000000000000000000000000000000000000000000000000
310
0000000000000000000000000000000000000000000000000000000000000000000000000000000000000000000000000000000000000000
102
{BLKREFS
331
189C
331
189D
331
18C4
331
18C5
331
18CD
331
18CE
331
18D6
331
18D7
331
18DF
331
18E0
331
18E8
331
18E9
331
18F1
331
18F2
331
18FA
331
18FB
331
1903
331
1904
331
190C
331
190D
331
192D
331
192E
331
1936
331
1937
331
1A8E
331
1A8F
331
1ACF
331
1AD0
102
}
  0
BLOCK_RECORD
  5
83
330
1
100
AcDbSymbolTableRecord
100
AcDbBlockTableRecord
  2
GENAXEH
340
0
310
2800000020000000200000000100080000000000000400000000000000000000000000000000000000000000000080000080000000808000800000008000800080800000C0C0C000C0DCC000F0CAA6000020400000206000002080000020A0000020C0000020E00000400000004020000040400000406000004080000040A0
310
000040C0000040E00000600000006020000060400000606000006080000060A0000060C0000060E00000800000008020000080400000806000008080000080A0000080C0000080E00000A0000000A0200000A0400000A0600000A0800000A0A00000A0C00000A0E00000C0000000C0200000C0400000C0600000C0800000C0
310
A00000C0C00000C0E00000E0000000E0200000E0400000E0600000E0800000E0A00000E0C00000E0E00040000000400020004000400040006000400080004000A0004000C0004000E00040200000402020004020400040206000402080004020A0004020C0004020E000404000004040200040404000404060004040800040
310
40A0004040C0004040E00040600000406020004060400040606000406080004060A0004060C0004060E00040800000408020004080400040806000408080004080A0004080C0004080E00040A0000040A0200040A0400040A0600040A0800040A0A00040A0C00040A0E00040C0000040C0200040C0400040C0600040C08000
310
40C0A00040C0C00040C0E00040E0000040E0200040E0400040E0600040E0800040E0A00040E0C00040E0E00080000000800020008000400080006000800080008000A0008000C0008000E00080200000802020008020400080206000802080008020A0008020C0008020E00080400000804020008040400080406000804080
310
008040A0008040C0008040E00080600000806020008060400080606000806080008060A0008060C0008060E00080800000808020008080400080806000808080008080A0008080C0008080E00080A0000080A0200080A0400080A0600080A0800080A0A00080A0C00080A0E00080C0000080C0200080C0400080C0600080C0
310
800080C0A00080C0C00080C0E00080E0000080E0200080E0400080E0600080E0800080E0A00080E0C00080E0E000C0000000C0002000C0004000C0006000C0008000C000A000C000C000C000E000C0200000C0202000C0204000C0206000C0208000C020A000C020C000C020E000C0400000C0402000C0404000C0406000C0
310
408000C040A000C040C000C040E000C0600000C0602000C0604000C0606000C0608000C060A000C060C000C060E000C0800000C0802000C0804000C0806000C0808000C080A000C080C000C080E000C0A00000C0A02000C0A04000C0A06000C0A08000C0A0A000C0A0C000C0A0E000C0C00000C0C02000C0C04000C0C06000
310
C0C08000C0C0A000F0FBFF00A4A0A000808080000000FF0000FF000000FFFF00FF000000FF00FF00FFFF0000FFFFFF0000000000000000000000000000000000000000000000000000000000000000000000000000000000000000000000000000000000000000000000000000000000000000000000000000000000000000
310
00000000000000000000000000000000000000000000000000000000000000000000000000000000000000000000000000000000000000000000000000000000000000000000000000000000000000000000000000000000000000000000000000000000000000000000000000000000000000000000000000000000000000
310
00000000000000000000000000000000000000000000000000000000000000000000000000000000000000000000000000000000000000000000000000000000000000000000000000000000000000000000000000000000000000000000000000000000000000000000000000000000000000000000000000000000000000
310
00000000000000000000000000000000000000000000000000000000000000000000000000000000000000000000000000000000000000000000000000000000000000000000000000000000000000000000000000000000000000000000000000000000000000000000000000000000000000000000000000000000000000
310
0000000000000000000000000000000000000000000000000000000000000000000000000000000000000000000000000000000000FFFFFFFFFFFFFFFFFFFFFFFFFFFFFFFFFFFFFFFFFFFFFFFFFFFFFFFFFFFF0000000000000000000000000000000000000000000000000000000000000000000000000000000000000000
310
00000000000000000000000000000000000000000000000000000000000000000000000000000000000000000000000000000000000000000000000000000000000000000000000000000000000000000000000000000000000000000000000000000000000000000000000000000000000000000000000000000000000000
310
00000000000000000000000000000000000000000000000000000000000000000000000000000000000000000000000000000000000000000000000000000000000000000000000000000000000000000000000000000000000000000000000000000000000000000000000000000000000000000000000000000000000000
310
00000000000000000000000000000000000000000000000000000000000000000000000000000000000000000000000000000000000000000000000000000000000000000000000000000000000000000000000000000000000000000000000000000000000000000000000000000000000000000000000000000000000000
310
0000000000000000000000000000000000000000000000000000000000000000000000000000000000000000000000000000000000000000
  0
BLOCK_RECORD
  5
335
330
1
100
AcDbSymbolTableRecord
100
AcDbBlockTableRecord
  2
IGS2
340
0
310
2800000020000000200000000100080000000000000400000000000000000000000000000000000000000000000080000080000000808000800000008000800080800000C0C0C000C0DCC000F0CAA6000020400000206000002080000020A0000020C0000020E00000400000004020000040400000406000004080000040A0
310
000040C0000040E00000600000006020000060400000606000006080000060A0000060C0000060E00000800000008020000080400000806000008080000080A0000080C0000080E00000A0000000A0200000A0400000A0600000A0800000A0A00000A0C00000A0E00000C0000000C0200000C0400000C0600000C0800000C0
310
A00000C0C00000C0E00000E0000000E0200000E0400000E0600000E0800000E0A00000E0C00000E0E00040000000400020004000400040006000400080004000A0004000C0004000E00040200000402020004020400040206000402080004020A0004020C0004020E000404000004040200040404000404060004040800040
310
40A0004040C0004040E00040600000406020004060400040606000406080004060A0004060C0004060E00040800000408020004080400040806000408080004080A0004080C0004080E00040A0000040A0200040A0400040A0600040A0800040A0A00040A0C00040A0E00040C0000040C0200040C0400040C0600040C08000
310
40C0A00040C0C00040C0E00040E0000040E0200040E0400040E0600040E0800040E0A00040E0C00040E0E00080000000800020008000400080006000800080008000A0008000C0008000E00080200000802020008020400080206000802080008020A0008020C0008020E00080400000804020008040400080406000804080
310
008040A0008040C0008040E00080600000806020008060400080606000806080008060A0008060C0008060E00080800000808020008080400080806000808080008080A0008080C0008080E00080A0000080A0200080A0400080A0600080A0800080A0A00080A0C00080A0E00080C0000080C0200080C0400080C0600080C0
310
800080C0A00080C0C00080C0E00080E0000080E0200080E0400080E0600080E0800080E0A00080E0C00080E0E000C0000000C0002000C0004000C0006000C0008000C000A000C000C000C000E000C0200000C0202000C0204000C0206000C0208000C020A000C020C000C020E000C0400000C0402000C0404000C0406000C0
310
408000C040A000C040C000C040E000C0600000C0602000C0604000C0606000C0608000C060A000C060C000C060E000C0800000C0802000C0804000C0806000C0808000C080A000C080C000C080E000C0A00000C0A02000C0A04000C0A06000C0A08000C0A0A000C0A0C000C0A0E000C0C00000C0C02000C0C04000C0C06000
310
C0C08000C0C0A000F0FBFF00A4A0A000808080000000FF0000FF000000FFFF00FF000000FF00FF00FFFF0000FFFFFF0000000000000000000000000000000000000000000000000000000000000000000000000000000000000000000000000000000000000000000000000000000000000000000000000000000000000000
310
00000000000000000000000000000000000000000000000000000000000000000000000000000000000000000000000000000000000000000000000000000000000000000000000000000000000000000000F9FBFBF9F9F9FBFBF9F9F9F90000000000000000000000000000000000000000F9F9FBFBFBFBFBFBFBF9F9F900
310
00000000000000000000000000000000000000F9FBFBFBFBFBFBFBFBF9F9F90000000000000000000000000000000000000000F9F9F9F9F9F9F9F9F9F9F9F900000000000000000000000000000000000000000000000000000000000000000000000000000000000000000000000000000000000000000000000000000000
310
00000000000000000000000000000000000000000000000000000000000000000000000000000000000000000000000000000000000000000000000000000000000000000000000000000000000000000000000000000000000000000000000000000000000000000000000000000000000000000000000000000000000000
310
00000000000000000000000000000000000000000000000000000000000000000000000000000000000000000000000000000000000000000000000000000000000000000000000000000000000000000000000000000000000000000000000000000000000000000000000000000000000000000000000000000000000000
310
00000000000000000000000000000000000000000000000000000000000000000000000000000000000000000000000000000000000000000000000000000000000000000000000000000000000000000000000000000000000000000000000000000000000000000000000000000000000000000000000000000000000000
310
00000000000000000000000000000000000000000000000000000000000000000000000000000000000000000000000000000000000000000000000000000000000000000000000000000000000000000000000000000000000000000000000000000000000000000000000000000000000000000000000000000000000000
310
00000000000000000000000000000000000000000000000000000000000000000000000000000000000000000000000000000000000000000000000000000000000000000000000000000000000000000000000000000000000000000000000000000000000000000000000000000000000000000000000000000000000000
310
0000000000000000000000000000000000000000000000000000000000000000000000000000000000000000000000000000000000000000
102
{BLKREFS
331
1827
102
}
  0
BLOCK_RECORD
  5
6A8
330
1
100
AcDbSymbolTableRecord
100
AcDbBlockTableRecord
  2
IGS_A3
340
0
310
2800000020000000200000000100080000000000000400000000000000000000000000000000000000000000000080000080000000808000800000008000800080800000C0C0C000C0DCC000F0CAA6000020400000206000002080000020A0000020C0000020E00000400000004020000040400000406000004080000040A0
310
000040C0000040E00000600000006020000060400000606000006080000060A0000060C0000060E00000800000008020000080400000806000008080000080A0000080C0000080E00000A0000000A0200000A0400000A0600000A0800000A0A00000A0C00000A0E00000C0000000C0200000C0400000C0600000C0800000C0
310
A00000C0C00000C0E00000E0000000E0200000E0400000E0600000E0800000E0A00000E0C00000E0E00040000000400020004000400040006000400080004000A0004000C0004000E00040200000402020004020400040206000402080004020A0004020C0004020E000404000004040200040404000404060004040800040
310
40A0004040C0004040E00040600000406020004060400040606000406080004060A0004060C0004060E00040800000408020004080400040806000408080004080A0004080C0004080E00040A0000040A0200040A0400040A0600040A0800040A0A00040A0C00040A0E00040C0000040C0200040C0400040C0600040C08000
310
40C0A00040C0C00040C0E00040E0000040E0200040E0400040E0600040E0800040E0A00040E0C00040E0E00080000000800020008000400080006000800080008000A0008000C0008000E00080200000802020008020400080206000802080008020A0008020C0008020E00080400000804020008040400080406000804080
310
008040A0008040C0008040E00080600000806020008060400080606000806080008060A0008060C0008060E00080800000808020008080400080806000808080008080A0008080C0008080E00080A0000080A0200080A0400080A0600080A0800080A0A00080A0C00080A0E00080C0000080C0200080C0400080C0600080C0
310
800080C0A00080C0C00080C0E00080E0000080E0200080E0400080E0600080E0800080E0A00080E0C00080E0E000C0000000C0002000C0004000C0006000C0008000C000A000C000C000C000E000C0200000C0202000C0204000C0206000C0208000C020A000C020C000C020E000C0400000C0402000C0404000C0406000C0
310
408000C040A000C040C000C040E000C0600000C0602000C0604000C0606000C0608000C060A000C060C000C060E000C0800000C0802000C0804000C0806000C0808000C080A000C080C000C080E000C0A00000C0A02000C0A04000C0A06000C0A08000C0A0A000C0A0C000C0A0E000C0C00000C0C02000C0C04000C0C06000
310
C0C08000C0C0A000F0FBFF00A4A0A000808080000000FF0000FF000000FFFF00FF000000FF00FF00FFFF0000FFFFFF0000000000000000000000000000000000000000000000000000000000000000000000000000000000000000000000000000000000000000000000000000000000000000000000000000000000000000
310
000000000000000000000000000000000000000000000000000000000000000000000000000000000000000000000000000000000000000000000000000000000000000000000000000000000000000000000000000000000000000000000000000000000000000000000000000000000000F9F9FFF9F9F9F9F9F9F9F9F9F9
310
F9F9F9F9F9F9F9F9F9F9F9F9F9F9F900000000F900FFFFFFFFFFFFFFFFFFFFFFFFFFFFFFFFFFFFFFFFFFFFFFFFFFF900000000F900FF0000000000000000000000000000000000000000000000FFF900000000F900FF0000000000000000000000000000000000000000000000FFF900000000F900FF000000000000000000
310
0000000000000000000000000000FFF900000000F900FF0000000000000000000000000000000000000000000000FFF900000000F900FF0000000000000000000000000000000000000000000000FFF900000000F900FF0000000000000000000000000000000000000000000000FFF900000000F900FF0000000000000000
310
000000000000000000000000000000FFF900000000F900FF0000000000000000000000000000000000000000000000FFF900000000F900FF0000000000000000000000000000000000000000000000FFF900000000F900FF0000000000000000000000000000000000000000000000FFF900000000F900FF00000000000000
310
00000000000000000000000000000000FFF900000000F900FF0000000000000000000000000000000000000000000000FFF900000000F900FF0000000000000000000000000000000000000000000000FFF900000000F900FF0000000000000000000000000000000000000000000000FFF900000000F900FF000000000000
310
0000000000000000000000000000000000FFF900000000F900FF0000000000000000000000000000000000000000000000FFF900000000F900FFFFFFFFFFFFFFFFFFFFFFFFFFFFFFFFFFFFFFFFFFFFFFFFFFF900000000F9F9F9F9F9F9F9F9F9F9F9F9F9F9F9F9F9F9F9F9F9F9F9F9F9F9F9F9000000000000000000000000
310
00000000000000000000000000000000000000000000000000000000000000000000000000000000000000000000000000000000000000000000000000000000000000000000000000000000000000000000000000000000000000000000000000000000000000000000000000000000000000000000000000000000000000
310
0000000000000000000000000000000000000000000000000000000000000000000000000000000000000000000000000000000000000000
102
{BLKREFS
331
1826
102
}
  0
BLOCK_RECORD
  5
9F6
330
1
100
AcDbSymbolTableRecord
100
AcDbBlockTableRecord
  2
MAKR0
340
0
102
{BLKREFS
331
1017
102
}
  0
BLOCK_RECORD
  5
9FB
330
1
100
AcDbSymbolTableRecord
100
AcDbBlockTableRecord
  2
MAKR1
340
0
102
{BLKREFS
331
1016
102
}
  0
BLOCK_RECORD
  5
A00
330
1
100
AcDbSymbolTableRecord
100
AcDbBlockTableRecord
  2
MAKR2
340
0
102
{BLKREFS
331
1015
102
}
  0
BLOCK_RECORD
  5
A05
330
1
100
AcDbSymbolTableRecord
100
AcDbBlockTableRecord
  2
MAKR3
340
0
102
{BLKREFS
331
100A
102
}
  0
BLOCK_RECORD
  5
A0A
330
1
100
AcDbSymbolTableRecord
100
AcDbBlockTableRecord
  2
MAKR4
340
0
102
{BLKREFS
331
FEB
102
}
  0
BLOCK_RECORD
  5
A0F
330
1
100
AcDbSymbolTableRecord
100
AcDbBlockTableRecord
  2
MAKR5
340
0
102
{BLKREFS
331
FEA
102
}
  0
BLOCK_RECORD
  5
AA1
330
1
100
AcDbSymbolTableRecord
100
AcDbBlockTableRecord
  2
BALN0
340
0
  0
BLOCK_RECORD
  5
AA9
330
1
100
AcDbSymbolTableRecord
100
AcDbBlockTableRecord
  2
BALN1
340
0
  0
BLOCK_RECORD
  5
AB1
330
1
100
AcDbSymbolTableRecord
100
AcDbBlockTableRecord
  2
BALN2
340
0
  0
BLOCK_RECORD
  5
AB8
330
1
100
AcDbSymbolTableRecord
100
AcDbBlockTableRecord
  2
BALN3
340
0
  0
BLOCK_RECORD
  5
ABF
330
1
100
AcDbSymbolTableRecord
100
AcDbBlockTableRecord
  2
BALN4
340
0
  0
BLOCK_RECORD
  5
AC6
330
1
100
AcDbSymbolTableRecord
100
AcDbBlockTableRecord
  2
BALN5
340
0
  0
BLOCK_RECORD
  5
106F
330
1
100
AcDbSymbolTableRecord
100
AcDbBlockTableRecord
  2
*D18
340
0
  0
BLOCK_RECORD
  5
14AA
330
1
100
AcDbSymbolTableRecord
100
AcDbBlockTableRecord
  2
*D20
340
0
  0
BLOCK_RECORD
  5
1535
330
1
100
AcDbSymbolTableRecord
100
AcDbBlockTableRecord
  2
*D21
340
0
  0
BLOCK_RECORD
  5
155B
330
1
100
AcDbSymbolTableRecord
100
AcDbBlockTableRecord
  2
*D22
340
0
  0
BLOCK_RECORD
  5
15CB
330
1
100
AcDbSymbolTableRecord
100
AcDbBlockTableRecord
  2
*D23
340
0
  0
BLOCK_RECORD
  5
1605
330
1
100
AcDbSymbolTableRecord
100
AcDbBlockTableRecord
  2
*D24
340
0
  0
BLOCK_RECORD
  5
1631
330
1
100
AcDbSymbolTableRecord
100
AcDbBlockTableRecord
  2
*D25
340
0
  0
BLOCK_RECORD
  5
1659
330
1
100
AcDbSymbolTableRecord
100
AcDbBlockTableRecord
  2
*D26
340
0
  0
BLOCK_RECORD
  5
167F
330
1
100
AcDbSymbolTableRecord
100
AcDbBlockTableRecord
  2
*D27
340
0
  0
BLOCK_RECORD
  5
1699
330
1
100
AcDbSymbolTableRecord
100
AcDbBlockTableRecord
  2
*D28
340
0
  0
BLOCK_RECORD
  5
16C5
330
1
100
AcDbSymbolTableRecord
100
AcDbBlockTableRecord
  2
*D29
340
0
  0
BLOCK_RECORD
  5
16F6
330
1
100
AcDbSymbolTableRecord
100
AcDbBlockTableRecord
  2
*D30
340
0
  0
BLOCK_RECORD
  5
193F
330
1
100
AcDbSymbolTableRecord
100
AcDbBlockTableRecord
  2
NAKAMURA
340
0
310
2800000020000000200000000100080000000000000400000000000000000000000000000000000000000000000080000080000000808000800000008000800080800000C0C0C000C0DCC000F0CAA6000020400000206000002080000020A0000020C0000020E00000400000004020000040400000406000004080000040A0
310
000040C0000040E00000600000006020000060400000606000006080000060A0000060C0000060E00000800000008020000080400000806000008080000080A0000080C0000080E00000A0000000A0200000A0400000A0600000A0800000A0A00000A0C00000A0E00000C0000000C0200000C0400000C0600000C0800000C0
310
A00000C0C00000C0E00000E0000000E0200000E0400000E0600000E0800000E0A00000E0C00000E0E00040000000400020004000400040006000400080004000A0004000C0004000E00040200000402020004020400040206000402080004020A0004020C0004020E000404000004040200040404000404060004040800040
310
40A0004040C0004040E00040600000406020004060400040606000406080004060A0004060C0004060E00040800000408020004080400040806000408080004080A0004080C0004080E00040A0000040A0200040A0400040A0600040A0800040A0A00040A0C00040A0E00040C0000040C0200040C0400040C0600040C08000
310
40C0A00040C0C00040C0E00040E0000040E0200040E0400040E0600040E0800040E0A00040E0C00040E0E00080000000800020008000400080006000800080008000A0008000C0008000E00080200000802020008020400080206000802080008020A0008020C0008020E00080400000804020008040400080406000804080
310
008040A0008040C0008040E00080600000806020008060400080606000806080008060A0008060C0008060E00080800000808020008080400080806000808080008080A0008080C0008080E00080A0000080A0200080A0400080A0600080A0800080A0A00080A0C00080A0E00080C0000080C0200080C0400080C0600080C0
310
800080C0A00080C0C00080C0E00080E0000080E0200080E0400080E0600080E0800080E0A00080E0C00080E0E000C0000000C0002000C0004000C0006000C0008000C000A000C000C000C000E000C0200000C0202000C0204000C0206000C0208000C020A000C020C000C020E000C0400000C0402000C0404000C0406000C0
310
408000C040A000C040C000C040E000C0600000C0602000C0604000C0606000C0608000C060A000C060C000C060E000C0800000C0802000C0804000C0806000C0808000C080A000C080C000C080E000C0A00000C0A02000C0A04000C0A06000C0A08000C0A0A000C0A0C000C0A0E000C0C00000C0C02000C0C04000C0C06000
310
C0C08000C0C0A000F0FBFF00A4A0A000808080000000FF0000FF000000FFFF00FF000000FF00FF00FFFF0000FFFFFF000000000000000000000000000000000000000000000000000000000000000000000000000000000000000000000000FFFFFF000000000000000000000000000000000000000000000000FFFFFFFFFF
310
000000FFFF0000000000000000000000000000000000000000FFFF00000000000000000000FFFFFF00000000000000000000000000000000FF00000000FF0000000000FF00FFFF00FFFF00000000000000000000000000FF0000000000FF0000000000FF0000FF000000FF0000000000000000000000FF000000FFFFFFFFFF
310
FF00FF00FF00FFFF00000000FF000000000000000000FF00000000FF0000FF00FF0000FFFFFFFFFF0000000000FF0000000000000000FF00000000FF0000FF00FF0000FFFFFFFFFF0000000000FF00000000000000FF0000000000FF0000FF00FF00FFFFFFFFFFFFFF0000000000FF000000000000FF0000000000FFFFFFFF
310
FFFF000000FF0000FF00000000000000FF00000000FF000000000000000000FF0000000000FF0000FF00000000000000FF00000000FFFFFFFFFFFFFFFFFFFFFFFFFFFFFFFFFFFFFFFFFFFFFFFFFFFFFFFF00000000FF0000000000000000000000000000000000000000000000000000FF000000FF00000000000000000000
310
000000000000000000000000000000000000FF0000FF00000000000000000000000000000000000000000000000000000000FF0000FF00000000000000000000000000000000000000000000000000000000FF0000FF00000000000000000000000000000000000000000000000000000000FF000000FF0000000000000000
310
000000000000000000000000000000000000FF00000000FF0000000000000000000000000000000000000000000000000000FF00000000FF0000000000000000000000000000000000000000000000000000FF0000000000FF00000000000000000000000000000000000000000000000000FF0000000000FFFFFFFFFFFFFF
310
FFFFFFFFFFFFFFFFFFFFFFFFFFFFFFFFFFFFFF00000000000000FF000000000000FFFF00FFFF00FFFF00FF000000000000FF0000000000000000FF000000000000FF00FFFF0000FFFF00FF000000000000FF000000000000000000FF00000000FFFF00FFFF0000FFFFFFFF0000000000FF0000000000000000000000FF0000
310
0000FFFFFF00FFFFFFFFFFFF00000000FF00000000000000000000000000FF0000FFFFFFFFFFFF00FFFFFFFFFF00FFFF000000000000000000000000000000FFFF00FFFFFFFFFFFFFFFFFFFFFFFF00000000000000000000000000000000000000FFFFFFFFFF0000FFFFFFFF00000000000000000000000000000000000000
310
00000000000000FFFFFF00000000000000000000000000000000000000000000000000000000000000000000000000000000000000000000
102
{BLKREFS
331
1952
331
1A13
102
}
1001
ACAD
1000
DesignCenter Data
1002
{
1070
     1
1070
     4
1002
}
  0
BLOCK_RECORD
  5
1AAE
330
1
100
AcDbSymbolTableRecord
100
AcDbBlockTableRecord
  2
*D32
340
0
  0
ENDTAB
  0
ENDSEC
  0
SECTION
  2
BLOCKS
  0
BLOCK
  5
20
330
1F
100
AcDbEntity
  8
0
100
AcDbBlockBegin
  2
*Model_Space
 70
     0
 10
0.0
 20
0.0
 30
0.0
  3
*Model_Space
  1

  0
ENDBLK
  5
21
330
1F
100
AcDbEntity
  8
0
100
AcDbBlockEnd
  0
BLOCK
  5
1C
330
1B
100
AcDbEntity
 67
     1
  8
0
100
AcDbBlockBegin
  2
*Paper_Space
 70
     0
 10
0.0
 20
0.0
 30
0.0
  3
*Paper_Space
  1

  0
ENDBLK
  5
1D
330
1B
100
AcDbEntity
 67
     1
  8
0
100
AcDbBlockEnd
  0
BLOCK
  5
24
330
23
100
AcDbEntity
  8
0
100
AcDbBlockBegin
  2
*Paper_Space0
 70
     0
 10
0.0
 20
0.0
 30
0.0
  3
*Paper_Space0
  1

  0
ENDBLK
  5
25
330
23
100
AcDbEntity
  8
0
100
AcDbBlockEnd
  0
BLOCK
  5
7B
330
77
100
AcDbEntity
  8
0
100
AcDbBlockBegin
  2
_Open30
 70
     0
 10
0.0
 20
0.0
 30
0.0
  3
_Open30
  1

  0
LINE
  5
78
330
77
100
AcDbEntity
  8
0
  6
ByBlock
 62
     0
370
    -2
100
AcDbLine
 10
-1.0
 20
0.26794919
 30
0.0
 11
0.0
 21
0.0
 31
0.0
  0
LINE
  5
79
330
77
100
AcDbEntity
  8
0
  6
ByBlock
 62
     0
370
    -2
100
AcDbLine
 10
0.0
 20
0.0
 30
0.0
 11
-1.0
 21
-0.26794919
 31
0.0
  0
LINE
  5
7A
330
77
100
AcDbEntity
  8
0
  6
ByBlock
 62
     0
370
    -2
100
AcDbLine
 10
0.0
 20
0.0
 30
0.0
 11
-1.0
 21
0.0
 31
0.0
  0
ENDBLK
  5
7C
330
77
100
AcDbEntity
  8
0
100
AcDbBlockEnd
  0
BLOCK
  5
85
330
83
100
AcDbEntity
  8
0
100
AcDbBlockBegin
  2
GENAXEH
 70
     0
 10
0.0
 20
0.0
 30
0.0
  3
GENAXEH
  1

  0
LINE
  5
84
330
83
100
AcDbEntity
  8
0
100
AcDbLine
 10
-1.0
 20
0.0
 30
0.0
 11
1.0
 21
0.0
 31
0.0
  0
ENDBLK
  5
86
330
83
100
AcDbEntity
  8
0
100
AcDbBlockEnd
  0
BLOCK
  5
3B8
330
335
100
AcDbEntity
  8
0
100
AcDbBlockBegin
  2
IGS2
 70
     2
 10
0.0
 20
0.0
 30
0.0
  3
IGS2
  1

  0
POINT
  5
336
330
335
100
AcDbEntity
  8
0
 60
     1
100
AcDbPoint
 10
0.0
 20
0.0
 30
0.0
1001
GENIUS_GENODEF_13
1002
{
1000
HIER
1070
     1
1002
}
1002
{
1000
MANEDIT
1070
     0
1002
}
1002
{
1000
NOSEL
1070
     0
1002
}
1002
{
1000
BEHIND
1070
     0
1002
}
1002
{
1000
REACTOR
1002
}
1001
GENIUS_GENTITLE_13
1002
{
1000
SCALE
1000
1:1
1002
}
1002
{
1000
BORDER
1000
IGS-A4
1002
}
1002
{
1000
TITLE
1000
IGS-TITLE
1002
}
1002
{
1000
UNCHG
1002
{
1000
GEN-TITLE-SCA
1000
GEN-TITLE-SIZ
1002
}
1002
}
1002
{
1000
HRA
1005
0
1002
}
1002
{
1000
HTIT
1005
0
1002
}
1002
{
1000
GENIUSID
1005
336
1002
}
1001
GENIUS_GENOBJ-N-TIT_13
1002
{
1000
OWNER
1000
GEN
1002
}
1001
GENIUS_GENOENT_13
1002
{
1000
MYREF
1005
336
1002
}
1002
{
1000
GRP
1005
0
1002
}
1001
GENIUS_GENOLIS_13
1002
{
1000
ENT
1005
0
1005
0
1002
}
  0
LINE
  5
337
330
335
100
AcDbEntity
  8
RAHM3
100
AcDbLine
 10
-148.4080564410193
 20
8.825237325416161
 30
52.0
 11
-145.4319868410194
 21
8.825237325416161
 31
52.0
  0
ARC
  5
338
330
335
100
AcDbEntity
  8
RAHM3
100
AcDbCircle
 10
-141.4638940410194
 20
7.833214125416168
 30
52.0
 40
0.9920232
100
AcDbArc
 50
90.0
 51
180.0
  0
LINE
  5
339
330
335
100
AcDbEntity
  8
RAHM3
100
AcDbLine
 10
-137.6611384410193
 20
8.825237325416161
 30
52.0
 11
-141.4638940410194
 21
8.825237325416161
 31
52.0
  0
ARC
  5
33A
330
335
100
AcDbEntity
  8
RAHM3
100
AcDbCircle
 10
-137.6611384410193
 20
7.833214125416168
 30
52.0
 40
0.9920232
100
AcDbArc
 50
0.0
 51
90.0
  0
ARC
  5
33B
330
335
100
AcDbEntity
  8
RAHM3
100
AcDbCircle
 10
-129.0636040410194
 20
7.833214125416168
 30
52.0
 40
0.9920232
100
AcDbArc
 50
0.0
 51
90.0
  0
LINE
  5
33C
330
335
100
AcDbEntity
  8
RAHM3
100
AcDbLine
 10
-132.7010224410193
 20
8.825237325416161
 30
52.0
 11
-129.0636040410194
 21
8.825237325416161
 31
52.0
  0
ARC
  5
33D
330
335
100
AcDbEntity
  8
RAHM3
100
AcDbCircle
 10
-132.7010224410193
 20
7.833214125416168
 30
52.0
 40
0.9920232
100
AcDbArc
 50
90.0
 51
180.0
  0
LINE
  5
33E
330
335
100
AcDbEntity
  8
RAHM3
100
AcDbLine
 10
-148.4080564410193
 20
8.163888525416165
 30
52.0
 11
-147.5813704410193
 21
8.163888525416165
 31
52.0
  0
LINE
  5
33F
330
335
100
AcDbEntity
  8
RAHM3
100
AcDbLine
 10
-147.5813704410193
 20
8.163888525416165
 30
52.0
 11
-147.5813704410193
 21
3.865121325416145
 31
52.0
  0
LINE
  5
340
330
335
100
AcDbEntity
  8
RAHM3
100
AcDbLine
 10
-146.2586728410194
 20
3.865121325416145
 30
52.0
 11
-146.2586728410194
 21
8.163888525416165
 31
52.0
  0
LINE
  5
341
330
335
100
AcDbEntity
  8
RAHM3
100
AcDbLine
 10
-146.2586728410194
 20
8.163888525416165
 30
52.0
 11
-145.4319868410194
 21
8.163888525416165
 31
52.0
  0
LINE
  5
342
330
335
100
AcDbEntity
  8
RAHM3
100
AcDbLine
 10
-145.4319868410194
 20
8.825237325416161
 30
52.0
 11
-145.4319868410194
 21
8.163888525416165
 31
52.0
  0
LINE
  5
343
330
335
100
AcDbEntity
  8
RAHM3
100
AcDbLine
 10
-148.4080564410193
 20
8.163888525416165
 30
52.0
 11
-148.4080564410193
 21
8.825237325416161
 31
52.0
  0
LINE
  5
344
330
335
100
AcDbEntity
  8
RAHM3
100
AcDbLine
 10
-145.4319868410194
 20
3.203772525416149
 30
52.0
 11
-148.4080564410193
 21
3.203772525416149
 31
52.0
  0
CIRCLE
  5
345
330
335
100
AcDbEntity
  8
RAHM3
100
AcDbCircle
 10
-144.1092892410194
 20
3.865121325416145
 30
52.0
 40
0.6613488000000001
  0
LINE
  5
346
330
335
100
AcDbEntity
  8
RAHM3
100
AcDbLine
 10
-137.9918128410194
 20
3.865121325416145
 30
52.0
 11
-137.9918128410194
 21
3.203772525416149
 31
52.0
  0
LINE
  5
347
330
335
100
AcDbEntity
  8
RAHM3
100
AcDbLine
 10
-137.9918128410194
 20
3.203772525416149
 30
52.0
 11
-136.6691152410193
 21
3.203772525416149
 31
52.0
  0
ARC
  5
348
330
335
100
AcDbEntity
  8
RAHM3
100
AcDbCircle
 10
-141.4638940410194
 20
4.195795725416166
 30
52.0
 40
0.9920232
100
AcDbArc
 50
180.0
 51
270.0
  0
LINE
  5
349
330
335
100
AcDbEntity
  8
RAHM3
100
AcDbLine
 10
-141.4638940410194
 20
3.203772525416149
 30
52.0
 11
-141.1332196410193
 21
3.203772525416149
 31
52.0
  0
LINE
  5
34A
330
335
100
AcDbEntity
  8
RAHM3
100
AcDbLine
 10
-142.4559172410194
 20
4.195795725416166
 30
52.0
 11
-142.4559172410194
 21
7.833214125416168
 31
52.0
  0
CIRCLE
  5
34B
330
335
100
AcDbEntity
  8
RAHM3
100
AcDbCircle
 10
-135.5117548410193
 20
3.865121325416145
 30
52.0
 40
0.6613488000000001
  0
ARC
  5
34C
330
335
100
AcDbEntity
  8
RAHM3
100
AcDbCircle
 10
-132.7010224410193
 20
4.195795725416166
 30
52.0
 40
0.9920232
100
AcDbArc
 50
180.0
 51
270.0
  0
LINE
  5
34D
330
335
100
AcDbEntity
  8
RAHM3
100
AcDbLine
 10
-129.0636040410194
 20
3.203772525416149
 30
52.0
 11
-132.7010224410193
 21
3.203772525416149
 31
52.0
  0
ARC
  5
34E
330
335
100
AcDbEntity
  8
RAHM3
100
AcDbCircle
 10
-129.0636040410194
 20
4.195795725416166
 30
52.0
 40
0.9920232
100
AcDbArc
 50
270.0
 51
0.0
  0
LINE
  5
34F
330
335
100
AcDbEntity
  8
RAHM3
100
AcDbLine
 10
-133.6930456410194
 20
4.195795725416166
 30
52.0
 11
-133.6930456410194
 21
5.022481725416161
 31
52.0
  0
LINE
  5
350
330
335
100
AcDbEntity
  8
RAHM3
100
AcDbLine
 10
-128.0715808410194
 20
7.833214125416168
 30
52.0
 11
-128.0715808410194
 21
7.00652812541615
 31
52.0
  0
CIRCLE
  5
351
330
335
100
AcDbEntity
  8
RAHM3
100
AcDbCircle
 10
-126.9142204410194
 20
3.865121325416145
 30
52.0
 40
0.6613488000000001
  0
LINE
  5
352
330
335
100
AcDbEntity
  8
RAHM3
100
AcDbLine
 10
-136.6691152410193
 20
7.171865325416149
 30
52.0
 11
-137.8264756410194
 21
7.171865325416149
 31
52.0
  0
LINE
  5
353
330
335
100
AcDbEntity
  8
RAHM3
100
AcDbLine
 10
-137.8264756410194
 20
7.171865325416149
 30
52.0
 11
-137.8264756410194
 21
7.667876925416146
 31
52.0
  0
LINE
  5
354
330
335
100
AcDbEntity
  8
RAHM3
100
AcDbLine
 10
-137.8264756410194
 20
7.667876925416146
 30
52.0
 11
-141.2985568410193
 21
7.667876925416146
 31
52.0
  0
LINE
  5
355
330
335
100
AcDbEntity
  8
RAHM3
100
AcDbLine
 10
-141.2985568410193
 20
7.667876925416146
 30
52.0
 11
-141.2985568410193
 21
4.361132925416165
 31
52.0
  0
LINE
  5
356
330
335
100
AcDbEntity
  8
RAHM3
100
AcDbLine
 10
-137.8264756410194
 20
5.518493325416158
 30
52.0
 11
-139.4798476410193
 21
5.518493325416158
 31
52.0
  0
LINE
  5
357
330
335
100
AcDbEntity
  8
RAHM3
100
AcDbLine
 10
-139.4798476410193
 20
5.518493325416158
 30
52.0
 11
-139.4798476410193
 21
6.510516525416153
 31
52.0
  0
LINE
  5
358
330
335
100
AcDbEntity
  8
RAHM3
100
AcDbLine
 10
-136.6691152410193
 20
7.171865325416149
 30
52.0
 11
-136.6691152410193
 21
7.833214125416168
 31
52.0
  0
LINE
  5
359
330
335
100
AcDbEntity
  8
RAHM3
100
AcDbLine
 10
-137.8264756410194
 20
5.022481725416161
 30
52.0
 11
-137.8264756410194
 21
5.518493325416158
 31
52.0
  0
LINE
  5
35A
330
335
100
AcDbEntity
  8
RAHM3
100
AcDbLine
 10
-137.6611384410193
 20
6.510516525416153
 30
52.0
 11
-139.4798476410193
 21
6.510516525416153
 31
52.0
  0
LINE
  5
35B
330
335
100
AcDbEntity
  8
RAHM3
100
AcDbLine
 10
-136.6691152410193
 20
5.518493325416158
 30
52.0
 11
-136.6691152410193
 21
3.203772525416149
 31
52.0
  0
ARC
  5
35C
330
335
100
AcDbEntity
  8
RAHM3
100
AcDbCircle
 10
-137.6611384410193
 20
5.518493325416158
 30
52.0
 40
0.9920232
100
AcDbArc
 50
0.0
 51
90.0
  0
LINE
  5
35D
330
335
100
AcDbEntity
  8
RAHM3
100
AcDbLine
 10
-139.1930809214994
 20
5.022481725416161
 30
52.0
 11
-137.8264756410194
 21
5.022481725416161
 31
52.0
  0
ARC
  5
35E
330
335
100
AcDbEntity
  8
RAHM3
100
AcDbCircle
 10
-139.1930809214994
 20
4.030458525416167
 30
52.0
 40
0.9920232
100
AcDbArc
 50
90.0
 51
119.7448812969
  0
LINE
  5
35F
330
335
100
AcDbEntity
  8
RAHM3
100
AcDbLine
 10
-140.8773334868594
 20
4.361132925416165
 30
52.0
 11
-141.2985568410193
 21
4.361132925416165
 31
52.0
  0
LINE
  5
360
330
335
100
AcDbEntity
  8
RAHM3
100
AcDbLine
 10
-140.3851521495794
 20
4.491838785176161
 30
52.0
 11
-139.6852622587794
 21
4.891775865576152
 31
52.0
  0
ARC
  5
361
330
335
100
AcDbEntity
  8
RAHM3
100
AcDbCircle
 10
-140.8773334868594
 20
5.35315612541616
 30
52.0
 40
0.9920232
100
AcDbArc
 50
270.0
 51
299.7448812969
  0
ARC
  5
362
330
335
100
AcDbEntity
  8
RAHM3
100
AcDbCircle
 10
-138.8857271583794
 20
2.873098125416151
 30
52.0
 40
0.9920232
100
AcDbArc
 50
90.0
 51
119.7448812969
  0
LINE
  5
363
330
335
100
AcDbEntity
  8
RAHM3
100
AcDbLine
 10
-140.5699797237394
 20
3.203772525416149
 30
52.0
 11
-141.4638940410194
 21
3.203772525416149
 31
52.0
  0
ARC
  5
364
330
335
100
AcDbEntity
  8
RAHM3
100
AcDbCircle
 10
-140.5699797237394
 20
4.195795725416166
 30
52.0
 40
0.9920232
100
AcDbArc
 50
270.0
 51
299.7448812969
  0
LINE
  5
365
330
335
100
AcDbEntity
  8
RAHM3
100
AcDbLine
 10
-139.3779084956594
 20
3.734415465576159
 30
52.0
 11
-140.0777983864594
 21
3.334478385176168
 31
52.0
  0
LINE
  5
366
330
335
100
AcDbEntity
  8
RAHM3
100
AcDbLine
 10
-138.8857271583794
 20
3.865121325416145
 30
52.0
 11
-137.9918128410194
 21
3.865121325416145
 31
52.0
  0
LINE
  5
367
330
335
100
AcDbEntity
  8
RAHM3
100
AcDbLine
 10
-147.5813704410193
 20
3.865121325416145
 30
52.0
 11
-148.4080564410193
 21
3.865121325416145
 31
52.0
  0
LINE
  5
368
330
335
100
AcDbEntity
  8
RAHM3
100
AcDbLine
 10
-146.2586728410194
 20
3.865121325416145
 30
52.0
 11
-145.4319868410194
 21
3.865121325416145
 31
52.0
  0
LINE
  5
369
330
335
100
AcDbEntity
  8
RAHM3
100
AcDbLine
 10
-148.4080564410193
 20
3.203772525416149
 30
52.0
 11
-148.4080564410193
 21
3.865121325416145
 31
52.0
  0
LINE
  5
36A
330
335
100
AcDbEntity
  8
RAHM3
100
AcDbLine
 10
-145.4319868410194
 20
3.865121325416145
 30
52.0
 11
-145.4319868410194
 21
3.203772525416149
 31
52.0
  0
LINE
  5
36B
330
335
100
AcDbEntity
  8
RAHM3
100
AcDbLine
 10
-132.5356852410194
 20
7.667876925416146
 30
52.0
 11
-129.2289412410193
 21
7.667876925416146
 31
52.0
  0
LINE
  5
36C
330
335
100
AcDbEntity
  8
RAHM3
100
AcDbLine
 10
-129.2289412410193
 20
7.667876925416146
 30
52.0
 11
-129.2289412410193
 21
7.00652812541615
 31
52.0
  0
LINE
  5
36D
330
335
100
AcDbEntity
  8
RAHM3
100
AcDbLine
 10
-132.5356852410194
 20
5.022481725416161
 30
52.0
 11
-132.5356852410194
 21
4.361132925416165
 31
52.0
  0
LINE
  5
36E
330
335
100
AcDbEntity
  8
RAHM3
100
AcDbLine
 10
-132.5356852410194
 20
4.361132925416165
 30
52.0
 11
-129.2289412410193
 21
4.361132925416165
 31
52.0
  0
LINE
  5
36F
330
335
100
AcDbEntity
  8
RAHM3
100
AcDbLine
 10
-132.5356852410194
 20
5.022481725416161
 30
52.0
 11
-133.6930456410194
 21
5.022481725416161
 31
52.0
  0
LINE
  5
370
330
335
100
AcDbEntity
  8
RAHM3
100
AcDbLine
 10
-128.0715808410194
 20
7.00652812541615
 30
52.0
 11
-129.2289412410193
 21
7.00652812541615
 31
52.0
  0
LINE
  5
371
330
335
100
AcDbEntity
  8
RAHM3
100
AcDbLine
 10
-129.2289412410193
 20
4.361132925416165
 30
52.0
 11
-129.2289412410193
 21
5.518493325416158
 31
52.0
  0
LINE
  5
372
330
335
100
AcDbEntity
  8
RAHM3
100
AcDbLine
 10
-132.5356852410194
 20
6.510516525416153
 30
52.0
 11
-132.5356852410194
 21
7.667876925416146
 31
52.0
  0
LINE
  5
373
330
335
100
AcDbEntity
  8
RAHM3
100
AcDbLine
 10
-128.0715808410194
 20
5.518493325416158
 30
52.0
 11
-128.0715808410194
 21
4.195795725416166
 31
52.0
  0
LINE
  5
374
330
335
100
AcDbEntity
  8
RAHM3
100
AcDbLine
 10
-129.0636040410194
 20
6.510516525416153
 30
52.0
 11
-132.5356852410194
 21
6.510516525416153
 31
52.0
  0
ARC
  5
375
330
335
100
AcDbEntity
  8
RAHM3
100
AcDbCircle
 10
-129.0636040410194
 20
5.518493325416158
 30
52.0
 40
0.9920232
100
AcDbArc
 50
0.0
 51
90.0
  0
LINE
  5
376
330
335
100
AcDbEntity
  8
RAHM3
100
AcDbLine
 10
-132.7010224411794
 20
5.518493325416158
 30
52.0
 11
-129.2289412410193
 21
5.518493325416158
 31
52.0
  0
LINE
  5
377
330
335
100
AcDbEntity
  8
RAHM3
100
AcDbLine
 10
-133.6930456410194
 20
6.510516525416153
 30
52.0
 11
-133.6930456410194
 21
7.833214125416168
 31
52.0
  0
ARC
  5
378
330
335
100
AcDbEntity
  8
RAHM3
100
AcDbCircle
 10
-132.7010224411794
 20
6.510516525416153
 30
52.0
 40
0.9920232
100
AcDbArc
 50
180.0
 51
270.0
  0
POINT
  5
379
330
335
100
AcDbEntity
  8
0
 60
     1
100
AcDbPoint
 10
0.0
 20
0.0
 30
0.0
1001
GENIUS_GENODEF_13
1002
{
1000
HIER
1070
     1
1002
}
1002
{
1000
MANEDIT
1070
     0
1002
}
1002
{
1000
NOSEL
1070
     0
1002
}
1002
{
1000
BEHIND
1070
     0
1002
}
1002
{
1000
REACTOR
1002
}
1001
GENIUS_GENTITLE_13
1002
{
1000
SCALE
1000
1:1
1002
}
1002
{
1000
BORDER
1000
GEN_A4
1002
}
1002
{
1000
TITLE
1000
GENTITUS
1002
}
1002
{
1000
UNCHG
1002
{
1000
GEN-TITLE-SCA
1000
GEN-TITLE-SIZ
1002
}
1002
}
1002
{
1000
HRA
1005
0
1002
}
1002
{
1000
HTIT
1005
0
1002
}
1002
{
1000
GENIUSID
1005
379
1002
}
1001
GENIUS_GENOBJ-N-TIT_13
1002
{
1000
OWNER
1000
GEN
1002
}
1001
GENIUS_GENOENT_13
1002
{
1000
MYREF
1005
379
1002
}
1002
{
1000
GRP
1005
0
1002
}
1001
GENIUS_GENOLIS_13
1002
{
1000
ENT
1005
0
1005
0
1002
}
  0
TEXT
  5
37A
330
335
100
AcDbEntity
  8
0
 60
     1
100
AcDbText
 10
210.0
 20
297.0
 30
0.0
 40
3.5
  1
!GENTITLE-MAX
100
AcDbText
  0
TEXT
  5
37B
330
335
100
AcDbEntity
  8
0
 60
     1
100
AcDbText
 10
205.0
 20
287.0
 30
0.0
 40
3.5
  1
!GENTITLE-RU
100
AcDbText
  0
TEXT
  5
37C
330
335
100
AcDbEntity
  8
0
 60
     1
100
AcDbText
 10
15.0
 20
59.99
 30
0.0
 40
3.5
  1
!GENTITLE-LL
100
AcDbText
  0
TEXT
  5
37D
330
335
100
AcDbEntity
  8
0
 60
     1
100
AcDbText
 10
205.0
 20
5.0
 30
0.0
 40
3.5
  1
!GENTITLE-INSERT
100
AcDbText
  0
LINE
  5
37E
330
335
100
AcDbEntity
  8
RAHM2
100
AcDbLine
 10
-155.0
 20
12.0
 30
0.0
 11
0.0
 21
12.0
 31
0.0
  0
LINE
  5
37F
330
335
100
AcDbEntity
  8
RAHM2
100
AcDbLine
 10
-12.0
 20
12.0
 30
0.0
 11
-12.00000000000727
 21
0.0
 31
0.0
  0
LINE
  5
380
330
335
100
AcDbEntity
  8
RAHM2
100
AcDbLine
 10
-80.0
 20
19.99999999999272
 30
0.0
 11
0.0
 21
20.0
 31
0.0
  0
LINE
  5
381
330
335
100
AcDbEntity
  8
RAHM2
100
AcDbLine
 10
0.0
 20
27.0
 30
0.0
 11
-80.0
 21
27.0
 31
0.0
  0
MTEXT
  5
382
330
335
100
AcDbEntity
  8
RAHM2
100
AcDbMText
 10
-78.39748281353763
 20
37.79972226353243
 30
0.0
 40
2.5
 41
2.458156240282278
 71
     1
 72
     5
  1

 73
     1
 44
1.0
  0
TEXT
  5
383
330
335
100
AcDbEntity
  8
RAHM3
100
AcDbText
 10
-79.00900277736832
 20
36.89804600214973
 30
0.0
 40
2.299999999999999
  1
名称 ＴＩＴＬＥ
 41
0.8
100
AcDbText
  0
LINE
  5
384
330
335
100
AcDbEntity
  8
RAHM2
100
AcDbLine
 10
-80.0
 20
40.00000000000727
 30
0.0
 11
-80.0
 21
0.0
 31
0.0
  0
TEXT
  5
385
330
335
100
AcDbEntity
  8
RAHM3
100
AcDbText
 10
-79.00900277736832
 20
23.89804600216055
 30
0.0
 40
2.299999999999999
  1
符号 
 41
0.8
100
AcDbText
  0
TEXT
  5
386
330
335
100
AcDbEntity
  8
RAHM3
100
AcDbText
 10
-79.00900277736832
 20
16.89804600215146
 30
0.0
 40
2.299999999999999
  1
件名
 41
0.8
100
AcDbText
  0
TEXT
  5
387
330
335
100
AcDbEntity
  8
RAHM3
100
AcDbText
 10
-79.00900277736832
 20
8.898046002160548
 30
0.0
 40
2.299999999999999
  1
図番 ＤＲＡＷＩＮＧ ＮＯ．
 41
0.8
100
AcDbText
  0
CIRCLE
  5
388
330
335
100
AcDbEntity
  8
RAHM2
100
AcDbCircle
 10
-5.0
 20
5.0
 30
0.0
 40
4.5
  0
LINE
  5
389
330
335
100
AcDbEntity
  8
RAHM2
100
AcDbLine
 10
-130.0000000000018
 20
40.00000000000916
 30
0.0
 11
-130.0000000000018
 21
12.0
 31
0.0
  0
LINE
  5
38A
330
335
100
AcDbEntity
  8
RAHM2
100
AcDbLine
 10
-130.0000000000018
 20
26.00000000000458
 30
0.0
 11
-80.0
 21
25.99999999999818
 31
0.0
  0
LINE
  5
38B
330
335
100
AcDbEntity
  8
RAHM2
100
AcDbLine
 10
-105.0000000000018
 20
40.00000000000916
 30
0.0
 11
-105.0000000000018
 21
12.0
 31
0.0
  0
TEXT
  5
38C
330
335
100
AcDbEntity
  8
RAHM3
100
AcDbText
 10
-129.0090027773683
 20
36.89804600215881
 30
0.0
 40
2.299999999999999
  1
承認 ＡＰＰＤ
 41
0.8
100
AcDbText
  0
TEXT
  5
38D
330
335
100
AcDbEntity
  8
RAHM3
100
AcDbText
 10
-104.0090027773683
 20
36.8980460021551
 30
0.0
 40
2.299999999999999
  1
検図 ＣＨＫ
 41
0.8
100
AcDbText
  0
TEXT
  5
38E
330
335
100
AcDbEntity
  8
RAHM3
100
AcDbText
 10
-129.0090027773683
 20
22.89804600215422
 30
0.0
 40
2.299999999999999
  1
設計 ＥＮＧＲ
 41
0.8
100
AcDbText
  0
TEXT
  5
38F
330
335
100
AcDbEntity
  8
RAHM3
100
AcDbText
 10
-104.0090027773683
 20
22.89804600214964
 30
0.0
 40
2.299999999999999
  1
製図 ＤＲ ＤＡＴＥ
 41
0.8
100
AcDbText
  0
LINE
  5
390
330
335
100
AcDbEntity
  8
RAHM2
100
AcDbLine
 10
-155.0
 20
30.60000000000036
 30
0.0
 11
-130.0000000000018
 21
30.60000000000036
 31
0.0
  0
LINE
  5
391
330
335
100
AcDbEntity
  8
RAHM2
100
AcDbLine
 10
-155.0
 20
21.29999999999927
 30
0.0
 11
-130.0000000000018
 21
21.30000000000109
 31
0.0
  0
TEXT
  5
392
330
335
100
AcDbEntity
  8
RAHM3
100
AcDbText
 10
-121.7843516157921
 20
6.885079184961092
 30
0.0
 40
4.0
  1
伊藤鉄工株式会社
100
AcDbText
  0
TEXT
  5
393
330
335
100
AcDbEntity
  8
RAHM3
100
AcDbText
 10
-120.6675998914835
 20
3.578884653066273
 30
0.0
 40
2.0
  1
ITO TEKKO  CO.,LTD.
100
AcDbText
1001
GENIUS_GENTRA_14
1002
{
1070
     1
1000
/
1000
ITO TEKKO  CO.,LTD.
1000
JPN
1070
     0
1040
1.0
1070
     0
1002
}
  0
TEXT
  5
394
330
335
100
AcDbEntity
  8
RAHM3
100
AcDbText
 10
-120.6675998914835
 20
0.9279960228792472
 30
0.0
 40
2.0
  1
KAWAGUCHI  JAPAN
100
AcDbText
  0
TEXT
  5
395
330
335
100
AcDbEntity
  8
RAHM3
100
AcDbText
 10
-11.85206060358336
 20
9.69362381988742
 30
0.0
 40
1.8
  1
ＲＥＶ．ＭＡＲＫ
 41
0.6800000000000001
100
AcDbText
  0
TEXT
  5
396
330
335
100
AcDbEntity
  8
RAHM3
100
AcDbText
 10
-11.57052530051805
 20
7.425435269030799
 30
0.0
 40
1.8
  1
変
100
AcDbText
  0
TEXT
  5
397
330
335
100
AcDbEntity
  8
RAHM3
100
AcDbText
 10
-11.59004395148213
 20
4.996441785248862
 30
0.0
 40
1.8
  1
更
100
AcDbText
  0
TEXT
  5
398
330
335
100
AcDbEntity
  8
RAHM3
100
AcDbText
 10
-11.62938531906752
 20
2.617267270587205
 30
0.0
 40
1.8
  1
回
100
AcDbText
  0
TEXT
  5
399
330
335
100
AcDbEntity
  8
RAHM3
100
AcDbText
 10
-11.56556962136267
 20
0.3551115072955326
 30
0.0
 40
1.8
  1
数
100
AcDbText
  0
TEXT
  5
39A
330
335
100
AcDbEntity
  8
RAHM3
100
AcDbText
 10
-154.0090027773665
 20
36.89804600217056
 30
0.0
 40
2.299999999999999
  1
尺度 ＳＣＡＬＥ
 41
0.8
100
AcDbText
  0
TEXT
  5
39B
330
335
100
AcDbEntity
  8
RAHM3
100
AcDbText
 10
-154.0090027773665
 20
27.49804600215
 30
0.0
 40
2.299999999999999
  1
図面枚数 ＮＯ．  
 41
0.8
100
AcDbText
  0
LINE
  5
39C
330
335
100
AcDbEntity
  8
7A
100
AcDbLine
 10
-151.7551228444401
 20
16.64999999999988
 30
0.0
 11
-149.2551228444401
 21
16.64999999999988
 31
0.0
1001
GENIUS_GENOREF_13
1005
3A0
  0
LINE
  5
39D
330
335
100
AcDbEntity
  8
7A
100
AcDbLine
 10
-151.7551228444401
 20
16.64999999999988
 30
0.0
 11
-151.7551228444401
 21
19.14999999999988
 31
0.0
1001
GENIUS_GENOREF_13
1005
3A0
  0
LINE
  5
39E
330
335
100
AcDbEntity
  8
7A
100
AcDbLine
 10
-151.7551228444401
 20
16.64999999999988
 30
0.0
 11
-154.2551228444401
 21
16.64999999999988
 31
0.0
1001
GENIUS_GENOREF_13
1005
3A0
  0
LINE
  5
39F
330
335
100
AcDbEntity
  8
7A
100
AcDbLine
 10
-151.7551228444401
 20
16.64999999999988
 30
0.0
 11
-151.7551228444401
 21
14.14999999999988
 31
0.0
1001
GENIUS_GENOREF_13
1005
3A0
  0
POINT
  5
3A0
330
335
100
AcDbEntity
  8
0
 60
     1
100
AcDbPoint
 10
0.0
 20
0.0
 30
0.0
1001
GENIUS_GENODEF_13
1002
{
1000
HIER
1070
    10
1002
}
1002
{
1000
MANEDIT
1070
     0
1002
}
1002
{
1000
NOSEL
1070
     0
1002
}
1002
{
1000
BEHIND
1070
     0
1002
}
1002
{
1000
REACTOR
1002
}
1001
GENIUS_GENOBJ-N-CRS_13
1002
{
1000
OWNER
1000
GEN
1002
}
1001
GENIUS_GENOENT_13
1002
{
1000
MYREF
1005
3A0
1002
}
1002
{
1000
GRP
1005
0
1002
}
1001
GENIUS_GENOLIS_13
1002
{
1000
ENT
1005
39F
1005
39E
1005
39D
1005
39C
1002
}
  0
CIRCLE
  5
3A1
330
335
100
AcDbEntity
  8
RAHM3
100
AcDbCircle
 10
-151.7551228444401
 20
16.64999999999988
 30
0.0
 40
2.0
  0
CIRCLE
  5
3A2
330
335
100
AcDbEntity
  8
RAHM3
100
AcDbCircle
 10
-151.7551228444401
 20
16.64999999999952
 30
0.0
 40
1.0
  0
LINE
  5
3A3
330
335
100
AcDbEntity
  8
RAHM3
100
AcDbLine
 10
-147.7659442035316
 20
17.64999999999929
 30
0.0
 11
-147.7659442035316
 21
15.64999999999929
 31
0.0
  0
LINE
  5
3A4
330
335
100
AcDbEntity
  8
RAHM3
100
AcDbLine
 10
-147.7659442035316
 20
15.64999999999929
 30
0.0
 11
-143.7659442035316
 21
14.64999999999928
 31
0.0
  0
LINE
  5
3A5
330
335
100
AcDbEntity
  8
RAHM3
100
AcDbLine
 10
-143.7659442035316
 20
14.64999999999928
 30
0.0
 11
-143.7659442035316
 21
18.64999999999929
 31
0.0
  0
LINE
  5
3A6
330
335
100
AcDbEntity
  8
RAHM3
100
AcDbLine
 10
-143.7659442035316
 20
18.64999999999929
 30
0.0
 11
-147.7659442035316
 21
17.64999999999929
 31
0.0
  0
LINE
  5
3A7
330
335
100
AcDbEntity
  8
7A
100
AcDbLine
 10
-148.6350563849704
 20
16.64999999999929
 30
0.0
 11
-142.8462596443259
 21
16.64999999999929
 31
0.0
1001
GENIUS_GENODEF_13
1002
{
1000
HIER
1070
     0
1002
}
1002
{
1000
MANEDIT
1070
     0
1002
}
1002
{
1000
NOSEL
1070
     0
1002
}
1002
{
1000
BEHIND
1070
     0
1002
}
1002
{
1000
REACTOR
1002
}
1001
GENIUS_GENOBJ-N-CEN_13
1002
{
1000
OWNER
1000
GEN
1002
}
  0
TEXT
  5
3A8
330
335
100
AcDbEntity
  8
RAHM3
100
AcDbText
 10
-141.8454810851357
 20
18.28209750892168
 30
0.0
 40
2.1
  1
単位 ＵＮＩＴ
 41
0.7
100
AcDbText
  0
LINE
  5
3A9
330
335
100
AcDbEntity
  8
RAHM2
100
AcDbLine
 10
-142.5000000000009
 20
21.29999999999927
 30
0.0
 11
-142.5000000000009
 21
12.0
 31
0.0
  0
TEXT
  5
3AA
330
335
100
AcDbEntity
  8
RAHM3
100
AcDbText
 10
-139.6782849929894
 20
13.82826889824218
 30
0.0
 40
4.0
  1
ｍｍ
 41
0.8
100
AcDbText
  0
POLYLINE
  5
3AB
330
335
100
AcDbEntity
  8
RAHM2
100
AcDb2dPolyline
 66
     1
 10
0.0
 20
0.0
 30
0.0
 70
     1
  0
VERTEX
  5
3AC
330
3AB
100
AcDbEntity
  8
RAHM2
100
AcDbVertex
100
AcDb2dVertex
 10
-155.0
 20
-0.000000000001819
 30
0.0
  0
VERTEX
  5
3AD
330
3AB
100
AcDbEntity
  8
RAHM2
100
AcDbVertex
100
AcDb2dVertex
 10
-155.0
 20
40.00000000002091
 30
0.0
  0
VERTEX
  5
3AE
330
3AB
100
AcDbEntity
  8
RAHM2
100
AcDbVertex
100
AcDb2dVertex
 10
0.0
 20
39.99999999999273
 30
0.0
  0
VERTEX
  5
3AF
330
3AB
100
AcDbEntity
  8
RAHM2
100
AcDbVertex
100
AcDb2dVertex
 10
0.0
 20
0.0
 30
0.0
  0
SEQEND
  5
3B0
330
3AB
100
AcDbEntity
  8
RAHM2
  0
ATTDEF
  5
3B1
330
335
100
AcDbEntity
  8
RAHM3
100
AcDbText
 10
-147.2595867131855
 20
31.94728899818607
 30
0.0
 40
4.0
  1

100
AcDbAttributeDefinition
  3
尺度
  2
GEN-TITLE-SCA
 70
     0
  0
ATTDEF
  5
3B2
330
335
100
AcDbEntity
  8
RAHM3
100
AcDbText
 10
-73.09000000000001
 20
29.74
 30
0.0
 40
5.0
  1

100
AcDbAttributeDefinition
  3
名称
  2
ＴＩＴＬＥ
 70
     0
  0
ATTDEF
  5
3B3
330
335
100
AcDbEntity
  8
RAHM3
100
AcDbText
 10
-71.56287815584043
 20
21.80438312711384
 30
0.0
 40
3.0
  1

100
AcDbAttributeDefinition
  3
符号
  2
ｃｏｄｅ
 70
     0
  0
ATTDEF
  5
3B4
330
335
100
AcDbEntity
  8
RAHM3
100
AcDbText
 10
-70.74480649396313
 20
14.80438312710657
 30
0.0
 40
3.0
  1

100
AcDbAttributeDefinition
  3
件名
  2
件名
 70
     0
  0
ATTDEF
  5
3B5
330
335
100
AcDbEntity
  8
RAHM3
100
AcDbText
 10
-73.09000000000001
 20
1.739999999992722
 30
0.0
 40
5.0
  1

100
AcDbAttributeDefinition
  3
図面番号
  2
Ｎｏ．
 70
     0
  0
ATTDEF
  5
3B6
330
335
100
AcDbEntity
  8
RAHM3
100
AcDbText
 10
-100.45
 20
17.40708932112655
 30
0.0
 40
4.0
  1

100
AcDbAttributeDefinition
  3
製図者
  2
ＤＲ
 70
     0
  0
ATTDEF
  5
3B7
330
335
100
AcDbEntity
  8
RAHM3
100
AcDbText
 10
-103.7180853038729
 20
12.76999999999999
 30
0.0
 40
3.0
  1

 41
0.8
100
AcDbAttributeDefinition
  3
日付
  2
ｄａｔｅ
 70
     0
  0
ENDBLK
  5
3B9
330
335
100
AcDbEntity
  8
0
100
AcDbBlockEnd
  0
BLOCK
  5
6BE
330
6A8
100
AcDbEntity
  8
0
100
AcDbBlockBegin
  2
IGS_A3
 70
     0
 10
0.0
 20
0.0
 30
0.0
  3
IGS_A3
  1

  0
LINE
  5
6A9
330
6A8
100
AcDbEntity
  8
AM_BOR
100
AcDbLine
 10
0.0
 20
0.0
 30
0.0
 11
0.0
 21
10.0
 31
0.0
  0
LINE
  5
6AA
330
6A8
100
AcDbEntity
  8
AM_BOR
100
AcDbLine
 10
0.0
 20
297.0
 30
0.0
 11
10.0
 21
297.0
 31
0.0
  0
LINE
  5
6AB
330
6A8
100
AcDbEntity
  8
AM_BOR
100
AcDbLine
 10
420.0
 20
297.0
 30
0.0
 11
420.0
 21
287.0
 31
0.0
  0
LINE
  5
6AC
330
6A8
100
AcDbEntity
  8
AM_BOR
100
AcDbLine
 10
420.0
 20
0.0
 30
0.0
 11
410.0
 21
0.0
 31
0.0
  0
LINE
  5
6AD
330
6A8
100
AcDbEntity
  8
0
100
AcDbLine
 10
25.0
 20
10.0
 30
0.0
 11
25.0
 21
287.0
 31
0.0
  0
LINE
  5
6AE
330
6A8
100
AcDbEntity
  8
0
100
AcDbLine
 10
410.0
 20
10.0
 30
0.0
 11
25.0
 21
10.0
 31
0.0
  0
LINE
  5
6AF
330
6A8
100
AcDbEntity
  8
0
100
AcDbLine
 10
410.0
 20
287.0
 30
0.0
 11
410.0
 21
10.0
 31
0.0
  0
LINE
  5
6B0
330
6A8
100
AcDbEntity
  8
0
100
AcDbLine
 10
25.0
 20
287.0
 30
0.0
 11
410.0
 21
287.0
 31
0.0
  0
LINE
  5
6B1
330
6A8
100
AcDbEntity
  8
AM_BOR
100
AcDbLine
 10
0.0
 20
287.0
 30
0.0
 11
0.0
 21
297.0
 31
0.0
  0
LINE
  5
6B2
330
6A8
100
AcDbEntity
  8
AM_BOR
100
AcDbLine
 10
10.0
 20
0.0
 30
0.0
 11
0.0
 21
0.0
 31
0.0
  0
LINE
  5
6B3
330
6A8
100
AcDbEntity
  8
AM_BOR
100
AcDbLine
 10
420.0
 20
10.0
 30
0.0
 11
420.0
 21
0.0
 31
0.0
  0
LINE
  5
6B4
330
6A8
100
AcDbEntity
  8
AM_BOR
100
AcDbLine
 10
410.0
 20
297.0
 30
0.0
 11
420.0
 21
297.0
 31
0.0
  0
TEXT
  5
6B5
330
6A8
100
AcDbEntity
  8
0
 60
     1
100
AcDbText
 10
410.0
 20
287.0
 30
0.0
 40
3.5
  1
!GENTITLE-RU
  7
ACJISTS
100
AcDbText
  0
TEXT
  5
6B6
330
6A8
100
AcDbEntity
  8
0
 60
     1
100
AcDbText
 10
420.0
 20
297.0
 30
0.0
 40
3.5
  1
!GENTITLE-MAX
  7
ACJISTS
100
AcDbText
  0
TEXT
  5
6B7
330
6A8
100
AcDbEntity
  8
0
 60
     1
100
AcDbText
 10
410.0
 20
10.0
 30
0.0
 40
3.5
  1
!GENTITLE-INSERT
  7
ACJISTS
100
AcDbText
  0
TEXT
  5
6B8
330
6A8
100
AcDbEntity
  8
0
 60
     1
100
AcDbText
 10
25.0
 20
10.0
 30
0.0
 40
3.5
  1
!GENTITLE-LL
  7
ACJISTS
100
AcDbText
  0
LINE
  5
6B9
330
6A8
100
AcDbEntity
  8
AM_BOR
 62
     1
370
    25
100
AcDbLine
 10
0.0
 20
297.0
 30
0.0
 11
420.0
 21
297.0
 31
0.0
  0
LINE
  5
6BA
330
6A8
100
AcDbEntity
  8
AM_BOR
 62
     1
370
    25
100
AcDbLine
 10
420.0
 20
297.0
 30
0.0
 11
420.0
 21
0.0
 31
0.0
  0
LINE
  5
6BB
330
6A8
100
AcDbEntity
  8
AM_BOR
 62
     1
370
    25
100
AcDbLine
 10
420.0
 20
0.0
 30
0.0
 11
0.0
 21
0.0
 31
0.0
  0
LINE
  5
6BC
330
6A8
100
AcDbEntity
  8
AM_BOR
 62
     1
370
    25
100
AcDbLine
 10
0.0
 20
0.0
 30
0.0
 11
0.0
 21
297.0
 31
0.0
  0
TEXT
  5
6BD
330
6A8
100
AcDbEntity
  8
DEFPOINTS
100
AcDbText
 10
19.5941472374451
 20
2.504073349097552
 30
0.0
 40
5.0
  1
A3
100
AcDbText
  0
ENDBLK
  5
6BF
330
6A8
100
AcDbEntity
  8
0
100
AcDbBlockEnd
  0
BLOCK
  5
9F7
330
9F6
100
AcDbEntity
  8
0
100
AcDbBlockBegin
  2
MAKR0
 70
     0
 10
824.6330180495998
 20
348.9905156747
 30
0.0
  3
MAKR0
  1

  0
CIRCLE
  5
9F8
330
9F6
100
AcDbEntity
  8
1
  6
ByBlock
 62
     2
100
AcDbCircle
 10
824.6330180495998
 20
348.9905156747
 30
0.0
 40
17.5
  0
TEXT
  5
9F9
330
9F6
100
AcDbEntity
  8
1
  6
Continuous
 62
     7
100
AcDbText
 10
817.1330179999999
 20
338.990516
 30
0.0
 40
20.0
  1
１
 41
1.40625
  7
MDRAFSTD
 72
     5
 11
832.133018
 21
338.990516
 31
0.0
100
AcDbText
  0
ENDBLK
  5
9FA
330
9F6
100
AcDbEntity
  8
0
100
AcDbBlockEnd
  0
BLOCK
  5
9FC
330
9FB
100
AcDbEntity
  8
0
100
AcDbBlockBegin
  2
MAKR1
 70
     0
 10
824.6330180495998
 20
298.9905156747
 30
0.0
  3
MAKR1
  1

  0
CIRCLE
  5
9FD
330
9FB
100
AcDbEntity
  8
1
  6
ByBlock
 62
     2
100
AcDbCircle
 10
824.6330180495998
 20
298.9905156747
 30
0.0
 40
17.5
  0
TEXT
  5
9FE
330
9FB
100
AcDbEntity
  8
1
  6
Continuous
 62
     7
100
AcDbText
 10
817.1330179999999
 20
288.990516
 30
0.0
 40
20.0
  1
２
 41
0.9375
  7
MDRAFSTD
 72
     5
 11
832.133018
 21
288.990516
 31
0.0
100
AcDbText
  0
ENDBLK
  5
9FF
330
9FB
100
AcDbEntity
  8
0
100
AcDbBlockEnd
  0
BLOCK
  5
A01
330
A00
100
AcDbEntity
  8
0
100
AcDbBlockBegin
  2
MAKR2
 70
     0
 10
824.6330180495998
 20
248.9905156747
 30
0.0
  3
MAKR2
  1

  0
CIRCLE
  5
A02
330
A00
100
AcDbEntity
  8
1
  6
ByBlock
 62
     2
100
AcDbCircle
 10
824.6330180495998
 20
248.9905156747
 30
0.0
 40
17.5
  0
TEXT
  5
A03
330
A00
100
AcDbEntity
  8
1
  6
Continuous
 62
     7
100
AcDbText
 10
817.1330179999999
 20
238.990516
 30
0.0
 40
20.0
  1
３
 41
0.9375
  7
MDRAFSTD
 72
     5
 11
832.133018
 21
238.990516
 31
0.0
100
AcDbText
  0
ENDBLK
  5
A04
330
A00
100
AcDbEntity
  8
0
100
AcDbBlockEnd
  0
BLOCK
  5
A06
330
A05
100
AcDbEntity
  8
0
100
AcDbBlockBegin
  2
MAKR3
 70
     0
 10
824.6330180495998
 20
198.9905156746999
 30
0.0
  3
MAKR3
  1

  0
CIRCLE
  5
A07
330
A05
100
AcDbEntity
  8
1
  6
ByBlock
 62
     2
100
AcDbCircle
 10
824.6330180495998
 20
198.9905156746999
 30
0.0
 40
17.5
  0
TEXT
  5
A08
330
A05
100
AcDbEntity
  8
1
  6
Continuous
 62
     7
100
AcDbText
 10
817.1330179999999
 20
188.990516
 30
0.0
 40
20.0
  1
４
 41
0.9375
  7
MDRAFSTD
 72
     5
 11
832.133018
 21
188.990516
 31
0.0
100
AcDbText
  0
ENDBLK
  5
A09
330
A05
100
AcDbEntity
  8
0
100
AcDbBlockEnd
  0
BLOCK
  5
A0B
330
A0A
100
AcDbEntity
  8
0
100
AcDbBlockBegin
  2
MAKR4
 70
     0
 10
824.6330180495998
 20
148.9905156747
 30
0.0
  3
MAKR4
  1

  0
CIRCLE
  5
A0C
330
A0A
100
AcDbEntity
  8
1
  6
ByBlock
 62
     2
100
AcDbCircle
 10
824.6330180495998
 20
148.9905156747
 30
0.0
 40
17.5
  0
TEXT
  5
A0D
330
A0A
100
AcDbEntity
  8
1
  6
Continuous
 62
     7
100
AcDbText
 10
817.1330179999999
 20
138.990516
 30
0.0
 40
20.0
  1
５
 41
0.9375
  7
MDRAFSTD
 72
     5
 11
832.133018
 21
138.990516
 31
0.0
100
AcDbText
  0
ENDBLK
  5
A0E
330
A0A
100
AcDbEntity
  8
0
100
AcDbBlockEnd
  0
BLOCK
  5
A10
330
A0F
100
AcDbEntity
  8
0
100
AcDbBlockBegin
  2
MAKR5
 70
     0
 10
824.6330180495998
 20
98.99051567470001
 30
0.0
  3
MAKR5
  1

  0
CIRCLE
  5
A11
330
A0F
100
AcDbEntity
  8
1
  6
ByBlock
 62
     2
100
AcDbCircle
 10
824.6330180495998
 20
98.99051567470001
 30
0.0
 40
17.5
  0
TEXT
  5
A12
330
A0F
100
AcDbEntity
  8
1
  6
Continuous
 62
     7
100
AcDbText
 10
817.1330179999999
 20
88.99051599999999
 30
0.0
 40
20.0
  1
６
 41
0.9375
  7
MDRAFSTD
 72
     5
 11
832.133018
 21
88.99051599999999
 31
0.0
100
AcDbText
  0
ENDBLK
  5
A13
330
A0F
100
AcDbEntity
  8
0
100
AcDbBlockEnd
  0
BLOCK
  5
AA2
330
AA1
100
AcDbEntity
  8
0
100
AcDbBlockBegin
  2
BALN0
 70
     0
 10
623.1972421007
 20
282.6384167232
 30
0.0
  3
BALN0
  1

  0
LINE
  5
AA3
330
AA1
100
AcDbEntity
  8
1
  6
ByBlock
 62
     2
100
AcDbLine
 10
630.8750624717999
 20
289.0455279559
 30
0.0
 11
623.1972421007
 21
282.6384167232
 31
0.0
  0
LINE
  5
AA4
330
AA1
100
AcDbEntity
  8
1
  6
ByBlock
 62
     2
100
AcDbLine
 10
623.1972421007
 20
282.6384167232
 30
0.0
 11
633.0499852041
 21
284.3482276301
 31
0.0
  0
LINE
  5
AA5
330
AA1
100
AcDbEntity
  8
1
  6
ByBlock
 62
     2
100
AcDbLine
 10
623.1972421007
 20
282.6384167232
 30
0.0
 11
714.7357579414
 21
325.0221659352
 31
0.0
  0
CIRCLE
  5
AA6
330
AA1
100
AcDbEntity
  8
1
  6
ByBlock
 62
     2
100
AcDbCircle
 10
737.4219764343999
 20
335.5262361219
 30
0.0
 40
25.0
  0
TEXT
  5
AA7
330
AA1
100
AcDbEntity
  8
1
  6
Continuous
 62
     7
100
AcDbText
 10
727.421976
 20
323.026236
 30
0.0
 40
25.0
  1
１
 41
1.5
  7
MDRAFSTD
 72
     5
 11
747.4219759999999
 21
323.026236
 31
0.0
100
AcDbText
  0
ENDBLK
  5
AA8
330
AA1
100
AcDbEntity
  8
0
100
AcDbBlockEnd
  0
BLOCK
  5
AAA
330
AA9
100
AcDbEntity
  8
0
100
AcDbBlockBegin
  2
BALN1
 70
     0
 10
637.4219764343999
 20
25.5852711229
 30
0.0
  3
BALN1
  1

  0
LINE
  5
AAB
330
AA9
100
AcDbEntity
  8
1
  6
ByBlock
 62
     2
100
AcDbLine
 10
645.0997968056
 20
31.9923823556
 30
0.0
 11
637.4219764343999
 21
25.5852711229
 31
0.0
  0
LINE
  5
AAC
330
AA9
100
AcDbEntity
  8
1
  6
ByBlock
 62
     2
100
AcDbLine
 10
637.4219764343999
 20
25.5852711229
 30
0.0
 11
647.2747195379
 21
27.2950820297
 31
0.0
  0
LINE
  5
AAD
330
AA9
100
AcDbEntity
  8
1
  6
ByBlock
 62
     2
100
AcDbLine
 10
637.4219764343999
 20
25.5852711229
 30
0.0
 11
714.7357579414
 21
61.3827482387
 31
0.0
  0
CIRCLE
  5
AAE
330
AA9
100
AcDbEntity
  8
1
  6
ByBlock
 62
     2
100
AcDbCircle
 10
737.4219764343999
 20
71.88681842539999
 30
0.0
 40
25.0
  0
TEXT
  5
AAF
330
AA9
100
AcDbEntity
  8
1
  6
Continuous
 62
     7
100
AcDbText
 10
727.421976
 20
59.386818
 30
0.0
 40
25.0
  1
２
  7
MDRAFSTD
 72
     5
 11
747.4219759999999
 21
59.386818
 31
0.0
100
AcDbText
  0
ENDBLK
  5
AB0
330
AA9
100
AcDbEntity
  8
0
100
AcDbBlockEnd
  0
BLOCK
  5
AB2
330
AB1
100
AcDbEntity
  8
0
100
AcDbBlockBegin
  2
BALN2
 70
     0
 10
613.8955068048
 20
-143.3054552162
 30
0.0
  3
BALN2
  1

  0
CIRCLE
  5
AB3
330
AB1
100
AcDbEntity
  8
1
  6
ByBlock
 62
     2
100
AcDbCircle
 10
613.8955068048
 20
-143.3054552162
 30
0.0
 40
1.6666666667
  0
LINE
  5
AB4
330
AB1
100
AcDbEntity
  8
1
  6
ByBlock
 62
     2
100
AcDbLine
 10
613.8955068048
 20
-143.3054552162
 30
0.0
 11
714.7357579414
 21
-96.6148586363
 31
0.0
  0
CIRCLE
  5
AB5
330
AB1
100
AcDbEntity
  8
1
  6
ByBlock
 62
     2
100
AcDbCircle
 10
737.4219764343999
 20
-86.11078844959999
 30
0.0
 40
25.0
  0
TEXT
  5
AB6
330
AB1
100
AcDbEntity
  8
1
  6
Continuous
 62
     7
100
AcDbText
 10
727.421976
 20
-98.61078800000001
 30
0.0
 40
25.0
  1
３
  7
MDRAFSTD
 72
     5
 11
747.4219759999999
 21
-98.61078800000001
 31
0.0
100
AcDbText
  0
ENDBLK
  5
AB7
330
AB1
100
AcDbEntity
  8
0
100
AcDbBlockEnd
  0
BLOCK
  5
AB9
330
AB8
100
AcDbEntity
  8
0
100
AcDbBlockBegin
  2
BALN3
 70
     0
 10
575.4213210619
 20
168.161114756
 30
0.0
  3
BALN3
  1

  0
CIRCLE
  5
ABA
330
AB8
100
AcDbEntity
  8
1
  6
ByBlock
 62
     2
100
AcDbCircle
 10
575.4213210619
 20
168.161114756
 30
0.0
 40
1.6666666667
  0
LINE
  5
ABB
330
AB8
100
AcDbEntity
  8
1
  6
ByBlock
 62
     2
100
AcDbLine
 10
575.4213210619
 20
168.161114756
 30
0.0
 11
714.456048998
 21
226.2088890737
 31
0.0
  0
CIRCLE
  5
ABC
330
AB8
100
AcDbEntity
  8
1
  6
ByBlock
 62
     2
100
AcDbCircle
 10
737.5260950461999
 20
235.8407619618
 30
0.0
 40
25.0
  0
TEXT
  5
ABD
330
AB8
100
AcDbEntity
  8
1
  6
Continuous
 62
     7
100
AcDbText
 10
727.526095
 20
223.340762
 30
0.0
 40
25.0
  1
４
  7
MDRAFSTD
 72
     5
 11
747.526095
 21
223.340762
 31
0.0
100
AcDbText
  0
ENDBLK
  5
ABE
330
AB8
100
AcDbEntity
  8
0
100
AcDbBlockEnd
  0
BLOCK
  5
AC0
330
ABF
100
AcDbEntity
  8
0
100
AcDbBlockBegin
  2
BALN4
 70
     0
 10
576.5862978369
 20
-265.7844612959
 30
0.0
  3
BALN4
  1

  0
CIRCLE
  5
AC1
330
ABF
100
AcDbEntity
  8
1
  6
ByBlock
 62
     2
100
AcDbCircle
 10
576.5862978369
 20
-265.7844612959
 30
0.0
 40
1.6666666667
  0
LINE
  5
AC2
330
ABF
100
AcDbEntity
  8
1
  6
ByBlock
 62
     2
100
AcDbLine
 10
576.5862978369
 20
-265.7844612959
 30
0.0
 11
714.7357579414
 21
-201.8191236775
 31
0.0
  0
CIRCLE
  5
AC3
330
ABF
100
AcDbEntity
  8
1
  6
ByBlock
 62
     2
100
AcDbCircle
 10
737.4219764343999
 20
-191.3150534908
 30
0.0
 40
25.0
  0
TEXT
  5
AC4
330
ABF
100
AcDbEntity
  8
1
  6
Continuous
 62
     7
100
AcDbText
 10
727.421976
 20
-203.815053
 30
0.0
 40
25.0
  1
５
  7
MDRAFSTD
 72
     5
 11
747.4219759999999
 21
-203.815053
 31
0.0
100
AcDbText
  0
ENDBLK
  5
AC5
330
ABF
100
AcDbEntity
  8
0
100
AcDbBlockEnd
  0
BLOCK
  5
AC7
330
AC6
100
AcDbEntity
  8
0
100
AcDbBlockBegin
  2
BALN5
 70
     0
 10
642.6681764344
 20
-919.2665561031001
 30
0.0
  3
BALN5
  1

  0
LINE
  5
AC8
330
AC6
100
AcDbEntity
  8
1
  6
ByBlock
 62
     2
100
AcDbLine
 10
649.1418875049999
 20
-911.6448066335999
 30
0.0
 11
642.6681764344
 21
-919.2665561031001
 31
0.0
  0
LINE
  5
AC9
330
AC6
100
AcDbEntity
  8
1
  6
ByBlock
 62
     2
100
AcDbLine
 10
642.6681764344
 20
-919.2665561031001
 30
0.0
 11
652.0854494129999
 21
-915.9027829764999
 31
0.0
  0
LINE
  5
ACA
330
AC6
100
AcDbEntity
  8
1
  6
ByBlock
 62
     2
100
AcDbLine
 10
642.6681764344
 20
-919.2665561031001
 30
0.0
 11
839.0845413222999
 21
-783.4828684444
 31
0.0
  0
CIRCLE
  5
ACB
330
AC6
100
AcDbEntity
  8
1
  6
ByBlock
 62
     2
100
AcDbCircle
 10
859.6489879089
 20
-769.2665561031
 30
0.0
 40
25.0
  0
TEXT
  5
ACC
330
AC6
100
AcDbEntity
  8
1
  6
Continuous
 62
     7
100
AcDbText
 10
849.648988
 20
-781.766556
 30
0.0
 40
25.0
  1
６
  7
MDRAFSTD
 72
     5
 11
869.6489879999999
 21
-781.766556
 31
0.0
100
AcDbText
  0
ENDBLK
  5
ACD
330
AC6
100
AcDbEntity
  8
0
100
AcDbBlockEnd
  0
BLOCK
  5
1078
330
106F
100
AcDbEntity
  8
0
100
AcDbBlockBegin
  2
*D18
 70
     1
 10
0.0
 20
0.0
 30
0.0
  3
*D18
  1

  0
LINE
  5
1898
330
106F
100
AcDbEntity
  8
1
  6
Continuous
 62
     3
100
AcDbLine
 10
3192.460191784154
 20
1386.134429126174
 30
0.0
 11
3337.045041159866
 21
1486.520971378365
 31
0.0
  0
LINE
  5
1899
330
106F
100
AcDbEntity
  8
1
  6
Continuous
 62
     3
100
AcDbLine
 10
3530.079244034806
 20
1620.54632912984
 30
0.0
 11
3540.347020783475
 21
1627.675337520878
 31
0.0
  0
MTEXT
  5
189A
330
106F
100
AcDbEntity
  8
1
  6
Continuous
 62
     2
100
AcDbMText
 10
3248.835975605757
 20
1448.293391737593
 30
0.0
 40
22.5
 41
0.0
 71
     5
 72
     1
  1
P.C.D　%%c210
 11
0.8214221398935514
 21
0.5703206712830063
 31
0.0
 73
     1
 44
1.0
  0
LINE
  5
189B
330
106F
100
AcDbEntity
  8
1
  6
Continuous
 62
     3
100
AcDbLine
 10
3519.811467286137
 20
1613.417320738802
 30
0.0
 11
3347.312817908535
 21
1493.649979769402
 31
0.0
  0
INSERT
  5
189C
330
106F
100
AcDbEntity
  8
1
  6
Continuous
 62
     3
100
AcDbBlockReference
  2
_Open30
 10
3519.811467286137
 20
1613.417320738802
 30
0.0
 41
12.5
 42
12.5
 43
12.5
 50
214.7725901645958
  0
INSERT
  5
189D
330
106F
100
AcDbEntity
  8
1
  6
Continuous
 62
     3
100
AcDbBlockReference
  2
_Open30
 10
3347.312817908535
 20
1493.649979769402
 30
0.0
 41
12.5
 42
12.5
 43
12.5
 50
34.77259016459582
  0
POINT
  5
189E
330
106F
100
AcDbEntity
  8
DEFPOINTS
  6
Continuous
 62
     0
100
AcDbPoint
 10
3347.312817908535
 20
1493.649979769402
 30
0.0
  0
POINT
  5
189F
330
106F
100
AcDbEntity
  8
DEFPOINTS
  6
Continuous
 62
     0
100
AcDbPoint
 10
3519.811467286137
 20
1613.417320738802
 30
0.0
  0
ENDBLK
  5
1079
330
106F
100
AcDbEntity
  8
0
100
AcDbBlockEnd
  0
BLOCK
  5
14C9
330
14AA
100
AcDbEntity
  8
0
100
AcDbBlockBegin
  2
*D20
 70
     1
 10
0.0
 20
0.0
 30
0.0
  3
*D20
  1

  0
LINE
  5
192A
330
14AA
100
AcDbEntity
  8
AM_5
100
AcDbLine
 10
2808.561507820136
 20
2021.524380848333
 30
0.0
 11
2808.561507820136
 21
2132.802436584004
 31
0.0
  0
LINE
  5
192B
330
14AA
100
AcDbEntity
  8
AM_5
100
AcDbLine
 10
2958.561507820136
 20
2021.524380848333
 30
0.0
 11
2958.561507820136
 21
2132.802436584004
 31
0.0
  0
LINE
  5
192C
330
14AA
100
AcDbEntity
  8
AM_5
100
AcDbLine
 10
2821.061507820136
 20
2127.802436584004
 30
0.0
 11
2946.061507820136
 21
2127.802436584004
 31
0.0
  0
INSERT
  5
192D
330
14AA
100
AcDbEntity
  8
AM_5
100
AcDbBlockReference
  2
_Open30
 10
2808.561507820136
 20
2127.802436584004
 30
0.0
 41
12.5
 42
12.5
 43
12.5
 50
180.0
  0
INSERT
  5
192E
330
14AA
100
AcDbEntity
  8
AM_5
100
AcDbBlockReference
  2
_Open30
 10
2958.561507820136
 20
2127.802436584004
 30
0.0
 41
12.5
 42
12.5
 43
12.5
  0
MTEXT
  5
192F
330
14AA
100
AcDbEntity
  8
AM_5
 62
     2
100
AcDbMText
 10
2883.561507820136
 20
2146.552436584004
 30
0.0
 40
22.5
 41
0.0
 71
     5
 72
     1
  1
%%c150
 73
     1
 44
1.0
  0
POINT
  5
1930
330
14AA
100
AcDbEntity
  8
DEFPOINTS
 62
     0
100
AcDbPoint
 10
2808.561507820136
 20
2016.524380848333
 30
0.0
  0
POINT
  5
1931
330
14AA
100
AcDbEntity
  8
DEFPOINTS
 62
     0
100
AcDbPoint
 10
2958.561507820136
 20
2016.524380848333
 30
0.0
  0
POINT
  5
1932
330
14AA
100
AcDbEntity
  8
DEFPOINTS
 62
     0
100
AcDbPoint
 10
2958.561507820136
 20
2127.802436584004
 30
0.0
  0
ENDBLK
  5
14CA
330
14AA
100
AcDbEntity
  8
0
100
AcDbBlockEnd
  0
BLOCK
  5
15AE
330
1535
100
AcDbEntity
  8
0
100
AcDbBlockBegin
  2
*D21
 70
     1
 10
0.0
 20
0.0
 30
0.0
  3
*D21
  1

  0
LINE
  5
1909
330
1535
100
AcDbEntity
  8
AM_5
100
AcDbLine
 10
2878.561507820136
 20
2087.196474297433
 30
0.0
 11
2656.185654178264
 21
2087.196474297433
 31
0.0
  0
LINE
  5
190A
330
1535
100
AcDbEntity
  8
AM_5
100
AcDbLine
 10
2806.561507820136
 20
1787.196474297433
 30
0.0
 11
2656.185654178264
 21
1787.196474297433
 31
0.0
  0
LINE
  5
190B
330
1535
100
AcDbEntity
  8
AM_5
100
AcDbLine
 10
2661.185654178264
 20
2074.696474297434
 30
0.0
 11
2661.185654178264
 21
1799.696474297433
 31
0.0
  0
INSERT
  5
190C
330
1535
100
AcDbEntity
  8
AM_5
100
AcDbBlockReference
  2
_Open30
 10
2661.185654178264
 20
2087.196474297433
 30
0.0
 41
12.5
 42
12.5
 43
12.5
 50
90.0
  0
INSERT
  5
190D
330
1535
100
AcDbEntity
  8
AM_5
100
AcDbBlockReference
  2
_Open30
 10
2661.185654178264
 20
1787.196474297433
 30
0.0
 41
12.5
 42
12.5
 43
12.5
 50
270.0
  0
MTEXT
  5
190E
330
1535
100
AcDbEntity
  8
AM_5
 62
     2
100
AcDbMText
 10
2642.435654178263
 20
1937.196474297433
 30
0.0
 40
22.5
 41
0.0
 71
     5
 72
     1
  1
300
 11
0.0000000000000001
 21
1.0
 31
0.0
 73
     1
 44
1.0
  0
POINT
  5
190F
330
1535
100
AcDbEntity
  8
DEFPOINTS
 62
     0
100
AcDbPoint
 10
2883.561507820136
 20
2087.196474297433
 30
0.0
  0
POINT
  5
1910
330
1535
100
AcDbEntity
  8
DEFPOINTS
 62
     0
100
AcDbPoint
 10
2811.561507820136
 20
1787.196474297433
 30
0.0
  0
POINT
  5
1911
330
1535
100
AcDbEntity
  8
DEFPOINTS
 62
     0
100
AcDbPoint
 10
2661.185654178264
 20
1787.196474297433
 30
0.0
  0
ENDBLK
  5
15AF
330
1535
100
AcDbEntity
  8
0
100
AcDbBlockEnd
  0
BLOCK
  5
15B0
330
155B
100
AcDbEntity
  8
0
100
AcDbBlockBegin
  2
*D22
 70
     1
 10
0.0
 20
0.0
 30
0.0
  3
*D22
  1

  0
LINE
  5
1900
330
155B
100
AcDbEntity
  8
AM_5
100
AcDbLine
 10
2806.561507820136
 20
1787.196474297433
 30
0.0
 11
2656.185654178264
 21
1787.196474297433
 31
0.0
  0
LINE
  5
1901
330
155B
100
AcDbEntity
  8
AM_5
100
AcDbLine
 10
2585.561507820136
 20
1087.196474297433
 30
0.0
 11
2666.185654178264
 21
1087.196474297433
 31
0.0
  0
LINE
  5
1902
330
155B
100
AcDbEntity
  8
AM_5
100
AcDbLine
 10
2661.185654178264
 20
1774.696474297433
 30
0.0
 11
2661.185654178264
 21
1099.696474297433
 31
0.0
  0
INSERT
  5
1903
330
155B
100
AcDbEntity
  8
AM_5
100
AcDbBlockReference
  2
_Open30
 10
2661.185654178264
 20
1787.196474297433
 30
0.0
 41
12.5
 42
12.5
 43
12.5
 50
90.0
  0
INSERT
  5
1904
330
155B
100
AcDbEntity
  8
AM_5
100
AcDbBlockReference
  2
_Open30
 10
2661.185654178264
 20
1087.196474297433
 30
0.0
 41
12.5
 42
12.5
 43
12.5
 50
270.0
  0
MTEXT
  5
1905
330
155B
100
AcDbEntity
  8
AM_5
 62
     2
100
AcDbMText
 10
2642.435654178263
 20
1437.196474297434
 30
0.0
 40
22.5
 41
0.0
 71
     5
 72
     1
  1
700
 11
0.0000000000000001
 21
1.0
 31
0.0
 73
     1
 44
1.0
  0
POINT
  5
1906
330
155B
100
AcDbEntity
  8
DEFPOINTS
 62
     0
100
AcDbPoint
 10
2811.561507820136
 20
1787.196474297433
 30
0.0
  0
POINT
  5
1907
330
155B
100
AcDbEntity
  8
DEFPOINTS
 62
     0
100
AcDbPoint
 10
2580.561507820136
 20
1087.196474297433
 30
0.0
  0
POINT
  5
1908
330
155B
100
AcDbEntity
  8
DEFPOINTS
 62
     0
100
AcDbPoint
 10
2661.185654178264
 20
1087.196474297433
 30
0.0
  0
ENDBLK
  5
15B1
330
155B
100
AcDbEntity
  8
0
100
AcDbBlockEnd
  0
BLOCK
  5
15E1
330
15CB
100
AcDbEntity
  8
0
100
AcDbBlockBegin
  2
*D23
 70
     1
 10
0.0
 20
0.0
 30
0.0
  3
*D23
  1

  0
LINE
  5
18F7
330
15CB
100
AcDbEntity
  8
AM_5
100
AcDbLine
 10
2803.561507820236
 20
1687.196474297433
 30
0.0
 11
2730.870355197311
 21
1687.196474297433
 31
0.0
  0
LINE
  5
18F8
330
15CB
100
AcDbEntity
  8
AM_5
100
AcDbLine
 10
2803.561507820236
 20
1227.196474297433
 30
0.0
 11
2730.870355197311
 21
1227.196474297433
 31
0.0
  0
LINE
  5
18F9
330
15CB
100
AcDbEntity
  8
AM_5
100
AcDbLine
 10
2735.87035519731
 20
1674.696474297433
 30
0.0
 11
2735.87035519731
 21
1239.696474297433
 31
0.0
  0
INSERT
  5
18FA
330
15CB
100
AcDbEntity
  8
AM_5
100
AcDbBlockReference
  2
_Open30
 10
2735.87035519731
 20
1687.196474297433
 30
0.0
 41
12.5
 42
12.5
 43
12.5
 50
90.0
  0
INSERT
  5
18FB
330
15CB
100
AcDbEntity
  8
AM_5
100
AcDbBlockReference
  2
_Open30
 10
2735.87035519731
 20
1227.196474297433
 30
0.0
 41
12.5
 42
12.5
 43
12.5
 50
270.0
  0
MTEXT
  5
18FC
330
15CB
100
AcDbEntity
  8
AM_5
 62
     2
100
AcDbMText
 10
2717.12035519731
 20
1457.196474297434
 30
0.0
 40
22.5
 41
0.0
 71
     5
 72
     1
  1
460
 11
0.0000000000000001
 21
1.0
 31
0.0
 73
     1
 44
1.0
  0
POINT
  5
18FD
330
15CB
100
AcDbEntity
  8
DEFPOINTS
 62
     0
100
AcDbPoint
 10
2808.561507820236
 20
1687.196474297433
 30
0.0
  0
POINT
  5
18FE
330
15CB
100
AcDbEntity
  8
DEFPOINTS
 62
     0
100
AcDbPoint
 10
2808.561507820236
 20
1227.196474297433
 30
0.0
  0
POINT
  5
18FF
330
15CB
100
AcDbEntity
  8
DEFPOINTS
 62
     0
100
AcDbPoint
 10
2735.87035519731
 20
1227.196474297433
 30
0.0
  0
ENDBLK
  5
15E2
330
15CB
100
AcDbEntity
  8
0
100
AcDbBlockEnd
  0
BLOCK
  5
161B
330
1605
100
AcDbEntity
  8
0
100
AcDbBlockBegin
  2
*D24
 70
     1
 10
0.0
 20
0.0
 30
0.0
  3
*D24
  1

  0
LINE
  5
18EE
330
1605
100
AcDbEntity
  8
AM_5
100
AcDbLine
 10
2878.561507820136
 20
2087.196474297433
 30
0.0
 11
2553.076674640536
 21
2087.196474297433
 31
0.0
  0
LINE
  5
18EF
330
1605
100
AcDbEntity
  8
AM_5
100
AcDbLine
 10
2612.463025509117
 20
1087.196474297433
 30
0.0
 11
2553.076674640536
 21
1087.196474297433
 31
0.0
  0
LINE
  5
18F0
330
1605
100
AcDbEntity
  8
AM_5
100
AcDbLine
 10
2558.076674640536
 20
2074.696474297434
 30
0.0
 11
2558.076674640536
 21
1099.696474297433
 31
0.0
  0
INSERT
  5
18F1
330
1605
100
AcDbEntity
  8
AM_5
100
AcDbBlockReference
  2
_Open30
 10
2558.076674640536
 20
2087.196474297433
 30
0.0
 41
12.5
 42
12.5
 43
12.5
 50
90.0
  0
INSERT
  5
18F2
330
1605
100
AcDbEntity
  8
AM_5
100
AcDbBlockReference
  2
_Open30
 10
2558.076674640536
 20
1087.196474297433
 30
0.0
 41
12.5
 42
12.5
 43
12.5
 50
270.0
  0
MTEXT
  5
18F3
330
1605
100
AcDbEntity
  8
AM_5
 62
     2
100
AcDbMText
 10
2539.326674640535
 20
1587.196474297433
 30
0.0
 40
22.5
 41
0.0
 71
     5
 72
     1
  1
1000
 11
0.0000000000000001
 21
1.0
 31
0.0
 73
     1
 44
1.0
  0
POINT
  5
18F4
330
1605
100
AcDbEntity
  8
DEFPOINTS
 62
     0
100
AcDbPoint
 10
2883.561507820136
 20
2087.196474297433
 30
0.0
  0
POINT
  5
18F5
330
1605
100
AcDbEntity
  8
DEFPOINTS
 62
     0
100
AcDbPoint
 10
2617.463025509117
 20
1087.196474297433
 30
0.0
  0
POINT
  5
18F6
330
1605
100
AcDbEntity
  8
DEFPOINTS
 62
     0
100
AcDbPoint
 10
2558.076674640536
 20
1087.196474297433
 30
0.0
  0
ENDBLK
  5
161C
330
1605
100
AcDbEntity
  8
0
100
AcDbBlockEnd
  0
BLOCK
  5
1647
330
1631
100
AcDbEntity
  8
0
100
AcDbBlockBegin
  2
*D25
 70
     1
 10
0.0
 20
0.0
 30
0.0
  3
*D25
  1

  0
LINE
  5
18E5
330
1631
100
AcDbEntity
  8
AM_5
100
AcDbLine
 10
2612.463025509117
 20
1087.196474297433
 30
0.0
 11
2553.076674640536
 21
1087.196474297433
 31
0.0
  0
LINE
  5
18E6
330
1631
100
AcDbEntity
  8
AM_5
100
AcDbLine
 10
2678.561507820136
 20
987.1964742974332
 30
0.0
 11
2553.076674640536
 21
987.1964742974332
 31
0.0
  0
LINE
  5
18E7
330
1631
100
AcDbEntity
  8
AM_5
100
AcDbLine
 10
2558.076674640537
 20
1074.696474297433
 30
0.0
 11
2558.076674640536
 21
999.6964742974332
 31
0.0
  0
INSERT
  5
18E8
330
1631
100
AcDbEntity
  8
AM_5
100
AcDbBlockReference
  2
_Open30
 10
2558.076674640537
 20
1087.196474297433
 30
0.0
 41
12.5
 42
12.5
 43
12.5
 50
90.0
  0
INSERT
  5
18E9
330
1631
100
AcDbEntity
  8
AM_5
100
AcDbBlockReference
  2
_Open30
 10
2558.076674640536
 20
987.1964742974332
 30
0.0
 41
12.5
 42
12.5
 43
12.5
 50
270.0
  0
MTEXT
  5
18EA
330
1631
100
AcDbEntity
  8
AM_5
 62
     2
100
AcDbMText
 10
2539.326674640536
 20
1037.196474297434
 30
0.0
 40
22.5
 41
0.0
 71
     5
 72
     1
  1
100
 11
0.0000000000000001
 21
1.0
 31
0.0
 73
     1
 44
1.0
  0
POINT
  5
18EB
330
1631
100
AcDbEntity
  8
DEFPOINTS
 62
     0
100
AcDbPoint
 10
2617.463025509117
 20
1087.196474297433
 30
0.0
  0
POINT
  5
18EC
330
1631
100
AcDbEntity
  8
DEFPOINTS
 62
     0
100
AcDbPoint
 10
2683.561507820136
 20
987.1964742974332
 30
0.0
  0
POINT
  5
18ED
330
1631
100
AcDbEntity
  8
DEFPOINTS
 62
     0
100
AcDbPoint
 10
2558.076674640536
 20
987.1964742974332
 30
0.0
  0
ENDBLK
  5
1648
330
1631
100
AcDbEntity
  8
0
100
AcDbBlockEnd
  0
BLOCK
  5
16AF
330
1659
100
AcDbEntity
  8
0
100
AcDbBlockBegin
  2
*D26
 70
     1
 10
0.0
 20
0.0
 30
0.0
  3
*D26
  1

  0
LINE
  5
18DC
330
1659
100
AcDbEntity
  8
AM_5
100
AcDbLine
 10
2878.561507820136
 20
2087.196474297433
 30
0.0
 11
2484.411438339459
 21
2087.196474297433
 31
0.0
  0
LINE
  5
18DD
330
1659
100
AcDbEntity
  8
AM_5
100
AcDbLine
 10
2678.561507820136
 20
987.1964742974332
 30
0.0
 11
2484.411438339459
 21
987.1964742974332
 31
0.0
  0
LINE
  5
18DE
330
1659
100
AcDbEntity
  8
AM_5
100
AcDbLine
 10
2489.411438339459
 20
2074.696474297434
 30
0.0
 11
2489.411438339458
 21
999.6964742974332
 31
0.0
  0
INSERT
  5
18DF
330
1659
100
AcDbEntity
  8
AM_5
100
AcDbBlockReference
  2
_Open30
 10
2489.411438339459
 20
2087.196474297433
 30
0.0
 41
12.5
 42
12.5
 43
12.5
 50
90.0
  0
INSERT
  5
18E0
330
1659
100
AcDbEntity
  8
AM_5
100
AcDbBlockReference
  2
_Open30
 10
2489.411438339458
 20
987.1964742974332
 30
0.0
 41
12.5
 42
12.5
 43
12.5
 50
270.0
  0
MTEXT
  5
18E1
330
1659
100
AcDbEntity
  8
AM_5
 62
     2
100
AcDbMText
 10
2470.661438339458
 20
1537.196474297433
 30
0.0
 40
22.5
 41
0.0
 71
     5
 72
     1
  1
1100
 11
0.0000000000000001
 21
1.0
 31
0.0
 73
     1
 44
1.0
  0
POINT
  5
18E2
330
1659
100
AcDbEntity
  8
DEFPOINTS
 62
     0
100
AcDbPoint
 10
2883.561507820136
 20
2087.196474297433
 30
0.0
  0
POINT
  5
18E3
330
1659
100
AcDbEntity
  8
DEFPOINTS
 62
     0
100
AcDbPoint
 10
2683.561507820136
 20
987.1964742974332
 30
0.0
  0
POINT
  5
18E4
330
1659
100
AcDbEntity
  8
DEFPOINTS
 62
     0
100
AcDbPoint
 10
2489.411438339458
 20
987.1964742974332
 30
0.0
  0
ENDBLK
  5
16B0
330
1659
100
AcDbEntity
  8
0
100
AcDbBlockEnd
  0
BLOCK
  5
16B1
330
167F
100
AcDbEntity
  8
0
100
AcDbBlockBegin
  2
*D27
 70
     1
 10
0.0
 20
0.0
 30
0.0
  3
*D27
  1

  0
LINE
  5
18D3
330
167F
100
AcDbEntity
  8
AM_5
100
AcDbLine
 10
2678.561507820136
 20
987.1964742974332
 30
0.0
 11
2484.411438339459
 21
987.1964742974332
 31
0.0
  0
LINE
  5
18D4
330
167F
100
AcDbEntity
  8
AM_5
100
AcDbLine
 10
2628.561507820136
 20
637.1964742974332
 30
0.0
 11
2484.411438339459
 21
637.1964742974332
 31
0.0
  0
LINE
  5
18D5
330
167F
100
AcDbEntity
  8
AM_5
100
AcDbLine
 10
2489.411438339458
 20
974.6964742974332
 30
0.0
 11
2489.411438339458
 21
649.6964742974332
 31
0.0
  0
INSERT
  5
18D6
330
167F
100
AcDbEntity
  8
AM_5
100
AcDbBlockReference
  2
_Open30
 10
2489.411438339458
 20
987.1964742974332
 30
0.0
 41
12.5
 42
12.5
 43
12.5
 50
90.0
  0
INSERT
  5
18D7
330
167F
100
AcDbEntity
  8
AM_5
100
AcDbBlockReference
  2
_Open30
 10
2489.411438339458
 20
637.1964742974332
 30
0.0
 41
12.5
 42
12.5
 43
12.5
 50
270.0
  0
MTEXT
  5
18D8
330
167F
100
AcDbEntity
  8
AM_5
 62
     2
100
AcDbMText
 10
2470.661438339458
 20
812.1964742974338
 30
0.0
 40
22.5
 41
0.0
 71
     5
 72
     1
  1
350
 11
0.0000000000000001
 21
1.0
 31
0.0
 73
     1
 44
1.0
  0
POINT
  5
18D9
330
167F
100
AcDbEntity
  8
DEFPOINTS
 62
     0
100
AcDbPoint
 10
2683.561507820136
 20
987.1964742974332
 30
0.0
  0
POINT
  5
18DA
330
167F
100
AcDbEntity
  8
DEFPOINTS
 62
     0
100
AcDbPoint
 10
2633.561507820136
 20
637.1964742974332
 30
0.0
  0
POINT
  5
18DB
330
167F
100
AcDbEntity
  8
DEFPOINTS
 62
     0
100
AcDbPoint
 10
2489.411438339458
 20
637.1964742974332
 30
0.0
  0
ENDBLK
  5
16B2
330
167F
100
AcDbEntity
  8
0
100
AcDbBlockEnd
  0
BLOCK
  5
16B3
330
1699
100
AcDbEntity
  8
0
100
AcDbBlockBegin
  2
*D28
 70
     1
 10
0.0
 20
0.0
 30
0.0
  3
*D28
  1

  0
LINE
  5
18CA
330
1699
100
AcDbEntity
  8
AM_5
100
AcDbLine
 10
2628.561507820136
 20
637.1964742974332
 30
0.0
 11
2484.411438339459
 21
637.1964742974332
 31
0.0
  0
LINE
  5
18CB
330
1699
100
AcDbEntity
  8
AM_5
100
AcDbLine
 10
2628.561507820136
 20
537.1964742974332
 30
0.0
 11
2484.411438339459
 21
537.1964742974332
 31
0.0
  0
LINE
  5
18CC
330
1699
100
AcDbEntity
  8
AM_5
100
AcDbLine
 10
2489.411438339458
 20
624.6964742974332
 30
0.0
 11
2489.411438339458
 21
549.6964742974332
 31
0.0
  0
INSERT
  5
18CD
330
1699
100
AcDbEntity
  8
AM_5
100
AcDbBlockReference
  2
_Open30
 10
2489.411438339458
 20
637.1964742974332
 30
0.0
 41
12.5
 42
12.5
 43
12.5
 50
90.0
  0
INSERT
  5
18CE
330
1699
100
AcDbEntity
  8
AM_5
100
AcDbBlockReference
  2
_Open30
 10
2489.411438339458
 20
537.1964742974332
 30
0.0
 41
12.5
 42
12.5
 43
12.5
 50
270.0
  0
MTEXT
  5
18CF
330
1699
100
AcDbEntity
  8
AM_5
 62
     2
100
AcDbMText
 10
2470.661438339458
 20
587.1964742974337
 30
0.0
 40
22.5
 41
0.0
 71
     5
 72
     1
  1
100
 11
0.0000000000000001
 21
1.0
 31
0.0
 73
     1
 44
1.0
  0
POINT
  5
18D0
330
1699
100
AcDbEntity
  8
DEFPOINTS
 62
     0
100
AcDbPoint
 10
2633.561507820136
 20
637.1964742974332
 30
0.0
  0
POINT
  5
18D1
330
1699
100
AcDbEntity
  8
DEFPOINTS
 62
     0
100
AcDbPoint
 10
2633.561507820136
 20
537.1964742974332
 30
0.0
  0
POINT
  5
18D2
330
1699
100
AcDbEntity
  8
DEFPOINTS
 62
     0
100
AcDbPoint
 10
2489.411438339458
 20
537.1964742974332
 30
0.0
  0
ENDBLK
  5
16B4
330
1699
100
AcDbEntity
  8
0
100
AcDbBlockEnd
  0
BLOCK
  5
16E4
330
16C5
100
AcDbEntity
  8
0
100
AcDbBlockBegin
  2
*D29
 70
     1
 10
0.0
 20
0.0
 30
0.0
  3
*D29
  1

  0
LINE
  5
1933
330
16C5
100
AcDbEntity
  8
AM_5
100
AcDbLine
 10
2683.561507820136
 20
632.1964742974333
 30
0.0
 11
2683.561507820136
 21
462.7678161144094
 31
0.0
  0
LINE
  5
1934
330
16C5
100
AcDbEntity
  8
AM_5
100
AcDbLine
 10
3083.561507820136
 20
632.1964742974333
 30
0.0
 11
3083.561507820136
 21
462.7678161144094
 31
0.0
  0
LINE
  5
1935
330
16C5
100
AcDbEntity
  8
AM_5
100
AcDbLine
 10
2696.061507820136
 20
467.7678161144094
 30
0.0
 11
3071.061507820136
 21
467.7678161144094
 31
0.0
  0
INSERT
  5
1936
330
16C5
100
AcDbEntity
  8
AM_5
100
AcDbBlockReference
  2
_Open30
 10
2683.561507820136
 20
467.7678161144094
 30
0.0
 41
12.5
 42
12.5
 43
12.5
 50
180.0
  0
INSERT
  5
1937
330
16C5
100
AcDbEntity
  8
AM_5
100
AcDbBlockReference
  2
_Open30
 10
3083.561507820136
 20
467.7678161144094
 30
0.0
 41
12.5
 42
12.5
 43
12.5
  0
MTEXT
  5
1938
330
16C5
100
AcDbEntity
  8
AM_5
 62
     2
100
AcDbMText
 10
2891.277299187874
 20
486.5178161144094
 30
0.0
 40
22.5
 41
0.0
 71
     5
 72
     1
  1
{\Famgdt|c128;o}400
 73
     1
 44
1.0
  0
POINT
  5
1939
330
16C5
100
AcDbEntity
  8
DEFPOINTS
 62
     0
100
AcDbPoint
 10
2683.561507820136
 20
637.1964742974332
 30
0.0
  0
POINT
  5
193A
330
16C5
100
AcDbEntity
  8
DEFPOINTS
 62
     0
100
AcDbPoint
 10
3083.561507820136
 20
637.1964742974332
 30
0.0
  0
POINT
  5
193B
330
16C5
100
AcDbEntity
  8
DEFPOINTS
 62
     0
100
AcDbPoint
 10
3083.561507820136
 20
467.7678161144094
 30
0.0
  0
ENDBLK
  5
16E5
330
16C5
100
AcDbEntity
  8
0
100
AcDbBlockEnd
  0
BLOCK
  5
1715
330
16F6
100
AcDbEntity
  8
0
100
AcDbBlockBegin
  2
*D30
 70
     1
 10
0.0
 20
0.0
 30
0.0
  3
*D30
  1

  0
LINE
  5
18C1
330
16F6
100
AcDbEntity
  8
AM_5
100
AcDbLine
 10
2758.561507820136
 20
1004.196474297433
 30
0.0
 11
2758.561507820136
 21
1121.707980019633
 31
0.0
  0
LINE
  5
18C2
330
16F6
100
AcDbEntity
  8
AM_5
100
AcDbLine
 10
3008.561507820136
 20
1004.196474297433
 30
0.0
 11
3008.561507820136
 21
1121.707980019633
 31
0.0
  0
LINE
  5
18C3
330
16F6
100
AcDbEntity
  8
AM_5
100
AcDbLine
 10
2771.061507820136
 20
1116.707980019633
 30
0.0
 11
2996.061507820136
 21
1116.707980019633
 31
0.0
  0
INSERT
  5
18C4
330
16F6
100
AcDbEntity
  8
AM_5
100
AcDbBlockReference
  2
_Open30
 10
2758.561507820136
 20
1116.707980019633
 30
0.0
 41
12.5
 42
12.5
 43
12.5
 50
180.0
  0
INSERT
  5
18C5
330
16F6
100
AcDbEntity
  8
AM_5
100
AcDbBlockReference
  2
_Open30
 10
3008.561507820136
 20
1116.707980019633
 30
0.0
 41
12.5
 42
12.5
 43
12.5
  0
MTEXT
  5
18C6
330
16F6
100
AcDbEntity
  8
AM_5
 62
     2
100
AcDbMText
 10
2883.561507820136
 20
1135.460194586562
 30
0.0
 40
22.5
 41
0.0
 71
     5
 72
     1
  1
%%c250
 73
     1
 44
1.0
  0
POINT
  5
18C7
330
16F6
100
AcDbEntity
  8
DEFPOINTS
 62
     0
100
AcDbPoint
 10
2758.561507820136
 20
999.1964742974332
 30
0.0
  0
POINT
  5
18C8
330
16F6
100
AcDbEntity
  8
DEFPOINTS
 62
     0
100
AcDbPoint
 10
3008.561507820136
 20
999.1964742974332
 30
0.0
  0
POINT
  5
18C9
330
16F6
100
AcDbEntity
  8
DEFPOINTS
 62
     0
100
AcDbPoint
 10
3008.561507820136
 20
1116.707980019633
 30
0.0
  0
ENDBLK
  5
1716
330
16F6
100
AcDbEntity
  8
0
100
AcDbBlockEnd
  0
BLOCK
  5
1940
330
193F
100
AcDbEntity
  8
0
100
AcDbBlockBegin
  2
NAKAMURA
 70
     0
 10
0.0
 20
0.0
 30
0.0
  3
NAKAMURA
  1

  0
CIRCLE
  5
1941
330
193F
100
AcDbEntity
  8
0
100
AcDbCircle
 10
0.0
 20
-0.0000000000000071
 30
0.0
 40
5.75
  0
LINE
  5
1942
330
193F
100
AcDbEntity
  8
0
100
AcDbLine
 10
5.390964663212002
 20
2.0
 30
0.0
 11
-5.390964663211889
 21
1.999999999999985
 31
0.0
  0
TEXT
  5
1943
330
193F
100
AcDbEntity
  8
0
100
AcDbText
 10
-1.40956822548013
 20
2.272712767880801
 30
0.0
 40
2.875000000632499
  1
藤
 50
0.000000000000708
 72
     4
 11
-0.0679015585183152
 21
3.710212768197067
 31
0.0
100
AcDbText
  0
TEXT
  5
1944
330
193F
100
AcDbEntity
  8
0
100
AcDbText
 10
-1.227410318497265
 20
-5.354429741660606
 30
0.0
 40
2.875000000632499
  1
繁
 50
0.000000000000708
 72
     4
 11
0.1142563484645507
 21
-3.91692974134434
 31
0.0
100
AcDbText
  0
LINE
  5
1945
330
193F
100
AcDbEntity
  8
0
100
AcDbLine
 10
5.390964663212002
 20
-1.999999999999964
 30
0.0
 11
-5.390964663211889
 21
-2.000000000000021
 31
0.0
  0
ENDBLK
  5
1946
330
193F
100
AcDbEntity
  8
0
100
AcDbBlockEnd
  0
BLOCK
  5
1AC8
330
1AAE
100
AcDbEntity
  8
0
100
AcDbBlockBegin
  2
*D32
 70
     1
 10
0.0
 20
0.0
 30
0.0
  3
*D32
  1

  0
LINE
  5
1ACA
330
1AAE
100
AcDbEntity
  8
AM_5
100
AcDbLine
 10
3013.561507820136
 20
999.1964742974332
 30
0.0
 11
3115.57178451577
 21
999.1964742974332
 31
0.0
  0
LINE
  5
1ACB
330
1AAE
100
AcDbEntity
  8
AM_5
100
AcDbLine
 10
3088.561507820136
 20
987.1964742974332
 30
0.0
 11
3115.57178451577
 21
987.1964742974332
 31
0.0
  0
LINE
  5
1ACC
330
1AAE
100
AcDbEntity
  8
AM_5
100
AcDbLine
 10
3110.57178451577
 20
974.6964742974332
 30
0.0
 11
3110.57178451577
 21
962.1964742974332
 31
0.0
  0
LINE
  5
1ACD
330
1AAE
100
AcDbEntity
  8
AM_5
100
AcDbLine
 10
3110.57178451577
 20
1011.696474297433
 30
0.0
 11
3110.57178451577
 21
1060.797803037591
 31
0.0
  0
LINE
  5
1ACE
330
1AAE
100
AcDbEntity
  8
AM_5
100
AcDbLine
 10
3110.57178451577
 20
987.1964742974332
 30
0.0
 11
3110.57178451577
 21
999.1964742974332
 31
0.0
  0
INSERT
  5
1ACF
330
1AAE
100
AcDbEntity
  8
AM_5
100
AcDbBlockReference
  2
_Open30
 10
3110.57178451577
 20
987.1964742974332
 30
0.0
 41
12.5
 42
12.5
 43
12.5
 50
90.0
  0
INSERT
  5
1AD0
330
1AAE
100
AcDbEntity
  8
AM_5
100
AcDbBlockReference
  2
_Open30
 10
3110.57178451577
 20
999.1964742974332
 30
0.0
 41
12.5
 42
12.5
 43
12.5
 50
270.0
  0
MTEXT
  5
1AD1
330
1AAE
100
AcDbEntity
  8
AM_5
 62
     2
100
AcDbMText
 10
3091.819569948841
 20
1042.497138667512
 30
0.0
 40
22.5
 41
0.0
 71
     5
 72
     1
  1
12
 11
0.0000000000000001
 21
1.0
 31
0.0
 73
     1
 44
1.0
  0
POINT
  5
1AD2
330
1AAE
100
AcDbEntity
  8
DEFPOINTS
 62
     0
100
AcDbPoint
 10
3008.561507820136
 20
999.1964742974332
 30
0.0
  0
POINT
  5
1AD3
330
1AAE
100
AcDbEntity
  8
DEFPOINTS
 62
     0
100
AcDbPoint
 10
3083.561507820136
 20
987.1964742974332
 30
0.0
  0
POINT
  5
1AD4
330
1AAE
100
AcDbEntity
  8
DEFPOINTS
 62
     0
100
AcDbPoint
 10
3110.57178451577
 20
987.1964742974332
 30
0.0
  0
ENDBLK
  5
1AC9
330
1AAE
100
AcDbEntity
  8
0
100
AcDbBlockEnd
  0
ENDSEC
  0
SECTION
  2
ENTITIES
  0
LINE
  5
DA9
330
1F
100
AcDbEntity
  8
1
  6
Continuous
 62
     7
100
AcDbLine
 10
2923.561507820136
 20
1473.080823895233
 30
0.0
 11
2923.561507820136
 21
1229.196474297433
 31
0.0
  0
LINE
  5
DAA
330
1F
100
AcDbEntity
  8
1
  6
Continuous
 62
     7
100
AcDbLine
 10
2913.561507820136
 20
1474.187493855233
 30
0.0
 11
2913.561507820136
 21
1557.929260905733
 31
0.0
  0
LINE
  5
DAB
330
1F
100
AcDbEntity
  8
1
  6
Continuous
 62
     7
100
AcDbLine
 10
2913.561507820136
 20
1557.929260905733
 30
0.0
 11
2883.561507820136
 21
1557.929260905733
 31
0.0
  0
LINE
  5
DAC
330
1F
100
AcDbEntity
  8
1
  6
HIDDEN
 62
     7
100
AcDbLine
 10
2883.561507820136
 20
1557.929260905733
 30
0.0
 11
2853.561507820136
 21
1557.929260905733
 31
0.0
  0
LINE
  5
DAD
330
1F
100
AcDbEntity
  8
1
  6
HIDDEN
 62
     7
100
AcDbLine
 10
2913.561507820136
 20
1357.929260905733
 30
0.0
 11
2913.561507820136
 21
1474.250496150733
 31
0.0
  0
LINE
  5
DAE
330
1F
100
AcDbEntity
  8
1
  6
Continuous
 62
     7
100
AcDbLine
 10
2948.561507820136
 20
1553.223591443133
 30
0.0
 11
2948.561507820136
 21
1685.196474298133
 31
0.0
  0
LINE
  5
DAF
330
1F
100
AcDbEntity
  8
1
  6
Continuous
 62
     7
100
AcDbLine
 10
2948.561507820136
 20
1229.196474297433
 30
0.0
 11
2948.561507820136
 21
1475.199675505233
 31
0.0
  0
LINE
  5
DB0
330
1F
100
AcDbEntity
  8
1
  6
Continuous
 62
     7
100
AcDbLine
 10
2923.561507820136
 20
1685.196474298133
 30
0.0
 11
2923.561507820136
 21
1565.844668476333
 31
0.0
  0
POLYLINE
  5
DB1
330
1F
100
AcDbEntity
  8
1
  6
Continuous
 62
     7
100
AcDb2dPolyline
 66
     1
 10
0.0
 20
0.0
 30
0.0
  0
VERTEX
  5
DB2
330
DB1
100
AcDbEntity
  8
1
  6
Continuous
 62
     7
100
AcDbVertex
100
AcDb2dVertex
 10
2956.287061100736
 20
1478.481752275033
 30
0.0
  0
VERTEX
  5
DB3
330
DB1
100
AcDbEntity
  8
1
  6
Continuous
 62
     7
100
AcDbVertex
100
AcDb2dVertex
 10
2955.841556533036
 20
1478.372217944333
 30
0.0
  0
VERTEX
  5
DB4
330
DB1
100
AcDbEntity
  8
1
  6
Continuous
 62
     7
100
AcDbVertex
100
AcDb2dVertex
 10
2954.776838595436
 20
1478.037529972333
 30
0.0
  0
VERTEX
  5
DB5
330
DB1
100
AcDbEntity
  8
1
  6
Continuous
 62
     7
100
AcDbVertex
100
AcDb2dVertex
 10
2953.500600936436
 20
1477.468560889433
 30
0.0
  0
VERTEX
  5
DB6
330
DB1
100
AcDbEntity
  8
1
  6
Continuous
 62
     7
100
AcDbVertex
100
AcDb2dVertex
 10
2953.392866131036
 20
1477.407618059433
 30
0.0
  0
VERTEX
  5
DB7
330
DB1
100
AcDbEntity
  8
1
  6
Continuous
 62
     7
100
AcDbVertex
100
AcDb2dVertex
 10
2952.733230136736
 20
1476.935593046733
 30
0.0
  0
VERTEX
  5
DB8
330
DB1
100
AcDbEntity
  8
1
  6
Continuous
 62
     7
100
AcDbVertex
100
AcDb2dVertex
 10
2952.051637841636
 20
1476.331134765133
 30
0.0
  0
VERTEX
  5
DB9
330
DB1
100
AcDbEntity
  8
1
  6
Continuous
 62
     7
100
AcDbVertex
100
AcDb2dVertex
 10
2951.312534609436
 20
1475.664878425833
 30
0.0
  0
VERTEX
  5
DBA
330
DB1
100
AcDbEntity
  8
1
  6
Continuous
 62
     7
100
AcDbVertex
100
AcDb2dVertex
 10
2950.480365803736
 20
1475.007459239933
 30
0.0
  0
VERTEX
  5
DBB
330
DB1
100
AcDbEntity
  8
1
  6
Continuous
 62
     7
100
AcDbVertex
100
AcDb2dVertex
 10
2949.519576787936
 20
1474.429512418333
 30
0.0
  0
VERTEX
  5
DBC
330
DB1
100
AcDbEntity
  8
1
  6
Continuous
 62
     7
100
AcDbVertex
100
AcDb2dVertex
 10
2948.708447468536
 20
1474.095704228033
 30
0.0
  0
VERTEX
  5
DBD
330
DB1
100
AcDbEntity
  8
1
  6
Continuous
 62
     7
100
AcDbVertex
100
AcDb2dVertex
 10
2947.863204313836
 20
1473.864945997133
 30
0.0
  0
VERTEX
  5
DBE
330
DB1
100
AcDbEntity
  8
1
  6
Continuous
 62
     7
100
AcDbVertex
100
AcDb2dVertex
 10
2946.881934369036
 20
1473.672240154633
 30
0.0
  0
VERTEX
  5
DBF
330
DB1
100
AcDbEntity
  8
1
  6
Continuous
 62
     7
100
AcDbVertex
100
AcDb2dVertex
 10
2945.808116681636
 20
1473.512696959533
 30
0.0
  0
VERTEX
  5
DC0
330
DB1
100
AcDbEntity
  8
1
  6
Continuous
 62
     7
100
AcDbVertex
100
AcDb2dVertex
 10
2944.685230299236
 20
1473.381426670933
 30
0.0
  0
VERTEX
  5
DC1
330
DB1
100
AcDbEntity
  8
1
  6
Continuous
 62
     7
100
AcDbVertex
100
AcDb2dVertex
 10
2943.556754269336
 20
1473.273539547933
 30
0.0
  0
VERTEX
  5
DC2
330
DB1
100
AcDbEntity
  8
1
  6
Continuous
 62
     7
100
AcDbVertex
100
AcDb2dVertex
 10
2942.466167639436
 20
1473.184145849733
 30
0.0
  0
VERTEX
  5
DC3
330
DB1
100
AcDbEntity
  8
1
  6
Continuous
 62
     7
100
AcDbVertex
100
AcDb2dVertex
 10
2941.456949457236
 20
1473.108355835333
 30
0.0
  0
VERTEX
  5
DC4
330
DB1
100
AcDbEntity
  8
1
  6
Continuous
 62
     7
100
AcDbVertex
100
AcDb2dVertex
 10
2940.572578770236
 20
1473.041279763833
 30
0.0
  0
VERTEX
  5
DC5
330
DB1
100
AcDbEntity
  8
1
  6
Continuous
 62
     7
100
AcDbVertex
100
AcDb2dVertex
 10
2939.996025497636
 20
1472.991732950933
 30
0.0
  0
VERTEX
  5
DC6
330
DB1
100
AcDbEntity
  8
1
  6
Continuous
 62
     7
100
AcDbVertex
100
AcDb2dVertex
 10
2938.701802545336
 20
1472.909998340533
 30
0.0
  0
VERTEX
  5
DC7
330
DB1
100
AcDbEntity
  8
1
  6
Continuous
 62
     7
100
AcDbVertex
100
AcDb2dVertex
 10
2938.056390319836
 20
1472.954029122633
 30
0.0
  0
VERTEX
  5
DC8
330
DB1
100
AcDbEntity
  8
1
  6
Continuous
 62
     7
100
AcDbVertex
100
AcDb2dVertex
 10
2937.071993466336
 20
1472.991732950933
 30
0.0
  0
VERTEX
  5
DC9
330
DB1
100
AcDbEntity
  8
1
  6
Continuous
 62
     7
100
AcDbVertex
100
AcDb2dVertex
 10
2936.265867752736
 20
1472.991732950933
 30
0.0
  0
VERTEX
  5
DCA
330
DB1
100
AcDbEntity
  8
1
  6
Continuous
 62
     7
100
AcDbVertex
100
AcDb2dVertex
 10
2935.329752293936
 20
1472.991732950933
 30
0.0
  0
VERTEX
  5
DCB
330
DB1
100
AcDbEntity
  8
1
  6
Continuous
 62
     7
100
AcDbVertex
100
AcDb2dVertex
 10
2934.303318682536
 20
1472.991732950933
 30
0.0
  0
VERTEX
  5
DCC
330
DB1
100
AcDbEntity
  8
1
  6
Continuous
 62
     7
100
AcDbVertex
100
AcDb2dVertex
 10
2933.226238511436
 20
1472.991732950933
 30
0.0
  0
VERTEX
  5
DCD
330
DB1
100
AcDbEntity
  8
1
  6
Continuous
 62
     7
100
AcDbVertex
100
AcDb2dVertex
 10
2932.138183373136
 20
1472.991732950933
 30
0.0
  0
VERTEX
  5
DCE
330
DB1
100
AcDbEntity
  8
1
  6
Continuous
 62
     7
100
AcDbVertex
100
AcDb2dVertex
 10
2931.078824860436
 20
1472.991732950933
 30
0.0
  0
VERTEX
  5
DCF
330
DB1
100
AcDbEntity
  8
1
  6
Continuous
 62
     7
100
AcDbVertex
100
AcDb2dVertex
 10
2930.657025234336
 20
1472.991732950933
 30
0.0
  0
VERTEX
  5
DD0
330
DB1
100
AcDbEntity
  8
1
  6
Continuous
 62
     7
100
AcDbVertex
100
AcDb2dVertex
 10
2929.662839462036
 20
1472.980410507433
 30
0.0
  0
VERTEX
  5
DD1
330
DB1
100
AcDbEntity
  8
1
  6
Continuous
 62
     7
100
AcDbVertex
100
AcDb2dVertex
 10
2928.675987215036
 20
1472.954806988533
 30
0.0
  0
VERTEX
  5
DD2
330
DB1
100
AcDbEntity
  8
1
  6
Continuous
 62
     7
100
AcDbVertex
100
AcDb2dVertex
 10
2927.690026097736
 20
1472.927468111633
 30
0.0
  0
VERTEX
  5
DD3
330
DB1
100
AcDbEntity
  8
1
  6
Continuous
 62
     7
100
AcDbVertex
100
AcDb2dVertex
 10
2926.698513714936
 20
1472.910939594033
 30
0.0
  0
VERTEX
  5
DD4
330
DB1
100
AcDbEntity
  8
1
  6
Continuous
 62
     7
100
AcDbVertex
100
AcDb2dVertex
 10
2925.695007671136
 20
1472.917767153033
 30
0.0
  0
VERTEX
  5
DD5
330
DB1
100
AcDbEntity
  8
1
  6
Continuous
 62
     7
100
AcDbVertex
100
AcDb2dVertex
 10
2924.673065570936
 20
1472.960496506033
 30
0.0
  0
VERTEX
  5
DD6
330
DB1
100
AcDbEntity
  8
1
  6
Continuous
 62
     7
100
AcDbVertex
100
AcDb2dVertex
 10
2924.242057002336
 20
1472.991732950933
 30
0.0
  0
VERTEX
  5
DD7
330
DB1
100
AcDbEntity
  8
1
  6
Continuous
 62
     7
100
AcDbVertex
100
AcDb2dVertex
 10
2923.259020206036
 20
1473.099839000733
 30
0.0
  0
VERTEX
  5
DD8
330
DB1
100
AcDbEntity
  8
1
  6
Continuous
 62
     7
100
AcDbVertex
100
AcDb2dVertex
 10
2922.224766391336
 20
1473.255474798433
 30
0.0
  0
VERTEX
  5
DD9
330
DB1
100
AcDbEntity
  8
1
  6
Continuous
 62
     7
100
AcDbVertex
100
AcDb2dVertex
 10
2921.168694561936
 20
1473.439885807233
 30
0.0
  0
VERTEX
  5
DDA
330
DB1
100
AcDbEntity
  8
1
  6
Continuous
 62
     7
100
AcDbVertex
100
AcDb2dVertex
 10
2920.120203721636
 20
1473.634317490433
 30
0.0
  0
VERTEX
  5
DDB
330
DB1
100
AcDbEntity
  8
1
  6
Continuous
 62
     7
100
AcDbVertex
100
AcDb2dVertex
 10
2919.108692873936
 20
1473.820015311033
 30
0.0
  0
VERTEX
  5
DDC
330
DB1
100
AcDbEntity
  8
1
  6
Continuous
 62
     7
100
AcDbVertex
100
AcDb2dVertex
 10
2918.163561022636
 20
1473.978224732333
 30
0.0
  0
VERTEX
  5
DDD
330
DB1
100
AcDbEntity
  8
1
  6
Continuous
 62
     7
100
AcDbVertex
100
AcDb2dVertex
 10
2917.314207171436
 20
1474.090191217333
 30
0.0
  0
VERTEX
  5
DDE
330
DB1
100
AcDbEntity
  8
1
  6
Continuous
 62
     7
100
AcDbVertex
100
AcDb2dVertex
 10
2917.260184601036
 20
1474.095704228033
 30
0.0
  0
VERTEX
  5
DDF
330
DB1
100
AcDbEntity
  8
1
  6
Continuous
 62
     7
100
AcDbVertex
100
AcDb2dVertex
 10
2916.084495950336
 20
1474.122845485733
 30
0.0
  0
VERTEX
  5
DE0
330
DB1
100
AcDbEntity
  8
1
  6
Continuous
 62
     7
100
AcDbVertex
100
AcDb2dVertex
 10
2915.146637675636
 20
1474.031175594433
 30
0.0
  0
VERTEX
  5
DE1
330
DB1
100
AcDbEntity
  8
1
  6
Continuous
 62
     7
100
AcDbVertex
100
AcDb2dVertex
 10
2914.268377497636
 20
1473.966163547033
 30
0.0
  0
VERTEX
  5
DE2
330
DB1
100
AcDbEntity
  8
1
  6
Continuous
 62
     7
100
AcDbVertex
100
AcDb2dVertex
 10
2913.271483136736
 20
1474.073278336333
 30
0.0
  0
VERTEX
  5
DE3
330
DB1
100
AcDbEntity
  8
1
  6
Continuous
 62
     7
100
AcDbVertex
100
AcDb2dVertex
 10
2913.172507169436
 20
1474.095704228033
 30
0.0
  0
VERTEX
  5
DE4
330
DB1
100
AcDbEntity
  8
1
  6
Continuous
 62
     7
100
AcDbVertex
100
AcDb2dVertex
 10
2912.349662257236
 20
1474.344742812733
 30
0.0
  0
VERTEX
  5
DE5
330
DB1
100
AcDbEntity
  8
1
  6
Continuous
 62
     7
100
AcDbVertex
100
AcDb2dVertex
 10
2911.507933443736
 20
1474.686193030433
 30
0.0
  0
VERTEX
  5
DE6
330
DB1
100
AcDbEntity
  8
1
  6
Continuous
 62
     7
100
AcDbVertex
100
AcDb2dVertex
 10
2910.628436827936
 20
1475.092939535833
 30
0.0
  0
VERTEX
  5
DE7
330
DB1
100
AcDbEntity
  8
1
  6
Continuous
 62
     7
100
AcDbVertex
100
AcDb2dVertex
 10
2909.692288508536
 20
1475.537866983733
 30
0.0
  0
VERTEX
  5
DE8
330
DB1
100
AcDbEntity
  8
1
  6
Continuous
 62
     7
100
AcDbVertex
100
AcDb2dVertex
 10
2908.680604584436
 20
1475.993860028833
 30
0.0
  0
VERTEX
  5
DE9
330
DB1
100
AcDbEntity
  8
1
  6
Continuous
 62
     7
100
AcDbVertex
100
AcDb2dVertex
 10
2907.921184337736
 20
1476.303646782333
 30
0.0
  0
VERTEX
  5
DEA
330
DB1
100
AcDbEntity
  8
1
  6
Continuous
 62
     7
100
AcDbVertex
100
AcDb2dVertex
 10
2907.056326488236
 20
1476.629701516533
 30
0.0
  0
VERTEX
  5
DEB
330
DB1
100
AcDbEntity
  8
1
  6
Continuous
 62
     7
100
AcDbVertex
100
AcDb2dVertex
 10
2906.082415552236
 20
1476.985069666333
 30
0.0
  0
VERTEX
  5
DEC
330
DB1
100
AcDbEntity
  8
1
  6
Continuous
 62
     7
100
AcDbVertex
100
AcDb2dVertex
 10
2905.042866257536
 20
1477.357273770733
 30
0.0
  0
VERTEX
  5
DED
330
DB1
100
AcDbEntity
  8
1
  6
Continuous
 62
     7
100
AcDbVertex
100
AcDb2dVertex
 10
2903.981093331936
 20
1477.733836368533
 30
0.0
  0
VERTEX
  5
DEE
330
DB1
100
AcDbEntity
  8
1
  6
Continuous
 62
     7
100
AcDbVertex
100
AcDb2dVertex
 10
2902.940511503336
 20
1478.102279998533
 30
0.0
  0
VERTEX
  5
DEF
330
DB1
100
AcDbEntity
  8
1
  6
Continuous
 62
     7
100
AcDbVertex
100
AcDb2dVertex
 10
2901.964535499436
 20
1478.450127199633
 30
0.0
  0
VERTEX
  5
DF0
330
DB1
100
AcDbEntity
  8
1
  6
Continuous
 62
     7
100
AcDbVertex
100
AcDb2dVertex
 10
2901.096580048136
 20
1478.764900510733
 30
0.0
  0
VERTEX
  5
DF1
330
DB1
100
AcDbEntity
  8
1
  6
Continuous
 62
     7
100
AcDbVertex
100
AcDb2dVertex
 10
2900.380059877236
 20
1479.034122470533
 30
0.0
  0
VERTEX
  5
DF2
330
DB1
100
AcDbEntity
  8
1
  6
Continuous
 62
     7
100
AcDbVertex
100
AcDb2dVertex
 10
2900.342570705436
 20
1479.048656444433
 30
0.0
  0
VERTEX
  5
DF3
330
DB1
100
AcDbEntity
  8
1
  6
Continuous
 62
     7
100
AcDbVertex
100
AcDb2dVertex
 10
2899.299655470236
 20
1479.571702853233
 30
0.0
  0
VERTEX
  5
DF4
330
DB1
100
AcDbEntity
  8
1
  6
Continuous
 62
     7
100
AcDbVertex
100
AcDb2dVertex
 10
2898.787550326736
 20
1479.901473914133
 30
0.0
  0
VERTEX
  5
DF5
330
DB1
100
AcDbEntity
  8
1
  6
Continuous
 62
     7
100
AcDbVertex
100
AcDb2dVertex
 10
2898.015279905036
 20
1480.152627721533
 30
0.0
  0
VERTEX
  5
DF6
330
DB1
100
AcDbEntity
  8
1
  6
Continuous
 62
     7
100
AcDbVertex
100
AcDb2dVertex
 10
2897.252477410136
 20
1480.349870413833
 30
0.0
  0
VERTEX
  5
DF7
330
DB1
100
AcDbEntity
  8
1
  6
Continuous
 62
     7
100
AcDbVertex
100
AcDb2dVertex
 10
2896.289161856936
 20
1480.578254752233
 30
0.0
  0
VERTEX
  5
DF8
330
DB1
100
AcDbEntity
  8
1
  6
Continuous
 62
     7
100
AcDbVertex
100
AcDb2dVertex
 10
2895.196750124036
 20
1480.823766134233
 30
0.0
  0
VERTEX
  5
DF9
330
DB1
100
AcDbEntity
  8
1
  6
Continuous
 62
     7
100
AcDbVertex
100
AcDb2dVertex
 10
2894.046659090036
 20
1481.072389957333
 30
0.0
  0
VERTEX
  5
DFA
330
DB1
100
AcDbEntity
  8
1
  6
Continuous
 62
     7
100
AcDbVertex
100
AcDb2dVertex
 10
2892.910305633536
 20
1481.310111619033
 30
0.0
  0
VERTEX
  5
DFB
330
DB1
100
AcDbEntity
  8
1
  6
Continuous
 62
     7
100
AcDbVertex
100
AcDb2dVertex
 10
2891.859106633236
 20
1481.522916516733
 30
0.0
  0
VERTEX
  5
DFC
330
DB1
100
AcDbEntity
  8
1
  6
Continuous
 62
     7
100
AcDbVertex
100
AcDb2dVertex
 10
2890.964478967636
 20
1481.696790047933
 30
0.0
  0
VERTEX
  5
DFD
330
DB1
100
AcDbEntity
  8
1
  6
Continuous
 62
     7
100
AcDbVertex
100
AcDb2dVertex
 10
2890.436666272836
 20
1481.793666106433
 30
0.0
  0
VERTEX
  5
DFE
330
DB1
100
AcDbEntity
  8
1
  6
Continuous
 62
     7
100
AcDbVertex
100
AcDb2dVertex
 10
2889.219670331536
 20
1481.878162075533
 30
0.0
  0
VERTEX
  5
DFF
330
DB1
100
AcDbEntity
  8
1
  6
Continuous
 62
     7
100
AcDbVertex
100
AcDb2dVertex
 10
2888.706116703236
 20
1481.793666106433
 30
0.0
  0
VERTEX
  5
E00
330
DB1
100
AcDbEntity
  8
1
  6
Continuous
 62
     7
100
AcDbVertex
100
AcDb2dVertex
 10
2887.771515796136
 20
1481.836147005433
 30
0.0
  0
VERTEX
  5
E01
330
DB1
100
AcDbEntity
  8
1
  6
Continuous
 62
     7
100
AcDbVertex
100
AcDb2dVertex
 10
2886.702765604636
 20
1481.875273295433
 30
0.0
  0
VERTEX
  5
E02
330
DB1
100
AcDbEntity
  8
1
  6
Continuous
 62
     7
100
AcDbVertex
100
AcDb2dVertex
 10
2885.782084671936
 20
1481.793666106433
 30
0.0
  0
VERTEX
  5
E03
330
DB1
100
AcDbEntity
  8
1
  6
Continuous
 62
     7
100
AcDbVertex
100
AcDb2dVertex
 10
2884.620642807836
 20
1481.343494880733
 30
0.0
  0
VERTEX
  5
E04
330
DB1
100
AcDbEntity
  8
1
  6
Continuous
 62
     7
100
AcDbVertex
100
AcDb2dVertex
 10
2883.649842060836
 20
1480.809130091233
 30
0.0
  0
VERTEX
  5
E05
330
DB1
100
AcDbEntity
  8
1
  6
Continuous
 62
     7
100
AcDbVertex
100
AcDb2dVertex
 10
2883.454793871536
 20
1480.689694829333
 30
0.0
  0
SEQEND
  5
E06
330
DB1
100
AcDbEntity
  8
1
  6
Continuous
 62
     7
  0
POLYLINE
  5
E07
330
1F
100
AcDbEntity
  8
1
  6
Continuous
 62
     7
100
AcDb2dPolyline
 66
     1
 10
0.0
 20
0.0
 30
0.0
  0
VERTEX
  5
E08
330
E07
100
AcDbEntity
  8
1
  6
Continuous
 62
     7
100
AcDbVertex
100
AcDb2dVertex
 10
2955.720156931436
 20
1555.401696935933
 30
0.0
  0
VERTEX
  5
E09
330
E07
100
AcDbEntity
  8
1
  6
Continuous
 62
     7
100
AcDbVertex
100
AcDb2dVertex
 10
2955.256152946936
 20
1554.817730927233
 30
0.0
  0
VERTEX
  5
E0A
330
E07
100
AcDbEntity
  8
1
  6
Continuous
 62
     7
100
AcDbVertex
100
AcDb2dVertex
 10
2954.556511531236
 20
1554.327562720333
 30
0.0
  0
VERTEX
  5
E0B
330
E07
100
AcDbEntity
  8
1
  6
Continuous
 62
     7
100
AcDbVertex
100
AcDb2dVertex
 10
2953.818698086436
 20
1553.998264052733
 30
0.0
  0
VERTEX
  5
E0C
330
E07
100
AcDbEntity
  8
1
  6
Continuous
 62
     7
100
AcDbVertex
100
AcDb2dVertex
 10
2952.899637439136
 20
1553.651462448933
 30
0.0
  0
VERTEX
  5
E0D
330
E07
100
AcDbEntity
  8
1
  6
Continuous
 62
     7
100
AcDbVertex
100
AcDb2dVertex
 10
2951.833980273935
 20
1553.356459277533
 30
0.0
  0
VERTEX
  5
E0E
330
E07
100
AcDbEntity
  8
1
  6
Continuous
 62
     7
100
AcDbVertex
100
AcDb2dVertex
 10
2951.065575330536
 20
1553.223591443133
 30
0.0
  0
VERTEX
  5
E0F
330
E07
100
AcDbEntity
  8
1
  6
Continuous
 62
     7
100
AcDbVertex
100
AcDb2dVertex
 10
2950.149590187336
 20
1553.122727502033
 30
0.0
  0
VERTEX
  5
E10
330
E07
100
AcDbEntity
  8
1
  6
Continuous
 62
     7
100
AcDbVertex
100
AcDb2dVertex
 10
2949.115032740736
 20
1553.045197775033
 30
0.0
  0
VERTEX
  5
E11
330
E07
100
AcDbEntity
  8
1
  6
Continuous
 62
     7
100
AcDbVertex
100
AcDb2dVertex
 10
2948.034840874436
 20
1553.013254497933
 30
0.0
  0
VERTEX
  5
E12
330
E07
100
AcDbEntity
  8
1
  6
Continuous
 62
     7
100
AcDbVertex
100
AcDb2dVertex
 10
2946.981952472336
 20
1553.049149906433
 30
0.0
  0
VERTEX
  5
E13
330
E07
100
AcDbEntity
  8
1
  6
Continuous
 62
     7
100
AcDbVertex
100
AcDb2dVertex
 10
2946.029305418136
 20
1553.175136236233
 30
0.0
  0
VERTEX
  5
E14
330
E07
100
AcDbEntity
  8
1
  6
Continuous
 62
     7
100
AcDbVertex
100
AcDb2dVertex
 10
2945.814252498736
 20
1553.223591443133
 30
0.0
  0
VERTEX
  5
E15
330
E07
100
AcDbEntity
  8
1
  6
Continuous
 62
     7
100
AcDbVertex
100
AcDb2dVertex
 10
2944.882626896436
 20
1553.526575688733
 30
0.0
  0
VERTEX
  5
E16
330
E07
100
AcDbEntity
  8
1
  6
Continuous
 62
     7
100
AcDbVertex
100
AcDb2dVertex
 10
2944.111312263636
 20
1553.939588274633
 30
0.0
  0
VERTEX
  5
E17
330
E07
100
AcDbEntity
  8
1
  6
Continuous
 62
     7
100
AcDbVertex
100
AcDb2dVertex
 10
2943.348692997636
 20
1554.512739442533
 30
0.0
  0
VERTEX
  5
E18
330
E07
100
AcDbEntity
  8
1
  6
Continuous
 62
     7
100
AcDbVertex
100
AcDb2dVertex
 10
2942.443153495436
 20
1555.296139433933
 30
0.0
  0
VERTEX
  5
E19
330
E07
100
AcDbEntity
  8
1
  6
Continuous
 62
     7
100
AcDbVertex
100
AcDb2dVertex
 10
2942.323316298136
 20
1555.401696935933
 30
0.0
  0
VERTEX
  5
E1A
330
E07
100
AcDbEntity
  8
1
  6
Continuous
 62
     7
100
AcDbVertex
100
AcDb2dVertex
 10
2941.725487248336
 20
1555.985696768933
 30
0.0
  0
VERTEX
  5
E1B
330
E07
100
AcDbEntity
  8
1
  6
Continuous
 62
     7
100
AcDbVertex
100
AcDb2dVertex
 10
2941.084865406636
 20
1556.697071767933
 30
0.0
  0
VERTEX
  5
E1C
330
E07
100
AcDbEntity
  8
1
  6
Continuous
 62
     7
100
AcDbVertex
100
AcDb2dVertex
 10
2940.409547094636
 20
1557.490482530933
 30
0.0
  0
VERTEX
  5
E1D
330
E07
100
AcDbEntity
  8
1
  6
Continuous
 62
     7
100
AcDbVertex
100
AcDb2dVertex
 10
2939.707628634236
 20
1558.320589655833
 30
0.0
  0
VERTEX
  5
E1E
330
E07
100
AcDbEntity
  8
1
  6
Continuous
 62
     7
100
AcDbVertex
100
AcDb2dVertex
 10
2938.987206347236
 20
1559.142053740633
 30
0.0
  0
VERTEX
  5
E1F
330
E07
100
AcDbEntity
  8
1
  6
Continuous
 62
     7
100
AcDbVertex
100
AcDb2dVertex
 10
2938.256376555336
 20
1559.909535383433
 30
0.0
  0
VERTEX
  5
E20
330
E07
100
AcDbEntity
  8
1
  6
Continuous
 62
     7
100
AcDbVertex
100
AcDb2dVertex
 10
2937.523235580436
 20
1560.577695182133
 30
0.0
  0
VERTEX
  5
E21
330
E07
100
AcDbEntity
  8
1
  6
Continuous
 62
     7
100
AcDbVertex
100
AcDb2dVertex
 10
2937.071993466336
 20
1560.921553321533
 30
0.0
  0
VERTEX
  5
E22
330
E07
100
AcDbEntity
  8
1
  6
Continuous
 62
     7
100
AcDbVertex
100
AcDb2dVertex
 10
2936.193207434436
 20
1561.449162988033
 30
0.0
  0
VERTEX
  5
E23
330
E07
100
AcDbEntity
  8
1
  6
Continuous
 62
     7
100
AcDbVertex
100
AcDb2dVertex
 10
2935.323718595536
 20
1561.830226155033
 30
0.0
  0
VERTEX
  5
E24
330
E07
100
AcDbEntity
  8
1
  6
Continuous
 62
     7
100
AcDbVertex
100
AcDb2dVertex
 10
2934.441128567836
 20
1562.120738777233
 30
0.0
  0
VERTEX
  5
E25
330
E07
100
AcDbEntity
  8
1
  6
Continuous
 62
     7
100
AcDbVertex
100
AcDb2dVertex
 10
2933.523038969236
 20
1562.376696809533
 30
0.0
  0
VERTEX
  5
E26
330
E07
100
AcDbEntity
  8
1
  6
Continuous
 62
     7
100
AcDbVertex
100
AcDb2dVertex
 10
2932.547051418036
 20
1562.654096206433
 30
0.0
  0
VERTEX
  5
E27
330
E07
100
AcDbEntity
  8
1
  6
Continuous
 62
     7
100
AcDbVertex
100
AcDb2dVertex
 10
2931.490767532336
 20
1563.008932922733
 30
0.0
  0
VERTEX
  5
E28
330
E07
100
AcDbEntity
  8
1
  6
Continuous
 62
     7
100
AcDbVertex
100
AcDb2dVertex
 10
2931.253766465236
 20
1563.099658814333
 30
0.0
  0
VERTEX
  5
E29
330
E07
100
AcDbEntity
  8
1
  6
Continuous
 62
     7
100
AcDbVertex
100
AcDb2dVertex
 10
2930.431796792936
 20
1563.434125410033
 30
0.0
  0
VERTEX
  5
E2A
330
E07
100
AcDbEntity
  8
1
  6
Continuous
 62
     7
100
AcDbVertex
100
AcDb2dVertex
 10
2929.559287224536
 20
1563.806951864933
 30
0.0
  0
VERTEX
  5
E2B
330
E07
100
AcDbEntity
  8
1
  6
Continuous
 62
     7
100
AcDbVertex
100
AcDb2dVertex
 10
2928.646671844636
 20
1564.205878129533
 30
0.0
  0
VERTEX
  5
E2C
330
E07
100
AcDbEntity
  8
1
  6
Continuous
 62
     7
100
AcDbVertex
100
AcDb2dVertex
 10
2927.704384737836
 20
1564.618644154433
 30
0.0
  0
VERTEX
  5
E2D
330
E07
100
AcDbEntity
  8
1
  6
Continuous
 62
     7
100
AcDbVertex
100
AcDb2dVertex
 10
2926.742859988736
 20
1565.032989890133
 30
0.0
  0
VERTEX
  5
E2E
330
E07
100
AcDbEntity
  8
1
  6
Continuous
 62
     7
100
AcDbVertex
100
AcDb2dVertex
 10
2925.772531681936
 20
1565.436655287433
 30
0.0
  0
VERTEX
  5
E2F
330
E07
100
AcDbEntity
  8
1
  6
Continuous
 62
     7
100
AcDbVertex
100
AcDb2dVertex
 10
2924.803833902036
 20
1565.817380296733
 30
0.0
  0
VERTEX
  5
E30
330
E07
100
AcDbEntity
  8
1
  6
Continuous
 62
     7
100
AcDbVertex
100
AcDb2dVertex
 10
2923.847200733636
 20
1566.162904868833
 30
0.0
  0
VERTEX
  5
E31
330
E07
100
AcDbEntity
  8
1
  6
Continuous
 62
     7
100
AcDbVertex
100
AcDb2dVertex
 10
2923.078411602136
 20
1566.411572645733
 30
0.0
  0
VERTEX
  5
E32
330
E07
100
AcDbEntity
  8
1
  6
Continuous
 62
     7
100
AcDbVertex
100
AcDb2dVertex
 10
2922.096908914536
 20
1566.697323212833
 30
0.0
  0
VERTEX
  5
E33
330
E07
100
AcDbEntity
  8
1
  6
Continuous
 62
     7
100
AcDbVertex
100
AcDb2dVertex
 10
2921.116390636236
 20
1566.958596961533
 30
0.0
  0
VERTEX
  5
E34
330
E07
100
AcDbEntity
  8
1
  6
Continuous
 62
     7
100
AcDbVertex
100
AcDb2dVertex
 10
2920.136544711136
 20
1567.195549919633
 30
0.0
  0
VERTEX
  5
E35
330
E07
100
AcDbEntity
  8
1
  6
Continuous
 62
     7
100
AcDbVertex
100
AcDb2dVertex
 10
2919.157059083036
 20
1567.408338115533
 30
0.0
  0
VERTEX
  5
E36
330
E07
100
AcDbEntity
  8
1
  6
Continuous
 62
     7
100
AcDbVertex
100
AcDb2dVertex
 10
2918.177621695636
 20
1567.597117577233
 30
0.0
  0
VERTEX
  5
E37
330
E07
100
AcDbEntity
  8
1
  6
Continuous
 62
     7
100
AcDbVertex
100
AcDb2dVertex
 10
2917.197920492736
 20
1567.762044332833
 30
0.0
  0
VERTEX
  5
E38
330
E07
100
AcDbEntity
  8
1
  6
Continuous
 62
     7
100
AcDbVertex
100
AcDb2dVertex
 10
2916.217643418036
 20
1567.903274410333
 30
0.0
  0
VERTEX
  5
E39
330
E07
100
AcDbEntity
  8
1
  6
Continuous
 62
     7
100
AcDbVertex
100
AcDb2dVertex
 10
2915.236478415537
 20
1568.020963838033
 30
0.0
  0
VERTEX
  5
E3A
330
E07
100
AcDbEntity
  8
1
  6
Continuous
 62
     7
100
AcDbVertex
100
AcDb2dVertex
 10
2914.932893800536
 20
1568.052611030633
 30
0.0
  0
VERTEX
  5
E3B
330
E07
100
AcDbEntity
  8
1
  6
Continuous
 62
     7
100
AcDbVertex
100
AcDb2dVertex
 10
2913.960942831936
 20
1568.126398267933
 30
0.0
  0
VERTEX
  5
E3C
330
E07
100
AcDbEntity
  8
1
  6
Continuous
 62
     7
100
AcDbVertex
100
AcDb2dVertex
 10
2913.026696812036
 20
1568.155002452633
 30
0.0
  0
VERTEX
  5
E3D
330
E07
100
AcDbEntity
  8
1
  6
Continuous
 62
     7
100
AcDbVertex
100
AcDb2dVertex
 10
2912.108040522335
 20
1568.150382184333
 30
0.0
  0
VERTEX
  5
E3E
330
E07
100
AcDbEntity
  8
1
  6
Continuous
 62
     7
100
AcDbVertex
100
AcDb2dVertex
 10
2911.182858744336
 20
1568.124496062633
 30
0.0
  0
VERTEX
  5
E3F
330
E07
100
AcDbEntity
  8
1
  6
Continuous
 62
     7
100
AcDbVertex
100
AcDb2dVertex
 10
2910.229036259536
 20
1568.089302687233
 30
0.0
  0
VERTEX
  5
E40
330
E07
100
AcDbEntity
  8
1
  6
Continuous
 62
     7
100
AcDbVertex
100
AcDb2dVertex
 10
2909.224457849536
 20
1568.056760657733
 30
0.0
  0
VERTEX
  5
E41
330
E07
100
AcDbEntity
  8
1
  6
Continuous
 62
     7
100
AcDbVertex
100
AcDb2dVertex
 10
2908.147008295636
 20
1568.038828573833
 30
0.0
  0
VERTEX
  5
E42
330
E07
100
AcDbEntity
  8
1
  6
Continuous
 62
     7
100
AcDbVertex
100
AcDb2dVertex
 10
2906.974572379536
 20
1568.047465035033
 30
0.0
  0
VERTEX
  5
E43
330
E07
100
AcDbEntity
  8
1
  6
Continuous
 62
     7
100
AcDbVertex
100
AcDb2dVertex
 10
2906.757538937436
 20
1568.052611030633
 30
0.0
  0
VERTEX
  5
E44
330
E07
100
AcDbEntity
  8
1
  6
Continuous
 62
     7
100
AcDbVertex
100
AcDb2dVertex
 10
2905.869729305436
 20
1568.082910817333
 30
0.0
  0
VERTEX
  5
E45
330
E07
100
AcDbEntity
  8
1
  6
Continuous
 62
     7
100
AcDbVertex
100
AcDb2dVertex
 10
2904.887548616636
 20
1568.127609832733
 30
0.0
  0
VERTEX
  5
E46
330
E07
100
AcDbEntity
  8
1
  6
Continuous
 62
     7
100
AcDbVertex
100
AcDb2dVertex
 10
2903.832838307736
 20
1568.183197845933
 30
0.0
  0
VERTEX
  5
E47
330
E07
100
AcDbEntity
  8
1
  6
Continuous
 62
     7
100
AcDbVertex
100
AcDb2dVertex
 10
2902.727439815536
 20
1568.246164626133
 30
0.0
  0
VERTEX
  5
E48
330
E07
100
AcDbEntity
  8
1
  6
Continuous
 62
     7
100
AcDbVertex
100
AcDb2dVertex
 10
2901.593194576636
 20
1568.312999942333
 30
0.0
  0
VERTEX
  5
E49
330
E07
100
AcDbEntity
  8
1
  6
Continuous
 62
     7
100
AcDbVertex
100
AcDb2dVertex
 10
2900.451944027836
 20
1568.380193563533
 30
0.0
  0
VERTEX
  5
E4A
330
E07
100
AcDbEntity
  8
1
  6
Continuous
 62
     7
100
AcDbVertex
100
AcDb2dVertex
 10
2899.325529605736
 20
1568.444235259033
 30
0.0
  0
VERTEX
  5
E4B
330
E07
100
AcDbEntity
  8
1
  6
Continuous
 62
     7
100
AcDbVertex
100
AcDb2dVertex
 10
2898.235792747136
 20
1568.501614797833
 30
0.0
  0
VERTEX
  5
E4C
330
E07
100
AcDbEntity
  8
1
  6
Continuous
 62
     7
100
AcDbVertex
100
AcDb2dVertex
 10
2897.204574888636
 20
1568.548821949133
 30
0.0
  0
VERTEX
  5
E4D
330
E07
100
AcDbEntity
  8
1
  6
Continuous
 62
     7
100
AcDbVertex
100
AcDb2dVertex
 10
2896.253717467036
 20
1568.582346481833
 30
0.0
  0
VERTEX
  5
E4E
330
E07
100
AcDbEntity
  8
1
  6
Continuous
 62
     7
100
AcDbVertex
100
AcDb2dVertex
 10
2895.405061918936
 20
1568.598678165233
 30
0.0
  0
VERTEX
  5
E4F
330
E07
100
AcDbEntity
  8
1
  6
Continuous
 62
     7
100
AcDbVertex
100
AcDb2dVertex
 10
2894.680449681235
 20
1568.594306768333
 30
0.0
  0
VERTEX
  5
E50
330
E07
100
AcDbEntity
  8
1
  6
Continuous
 62
     7
100
AcDbVertex
100
AcDb2dVertex
 10
2894.524343704336
 20
1568.589678138433
 30
0.0
  0
VERTEX
  5
E51
330
E07
100
AcDbEntity
  8
1
  6
Continuous
 62
     7
100
AcDbVertex
100
AcDb2dVertex
 10
2892.916654298736
 20
1568.365129120233
 30
0.0
  0
VERTEX
  5
E52
330
E07
100
AcDbEntity
  8
1
  6
Continuous
 62
     7
100
AcDbVertex
100
AcDb2dVertex
 10
2892.305902969636
 20
1567.968520265433
 30
0.0
  0
VERTEX
  5
E53
330
E07
100
AcDbEntity
  8
1
  6
Continuous
 62
     7
100
AcDbVertex
100
AcDb2dVertex
 10
2891.711928754736
 20
1567.556795776333
 30
0.0
  0
VERTEX
  5
E54
330
E07
100
AcDbEntity
  8
1
  6
Continuous
 62
     7
100
AcDbVertex
100
AcDb2dVertex
 10
2891.600311673036
 20
1567.515543922833
 30
0.0
  0
VERTEX
  5
E55
330
E07
100
AcDbEntity
  8
1
  6
Continuous
 62
     7
100
AcDbVertex
100
AcDb2dVertex
 10
2890.719303703536
 20
1567.216175381633
 30
0.0
  0
VERTEX
  5
E56
330
E07
100
AcDbEntity
  8
1
  6
Continuous
 62
     7
100
AcDbVertex
100
AcDb2dVertex
 10
2889.804047080836
 20
1566.914179057833
 30
0.0
  0
VERTEX
  5
E57
330
E07
100
AcDbEntity
  8
1
  6
Continuous
 62
     7
100
AcDbVertex
100
AcDb2dVertex
 10
2888.818067400436
 20
1566.611378671733
 30
0.0
  0
VERTEX
  5
E58
330
E07
100
AcDbEntity
  8
1
  6
Continuous
 62
     7
100
AcDbVertex
100
AcDb2dVertex
 10
2888.109375472336
 20
1566.411572645733
 30
0.0
  0
VERTEX
  5
E59
330
E07
100
AcDbEntity
  8
1
  6
Continuous
 62
     7
100
AcDbVertex
100
AcDb2dVertex
 10
2887.051578896736
 20
1566.142637833533
 30
0.0
  0
VERTEX
  5
E5A
330
E07
100
AcDbEntity
  8
1
  6
Continuous
 62
     7
100
AcDbVertex
100
AcDb2dVertex
 10
2885.772287592736
 20
1565.837726639633
 30
0.0
  0
VERTEX
  5
E5B
330
E07
100
AcDbEntity
  8
1
  6
Continuous
 62
     7
100
AcDbVertex
100
AcDb2dVertex
 10
2884.558506822036
 20
1565.557347295933
 30
0.0
  0
VERTEX
  5
E5C
330
E07
100
AcDbEntity
  8
1
  6
Continuous
 62
     7
100
AcDbVertex
100
AcDb2dVertex
 10
2883.697241846136
 20
1565.362008034033
 30
0.0
  0
VERTEX
  5
E5D
330
E07
100
AcDbEntity
  8
1
  6
Continuous
 62
     7
100
AcDbVertex
100
AcDb2dVertex
 10
2883.454793871536
 20
1565.307601368533
 30
0.0
  0
SEQEND
  5
E5E
330
E07
100
AcDbEntity
  8
1
  6
Continuous
 62
     7
  0
LINE
  5
E62
330
1F
100
AcDbEntity
  8
1
  6
DASHDOT
 62
     7
100
AcDbLine
 10
2833.347312924336
 20
1457.929260905733
 30
0.0
 11
2931.159199667936
 21
1457.929260905733
 31
0.0
  0
LINE
  5
E63
330
1F
100
AcDbEntity
  8
1
  6
HIDDEN
 62
     7
100
AcDbLine
 10
2853.561507820136
 20
1357.929260905733
 30
0.0
 11
2913.561507820136
 21
1357.929260905733
 31
0.0
  0
LINE
  5
E64
330
1F
100
AcDbEntity
  8
1
  6
HIDDEN
 62
     7
100
AcDbLine
 10
2853.561507820136
 20
1557.929260905733
 30
0.0
 11
2853.561507820136
 21
1357.929260905733
 31
0.0
  0
LINE
  5
E65
330
1F
100
AcDbEntity
  8
AM_7
100
AcDbLine
 10
2872.787264138036
 20
1240.196474297433
 30
0.0
 11
2894.817612188336
 21
1240.196474297433
 31
0.0
  0
LINE
  5
E66
330
1F
100
AcDbEntity
  8
1
  6
DASHDOT
 62
     7
100
AcDbLine
 10
2883.561507820136
 20
1230.079561004733
 30
0.0
 11
2883.561507820136
 21
1252.426424195733
 31
0.0
  0
LINE
  5
E67
330
1F
100
AcDbEntity
  8
1
  6
Continuous
 62
     7
100
AcDbLine
 10
2883.561507820136
 20
1230.079561004733
 30
0.0
 11
2883.561507820136
 21
1229.196474297433
 31
0.0
  0
LINE
  5
E68
330
1F
100
AcDbEntity
  8
1
  6
Continuous
 62
     7
100
AcDbLine
 10
2886.511507820137
 20
1241.899657591533
 30
0.0
 11
2883.561507820136
 21
1243.602840885633
 31
0.0
  0
LINE
  5
E69
330
1F
100
AcDbEntity
  8
1
  6
Continuous
 62
     7
100
AcDbLine
 10
2886.511507820137
 20
1238.493291003333
 30
0.0
 11
2886.511507820137
 21
1241.899657591533
 31
0.0
  0
LINE
  5
E6A
330
1F
100
AcDbEntity
  8
1
  6
Continuous
 62
     7
100
AcDbLine
 10
2883.561507820136
 20
1236.790107709233
 30
0.0
 11
2886.511507820137
 21
1238.493291003333
 31
0.0
  0
LINE
  5
E6B
330
1F
100
AcDbEntity
  8
1
  6
Continuous
 62
     7
100
AcDbLine
 10
2880.611507820136
 20
1238.493291003333
 30
0.0
 11
2883.561507820136
 21
1236.790107709233
 31
0.0
  0
LINE
  5
E6C
330
1F
100
AcDbEntity
  8
1
  6
Continuous
 62
     7
100
AcDbLine
 10
2880.611507820136
 20
1241.899657591533
 30
0.0
 11
2880.611507820136
 21
1238.493291003333
 31
0.0
  0
LINE
  5
E6D
330
1F
100
AcDbEntity
  8
1
  6
Continuous
 62
     7
100
AcDbLine
 10
2883.561507820136
 20
1243.602840885633
 30
0.0
 11
2880.611507820136
 21
1241.899657591533
 31
0.0
  0
CIRCLE
  5
E6E
330
1F
100
AcDbEntity
  8
1
  6
Continuous
 62
     7
100
AcDbCircle
 10
2883.561507820136
 20
1240.196474297433
 30
0.0
 40
6.714999999999999
  0
CIRCLE
  5
E6F
330
1F
100
AcDbEntity
  8
1
  6
Continuous
 62
     7
100
AcDbCircle
 10
2883.561507820136
 20
1240.196474297433
 30
0.0
 40
7.9
  0
LINE
  5
E70
330
1F
100
AcDbEntity
  8
AM_7
100
AcDbLine
 10
2872.787264138036
 20
1674.196474297433
 30
0.0
 11
2892.656368867636
 21
1674.196474297433
 31
0.0
  0
LINE
  5
E71
330
1F
100
AcDbEntity
  8
1
  6
DASHDOT
 62
     7
100
AcDbLine
 10
2883.561507820136
 20
1682.578051721033
 30
0.0
 11
2883.561507820136
 21
1663.432097615833
 31
0.0
  0
LINE
  5
E72
330
1F
100
AcDbEntity
  8
1
  6
Continuous
 62
     7
100
AcDbLine
 10
2886.511507820137
 20
1675.899657591533
 30
0.0
 11
2883.561507820136
 21
1677.602840885633
 31
0.0
  0
LINE
  5
E73
330
1F
100
AcDbEntity
  8
1
  6
Continuous
 62
     7
100
AcDbLine
 10
2886.511507820137
 20
1672.493291003333
 30
0.0
 11
2886.511507820137
 21
1675.899657591533
 31
0.0
  0
LINE
  5
E74
330
1F
100
AcDbEntity
  8
1
  6
Continuous
 62
     7
100
AcDbLine
 10
2883.561507820136
 20
1670.790107709233
 30
0.0
 11
2886.511507820137
 21
1672.493291003333
 31
0.0
  0
LINE
  5
E75
330
1F
100
AcDbEntity
  8
1
  6
Continuous
 62
     7
100
AcDbLine
 10
2880.611507820136
 20
1672.493291003333
 30
0.0
 11
2883.561507820136
 21
1670.790107709233
 31
0.0
  0
LINE
  5
E76
330
1F
100
AcDbEntity
  8
1
  6
Continuous
 62
     7
100
AcDbLine
 10
2880.611507820136
 20
1675.899657591533
 30
0.0
 11
2880.611507820136
 21
1672.493291003333
 31
0.0
  0
LINE
  5
E77
330
1F
100
AcDbEntity
  8
1
  6
Continuous
 62
     7
100
AcDbLine
 10
2883.561507820136
 20
1677.602840885633
 30
0.0
 11
2880.611507820136
 21
1675.899657591533
 31
0.0
  0
CIRCLE
  5
E78
330
1F
100
AcDbEntity
  8
1
  6
Continuous
 62
     7
100
AcDbCircle
 10
2883.561507820136
 20
1674.196474297433
 30
0.0
 40
6.714999999999999
  0
CIRCLE
  5
E79
330
1F
100
AcDbEntity
  8
1
  6
Continuous
 62
     7
100
AcDbCircle
 10
2883.561507820136
 20
1674.196474297433
 30
0.0
 40
7.9
  0
LINE
  5
E7A
330
1F
100
AcDbEntity
  8
1
  6
Continuous
 62
     7
100
AcDbLine
 10
2883.561507820136
 20
1685.196474298133
 30
0.0
 11
2883.561507820136
 21
1682.578051721033
 31
0.0
  0
LINE
  5
E7B
330
1F
100
AcDbEntity
  8
1
  6
Continuous
 62
     7
100
AcDbLine
 10
2970.307707820136
 20
778.1964742974333
 30
0.0
 11
2970.307707820136
 21
775.1964742974332
 31
0.0
  0
LINE
  5
E7C
330
1F
100
AcDbEntity
  8
1
  6
Continuous
 62
     7
100
AcDbLine
 10
2796.815307820136
 20
778.1964742974333
 30
0.0
 11
2796.815307820136
 21
775.1964742974332
 31
0.0
  0
LINE
  5
E7D
330
1F
100
AcDbEntity
  8
1
  6
Continuous
 62
     7
100
AcDbLine
 10
2796.815307820136
 20
987.1964742974332
 30
0.0
 11
2796.815307820136
 21
984.1964742974333
 31
0.0
  0
LINE
  5
E7E
330
1F
100
AcDbEntity
  8
1
  6
Continuous
 62
     7
100
AcDbLine
 10
2803.315307820136
 20
748.1964742974333
 30
0.0
 11
2803.315307820136
 21
984.1964742974333
 31
0.0
  0
LINE
  5
E7F
330
1F
100
AcDbEntity
  8
1
  6
Continuous
 62
     7
100
AcDbLine
 10
2815.315307820136
 20
748.1964742974333
 30
0.0
 11
2815.315307820136
 21
984.1964742974333
 31
0.0
  0
LINE
  5
E80
330
1F
100
AcDbEntity
  8
1
  6
Continuous
 62
     7
100
AcDbLine
 10
2970.307707820136
 20
987.1964742974332
 30
0.0
 11
2970.307707820136
 21
984.1964742974333
 31
0.0
  0
LINE
  5
E81
330
1F
100
AcDbEntity
  8
1
  6
Continuous
 62
     7
100
AcDbLine
 10
2963.807707820136
 20
748.1964742974333
 30
0.0
 11
2963.807707820136
 21
984.1964742974333
 31
0.0
  0
LINE
  5
E82
330
1F
100
AcDbEntity
  8
1
  6
Continuous
 62
     7
100
AcDbLine
 10
2951.807707820136
 20
748.1964742974333
 30
0.0
 11
2951.807707820136
 21
984.1964742974333
 31
0.0
  0
ARC
  5
E83
330
1F
100
AcDbEntity
  8
1
  6
Continuous
 62
     7
100
AcDbCircle
 10
2988.807707820136
 20
748.1964742974333
 30
0.0
 40
37.0
100
AcDbArc
 50
180.0
 51
270.0
  0
LINE
  5
E84
330
1F
100
AcDbEntity
  8
1
  6
Continuous
 62
     7
100
AcDbLine
 10
2988.807707820136
 20
711.1964742974333
 30
0.0
 11
3007.807707820136
 21
711.1964742974333
 31
0.0
  0
ARC
  5
E85
330
1F
100
AcDbEntity
  8
1
  6
Continuous
 62
     7
100
AcDbCircle
 10
2988.807707820136
 20
748.1964742974333
 30
0.0
 40
25.0
100
AcDbArc
 50
180.0
 51
270.0
  0
LINE
  5
E86
330
1F
100
AcDbEntity
  8
1
  6
Continuous
 62
     7
100
AcDbLine
 10
2988.807707820136
 20
723.1964742974333
 30
0.0
 11
3007.807707820136
 21
723.1964742974333
 31
0.0
  0
LINE
  5
E87
330
1F
100
AcDbEntity
  8
1
  6
Continuous
 62
     7
100
AcDbLine
 10
3007.807707820136
 20
723.1964742974333
 30
0.0
 11
3007.807707820136
 21
711.1964742974333
 31
0.0
  0
LINE
  5
E88
330
1F
100
AcDbEntity
  8
1
  6
Continuous
 62
     7
100
AcDbLine
 10
2962.607707820136
 20
1016.896474297433
 30
0.0
 11
2962.607707820136
 21
1011.496474297433
 31
0.0
  0
LINE
  5
E89
330
1F
100
AcDbEntity
  8
1
  6
Continuous
 62
     7
100
AcDbLine
 10
2953.007707820136
 20
1011.496474297433
 30
0.0
 11
2953.007707820136
 21
1016.896474297433
 31
0.0
  0
LINE
  5
E8A
330
1F
100
AcDbEntity
  8
1
  6
Continuous
 62
     7
100
AcDbLine
 10
2951.807707820136
 20
1015.696474297433
 30
0.0
 11
2963.807707820136
 21
1015.696474297433
 31
0.0
  0
LINE
  5
E8B
330
1F
100
AcDbEntity
  8
1
  6
Continuous
 62
     7
100
AcDbLine
 10
2963.807707820136
 20
1015.696474297433
 30
0.0
 11
2962.307707820136
 21
1017.196474297433
 31
0.0
  0
LINE
  5
E8C
330
1F
100
AcDbEntity
  8
1
  6
Continuous
 62
     7
100
AcDbLine
 10
2962.307707820136
 20
1017.196474297433
 30
0.0
 11
2953.307707820136
 21
1017.196474297433
 31
0.0
  0
LINE
  5
E8D
330
1F
100
AcDbEntity
  8
1
  6
Continuous
 62
     7
100
AcDbLine
 10
2963.807707820136
 20
1015.696474297433
 30
0.0
 11
2963.807707820136
 21
1011.496474297433
 31
0.0
  0
LINE
  5
E8E
330
1F
100
AcDbEntity
  8
1
  6
Continuous
 62
     7
100
AcDbLine
 10
2953.307707820136
 20
1017.196474297433
 30
0.0
 11
2951.807707820136
 21
1015.696474297433
 31
0.0
  0
LINE
  5
E8F
330
1F
100
AcDbEntity
  8
1
  6
Continuous
 62
     7
100
AcDbLine
 10
2951.807707820136
 20
1015.696474297433
 30
0.0
 11
2951.807707820136
 21
1011.496474297433
 31
0.0
  0
LINE
  5
E90
330
1F
100
AcDbEntity
  8
1
  6
HIDDEN
 62
     7
100
AcDbLine
 10
2951.807707820136
 20
999.1964742974332
 30
0.0
 11
2951.807707820136
 21
987.1964742974332
 31
0.0
  0
LINE
  5
E91
330
1F
100
AcDbEntity
  8
1
  6
HIDDEN
 62
     7
100
AcDbLine
 10
2953.007707820136
 20
999.1964742974332
 30
0.0
 11
2953.007707820136
 21
987.1964742974332
 31
0.0
  0
LINE
  5
E92
330
1F
100
AcDbEntity
  8
1
  6
HIDDEN
 62
     7
100
AcDbLine
 10
2962.607707820136
 20
999.1964742974332
 30
0.0
 11
2962.607707820336
 21
987.1964742974332
 31
0.0
  0
LINE
  5
E93
330
1F
100
AcDbEntity
  8
1
  6
HIDDEN
 62
     7
100
AcDbLine
 10
2963.807707820136
 20
999.1964742974332
 30
0.0
 11
2963.807707820136
 21
987.1964742974332
 31
0.0
  0
LINE
  5
E94
330
1F
100
AcDbEntity
  8
1
  6
Continuous
 62
     7
100
AcDbLine
 10
2968.557707820136
 20
1001.496474297433
 30
0.0
 11
2968.807707820136
 21
1001.496474297433
 31
0.0
  0
LINE
  5
E95
330
1F
100
AcDbEntity
  8
1
  6
Continuous
 62
     7
100
AcDbLine
 10
2946.807707820136
 20
1001.496474297433
 30
0.0
 11
2947.057707820136
 21
1001.496474297433
 31
0.0
  0
ARC
  5
E96
330
1F
100
AcDbEntity
  8
1
  6
Continuous
 62
     7
100
AcDbCircle
 10
2957.807707820136
 20
997.1964742974332
 30
0.0
 40
14.3
100
AcDbArc
 50
67.38013505199841
 51
112.6198649480016
  0
ARC
  5
E97
330
1F
100
AcDbEntity
  8
1
  6
Continuous
 62
     7
100
AcDbCircle
 10
2965.922408820136
 20
1007.838902297433
 30
0.0
 40
3.657571767799999
100
AcDbArc
 50
59.99999789960188
 51
135.6328199397984
  0
ARC
  5
E98
330
1F
100
AcDbEntity
  8
1
  6
Continuous
 62
     7
100
AcDbCircle
 10
2949.693006820136
 20
1007.838902297433
 30
0.0
 40
3.6575723991
100
AcDbArc
 50
44.36718006020152
 51
120.0000021003981
  0
LINE
  5
E99
330
1F
100
AcDbEntity
  8
1
  6
Continuous
 62
     7
100
AcDbLine
 10
2963.307707820136
 20
1010.396474297433
 30
0.0
 11
2963.307707820136
 21
1001.496474297433
 31
0.0
  0
LINE
  5
E9A
330
1F
100
AcDbEntity
  8
1
  6
Continuous
 62
     7
100
AcDbLine
 10
2952.307707820136
 20
1010.396474297433
 30
0.0
 11
2952.307707820136
 21
1001.496474297433
 31
0.0
  0
LINE
  5
E9B
330
1F
100
AcDbEntity
  8
1
  6
Continuous
 62
     7
100
AcDbLine
 10
2946.807707820136
 20
1010.396474297433
 30
0.0
 11
2946.807707820136
 21
1001.496474297433
 31
0.0
  0
LINE
  5
E9C
330
1F
100
AcDbEntity
  8
1
  6
Continuous
 62
     7
100
AcDbLine
 10
2947.864220820136
 20
1011.006452297433
 30
0.0
 11
2946.807707820136
 21
1010.396474297433
 31
0.0
  0
LINE
  5
E9D
330
1F
100
AcDbEntity
  8
1
  6
Continuous
 62
     7
100
AcDbLine
 10
2965.922408820136
 20
1011.496474297433
 30
0.0
 11
2949.693006820136
 21
1011.496474297433
 31
0.0
  0
LINE
  5
E9E
330
1F
100
AcDbEntity
  8
1
  6
Continuous
 62
     7
100
AcDbLine
 10
2968.807707820136
 20
1010.396474297433
 30
0.0
 11
2967.751194820136
 21
1011.006452297433
 31
0.0
  0
LINE
  5
E9F
330
1F
100
AcDbEntity
  8
1
  6
Continuous
 62
     7
100
AcDbLine
 10
2968.807707820136
 20
1001.496474297433
 30
0.0
 11
2968.807707820136
 21
1010.396474297433
 31
0.0
  0
LINE
  5
EA0
330
1F
100
AcDbEntity
  8
1
  6
Continuous
 62
     7
100
AcDbLine
 10
2947.057707820136
 20
1001.496474297433
 30
0.0
 11
2968.557707820136
 21
1001.496474297433
 31
0.0
  0
LINE
  5
EA1
330
1F
100
AcDbEntity
  8
1
  6
Continuous
 62
     7
100
AcDbLine
 10
2969.807707820136
 20
1001.496474297433
 30
0.0
 11
2968.557707820136
 21
1001.496474297433
 31
0.0
  0
LINE
  5
EA2
330
1F
100
AcDbEntity
  8
1
  6
Continuous
 62
     7
100
AcDbLine
 10
2969.807707820136
 20
999.1964742974332
 30
0.0
 11
2969.807707820136
 21
1001.496474297433
 31
0.0
  0
LINE
  5
EA3
330
1F
100
AcDbEntity
  8
1
  6
Continuous
 62
     7
100
AcDbLine
 10
2945.807707820136
 20
1001.496474297433
 30
0.0
 11
2945.807707820136
 21
999.1964742974332
 31
0.0
  0
LINE
  5
EA4
330
1F
100
AcDbEntity
  8
1
  6
Continuous
 62
     7
100
AcDbLine
 10
2947.057707820136
 20
1001.496474297433
 30
0.0
 11
2945.807707820136
 21
1001.496474297433
 31
0.0
  0
ARC
  5
EA5
330
1F
100
AcDbEntity
  8
1
  6
Continuous
 62
     7
100
AcDbCircle
 10
2778.315307820136
 20
748.1964742974333
 30
0.0
 40
37.0
100
AcDbArc
 50
270.0
 51
0.0
  0
LINE
  5
EA6
330
1F
100
AcDbEntity
  8
1
  6
Continuous
 62
     7
100
AcDbLine
 10
2778.315307820136
 20
711.1964742974333
 30
0.0
 11
2759.315307820136
 21
711.1964742974333
 31
0.0
  0
ARC
  5
EA7
330
1F
100
AcDbEntity
  8
1
  6
Continuous
 62
     7
100
AcDbCircle
 10
2778.315307820136
 20
748.1964742974333
 30
0.0
 40
25.0
100
AcDbArc
 50
270.0
 51
0.0
  0
LINE
  5
EA8
330
1F
100
AcDbEntity
  8
1
  6
Continuous
 62
     7
100
AcDbLine
 10
2778.315307820136
 20
723.1964742974333
 30
0.0
 11
2759.315307820136
 21
723.1964742974333
 31
0.0
  0
LINE
  5
EA9
330
1F
100
AcDbEntity
  8
1
  6
Continuous
 62
     7
100
AcDbLine
 10
2759.315307820136
 20
723.1964742974333
 30
0.0
 11
2759.315307820136
 21
711.1964742974333
 31
0.0
  0
LINE
  5
EAA
330
1F
100
AcDbEntity
  8
1
  6
Continuous
 62
     7
100
AcDbLine
 10
2804.515307820136
 20
1016.896474297433
 30
0.0
 11
2804.515307820136
 21
1011.496474297433
 31
0.0
  0
LINE
  5
EAB
330
1F
100
AcDbEntity
  8
1
  6
Continuous
 62
     7
100
AcDbLine
 10
2814.115307820136
 20
1011.496474297433
 30
0.0
 11
2814.115307820136
 21
1016.896474297433
 31
0.0
  0
LINE
  5
EAC
330
1F
100
AcDbEntity
  8
1
  6
Continuous
 62
     7
100
AcDbLine
 10
2815.315307820136
 20
1015.696474297433
 30
0.0
 11
2803.315307820136
 21
1015.696474297433
 31
0.0
  0
LINE
  5
EAD
330
1F
100
AcDbEntity
  8
1
  6
Continuous
 62
     7
100
AcDbLine
 10
2803.315307820136
 20
1015.696474297433
 30
0.0
 11
2804.815307820136
 21
1017.196474297433
 31
0.0
  0
LINE
  5
EAE
330
1F
100
AcDbEntity
  8
1
  6
Continuous
 62
     7
100
AcDbLine
 10
2804.815307820136
 20
1017.196474297433
 30
0.0
 11
2813.815307820136
 21
1017.196474297433
 31
0.0
  0
LINE
  5
EAF
330
1F
100
AcDbEntity
  8
1
  6
Continuous
 62
     7
100
AcDbLine
 10
2803.315307820136
 20
1015.696474297433
 30
0.0
 11
2803.315307820136
 21
1011.496474297433
 31
0.0
  0
LINE
  5
EB0
330
1F
100
AcDbEntity
  8
1
  6
Continuous
 62
     7
100
AcDbLine
 10
2813.815307820136
 20
1017.196474297433
 30
0.0
 11
2815.315307820136
 21
1015.696474297433
 31
0.0
  0
LINE
  5
EB1
330
1F
100
AcDbEntity
  8
1
  6
Continuous
 62
     7
100
AcDbLine
 10
2815.315307820136
 20
1015.696474297433
 30
0.0
 11
2815.315307820136
 21
1011.496474297433
 31
0.0
  0
LINE
  5
EB2
330
1F
100
AcDbEntity
  8
1
  6
HIDDEN
 62
     7
100
AcDbLine
 10
2815.315307820136
 20
999.1964742974332
 30
0.0
 11
2815.315307820136
 21
987.1964742974332
 31
0.0
  0
LINE
  5
EB3
330
1F
100
AcDbEntity
  8
1
  6
HIDDEN
 62
     7
100
AcDbLine
 10
2814.115307820136
 20
999.1964742974332
 30
0.0
 11
2814.115307820136
 21
987.1964742974332
 31
0.0
  0
LINE
  5
EB4
330
1F
100
AcDbEntity
  8
1
  6
HIDDEN
 62
     7
100
AcDbLine
 10
2804.515307820136
 20
999.1964742974332
 30
0.0
 11
2804.515307819936
 21
987.1964742974332
 31
0.0
  0
LINE
  5
EB5
330
1F
100
AcDbEntity
  8
1
  6
HIDDEN
 62
     7
100
AcDbLine
 10
2803.315307820136
 20
999.1964742974332
 30
0.0
 11
2803.315307820236
 21
987.1964742974332
 31
0.0
  0
LINE
  5
EB6
330
1F
100
AcDbEntity
  8
1
  6
Continuous
 62
     7
100
AcDbLine
 10
2798.565307820136
 20
1001.496474297433
 30
0.0
 11
2798.315307820136
 21
1001.496474297433
 31
0.0
  0
LINE
  5
EB7
330
1F
100
AcDbEntity
  8
1
  6
Continuous
 62
     7
100
AcDbLine
 10
2820.315307820136
 20
1001.496474297433
 30
0.0
 11
2820.065307820136
 21
1001.496474297433
 31
0.0
  0
ARC
  5
EB8
330
1F
100
AcDbEntity
  8
1
  6
Continuous
 62
     7
100
AcDbCircle
 10
2809.315307820136
 20
997.1964742974332
 30
0.0
 40
14.3
100
AcDbArc
 50
67.38013505199841
 51
112.6198649480016
  0
ARC
  5
EB9
330
1F
100
AcDbEntity
  8
1
  6
Continuous
 62
     7
100
AcDbCircle
 10
2801.200606820136
 20
1007.838902297433
 30
0.0
 40
3.657571767799999
100
AcDbArc
 50
44.36718006020152
 51
120.0000021003981
  0
ARC
  5
EBA
330
1F
100
AcDbEntity
  8
1
  6
Continuous
 62
     7
100
AcDbCircle
 10
2817.430008820136
 20
1007.838902297433
 30
0.0
 40
3.6575723991
100
AcDbArc
 50
59.99999789960188
 51
135.6328199397984
  0
LINE
  5
EBB
330
1F
100
AcDbEntity
  8
1
  6
Continuous
 62
     7
100
AcDbLine
 10
2803.815307820136
 20
1010.396474297433
 30
0.0
 11
2803.815307820136
 21
1001.496474297433
 31
0.0
  0
LINE
  5
EBC
330
1F
100
AcDbEntity
  8
1
  6
Continuous
 62
     7
100
AcDbLine
 10
2814.815307820136
 20
1010.396474297433
 30
0.0
 11
2814.815307820136
 21
1001.496474297433
 31
0.0
  0
LINE
  5
EBD
330
1F
100
AcDbEntity
  8
1
  6
Continuous
 62
     7
100
AcDbLine
 10
2820.315307820136
 20
1010.396474297433
 30
0.0
 11
2820.315307820136
 21
1001.496474297433
 31
0.0
  0
LINE
  5
EBE
330
1F
100
AcDbEntity
  8
1
  6
Continuous
 62
     7
100
AcDbLine
 10
2819.258794820136
 20
1011.006452297433
 30
0.0
 11
2820.315307820136
 21
1010.396474297433
 31
0.0
  0
LINE
  5
EBF
330
1F
100
AcDbEntity
  8
1
  6
Continuous
 62
     7
100
AcDbLine
 10
2801.200606820136
 20
1011.496474297433
 30
0.0
 11
2817.430008820136
 21
1011.496474297433
 31
0.0
  0
LINE
  5
EC0
330
1F
100
AcDbEntity
  8
1
  6
Continuous
 62
     7
100
AcDbLine
 10
2798.315307820136
 20
1010.396474297433
 30
0.0
 11
2799.371820820136
 21
1011.006452297433
 31
0.0
  0
LINE
  5
EC1
330
1F
100
AcDbEntity
  8
1
  6
Continuous
 62
     7
100
AcDbLine
 10
2798.315307820136
 20
1001.496474297433
 30
0.0
 11
2798.315307820136
 21
1010.396474297433
 31
0.0
  0
LINE
  5
EC2
330
1F
100
AcDbEntity
  8
1
  6
Continuous
 62
     7
100
AcDbLine
 10
2820.065307820136
 20
1001.496474297433
 30
0.0
 11
2798.565307820136
 21
1001.496474297433
 31
0.0
  0
LINE
  5
EC3
330
1F
100
AcDbEntity
  8
1
  6
Continuous
 62
     7
100
AcDbLine
 10
2797.315307820136
 20
1001.496474297433
 30
0.0
 11
2798.565307820136
 21
1001.496474297433
 31
0.0
  0
LINE
  5
EC4
330
1F
100
AcDbEntity
  8
1
  6
Continuous
 62
     7
100
AcDbLine
 10
2797.315307820136
 20
999.1964742974332
 30
0.0
 11
2797.315307820136
 21
1001.496474297433
 31
0.0
  0
LINE
  5
EC5
330
1F
100
AcDbEntity
  8
1
  6
Continuous
 62
     7
100
AcDbLine
 10
2821.315307820136
 20
1001.496474297433
 30
0.0
 11
2821.315307820136
 21
999.1964742974332
 31
0.0
  0
LINE
  5
EC6
330
1F
100
AcDbEntity
  8
1
  6
Continuous
 62
     7
100
AcDbLine
 10
2820.065307820136
 20
1001.496474297433
 30
0.0
 11
2821.315307820136
 21
1001.496474297433
 31
0.0
  0
LINE
  5
EC7
330
1F
100
AcDbEntity
  8
1
  6
DIVIDE
 62
     7
100
AcDbLine
 10
2963.561507820136
 20
1087.196474297433
 30
0.0
 11
3164.571198949836
 21
1087.196474297433
 31
0.0
  0
LINE
  5
EC8
330
1F
100
AcDbEntity
  8
1
  6
DIVIDE
 62
     7
100
AcDbLine
 10
2558.076674640536
 20
1087.196474297433
 30
0.0
 11
2803.561507820136
 21
1087.196474297433
 31
0.0
  0
LINE
  5
EC9
330
1F
100
AcDbEntity
  8
1
  6
DIVIDE
 62
     7
100
AcDbLine
 10
2758.561507820436
 20
987.1964742974332
 30
0.0
 11
2683.561507820136
 21
987.1964742974332
 31
0.0
  0
LINE
  5
ECA
330
1F
100
AcDbEntity
  8
1
  6
DIVIDE
 62
     7
100
AcDbLine
 10
2758.561507820436
 20
987.1964742974332
 30
0.0
 11
3008.561507820136
 21
987.1964742974332
 31
0.0
  0
LINE
  5
ECB
330
1F
100
AcDbEntity
  8
1
  6
DIVIDE
 62
     7
100
AcDbLine
 10
2683.561507820136
 20
987.1964742974332
 30
0.0
 11
2683.561507820136
 21
637.1964742974332
 31
0.0
  0
LINE
  5
ECC
330
1F
100
AcDbEntity
  8
1
  6
DIVIDE
 62
     7
100
AcDbLine
 10
3008.561507820136
 20
987.1964742974332
 30
0.0
 11
3083.561507820136
 21
987.1964742974332
 31
0.0
  0
LINE
  5
ECD
330
1F
100
AcDbEntity
  8
1
  6
DIVIDE
 62
     7
100
AcDbLine
 10
3083.561507820136
 20
797.8390946911331
 30
0.0
 11
3083.561507820136
 21
987.1964742974332
 31
0.0
  0
LINE
  5
ECE
330
1F
100
AcDbEntity
  8
1
  6
DIVIDE
 62
     7
100
AcDbLine
 10
3083.561507820136
 20
637.1964742974332
 30
0.0
 11
3083.561507820136
 21
787.8390946911332
 31
0.0
  0
LINE
  5
ECF
330
1F
100
AcDbEntity
  8
1
  6
DIVIDE
 62
     7
100
AcDbLine
 10
3133.561507820136
 20
637.1964742974332
 30
0.0
 11
3133.561507820136
 21
537.1964742974332
 31
0.0
  0
LINE
  5
ED0
330
1F
100
AcDbEntity
  8
1
  6
DIVIDE
 62
     7
100
AcDbLine
 10
2633.561507820136
 20
637.1964742974332
 30
0.0
 11
2633.561507820136
 21
537.1964742974332
 31
0.0
  0
LINE
  5
ED1
330
1F
100
AcDbEntity
  8
1
  6
DIVIDE
 62
     7
100
AcDbLine
 10
2633.561507820136
 20
537.1964742974332
 30
0.0
 11
3133.561507820136
 21
537.1964742974332
 31
0.0
  0
LINE
  5
ED2
330
1F
100
AcDbEntity
  8
1
  6
DIVIDE
 62
     7
100
AcDbLine
 10
2633.561507820136
 20
637.1964742974332
 30
0.0
 11
3133.561507820136
 21
637.1964742974332
 31
0.0
  0
LINE
  5
EDF
330
1F
100
AcDbEntity
  8
1
  6
Continuous
 62
     7
100
AcDbLine
 10
2704.817951290336
 20
607.1964742974333
 30
0.0
 11
2696.779475517436
 21
637.1964742974332
 31
0.0
  0
LINE
  5
EE0
330
1F
100
AcDbEntity
  8
1
  6
Continuous
 62
     7
100
AcDbLine
 10
2694.099983593136
 20
567.1964742974332
 30
0.0
 11
2702.138459366036
 21
537.1964742974332
 31
0.0
  0
LINE
  5
EE1
330
1F
100
AcDbEntity
  8
1
  6
Continuous
 62
     7
100
AcDbLine
 10
2712.856427063236
 20
637.1964742974332
 30
0.0
 11
2686.061507820136
 21
537.1964742974332
 31
0.0
  0
LINE
  5
EE2
330
1F
100
AcDbEntity
  8
1
  6
Continuous
 62
     7
100
AcDbLine
 10
2757.317951290336
 20
607.1964742974333
 30
0.0
 11
2749.279475517436
 21
637.1964742974332
 31
0.0
  0
LINE
  5
EE3
330
1F
100
AcDbEntity
  8
1
  6
Continuous
 62
     7
100
AcDbLine
 10
2746.599983593136
 20
567.1964742974332
 30
0.0
 11
2754.638459366036
 21
537.1964742974332
 31
0.0
  0
LINE
  5
EE4
330
1F
100
AcDbEntity
  8
1
  6
Continuous
 62
     7
100
AcDbLine
 10
2765.356427063236
 20
637.1964742974332
 30
0.0
 11
2738.561507820136
 21
537.1964742974332
 31
0.0
  0
LINE
  5
EE5
330
1F
100
AcDbEntity
  8
1
  6
Continuous
 62
     7
100
AcDbLine
 10
2809.817951290336
 20
607.1964742974333
 30
0.0
 11
2801.779475517436
 21
637.1964742974332
 31
0.0
  0
LINE
  5
EE6
330
1F
100
AcDbEntity
  8
1
  6
Continuous
 62
     7
100
AcDbLine
 10
2799.099983593136
 20
567.1964742974332
 30
0.0
 11
2807.138459366036
 21
537.1964742974332
 31
0.0
  0
LINE
  5
EE7
330
1F
100
AcDbEntity
  8
1
  6
Continuous
 62
     7
100
AcDbLine
 10
2817.856427063236
 20
637.1964742974332
 30
0.0
 11
2791.061507820136
 21
537.1964742974332
 31
0.0
  0
LINE
  5
EE8
330
1F
100
AcDbEntity
  8
1
  6
Continuous
 62
     7
100
AcDbLine
 10
2862.317951290336
 20
607.1964742974333
 30
0.0
 11
2854.279475517436
 21
637.1964742974332
 31
0.0
  0
LINE
  5
EE9
330
1F
100
AcDbEntity
  8
1
  6
Continuous
 62
     7
100
AcDbLine
 10
2851.599983593136
 20
567.1964742974332
 30
0.0
 11
2859.638459366036
 21
537.1964742974332
 31
0.0
  0
LINE
  5
EEA
330
1F
100
AcDbEntity
  8
1
  6
Continuous
 62
     7
100
AcDbLine
 10
2870.356427063236
 20
637.1964742974332
 30
0.0
 11
2843.561507820136
 21
537.1964742974332
 31
0.0
  0
LINE
  5
EEB
330
1F
100
AcDbEntity
  8
1
  6
Continuous
 62
     7
100
AcDbLine
 10
2914.817951290336
 20
607.1964742974333
 30
0.0
 11
2906.779475517436
 21
637.1964742974332
 31
0.0
  0
LINE
  5
EEC
330
1F
100
AcDbEntity
  8
1
  6
Continuous
 62
     7
100
AcDbLine
 10
2904.099983593136
 20
567.1964742974332
 30
0.0
 11
2912.138459366036
 21
537.1964742974332
 31
0.0
  0
LINE
  5
EED
330
1F
100
AcDbEntity
  8
1
  6
Continuous
 62
     7
100
AcDbLine
 10
2922.856427063236
 20
637.1964742974332
 30
0.0
 11
2896.061507820136
 21
537.1964742974332
 31
0.0
  0
LINE
  5
EEE
330
1F
100
AcDbEntity
  8
1
  6
Continuous
 62
     7
100
AcDbLine
 10
2967.317951290336
 20
607.1964742974333
 30
0.0
 11
2959.279475517436
 21
637.1964742974332
 31
0.0
  0
LINE
  5
EEF
330
1F
100
AcDbEntity
  8
1
  6
Continuous
 62
     7
100
AcDbLine
 10
2956.599983593136
 20
567.1964742974332
 30
0.0
 11
2964.638459366036
 21
537.1964742974332
 31
0.0
  0
LINE
  5
EF0
330
1F
100
AcDbEntity
  8
1
  6
Continuous
 62
     7
100
AcDbLine
 10
2975.356427063236
 20
637.1964742974332
 30
0.0
 11
2948.561507820136
 21
537.1964742974332
 31
0.0
  0
LINE
  5
EF1
330
1F
100
AcDbEntity
  8
1
  6
Continuous
 62
     7
100
AcDbLine
 10
3019.817951290336
 20
607.1964742974333
 30
0.0
 11
3011.779475517436
 21
637.1964742974332
 31
0.0
  0
LINE
  5
EF2
330
1F
100
AcDbEntity
  8
1
  6
Continuous
 62
     7
100
AcDbLine
 10
3009.099983593136
 20
567.1964742974332
 30
0.0
 11
3017.138459366036
 21
537.1964742974332
 31
0.0
  0
LINE
  5
EF3
330
1F
100
AcDbEntity
  8
1
  6
Continuous
 62
     7
100
AcDbLine
 10
3027.856427063236
 20
637.1964742974332
 30
0.0
 11
3001.061507820136
 21
537.1964742974332
 31
0.0
  0
LINE
  5
EF4
330
1F
100
AcDbEntity
  8
1
  6
Continuous
 62
     7
100
AcDbLine
 10
3072.317951290336
 20
607.1964742974333
 30
0.0
 11
3064.279475517436
 21
637.1964742974332
 31
0.0
  0
LINE
  5
EF5
330
1F
100
AcDbEntity
  8
1
  6
Continuous
 62
     7
100
AcDbLine
 10
3061.599983593136
 20
567.1964742974332
 30
0.0
 11
3069.638459366036
 21
537.1964742974332
 31
0.0
  0
LINE
  5
EF6
330
1F
100
AcDbEntity
  8
1
  6
Continuous
 62
     7
100
AcDbLine
 10
3080.356427063236
 20
637.1964742974332
 30
0.0
 11
3053.561507820136
 21
537.1964742974332
 31
0.0
  0
LINE
  5
EF7
330
1F
100
AcDbEntity
  8
1
  6
Continuous
 62
     7
100
AcDbLine
 10
3124.817951290336
 20
607.1964742974333
 30
0.0
 11
3116.779475517436
 21
637.1964742974332
 31
0.0
  0
LINE
  5
EF8
330
1F
100
AcDbEntity
  8
1
  6
Continuous
 62
     7
100
AcDbLine
 10
3114.099983593136
 20
567.1964742974332
 30
0.0
 11
3122.138459366036
 21
537.1964742974332
 31
0.0
  0
LINE
  5
EF9
330
1F
100
AcDbEntity
  8
1
  6
Continuous
 62
     7
100
AcDbLine
 10
3132.856427063236
 20
637.1964742974332
 30
0.0
 11
3106.061507820136
 21
537.1964742974332
 31
0.0
  0
LINE
  5
EFA
330
1F
100
AcDbEntity
  8
1
  6
Continuous
 62
     7
100
AcDbLine
 10
2652.317951290336
 20
607.1964742974333
 30
0.0
 11
2644.279475517436
 21
637.1964742974332
 31
0.0
  0
LINE
  5
EFB
330
1F
100
AcDbEntity
  8
1
  6
Continuous
 62
     7
100
AcDbLine
 10
2641.599983593136
 20
567.1964742974332
 30
0.0
 11
2649.638459366036
 21
537.1964742974332
 31
0.0
  0
LINE
  5
EFC
330
1F
100
AcDbEntity
  8
1
  6
Continuous
 62
     7
100
AcDbLine
 10
2660.356427063236
 20
637.1964742974332
 30
0.0
 11
2633.561507820136
 21
537.1964742974332
 31
0.0
  0
POLYLINE
  5
F02
330
1F
100
AcDbEntity
  8
AM_11
 48
0.1
100
AcDb2dPolyline
 66
     1
 10
0.0
 20
0.0
 30
0.0
  0
VERTEX
  5
F03
330
F02
100
AcDbEntity
  8
AM_11
  6
PHANTOM
 62
     7
 48
0.1
100
AcDbVertex
100
AcDb2dVertex
 10
2901.357885154936
 20
1907.628547253633
 30
0.0
 42
0.0155761978
  0
VERTEX
  5
F04
330
F02
100
AcDbEntity
  8
AM_11
  6
PHANTOM
 62
     7
 48
0.1
100
AcDbVertex
100
AcDb2dVertex
 10
2902.229126844436
 20
1909.015804168633
 30
0.0
 42
0.0618539634
  0
VERTEX
  5
F05
330
F02
100
AcDbEntity
  8
AM_11
  6
PHANTOM
 62
     7
 48
0.1
100
AcDbVertex
100
AcDb2dVertex
 10
2907.174385663636
 20
1920.451104339533
 30
0.0
 42
0.0722817213
  0
VERTEX
  5
F06
330
F02
100
AcDbEntity
  8
AM_11
  6
PHANTOM
 62
     7
 48
0.1
100
AcDbVertex
100
AcDb2dVertex
 10
2909.961507820136
 20
1940.128502542433
 30
0.0
 42
0.0722817213
  0
VERTEX
  5
F07
330
F02
100
AcDbEntity
  8
AM_11
  6
PHANTOM
 62
     7
 48
0.1
100
AcDbVertex
100
AcDb2dVertex
 10
2907.174385663636
 20
1959.805900745333
 30
0.0
 42
0.0618539634
  0
VERTEX
  5
F08
330
F02
100
AcDbEntity
  8
AM_11
  6
PHANTOM
 62
     7
 48
0.1
100
AcDbVertex
100
AcDb2dVertex
 10
2902.229126844436
 20
1971.241200916233
 30
0.0
 42
0.0834152553
  0
VERTEX
  5
F09
330
F02
100
AcDbEntity
  8
AM_11
  6
PHANTOM
 62
     7
 48
0.1
100
AcDbVertex
100
AcDb2dVertex
 10
2895.367946741937
 20
1979.483298948233
 30
0.0
 42
0.1770956581
  0
VERTEX
  5
F0A
330
F02
100
AcDbEntity
  8
AM_11
  6
PHANTOM
 62
     7
 48
0.1
100
AcDbVertex
100
AcDb2dVertex
 10
2883.561507820136
 20
1984.128502542433
 30
0.0
 42
0.1770956581
  0
VERTEX
  5
F0B
330
F02
100
AcDbEntity
  8
AM_11
  6
PHANTOM
 62
     7
 48
0.1
100
AcDbVertex
100
AcDb2dVertex
 10
2871.755068898436
 20
1979.483298948233
 30
0.0
 42
0.0834152553
  0
VERTEX
  5
F0C
330
F02
100
AcDbEntity
  8
AM_11
  6
PHANTOM
 62
     7
 48
0.1
100
AcDbVertex
100
AcDb2dVertex
 10
2864.893888795836
 20
1971.241200916233
 30
0.0
 42
0.0618539634
  0
VERTEX
  5
F0D
330
F02
100
AcDbEntity
  8
AM_11
  6
PHANTOM
 62
     7
 48
0.1
100
AcDbVertex
100
AcDb2dVertex
 10
2859.948629976736
 20
1959.805900745333
 30
0.0
 42
0.0722817213
  0
VERTEX
  5
F0E
330
F02
100
AcDbEntity
  8
AM_11
  6
PHANTOM
 62
     7
 48
0.1
100
AcDbVertex
100
AcDb2dVertex
 10
2857.161507820136
 20
1940.128502542433
 30
0.0
 42
0.0722817213
  0
VERTEX
  5
F0F
330
F02
100
AcDbEntity
  8
AM_11
  6
PHANTOM
 62
     7
 48
0.1
100
AcDbVertex
100
AcDb2dVertex
 10
2859.948629976736
 20
1920.451104339533
 30
0.0
 42
0.0618539634
  0
VERTEX
  5
F10
330
F02
100
AcDbEntity
  8
AM_11
  6
PHANTOM
 62
     7
 48
0.1
100
AcDbVertex
100
AcDb2dVertex
 10
2864.249335492836
 20
1910.128502542433
 30
0.0
 42
0.0122919437
  0
SEQEND
  5
F11
330
F02
100
AcDbEntity
  8
AM_11
  6
PHANTOM
 62
     7
 48
0.1
  0
LINE
  5
F18
330
1F
100
AcDbEntity
  8
1
  6
CENTER
 62
     7
100
AcDbLine
 10
2957.807707820136
 20
1022.054373994033
 30
0.0
 11
2957.807707820136
 21
748.1964742974333
 31
0.0
  0
ARC
  5
F19
330
1F
100
AcDbEntity
  8
1
  6
CENTER
 62
     7
100
AcDbCircle
 10
2988.807707820136
 20
748.1964742974333
 30
0.0
 40
31.0
100
AcDbArc
 50
180.0
 51
270.0
  0
LINE
  5
F1A
330
1F
100
AcDbEntity
  8
1
  6
CENTER
 62
     7
100
AcDbLine
 10
2988.807707820136
 20
717.1964742974332
 30
0.0
 11
3015.274978121337
 21
717.1964742974332
 31
0.0
  0
LINE
  5
F1B
330
1F
100
AcDbEntity
  8
1
  6
CENTER
 62
     7
100
AcDbLine
 10
2809.315307820136
 20
1022.054373994033
 30
0.0
 11
2809.315307820136
 21
748.1964742974333
 31
0.0
  0
ARC
  5
F1C
330
1F
100
AcDbEntity
  8
1
  6
CENTER
 62
     7
100
AcDbCircle
 10
2778.315307820136
 20
748.1964742974333
 30
0.0
 40
31.0
100
AcDbArc
 50
270.0
 51
0.0
  0
LINE
  5
F1D
330
1F
100
AcDbEntity
  8
1
  6
CENTER
 62
     7
100
AcDbLine
 10
2778.315307820136
 20
717.1964742974332
 30
0.0
 11
2751.848037519036
 21
717.1964742974332
 31
0.0
  0
LINE
  5
F1E
330
1F
100
AcDbEntity
  8
1
  6
Continuous
 62
     7
100
AcDbLine
 10
2963.561507820136
 20
1017.196474297433
 30
0.0
 11
2963.561507820136
 21
1155.696474297433
 31
0.0
  0
LINE
  5
F1F
330
1F
100
AcDbEntity
  8
1
  6
Continuous
 62
     7
100
AcDbLine
 10
2803.561507820136
 20
1017.196474297433
 30
0.0
 11
2803.561507820136
 21
1155.696474297433
 31
0.0
  0
LINE
  5
F21
330
1F
100
AcDbEntity
  8
1
  6
Continuous
 62
     7
100
AcDbLine
 10
2883.561507820136
 20
1663.432097615833
 30
0.0
 11
2883.561507820136
 21
1252.426424195733
 31
0.0
  0
LINE
  5
F22
330
1F
100
AcDbEntity
  8
1
  6
Continuous
 62
     7
100
AcDbLine
 10
2810.561507820136
 20
1685.196474298133
 30
0.0
 11
2810.561507820136
 21
1229.196474297433
 31
0.0
  0
LINE
  5
F23
330
1F
100
AcDbEntity
  8
1
  6
Continuous
 62
     7
100
AcDbLine
 10
2818.561507820136
 20
1229.196474297433
 30
0.0
 11
2818.561507820136
 21
1685.196474298133
 31
0.0
  0
LINE
  5
F24
330
1F
100
AcDbEntity
  8
1
  6
Continuous
 62
     7
100
AcDbLine
 10
2843.561507820136
 20
1685.196474298133
 30
0.0
 11
2843.561507820136
 21
1229.196474297433
 31
0.0
  0
LINE
  5
F25
330
1F
100
AcDbEntity
  8
1
  6
Continuous
 62
     7
100
AcDbLine
 10
2956.561507820136
 20
1229.196474297433
 30
0.0
 11
2956.561507820136
 21
1685.196474298133
 31
0.0
  0
LINE
  5
F26
330
1F
100
AcDbEntity
  8
1
  6
Continuous
 62
     7
100
AcDbLine
 10
2948.561507820136
 20
1187.196474297433
 30
0.0
 11
2948.561507820136
 21
1227.196474297433
 31
0.0
  0
LINE
  5
F27
330
1F
100
AcDbEntity
  8
1
  6
Continuous
 62
     7
100
AcDbLine
 10
2923.561507820136
 20
1227.196474297433
 30
0.0
 11
2923.561507820136
 21
1187.196474297433
 31
0.0
  0
LINE
  5
F28
330
1F
100
AcDbEntity
  8
1
  6
Continuous
 62
     7
100
AcDbLine
 10
2883.561507819936
 20
1227.196474297433
 30
0.0
 11
2883.561507820136
 21
1187.196474297433
 31
0.0
  0
LINE
  5
F29
330
1F
100
AcDbEntity
  8
1
  6
Continuous
 62
     7
100
AcDbLine
 10
2843.561507820136
 20
1227.196474297433
 30
0.0
 11
2843.561507820136
 21
1187.196474297433
 31
0.0
  0
LINE
  5
F2A
330
1F
100
AcDbEntity
  8
1
  6
Continuous
 62
     7
100
AcDbLine
 10
2818.561507820136
 20
1187.196474297433
 30
0.0
 11
2818.561507820136
 21
1227.196474297433
 31
0.0
  0
LINE
  5
F2B
330
1F
100
AcDbEntity
  8
1
  6
Continuous
 62
     7
100
AcDbLine
 10
2810.561507820136
 20
1229.196474297433
 30
0.0
 11
2956.561507820136
 21
1229.196474297433
 31
0.0
  0
LINE
  5
F2C
330
1F
100
AcDbEntity
  8
1
  6
Continuous
 62
     7
100
AcDbLine
 10
2808.561507820136
 20
1227.196474297433
 30
0.0
 11
2958.561507820136
 21
1227.196474297433
 31
0.0
  0
LINE
  5
F2D
330
1F
100
AcDbEntity
  8
1
  6
Continuous
 62
     7
100
AcDbLine
 10
2948.561507820136
 20
1687.196474297433
 30
0.0
 11
2948.561507820136
 21
1727.196474297433
 31
0.0
  0
LINE
  5
F2E
330
1F
100
AcDbEntity
  8
1
  6
Continuous
 62
     7
100
AcDbLine
 10
2923.561507820136
 20
1727.196474297433
 30
0.0
 11
2923.561507820136
 21
1687.196474297433
 31
0.0
  0
LINE
  5
F2F
330
1F
100
AcDbEntity
  8
1
  6
Continuous
 62
     7
100
AcDbLine
 10
2883.561507820136
 20
1727.196474297433
 30
0.0
 11
2883.561507820236
 21
1687.196474297433
 31
0.0
  0
LINE
  5
F30
330
1F
100
AcDbEntity
  8
1
  6
Continuous
 62
     7
100
AcDbLine
 10
2843.561507820136
 20
1727.196474297433
 30
0.0
 11
2843.561507820136
 21
1687.196474297433
 31
0.0
  0
LINE
  5
F31
330
1F
100
AcDbEntity
  8
1
  6
Continuous
 62
     7
100
AcDbLine
 10
2818.561507820136
 20
1687.196474297433
 30
0.0
 11
2818.561507820136
 21
1727.196474297433
 31
0.0
  0
LINE
  5
F32
330
1F
100
AcDbEntity
  8
1
  6
Continuous
 62
     7
100
AcDbLine
 10
2956.561507820236
 20
1685.196474297433
 30
0.0
 11
2810.561507820236
 21
1685.196474297533
 31
0.0
  0
LINE
  5
F33
330
1F
100
AcDbEntity
  8
1
  6
Continuous
 62
     7
100
AcDbLine
 10
2808.561507820236
 20
1687.196474297433
 30
0.0
 11
2958.561507820236
 21
1687.196474297433
 31
0.0
  0
LINE
  5
F34
330
1F
100
AcDbEntity
  8
1
  6
Continuous
 62
     7
100
AcDbLine
 10
2958.561507820136
 20
1975.883108082033
 30
0.0
 11
2958.561507820136
 21
2016.524380848333
 31
0.0
  0
LINE
  5
F35
330
1F
100
AcDbEntity
  8
1
  6
Continuous
 62
     7
100
AcDbLine
 10
2808.561507820136
 20
1975.883108082033
 30
0.0
 11
2808.561507820136
 21
2016.524380848333
 31
0.0
  0
LINE
  5
F36
330
1F
100
AcDbEntity
  8
1
  6
Continuous
 62
     7
100
AcDbLine
 10
2958.561507820136
 20
1842.196474297433
 30
0.0
 11
2958.561507820136
 21
1817.196474297433
 31
0.0
  0
LINE
  5
F37
330
1F
100
AcDbEntity
  8
1
  6
Continuous
 62
     7
100
AcDbLine
 10
2808.561507820136
 20
1817.196474297433
 30
0.0
 11
2808.561507820136
 21
1842.196474297433
 31
0.0
  0
POLYLINE
  5
F38
330
1F
100
AcDbEntity
  8
1
  6
Continuous
 62
     7
100
AcDb2dPolyline
 66
     1
 10
0.0
 20
0.0
 30
0.0
  0
VERTEX
  5
F39
330
F38
100
AcDbEntity
  8
1
  6
Continuous
 62
     7
100
AcDbVertex
100
AcDb2dVertex
 10
2949.465533289436
 20
1972.196474297433
 30
0.0
 42
0.0546725114
  0
VERTEX
  5
F3A
330
F38
100
AcDbEntity
  8
1
  6
Continuous
 62
     7
100
AcDbVertex
100
AcDb2dVertex
 10
2948.277839188636
 20
1983.376814185433
 30
0.0
 42
0.0497866003
  0
VERTEX
  5
F3B
330
F38
100
AcDbEntity
  8
1
  6
Continuous
 62
     7
100
AcDbVertex
100
AcDb2dVertex
 10
2946.170484578236
 20
1989.874143828033
 30
0.0
 42
0.0760341849
  0
VERTEX
  5
F3C
330
F38
100
AcDbEntity
  8
1
  6
Continuous
 62
     7
100
AcDbVertex
100
AcDb2dVertex
 10
2943.246686239035
 20
1994.557154073433
 30
0.0
 42
0.2127084669
  0
VERTEX
  5
F3D
330
F38
100
AcDbEntity
  8
1
  6
Continuous
 62
     7
100
AcDbVertex
100
AcDb2dVertex
 10
2942.322279869936
 20
1995.471316196033
 30
0.0
 42
0.1826471909
  0
SEQEND
  5
F3E
330
F38
100
AcDbEntity
  8
1
  6
Continuous
 62
     7
  0
POLYLINE
  5
F3F
330
1F
100
AcDbEntity
  8
1
  6
Continuous
 62
     7
100
AcDb2dPolyline
 66
     1
 10
0.0
 20
0.0
 30
0.0
  0
VERTEX
  5
F40
330
F3F
100
AcDbEntity
  8
1
  6
Continuous
 62
     7
100
AcDbVertex
100
AcDb2dVertex
 10
2824.800786294536
 20
1995.471273629733
 30
0.0
 42
0.0302704292
  0
VERTEX
  5
F41
330
F3F
100
AcDbEntity
  8
1
  6
Continuous
 62
     7
100
AcDbVertex
100
AcDb2dVertex
 10
2823.876329401236
 20
1994.557154073433
 30
0.0
 42
0.0760341849
  0
VERTEX
  5
F42
330
F3F
100
AcDbEntity
  8
1
  6
Continuous
 62
     7
100
AcDbVertex
100
AcDb2dVertex
 10
2820.952531062136
 20
1989.874143828033
 30
0.0
 42
0.0497866003
  0
VERTEX
  5
F43
330
F3F
100
AcDbEntity
  8
1
  6
Continuous
 62
     7
100
AcDbVertex
100
AcDb2dVertex
 10
2818.845176451636
 20
1983.376814185433
 30
0.0
 42
0.0546725114
  0
VERTEX
  5
F44
330
F3F
100
AcDbEntity
  8
1
  6
Continuous
 62
     7
100
AcDbVertex
100
AcDb2dVertex
 10
2817.657482350836
 20
1972.196474297433
 30
0.0
 42
0.0546725114
  0
VERTEX
  5
F45
330
F3F
100
AcDbEntity
  8
1
  6
Continuous
 62
     7
100
AcDbVertex
100
AcDb2dVertex
 10
2817.657482350836
 20
1972.196474297433
 30
0.0
 42
0.0546725114
  0
SEQEND
  5
F46
330
F3F
100
AcDbEntity
  8
1
  6
Continuous
 62
     7
  0
LINE
  5
F47
330
1F
100
AcDbEntity
  8
1
  6
Continuous
 62
     7
100
AcDbLine
 10
2958.665626431936
 20
1844.863140964133
 30
0.0
 11
2958.665626431936
 21
1972.196474297433
 31
0.0
  0
LINE
  5
F48
330
1F
100
AcDbEntity
  8
1
  6
Continuous
 62
     7
100
AcDbLine
 10
2933.867649942036
 20
1842.196474297433
 30
0.0
 11
2955.998959765336
 21
1842.196474297433
 31
0.0
  0
ARC
  5
F49
330
1F
100
AcDbEntity
  8
1
  6
Continuous
 62
     7
100
AcDbCircle
 10
2955.998959765336
 20
1844.863140964133
 30
0.0
 40
2.666666666699999
100
AcDbArc
 50
270.0
 51
0.0
  0
ARC
  5
F4A
330
1F
100
AcDbEntity
  8
1
  6
Continuous
 62
     7
100
AcDbCircle
 10
2937.833742488736
 20
1849.863140964133
 30
0.0
 40
2.666666666699999
100
AcDbArc
 50
180.0
 51
270.0
  0
LINE
  5
F4B
330
1F
100
AcDbEntity
  8
1
  6
Continuous
 62
     7
100
AcDbLine
 10
2937.833742488736
 20
1847.196474297433
 30
0.0
 11
2955.000409155436
 21
1847.196474297433
 31
0.0
  0
LINE
  5
F4C
330
1F
100
AcDbEntity
  8
1
  6
Continuous
 62
     7
100
AcDbLine
 10
2935.167075822036
 20
1849.863140964133
 30
0.0
 11
2935.167075822036
 21
1972.196474297433
 31
0.0
  0
ARC
  5
F4D
330
1F
100
AcDbEntity
  8
1
  6
Continuous
 62
     7
100
AcDbCircle
 10
2955.000409155436
 20
1849.863140964133
 30
0.0
 40
2.666666666699999
100
AcDbArc
 50
270.0
 51
0.0
  0
ARC
  5
F4E
330
1F
100
AcDbEntity
  8
1
  6
Continuous
 62
     7
100
AcDbCircle
 10
2933.867649942036
 20
1844.863140964133
 30
0.0
 40
2.666666666699999
100
AcDbArc
 50
180.0
 51
270.0
  0
LINE
  5
F4F
330
1F
100
AcDbEntity
  8
1
  6
Continuous
 62
     7
100
AcDbLine
 10
2931.200983275336
 20
1844.863140964133
 30
0.0
 11
2931.200983275336
 21
1972.196474297433
 31
0.0
  0
LINE
  5
F50
330
1F
100
AcDbEntity
  8
1
  6
Continuous
 62
     7
100
AcDbLine
 10
2957.667075822036
 20
1849.863140964133
 30
0.0
 11
2957.667075822036
 21
1972.196474297433
 31
0.0
  0
POLYLINE
  5
F51
330
1F
100
AcDbEntity
  8
1
  6
Continuous
 62
     7
100
AcDb2dPolyline
 66
     1
 10
0.0
 20
0.0
 30
0.0
  0
VERTEX
  5
F52
330
F51
100
AcDbEntity
  8
1
  6
Continuous
 62
     7
100
AcDbVertex
100
AcDb2dVertex
 10
2957.678459160836
 20
1971.968276077533
 30
0.0
 42
0.0050711337
  0
VERTEX
  5
F53
330
F51
100
AcDbEntity
  8
1
  6
Continuous
 62
     7
100
AcDbVertex
100
AcDb2dVertex
 10
2957.678927840436
 20
1972.196474297433
 30
0.0
 42
0.0546725114
  0
VERTEX
  5
F54
330
F51
100
AcDbEntity
  8
1
  6
Continuous
 62
     7
100
AcDbVertex
100
AcDb2dVertex
 10
2956.491233739636
 20
1983.376814185433
 30
0.0
 42
0.0497866003
  0
VERTEX
  5
F55
330
F51
100
AcDbEntity
  8
1
  6
Continuous
 62
     7
100
AcDbVertex
100
AcDb2dVertex
 10
2954.383879129136
 20
1989.874143828033
 30
0.0
 42
0.0760341849
  0
VERTEX
  5
F56
330
F51
100
AcDbEntity
  8
1
  6
Continuous
 62
     7
100
AcDbVertex
100
AcDb2dVertex
 10
2951.460080790036
 20
1994.557154073433
 30
0.0
 42
0.2127084669
  0
VERTEX
  5
F57
330
F51
100
AcDbEntity
  8
1
  6
Continuous
 62
     7
100
AcDbVertex
100
AcDb2dVertex
 10
2946.428927840436
 20
1997.196474297433
 30
0.0
 42
0.2127084669
  0
VERTEX
  5
F58
330
F51
100
AcDbEntity
  8
1
  6
Continuous
 62
     7
100
AcDbVertex
100
AcDb2dVertex
 10
2941.397774890836
 20
1994.557154073433
 30
0.0
 42
0.0760341849
  0
VERTEX
  5
F59
330
F51
100
AcDbEntity
  8
1
  6
Continuous
 62
     7
100
AcDbVertex
100
AcDb2dVertex
 10
2938.473976551636
 20
1989.874143828033
 30
0.0
 42
0.0497866003
  0
VERTEX
  5
F5A
330
F51
100
AcDbEntity
  8
1
  6
Continuous
 62
     7
100
AcDbVertex
100
AcDb2dVertex
 10
2936.366621941236
 20
1983.376814185433
 30
0.0
 42
0.0546725114
  0
VERTEX
  5
F5B
330
F51
100
AcDbEntity
  8
1
  6
Continuous
 62
     7
100
AcDbVertex
100
AcDb2dVertex
 10
2935.178927840436
 20
1972.196474297433
 30
0.0
 42
0.0546725114
  0
SEQEND
  5
F5C
330
F51
100
AcDbEntity
  8
1
  6
Continuous
 62
     7
  0
POLYLINE
  5
F5D
330
1F
100
AcDbEntity
  8
1
  6
Continuous
 62
     7
100
AcDb2dPolyline
 66
     1
 10
0.0
 20
0.0
 30
0.0
  0
VERTEX
  5
F5E
330
F5D
100
AcDbEntity
  8
1
  6
Continuous
 62
     7
100
AcDbVertex
100
AcDb2dVertex
 10
2958.665156237336
 20
1971.948260797833
 30
0.0
 42
0.0045172887
  0
VERTEX
  5
F5F
330
F5D
100
AcDbEntity
  8
1
  6
Continuous
 62
     7
100
AcDbVertex
100
AcDb2dVertex
 10
2958.665626431936
 20
1972.196474297433
 30
0.0
 42
0.0556108189
  0
VERTEX
  5
F60
330
F5D
100
AcDbEntity
  8
1
  6
Continuous
 62
     7
100
AcDbVertex
100
AcDb2dVertex
 10
2957.215372755236
 20
1985.612882163033
 30
0.0
 42
0.050492559
  0
VERTEX
  5
F61
330
F5D
100
AcDbEntity
  8
1
  6
Continuous
 62
     7
100
AcDbVertex
100
AcDb2dVertex
 10
2954.642152285636
 20
1993.409677734133
 30
0.0
 42
0.0766194743
  0
VERTEX
  5
F62
330
F5D
100
AcDbEntity
  8
1
  6
Continuous
 62
     7
100
AcDbVertex
100
AcDb2dVertex
 10
2951.071999593636
 20
1999.029290028633
 30
0.0
 42
0.2106964875
  0
VERTEX
  5
F63
330
F5D
100
AcDbEntity
  8
1
  6
Continuous
 62
     7
100
AcDbVertex
100
AcDb2dVertex
 10
2944.928626431936
 20
2002.196474297433
 30
0.0
 42
0.2106964875
  0
VERTEX
  5
F64
330
F5D
100
AcDbEntity
  8
1
  6
Continuous
 62
     7
100
AcDbVertex
100
AcDb2dVertex
 10
2938.785253270336
 20
1999.029290028633
 30
0.0
 42
0.0766194743
  0
VERTEX
  5
F65
330
F5D
100
AcDbEntity
  8
1
  6
Continuous
 62
     7
100
AcDbVertex
100
AcDb2dVertex
 10
2935.215100578336
 20
1993.409677734133
 30
0.0
 42
0.050492559
  0
VERTEX
  5
F66
330
F5D
100
AcDbEntity
  8
1
  6
Continuous
 62
     7
100
AcDbVertex
100
AcDb2dVertex
 10
2932.641880108636
 20
1985.612882163033
 30
0.0
 42
0.0556108189
  0
VERTEX
  5
F67
330
F5D
100
AcDbEntity
  8
1
  6
Continuous
 62
     7
100
AcDbVertex
100
AcDb2dVertex
 10
2931.191626431936
 20
1972.196474297433
 30
0.0
 42
0.0556108189
  0
SEQEND
  5
F68
330
F5D
100
AcDbEntity
  8
1
  6
Continuous
 62
     7
  0
ARC
  5
F69
330
1F
100
AcDbEntity
  8
1
  6
Continuous
 62
     7
100
AcDbCircle
 10
2946.798866622836
 20
1849.863140964133
 30
0.0
 40
2.666666666699999
100
AcDbArc
 50
270.0
 51
0.0
  0
LINE
  5
F6A
330
1F
100
AcDbEntity
  8
1
  6
Continuous
 62
     7
100
AcDbLine
 10
2949.465533289436
 20
1849.863140964133
 30
0.0
 11
2949.465533289436
 21
1972.196474297433
 31
0.0
  0
LINE
  5
F6B
330
1F
100
AcDbEntity
  8
1
  6
Continuous
 62
     7
100
AcDbLine
 10
2808.457389208336
 20
1844.863140964133
 30
0.0
 11
2808.457389208336
 21
1972.196474297433
 31
0.0
  0
LINE
  5
F6C
330
1F
100
AcDbEntity
  8
1
  6
Continuous
 62
     7
100
AcDbLine
 10
2833.255365698336
 20
1842.196474297433
 30
0.0
 11
2811.124055875036
 21
1842.196474297433
 31
0.0
  0
ARC
  5
F6D
330
1F
100
AcDbEntity
  8
1
  6
Continuous
 62
     7
100
AcDbCircle
 10
2811.124055875036
 20
1844.863140964133
 30
0.0
 40
2.666666666699999
100
AcDbArc
 50
180.0
 51
270.0
  0
ARC
  5
F6E
330
1F
100
AcDbEntity
  8
1
  6
Continuous
 62
     7
100
AcDbCircle
 10
2829.289273151636
 20
1849.863140964133
 30
0.0
 40
2.666666666699999
100
AcDbArc
 50
270.0
 51
0.0
  0
LINE
  5
F6F
330
1F
100
AcDbEntity
  8
1
  6
Continuous
 62
     7
100
AcDbLine
 10
2829.289273151636
 20
1847.196474297433
 30
0.0
 11
2812.122606484937
 21
1847.196474297433
 31
0.0
  0
LINE
  5
F70
330
1F
100
AcDbEntity
  8
1
  6
Continuous
 62
     7
100
AcDbLine
 10
2831.955939818236
 20
1849.863140964133
 30
0.0
 11
2831.955939818236
 21
1972.196474297433
 31
0.0
  0
ARC
  5
F71
330
1F
100
AcDbEntity
  8
1
  6
Continuous
 62
     7
100
AcDbCircle
 10
2812.122606484937
 20
1849.863140964133
 30
0.0
 40
2.666666666699999
100
AcDbArc
 50
180.0
 51
270.0
  0
ARC
  5
F72
330
1F
100
AcDbEntity
  8
1
  6
Continuous
 62
     7
100
AcDbCircle
 10
2833.255365698336
 20
1844.863140964133
 30
0.0
 40
2.666666666699999
100
AcDbArc
 50
270.0
 51
0.0
  0
LINE
  5
F73
330
1F
100
AcDbEntity
  8
1
  6
Continuous
 62
     7
100
AcDbLine
 10
2835.922032364936
 20
1844.863140964133
 30
0.0
 11
2835.922032364936
 21
1972.196474297433
 31
0.0
  0
LINE
  5
F74
330
1F
100
AcDbEntity
  8
1
  6
Continuous
 62
     7
100
AcDbLine
 10
2809.455939818236
 20
1849.863140964133
 30
0.0
 11
2809.455939818236
 21
1972.196474297433
 31
0.0
  0
POLYLINE
  5
F75
330
1F
100
AcDbEntity
  8
1
  6
Continuous
 62
     7
100
AcDb2dPolyline
 66
     1
 10
0.0
 20
0.0
 30
0.0
  0
VERTEX
  5
F76
330
F75
100
AcDbEntity
  8
1
  6
Continuous
 62
     7
100
AcDbVertex
100
AcDb2dVertex
 10
2831.944087799936
 20
1972.196474297433
 30
0.0
 42
0.0546725114
  0
VERTEX
  5
F77
330
F75
100
AcDbEntity
  8
1
  6
Continuous
 62
     7
100
AcDbVertex
100
AcDb2dVertex
 10
2830.756393699136
 20
1983.376814185433
 30
0.0
 42
0.0497866003
  0
VERTEX
  5
F78
330
F75
100
AcDbEntity
  8
1
  6
Continuous
 62
     7
100
AcDbVertex
100
AcDb2dVertex
 10
2828.649039088736
 20
1989.874143828033
 30
0.0
 42
0.0760341849
  0
VERTEX
  5
F79
330
F75
100
AcDbEntity
  8
1
  6
Continuous
 62
     7
100
AcDbVertex
100
AcDb2dVertex
 10
2825.725240749536
 20
1994.557154073433
 30
0.0
 42
0.2127084669
  0
VERTEX
  5
F7A
330
F75
100
AcDbEntity
  8
1
  6
Continuous
 62
     7
100
AcDbVertex
100
AcDb2dVertex
 10
2820.694087799936
 20
1997.196474297433
 30
0.0
 42
0.2127084669
  0
VERTEX
  5
F7B
330
F75
100
AcDbEntity
  8
1
  6
Continuous
 62
     7
100
AcDbVertex
100
AcDb2dVertex
 10
2815.662934850336
 20
1994.557154073433
 30
0.0
 42
0.0760341849
  0
VERTEX
  5
F7C
330
F75
100
AcDbEntity
  8
1
  6
Continuous
 62
     7
100
AcDbVertex
100
AcDb2dVertex
 10
2812.739136511136
 20
1989.874143828033
 30
0.0
 42
0.0497866003
  0
VERTEX
  5
F7D
330
F75
100
AcDbEntity
  8
1
  6
Continuous
 62
     7
100
AcDbVertex
100
AcDb2dVertex
 10
2810.631781900736
 20
1983.376814185433
 30
0.0
 42
0.0546725114
  0
VERTEX
  5
F7E
330
F75
100
AcDbEntity
  8
1
  6
Continuous
 62
     7
100
AcDbVertex
100
AcDb2dVertex
 10
2809.444087799936
 20
1972.196474297433
 30
0.0
 42
0.0546725114
  0
VERTEX
  5
F7F
330
F75
100
AcDbEntity
  8
1
  6
Continuous
 62
     7
100
AcDbVertex
100
AcDb2dVertex
 10
2809.444556479536
 20
1971.968276077533
 30
0.0
 42
0.2511379507
  0
SEQEND
  5
F80
330
F75
100
AcDbEntity
  8
1
  6
Continuous
 62
     7
  0
POLYLINE
  5
F81
330
1F
100
AcDbEntity
  8
1
  6
Continuous
 62
     7
100
AcDb2dPolyline
 66
     1
 10
0.0
 20
0.0
 30
0.0
  0
VERTEX
  5
F82
330
F81
100
AcDbEntity
  8
1
  6
Continuous
 62
     7
100
AcDbVertex
100
AcDb2dVertex
 10
2835.931389208336
 20
1972.196474297433
 30
0.0
 42
0.0556108189
  0
VERTEX
  5
F83
330
F81
100
AcDbEntity
  8
1
  6
Continuous
 62
     7
100
AcDbVertex
100
AcDb2dVertex
 10
2834.481135531636
 20
1985.612882163033
 30
0.0
 42
0.050492559
  0
VERTEX
  5
F84
330
F81
100
AcDbEntity
  8
1
  6
Continuous
 62
     7
100
AcDbVertex
100
AcDb2dVertex
 10
2831.907915062036
 20
1993.409677734133
 30
0.0
 42
0.0766194743
  0
VERTEX
  5
F85
330
F81
100
AcDbEntity
  8
1
  6
Continuous
 62
     7
100
AcDbVertex
100
AcDb2dVertex
 10
2828.337762370036
 20
1999.029290028633
 30
0.0
 42
0.2106964875
  0
VERTEX
  5
F86
330
F81
100
AcDbEntity
  8
1
  6
Continuous
 62
     7
100
AcDbVertex
100
AcDb2dVertex
 10
2822.194389208336
 20
2002.196474297433
 30
0.0
 42
0.2106964875
  0
VERTEX
  5
F87
330
F81
100
AcDbEntity
  8
1
  6
Continuous
 62
     7
100
AcDbVertex
100
AcDb2dVertex
 10
2816.051016046736
 20
1999.029290028633
 30
0.0
 42
0.0766194743
  0
VERTEX
  5
F88
330
F81
100
AcDbEntity
  8
1
  6
Continuous
 62
     7
100
AcDbVertex
100
AcDb2dVertex
 10
2812.480863354736
 20
1993.409677734133
 30
0.0
 42
0.050492559
  0
VERTEX
  5
F89
330
F81
100
AcDbEntity
  8
1
  6
Continuous
 62
     7
100
AcDbVertex
100
AcDb2dVertex
 10
2809.907642885036
 20
1985.612882163033
 30
0.0
 42
0.0556108189
  0
VERTEX
  5
F8A
330
F81
100
AcDbEntity
  8
1
  6
Continuous
 62
     7
100
AcDbVertex
100
AcDb2dVertex
 10
2808.457389208336
 20
1972.196474297433
 30
0.0
 42
0.0556108189
  0
VERTEX
  5
F8B
330
F81
100
AcDbEntity
  8
1
  6
Continuous
 62
     7
100
AcDbVertex
100
AcDb2dVertex
 10
2808.457859402936
 20
1971.948260797833
 30
0.0
 42
0.247224533
  0
SEQEND
  5
F8C
330
F81
100
AcDbEntity
  8
1
  6
Continuous
 62
     7
  0
ARC
  5
F8D
330
1F
100
AcDbEntity
  8
1
  6
Continuous
 62
     7
100
AcDbCircle
 10
2820.324149017536
 20
1849.863140964133
 30
0.0
 40
2.666666666699999
100
AcDbArc
 50
180.0
 51
270.0
  0
LINE
  5
F8E
330
1F
100
AcDbEntity
  8
1
  6
Continuous
 62
     7
100
AcDbLine
 10
2817.657482350836
 20
1849.863140964133
 30
0.0
 11
2817.657482350836
 21
1972.196474297433
 31
0.0
  0
LINE
  5
F8F
330
1F
100
AcDbEntity
  8
1
  6
Continuous
 62
     7
100
AcDbLine
 10
2864.061507820136
 20
1847.196474297433
 30
0.0
 11
2903.061507820136
 21
1847.196474297433
 31
0.0
  0
LINE
  5
F90
330
1F
100
AcDbEntity
  8
1
  6
Continuous
 62
     7
100
AcDbLine
 10
2908.061507820136
 20
1842.196474297433
 30
0.0
 11
2859.061507820136
 21
1842.196474297433
 31
0.0
  0
ARC
  5
F91
330
1F
100
AcDbEntity
  8
1
  6
Continuous
 62
     7
100
AcDbCircle
 10
2903.061507820136
 20
1850.196474297433
 30
0.0
 40
3.0
100
AcDbArc
 50
270.0
 51
0.0
  0
LINE
  5
F92
330
1F
100
AcDbEntity
  8
1
  6
Continuous
 62
     7
100
AcDbLine
 10
2906.061507820136
 20
1850.196474297433
 30
0.0
 11
2906.061507820136
 21
1972.196474297433
 31
0.0
  0
ARC
  5
F93
330
1F
100
AcDbEntity
  8
1
  6
Continuous
 62
     7
100
AcDbCircle
 10
2908.061507820136
 20
1845.196474297433
 30
0.0
 40
3.0
100
AcDbArc
 50
270.0
 51
0.0
  0
LINE
  5
F94
330
1F
100
AcDbEntity
  8
1
  6
Continuous
 62
     7
100
AcDbLine
 10
2911.061507820136
 20
1845.196474297433
 30
0.0
 11
2911.061507820136
 21
1971.946474297433
 31
0.0
  0
ARC
  5
F95
330
1F
100
AcDbEntity
  8
1
  6
Continuous
 62
     7
100
AcDbCircle
 10
2864.061507820136
 20
1850.196474297433
 30
0.0
 40
3.0
100
AcDbArc
 50
180.0
 51
270.0
  0
LINE
  5
F96
330
1F
100
AcDbEntity
  8
1
  6
Continuous
 62
     7
100
AcDbLine
 10
2861.061507820136
 20
1850.196474297433
 30
0.0
 11
2861.061507820136
 21
1972.196474297433
 31
0.0
  0
ARC
  5
F97
330
1F
100
AcDbEntity
  8
1
  6
Continuous
 62
     7
100
AcDbCircle
 10
2859.061507820136
 20
1845.196474297433
 30
0.0
 40
3.0
100
AcDbArc
 50
180.0
 51
270.0
  0
LINE
  5
F98
330
1F
100
AcDbEntity
  8
1
  6
Continuous
 62
     7
100
AcDbLine
 10
2856.061507820136
 20
1845.196474297433
 30
0.0
 11
2856.061507820136
 21
1971.946474297433
 31
0.0
  0
ARC
  5
F99
330
1F
100
AcDbEntity
  8
1
  6
Continuous
 62
     7
100
AcDbCircle
 10
2883.561507820136
 20
1974.571474297433
 30
0.0
 40
27.625
100
AcDbArc
 50
354.5473780121954
 51
185.4526219878045
  0
ARC
  5
F9A
330
1F
100
AcDbEntity
  8
1
  6
Continuous
 62
     7
100
AcDbCircle
 10
2883.561507820136
 20
1974.571474297433
 30
0.0
 40
22.625
100
AcDbArc
 50
353.9744249915989
 51
186.025575008401
  0
LINE
  5
F9B
330
1F
100
AcDbEntity
  8
1
  6
Continuous
 62
     7
100
AcDbLine
 10
2808.561507820136
 20
1725.696474297433
 30
0.0
 11
2808.561507820136
 21
1158.696474297433
 31
0.0
  0
LINE
  5
F9C
330
1F
100
AcDbEntity
  8
1
  6
Continuous
 62
     7
100
AcDbLine
 10
2958.561507820136
 20
1725.696474297433
 30
0.0
 11
2958.561507820136
 21
1158.696474297433
 31
0.0
  0
LINE
  5
F9D
330
1F
100
AcDbEntity
  8
1
  6
Continuous
 62
     7
100
AcDbLine
 10
2808.561507820136
 20
1790.196474297433
 30
0.0
 11
2808.561507820136
 21
1807.196474297433
 31
0.0
  0
LINE
  5
F9E
330
1F
100
AcDbEntity
  8
1
  6
Continuous
 62
     7
100
AcDbLine
 10
2958.561507820136
 20
1807.196474297433
 30
0.0
 11
2958.561507820136
 21
1790.196474297433
 31
0.0
  0
LINE
  5
F9F
330
1F
100
AcDbEntity
  8
1
  6
Continuous
 62
     7
100
AcDbLine
 10
2958.561507820136
 20
1807.196474297433
 30
0.0
 11
2808.561507820136
 21
1807.196474297433
 31
0.0
  0
LINE
  5
FA0
330
1F
100
AcDbEntity
  8
1
  6
Continuous
 62
     7
100
AcDbLine
 10
2808.561507820136
 20
1817.196474297433
 30
0.0
 11
2958.561507820136
 21
1817.196474297433
 31
0.0
  0
ARC
  5
FA1
330
1F
100
AcDbEntity
  8
1
  6
Continuous
 62
     7
100
AcDbCircle
 10
2814.061507820136
 20
1808.696474297433
 30
0.0
 40
1.5
100
AcDbArc
 50
270.0
 51
0.0
  0
LINE
  5
FA2
330
1F
100
AcDbEntity
  8
1
  6
Continuous
 62
     7
100
AcDbLine
 10
2815.561507820136
 20
1808.696474297433
 30
0.0
 11
2815.561507820136
 21
1815.696474297433
 31
0.0
  0
ARC
  5
FA3
330
1F
100
AcDbEntity
  8
1
  6
Continuous
 62
     7
100
AcDbCircle
 10
2814.061507820136
 20
1815.696474297433
 30
0.0
 40
1.5
100
AcDbArc
 50
0.0
 51
90.0
  0
ARC
  5
FA4
330
1F
100
AcDbEntity
  8
1
  6
Continuous
 62
     7
100
AcDbCircle
 10
2953.061507820136
 20
1815.696474297433
 30
0.0
 40
1.5
100
AcDbArc
 50
90.0
 51
180.0
  0
LINE
  5
FA5
330
1F
100
AcDbEntity
  8
1
  6
Continuous
 62
     7
100
AcDbLine
 10
2951.561507820136
 20
1815.696474297433
 30
0.0
 11
2951.561507820136
 21
1808.696474297433
 31
0.0
  0
ARC
  5
FA6
330
1F
100
AcDbEntity
  8
1
  6
Continuous
 62
     7
100
AcDbCircle
 10
2953.061507820136
 20
1808.696474297433
 30
0.0
 40
1.5
100
AcDbArc
 50
180.0
 51
270.0
  0
ARC
  5
FA7
330
1F
100
AcDbEntity
  8
1
  6
Continuous
 62
     7
100
AcDbCircle
 10
2883.561507820136
 20
2012.196474297434
 30
0.0
 40
75.0
100
AcDbArc
 50
3.302614500304349
 51
176.6973854996956
  0
LINE
  5
FA8
330
1F
100
AcDbEntity
  8
1
  6
Continuous
 62
     7
100
AcDbLine
 10
2808.561507820136
 20
1187.196474297433
 30
0.0
 11
2958.561507820136
 21
1187.196474297433
 31
0.0
  0
ARC
  5
FA9
330
1F
100
AcDbEntity
  8
1
  6
Continuous
 62
     7
100
AcDbCircle
 10
2814.061507820136
 20
1728.696474297433
 30
0.0
 40
1.5
100
AcDbArc
 50
270.0
 51
0.0
  0
LINE
  5
FAA
330
1F
100
AcDbEntity
  8
1
  6
Continuous
 62
     7
100
AcDbLine
 10
2815.561507820136
 20
1728.696474297433
 30
0.0
 11
2815.561507820136
 21
1735.696474297433
 31
0.0
  0
ARC
  5
FAB
330
1F
100
AcDbEntity
  8
1
  6
Continuous
 62
     7
100
AcDbCircle
 10
2814.061507820136
 20
1735.696474297433
 30
0.0
 40
1.5
100
AcDbArc
 50
0.0
 51
90.0
  0
ARC
  5
FAC
330
1F
100
AcDbEntity
  8
1
  6
Continuous
 62
     7
100
AcDbCircle
 10
2953.061507820136
 20
1728.696474297433
 30
0.0
 40
1.5
100
AcDbArc
 50
180.0
 51
270.0
  0
LINE
  5
FAD
330
1F
100
AcDbEntity
  8
1
  6
Continuous
 62
     7
100
AcDbLine
 10
2951.561507820136
 20
1728.696474297433
 30
0.0
 11
2951.561507820136
 21
1735.696474297433
 31
0.0
  0
ARC
  5
FAE
330
1F
100
AcDbEntity
  8
1
  6
Continuous
 62
     7
100
AcDbCircle
 10
2953.061507820136
 20
1735.696474297433
 30
0.0
 40
1.5
100
AcDbArc
 50
90.0
 51
180.0
  0
LINE
  5
FAF
330
1F
100
AcDbEntity
  8
1
  6
Continuous
 62
     7
100
AcDbLine
 10
2808.561507820136
 20
1768.696474297433
 30
0.0
 11
2808.561507820136
 21
1785.696474297433
 31
0.0
  0
ARC
  5
FB0
330
1F
100
AcDbEntity
  8
1
  6
Continuous
 62
     7
100
AcDbCircle
 10
2810.061507820136
 20
1785.696474297433
 30
0.0
 40
1.5
100
AcDbArc
 50
90.0
 51
180.0
  0
ARC
  5
FB1
330
1F
100
AcDbEntity
  8
1
  6
Continuous
 62
     7
100
AcDbCircle
 10
2810.061507820136
 20
1738.696474297433
 30
0.0
 40
1.5
100
AcDbArc
 50
180.0
 51
270.0
  0
LINE
  5
FB2
330
1F
100
AcDbEntity
  8
1
  6
Continuous
 62
     7
100
AcDbLine
 10
2808.561507820136
 20
1738.696474297433
 30
0.0
 11
2808.561507820136
 21
1755.696474297433
 31
0.0
  0
LINE
  5
FB3
330
1F
100
AcDbEntity
  8
1
  6
Continuous
 62
     7
100
AcDbLine
 10
2810.061507820136
 20
1737.196474297433
 30
0.0
 11
2957.061507820136
 21
1737.196474297433
 31
0.0
  0
ARC
  5
FB4
330
1F
100
AcDbEntity
  8
1
  6
Continuous
 62
     7
100
AcDbCircle
 10
2810.061507820136
 20
1755.696474297433
 30
0.0
 40
1.5
100
AcDbArc
 50
90.0
 51
180.0
  0
LINE
  5
FB5
330
1F
100
AcDbEntity
  8
1
  6
Continuous
 62
     7
100
AcDbLine
 10
2810.061507820136
 20
1757.196474297433
 30
0.0
 11
2957.061507820136
 21
1757.196474297433
 31
0.0
  0
ARC
  5
FB6
330
1F
100
AcDbEntity
  8
1
  6
Continuous
 62
     7
100
AcDbCircle
 10
2814.061507820136
 20
1758.696474297433
 30
0.0
 40
1.5
100
AcDbArc
 50
270.0
 51
0.0
  0
LINE
  5
FB7
330
1F
100
AcDbEntity
  8
1
  6
Continuous
 62
     7
100
AcDbLine
 10
2815.561507820136
 20
1758.696474297433
 30
0.0
 11
2815.561507820136
 21
1765.696474297433
 31
0.0
  0
ARC
  5
FB8
330
1F
100
AcDbEntity
  8
1
  6
Continuous
 62
     7
100
AcDbCircle
 10
2814.061507820136
 20
1765.696474297433
 30
0.0
 40
1.5
100
AcDbArc
 50
0.0
 51
90.0
  0
ARC
  5
FB9
330
1F
100
AcDbEntity
  8
1
  6
Continuous
 62
     7
100
AcDbCircle
 10
2810.061507820136
 20
1768.696474297433
 30
0.0
 40
1.5
100
AcDbArc
 50
180.0
 51
270.0
  0
LINE
  5
FBA
330
1F
100
AcDbEntity
  8
1
  6
Continuous
 62
     7
100
AcDbLine
 10
2810.061507820136
 20
1767.196474297433
 30
0.0
 11
2957.061507820136
 21
1767.196474297433
 31
0.0
  0
ARC
  5
FBB
330
1F
100
AcDbEntity
  8
1
  6
Continuous
 62
     7
100
AcDbCircle
 10
2957.061507820136
 20
1785.696474297433
 30
0.0
 40
1.5
100
AcDbArc
 50
0.0
 51
90.0
  0
LINE
  5
FBC
330
1F
100
AcDbEntity
  8
1
  6
Continuous
 62
     7
100
AcDbLine
 10
2958.561507820136
 20
1785.696474297433
 30
0.0
 11
2958.561507820136
 21
1768.696474297433
 31
0.0
  0
ARC
  5
FBD
330
1F
100
AcDbEntity
  8
1
  6
Continuous
 62
     7
100
AcDbCircle
 10
2957.061507820136
 20
1768.696474297433
 30
0.0
 40
1.5
100
AcDbArc
 50
270.0
 51
0.0
  0
ARC
  5
FBE
330
1F
100
AcDbEntity
  8
1
  6
Continuous
 62
     7
100
AcDbCircle
 10
2953.061507820136
 20
1765.696474297433
 30
0.0
 40
1.5
100
AcDbArc
 50
90.0
 51
180.0
  0
LINE
  5
FBF
330
1F
100
AcDbEntity
  8
1
  6
Continuous
 62
     7
100
AcDbLine
 10
2951.561507820136
 20
1765.696474297433
 30
0.0
 11
2951.561507820136
 21
1758.696474297433
 31
0.0
  0
ARC
  5
FC0
330
1F
100
AcDbEntity
  8
1
  6
Continuous
 62
     7
100
AcDbCircle
 10
2953.061507820136
 20
1758.696474297433
 30
0.0
 40
1.5
100
AcDbArc
 50
180.0
 51
270.0
  0
ARC
  5
FC1
330
1F
100
AcDbEntity
  8
1
  6
Continuous
 62
     7
100
AcDbCircle
 10
2957.061507820136
 20
1755.696474297433
 30
0.0
 40
1.5
100
AcDbArc
 50
0.0
 51
90.0
  0
LINE
  5
FC2
330
1F
100
AcDbEntity
  8
1
  6
Continuous
 62
     7
100
AcDbLine
 10
2958.561507820136
 20
1755.696474297433
 30
0.0
 11
2958.561507820136
 21
1738.696474297433
 31
0.0
  0
ARC
  5
FC3
330
1F
100
AcDbEntity
  8
1
  6
Continuous
 62
     7
100
AcDbCircle
 10
2957.061507820136
 20
1738.696474297433
 30
0.0
 40
1.5
100
AcDbArc
 50
270.0
 51
0.0
  0
ARC
  5
FC4
330
1F
100
AcDbEntity
  8
1
  6
Continuous
 62
     7
100
AcDbCircle
 10
2810.061507820136
 20
1725.696474297433
 30
0.0
 40
1.5
100
AcDbArc
 50
90.0
 51
180.0
  0
LINE
  5
FC5
330
1F
100
AcDbEntity
  8
1
  6
Continuous
 62
     7
100
AcDbLine
 10
2810.061507820136
 20
1727.196474297433
 30
0.0
 11
2957.061507820136
 21
1727.196474297433
 31
0.0
  0
ARC
  5
FC6
330
1F
100
AcDbEntity
  8
1
  6
Continuous
 62
     7
100
AcDbCircle
 10
2957.061507820136
 20
1725.696474297433
 30
0.0
 40
1.5
100
AcDbArc
 50
0.0
 51
90.0
  0
ARC
  5
FC7
330
1F
100
AcDbEntity
  8
1
  6
Continuous
 62
     7
100
AcDbCircle
 10
2962.061507820136
 20
1155.696474297433
 30
0.0
 40
1.5
100
AcDbArc
 50
0.0
 51
90.0
  0
LINE
  5
FC8
330
1F
100
AcDbEntity
  8
1
  6
Continuous
 62
     7
100
AcDbLine
 10
2962.061507820136
 20
1157.196474297433
 30
0.0
 11
2805.061507820136
 21
1157.196474297433
 31
0.0
  0
ARC
  5
FC9
330
1F
100
AcDbEntity
  8
1
  6
Continuous
 62
     7
100
AcDbCircle
 10
2960.061507820136
 20
1158.696474297433
 30
0.0
 40
1.5
100
AcDbArc
 50
180.0
 51
270.0
  0
ARC
  5
FCA
330
1F
100
AcDbEntity
  8
1
  6
Continuous
 62
     7
100
AcDbCircle
 10
2807.061507820136
 20
1158.696474297433
 30
0.0
 40
1.5
100
AcDbArc
 50
270.0
 51
0.0
  0
ARC
  5
FCB
330
1F
100
AcDbEntity
  8
1
  6
Continuous
 62
     7
100
AcDbCircle
 10
2805.061507820136
 20
1155.696474297433
 30
0.0
 40
1.5
100
AcDbArc
 50
90.0
 51
180.0
  0
LINE
  5
FCC
330
1F
100
AcDbEntity
  8
1
  6
Continuous
 62
     7
100
AcDbLine
 10
2811.561507820136
 20
1787.196474297433
 30
0.0
 11
2955.561507820136
 21
1787.196474297433
 31
0.0
  0
LINE
  5
FCD
330
1F
100
AcDbEntity
  8
1
  6
Continuous
 62
     7
100
AcDbLine
 10
2811.561507820136
 20
1787.196474297433
 30
0.0
 11
2955.561507820136
 21
1787.196474297433
 31
0.0
  0
ARC
  5
FCE
330
1F
100
AcDbEntity
  8
1
  6
Continuous
 62
     7
100
AcDbCircle
 10
2811.561507820136
 20
1790.196474297433
 30
0.0
 40
3.0
100
AcDbArc
 50
180.0
 51
270.0
  0
ARC
  5
FCF
330
1F
100
AcDbEntity
  8
1
  6
Continuous
 62
     7
100
AcDbCircle
 10
2955.561507820136
 20
1790.196474297433
 30
0.0
 40
3.0
100
AcDbArc
 50
270.0
 51
0.0
  0
LINE
  5
FD2
330
1F
100
AcDbEntity
  8
1
  6
Continuous
 62
     7
100
AcDbLine
 10
2796.815307820136
 20
775.1964742974332
 30
0.0
 11
2970.307707820136
 21
775.1964742974332
 31
0.0
  0
LINE
  5
FD3
330
1F
100
AcDbEntity
  8
1
  6
Continuous
 62
     7
100
AcDbLine
 10
2970.307707820136
 20
778.1964742974333
 30
0.0
 11
2796.815307820136
 21
778.1964742974333
 31
0.0
  0
LINE
  5
FD4
330
1F
100
AcDbEntity
  8
1
  6
Continuous
 62
     7
100
AcDbLine
 10
2796.815307820136
 20
984.1964742974333
 30
0.0
 11
2970.307707820136
 21
984.1964742974333
 31
0.0
  0
LINE
  5
FD5
330
1F
100
AcDbEntity
  8
1
  6
Continuous
 62
     7
100
AcDbLine
 10
2758.561507825436
 20
999.1964742974332
 30
0.0
 11
2758.561507822536
 21
987.1964742974332
 31
0.0
  0
LINE
  5
FD6
330
1F
100
AcDbEntity
  8
1
  6
Continuous
 62
     7
100
AcDbLine
 10
3008.561507820136
 20
999.1964742974332
 30
0.0
 11
3008.561507820136
 21
987.1964742974332
 31
0.0
  0
LINE
  5
FD7
330
1F
100
AcDbEntity
  8
1
  6
Continuous
 62
     7
100
AcDbLine
 10
2758.561507820336
 20
987.1964742974332
 30
0.0
 11
3008.561507820136
 21
987.1964742974332
 31
0.0
  0
LINE
  5
FD8
330
1F
100
AcDbEntity
  8
1
  6
Continuous
 62
     7
100
AcDbLine
 10
2758.561507820136
 20
999.1964742974332
 30
0.0
 11
3008.561507820136
 21
999.1964742974332
 31
0.0
  0
LINE
  5
FD9
330
1F
100
AcDbEntity
  8
1
  6
PHANTOM
 62
     7
100
AcDbLine
 10
3055.047145815336
 20
787.8390946911332
 30
0.0
 11
3139.121385328436
 21
787.8390946911332
 31
0.0
  0
LINE
  5
FDA
330
1F
100
AcDbEntity
  8
1
  6
PHANTOM
 62
     7
100
AcDbLine
 10
3055.047145815336
 20
787.8390946911332
 30
0.0
 11
3139.121385328436
 21
787.8390946911332
 31
0.0
  0
LINE
  5
FDB
330
1F
100
AcDbEntity
  8
1
  6
PHANTOM
 62
     7
100
AcDbLine
 10
3151.020745885736
 20
832.0560367621332
 30
0.0
 11
3132.463172780136
 21
763.0977821536332
 31
0.0
  0
LINE
  5
FDC
330
1F
100
AcDbEntity
  8
1
  6
PHANTOM
 62
     7
100
AcDbLine
 10
3055.047145815336
 20
797.8390946911331
 30
0.0
 11
3141.812516826936
 21
797.8390946911331
 31
0.0
  0
LINE
  5
FDD
330
1F
100
AcDbEntity
  8
1
  6
PHANTOM
 62
     7
100
AcDbLine
 10
2937.256896738636
 20
915.6293437677332
 30
0.0
 11
2937.256896738636
 21
1107.254295395933
 31
0.0
  0
LINE
  5
FDE
330
1F
100
AcDbEntity
  8
1
  6
PHANTOM
 62
     7
100
AcDbLine
 10
2927.256896738636
 20
915.6293437677332
 30
0.0
 11
2927.256896738636
 21
1105.765923302933
 31
0.0
  0
LINE
  5
FDF
330
1F
100
AcDbEntity
  8
1
  6
PHANTOM
 62
     7
100
AcDbLine
 10
2947.755048409536
 20
1108.816810993533
 30
0.0
 11
2914.015730727436
 21
1103.795145105933
 31
0.0
  0
ARC
  5
FE0
330
1F
100
AcDbEntity
  8
1
  6
PHANTOM
 62
     7
100
AcDbCircle
 10
3055.047145815336
 20
915.6293437677332
 30
0.0
 40
127.7902490766
100
AcDbArc
 50
180.0
 51
270.0
  0
ARC
  5
FE1
330
1F
100
AcDbEntity
  8
1
  6
PHANTOM
 62
     7
100
AcDbCircle
 10
3055.047145815336
 20
915.6293437677332
 30
0.0
 40
117.7902490766
100
AcDbArc
 50
180.0
 51
270.0
  0
TEXT
  5
FE3
330
1F
100
AcDbEntity
  8
1
  6
Continuous
 62
     7
100
AcDbText
 10
3128.316452385736
 20
1743.590230788103
 30
0.0
 40
25.0
  1
総重量：２５Ｋｇ
 41
0.741304347826087
  7
MDRAFSTD
 72
     5
 11
3298.816452385736
 21
1743.590230788103
 31
0.0
100
AcDbText
  0
LINE
  5
FE4
330
1F
100
AcDbEntity
  8
1
  6
Continuous
 62
     7
100
AcDbLine
 10
3545.772549435336
 20
2178.590230462803
 30
0.0
 11
3545.772549435336
 21
1818.590230462803
 31
0.0
  0
LINE
  5
FE5
330
1F
100
AcDbEntity
  8
1
  6
Continuous
 62
     7
100
AcDbLine
 10
3495.772549435336
 20
2178.590230462803
 30
0.0
 11
3495.772549435336
 21
1818.590230462803
 31
0.0
  0
LINE
  5
FE6
330
1F
100
AcDbEntity
  8
1
  6
Continuous
 62
     7
100
AcDbLine
 10
3120.772549435336
 20
2178.590230462803
 30
0.0
 11
3120.772549435336
 21
1818.590230462803
 31
0.0
  0
LINE
  5
FE7
330
1F
100
AcDbEntity
  8
1
  6
Continuous
 62
     7
100
AcDbLine
 10
3170.772549435336
 20
2178.590230462803
 30
0.0
 11
3170.772549435336
 21
1818.590230462803
 31
0.0
  0
LINE
  5
FE8
330
1F
100
AcDbEntity
  8
1
  6
Continuous
 62
     7
100
AcDbLine
 10
3333.272549435336
 20
2178.590230462803
 30
0.0
 11
3333.272549435336
 21
1818.590230462803
 31
0.0
  0
LINE
  5
FE9
330
1F
100
AcDbEntity
  8
1
  6
Continuous
 62
     7
100
AcDbLine
 10
3120.772549435336
 20
1868.590230462803
 30
0.0
 11
3745.772549435336
 21
1868.590230462803
 31
0.0
  0
INSERT
  5
FEA
330
1F
100
AcDbEntity
  8
1
  6
Continuous
 62
     2
100
AcDbBlockReference
  2
MAKR5
 10
3145.772549435336
 20
1843.590230462803
 30
0.0
  0
INSERT
  5
FEB
330
1F
100
AcDbEntity
  8
1
  6
Continuous
 62
     2
100
AcDbBlockReference
  2
MAKR4
 10
3145.772549435336
 20
1893.590230462803
 30
0.0
  0
TEXT
  5
FEC
330
1F
100
AcDbEntity
  8
1
  6
Continuous
 62
     7
100
AcDbText
 10
3394.01842004222
 20
2082.340230788103
 30
0.0
 40
22.5
  1
ＡＣ
 41
0.8513073177711905
  7
MDRAFSTD
 72
     5
 11
3432.327249341923
 21
2082.340230788103
 31
0.0
100
AcDbText
  0
TEXT
  5
FED
330
1F
100
AcDbEntity
  8
1
  6
Continuous
 62
     7
100
AcDbText
 10
3233.022549385736
 20
2082.340230788103
 30
0.0
 40
22.5
  1
頭部
 41
0.7916666666666668
  7
MDRAFSTD
 72
     5
 11
3271.022549385736
 21
2082.340230788103
 31
0.0
100
AcDbText
  0
TEXT
  5
FEE
330
1F
100
AcDbEntity
  8
1
  6
Continuous
 62
     7
100
AcDbText
 10
3512.022549385736
 20
2082.340230788103
 30
0.0
 40
22.5
  1
１
 41
1.458333333333333
  7
MDRAFSTD
 72
     5
 11
3529.522549385736
 21
2082.340230788103
 31
0.0
100
AcDbText
  0
TEXT
  5
FEF
330
1F
100
AcDbEntity
  8
1
  6
Continuous
 62
     7
100
AcDbText
 10
3561.022549385736
 20
2069.590230788104
 30
0.0
 40
22.5
  1
　　樹脂系塗料塗装
 41
0.7151898734177213
  7
MDRAFSTD
 72
     5
 11
3730.522549385737
 21
2069.590230788104
 31
0.0
100
AcDbText
  0
TEXT
  5
FF0
330
1F
100
AcDbEntity
  8
1
  6
Continuous
 62
     7
100
AcDbText
 10
3561.022549385736
 20
2095.090230788104
 30
0.0
 40
22.5
  1
下地処理の上
 41
0.7211538461538466
  7
MDRAFSTD
 72
     5
 11
3673.522549385737
 21
2095.090230788104
 31
0.0
100
AcDbText
  0
TEXT
  5
FF1
330
1F
100
AcDbEntity
  8
1
  6
Continuous
 62
     7
100
AcDbText
 10
3531.406670385737
 20
1949.404348788103
 30
0.0
 40
15.0
  1
Ｓ
 41
0.8333333333333332
  7
MDRAFSTD
 72
     5
 11
3541.406670385736
 21
1949.404348788103
 31
0.0
100
AcDbText
  0
TEXT
  5
FF2
330
1F
100
AcDbEntity
  8
1
  6
Continuous
 62
     7
100
AcDbText
 10
3512.022549385736
 20
1932.340230788103
 30
0.0
 40
22.5
  1
１
 41
1.458333333333333
  7
MDRAFSTD
 72
     5
 11
3529.522549385736
 21
1932.340230788103
 31
0.0
100
AcDbText
  0
LINE
  5
FF3
330
1F
100
AcDbEntity
  8
1
  6
Continuous
 62
     7
100
AcDbLine
 10
3387.778650695536
 20
1891.750935764003
 30
0.0
 11
3437.778650695536
 21
1891.750935764003
 31
0.0
  0
LINE
  5
FF4
330
1F
100
AcDbEntity
  8
1
  6
Continuous
 62
     7
100
AcDbLine
 10
3387.778650695536
 20
1941.750935764003
 30
0.0
 11
3437.778650695536
 21
1941.750935764003
 31
0.0
  0
TEXT
  5
FF5
330
1F
100
AcDbEntity
  8
1
  6
Continuous
 62
     7
100
AcDbText
 10
3614.295149385736
 20
1882.340230788103
 30
0.0
 40
22.5
  1
１００Ｖ
 41
0.6965174129353234
  7
MDRAFSTD
 72
     5
 11
3684.295149385736
 21
1882.340230788103
 31
0.0
100
AcDbText
  0
TEXT
  5
FF6
330
1F
100
AcDbEntity
  8
1
  6
Continuous
 62
     7
100
AcDbText
 10
3570.522549385736
 20
1932.340230788103
 30
0.0
 40
22.5
  1
１００Ｖ－４０Ｗ
 41
0.7166666666666665
  7
MDRAFSTD
 72
     5
 11
3721.022549385736
 21
1932.340230788103
 31
0.0
100
AcDbText
  0
TEXT
  5
FF7
330
1F
100
AcDbEntity
  8
1
  6
Continuous
 62
     7
100
AcDbText
 10
3387.272549385736
 20
1982.340230788103
 30
0.0
 40
22.5
  1
ＦＣＤ
 41
0.7569444444444445
  7
MDRAFSTD
 72
     5
 11
3441.772549385736
 21
1982.340230788103
 31
0.0
100
AcDbText
  0
TEXT
  5
FF8
330
1F
100
AcDbEntity
  8
1
  6
Continuous
 62
     7
100
AcDbText
 10
3387.272549385736
 20
2032.340230788103
 30
0.0
 40
22.5
  1
ＦＣＤ
 41
0.7569444444444445
  7
MDRAFSTD
 72
     5
 11
3441.772549385736
 21
2032.340230788103
 31
0.0
100
AcDbText
  0
TEXT
  5
FF9
330
1F
100
AcDbEntity
  8
1
  6
Continuous
 62
     7
100
AcDbText
 10
3222.772549385736
 20
1932.340230788103
 30
0.0
 40
22.5
  1
ランプ
 41
0.7799999999999998
  7
MDRAFSTD
 72
     5
 11
3281.272549385736
 21
1932.340230788103
 31
0.0
100
AcDbText
  0
TEXT
  5
FFA
330
1F
100
AcDbEntity
  8
1
  6
Continuous
 62
     7
100
AcDbText
 10
3222.772549385736
 20
1882.340230788103
 30
0.0
 40
22.5
  1
安定器
 41
0.7799999999999999
  7
MDRAFSTD
 72
     5
 11
3281.272549385736
 21
1882.340230788103
 31
0.0
100
AcDbText
  0
TEXT
  5
FFB
330
1F
100
AcDbEntity
  8
1
  6
Continuous
 62
     7
100
AcDbText
 10
3222.772549385736
 20
1982.340230788103
 30
0.0
 40
22.5
  1
カバ－
 41
0.8125
  7
MDRAFSTD
 72
     5
 11
3281.272549385736
 21
1982.340230788103
 31
0.0
100
AcDbText
  0
TEXT
  5
FFC
330
1F
100
AcDbEntity
  8
1
  6
Continuous
 62
     7
100
AcDbText
 10
3531.406670385737
 20
1899.404348788103
 30
0.0
 40
15.0
  1
Ｓ
 41
0.8333333333333332
  7
MDRAFSTD
 72
     5
 11
3541.406670385736
 21
1899.404348788103
 31
0.0
100
AcDbText
  0
TEXT
  5
FFD
330
1F
100
AcDbEntity
  8
1
  6
Continuous
 62
     7
100
AcDbText
 10
3512.022549385736
 20
1882.340230788103
 30
0.0
 40
22.5
  1
１
 41
1.458333333333333
  7
MDRAFSTD
 72
     5
 11
3529.522549385736
 21
1882.340230788103
 31
0.0
100
AcDbText
  0
TEXT
  5
FFE
330
1F
100
AcDbEntity
  8
1
  6
Continuous
 62
     7
100
AcDbText
 10
3512.022549385736
 20
1982.340230788103
 30
0.0
 40
22.5
  1
１
 41
1.458333333333333
  7
MDRAFSTD
 72
     5
 11
3529.522549385736
 21
1982.340230788103
 31
0.0
100
AcDbText
  0
TEXT
  5
FFF
330
1F
100
AcDbEntity
  8
1
  6
Continuous
 62
     7
100
AcDbText
 10
3512.022549385736
 20
2032.340230788103
 30
0.0
 40
22.5
  1
１
 41
1.458333333333333
  7
MDRAFSTD
 72
     5
 11
3529.522549385736
 21
2032.340230788103
 31
0.0
100
AcDbText
  0
LINE
  5
1000
330
1F
100
AcDbEntity
  8
1
  6
Continuous
 62
     7
100
AcDbLine
 10
3620.772549435336
 20
1993.590230462803
 30
0.0
 11
3670.772549435336
 21
1993.590230462803
 31
0.0
  0
TEXT
  5
1001
330
1F
100
AcDbEntity
  8
1
  6
Continuous
 62
     7
100
AcDbText
 10
3233.022549385736
 20
2032.340230788103
 30
0.0
 40
22.5
  1
本体
 41
0.7916666666666668
  7
MDRAFSTD
 72
     5
 11
3271.022549385736
 21
2032.340230788103
 31
0.0
100
AcDbText
  0
TEXT
  5
1002
330
1F
100
AcDbEntity
  8
1
  6
Continuous
 62
     7
100
AcDbText
 10
3561.022549385736
 20
2019.590230788104
 30
0.0
 40
22.5
  1
　　樹脂系塗料塗装
 41
0.7151898734177213
  7
MDRAFSTD
 72
     5
 11
3730.522549385737
 21
2019.590230788104
 31
0.0
100
AcDbText
  0
TEXT
  5
1003
330
1F
100
AcDbEntity
  8
1
  6
Continuous
 62
     7
100
AcDbText
 10
3561.022549385736
 20
2045.090230788103
 30
0.0
 40
22.5
  1
下地処理の上
 41
0.7211538461538466
  7
MDRAFSTD
 72
     5
 11
3673.522549385737
 21
2045.090230788103
 31
0.0
100
AcDbText
  0
TEXT
  5
1004
330
1F
100
AcDbEntity
  8
1
  6
Continuous
 62
     7
100
AcDbText
 10
3512.022549385736
 20
1832.340230788103
 30
0.0
 40
22.5
  1
４
 41
0.9722222222222223
  7
MDRAFSTD
 72
     5
 11
3529.522549385736
 21
1832.340230788103
 31
0.0
100
AcDbText
  0
TEXT
  5
1005
330
1F
100
AcDbEntity
  8
1
  6
Continuous
 62
     7
100
AcDbText
 10
3579.295149385736
 20
1821.090230788103
 30
0.0
 40
22.5
  1
　　ナット付
 41
0.673076923076923
  7
MDRAFSTD
 72
     5
 11
3684.295149385736
 21
1821.090230788103
 31
0.0
100
AcDbText
  0
TEXT
  5
1006
330
1F
100
AcDbEntity
  8
1
  6
Continuous
 62
     7
100
AcDbText
 10
3579.295149385736
 20
1843.590230788103
 30
0.0
 40
22.5
  1
Ｍ１２ｘ３００Ｌ
 41
0.6763285024154591
  7
MDRAFSTD
 72
     5
 11
3719.295149385736
 21
1843.590230788103
 31
0.0
100
AcDbText
  0
TEXT
  5
1007
330
1F
100
AcDbEntity
  8
1
  6
Continuous
 62
     7
100
AcDbText
 10
3375.022549385736
 20
1832.340230788103
 30
0.0
 40
22.5
  1
ＳＷＲＭ
 41
0.7745098039215687
  7
MDRAFSTD
 72
     5
 11
3454.022549385737
 21
1832.340230788103
 31
0.0
100
AcDbText
  0
TEXT
  5
1008
330
1F
100
AcDbEntity
  8
1
  6
Continuous
 62
     7
100
AcDbText
 10
3212.522549385737
 20
1832.340230788103
 30
0.0
 40
22.5
  1
アンカ－
 41
0.7979797979797981
  7
MDRAFSTD
 72
     5
 11
3291.522549385736
 21
1832.340230788103
 31
0.0
100
AcDbText
  0
LINE
  5
1009
330
1F
100
AcDbEntity
  8
1
  6
Continuous
 62
     7
100
AcDbLine
 10
3120.772549435336
 20
1818.590230462803
 30
0.0
 11
3745.772549435336
 21
1818.590230462803
 31
0.0
  0
INSERT
  5
100A
330
1F
100
AcDbEntity
  8
1
  6
Continuous
 62
     2
100
AcDbBlockReference
  2
MAKR3
 10
3145.772549435336
 20
1943.590230462803
 30
0.0
  0
LINE
  5
100B
330
1F
100
AcDbEntity
  8
1
  6
Continuous
 62
     7
100
AcDbLine
 10
3120.772549435336
 20
1918.590230462803
 30
0.0
 11
3745.772549435336
 21
1918.590230462803
 31
0.0
  0
TEXT
  5
1010
330
1F
100
AcDbEntity
  8
1
  6
Continuous
 62
     7
100
AcDbText
 10
3504.272549385736
 20
2138.590230788103
 30
0.0
 40
20.0
  1
個数
 41
0.7734375
  7
MDRAFSTD
 72
     5
 11
3537.272549385736
 21
2138.590230788103
 31
0.0
100
AcDbText
  0
TEXT
  5
1011
330
1F
100
AcDbEntity
  8
1
  6
Continuous
 62
     7
100
AcDbText
 10
3626.772549385736
 20
2137.340230788103
 30
0.0
 40
22.5
  1
備考
 41
0.7916666666666668
  7
MDRAFSTD
 72
     5
 11
3664.772549385736
 21
2137.340230788103
 31
0.0
100
AcDbText
  0
TEXT
  5
1012
330
1F
100
AcDbEntity
  8
1
  6
Continuous
 62
     7
100
AcDbText
 10
3222.772549385736
 20
2137.340230788103
 30
0.0
 40
22.5
  1
部品名
 41
0.7959183673469389
  7
MDRAFSTD
 72
     5
 11
3281.272549385736
 21
2137.340230788103
 31
0.0
100
AcDbText
  0
TEXT
  5
1013
330
1F
100
AcDbEntity
  8
1
  6
Continuous
 62
     7
100
AcDbText
 10
3395.522549385737
 20
2137.340230788103
 30
0.0
 40
22.5
  1
材質
 41
0.7916666666666668
  7
MDRAFSTD
 72
     5
 11
3433.522549385736
 21
2137.340230788103
 31
0.0
100
AcDbText
  0
TEXT
  5
1014
330
1F
100
AcDbEntity
  8
1
  6
Continuous
 62
     7
100
AcDbText
 10
3126.772549385736
 20
2137.340230788103
 30
0.0
 40
22.5
  1
部番
 41
0.7916666666666666
  7
MDRAFSTD
 72
     5
 11
3164.772549385736
 21
2137.340230788103
 31
0.0
100
AcDbText
  0
INSERT
  5
1015
330
1F
100
AcDbEntity
  8
1
  6
Continuous
 62
     2
100
AcDbBlockReference
  2
MAKR2
 10
3145.772549435336
 20
1993.590230462803
 30
0.0
  0
INSERT
  5
1016
330
1F
100
AcDbEntity
  8
1
  6
Continuous
 62
     2
100
AcDbBlockReference
  2
MAKR1
 10
3145.772549435336
 20
2043.590230462803
 30
0.0
  0
INSERT
  5
1017
330
1F
100
AcDbEntity
  8
1
  6
Continuous
 62
     2
100
AcDbBlockReference
  2
MAKR0
 10
3145.772549435336
 20
2093.590230462803
 30
0.0
  0
LINE
  5
1018
330
1F
100
AcDbEntity
  8
1
  6
Continuous
 62
     7
100
AcDbLine
 10
3120.772549435336
 20
1968.590230462803
 30
0.0
 11
3745.772549435336
 21
1968.590230462803
 31
0.0
  0
LINE
  5
1019
330
1F
100
AcDbEntity
  8
1
  6
Continuous
 62
     7
100
AcDbLine
 10
3120.772549435336
 20
2018.590230462804
 30
0.0
 11
3745.772549435336
 21
2018.590230462804
 31
0.0
  0
LINE
  5
101A
330
1F
100
AcDbEntity
  8
1
  6
Continuous
 62
     7
100
AcDbLine
 10
3120.772549435336
 20
2068.590230462803
 30
0.0
 11
3745.772549435336
 21
2068.590230462803
 31
0.0
  0
LINE
  5
101B
330
1F
100
AcDbEntity
  8
1
  6
Continuous
 62
     7
100
AcDbLine
 10
3120.772549435336
 20
2118.590230462803
 30
0.0
 11
3745.772549435336
 21
2118.590230462803
 31
0.0
  0
DIMENSION
  5
1047
330
1F
100
AcDbEntity
  8
1
  6
Continuous
 62
     7
100
AcDbDimension
  2
*D18
 10
3519.811467286137
 20
1613.417320738802
 30
0.0
 11
3248.835975605757
 21
1448.293391737593
 31
0.0
 70
    35
  1
P.C.D　%%c210
 71
     5
 42
209.9999999999454
  3
IGS
100
AcDbDiametricDimension
 15
3347.312817908535
 25
1493.649979769402
 35
0.0
 40
0.0
1001
ACAD
1000
DSTYLE
1002
{
1070
   176
1070
     3
1002
}
  0
LINE
  5
1048
330
1F
100
AcDbEntity
  8
AM_7
100
AcDbLine
 10
3518.098484044536
 20
1638.069991701403
 30
0.0
 11
3498.576426190536
 21
1618.547933847303
 31
0.0
  0
LINE
  5
1049
330
1F
100
AcDbEntity
  8
AM_7
100
AcDbLine
 10
3518.098484044536
 20
1468.997308806903
 30
0.0
 11
3498.576426190536
 21
1488.519366660903
 31
0.0
  0
LINE
  5
104A
330
1F
100
AcDbEntity
  8
AM_7
100
AcDbLine
 10
3349.025801150036
 20
1468.997308806882
 30
0.0
 11
3368.547859004136
 21
1488.519366660882
 31
0.0
  0
LINE
  5
104B
330
1F
100
AcDbEntity
  8
AM_7
100
AcDbLine
 10
3349.025801150036
 20
1638.069991701382
 30
0.0
 11
3368.547859004136
 21
1618.547933847282
 31
0.0
  0
CIRCLE
  5
104C
330
1F
100
AcDbEntity
  8
AM_7
100
AcDbCircle
 10
3433.562142597336
 20
1553.533650254103
 30
0.0
 40
105.0
  0
LINE
  5
104D
330
1F
100
AcDbEntity
  8
AM_7
100
AcDbLine
 10
3292.216398342936
 20
1553.533650254103
 30
0.0
 11
3577.740170214936
 21
1553.533650254103
 31
0.0
  0
LINE
  5
104E
330
1F
100
AcDbEntity
  8
AM_7
100
AcDbLine
 10
3433.562142597336
 20
1688.950232252303
 30
0.0
 11
3433.562142597336
 21
1422.726168227403
 31
0.0
  0
CIRCLE
  5
104F
330
1F
100
AcDbEntity
  8
1
  6
Continuous
 62
     7
100
AcDbCircle
 10
3359.315930572736
 20
1627.779862278682
 30
0.0
 40
5.052999999999999
  0
CIRCLE
  5
1050
330
1F
100
AcDbEntity
  8
1
  6
Continuous
 62
     7
100
AcDbCircle
 10
3359.315930572736
 20
1627.779862278682
 30
0.0
 40
6.0
  0
CIRCLE
  5
1051
330
1F
100
AcDbEntity
  8
1
  6
Continuous
 62
     7
100
AcDbCircle
 10
3359.315930572736
 20
1627.779862278682
 30
0.0
 40
9.5
  0
LINE
  5
1052
330
1F
100
AcDbEntity
  8
1
  6
Continuous
 62
     7
100
AcDbLine
 10
3368.815930572735
 20
1622.295034721382
 30
0.0
 11
3368.815930572735
 21
1633.264689835982
 31
0.0
  0
LINE
  5
1053
330
1F
100
AcDbEntity
  8
1
  6
Continuous
 62
     7
100
AcDbLine
 10
3359.315930572736
 20
1616.810207164082
 30
0.0
 11
3368.815930572735
 21
1622.295034721382
 31
0.0
  0
LINE
  5
1054
330
1F
100
AcDbEntity
  8
1
  6
Continuous
 62
     7
100
AcDbLine
 10
3349.815930572736
 20
1622.295034721382
 30
0.0
 11
3359.315930572736
 21
1616.810207164082
 31
0.0
  0
LINE
  5
1055
330
1F
100
AcDbEntity
  8
1
  6
Continuous
 62
     7
100
AcDbLine
 10
3349.815930572736
 20
1633.264689835982
 30
0.0
 11
3349.815930572736
 21
1622.295034721382
 31
0.0
  0
LINE
  5
1056
330
1F
100
AcDbEntity
  8
1
  6
Continuous
 62
     7
100
AcDbLine
 10
3359.315930572736
 20
1638.749517393282
 30
0.0
 11
3349.815930572736
 21
1633.264689835982
 31
0.0
  0
LINE
  5
1057
330
1F
100
AcDbEntity
  8
1
  6
Continuous
 62
     7
100
AcDbLine
 10
3368.815930572735
 20
1633.264689835982
 30
0.0
 11
3359.315930572736
 21
1638.749517393282
 31
0.0
  0
CIRCLE
  5
1058
330
1F
100
AcDbEntity
  8
1
  6
Continuous
 62
     7
100
AcDbCircle
 10
3507.808354621936
 20
1627.779862278703
 30
0.0
 40
7.5
  0
CIRCLE
  5
1059
330
1F
100
AcDbEntity
  8
1
  6
Continuous
 62
     7
100
AcDbCircle
 10
3507.808354621936
 20
1479.287438229503
 30
0.0
 40
7.5
  0
CIRCLE
  5
105A
330
1F
100
AcDbEntity
  8
1
  6
Continuous
 62
     7
100
AcDbCircle
 10
3359.315930572736
 20
1479.287438229482
 30
0.0
 40
7.5
  0
CIRCLE
  5
105B
330
1F
100
AcDbEntity
  8
1
  6
Continuous
 62
     7
100
AcDbCircle
 10
3433.562142597336
 20
1553.533650254103
 30
0.0
 40
125.0
  0
CIRCLE
  5
105C
330
1F
100
AcDbEntity
  8
1
  6
Continuous
 62
     7
100
AcDbCircle
 10
3433.562142597336
 20
1553.533650254103
 30
0.0
 40
72.0
  0
CIRCLE
  5
105D
330
1F
100
AcDbEntity
  8
1
  6
Continuous
 62
     7
100
AcDbCircle
 10
3433.562142597336
 20
1553.533650254103
 30
0.0
 40
80.0
  0
DIMENSION
  5
14A9
330
1F
100
AcDbEntity
  8
AM_5
100
AcDbDimension
  2
*D20
 10
2958.561507820136
 20
2127.802436584004
 30
0.0
 11
2883.561507820136
 21
2127.802436584004
 31
0.0
 70
   160
  1
%%c<>
 71
     5
 42
150.0
  3
IGS
100
AcDbAlignedDimension
 13
2808.561507820136
 23
2016.524380848333
 33
0.0
 14
2958.561507820136
 24
2016.524380848333
 34
0.0
100
AcDbRotatedDimension
  0
DIMENSION
  5
1534
330
1F
100
AcDbEntity
  8
AM_5
100
AcDbDimension
  2
*D21
 10
2661.185654178264
 20
1787.196474297433
 30
0.0
 11
2642.435654178263
 21
1937.196474297433
 31
0.0
 70
    32
 71
     5
 42
299.9999999999998
  3
IGS
100
AcDbAlignedDimension
 13
2883.561507820136
 23
2087.196474297433
 33
0.0
 14
2811.561507820136
 24
1787.196474297433
 34
0.0
 50
90.0
100
AcDbRotatedDimension
1001
ACAD
1000
DSTYLE
1002
{
1070
   174
1070
     1
1002
}
  0
DIMENSION
  5
155A
330
1F
100
AcDbEntity
  8
AM_5
100
AcDbDimension
  2
*D22
 10
2661.185654178264
 20
1087.196474297433
 30
0.0
 11
2642.435654178263
 21
1437.196474297434
 31
0.0
 70
    32
 71
     5
 42
700.0
  3
IGS
100
AcDbAlignedDimension
 13
2811.561507820136
 23
1787.196474297433
 33
0.0
 14
2580.561507820136
 24
1087.196474297433
 34
0.0
 50
90.0
100
AcDbRotatedDimension
1001
ACAD
1000
DSTYLE
1002
{
1070
   174
1070
     1
1002
}
  0
DIMENSION
  5
15CA
330
1F
100
AcDbEntity
  8
AM_5
100
AcDbDimension
  2
*D23
 10
2735.87035519731
 20
1227.196474297433
 30
0.0
 11
2717.12035519731
 21
1457.196474297434
 31
0.0
 70
    32
 71
     5
 42
460.0
  3
IGS
100
AcDbAlignedDimension
 13
2808.561507820236
 23
1687.196474297433
 33
0.0
 14
2808.561507820236
 24
1227.196474297433
 34
0.0
 50
90.0
100
AcDbRotatedDimension
  0
DIMENSION
  5
1604
330
1F
100
AcDbEntity
  8
AM_5
100
AcDbDimension
  2
*D24
 10
2558.076674640536
 20
1087.196474297433
 30
0.0
 11
2539.326674640535
 21
1587.196474297433
 31
0.0
 70
    32
 71
     5
 42
999.9999999999998
  3
IGS
100
AcDbAlignedDimension
 13
2883.561507820136
 23
2087.196474297433
 33
0.0
 14
2617.463025509117
 24
1087.196474297433
 34
0.0
 50
90.0
100
AcDbRotatedDimension
1001
ACAD
1000
DSTYLE
1002
{
1070
   174
1070
     1
1002
}
  0
DIMENSION
  5
1630
330
1F
100
AcDbEntity
  8
AM_5
100
AcDbDimension
  2
*D25
 10
2558.076674640536
 20
987.1964742974332
 30
0.0
 11
2539.326674640536
 21
1037.196474297434
 31
0.0
 70
    32
 71
     5
 42
100.0000000000001
  3
IGS
100
AcDbAlignedDimension
 13
2617.463025509117
 23
1087.196474297433
 33
0.0
 14
2683.561507820136
 24
987.1964742974332
 34
0.0
 50
90.0
100
AcDbRotatedDimension
1001
ACAD
1000
DSTYLE
1002
{
1070
   174
1070
     1
1002
}
  0
DIMENSION
  5
1658
330
1F
100
AcDbEntity
  8
AM_5
100
AcDbDimension
  2
*D26
 10
2489.411438339458
 20
987.1964742974332
 30
0.0
 11
2470.661438339458
 21
1537.196474297433
 31
0.0
 70
    32
 71
     5
 42
1100.0
  3
IGS
100
AcDbAlignedDimension
 13
2883.561507820136
 23
2087.196474297433
 33
0.0
 14
2683.561507820136
 24
987.1964742974332
 34
0.0
 50
90.0
100
AcDbRotatedDimension
1001
ACAD
1000
DSTYLE
1002
{
1070
   174
1070
     1
1002
}
  0
DIMENSION
  5
167E
330
1F
100
AcDbEntity
  8
AM_5
100
AcDbDimension
  2
*D27
 10
2489.411438339458
 20
637.1964742974332
 30
0.0
 11
2470.661438339458
 21
812.1964742974338
 31
0.0
 70
    32
 71
     5
 42
350.0
  3
IGS
100
AcDbAlignedDimension
 13
2683.561507820136
 23
987.1964742974332
 33
0.0
 14
2633.561507820136
 24
637.1964742974332
 34
0.0
 50
90.0
100
AcDbRotatedDimension
1001
ACAD
1000
DSTYLE
1002
{
1070
   174
1070
     1
1002
}
  0
DIMENSION
  5
1698
330
1F
100
AcDbEntity
  8
AM_5
100
AcDbDimension
  2
*D28
 10
2489.411438339458
 20
537.1964742974332
 30
0.0
 11
2470.661438339458
 21
587.1964742974337
 31
0.0
 70
    32
 71
     5
 42
100.0
  3
IGS
100
AcDbAlignedDimension
 13
2633.561507820136
 23
637.1964742974332
 33
0.0
 14
2633.561507820136
 24
537.1964742974332
 34
0.0
 50
90.0
100
AcDbRotatedDimension
1001
ACAD
1000
DSTYLE
1002
{
1070
   174
1070
     1
1002
}
  0
DIMENSION
  5
16C4
330
1F
100
AcDbEntity
  8
AM_5
100
AcDbDimension
  2
*D29
 10
3083.561507820136
 20
467.7678161144094
 30
0.0
 11
2891.277299187874
 21
467.7678161144094
 31
0.0
 70
   160
  1
{\Famgdt;o}<>
 71
     5
 42
400.0
  3
IGS
100
AcDbAlignedDimension
 13
2683.561507820136
 23
637.1964742974332
 33
0.0
 14
3083.561507820136
 24
637.1964742974332
 34
0.0
100
AcDbRotatedDimension
  0
DIMENSION
  5
16F5
330
1F
100
AcDbEntity
  8
AM_5
100
AcDbDimension
  2
*D30
 10
3008.561507820136
 20
1116.707980019633
 30
0.0
 11
2883.561507820136
 21
1135.460194586562
 31
0.0
 70
    32
  1
%%c<>
 71
     5
 42
250.0
  3
IGS
100
AcDbAlignedDimension
 13
2758.561507820136
 23
999.1964742974332
 33
0.0
 14
3008.561507820136
 24
999.1964742974332
 34
0.0
100
AcDbRotatedDimension
  0
HATCH
  5
17A7
330
1F
100
AcDbEntity
  8
AM_8
100
AcDbHatch
 10
0.0
 20
0.0
 30
0.0
210
0.0
220
0.0
230
1.0
  2
PLAST
 70
     0
 71
     0
 91
        6
 92
        7
 72
     1
 73
     1
 93
       19
 10
2683.561507820136
 20
637.1964742974333
 42
0.0
 10
2883.561507820136
 20
637.1964742974333
 42
0.0
 10
2883.561507820136
 20
775.1964742974332
 42
0.0
 10
2815.315307820136
 20
775.1964742974332
 42
0.0
 10
2815.315307820136
 20
748.1964742974333
 42
-0.4142135623730951
 10
2778.315307820136
 20
711.1964742974333
 42
0.0
 10
2759.315307820136
 20
711.1964742974331
 42
0.0
 10
2759.315307820136
 20
723.1964742974334
 42
0.0
 10
2778.315307820136
 20
723.1964742974333
 42
0.4142135623730951
 10
2803.315307820136
 20
748.1964742974333
 42
0.0
 10
2803.315307820136
 20
775.1964742974332
 42
0.0
 10
2796.815307820136
 20
775.1964742974331
 42
0.0
 10
2796.815307820136
 20
778.1964742974333
 42
0.0
 10
2803.315307820136
 20
778.1964742974333
 42
0.0
 10
2803.315307820136
 20
984.1964742974331
 42
0.0
 10
2796.815307820136
 20
984.1964742974331
 42
0.0
 10
2796.815307820136
 20
987.1964742974334
 42
0.0
 10
2758.561507820336
 20
987.1964742974332
 42
0.0
 10
2683.561507820136
 20
987.1964742974332
 42
0.0
 97
        0
 92
       22
 72
     0
 73
     1
 93
        4
 10
2815.315307820136
 20
778.1964742974332
 10
2883.561507820136
 20
778.1964742974333
 10
2883.561507820136
 20
984.1964742974333
 10
2815.315307820136
 20
984.1964742974331
 97
        0
 92
        7
 72
     1
 73
     1
 93
        6
 10
2883.561507820136
 20
778.1964742974332
 42
0.0
 10
2951.807707820136
 20
778.1964742974333
 42
0.0
 10
2951.807707820136
 20
840.3168866208924
 42
-0.1588786880252896
 10
2927.256896738636
 20
915.6293437677332
 42
0.0
 10
2927.256896738636
 20
984.1964742974333
 42
0.0
 10
2883.561507820136
 20
984.1964742974333
 42
0.0
 97
        0
 92
        7
 72
     0
 73
     1
 93
        7
 10
2963.807707820136
 20
854.2388231551331
 10
3083.561507820136
 20
937.0252680851308
 10
3083.561507820136
 20
987.1964742974332
 10
3008.561507820136
 20
987.1964742974332
 10
2970.307707820136
 20
987.1964742974332
 10
2970.307707820136
 20
984.1964742974331
 10
2963.807707820136
 20
984.1964742974331
 97
        0
 92
       22
 72
     1
 73
     1
 93
        4
 10
2951.807707820136
 20
984.1964742974333
 42
0.0
 10
2937.256896738636
 20
984.1964742974331
 42
0.0
 10
2937.256896738636
 20
915.6293437677332
 42
0.1262440607546042
 10
2951.807707820136
 20
858.91813482291
 42
0.0
 97
        0
 92
        7
 72
     1
 73
     1
 93
       17
 10
3007.807707820136
 20
723.1964742974331
 42
0.0
 10
3007.807707820136
 20
711.1964742974333
 42
0.0
 10
2988.807707820136
 20
711.1964742974333
 42
-0.4142135623730951
 10
2951.807707820136
 20
748.1964742974333
 42
0.0
 10
2951.807707820136
 20
775.1964742974332
 42
0.0
 10
2883.561507820136
 20
775.1964742974332
 42
0.0
 10
2883.561507820136
 20
637.1964742974332
 42
0.0
 10
3083.561507820136
 20
637.1964742974332
 42
0.0
 10
3083.561507820136
 20
787.8390946911332
 42
0.0
 10
3055.047145815336
 20
787.8390946911332
 42
-0.2014515331552042
 10
2963.807707820136
 20
826.1546953281918
 42
0.0
 10
2963.807707820136
 20
778.1964742974333
 42
0.0
 10
2970.307707820136
 20
778.1964742974333
 42
0.0
 10
2970.307707820136
 20
775.1964742974333
 42
0.0
 10
2963.807707820136
 20
775.1964742974333
 42
0.0
 10
2963.807707820136
 20
748.1964742974333
 42
0.4142135623730951
 10
2988.807707820136
 20
723.1964742974333
 42
0.0
 97
        0
 75
     0
 76
     1
 52
45.0
 41
10.0
 77
     0
 78
     3
 53
45.0
 43
2252.044987718028
 44
110.6934757675526
 45
-44.90128060534575
 46
44.90128060534576
 79
     0
 53
45.0
 43
2246.43232764236
 44
116.3061358432208
 45
-44.90128060534575
 46
44.90128060534576
 79
     0
 53
45.0
 43
2240.819667566692
 44
121.9187959188891
 45
-44.90128060534575
 46
44.90128060534576
 79
     0
 47
1.48373088712841
 98
        6
 10
2740.77697280538
 20
917.9111550367043
 10
2843.173258986802
 20
909.0087697082745
 10
2901.049424697705
 20
891.203999051414
 10
2998.993700854126
 20
926.8135403651349
 10
2945.569550223351
 20
944.6183110219953
 10
3025.705776169513
 20
744.3146389617831
  0
HATCH
  5
17C0
330
1F
100
AcDbEntity
  8
AM_8
100
AcDbHatch
 10
0.0
 20
0.0
 30
0.0
210
0.0
220
0.0
230
1.0
  2
PLAST
 70
     0
 71
     0
 91
        1
 92
        7
 72
     1
 73
     1
 93
        5
 10
3083.561507820136
 20
937.0252680851304
 42
0.0
 10
2963.807707820136
 20
854.2388231551331
 42
0.0
 10
2963.807707820136
 20
841.1316409048424
 42
0.2252134674175405
 10
3055.047145815336
 20
797.8390946911331
 42
0.0
 10
3083.561507820136
 20
797.8390946911331
 42
0.0
 97
        0
 75
     0
 76
     1
 52
45.0
 41
10.0
 77
     0
 78
     3
 53
45.0
 43
2252.044987718028
 44
110.6934757675526
 45
-44.90128060534575
 46
44.90128060534576
 79
     0
 53
45.0
 43
2246.43232764236
 44
116.3061358432208
 45
-44.90128060534575
 46
44.90128060534576
 79
     0
 53
45.0
 43
2240.819667566692
 44
121.9187959188891
 45
-44.90128060534575
 46
44.90128060534576
 79
     0
 47
0.5738545909666221
 98
        1
 10
3061.932677491255
 20
869.1356846507515
  0
LINE
  5
17DA
330
1F
100
AcDbEntity
  8
AM_7
100
AcDbLine
 10
2883.561507820136
 20
2101.166474297433
 30
0.0
 11
2883.561507820136
 21
523.2264742974332
 31
0.0
1001
GENIUS_GENOBJ-N-CEN_13
1002
{
1000
OWNER
1000
GEN
1002
}
1001
GENIUS_GENODEF_13
1002
{
1000
HIER
1070
     0
1002
}
1002
{
1000
MANEDIT
1070
     0
1002
}
1002
{
1000
NOSEL
1070
     0
1002
}
1002
{
1000
BEHIND
1070
     0
1002
}
1002
{
1000
OTHER
1070
     0
1002
}
1002
{
1000
REACTOR
1002
}
  0
INSERT
  5
1826
330
1F
100
AcDbEntity
  8
0
370
     0
100
AcDbBlockReference
  2
IGS_A3
 10
2310.772549435336
 20
2303.590230462804
 30
0.0
 41
5.0
 42
5.0
 43
5.0
 50
270.0
1001
GENIUS_GENOREF_13
1005
1830
1001
GENIUS_GENODEF_13
1002
{
1000
HIER
1070
     0
1002
}
1002
{
1000
MANEDIT
1070
     0
1002
}
1002
{
1000
NOSEL
1070
     0
1002
}
1002
{
1000
BEHIND
1070
     0
1002
}
1002
{
1000
OTHER
1070
     0
1002
}
1002
{
1000
REACTOR
1002
}
1001
GENIUS_GENOBJ-N-SDF_13
1002
{
1000
OWNER
1000
GEN
1002
}
1001
GENIUS_GENSCREG_15
1040
5.0
1040
1.0
1011
2310.772549435336
1021
2303.590230462804
1031
0.0
1011
3795.772549435336
1021
203.5902304628034
1031
0.0
1070
     3
  0
INSERT
  5
1827
330
1F
100
AcDbEntity
  8
0
370
     0
100
AcDbBlockReference
 66
     1
  2
IGS2
 10
3745.77254943532
 20
253.5902304628034
 30
0.0
 41
5.0
 42
5.0
 43
5.0
1001
GENIUS_GENOREF_13
1005
1830
  0
ATTRIB
  5
1829
330
1827
100
AcDbEntity
  8
RAHM3
100
AcDbText
 10
3009.474615869393
 20
413.3266754537338
 30
0.0
 40
20.0
  1
1:5
100
AcDbAttribute
  2
GEN-TITLE-SCA
 70
     0
  0
ATTRIB
  5
182A
330
1827
100
AcDbEntity
  8
RAHM3
100
AcDbText
 10
3380.32254943532
 20
402.2902304628034
 30
0.0
 40
25.0
  1
車止（固定式） ランプ付
100
AcDbAttribute
  2
ＴＩＴＬＥ
 70
     0
  0
ATTRIB
  5
182B
330
1827
100
AcDbEntity
  8
RAHM3
100
AcDbText
 10
3387.958158656117
 20
362.6121460983727
 30
0.0
 40
15.0
  1
IGP-150A-0000
100
AcDbAttribute
  2
ｃｏｄｅ
 70
     0
  0
ATTRIB
  5
182C
330
1827
100
AcDbEntity
  8
RAHM3
100
AcDbText
 10
3392.048516965504
 20
327.6121460983363
 30
0.0
 40
15.0
  1

100
AcDbAttribute
  2
件名
 70
     0
  0
ATTRIB
  5
182D
330
1827
100
AcDbEntity
  8
RAHM3
100
AcDbText
 10
3380.32254943532
 20
262.290230462767
 30
0.0
 40
25.0
  1
Ｔ２１Ａ０５０１２
100
AcDbAttribute
  2
Ｎｏ．
 70
     0
  0
ATTRIB
  5
182E
330
1827
100
AcDbEntity
  8
RAHM3
100
AcDbText
 10
3243.52254943532
 20
340.6256770684362
 30
0.0
 40
20.0
  1

100
AcDbAttribute
  2
ＤＲ
 70
     0
  0
ATTRIB
  5
182F
330
1827
100
AcDbEntity
  8
RAHM3
100
AcDbText
 10
3227.182122915956
 20
317.4402304628034
 30
0.0
 40
15.0
  1

 41
0.8000000000000001
100
AcDbAttribute
  2
ｄａｔｅ
 70
     0
  0
SEQEND
  5
1828
330
1827
100
AcDbEntity
  8
0
370
     0
  0
POINT
  5
1830
330
1F
100
AcDbEntity
  8
0
 60
     1
100
AcDbPoint
 10
0.0
 20
0.0
 30
0.0
1001
GENIUS_GENOENT_13
1002
{
1000
MYREF
1005
1830
1002
}
1002
{
1000
GRP
1005
0
1002
}
1001
GENIUS_GENOBJ-N-TIT_13
1002
{
1000
OWNER
1000
GEN
1002
}
1001
GENIUS_GENODEF_13
1002
{
1000
HIER
1070
     1
1002
}
1002
{
1000
MANEDIT
1070
     0
1002
}
1002
{
1000
NOSEL
1070
     0
1002
}
1002
{
1000
BEHIND
1070
     0
1002
}
1002
{
1000
OTHER
1070
     0
1002
}
1002
{
1000
REACTOR
1002
}
1001
GENIUS_GENOLIS_13
1002
{
1000
ENT
1005
1827
1005
1826
1002
}
1001
GENIUS_GENTITLE_13
1002
{
1000
BORDER
1000
C:\WINNT\Profiles\Administrator\Application Data\Autodesk\AutoCAD\Recent\format\igs_a3
1002
}
1002
{
1000
TITLE
1000
C:\WINNT\Profiles\Administrator\Application Data\Autodesk\AutoCAD\Recent\format\IGS2
1002
}
1002
{
1000
SCALE
1000
1:5
1002
}
1002
{
1000
TITLESTD
1000
IGS
1002
}
1002
{
1000
HRA
1005
1826
1002
}
1002
{
1000
HTIT
1005
1827
1002
}
1002
{
1000
UNCHG
1002
{
1000
GEN-TITLE-SIZ
1000
GEN-TITLE-SCA
1002
}
1002
}
1002
{
1000
GENIUSID
1005
1830
1002
}
  0
TEXT
  5
1951
330
1F
100
AcDbEntity
  8
TEXT
100
AcDbText
 10
3256.531965037099
 20
336.6584729059393
 30
0.0
 40
13.043478258
  1
03.03.31
 41
0.7286891385767685
 72
     5
 11
3298.827617201706
 21
336.6584729059393
 31
0.0
100
AcDbText
  0
INSERT
  5
1952
330
1F
100
AcDbEntity
  8
0
100
AcDbBlockReference
  2
NAKAMURA
 10
3278.371281520246
 20
343.1802120349396
 30
0.0
 41
4.347826086000168
 42
4.347826086000168
 43
4.347826086
  0
LINE
  5
19BE
330
1F
100
AcDbEntity
  8
AM_4
100
AcDbLine
 10
2970.281418890735
 20
861.8605726246331
 30
0.0
 11
2963.807707820136
 21
854.2388231551329
 31
0.0
  0
LINE
  5
19BF
330
1F
100
AcDbEntity
  8
AM_4
100
AcDbLine
 10
2963.807707820136
 20
854.2388231551329
 30
0.0
 11
2973.224980798736
 21
857.6025962817329
 31
0.0
  0
LINE
  5
19C0
330
1F
100
AcDbEntity
  8
AM_4
100
AcDbLine
 10
2963.807707820136
 20
854.2388231551329
 30
0.0
 11
3160.224072708036
 21
990.0225108138331
 31
0.0
  0
CIRCLE
  5
19C1
330
1F
100
AcDbEntity
  8
AM_4
100
AcDbCircle
 10
3180.788519294635
 20
1004.238823155133
 30
0.0
 40
25.0
  0
TEXT
  5
19C2
330
1F
100
AcDbEntity
  8
1
  6
Continuous
 62
     7
100
AcDbText
 10
3170.788519385736
 20
991.7388232582329
 30
0.0
 40
25.0
  1
６
  7
MDRAFSTD
 72
     5
 11
3190.788519385736
 21
991.7388232582329
 31
0.0
100
AcDbText
  0
LINE
  5
19C3
330
1F
100
AcDbEntity
  8
AM_4
100
AcDbLine
 10
2952.014593857536
 20
2062.550907214133
 30
0.0
 11
2944.336773486436
 21
2056.143795981433
 31
0.0
  0
LINE
  5
19C4
330
1F
100
AcDbEntity
  8
AM_4
100
AcDbLine
 10
2944.336773486436
 20
2056.143795981433
 30
0.0
 11
2954.189516589836
 21
2057.853606888333
 31
0.0
  0
LINE
  5
19C5
330
1F
100
AcDbEntity
  8
AM_4
100
AcDbLine
 10
2944.336773486436
 20
2056.143795981433
 30
0.0
 11
3035.875289327136
 21
2098.527545193433
 31
0.0
  0
CIRCLE
  5
19C6
330
1F
100
AcDbEntity
  8
AM_4
100
AcDbCircle
 10
3058.561507820137
 20
2109.031615380133
 30
0.0
 40
25.0
  0
TEXT
  5
19C7
330
1F
100
AcDbEntity
  8
1
  6
Continuous
 62
     7
100
AcDbText
 10
3048.561507385736
 20
2096.531615258233
 30
0.0
 40
25.0
  1
１
 41
1.5
  7
MDRAFSTD
 72
     5
 11
3068.561507385736
 21
2096.531615258233
 31
0.0
100
AcDbText
  0
LINE
  5
19C8
330
1F
100
AcDbEntity
  8
AM_4
100
AcDbLine
 10
2966.239328191336
 20
1805.497761613833
 30
0.0
 11
2958.561507820136
 21
1799.090650381133
 31
0.0
  0
LINE
  5
19C9
330
1F
100
AcDbEntity
  8
AM_4
100
AcDbLine
 10
2958.561507820136
 20
1799.090650381133
 30
0.0
 11
2968.414250923635
 21
1800.800461287933
 31
0.0
  0
LINE
  5
19CA
330
1F
100
AcDbEntity
  8
AM_4
100
AcDbLine
 10
2958.561507820136
 20
1799.090650381133
 30
0.0
 11
3035.875289327136
 21
1834.888127496933
 31
0.0
  0
CIRCLE
  5
19CB
330
1F
100
AcDbEntity
  8
AM_4
100
AcDbCircle
 10
3058.561507820135
 20
1845.392197683633
 30
0.0
 40
25.0
  0
TEXT
  5
19CC
330
1F
100
AcDbEntity
  8
1
  6
Continuous
 62
     7
100
AcDbText
 10
3048.561507385736
 20
1832.892197258233
 30
0.0
 40
25.0
  1
２
  7
MDRAFSTD
 72
     5
 11
3068.561507385736
 21
1832.892197258233
 31
0.0
100
AcDbText
  0
CIRCLE
  5
19CD
330
1F
100
AcDbEntity
  8
AM_4
100
AcDbCircle
 10
2935.035038190536
 20
1630.199924042033
 30
0.0
 40
1.6666666667
  0
LINE
  5
19CE
330
1F
100
AcDbEntity
  8
AM_4
100
AcDbLine
 10
2935.035038190536
 20
1630.199924042033
 30
0.0
 11
3035.875289327136
 21
1676.890520621933
 31
0.0
  0
CIRCLE
  5
19CF
330
1F
100
AcDbEntity
  8
AM_4
100
AcDbCircle
 10
3058.561507820137
 20
1687.394590808633
 30
0.0
 40
25.0
  0
TEXT
  5
19D0
330
1F
100
AcDbEntity
  8
1
  6
Continuous
 62
     7
100
AcDbText
 10
3048.561507385736
 20
1674.894591258233
 30
0.0
 40
25.0
  1
３
  7
MDRAFSTD
 72
     5
 11
3068.561507385736
 21
1674.894591258233
 31
0.0
100
AcDbText
  0
CIRCLE
  5
19D1
330
1F
100
AcDbEntity
  8
AM_4
100
AcDbCircle
 10
2896.560852447636
 20
1941.666494014233
 30
0.0
 40
1.6666666667
  0
LINE
  5
19D2
330
1F
100
AcDbEntity
  8
AM_4
100
AcDbLine
 10
2896.560852447636
 20
1941.666494014233
 30
0.0
 11
3035.595580383736
 21
1999.714268331933
 31
0.0
  0
CIRCLE
  5
19D3
330
1F
100
AcDbEntity
  8
AM_4
100
AcDbCircle
 10
3058.665626431936
 20
2009.346141220033
 30
0.0
 40
25.0
  0
TEXT
  5
19D4
330
1F
100
AcDbEntity
  8
1
  6
Continuous
 62
     7
100
AcDbText
 10
3048.665626385736
 20
1996.846141258233
 30
0.0
 40
25.0
  1
４
  7
MDRAFSTD
 72
     5
 11
3068.665626385736
 21
1996.846141258233
 31
0.0
100
AcDbText
  0
CIRCLE
  5
19D5
330
1F
100
AcDbEntity
  8
AM_4
100
AcDbCircle
 10
2897.725829222637
 20
1507.720917962333
 30
0.0
 40
1.6666666667
  0
LINE
  5
19D6
330
1F
100
AcDbEntity
  8
AM_4
100
AcDbLine
 10
2897.725829222637
 20
1507.720917962333
 30
0.0
 11
3035.875289327136
 21
1571.686255580733
 31
0.0
  0
CIRCLE
  5
19D7
330
1F
100
AcDbEntity
  8
AM_4
100
AcDbCircle
 10
3058.561507820137
 20
1582.190325767433
 30
0.0
 40
25.0
  0
TEXT
  5
19D8
330
1F
100
AcDbEntity
  8
1
  6
Continuous
 62
     7
100
AcDbText
 10
3048.561507385736
 20
1569.690326258233
 30
0.0
 40
25.0
  1
５
  7
MDRAFSTD
 72
     5
 11
3068.561507385736
 21
1569.690326258233
 31
0.0
100
AcDbText
  0
TEXT
  5
1A12
330
1F
100
AcDbEntity
  8
TEXT
100
AcDbText
 10
3256.531965037099
 20
406.6584729059302
 30
0.0
 40
13.043478258
  1
03.03.31
 41
0.7286891385767688
 72
     5
 11
3298.827617201706
 21
406.6584729059302
 31
0.0
100
AcDbText
  0
INSERT
  5
1A13
330
1F
100
AcDbEntity
  8
0
100
AcDbBlockReference
  2
NAKAMURA
 10
3153.371281520236
 20
343.1802120349396
 30
0.0
 41
4.347826086000168
 42
4.347826086000168
 43
4.347826086
  0
TEXT
  5
1A14
330
1F
100
AcDbEntity
  8
TEXT
100
AcDbText
 10
3131.53196503709
 20
336.6584729059393
 30
0.0
 40
13.043478258
  1
03.03.31
 41
0.7286891385767688
 72
     5
 11
3173.827617201697
 21
336.6584729059393
 31
0.0
100
AcDbText
  0
TEXT
  5
1A16
330
1F
100
AcDbEntity
  8
TEXT
100
AcDbText
 10
3131.53196503709
 20
406.6584729059622
 30
0.0
 40
13.043478258
  1
03.03.31
 41
0.7286891385767688
 72
     5
 11
3173.827617201697
 21
406.6584729059622
 31
0.0
100
AcDbText
  0
CIRCLE
  5
1A17
330
1F
100
AcDbEntity
  8
0
100
AcDbCircle
 10
3278.371281520246
 20
413.1802120349304
 30
0.0
 40
24.99999999450097
  0
LINE
  5
1A18
330
1F
100
AcDbEntity
  8
0
100
AcDbLine
 10
3301.810258311664
 20
421.8758642069308
 30
0.0
 11
3254.932304728828
 21
421.8758642069308
 31
0.0
  0
TEXT
  5
1A19
330
1F
100
AcDbEntity
  8
0
100
AcDbText
 10
3272.242724019506
 20
423.0615718931082
 30
0.0
 40
12.50000000000048
  1
松
 50
0.0000000000007491
 72
     4
 11
3278.076057352839
 21
429.3115718931085
 31
0.0
100
AcDbText
  0
TEXT
  5
1A1A
330
1F
100
AcDbEntity
  8
0
100
AcDbText
 10
3273.034714919258
 20
389.9000827284834
 30
0.0
 40
12.50000000000048
  1
本
 50
0.0000000000007491
 72
     4
 11
3278.86804825259
 21
396.1500827284837
 31
0.0
100
AcDbText
  0
LINE
  5
1A1B
330
1F
100
AcDbEntity
  8
0
100
AcDbLine
 10
3301.810258311664
 20
404.4845598629303
 30
0.0
 11
3254.932304728828
 21
404.48455986293
 31
0.0
  0
CIRCLE
  5
1A21
330
1F
100
AcDbEntity
  8
0
100
AcDbCircle
 10
3153.371281520236
 20
413.1802120349624
 30
0.0
 40
24.99999999450097
  0
LINE
  5
1A22
330
1F
100
AcDbEntity
  8
0
100
AcDbLine
 10
3176.810258311654
 20
421.8758642069628
 30
0.0
 11
3129.932304728819
 21
421.8758642069627
 31
0.0
  0
TEXT
  5
1A23
330
1F
100
AcDbEntity
  8
0
100
AcDbText
 10
3147.242724019497
 20
423.0615718931402
 30
0.0
 40
12.50000000000048
  1
篠
 50
0.0000000000007491
 72
     4
 11
3153.07605735283
 21
429.3115718931406
 31
0.0
100
AcDbText
  0
TEXT
  5
1A24
330
1F
100
AcDbEntity
  8
0
100
AcDbText
 10
3148.034714919248
 20
389.9000827285154
 30
0.0
 40
12.50000000000048
  1
崎
 50
0.0000000000007491
 72
     4
 11
3153.868048252582
 21
396.1500827285157
 31
0.0
100
AcDbText
  0
LINE
  5
1A25
330
1F
100
AcDbEntity
  8
0
100
AcDbLine
 10
3176.810258311654
 20
404.4845598629623
 30
0.0
 11
3129.932304728819
 21
404.484559862962
 31
0.0
  0
DIMENSION
  5
1AAD
330
1F
100
AcDbEntity
  8
AM_5
100
AcDbDimension
  2
*D32
 10
3110.57178451577
 20
987.1964742974332
 30
0.0
 11
3110.57178451577
 21
1042.497138667512
 31
0.0
 70
   160
 71
     5
 42
12.0
  3
IGS
100
AcDbAlignedDimension
 13
3008.561507820136
 23
999.1964742974332
 33
0.0
 14
3083.561507820136
 24
987.1964742974332
 34
0.0
 50
90.00000000000003
100
AcDbRotatedDimension
  0
ENDSEC
  0
SECTION
  2
OBJECTS
  0
DICTIONARY
  5
C
330
0
100
AcDbDictionary
281
     1
  3
ACAD_COLOR
350
985
  3
ACAD_GROUP
350
D
  3
ACAD_LAYOUT
350
1A
  3
ACAD_MATERIAL
350
984
  3
ACAD_MLINESTYLE
350
17
  3
ACAD_PLOTSETTINGS
350
19
  3
ACAD_PLOTSTYLENAME
350
E
  3
AcDbVariableDictionary
350
43
  3
AcmDictionary
350
55
  3
AMG
350
2B
  3
AMGSNAPSETTINGS
350
A8
  3
ASE_INDEX_DICTIONARY
350
942
  0
DICTIONARY
  5
1948
330
2
100
AcDbDictionary
280
     1
281
     1
  3
ACAD_LAYERSTATES
360
1949
  0
DICTIONARY
  5
B1
330
1F
100
AcDbDictionary
280
     1
281
     1
  3
ACAD_INDEX
360
B2
  0
DICTIONARY
  5
985
102
{ACAD_REACTORS
330
C
102
}
330
C
100
AcDbDictionary
281
     1
  0
DICTIONARY
  5
D
102
{ACAD_REACTORS
330
C
102
}
330
C
100
AcDbDictionary
281
     1
  0
DICTIONARY
  5
1A
102
{ACAD_REACTORS
330
C
102
}
330
C
100
AcDbDictionary
281
     1
  3
Model
350
22
  3
ﾚｲｱｳﾄ1
350
1E
  3
ﾚｲｱｳﾄ2
350
26
  0
DICTIONARY
  5
984
102
{ACAD_REACTORS
330
C
102
}
330
C
100
AcDbDictionary
281
     1
  0
DICTIONARY
  5
17
102
{ACAD_REACTORS
330
C
102
}
330
C
100
AcDbDictionary
281
     1
  3
Standard
350
18
  0
DICTIONARY
  5
19
102
{ACAD_REACTORS
330
C
102
}
330
C
100
AcDbDictionary
281
     1
  0
ACDBDICTIONARYWDFLT
  5
E
102
{ACAD_REACTORS
330
C
102
}
330
C
100
AcDbDictionary
281
     1
  3
Normal
350
F
100
AcDbDictionaryWithDefault
340
F
  0
DICTIONARY
  5
43
102
{ACAD_REACTORS
330
C
102
}
330
C
100
AcDbDictionary
281
     1
  3
INDEXCTL
350
44
  3
SORTENTS
350
774
  0
DICTIONARY
  5
55
102
{ACAD_REACTORS
330
C
102
}
330
C
100
AcDbDictionary
281
     1
  3
AcmBOM
350
3D1
  3
AcmStdDictionary
350
59
  3
AMDTSECTSYM_ARROWCOLOR
350
98E
  0
DICTIONARY
  5
2B
102
{ACAD_REACTORS
330
C
102
}
330
C
100
AcDbDictionary
281
     1
  0
DICTIONARY
  5
A8
102
{ACAD_REACTORS
330
C
102
}
330
C
100
AcDbDictionary
281
     1
  0
DICTIONARY
  5
942
102
{ACAD_REACTORS
330
C
102
}
330
C
100
AcDbDictionary
281
     1
  3
ASEBlockHierarchyIndexRecord
350
944
1001
DCO15
1040
1418113613.734
  0
DICTIONARY
  5
1949
102
{ACAD_REACTORS
330
1948
102
}
330
1948
100
AcDbDictionary
281
     1
  0
DICTIONARY
  5
B2
102
{ACAD_REACTORS
330
B1
102
}
330
B1
100
AcDbDictionary
281
     1
  3
*A1
350
B3
  0
LAYOUT
  5
22
102
{ACAD_REACTORS
330
1A
102
}
330
1A
100
AcDbPlotSettings
  1

  2
RICOH imagio Neo C380 RPCS
  4
A3
  6
AM_VIEW1
 40
5.873749732971191
 41
5.873747825622558
 42
5.873748779296875
 43
5.873748779296875
 44
296.9259948730469
 45
419.9466552734374
 46
4.089999999999999
 47
11.6
 48
0.0
 49
0.0
140
0.0
141
0.0
142
1.0
143
5.0
 70
 11940
 72
     1
 73
     0
 74
     2
  7
monochrome.ctb
 75
     0
147
0.2
 76
     0
 77
     2
 78
   300
148
-2360.772549435335
149
-253.5902304628034
100
AcDbLayout
  1
Model
 70
     1
 71
     0
 10
0.0
 20
0.0
 11
12.0
 21
9.0
 12
0.0
 22
0.0
 32
0.0
 14
0.0
 24
0.0
 34
0.0
 15
0.0
 25
0.0
 35
0.0
146
0.0
 13
0.0
 23
0.0
 33
0.0
 16
1.0
 26
0.0
 36
0.0
 17
0.0
 27
1.0
 37
0.0
 76
     0
330
1F
  0
LAYOUT
  5
1E
102
{ACAD_REACTORS
330
1A
102
}
330
1A
100
AcDbPlotSettings
  1

  2
MUTOH RL-803C(ﾌﾟﾛｯﾀﾓｰﾄﾞ)
  4

  6

 40
0.0
 41
0.0
 42
0.0
 43
0.0
 44
0.0
 45
0.0
 46
0.0
 47
0.0
 48
0.0
 49
0.0
140
0.0
141
0.0
142
1.0
143
1.0
 70
   688
 72
     0
 73
     0
 74
     5
  7
monochrome.ctb
 75
    16
147
1.0
 76
     0
 77
     2
 78
   300
148
0.0
149
0.0
100
AcDbLayout
  1
ﾚｲｱｳﾄ1
 70
     1
 71
     1
 10
0.0
 20
0.0
 11
420.0
 21
297.0
 12
0.0
 22
0.0
 32
0.0
 14
1.000000000000000E+20
 24
1.000000000000000E+20
 34
1.000000000000000E+20
 15
-1.000000000000000E+20
 25
-1.000000000000000E+20
 35
-1.000000000000000E+20
146
0.0
 13
0.0
 23
0.0
 33
0.0
 16
1.0
 26
0.0
 36
0.0
 17
0.0
 27
1.0
 37
0.0
 76
     0
330
1B
  0
LAYOUT
  5
26
102
{ACAD_REACTORS
330
1A
102
}
330
1A
100
AcDbPlotSettings
  1

  2
MUTOH RL-803C(ﾌﾟﾛｯﾀﾓｰﾄﾞ)
  4

  6

 40
0.0
 41
0.0
 42
0.0
 43
0.0
 44
0.0
 45
0.0
 46
0.0
 47
0.0
 48
0.0
 49
0.0
140
0.0
141
0.0
142
1.0
143
1.0
 70
   688
 72
     0
 73
     0
 74
     5
  7
monochrome.ctb
 75
    16
147
1.0
 76
     0
 77
     2
 78
   300
148
0.0
149
0.0
100
AcDbLayout
  1
ﾚｲｱｳﾄ2
 70
     1
 71
     2
 10
0.0
 20
0.0
 11
12.0
 21
9.0
 12
0.0
 22
0.0
 32
0.0
 14
0.0
 24
0.0
 34
0.0
 15
0.0
 25
0.0
 35
0.0
146
0.0
 13
0.0
 23
0.0
 33
0.0
 16
1.0
 26
0.0
 36
0.0
 17
0.0
 27
1.0
 37
0.0
 76
     0
330
23
  0
MLINESTYLE
  5
18
102
{ACAD_REACTORS
330
17
102
}
330
17
100
AcDbMlineStyle
  2
STANDARD
 70
     0
  3

 62
   256
 51
90.0
 52
90.0
 71
     2
 49
0.5
 62
   256
  6
BYLAYER
 49
-0.5
 62
   256
  6
BYLAYER
  0
ACDBPLACEHOLDER
  5
F
102
{ACAD_REACTORS
330
E
102
}
330
E
  0
DICTIONARYVAR
  5
44
102
{ACAD_REACTORS
330
43
102
}
330
43
100
DictionaryVariables
280
     0
  1
1
  0
DICTIONARYVAR
  5
774
102
{ACAD_REACTORS
330
43
102
}
330
43
100
DictionaryVariables
280
     0
  1
96
  0
DICTIONARY
  5
3D1
102
{ACAD_REACTORS
330
55
102
}
330
55
100
AcDbDictionary
281
     1
  0
DICTIONARY
  5
59
102
{ACAD_REACTORS
330
55
102
}
330
55
100
AcDbDictionary
281
     1
  0
XRECORD
  5
98E
102
{ACAD_REACTORS
330
55
102
}
330
55
100
AcDbXrecord
280
     1
 90
-1023410169
  0
XRECORD
  5
944
102
{ACAD_REACTORS
330
942
102
}
330
942
100
AcDbXrecord
280
     1
330
0
330
0
330
0
330
0
  0
LAYER_INDEX
  5
B3
102
{ACAD_REACTORS
330
B2
102
}
330
B2
100
AcDbIndex
 40
2454714.740846713
100
AcDbLayerIndex
  8
0
360
B4
 90
       15
  8
RAHM2
360
156
 90
        0
  8
AM_BOR
360
4B6
 90
        0
  8
RAHM3
360
4B7
 90
        0
  8
1
360
4B9
 90
      368
  8
DEFPOINTS
360
4BA
 90
        0
  8
7A
360
4BD
 90
        0
  8
AM_5
360
1831
 90
       12
  8
AM_8
360
1832
 90
        2
  8
AM_7
360
1833
 90
       10
  8
TEXT
360
1958
 90
        4
  8
AM_11
360
19B6
 90
        1
  8
AM_4
360
19ED
 90
       21
  0
IDBUFFER
  5
B4
330
0
100
AcDbIdBuffer
330
1826
330
1827
330
1830
330
1952
330
1A13
330
1A17
330
1A18
330
1A19
330
1A1A
330
1A1B
330
1A21
330
1A22
330
1A23
330
1A24
330
1A25
  0
IDBUFFER
  5
156
330
0
100
AcDbIdBuffer
  0
IDBUFFER
  5
4B6
330
0
100
AcDbIdBuffer
  0
IDBUFFER
  5
4B7
330
0
100
AcDbIdBuffer
  0
IDBUFFER
  5
4B9
330
0
100
AcDbIdBuffer
330
DA9
330
DAA
330
DAB
330
DAC
330
DAD
330
DAE
330
DAF
330
DB0
330
DB1
330
E07
330
E62
330
E63
330
E64
330
E66
330
E67
330
E68
330
E69
330
E6A
330
E6B
330
E6C
330
E6D
330
E6E
330
E6F
330
E71
330
E72
330
E73
330
E74
330
E75
330
E76
330
E77
330
E78
330
E79
330
E7A
330
E7B
330
E7C
330
E7D
330
E7E
330
E7F
330
E80
330
E81
330
E82
330
E83
330
E84
330
E85
330
E86
330
E87
330
E88
330
E89
330
E8A
330
E8B
330
E8C
330
E8D
330
E8E
330
E8F
330
E90
330
E91
330
E92
330
E93
330
E94
330
E95
330
E96
330
E97
330
E98
330
E99
330
E9A
330
E9B
330
E9C
330
E9D
330
E9E
330
E9F
330
EA0
330
EA1
330
EA2
330
EA3
330
EA4
330
EA5
330
EA6
330
EA7
330
EA8
330
EA9
330
EAA
330
EAB
330
EAC
330
EAD
330
EAE
330
EAF
330
EB0
330
EB1
330
EB2
330
EB3
330
EB4
330
EB5
330
EB6
330
EB7
330
EB8
330
EB9
330
EBA
330
EBB
330
EBC
330
EBD
330
EBE
330
EBF
330
EC0
330
EC1
330
EC2
330
EC3
330
EC4
330
EC5
330
EC6
330
EC7
330
EC8
330
EC9
330
ECA
330
ECB
330
ECC
330
ECD
330
ECE
330
ECF
330
ED0
330
ED1
330
ED2
330
EDF
330
EE0
330
EE1
330
EE2
330
EE3
330
EE4
330
EE5
330
EE6
330
EE7
330
EE8
330
EE9
330
EEA
330
EEB
330
EEC
330
EED
330
EEE
330
EEF
330
EF0
330
EF1
330
EF2
330
EF3
330
EF4
330
EF5
330
EF6
330
EF7
330
EF8
330
EF9
330
EFA
330
EFB
330
EFC
330
F18
330
F19
330
F1A
330
F1B
330
F1C
330
F1D
330
F1E
330
F1F
330
F21
330
F22
330
F23
330
F24
330
F25
330
F26
330
F27
330
F28
330
F29
330
F2A
330
F2B
330
F2C
330
F2D
330
F2E
330
F2F
330
F30
330
F31
330
F32
330
F33
330
F34
330
F35
330
F36
330
F37
330
F38
330
F3F
330
F47
330
F48
330
F49
330
F4A
330
F4B
330
F4C
330
F4D
330
F4E
330
F4F
330
F50
330
F51
330
F5D
330
F69
330
F6A
330
F6B
330
F6C
330
F6D
330
F6E
330
F6F
330
F70
330
F71
330
F72
330
F73
330
F74
330
F75
330
F81
330
F8D
330
F8E
330
F8F
330
F90
330
F91
330
F92
330
F93
330
F94
330
F95
330
F96
330
F97
330
F98
330
F99
330
F9A
330
F9B
330
F9C
330
F9D
330
F9E
330
F9F
330
FA0
330
FA1
330
FA2
330
FA3
330
FA4
330
FA5
330
FA6
330
FA7
330
FA8
330
FA9
330
FAA
330
FAB
330
FAC
330
FAD
330
FAE
330
FAF
330
FB0
330
FB1
330
FB2
330
FB3
330
FB4
330
FB5
330
FB6
330
FB7
330
FB8
330
FB9
330
FBA
330
FBB
330
FBC
330
FBD
330
FBE
330
FBF
330
FC0
330
FC1
330
FC2
330
FC3
330
FC4
330
FC5
330
FC6
330
FC7
330
FC8
330
FC9
330
FCA
330
FCB
330
FCC
330
FCD
330
FCE
330
FCF
330
FD2
330
FD3
330
FD4
330
FD5
330
FD6
330
FD7
330
FD8
330
FD9
330
FDA
330
FDB
330
FDC
330
FDD
330
FDE
330
FDF
330
FE0
330
FE1
330
FE3
330
FE4
330
FE5
330
FE6
330
FE7
330
FE8
330
FE9
330
FEA
330
FEB
330
FEC
330
FED
330
FEE
330
FEF
330
FF0
330
FF1
330
FF2
330
FF3
330
FF4
330
FF5
330
FF6
330
FF7
330
FF8
330
FF9
330
FFA
330
FFB
330
FFC
330
FFD
330
FFE
330
FFF
330
1000
330
1001
330
1002
330
1003
330
1004
330
1005
330
1006
330
1007
330
1008
330
1009
330
100A
330
100B
330
1010
330
1011
330
1012
330
1013
330
1014
330
1015
330
1016
330
1017
330
1018
330
1019
330
101A
330
101B
330
1047
330
104F
330
1050
330
1051
330
1052
330
1053
330
1054
330
1055
330
1056
330
1057
330
1058
330
1059
330
105A
330
105B
330
105C
330
105D
330
19C2
330
19C7
330
19CC
330
19D0
330
19D4
330
19D8
  0
IDBUFFER
  5
4BA
330
0
100
AcDbIdBuffer
  0
IDBUFFER
  5
4BD
330
0
100
AcDbIdBuffer
  0
IDBUFFER
  5
1831
330
0
100
AcDbIdBuffer
330
14A9
330
1534
330
155A
330
15CA
330
1604
330
1630
330
1658
330
167E
330
1698
330
16C4
330
16F5
330
1AAD
  0
IDBUFFER
  5
1832
330
0
100
AcDbIdBuffer
330
17A7
330
17C0
  0
IDBUFFER
  5
1833
330
0
100
AcDbIdBuffer
330
E65
330
E70
330
1048
330
1049
330
104A
330
104B
330
104C
330
104D
330
104E
330
17DA
  0
IDBUFFER
  5
1958
330
0
100
AcDbIdBuffer
330
1951
330
1A12
330
1A14
330
1A16
  0
IDBUFFER
  5
19B6
330
0
100
AcDbIdBuffer
330
F02
  0
IDBUFFER
  5
19ED
330
0
100
AcDbIdBuffer
330
19BE
330
19BF
330
19C0
330
19C1
330
19C3
330
19C4
330
19C5
330
19C6
330
19C8
330
19C9
330
19CA
330
19CB
330
19CD
330
19CE
330
19CF
330
19D1
330
19D2
330
19D3
330
19D5
330
19D6
330
19D7
  0
ENDSEC
  0
EOF
