  0
SECTION
  2
HEADER
  9
$ACADVER
  1
AC1018
  9
$ACADMAINTVER
 70
     2
  9
$DWGCODEPAGE
  3
ANSI_932
  9
$CUSTOMPROPERTYTAG
  1
AmdtFileType
  9
$CUSTOMPROPERTY
  1
84
  9
$INSBASE
 10
0.0
 20
0.0
 30
0.0
  9
$EXTMIN
 10
172.9969030459603
 20
124.9162298708806
 30
0.0
  9
$EXTMAX
 10
1557.996903045961
 20
2124.91622987089
 30
260.0
  9
$LIMMIN
 10
172.9969030459603
 20
124.9162298708897
  9
$LIMMAX
 10
1557.99690304596
 20
2124.916229870889
  9
$ORTHOMODE
 70
     0
  9
$REGENMODE
 70
     1
  9
$FILLMODE
 70
     1
  9
$QTEXTMODE
 70
     0
  9
$MIRRTEXT
 70
     1
  9
$LTSCALE
 40
5.0
  9
$ATTMODE
 70
     1
  9
$TEXTSIZE
 40
2.5
  9
$TRACEWID
 40
1.0
  9
$TEXTSTYLE
  7
STANDARD
  9
$CLAYER
  8
8
  9
$CELTYPE
  6
ByLayer
  9
$CECOLOR
 62
   256
  9
$CELTSCALE
 40
1.0
  9
$DISPSILH
 70
     0
  9
$DIMSCALE
 40
1.0
  9
$DIMASZ
 40
2.5
  9
$DIMEXO
 40
1.0
  9
$DIMDLI
 40
10.0
  9
$DIMRND
 40
0.0
  9
$DIMDLE
 40
0.0
  9
$DIMEXE
 40
1.0
  9
$DIMTP
 40
0.1
  9
$DIMTM
 40
0.1
  9
$DIMTXT
 40
4.5
  9
$DIMCEN
 40
0.0
  9
$DIMTSZ
 40
0.0
  9
$DIMTOL
 70
     0
  9
$DIMLIM
 70
     0
  9
$DIMTIH
 70
     0
  9
$DIMTOH
 70
     0
  9
$DIMSE1
 70
     0
  9
$DIMSE2
 70
     0
  9
$DIMTAD
 70
     3
  9
$DIMZIN
 70
     8
  9
$DIMBLK
  1
Open30
  9
$DIMASO
 70
     1
  9
$DIMSHO
 70
     1
  9
$DIMPOST
  1

  9
$DIMAPOST
  1
"
  9
$DIMALT
 70
     0
  9
$DIMALTD
 70
     2
  9
$DIMALTF
 40
0.0393701
  9
$DIMLFAC
 40
1.0
  9
$DIMTOFL
 70
     1
  9
$DIMTVP
 40
0.0
  9
$DIMTIX
 70
     0
  9
$DIMSOXD
 70
     0
  9
$DIMSAH
 70
     0
  9
$DIMBLK1
  1

  9
$DIMBLK2
  1

  9
$DIMSTYLE
  2
IGS
  9
$DIMCLRD
 70
   256
  9
$DIMCLRE
 70
   256
  9
$DIMCLRT
 70
     2
  9
$DIMTFAC
 40
0.71
  9
$DIMGAP
 40
1.5
  9
$DIMJUST
 70
     0
  9
$DIMSD1
 70
     0
  9
$DIMSD2
 70
     0
  9
$DIMTOLJ
 70
     0
  9
$DIMTZIN
 70
     8
  9
$DIMALTZ
 70
     0
  9
$DIMALTTZ
 70
     0
  9
$DIMUPT
 70
     0
  9
$DIMDEC
 70
     2
  9
$DIMTDEC
 70
     2
  9
$DIMALTU
 70
     2
  9
$DIMALTTD
 70
     2
  9
$DIMTXSTY
  7
STANDARD
  9
$DIMAUNIT
 70
     0
  9
$DIMADEC
 70
     0
  9
$DIMALTRND
 40
0.0
  9
$DIMAZIN
 70
     2
  9
$DIMDSEP
 70
    46
  9
$DIMATFIT
 70
     3
  9
$DIMFRAC
 70
     0
  9
$DIMLDRBLK
  1
Open30
  9
$DIMLUNIT
 70
     2
  9
$DIMLWD
 70
    -1
  9
$DIMLWE
 70
    -1
  9
$DIMTMOVE
 70
     0
  9
$LUNITS
 70
     2
  9
$LUPREC
 70
     2
  9
$SKETCHINC
 40
1.0
  9
$FILLETRAD
 40
0.0
  9
$AUNITS
 70
     0
  9
$AUPREC
 70
     0
  9
$MENU
  1
.
  9
$ELEVATION
 40
0.0
  9
$PELEVATION
 40
0.0
  9
$THICKNESS
 40
0.0
  9
$LIMCHECK
 70
     0
  9
$CHAMFERA
 40
12.5
  9
$CHAMFERB
 40
12.5
  9
$CHAMFERC
 40
20.0
  9
$CHAMFERD
 40
0.0
  9
$SKPOLY
 70
     0
  9
$TDCREATE
 40
2453564.383140729
  9
$TDUCREATE
 40
2453564.008140729
  9
$TDUPDATE
 40
2454714.741047812
  9
$TDUUPDATE
 40
2454714.366047813
  9
$TDINDWG
 40
0.0408213889
  9
$TDUSRTIMER
 40
0.0408213889
  9
$USRTIMER
 70
     1
  9
$ANGBASE
 50
0.0
  9
$ANGDIR
 70
     0
  9
$PDMODE
 70
     0
  9
$PDSIZE
 40
0.0
  9
$PLINEWID
 40
0.0
  9
$SPLFRAME
 70
     0
  9
$SPLINETYPE
 70
     6
  9
$SPLINESEGS
 70
     8
  9
$HANDSEED
  5
117D
  9
$SURFTAB1
 70
     6
  9
$SURFTAB2
 70
     6
  9
$SURFTYPE
 70
     6
  9
$SURFU
 70
     6
  9
$SURFV
 70
     6
  9
$UCSBASE
  2

  9
$UCSNAME
  2

  9
$UCSORG
 10
0.0
 20
0.0
 30
0.0
  9
$UCSXDIR
 10
1.0
 20
0.0
 30
0.0
  9
$UCSYDIR
 10
0.0
 20
1.0
 30
0.0
  9
$UCSORTHOREF
  2

  9
$UCSORTHOVIEW
 70
     0
  9
$UCSORGTOP
 10
0.0
 20
0.0
 30
0.0
  9
$UCSORGBOTTOM
 10
0.0
 20
0.0
 30
0.0
  9
$UCSORGLEFT
 10
0.0
 20
0.0
 30
0.0
  9
$UCSORGRIGHT
 10
0.0
 20
0.0
 30
0.0
  9
$UCSORGFRONT
 10
0.0
 20
0.0
 30
0.0
  9
$UCSORGBACK
 10
0.0
 20
0.0
 30
0.0
  9
$PUCSBASE
  2

  9
$PUCSNAME
  2

  9
$PUCSORG
 10
0.0
 20
0.0
 30
0.0
  9
$PUCSXDIR
 10
1.0
 20
0.0
 30
0.0
  9
$PUCSYDIR
 10
0.0
 20
1.0
 30
0.0
  9
$PUCSORTHOREF
  2

  9
$PUCSORTHOVIEW
 70
     0
  9
$PUCSORGTOP
 10
0.0
 20
0.0
 30
0.0
  9
$PUCSORGBOTTOM
 10
0.0
 20
0.0
 30
0.0
  9
$PUCSORGLEFT
 10
0.0
 20
0.0
 30
0.0
  9
$PUCSORGRIGHT
 10
0.0
 20
0.0
 30
0.0
  9
$PUCSORGFRONT
 10
0.0
 20
0.0
 30
0.0
  9
$PUCSORGBACK
 10
0.0
 20
0.0
 30
0.0
  9
$USERI1
 70
     0
  9
$USERI2
 70
     0
  9
$USERI3
 70
     0
  9
$USERI4
 70
     0
  9
$USERI5
 70
     0
  9
$USERR1
 40
0.0
  9
$USERR2
 40
0.0
  9
$USERR3
 40
0.0
  9
$USERR4
 40
0.0
  9
$USERR5
 40
0.0
  9
$WORLDVIEW
 70
     1
  9
$SHADEDGE
 70
     3
  9
$SHADEDIF
 70
    70
  9
$TILEMODE
 70
     1
  9
$MAXACTVP
 70
    64
  9
$PINSBASE
 10
0.0
 20
0.0
 30
0.0
  9
$PLIMCHECK
 70
     0
  9
$PEXTMIN
 10
1.000000000000000E+20
 20
1.000000000000000E+20
 30
1.000000000000000E+20
  9
$PEXTMAX
 10
-1.000000000000000E+20
 20
-1.000000000000000E+20
 30
-1.000000000000000E+20
  9
$PLIMMIN
 10
0.0
 20
0.0
  9
$PLIMMAX
 10
420.0
 20
297.0
  9
$UNITMODE
 70
     0
  9
$VISRETAIN
 70
     1
  9
$PLINEGEN
 70
     0
  9
$PSLTSCALE
 70
     1
  9
$TREEDEPTH
 70
  3020
  9
$CMLSTYLE
  2
Standard
  9
$CMLJUST
 70
     0
  9
$CMLSCALE
 40
20.0
  9
$PROXYGRAPHICS
 70
     1
  9
$MEASUREMENT
 70
     1
  9
$CELWEIGHT
370
    -1
  9
$ENDCAPS
280
     0
  9
$JOINSTYLE
280
     0
  9
$LWDISPLAY
290
     0
  9
$INSUNITS
 70
     4
  9
$HYPERLINKBASE
  1

  9
$STYLESHEET
  1
monochrome.ctb
  9
$XEDIT
290
     1
  9
$CEPSNTYPE
380
     0
  9
$PSTYLEMODE
290
     1
  9
$FINGERPRINTGUID
  2
{A179640A-E7AE-11D4-BDB4-00B0D0A1239A}
  9
$VERSIONGUID
  2
{530239AA-AE00-4828-81D1-21B1A1184076}
  9
$EXTNAMES
290
     1
  9
$PSVPSCALE
 40
0.0
  9
$OLESTARTUP
290
     0
  9
$SORTENTS
280
   103
  9
$INDEXCTL
280
     1
  9
$HIDETEXT
280
     0
  9
$XCLIPFRAME
290
     0
  9
$HALOGAP
280
     0
  9
$OBSCOLOR
 70
   257
  9
$OBSLTYPE
280
     0
  9
$INTERSECTIONDISPLAY
280
     0
  9
$INTERSECTIONCOLOR
 70
   257
  9
$DIMASSOC
280
     1
  9
$PROJECTNAME
  1

  0
ENDSEC
  0
SECTION
  2
CLASSES
  0
CLASS
  1
ACDBDICTIONARYWDFLT
  2
AcDbDictionaryWithDefault
  3
ObjectDBX Classes
 90
        0
 91
        1
280
     0
281
     0
  0
CLASS
  1
AMGSETTINGSOBJ
  2
AmgSettingsObj
  3
"AcadM|Product Description: AutoCAD Mechanical 2000|Company: Autodesk"
 90
        0
 91
        4
280
     0
281
     0
  0
CLASS
  1
AMGOBJPROPCFG
  2
AmgObjPropCfg
  3
"AmgLay|Product Description: AutoCAD Mechanical 2000|Company: Autodesk"
 90
        1
 91
        1
280
     0
281
     0
  0
CLASS
  1
ACME_DOCUMENT
  2
AcMeDbDoc
  3
AcMeServices
 90
        0
 91
        2
280
     0
281
     0
  0
CLASS
  1
ACMESCOPE
  2
AcMeScope
  3
AcMeServices
 90
        0
 91
        1
280
     0
281
     0
  0
CLASS
  1
ACMECOMMANDHISTORY
  2
AcMeCommandHistory
  3
AcMeServices
 90
        0
 91
        1
280
     0
281
     0
  0
CLASS
  1
DICTIONARYVAR
  2
AcDbDictionaryVar
  3
ObjectDBX Classes
 90
        0
 91
        2
280
     0
281
     0
  0
CLASS
  1
ACIMSYSVARMAN
  2
AcImSysVarManager
  3
AcMeServices
 90
        0
 91
        5
280
     0
281
     0
  0
CLASS
  1
ACIMREALSYSVAR
  2
AcImRealSysVar
  3
AcMeServices
 90
        0
 91
        3
280
     0
281
     0
  0
CLASS
  1
ACIMINTSYSVAR
  2
AcImIntSysVar
  3
AcMeServices
 90
        0
 91
       26
280
     0
281
     0
  0
CLASS
  1
ACMEDRAWINGMAN
  2
AcMeDrawingMan
  3
AcMeServices
 90
        0
 91
        1
280
     0
281
     0
  0
CLASS
  1
ACMEVIEW
  2
AcMeView
  3
AcMeServices
 90
        0
 91
        1
280
     0
281
     0
  0
CLASS
  1
ACDBENTITYCACHE
  2
AcMeEntityCache
  3
AcMeServices
 90
        0
 91
        1
280
     0
281
     0
  0
CLASS
  1
GSMANAGER
  2
AcMeGSManager
  3
AcMeServices
 90
        0
 91
        1
280
     0
281
     0
  0
CLASS
  1
AMDTINTERNALREACTOR
  2
AmdtInternalReactor
  3
AcMeServices
 90
        0
 91
        3
280
     0
281
     0
  0
CLASS
  1
ACMESTATEMGR
  2
AcMeStateMgr
  3
AcMeServices
 90
        0
 91
        1
280
     0
281
     0
  0
CLASS
  1
ACGREFMASTER
  2
AcGrefMaster
  3
AcAttribServices
 90
        0
 91
        1
280
     0
281
     0
  0
CLASS
  1
ACME_DATABASE
  2
AcMeDbDatabase
  3
AcMeServices
 90
        0
 91
        1
280
     0
281
     0
  0
CLASS
  1
ACRFINSADJUSTERMGR
  2
AcRfInsAdjusterMgr
  3
AcMeServices
 90
        0
 91
        1
280
     0
281
     0
  0
CLASS
  1
ACGREFACADMASTER
  2
AcGrefacadMaster
  3
AcGrefServices
 90
        0
 91
        1
280
     0
281
     0
  0
CLASS
  1
AMIMASTER
  2
AmiMaster
  3
AmiServices
 90
        0
 91
        1
280
     0
281
     0
  0
CLASS
  1
ACMDATADICTIONARY
  2
AcmDataDictionary
  3
"AcmSymBB|Product Description: AutoCAD Mechanical 2004 DX|Company: Autodesk"
 90
        0
 91
        1
280
     0
281
     0
  0
CLASS
  1
ACMDATAENTRYBLOCK
  2
AcmDataEntryBlock
  3
"AcmSymBB|Product Description: AutoCAD Mechanical 2004 DX|Company: Autodesk"
 90
        0
 91
        1
280
     0
281
     0
  0
CLASS
  1
ACMSTANDARDJIS
  2
AcmStandardJIS
  3
"Amdt_StdImp|Product Description: AutoCAD Mechanical 2004 DX|Company: Autodesk"
 90
        0
 91
        1
280
     0
281
     0
  0
CLASS
  1
ACMSURFSTANDARDJIS
  2
AcmSurfTextStdJIS
  3
"Amdt_StdImp|Product Description: AutoCAD Mechanical 2004 DX|Company: Autodesk"
 90
        0
 91
        1
280
     0
281
     0
  0
CLASS
  1
ACMFCFSTANDARDJIS
  2
AcmFCFStdJIS
  3
"Amdt_StdImp|Product Description: AutoCAD Mechanical 2004 DX|Company: Autodesk"
 90
        0
 91
        1
280
     0
281
     0
  0
CLASS
  1
ACMWELDSTANDARDJIS
  2
AcmWeldingStdJIS
  3
"Amdt_StdImp|Product Description: AutoCAD Mechanical 2004 DX|Company: Autodesk"
 90
        0
 91
        1
280
     0
281
     0
  0
CLASS
  1
ACMIDSTANDARDJIS
  2
AcmIdStdJIS
  3
"Amdt_StdImp|Product Description: AutoCAD Mechanical 2004 DX|Company: Autodesk"
 90
        0
 91
        1
280
     0
281
     0
  0
CLASS
  1
ACMDATUMSTANDARDJIS
  2
AcmDatumStdJIS
  3
"Amdt_StdImp|Product Description: AutoCAD Mechanical 2004 DX|Company: Autodesk"
 90
        0
 91
        1
280
     0
281
     0
  0
CLASS
  1
ACMBOMSTANDARDJIS
  2
AcmBOMStdJIS
  3
"Amdt_StdImp|Product Description: AutoCAD Mechanical 2004 DX|Company: Autodesk"
 90
        0
 91
        1
280
     0
281
     0
  0
CLASS
  1
ACMDETAILSTANDARDJIS
  2
AmdtDetailSymStdJIS
  3
"Amdt_StdImp|Product Description: AutoCAD Mechanical 2004 DX|Company: Autodesk"
 90
        0
 91
        1
280
     0
281
     0
  0
CLASS
  1
ACMSECTIONSTANDARDJIS
  2
AmdtSectionSymStdJIS
  3
"Amdt_StdImp|Product Description: AutoCAD Mechanical 2004 DX|Company: Autodesk"
 90
        0
 91
        1
280
     0
281
     0
  0
CLASS
  1
ACMCENTERLINESTANDARDJIS
  2
AmdtCenterLineStdJIS
  3
"Amdt_StdImp|Product Description: AutoCAD Mechanical 2004 DX|Company: Autodesk"
 90
        0
 91
        1
280
     0
281
     0
  0
CLASS
  1
ACAMGLAYSTD
  2
AcAmgLayStd
  3
"AcAmgLayStd|Product Description: AutoCAD Mechanical 2000|Company: Autodesk"
 90
        0
 91
        2
280
     0
281
     0
  0
CLASS
  1
ACAMGDIMSTD
  2
AcAmgDimStd
  3
"AcAmgDimStd|Product Description: AutoCAD Mechanical 2000|Company: Autodesk"
 90
        0
 91
        2
280
     0
281
     0
  0
CLASS
  1
ACAMGTITLESTD
  2
AcAmgTitleStd
  3
"TITLEAPP"
 90
        0
 91
        2
280
     0
281
     0
  0
CLASS
  1
ACMSTANDARDISO
  2
AcmStandardISO
  3
"Amdt_StdImp|Product Description: AutoCAD Mechanical 2004 DX|Company: Autodesk"
 90
        0
 91
        1
280
     0
281
     0
  0
CLASS
  1
AMDTEDGESTANDARDISO
  2
AmdtEdgeStdISO
  3
"Amdt_StdImp|Product Description: AutoCAD Mechanical 2004 DX|Company: Autodesk"
 90
        0
 91
        1
280
     0
281
     0
  0
CLASS
  1
ACMSURFSTANDARDISO
  2
AcmSurfTextStdISO
  3
"Amdt_StdImp|Product Description: AutoCAD Mechanical 2004 DX|Company: Autodesk"
 90
        0
 91
        1
280
     0
281
     0
  0
CLASS
  1
ACMFCFSTANDARDISO
  2
AcmFCFStdISO
  3
"Amdt_StdImp|Product Description: AutoCAD Mechanical 2004 DX|Company: Autodesk"
 90
        0
 91
        1
280
     0
281
     0
  0
CLASS
  1
ACMWELDSTANDARDISO
  2
AcmWeldingStdISO
  3
"Amdt_StdImp|Product Description: AutoCAD Mechanical 2004 DX|Company: Autodesk"
 90
        0
 91
        1
280
     0
281
     0
  0
CLASS
  1
ACMIDSTANDARDISO
  2
AcmIdStdISO
  3
"Amdt_StdImp|Product Description: AutoCAD Mechanical 2004 DX|Company: Autodesk"
 90
        0
 91
        1
280
     0
281
     0
  0
CLASS
  1
ACMDATUMSTANDARDISO
  2
AcmDatumStdISO
  3
"Amdt_StdImp|Product Description: AutoCAD Mechanical 2004 DX|Company: Autodesk"
 90
        0
 91
        1
280
     0
281
     0
  0
CLASS
  1
ACMBOMSTANDARDISO
  2
AcmBOMStdISO
  3
"Amdt_StdImp|Product Description: AutoCAD Mechanical 2004 DX|Company: Autodesk"
 90
        0
 91
        1
280
     0
281
     0
  0
CLASS
  1
ACMDETAILSTANDARDISO
  2
AmdtDetailSymStdISO
  3
"Amdt_StdImp|Product Description: AutoCAD Mechanical 2004 DX|Company: Autodesk"
 90
        0
 91
        1
280
     0
281
     0
  0
CLASS
  1
ACMSECTIONSTANDARDISO
  2
AmdtSectionSymStdISO
  3
"Amdt_StdImp|Product Description: AutoCAD Mechanical 2004 DX|Company: Autodesk"
 90
        0
 91
        1
280
     0
281
     0
  0
CLASS
  1
ACMCENTERLINESTANDARDISO
  2
AmdtCenterLineStdISO
  3
"Amdt_StdImp|Product Description: AutoCAD Mechanical 2004 DX|Company: Autodesk"
 90
        0
 91
        1
280
     0
281
     0
  0
CLASS
  1
ACIMSTRSYSVAR
  2
AcImStrSysVar
  3
AcMeServices
 90
        0
 91
        5
280
     0
281
     0
  0
CLASS
  1
ACAMGFILTERDAT
  2
AcAmgFilterDat
  3
"AcadM|Product Description: AutoCAD Mechanical 2000|Company: Autodesk"
 90
        0
 91
        6
280
     0
281
     0
  0
CLASS
  1
LAYER_INDEX
  2
AcDbLayerIndex
  3
ObjectDBX Classes
 90
        0
 91
        1
280
     0
281
     0
  0
CLASS
  1
IDBUFFER
  2
AcDbIdBuffer
  3
ObjectDBX Classes
 90
        0
 91
       20
280
     0
281
     0
  0
CLASS
  1
AMDTFORMULAUPDATEDISPATCHER
  2
AmdtFormulaUpdateDispatcher
  3
AcMeServices
 90
        0
 91
        1
280
     0
281
     0
  0
CLASS
  1
ACMDATAENTRYPART
  2
AcmDataEntryPart
  3
"AcmSymBB|Product Description: AutoCAD Mechanical 2004 DX|Company: Autodesk"
 90
        0
 91
        1
280
     0
281
     0
  0
CLASS
  1
ACMPARTREF
  2
AcmPartRef
  3
"AcmSymBB|Product Description: AutoCAD Mechanical 2004 DX|Company: Autodesk"
 90
     1023
 91
        1
280
     0
281
     1
  0
CLASS
  1
ACMDATAENTRY
  2
AcmDataEntry
  3
"AcmSymBB|Product Description: AutoCAD Mechanical 2004 DX|Company: Autodesk"
 90
        0
 91
        5
280
     0
281
     0
  0
CLASS
  1
ACMBOM
  2
AcmBom
  3
"AcmSymBB|Product Description: AutoCAD Mechanical 2004 DX|Company: Autodesk"
 90
        0
 91
        2
280
     0
281
     0
  0
CLASS
  1
ACMBOMROW
  2
AcmBomRow
  3
"AcmSymBB|Product Description: AutoCAD Mechanical 2004 DX|Company: Autodesk"
 90
        0
 91
        2
280
     0
281
     0
  0
CLASS
  1
ACMBALLOON
  2
AcmBalloon
  3
"AcmSymBB|Product Description: AutoCAD Mechanical 2004 DX|Company: Autodesk"
 90
     1023
 91
        1
280
     0
281
     1
  0
CLASS
  1
ACMPARTLIST
  2
AcmPartList
  3
"AcmSymBB|Product Description: AutoCAD Mechanical 2004 DX|Company: Autodesk"
 90
     1023
 91
        1
280
     0
281
     1
  0
CLASS
  1
ACDBLINERES
  2
AcDbLineRes
  3
AcGrefServices
 90
        0
 91
        1
280
     0
281
     0
  0
CLASS
  1
ACRFINSADJ
  2
AcRfInsAdjuster
  3
AcMeServices
 90
        0
 91
        0
280
     0
281
     0
  0
CLASS
  1
STDPART2D
  2
AmgStdPart
  3
"AmgStdPart|Product Description: AutoCAD Mechanical 2000|Company: Autodesk"
 90
     1023
 91
        0
280
     0
281
     1
  0
CLASS
  1
ACDBSTDPARTRES_ARC
  2
AcDbStdPartRes_Arc
  3
"AcDbStdPartRes_Arc|Product Description: AutoCAD Mechanical 2000|Company: Autodesk"
 90
        0
 91
        0
280
     0
281
     0
  0
CLASS
  1
ACMPICKOBJ
  2
AcmPickEnt
  3
"AcmSymBB|Product Description: AutoCAD Mechanical 2004 DX|Company: Autodesk"
 90
        0
 91
        0
280
     0
281
     1
  0
CLASS
  1
ACDBSTDPARTRES_LINE
  2
AcDbStdPartRes_Line
  3
"AcDbStdPartRes_Line|Product Description: AutoCAD Mechanical 2000|Company: Autodesk"
 90
        0
 91
        0
280
     0
281
     0
  0
CLASS
  1
AM_DRAWING_MGR
  2
AcDmDwgMgr
  3
AcMechDwgViewMgmt
 90
        0
 91
        1
280
     0
281
     0
  0
CLASS
  1
AM_DWG_DOCUMENT
  2
AcDmDwgDocument
  3
AcMechDwgViewMgmt
 90
        0
 91
        1
280
     0
281
     0
  0
CLASS
  1
AM_DWG_SHEET
  2
AcDmSheet
  3
AcMechDwgViewMgmt
 90
        0
 91
        2
280
     0
281
     0
  0
CLASS
  1
AM_VIEWDIMPARMAP
  2
AcDmViewDimParMap
  3
AcMechDwgViewMgmt
 90
        0
 91
        2
280
     0
281
     0
  0
CLASS
  1
AM_DWGMGR_NAME
  2
AcDmDwgMgrName
  3
AcMechDwgViewMgmt
 90
        0
 91
        1
280
     0
281
     0
  0
CLASS
  1
AMDTMENUSTATEMGR
  2
AmdtMenuStateMgr
  3
McadcomServices
 90
        0
 91
        1
280
     0
281
     0
  0
CLASS
  1
AMDTMCOMMENUSTATE
  2
AmdtMcomMenuState
  3
McadcomServices
 90
        0
 91
        1
280
     0
281
     0
  0
CLASS
  1
MAPIAMMOUDLE
  2
MApiAmModule
  3
MApiAmServices
 90
        0
 91
        1
280
     0
281
     0
  0
CLASS
  1
AMDTADMENUSTATE
  2
AmdtAdMenuState
  3
DesignerServices
 90
        0
 91
        1
280
     0
281
     0
  0
CLASS
  1
ADAPPL
  2
AcAdAppl
  3
DesignerServices
 90
        0
 91
        1
280
     0
281
     0
  0
CLASS
  1
DEPMGR
  2
AcAdDepMgr
  3
DesignerServices
 90
        0
 91
        1
280
     0
281
     0
  0
CLASS
  1
PARAMMGR
  2
AcAdParamMgr
  3
DesignerServices
 90
        0
 91
        1
280
     0
281
     0
  0
CLASS
  1
PARAMSCOPE
  2
AcAdParamScope
  3
DesignerServices
 90
        0
 91
        1
280
     0
281
     0
  0
CLASS
  1
NAMEDAPPL
  2
AcAdNamedAppl
  3
DesignerServices
 90
        0
 91
        1
280
     0
281
     0
  0
CLASS
  1
AMDTDMMENUSTATE
  2
AmdtDmMenuState
  3
AcMechDwgViewMgmt
 90
        0
 91
        1
280
     0
281
     0
  0
CLASS
  1
AMDTAMMENUSTATE
  2
AmdtAmMenuState
  3
DesignerAssemblies
 90
        0
 91
        1
280
     0
281
     0
  0
CLASS
  1
ACAMPROJECT
  2
AcAmProject
  3
DesignerAssemblies
 90
        0
 91
        1
280
     0
281
     0
  0
CLASS
  1
ACAMGRCOMPDEF
  2
AcAmGrCompDef
  3
DesignerAssemblies
 90
        0
 91
        1
280
     0
281
     0
  0
CLASS
  1
ACCMCONTEXT
  2
AcCmContext
  3
DesignerAssemblies
 90
        0
 91
        1
280
     0
281
     0
  0
CLASS
  1
ACAMCOMPDEF
  2
AcAmCompDef
  3
DesignerAssemblies
 90
        0
 91
        1
280
     0
281
     0
  0
CLASS
  1
ACAMCOMPDEFMGR
  2
AcAmCompDefMgr
  3
DesignerAssemblies
 90
        0
 91
        1
280
     0
281
     0
  0
CLASS
  1
AMCONTEXTMGR
  2
AcAmContextMgr
  3
DesignerAssemblies
 90
        0
 91
        1
280
     0
281
     0
  0
CLASS
  1
ACAMCONTEXTMODELER
  2
AcAmContextModeler
  3
DesignerAssemblies
 90
        0
 91
        1
280
     0
281
     0
  0
CLASS
  1
ACMTHREADLINESTANDARDJIS
  2
AmdtThreadLineStdJIS
  3
"Amdt_StdImp|Product Description: AutoCAD Mechanical 2004 DX|Company: Autodesk"
 90
        0
 91
        1
280
     0
281
     0
  0
CLASS
  1
ACMNOTESTANDARDJIS
  2
AmdtNoteStdJIS
  3
"Amdt_StdImp|Product Description: AutoCAD Mechanical 2004 DX|Company: Autodesk"
 90
        0
 91
        1
280
     0
281
     0
  0
CLASS
  1
AMDTNOTETEMPLATEDB
  2
AmdtNoteTemplateDB
  3
AMDT_STDIMP_MODULE_NAME
 90
        0
 91
        8
280
     0
281
     0
  0
CLASS
  1
ACMTHREADLINESTANDARDISO
  2
AmdtThreadLineStdISO
  3
"Amdt_StdImp|Product Description: AutoCAD Mechanical 2004 DX|Company: Autodesk"
 90
        0
 91
        1
280
     0
281
     0
  0
CLASS
  1
ACMNOTESTANDARDISO
  2
AmdtNoteStdISO
  3
"Amdt_StdImp|Product Description: AutoCAD Mechanical 2004 DX|Company: Autodesk"
 90
        0
 91
        1
280
     0
281
     0
  0
CLASS
  1
CATALOGSTATE
  2
AcAmCatalogState
  3
DesignerAssemblies
 90
        0
 91
        1
280
     0
281
     0
  0
CLASS
  1
ACAMGRCOMPDEFSET
  2
AcAmGrCompDefSet
  3
DesignerAssemblies
 90
        0
 91
        1
280
     0
281
     0
  0
CLASS
  1
AMDTBROWSERDBTAB
  2
AmdtBrowserDbTab
  3
McadcomServices
 90
        0
 91
        1
280
     0
281
     0
  0
CLASS
  1
CBROWSERAPPOBJECT
  2
CBrowserAppObject
  3
McadcomServices
 90
        0
 91
        3
280
     0
281
     0
  0
CLASS
  1
DM_PLACEHOLDER
  2
AcDmSelsetPlaceholder
  3
AcMechDwgViewMgmt
 90
        0
 91
        1
280
     0
281
     0
  0
CLASS
  1
ACDBCIRCARCRES
  2
AcDbCircArcRes
  3
AcGrefServices
 90
        0
 91
        0
280
     0
281
     0
  0
CLASS
  1
AMDTNOTE
  2
AmdtNote
  3
"AcmSymBB|Product Description: AutoCAD Mechanical 2004 DX|Company: Autodesk"
 90
     1023
 91
        1
280
     0
281
     1
  0
CLASS
  1
ACRFATTGENMGR
  2
AcRfAttGeneralMgr
  3
AcAttribServices
 90
        0
 91
        1
280
     0
281
     0
  0
CLASS
  1
ACRFOBJATTMGR
  2
AcRfObjAttGroupMgr
  3
AcAttribServices
 90
        0
 91
        1
280
     0
281
     0
  0
CLASS
  1
ACRFMCADAPIATTHOLDER
  2
AcRfMCADAPIAttHolder
  3
AcAttribServices
 90
        0
 91
        1
280
     0
281
     0
  0
CLASS
  1
AMDTSYSATTR
  2
AmdtSystemAttribute
  3
AcAttribServices
 90
        0
 91
        2
280
     0
281
     0
  0
ENDSEC
  0
SECTION
  2
TABLES
  0
TABLE
  2
VPORT
  5
8
330
0
100
AcDbSymbolTable
 70
     3
  0
VPORT
  5
117C
330
8
100
AcDbSymbolTableRecord
100
AcDbViewportTableRecord
  2
*Active
 70
     0
 10
0.0
 20
0.0
 11
1.0
 21
1.0
 12
1145.577773092264
 22
1124.946611819126
 13
0.0
 23
0.0
 14
12.5
 24
12.5
 15
50.0
 25
50.0
 16
0.0
 26
0.0
 36
1.0
 17
0.0
 27
0.0
 37
0.0
 40
2015.342290133952
 41
1.498730964467005
 42
50.0
 43
0.0
 44
0.0
 50
0.0
 51
0.0
 71
     0
 72
   100
 73
     1
 74
     3
 75
     0
 76
     0
 77
     0
 78
     0
281
     0
 65
     1
110
0.0
120
0.0
130
0.0
111
1.0
121
0.0
131
0.0
112
0.0
122
1.0
132
0.0
 79
     0
146
0.0
  0
ENDTAB
  0
TABLE
  2
LTYPE
  5
5
330
0
100
AcDbSymbolTable
 70
    28
  0
LTYPE
  5
14
330
5
100
AcDbSymbolTableRecord
100
AcDbLinetypeTableRecord
  2
ByBlock
 70
     0
  3

 72
    65
 73
     0
 40
0.0
  0
LTYPE
  5
15
330
5
100
AcDbSymbolTableRecord
100
AcDbLinetypeTableRecord
  2
ByLayer
 70
     0
  3

 72
    65
 73
     0
 40
0.0
  0
LTYPE
  5
16
330
5
100
AcDbSymbolTableRecord
100
AcDbLinetypeTableRecord
  2
Continuous
 70
     0
  3
Solid line
 72
    65
 73
     0
 40
0.0
  0
LTYPE
  5
35
330
5
100
AcDbSymbolTableRecord
100
AcDbLinetypeTableRecord
  2
AM_ISO02W050
 70
     0
  3
__ __ __ __ __ __ __ __ __ __ __ __ __ __ __
 72
    65
 73
     2
 40
7.5
 49
6.0
 74
     0
 49
-1.5
 74
     0
  0
LTYPE
  5
36
330
5
100
AcDbSymbolTableRecord
100
AcDbLinetypeTableRecord
  2
AM_ISO08W050
 70
     0
  3
____ . ____ . ____ . ____ . ____ . ____ . ____
 72
    65
 73
     4
 40
18.0
 49
12.0
 74
     0
 49
-1.5
 74
     0
 49
3.0
 74
     0
 49
-1.5
 74
     0
  0
LTYPE
  5
37
330
5
100
AcDbSymbolTableRecord
100
AcDbLinetypeTableRecord
  2
AM_ISO09W050
 70
     0
  3
_____ . . _____ . . _____ . . ____ .. ____
 72
    65
 73
     6
 40
22.5
 49
12.0
 74
     0
 49
-1.5
 74
     0
 49
3.0
 74
     0
 49
-1.5
 74
     0
 49
3.0
 74
     0
 49
-1.5
 74
     0
  0
LTYPE
  5
38
330
5
100
AcDbSymbolTableRecord
100
AcDbLinetypeTableRecord
  2
Amconstr
 70
     0
  3
_______________________
 72
    65
 73
     2
 40
9999.0
 49
9999.0
 74
     0
 49
0.0
 74
     0
  0
LTYPE
  5
39
330
5
100
AcDbSymbolTableRecord
100
AcDbLinetypeTableRecord
  2
AM_ISO08W050x2
 70
     0
  3
__ . __ . __ . __ . __ . __
 72
    65
 73
     4
 40
9.0
 49
6.0
 74
     0
 49
-0.75
 74
     0
 49
1.5
 74
     0
 49
-0.75
 74
     0
  0
LTYPE
  5
3A
330
5
100
AcDbSymbolTableRecord
100
AcDbLinetypeTableRecord
  2
AM_ISO02W050x2
 70
     0
  3
 _ _ _ _ _ _ _ _ _ _ _ _
 72
    65
 73
     2
 40
3.75
 49
3.0
 74
     0
 49
-0.75
 74
     0
  0
LTYPE
  5
3B
330
5
100
AcDbSymbolTableRecord
100
AcDbLinetypeTableRecord
  2
Amzigzag
 70
     0
  3
/\/-/\/-/\/-/\/-/\/-/\/
 72
    65
 73
     2
 40
11.0001
 49
0.0001
 74
     4
 75
   135
340
3C
 46
0.04
 50
0.0
 44
0.0
 45
0.0
 49
-11.0
 74
     0
  0
LTYPE
  5
64
330
5
100
AcDbSymbolTableRecord
100
AcDbLinetypeTableRecord
  2
ACJISTGB
 70
     0
  3
__ . . __ . .
 72
    65
 73
     6
 40
9.0
 49
4.0
 74
     0
 49
-1.0
 74
     0
 49
1.0
 74
     0
 49
-1.0
 74
     0
 49
1.0
 74
     0
 49
-1.0
 74
     0
  0
LTYPE
  5
65
330
5
100
AcDbSymbolTableRecord
100
AcDbLinetypeTableRecord
  2
ACJISTGL
 70
     0
  3
_ _ _ _ _
 72
    65
 73
     2
 40
3.0
 49
2.0
 74
     0
 49
-1.0
 74
     0
  0
LTYPE
  5
69
330
5
100
AcDbSymbolTableRecord
100
AcDbLinetypeTableRecord
  2
CENTER
 70
     0
  3
__ . __
 72
    65
 73
     4
 40
7.0
 49
4.0
 74
     0
 49
-1.0
 74
     0
 49
1.0
 74
     0
 49
-1.0
 74
     0
  0
LTYPE
  5
8F
330
5
100
AcDbSymbolTableRecord
100
AcDbLinetypeTableRecord
  2
ACISOWELD
 70
     0
  3
_ _ _ _ _
 72
    65
 73
     2
 40
2.0
 49
2.0
 74
     0
 49
-1.0
 74
     0
  0
LTYPE
  5
92
330
5
100
AcDbSymbolTableRecord
100
AcDbLinetypeTableRecord
  2
ACISOTGB
 70
     0
  3
__ . . __ . .
 72
    65
 73
     6
 40
9.0
 49
4.0
 74
     0
 49
-1.0
 74
     0
 49
1.0
 74
     0
 49
-1.0
 74
     0
 49
1.0
 74
     0
 49
-1.0
 74
     0
  0
LTYPE
  5
93
330
5
100
AcDbSymbolTableRecord
100
AcDbLinetypeTableRecord
  2
ACISOTGL
 70
     0
  3
_ _ _ _ _
 72
    65
 73
     2
 40
3.0
 49
2.0
 74
     0
 49
-1.0
 74
     0
  0
LTYPE
  5
308
330
5
100
AcDbSymbolTableRecord
100
AcDbLinetypeTableRecord
  2
DASHED
 70
     0
  3
__ __ __ __ __ __ __ __ __ __ __ __ __ __ __
 72
    65
 73
     2
 40
3.0
 49
2.0
 74
     0
 49
-1.0
 74
     0
  0
LTYPE
  5
309
330
5
100
AcDbSymbolTableRecord
100
AcDbLinetypeTableRecord
  2
HIDDEN
 70
     0
  3
_ _ _ _ _ _ _ _ _ _ _ _ _ _ _ _ _ _ _ _ _ _ _
 72
    65
 73
     2
 40
1.5
 49
1.0
 74
     0
 49
-0.5
 74
     0
  0
LTYPE
  5
30A
330
5
100
AcDbSymbolTableRecord
100
AcDbLinetypeTableRecord
  2
PHANTOM
 70
     0
  3
_____ _ _ _____ _ _ _____ _ _ _____ _ _ ____
 72
    65
 73
     6
 40
27.0
 49
20.0
 74
     0
 49
-1.0
 74
     0
 49
2.0
 74
     0
 49
-1.0
 74
     0
 49
2.0
 74
     0
 49
-1.0
 74
     0
  0
LTYPE
  5
30B
330
5
100
AcDbSymbolTableRecord
100
AcDbLinetypeTableRecord
  2
DOT
 70
     0
  3
...............................................
 72
    65
 73
     2
 40
1.5
 49
0.5
 74
     0
 49
-1.0
 74
     0
  0
LTYPE
  5
30C
330
5
100
AcDbSymbolTableRecord
100
AcDbLinetypeTableRecord
  2
DASHDOT
 70
     0
  3
__ . __ . __ . __ . __ . __ . __ . __ . __ . __
 72
    65
 73
     4
 40
8.5
 49
6.0
 74
     0
 49
-1.0
 74
     0
 49
0.5
 74
     0
 49
-1.0
 74
     0
  0
LTYPE
  5
30D
330
5
100
AcDbSymbolTableRecord
100
AcDbLinetypeTableRecord
  2
DIVIDE
 70
     0
  3
__ . . __ . . __ . . __ . . __ . . __ . . __
 72
    65
 73
     6
 40
10.0
 49
6.0
 74
     0
 49
-1.0
 74
     0
 49
0.5
 74
     0
 49
-1.0
 74
     0
 49
0.5
 74
     0
 49
-1.0
 74
     0
  0
LTYPE
  5
30E
330
5
100
AcDbSymbolTableRecord
100
AcDbLinetypeTableRecord
  2
BORDER
 70
     0
  3
__ __ . __ __ . __ __ . __ __ . __ __ . __ __
 72
    65
 73
     6
 40
15.5
 49
6.0
 74
     0
 49
-1.0
 74
     0
 49
6.0
 74
     0
 49
-1.0
 74
     0
 49
0.5
 74
     0
 49
-1.0
 74
     0
  0
LTYPE
  5
30F
330
5
100
AcDbSymbolTableRecord
100
AcDbLinetypeTableRecord
  2
GEN7A
 70
     0
  3
__ . __ . __
 72
    65
 73
     4
 40
6.875
 49
5.0
 74
     0
 49
-0.625
 74
     0
 49
0.625
 74
     0
 49
-0.625
 74
     0
  0
LTYPE
  5
9B5
330
5
100
AcDbSymbolTableRecord
100
AcDbLinetypeTableRecord
  2
PHANTOM2
 70
     0
  3
Phantom (.5x) ___ _ _ ___ _ _ ___ _ _ ___ _ _
 72
    65
 73
     6
 40
31.75
 49
15.875
 74
     0
 49
-3.174999999999999
 74
     0
 49
3.174999999999999
 74
     0
 49
-3.174999999999999
 74
     0
 49
3.174999999999999
 74
     0
 49
-3.174999999999999
 74
     0
  0
LTYPE
  5
B01
330
5
100
AcDbSymbolTableRecord
100
AcDbLinetypeTableRecord
  2
GEN7
 70
     0
  3
____ . ____ . ____ . ____ . ____ . ____ . ____
 72
    65
 73
     4
 40
13.75
 49
10.0
 74
     0
 49
-1.25
 74
     0
 49
1.25
 74
     0
 49
-1.25
 74
     0
  0
LTYPE
  5
B02
330
5
100
AcDbSymbolTableRecord
100
AcDbLinetypeTableRecord
  2
GEN4A
 70
     0
  3
_____ . . _____ . . _____ . . ____ .. ____
 72
    65
 73
     6
 40
16.25
 49
10.0
 74
     0
 49
-1.25
 74
     0
 49
1.25
 74
     0
 49
-1.25
 74
     0
 49
1.25
 74
     0
 49
-1.25
 74
     0
  0
LTYPE
  5
B03
330
5
100
AcDbSymbolTableRecord
100
AcDbLinetypeTableRecord
  2
gen3
 70
     0
  3
-- -- -- -- -- -- -- -- -- -- -- -- -- -- --
 72
    65
 73
     2
 40
6.25
 49
4.75
 74
     0
 49
-1.5
 74
     0
  0
LTYPE
  5
B04
330
5
100
AcDbSymbolTableRecord
100
AcDbLinetypeTableRecord
  2
gen3a
 70
     0
  3
 - - - - -
 72
    65
 73
     2
 40
3.125
 49
2.25
 74
     0
 49
-0.875
 74
     0
  0
LTYPE
  5
B05
330
5
100
AcDbSymbolTableRecord
100
AcDbLinetypeTableRecord
  2
genzigzag
 70
     0
  3
/\/-/\/-/\/-/\/-/\/-/\/
 72
    65
 73
     2
 40
12.0001
 49
0.0001
 74
     4
 75
   135
340
B0B
 46
2.0
 50
0.0
 44
0.0
 45
0.0
 49
-12.0
 74
     0
  0
ENDTAB
  0
TABLE
  2
LAYER
  5
2
330
0
100
AcDbSymbolTable
 70
    20
  0
LAYER
  5
10
330
2
100
AcDbSymbolTableRecord
100
AcDbLayerTableRecord
  2
0
 70
     0
 62
     7
  6
Continuous
370
    -3
390
F
  0
LAYER
  5
F5
330
2
100
AcDbSymbolTableRecord
100
AcDbLayerTableRecord
  2
RAHM2
 70
     0
 62
     1
  6
Continuous
370
    -3
390
F
  0
LAYER
  5
1EF
330
2
100
AcDbSymbolTableRecord
100
AcDbLayerTableRecord
  2
AM_BOR
 70
     0
 62
     7
  6
Continuous
370
    50
390
F
  0
LAYER
  5
310
330
2
100
AcDbSymbolTableRecord
100
AcDbLayerTableRecord
  2
RAHM3
 70
     0
 62
     2
  6
Continuous
370
    -3
390
F
  0
LAYER
  5
311
330
2
100
AcDbSymbolTableRecord
100
AcDbLayerTableRecord
  2
RAHM5
 70
     0
 62
     7
  6
Continuous
370
    -3
390
F
  0
LAYER
  5
312
330
2
100
AcDbSymbolTableRecord
100
AcDbLayerTableRecord
  2
1
 70
     0
 62
     7
  6
Continuous
370
    -3
390
F
  0
LAYER
  5
313
330
2
100
AcDbSymbolTableRecord
100
AcDbLayerTableRecord
  2
DEFPOINTS
 70
     0
 62
     7
  6
Continuous
290
     0
370
    -3
390
F
  0
LAYER
  5
316
330
2
100
AcDbSymbolTableRecord
100
AcDbLayerTableRecord
  2
7A
 70
     0
 62
     4
  6
GEN7A
370
    -3
390
F
  0
LAYER
  5
B06
330
2
100
AcDbSymbolTableRecord
100
AcDbLayerTableRecord
  2
5
 70
     0
 62
     3
  6
Continuous
370
    -3
390
F
  0
LAYER
  5
B07
330
2
100
AcDbSymbolTableRecord
100
AcDbLayerTableRecord
  2
6
 70
     0
 62
     7
  6
Continuous
370
    -3
390
F
  0
LAYER
  5
B08
330
2
100
AcDbSymbolTableRecord
100
AcDbLayerTableRecord
  2
7
 70
     0
 62
     4
  6
GEN7
370
    -3
390
F
  0
LAYER
  5
B09
330
2
100
AcDbSymbolTableRecord
100
AcDbLayerTableRecord
  2
8
 70
     0
 62
     6
  6
Continuous
370
    -3
390
F
  0
LAYER
  5
B0A
330
2
100
AcDbSymbolTableRecord
100
AcDbLayerTableRecord
  2
4A
 70
     0
 62
     3
  6
GEN4A
370
    -3
390
F
  0
LAYER
  5
EBA
330
2
100
AcDbSymbolTableRecord
100
AcDbLayerTableRecord
  2
AM_7
 70
     0
 62
     4
  6
AM_ISO08W050
370
    25
390
F
  0
LAYER
  5
FB9
330
2
100
AcDbSymbolTableRecord
100
AcDbLayerTableRecord
  2
AM_4
 70
     0
 62
     3
  6
Continuous
370
    25
390
F
  0
LAYER
  5
FC4
330
2
100
AcDbSymbolTableRecord
100
AcDbLayerTableRecord
  2
SUNPO
 70
     0
 62
   144
  6
Continuous
370
    -3
390
F
  0
LAYER
  5
FDA
330
2
100
AcDbSymbolTableRecord
100
AcDbLayerTableRecord
  2
AM_CL
 70
     0
 62
     1
  6
Amconstr
370
    25
390
F
  0
LAYER
  5
10BC
330
2
100
AcDbSymbolTableRecord
100
AcDbLayerTableRecord
  2
AM_5
 70
     0
 62
     3
  6
Continuous
370
    25
390
F
  0
LAYER
  5
10BE
330
2
100
AcDbSymbolTableRecord
100
AcDbLayerTableRecord
  2
AM_12
 70
     0
 62
     7
  6
Continuous
290
     0
370
    50
390
F
  0
LAYER
  5
10BF
330
2
100
AcDbSymbolTableRecord
100
AcDbLayerTableRecord
  2
AM_PAREF
 70
     0
 62
     4
  6
Continuous
290
     0
370
    25
390
F
  0
ENDTAB
  0
TABLE
  2
STYLE
  5
3
330
0
100
AcDbSymbolTable
 70
    11
  0
STYLE
  5
11
330
3
100
AcDbSymbolTableRecord
100
AcDbTextStyleTableRecord
  2
STANDARD
 70
     0
 40
0.0
 41
1.0
 50
0.0
 71
     0
 42
2.5
  3
ISOCP.SHX
  4
EXTFONT.SHX
  0
STYLE
  5
3C
330
3
100
AcDbSymbolTableRecord
100
AcDbTextStyleTableRecord
  2

 70
     1
 40
0.0
 41
1.0
 50
0.0
 71
     0
 42
2.5
  3
ltypeshp.shx
  4

  0
STYLE
  5
5D
330
3
100
AcDbSymbolTableRecord
100
AcDbTextStyleTableRecord
  2
ACJISTS
 70
     0
 40
1.0
 41
1.0
 50
0.0
 71
     0
 42
2.5
  3
isocp.shx
  4
extfont.shx
  0
STYLE
  5
60
330
3
100
AcDbSymbolTableRecord
100
AcDbTextStyleTableRecord
  2
ACJISGDT
 70
     0
 40
0.0
 41
1.0
 50
0.0
 71
     0
 42
2.5
  3
amgdt.shx
  4

  0
STYLE
  5
89
330
3
100
AcDbSymbolTableRecord
100
AcDbTextStyleTableRecord
  2
ACISOTS
 70
     0
 40
1.0
 41
1.0
 50
0.0
 71
     0
 42
2.5
  3
isocp.shx
  4
extfont.shx
  0
STYLE
  5
8D
330
3
100
AcDbSymbolTableRecord
100
AcDbTextStyleTableRecord
  2
ACISOGDT
 70
     0
 40
0.0
 41
1.0
 50
0.0
 71
     0
 42
2.5
  3
amgdt.shx
  4

  0
STYLE
  5
A4
330
3
100
AcDbSymbolTableRecord
100
AcDbTextStyleTableRecord
  2
USER1
 70
     0
 40
0.0
 41
1.0
 50
0.0
 71
     0
 42
2.5
  3
TXT.SHX
  4

  0
STYLE
  5
A5
330
3
100
AcDbSymbolTableRecord
100
AcDbTextStyleTableRecord
  2
USER2
 70
     0
 40
0.0
 41
1.0
 50
0.0
 71
     0
 42
2.5
  3
SIMPLEX.SHX
  4

  0
STYLE
  5
A6
330
3
100
AcDbSymbolTableRecord
100
AcDbTextStyleTableRecord
  2
USER3
 70
     0
 40
0.0
 41
1.0
 50
0.0
 71
     0
 42
2.5
  3
ITALIC.SHX
  4

  0
STYLE
  5
B0B
330
3
100
AcDbSymbolTableRecord
100
AcDbTextStyleTableRecord
  2

 70
     1
 40
0.0
 41
1.0
 50
0.0
 71
     0
 42
14.0
  3
genltshp.shx
  4

  0
STYLE
  5
FC5
330
3
100
AcDbSymbolTableRecord
100
AcDbTextStyleTableRecord
  2
MSG
 70
     0
 40
0.0
 41
1.0
 50
0.0
 71
     0
 42
2.5
  3
MS Gothic.ttf
  4

1001
ACAD
1000
MS Gothic
1071
    32817
  0
ENDTAB
  0
TABLE
  2
VIEW
  5
6
330
0
100
AcDbSymbolTable
 70
     6
  0
VIEW
  5
3C5
330
6
100
AcDbSymbolTableRecord
100
AcDbViewTableRecord
  2
AM_VIEW1
 70
     0
 40
148.5
 10
228.7993282151672
 20
267.5160909071711
 41
221.6607579462103
 11
0.0
 21
0.0
 31
1.0
 12
0.0
 22
0.0
 32
0.0
 42
50.0
 43
0.0
 44
0.0
 50
0.0
 71
     0
281
     0
 72
     0
  0
VIEW
  5
3C6
330
6
100
AcDbSymbolTableRecord
100
AcDbViewTableRecord
  2
AM_VIEW2
 70
     0
 40
148.5
 10
427.1385702689569
 20
267.5160909071711
 41
221.6607579462103
 11
0.0
 21
0.0
 31
1.0
 12
0.0
 22
0.0
 32
0.0
 42
50.0
 43
0.0
 44
0.0
 50
0.0
 71
     0
281
     0
 72
     0
  0
VIEW
  5
3C7
330
6
100
AcDbSymbolTableRecord
100
AcDbViewTableRecord
  2
AM_VIEW3
 70
     0
 40
148.5
 10
228.7993282151672
 20
119.0160909071711
 41
221.6607579462103
 11
0.0
 21
0.0
 31
1.0
 12
0.0
 22
0.0
 32
0.0
 42
50.0
 43
0.0
 44
0.0
 50
0.0
 71
     0
281
     0
 72
     0
  0
VIEW
  5
3C8
330
6
100
AcDbSymbolTableRecord
100
AcDbViewTableRecord
  2
AM_VIEW4
 70
     0
 40
148.5
 10
427.1385702689569
 20
119.0160909071711
 41
221.6607579462103
 11
0.0
 21
0.0
 31
1.0
 12
0.0
 22
0.0
 32
0.0
 42
50.0
 43
0.0
 44
0.0
 50
0.0
 71
     0
281
     0
 72
     0
  0
VIEW
  5
3C9
330
6
100
AcDbSymbolTableRecord
100
AcDbViewTableRecord
  2
AM_VIEW5
 70
     0
 40
148.5
 10
327.9689492420621
 20
193.2660909071711
 41
221.6607579462103
 11
0.0
 21
0.0
 31
1.0
 12
0.0
 22
0.0
 32
0.0
 42
50.0
 43
0.0
 44
0.0
 50
0.0
 71
     0
281
     0
 72
     0
  0
VIEW
  5
3CA
330
6
100
AcDbSymbolTableRecord
100
AcDbViewTableRecord
  2
AM_VIEW6
 70
     0
 40
296.99703
 10
327.9689492420621
 20
193.2660909071711
 41
443.3170826772616
 11
0.0
 21
0.0
 31
1.0
 12
0.0
 22
0.0
 32
0.0
 42
50.0
 43
0.0
 44
0.0
 50
0.0
 71
     0
281
     0
 72
     0
  0
ENDTAB
  0
TABLE
  2
UCS
  5
7
330
0
100
AcDbSymbolTable
 70
     0
  0
ENDTAB
  0
TABLE
  2
APPID
  5
9
330
0
100
AcDbSymbolTable
 70
    52
  0
APPID
  5
12
330
9
100
AcDbSymbolTableRecord
100
AcDbRegAppTableRecord
  2
ACAD
 70
     0
  0
APPID
  5
2D
330
9
100
AcDbSymbolTableRecord
100
AcDbRegAppTableRecord
  2
MCAD_NO_VIS
 70
     0
  0
APPID
  5
2E
330
9
100
AcDbSymbolTableRecord
100
AcDbRegAppTableRecord
  2
ACAD_TEMP_GRAPHIC
 70
     0
  0
APPID
  5
2F
330
9
100
AcDbSymbolTableRecord
100
AcDbRegAppTableRecord
  2
ACATTRIBSERVICES
 70
     0
  0
APPID
  5
1F0
330
9
100
AcDbSymbolTableRecord
100
AcDbRegAppTableRecord
  2
GENIUS_GENBLLY_14
 70
     0
  0
APPID
  5
321
330
9
100
AcDbSymbolTableRecord
100
AcDbRegAppTableRecord
  2
GENIUS_GENCFG_13
 70
     0
  0
APPID
  5
322
330
9
100
AcDbSymbolTableRecord
100
AcDbRegAppTableRecord
  2
GENIUS_GENOBJ_13
 70
     0
  0
APPID
  5
323
330
9
100
AcDbSymbolTableRecord
100
AcDbRegAppTableRecord
  2
GENIUS_GENODEF_13
 70
     0
  0
APPID
  5
324
330
9
100
AcDbSymbolTableRecord
100
AcDbRegAppTableRecord
  2
GENIUS_GENOENT_13
 70
     0
  0
APPID
  5
325
330
9
100
AcDbSymbolTableRecord
100
AcDbRegAppTableRecord
  2
GENIUS_GENOLIS_13
 70
     0
  0
APPID
  5
326
330
9
100
AcDbSymbolTableRecord
100
AcDbRegAppTableRecord
  2
GENIUS_GENOREF_13
 70
     0
  0
APPID
  5
327
330
9
100
AcDbSymbolTableRecord
100
AcDbRegAppTableRecord
  2
GENIUS_GENOBJ-N-TIT_13
 70
     0
  0
APPID
  5
328
330
9
100
AcDbSymbolTableRecord
100
AcDbRegAppTableRecord
  2
GENIUS_GENTITLE_13
 70
     0
  0
APPID
  5
329
330
9
100
AcDbSymbolTableRecord
100
AcDbRegAppTableRecord
  2
GENIUS_GENZVEED_13
 70
     0
  0
APPID
  5
32A
330
9
100
AcDbSymbolTableRecord
100
AcDbRegAppTableRecord
  2
GENIUS_GENOBJ-N-SDF_13
 70
     0
  0
APPID
  5
32B
330
9
100
AcDbSymbolTableRecord
100
AcDbRegAppTableRecord
  2
GENIUS_GENSCREG_13
 70
     0
  0
APPID
  5
32C
330
9
100
AcDbSymbolTableRecord
100
AcDbRegAppTableRecord
  2
GENIUS_GENCFG0_13
 70
     0
  0
APPID
  5
32D
330
9
100
AcDbSymbolTableRecord
100
AcDbRegAppTableRecord
  2
GENIUS_GENCFG1_13
 70
     0
  0
APPID
  5
32E
330
9
100
AcDbSymbolTableRecord
100
AcDbRegAppTableRecord
  2
GENIUS_GENCFG2_13
 70
     0
  0
APPID
  5
32F
330
9
100
AcDbSymbolTableRecord
100
AcDbRegAppTableRecord
  2
GENIUS_GENCFG3_13
 70
     0
  0
APPID
  5
330
330
9
100
AcDbSymbolTableRecord
100
AcDbRegAppTableRecord
  2
GENIUS_GENCFG4_13
 70
     0
  0
APPID
  5
331
330
9
100
AcDbSymbolTableRecord
100
AcDbRegAppTableRecord
  2
GENIUS_GEVCFG0_13
 70
     0
  0
APPID
  5
332
330
9
100
AcDbSymbolTableRecord
100
AcDbRegAppTableRecord
  2
GENIUS_GENOBJ-N-CRS_13
 70
     0
  0
APPID
  5
333
330
9
100
AcDbSymbolTableRecord
100
AcDbRegAppTableRecord
  2
GENIUS_GENOBJ-N-CEN_13
 70
     0
  0
APPID
  5
334
330
9
100
AcDbSymbolTableRecord
100
AcDbRegAppTableRecord
  2
GENIUS_GEFCFG0_13
 70
     0
  0
APPID
  5
3BA
330
9
100
AcDbSymbolTableRecord
100
AcDbRegAppTableRecord
  2
GENIUS_GENTRA_14
 70
     0
  0
APPID
  5
3CB
330
9
100
AcDbSymbolTableRecord
100
AcDbRegAppTableRecord
  2
GENIUS_GENSCREG_15
 70
     0
  0
APPID
  5
436
330
9
100
AcDbSymbolTableRecord
100
AcDbRegAppTableRecord
  2
GEVID984623613
 70
     0
  0
APPID
  5
437
330
9
100
AcDbSymbolTableRecord
100
AcDbRegAppTableRecord
  2
GEVDC
 70
     0
  0
APPID
  5
438
330
9
100
AcDbSymbolTableRecord
100
AcDbRegAppTableRecord
  2
GEVCON
 70
     0
  0
APPID
  5
43C
330
9
100
AcDbSymbolTableRecord
100
AcDbRegAppTableRecord
  2
GENIUS_GENBH_13
 70
     0
  0
APPID
  5
43E
330
9
100
AcDbSymbolTableRecord
100
AcDbRegAppTableRecord
  2
GENIUS_GENOBJ-NBEHI-BHF_13
 70
     0
  0
APPID
  5
440
330
9
100
AcDbSymbolTableRecord
100
AcDbRegAppTableRecord
  2
GENIUS_GENOBJ-NBEHI-BHB_13
 70
     0
  0
APPID
  5
455
330
9
100
AcDbSymbolTableRecord
100
AcDbRegAppTableRecord
  2
GENIUS_GENOBJ-F-SCPASSM_13
 70
     0
  0
APPID
  5
47B
330
9
100
AcDbSymbolTableRecord
100
AcDbRegAppTableRecord
  2
GEVID984623614
 70
     0
  0
APPID
  5
48B
330
9
100
AcDbSymbolTableRecord
100
AcDbRegAppTableRecord
  2
GEVID984623615
 70
     0
  0
APPID
  5
54A
330
9
100
AcDbSymbolTableRecord
100
AcDbRegAppTableRecord
  2
GENIUS_GENOBJ-N-REV_13
 70
     0
  0
APPID
  5
54B
330
9
100
AcDbSymbolTableRecord
100
AcDbRegAppTableRecord
  2
GENIUS_GENOBJ-N-RSSYM_13
 70
     0
  0
APPID
  5
54C
330
9
100
AcDbSymbolTableRecord
100
AcDbRegAppTableRecord
  2
GENIUS_GENSYMENT_13
 70
     0
  0
APPID
  5
54D
330
9
100
AcDbSymbolTableRecord
100
AcDbRegAppTableRecord
  2
GENIUS_GENSCSYM_13
 70
     0
  0
APPID
  5
943
330
9
100
AcDbSymbolTableRecord
100
AcDbRegAppTableRecord
  2
DCO15
 70
     0
  0
APPID
  5
9B7
330
9
100
AcDbSymbolTableRecord
100
AcDbRegAppTableRecord
  2
AD_DRAW
 70
     0
  0
APPID
  5
9D5
330
9
100
AcDbSymbolTableRecord
100
AcDbRegAppTableRecord
  2
DESIGNERASSEMBLIES
 70
     0
  0
APPID
  5
9E5
330
9
100
AcDbSymbolTableRecord
100
AcDbRegAppTableRecord
  2
ACADM_DIM_EDIT
 70
     0
  0
APPID
  5
9E6
330
9
100
AcDbSymbolTableRecord
100
AcDbRegAppTableRecord
  2
AMDT_DM_ADJ
 70
     0
  0
APPID
  5
B10
330
9
100
AcDbSymbolTableRecord
100
AcDbRegAppTableRecord
  2
GENIUS_GENDTOL_13
 70
     0
  0
APPID
  5
B11
330
9
100
AcDbSymbolTableRecord
100
AcDbRegAppTableRecord
  2
GENIUS_GENDREL_13
 70
     0
  0
APPID
  5
B12
330
9
100
AcDbSymbolTableRecord
100
AcDbRegAppTableRecord
  2
GENIUS_GENOBJ-N-HTC_13
 70
     0
  0
APPID
  5
B13
330
9
100
AcDbSymbolTableRecord
100
AcDbRegAppTableRecord
  2
GENIUS_GENHATCH_13
 70
     0
  0
APPID
  5
B14
330
9
100
AcDbSymbolTableRecord
100
AcDbRegAppTableRecord
  2
GENIUS_GENHINW_13
 70
     0
  0
APPID
  5
B15
330
9
100
AcDbSymbolTableRecord
100
AcDbRegAppTableRecord
  2
GENIUS_GENOBJ-N-LEADER_13
 70
     0
  0
APPID
  5
1105
330
9
100
AcDbSymbolTableRecord
100
AcDbRegAppTableRecord
  2
GENIUS_GENDIMSH_14
 70
     0
  0
ENDTAB
  0
TABLE
  2
DIMSTYLE
  5
A
330
0
100
AcDbSymbolTable
 70
    29
100
AcDbDimStyleTable
 71
     1
340
76
  0
DIMSTYLE
105
27
330
A
100
AcDbSymbolTableRecord
100
AcDbDimStyleTableRecord
  2
ISO-25
 70
     0
 41
2.5
 42
0.625
 43
3.75
 44
1.25
 73
     0
 74
     0
 77
     1
 78
     8
140
2.5
141
2.5
143
0.03937007874016
147
0.625
171
     3
172
     1
271
     2
272
     2
274
     3
283
     0
284
     8
340
11
  0
DIMSTYLE
105
76
102
{ACAD_REACTORS
330
C42
330
C41
330
C40
330
C3F
330
C3E
330
C3D
330
C3C
330
C3B
330
C3A
330
10E8
102
}
330
A
100
AcDbSymbolTableRecord
100
AcDbDimStyleTableRecord
  2
IGS
 70
     0
  4
"
 40
5.0
 41
2.5
 42
1.0
 43
10.0
 44
1.0
 47
0.1
 48
0.1
 73
     0
 74
     0
 77
     3
 78
     8
 79
     2
140
4.5
141
0.0
143
0.0393701
146
0.71
147
1.5
172
     1
176
   256
177
   256
178
     2
271
     2
272
     2
283
     0
284
     8
340
11
341
77
342
77
371
    -1
372
    -1
  0
DIMSTYLE
105
7D
330
A
100
AcDbSymbolTableRecord
100
AcDbDimStyleTableRecord
  2
IGS$3
 70
     0
  4
"
 40
5.0
 41
2.5
 42
1.0
 43
10.0
 44
1.0
 47
0.1
 48
0.1
 73
     0
 77
     3
 78
     8
 79
     2
140
4.5
141
0.0
143
0.0393701
146
0.71
147
1.5
176
   256
177
   256
178
     2
271
     2
272
     2
283
     0
284
     8
288
     1
289
     0
340
11
341
77
342
77
371
    -1
372
    -1
  0
DIMSTYLE
105
7E
330
A
100
AcDbSymbolTableRecord
100
AcDbDimStyleTableRecord
  2
IGS$4
 70
     0
  4
"
 40
5.0
 41
2.5
 42
1.0
 43
10.0
 44
1.0
 47
0.1
 48
0.1
 73
     0
 77
     3
 78
     8
 79
     2
140
4.5
141
0.0
143
0.0393701
146
0.71
147
1.5
176
   256
177
   256
178
     2
271
     2
272
     2
283
     0
284
     8
288
     1
289
     0
340
11
341
77
342
77
371
    -1
372
    -1
  0
DIMSTYLE
105
7F
330
A
100
AcDbSymbolTableRecord
100
AcDbDimStyleTableRecord
  2
IGS$6
 70
     0
  4
"
 40
5.0
 41
2.5
 42
1.0
 43
10.0
 44
1.0
 47
0.1
 48
0.1
 73
     0
 74
     0
 78
     8
 79
     2
140
4.5
141
0.0
143
0.0393701
146
0.71
147
1.5
172
     1
176
   256
177
   256
178
     2
271
     2
272
     2
283
     0
284
     8
340
11
341
77
342
77
371
    -1
372
    -1
  0
DIMSTYLE
105
80
330
A
100
AcDbSymbolTableRecord
100
AcDbDimStyleTableRecord
  2
IGS$7
 70
     0
  4
"
 40
5.0
 41
2.5
 42
1.0
 43
10.0
 44
1.0
 47
0.1
 48
0.1
 73
     0
 74
     0
 77
     3
 78
     8
 79
     2
140
5.0
141
0.0
143
0.0393701
146
0.71
147
1.5
172
     1
176
   256
177
   256
178
     2
271
     2
272
     2
283
     0
284
     8
340
11
341
77
342
77
371
    -1
372
    -1
  0
DIMSTYLE
105
81
330
A
100
AcDbSymbolTableRecord
100
AcDbDimStyleTableRecord
  2
IGS$SF
 70
     0
  4
"
 40
5.0
 41
2.5
 42
1.0
 43
10.0
 44
1.0
 47
0.1
 48
0.1
 73
     0
 74
     0
 75
     1
 76
     1
 77
     3
 78
     8
 79
     2
140
3.5
141
0.0
143
0.0393701
146
0.71
147
1.5
172
     1
176
   256
177
   256
178
     2
271
     2
272
     3
274
     4
283
     0
284
     8
340
11
341
77
342
77
343
77
344
77
371
    -1
372
    -1
  0
DIMSTYLE
105
82
330
A
100
AcDbSymbolTableRecord
100
AcDbDimStyleTableRecord
  2
IGS$SH
 70
     0
  4
"
 40
5.0
 41
2.5
 42
1.0
 43
10.0
 44
1.0
 47
0.1
 48
0.1
 73
     0
 74
     0
 75
     1
 76
     1
 77
     3
 78
     8
 79
     2
140
3.5
141
0.0
143
0.0393701
144
2.0
146
0.71
147
1.5
172
     1
173
     1
176
   256
177
   256
178
     2
271
     2
272
     3
274
     4
283
     0
284
     8
340
11
341
77
342
77
343
83
344
77
371
    -1
372
    -1
  0
DIMSTYLE
105
9A
330
A
100
AcDbSymbolTableRecord
100
AcDbDimStyleTableRecord
  2
AM_ISO
 70
     0
  4
"
 40
5.0
 41
2.5
 42
1.0
 43
10.0
 44
1.0
 47
0.1
 48
0.1
 73
     0
 74
     0
 77
     1
 78
     8
 79
     2
140
3.5
141
0.0
143
0.0393701
146
0.71
147
1.5
172
     1
176
   256
177
   256
178
     2
271
     2
272
     3
274
     4
283
     0
284
     8
340
11
371
    -1
372
    -1
  0
DIMSTYLE
105
9B
330
A
100
AcDbSymbolTableRecord
100
AcDbDimStyleTableRecord
  2
AM_ISO$3
 70
     0
  4
"
 40
5.0
 41
2.5
 42
1.0
 43
10.0
 44
1.0
 47
0.1
 48
0.1
 73
     0
 77
     1
 78
     8
 79
     2
140
3.5
141
0.0
143
0.0393701
146
0.71
147
1.5
176
   256
177
   256
178
     2
271
     2
272
     3
274
     4
283
     0
284
     8
288
     1
289
     0
340
11
371
    -1
372
    -1
  0
DIMSTYLE
105
9C
330
A
100
AcDbSymbolTableRecord
100
AcDbDimStyleTableRecord
  2
AM_ISO$4
 70
     0
  4
"
 40
5.0
 41
2.5
 42
1.0
 43
10.0
 44
1.0
 47
0.1
 48
0.1
 73
     0
 77
     1
 78
     8
 79
     2
140
3.5
141
0.0
143
0.0393701
146
0.71
147
1.5
176
   256
177
   256
178
     2
271
     2
272
     3
274
     4
283
     0
284
     8
288
     1
289
     0
340
11
371
    -1
372
    -1
  0
DIMSTYLE
105
9D
330
A
100
AcDbSymbolTableRecord
100
AcDbDimStyleTableRecord
  2
AM_ISO$6
 70
     0
  4
"
 40
5.0
 41
2.5
 42
1.0
 43
10.0
 44
1.0
 47
0.1
 48
0.1
 73
     0
 74
     0
 78
     8
 79
     2
140
3.5
141
0.0
143
0.0393701
146
0.71
147
1.5
172
     1
176
   256
177
   256
178
     2
271
     2
272
     3
274
     4
283
     0
284
     8
340
11
371
    -1
372
    -1
  0
DIMSTYLE
105
9E
330
A
100
AcDbSymbolTableRecord
100
AcDbDimStyleTableRecord
  2
AM_ISO$7
 70
     0
  4
"
 40
5.0
 41
2.5
 42
1.0
 43
10.0
 44
1.0
 47
0.1
 48
0.1
 73
     0
 74
     0
 77
     1
 78
     8
 79
     2
140
5.0
141
0.0
143
0.0393701
146
0.71
147
1.5
172
     1
176
   256
177
   256
178
     2
271
     2
272
     3
274
     4
283
     0
284
     8
340
11
371
    -1
372
    -1
  0
DIMSTYLE
105
9F
330
A
100
AcDbSymbolTableRecord
100
AcDbDimStyleTableRecord
  2
AM_ISO$SF
 70
     0
  4
"
 40
5.0
 41
2.5
 42
1.0
 43
10.0
 44
1.0
 47
0.1
 48
0.1
 73
     0
 74
     0
 75
     1
 76
     1
 77
     1
 78
     8
 79
     2
140
3.5
141
0.0
143
0.0393701
146
0.71
147
1.5
172
     1
176
   256
177
   256
178
     2
271
     2
272
     3
274
     4
283
     0
284
     8
340
11
371
    -1
372
    -1
  0
DIMSTYLE
105
A0
330
A
100
AcDbSymbolTableRecord
100
AcDbDimStyleTableRecord
  2
AM_ISO$SH
 70
     0
  4
"
 40
5.0
 41
2.5
 42
1.0
 43
10.0
 44
1.0
 47
0.1
 48
0.1
 73
     0
 74
     0
 75
     1
 76
     1
 77
     1
 78
     8
 79
     2
140
3.5
141
0.0
143
0.0393701
144
2.0
146
0.71
147
1.5
172
     1
173
     1
176
   256
177
   256
178
     2
271
     2
272
     3
274
     4
283
     0
284
     8
340
11
343
83
371
    -1
372
    -1
  0
DIMSTYLE
105
317
330
A
100
AcDbSymbolTableRecord
100
AcDbDimStyleTableRecord
  2
STANDARD
 70
     0
340
11
  0
DIMSTYLE
105
318
330
A
100
AcDbSymbolTableRecord
100
AcDbDimStyleTableRecord
  2
ISO-35
 70
     0
 41
3.5
 42
0.875
 43
5.25
 44
1.75
 74
     0
 77
     1
 78
     8
140
3.5
141
3.5
143
0.0394
145
1.399999999999999
147
0.875
172
     1
340
11
  0
DIMSTYLE
105
319
330
A
100
AcDbSymbolTableRecord
100
AcDbDimStyleTableRecord
  2
ISO-5
 70
     0
 41
5.0
 42
1.25
 43
7.5
 44
2.5
 74
     0
 77
     1
 78
     8
140
5.0
141
5.0
143
0.0394
145
2.0
147
1.25
172
     1
340
11
  0
DIMSTYLE
105
31A
330
A
100
AcDbSymbolTableRecord
100
AcDbDimStyleTableRecord
  2
ISO-7
 70
     0
 41
7.0
 42
1.75
 43
10.5
 44
3.5
 74
     0
 77
     1
 78
     8
140
7.0
141
7.0
143
0.0394
145
2.799999999999999
147
1.75
172
     1
340
11
  0
DIMSTYLE
105
31B
330
A
100
AcDbSymbolTableRecord
100
AcDbDimStyleTableRecord
  2
ISO1
 70
     0
 41
10.0
 42
2.5
 43
15.0
 44
5.0
 74
     0
 77
     1
 78
     8
140
10.0
141
10.0
143
0.0394
145
4.0
147
2.5
172
     1
340
11
  0
DIMSTYLE
105
31C
330
A
100
AcDbSymbolTableRecord
100
AcDbDimStyleTableRecord
  2
ISO1-4
 70
     0
 41
14.0
 42
3.5
 43
21.0
 44
7.0
 74
     0
 77
     1
 78
     8
140
14.0
141
14.0
143
0.0394
145
5.599999999999999
147
3.5
172
     1
340
11
  0
DIMSTYLE
105
31D
330
A
100
AcDbSymbolTableRecord
100
AcDbDimStyleTableRecord
  2
ISO2
 70
     0
 41
20.0
 42
5.0
 43
30.0
 44
10.0
 74
     0
 77
     1
 78
     8
140
20.0
141
20.0
143
0.0394
145
8.0
147
5.0
172
     1
340
11
  0
DIMSTYLE
105
31E
330
A
100
AcDbSymbolTableRecord
100
AcDbDimStyleTableRecord
  2
GEN-ISO$4
 70
     0
  3
<>
 41
2.5
 42
1.0
 43
10.0
 44
1.0
 47
0.1
 48
0.1
 73
     0
 77
     1
 78
     8
140
3.5
141
0.0
143
0.0393701
146
0.71
147
1.5
176
   256
177
   256
178
     2
271
     2
272
     3
274
     4
283
     0
288
     1
289
     0
340
11
  0
DIMSTYLE
105
31F
330
A
100
AcDbSymbolTableRecord
100
AcDbDimStyleTableRecord
  2
GEN-ISO$3
 70
     0
  3
<>
 41
2.5
 42
1.0
 43
10.0
 44
1.0
 47
0.1
 48
0.1
 73
     0
 77
     1
 78
     8
140
3.5
141
0.0
143
0.0393701
146
0.71
147
1.5
176
   256
177
   256
178
     2
271
     2
272
     3
274
     4
283
     0
288
     1
289
     0
340
11
  0
DIMSTYLE
105
320
330
A
100
AcDbSymbolTableRecord
100
AcDbDimStyleTableRecord
  2
GEN-ISO
 70
     0
  3
<>
 41
2.5
 42
1.0
 43
10.0
 44
1.0
 47
0.1
 48
0.1
 73
     0
 74
     0
 77
     1
 78
     8
140
3.5
141
0.0
143
0.0393701
146
0.71
147
1.5
172
     1
176
   256
177
   256
178
     2
271
     2
272
     3
274
     4
283
     0
340
11
  0
DIMSTYLE
105
B0C
330
A
100
AcDbSymbolTableRecord
100
AcDbDimStyleTableRecord
  2
GEN-ISO$6
 70
     0
 41
2.5
 42
1.0
 43
10.0
 44
1.0
 47
0.1
 48
0.1
 73
     0
 74
     0
 78
     8
140
3.5
141
0.0
143
0.0393701
146
0.71
147
1.5
271
     2
272
     3
274
     4
283
     0
340
11
  0
DIMSTYLE
105
B0D
330
A
100
AcDbSymbolTableRecord
100
AcDbDimStyleTableRecord
  2
GEN-ISO-POS
 70
     0
 41
2.5
 42
1.0
 43
10.0
 44
1.0
 47
0.1
 48
0.1
 73
     0
 74
     0
 78
     8
140
5.0
141
0.0
143
0.0393701
146
0.71
147
1.5
271
     2
272
     3
274
     4
283
     0
340
11
  0
DIMSTYLE
105
B0E
330
A
100
AcDbSymbolTableRecord
100
AcDbDimStyleTableRecord
  2
GEN-ISO-AXE-F
 70
     0
 41
2.5
 42
1.0
 43
10.0
 44
1.0
 47
0.1
 48
0.1
 73
     0
 74
     0
 75
     1
 76
     1
 77
     1
 78
     8
140
3.5
141
0.0
143
0.0393701
146
0.71
147
1.5
172
     1
271
     2
272
     3
274
     4
283
     0
340
11
  0
DIMSTYLE
105
B0F
330
A
100
AcDbSymbolTableRecord
100
AcDbDimStyleTableRecord
  2
GEN-ISO-AXE-H
 70
     0
 41
2.5
 42
1.0
 43
10.0
 44
1.0
 47
0.1
 48
0.1
 73
     0
 74
     0
 75
     1
 76
     1
 77
     1
 78
     8
140
3.5
141
0.0
143
0.0393701
144
2.0
146
0.71
147
1.5
172
     1
173
     1
271
     2
272
     3
274
     4
283
     0
340
11
343
83
  0
ENDTAB
  0
TABLE
  2
BLOCK_RECORD
  5
1
330
0
100
AcDbSymbolTable
 70
    39
  0
BLOCK_RECORD
  5
1F
102
{ACAD_XDICTIONARY
360
B1
102
}
330
1
100
AcDbSymbolTableRecord
100
AcDbBlockTableRecord
  2
*Model_Space
340
22
  0
BLOCK_RECORD
  5
1B
330
1
100
AcDbSymbolTableRecord
100
AcDbBlockTableRecord
  2
*Paper_Space
340
1E
  0
BLOCK_RECORD
  5
23
330
1
100
AcDbSymbolTableRecord
100
AcDbBlockTableRecord
  2
*Paper_Space0
340
26
  0
BLOCK_RECORD
  5
77
330
1
100
AcDbSymbolTableRecord
100
AcDbBlockTableRecord
  2
_Open30
340
0
310
2800000020000000200000000100080000000000000400000000000000000000000000000000000000000000000080000080000000808000800000008000800080800000C0C0C000C0DCC000F0CAA6000020400000206000002080000020A0000020C0000020E00000400000004020000040400000406000004080000040A0
310
000040C0000040E00000600000006020000060400000606000006080000060A0000060C0000060E00000800000008020000080400000806000008080000080A0000080C0000080E00000A0000000A0200000A0400000A0600000A0800000A0A00000A0C00000A0E00000C0000000C0200000C0400000C0600000C0800000C0
310
A00000C0C00000C0E00000E0000000E0200000E0400000E0600000E0800000E0A00000E0C00000E0E00040000000400020004000400040006000400080004000A0004000C0004000E00040200000402020004020400040206000402080004020A0004020C0004020E000404000004040200040404000404060004040800040
310
40A0004040C0004040E00040600000406020004060400040606000406080004060A0004060C0004060E00040800000408020004080400040806000408080004080A0004080C0004080E00040A0000040A0200040A0400040A0600040A0800040A0A00040A0C00040A0E00040C0000040C0200040C0400040C0600040C08000
310
40C0A00040C0C00040C0E00040E0000040E0200040E0400040E0600040E0800040E0A00040E0C00040E0E00080000000800020008000400080006000800080008000A0008000C0008000E00080200000802020008020400080206000802080008020A0008020C0008020E00080400000804020008040400080406000804080
310
008040A0008040C0008040E00080600000806020008060400080606000806080008060A0008060C0008060E00080800000808020008080400080806000808080008080A0008080C0008080E00080A0000080A0200080A0400080A0600080A0800080A0A00080A0C00080A0E00080C0000080C0200080C0400080C0600080C0
310
800080C0A00080C0C00080C0E00080E0000080E0200080E0400080E0600080E0800080E0A00080E0C00080E0E000C0000000C0002000C0004000C0006000C0008000C000A000C000C000C000E000C0200000C0202000C0204000C0206000C0208000C020A000C020C000C020E000C0400000C0402000C0404000C0406000C0
310
408000C040A000C040C000C040E000C0600000C0602000C0604000C0606000C0608000C060A000C060C000C060E000C0800000C0802000C0804000C0806000C0808000C080A000C080C000C080E000C0A00000C0A02000C0A04000C0A06000C0A08000C0A0A000C0A0C000C0A0E000C0C00000C0C02000C0C04000C0C06000
310
C0C08000C0C0A000F0FBFF00A4A0A000808080000000FF0000FF000000FFFF00FF000000FF00FF00FFFF0000FFFFFF0000000000000000000000000000000000000000000000000000000000000000000000000000000000000000000000000000000000000000000000000000000000000000000000000000000000000000
310
00000000000000000000000000000000000000000000000000000000000000000000000000000000000000000000000000000000000000000000000000000000000000000000000000000000000000000000000000000000000000000000000000000000000000000000000000000000000000000000000000000000000000
310
000000000000000000000000000000000000000000000000000000000000000000000000000000000000000000000000000000FFFF0000000000000000000000000000000000000000000000000000000000000000FFFFFFFF0000000000000000000000000000000000000000000000000000000000000000FFFFFFFF0000
310
000000000000000000000000000000000000000000000000000000000000FFFFFF0000000000000000000000000000000000000000000000000000000000000000FFFFFFFF0000000000000000000000000000000000000000000000000000000000000000FFFFFF0000000000000000000000000000000000000000000000
310
000000000000000000FFFFFFFF0000000000000000000000000000000000000000000000000000000000000000FFFFFFFF00000000FFFFFFFFFFFFFFFFFFFFFFFFFFFFFFFFFFFFFFFFFFFFFFFFFFFFFFFFFFFF00000000000000000000000000000000000000000000000000FFFFFFFF000000000000000000000000000000
310
000000000000000000FFFFFFFF000000000000000000000000000000000000000000000000FFFFFFFF000000000000000000000000000000000000000000000000FFFFFFFF000000000000000000000000000000000000000000000000FFFFFFFF000000000000000000000000000000000000000000000000FFFFFFFF0000
310
0000000000000000000000000000000000000000000000FFFFFF0000000000000000000000000000000000000000000000000000000000000000000000000000000000000000000000000000000000000000000000000000000000000000000000000000000000000000000000000000000000000000000000000000000000
310
00000000000000000000000000000000000000000000000000000000000000000000000000000000000000000000000000000000000000000000000000000000000000000000000000000000000000000000000000000000000000000000000000000000000000000000000000000000000000000000000000000000000000
310
0000000000000000000000000000000000000000000000000000000000000000000000000000000000000000000000000000000000000000
102
{BLKREFS
331
F62
331
F63
331
F6B
331
F6C
331
F74
331
F75
331
F7D
331
F7E
331
F86
331
F87
331
F8F
331
F90
331
F98
331
F99
331
FA1
331
FA2
331
1109
331
110A
331
1112
331
1113
102
}
  0
BLOCK_RECORD
  5
83
330
1
100
AcDbSymbolTableRecord
100
AcDbBlockTableRecord
  2
GENAXEH
340
0
310
2800000020000000200000000100080000000000000400000000000000000000000000000000000000000000000080000080000000808000800000008000800080800000C0C0C000C0DCC000F0CAA6000020400000206000002080000020A0000020C0000020E00000400000004020000040400000406000004080000040A0
310
000040C0000040E00000600000006020000060400000606000006080000060A0000060C0000060E00000800000008020000080400000806000008080000080A0000080C0000080E00000A0000000A0200000A0400000A0600000A0800000A0A00000A0C00000A0E00000C0000000C0200000C0400000C0600000C0800000C0
310
A00000C0C00000C0E00000E0000000E0200000E0400000E0600000E0800000E0A00000E0C00000E0E00040000000400020004000400040006000400080004000A0004000C0004000E00040200000402020004020400040206000402080004020A0004020C0004020E000404000004040200040404000404060004040800040
310
40A0004040C0004040E00040600000406020004060400040606000406080004060A0004060C0004060E00040800000408020004080400040806000408080004080A0004080C0004080E00040A0000040A0200040A0400040A0600040A0800040A0A00040A0C00040A0E00040C0000040C0200040C0400040C0600040C08000
310
40C0A00040C0C00040C0E00040E0000040E0200040E0400040E0600040E0800040E0A00040E0C00040E0E00080000000800020008000400080006000800080008000A0008000C0008000E00080200000802020008020400080206000802080008020A0008020C0008020E00080400000804020008040400080406000804080
310
008040A0008040C0008040E00080600000806020008060400080606000806080008060A0008060C0008060E00080800000808020008080400080806000808080008080A0008080C0008080E00080A0000080A0200080A0400080A0600080A0800080A0A00080A0C00080A0E00080C0000080C0200080C0400080C0600080C0
310
800080C0A00080C0C00080C0E00080E0000080E0200080E0400080E0600080E0800080E0A00080E0C00080E0E000C0000000C0002000C0004000C0006000C0008000C000A000C000C000C000E000C0200000C0202000C0204000C0206000C0208000C020A000C020C000C020E000C0400000C0402000C0404000C0406000C0
310
408000C040A000C040C000C040E000C0600000C0602000C0604000C0606000C0608000C060A000C060C000C060E000C0800000C0802000C0804000C0806000C0808000C080A000C080C000C080E000C0A00000C0A02000C0A04000C0A06000C0A08000C0A0A000C0A0C000C0A0E000C0C00000C0C02000C0C04000C0C06000
310
C0C08000C0C0A000F0FBFF00A4A0A000808080000000FF0000FF000000FFFF00FF000000FF00FF00FFFF0000FFFFFF0000000000000000000000000000000000000000000000000000000000000000000000000000000000000000000000000000000000000000000000000000000000000000000000000000000000000000
310
00000000000000000000000000000000000000000000000000000000000000000000000000000000000000000000000000000000000000000000000000000000000000000000000000000000000000000000000000000000000000000000000000000000000000000000000000000000000000000000000000000000000000
310
00000000000000000000000000000000000000000000000000000000000000000000000000000000000000000000000000000000000000000000000000000000000000000000000000000000000000000000000000000000000000000000000000000000000000000000000000000000000000000000000000000000000000
310
00000000000000000000000000000000000000000000000000000000000000000000000000000000000000000000000000000000000000000000000000000000000000000000000000000000000000000000000000000000000000000000000000000000000000000000000000000000000000000000000000000000000000
310
0000000000000000000000000000000000000000000000000000000000000000000000000000000000000000000000000000000000FFFFFFFFFFFFFFFFFFFFFFFFFFFFFFFFFFFFFFFFFFFFFFFFFFFFFFFFFFFF0000000000000000000000000000000000000000000000000000000000000000000000000000000000000000
310
00000000000000000000000000000000000000000000000000000000000000000000000000000000000000000000000000000000000000000000000000000000000000000000000000000000000000000000000000000000000000000000000000000000000000000000000000000000000000000000000000000000000000
310
00000000000000000000000000000000000000000000000000000000000000000000000000000000000000000000000000000000000000000000000000000000000000000000000000000000000000000000000000000000000000000000000000000000000000000000000000000000000000000000000000000000000000
310
00000000000000000000000000000000000000000000000000000000000000000000000000000000000000000000000000000000000000000000000000000000000000000000000000000000000000000000000000000000000000000000000000000000000000000000000000000000000000000000000000000000000000
310
0000000000000000000000000000000000000000000000000000000000000000000000000000000000000000000000000000000000000000
  0
BLOCK_RECORD
  5
1F1
330
1
100
AcDbSymbolTableRecord
100
AcDbBlockTableRecord
  2
IGS_A2
340
0
310
2800000020000000200000000100080000000000000400000000000000000000000000000000000000000000000080000080000000808000800000008000800080800000C0C0C000C0DCC000F0CAA6000020400000206000002080000020A0000020C0000020E00000400000004020000040400000406000004080000040A0
310
000040C0000040E00000600000006020000060400000606000006080000060A0000060C0000060E00000800000008020000080400000806000008080000080A0000080C0000080E00000A0000000A0200000A0400000A0600000A0800000A0A00000A0C00000A0E00000C0000000C0200000C0400000C0600000C0800000C0
310
A00000C0C00000C0E00000E0000000E0200000E0400000E0600000E0800000E0A00000E0C00000E0E00040000000400020004000400040006000400080004000A0004000C0004000E00040200000402020004020400040206000402080004020A0004020C0004020E000404000004040200040404000404060004040800040
310
40A0004040C0004040E00040600000406020004060400040606000406080004060A0004060C0004060E00040800000408020004080400040806000408080004080A0004080C0004080E00040A0000040A0200040A0400040A0600040A0800040A0A00040A0C00040A0E00040C0000040C0200040C0400040C0600040C08000
310
40C0A00040C0C00040C0E00040E0000040E0200040E0400040E0600040E0800040E0A00040E0C00040E0E00080000000800020008000400080006000800080008000A0008000C0008000E00080200000802020008020400080206000802080008020A0008020C0008020E00080400000804020008040400080406000804080
310
008040A0008040C0008040E00080600000806020008060400080606000806080008060A0008060C0008060E00080800000808020008080400080806000808080008080A0008080C0008080E00080A0000080A0200080A0400080A0600080A0800080A0A00080A0C00080A0E00080C0000080C0200080C0400080C0600080C0
310
800080C0A00080C0C00080C0E00080E0000080E0200080E0400080E0600080E0800080E0A00080E0C00080E0E000C0000000C0002000C0004000C0006000C0008000C000A000C000C000C000E000C0200000C0202000C0204000C0206000C0208000C020A000C020C000C020E000C0400000C0402000C0404000C0406000C0
310
408000C040A000C040C000C040E000C0600000C0602000C0604000C0606000C0608000C060A000C060C000C060E000C0800000C0802000C0804000C0806000C0808000C080A000C080C000C080E000C0A00000C0A02000C0A04000C0A06000C0A08000C0A0A000C0A0C000C0A0E000C0C00000C0C02000C0C04000C0C06000
310
C0C08000C0C0A000F0FBFF00A4A0A000808080000000FF0000FF000000FFFF00FF000000FF00FF00FFFF0000FFFFFF0000000000000000000000000000000000000000000000000000000000000000000000000000000000000000000000000000000000000000000000000000000000000000000000000000000000000000
310
000000000000000000000000000000000000000000000000000000000000000000000000000000000000000000000000000000000000000000000000000000000000000000000000000000000000000000000000000000000000000000000000000000000000000000000000000000000000F9F9F9F9F9F9F9F9F9F9F9F9F9
310
F9F9F9F9F9F9F9F9F9F9F9F9F9F90000000000F9FFFFFFFFFFFFFFFFFFFFFFFFFFFFFFFFFFFFFFFFFFFFFFFFFFF90000000000F9FF0000000000000000000000000000000000000000000000FFF90000000000F9FF0000000000000000000000000000000000000000000000FFF90000000000F9FF00000000000000000000
310
00000000000000000000000000FFF90000000000F9FF0000000000000000000000000000000000000000000000FFF90000000000F9FF0000000000000000000000000000000000000000000000FFF90000000000F9FF0000000000000000000000000000000000000000000000FFF90000000000F9FF000000000000000000
310
0000000000000000000000000000FFF90000000000F9FF0000000000000000000000000000000000000000000000FFF90000000000F9FF0000000000000000000000000000000000000000000000FFF90000000000F9FF0000000000000000000000000000000000000000000000FFF90000000000F9FF0000000000000000
310
000000000000000000000000000000FFF90000000000F9FF0000000000000000000000000000000000000000000000FFF90000000000F9FF0000000000000000000000000000000000000000000000FFF90000000000F9FF0000000000000000000000000000000000000000000000FFF90000000000F9FF00000000000000
310
00000000000000000000000000000000FFF90000000000F9FF0000000000000000000000000000000000000000000000FFF90000000000F9F9F9F9F9F9F9F9F9F9F9F9F9F9F9F9F9F9F9F9F9F9F9F9F9F9F9000000000000000000000000000000000000000000000000000000000000000000000000000000000000000000
310
00000000000000000000000000000000000000000000000000000000000000000000000000000000000000000000000000000000000000000000000000000000000000000000000000000000000000000000000000000000000000000000000000000000000000000000000000000000000000000000000000000000000000
310
0000000000000000000000000000000000000000000000000000000000000000000000000000000000000000000000000000000000000000
  0
BLOCK_RECORD
  5
210
330
1
100
AcDbSymbolTableRecord
100
AcDbBlockTableRecord
  2
GEN_A4
340
0
310
2800000020000000200000000100080000000000000400000000000000000000000000000000000000000000000080000080000000808000800000008000800080800000C0C0C000C0DCC000F0CAA6000020400000206000002080000020A0000020C0000020E00000400000004020000040400000406000004080000040A0
310
000040C0000040E00000600000006020000060400000606000006080000060A0000060C0000060E00000800000008020000080400000806000008080000080A0000080C0000080E00000A0000000A0200000A0400000A0600000A0800000A0A00000A0C00000A0E00000C0000000C0200000C0400000C0600000C0800000C0
310
A00000C0C00000C0E00000E0000000E0200000E0400000E0600000E0800000E0A00000E0C00000E0E00040000000400020004000400040006000400080004000A0004000C0004000E00040200000402020004020400040206000402080004020A0004020C0004020E000404000004040200040404000404060004040800040
310
40A0004040C0004040E00040600000406020004060400040606000406080004060A0004060C0004060E00040800000408020004080400040806000408080004080A0004080C0004080E00040A0000040A0200040A0400040A0600040A0800040A0A00040A0C00040A0E00040C0000040C0200040C0400040C0600040C08000
310
40C0A00040C0C00040C0E00040E0000040E0200040E0400040E0600040E0800040E0A00040E0C00040E0E00080000000800020008000400080006000800080008000A0008000C0008000E00080200000802020008020400080206000802080008020A0008020C0008020E00080400000804020008040400080406000804080
310
008040A0008040C0008040E00080600000806020008060400080606000806080008060A0008060C0008060E00080800000808020008080400080806000808080008080A0008080C0008080E00080A0000080A0200080A0400080A0600080A0800080A0A00080A0C00080A0E00080C0000080C0200080C0400080C0600080C0
310
800080C0A00080C0C00080C0E00080E0000080E0200080E0400080E0600080E0800080E0A00080E0C00080E0E000C0000000C0002000C0004000C0006000C0008000C000A000C000C000C000E000C0200000C0202000C0204000C0206000C0208000C020A000C020C000C020E000C0400000C0402000C0404000C0406000C0
310
408000C040A000C040C000C040E000C0600000C0602000C0604000C0606000C0608000C060A000C060C000C060E000C0800000C0802000C0804000C0806000C0808000C080A000C080C000C080E000C0A00000C0A02000C0A04000C0A06000C0A08000C0A0A000C0A0C000C0A0E000C0C00000C0C02000C0C04000C0C06000
310
C0C08000C0C0A000F0FBFF00A4A0A000808080000000FF0000FF000000FFFF00FF000000FF00FF00FFFF0000FFFFFF00000000000000000000000000000000000000000000000000000000000000000000000000F9F9F9F9F9F9F9F9F9F9F9F9F9F9F9F9F9F9F9F9F90000000000000000000000F900FFFFFFFFFFFFFFFFFF
310
FFFFFFFFFFFFFFFFFFF90000000000000000000000F900FF00000000000000000000000000000000FFF90000000000000000000000F900FF00000000000000000000000000000000FFF90000000000000000000000F900FF00000000000000000000000000000000FFF90000000000000000000000F900FF00000000000000
310
000000000000000000FFF90000000000000000000000F900FF00000000000000000000000000000000FFF90000000000000000000000F900FF00000000000000000000000000000000FFF90000000000000000000000F900FF00000000000000000000000000000000FFF90000000000000000000000F900FF000000000000
310
00000000000000000000FFF90000000000000000000000F9F9F900000000000000000000000000000000FFF90000000000000000000000F9F9FF00000000000000000000000000000000FFF90000000000000000000000F9F9FF00000000000000000000000000000000FFF90000000000000000000000F9F9FF0000000000
310
0000000000000000000000FFF90000000000000000000000F9F9F900000000000000000000000000000000FFF90000000000000000000000F9F9FF00000000000000000000000000000000FFF90000000000000000000000F9F9FF00000000000000000000000000000000FFF90000000000000000000000F9F9FF00000000
310
000000000000000000000000FFF90000000000000000000000F9F9FF00000000000000000000000000000000FFF90000000000000000000000F9F9F900000000000000000000000000000000FFF90000000000000000000000F9F9FF00000000000000000000000000000000FFF90000000000000000000000F9F9FF000000
310
00000000000000000000000000FFF90000000000000000000000F9F9FF00000000000000000000000000000000FFF90000000000000000000000F9F9F900000000000000000000000000000000FFF90000000000000000000000F9F9FF00000000000000000000000000000000FFF90000000000000000000000F9F9FF0000
310
0000000000000000000000000000FFF90000000000000000000000F9F9FF00000000000000000000000000000000FFF90000000000000000000000F9F9FFF9F9F9F9F9F9F9F9F9F9F9F9F9F9F9F9F9F90000000000000000000000F9F9F9FFF9FFF9FFF9FFF9FFFFF9FFF9FFF9FFFFF9000000000000000000000000000000
310
0000000000000000000000000000000000000000000000000000000000000000000000000000000000000000000000000000000000000000
  0
BLOCK_RECORD
  5
232
330
1
100
AcDbSymbolTableRecord
100
AcDbBlockTableRecord
  2
GENTITUS
340
0
310
2800000020000000200000000100080000000000000400000000000000000000000000000000000000000000000080000080000000808000800000008000800080800000C0C0C000C0DCC000F0CAA6000020400000206000002080000020A0000020C0000020E00000400000004020000040400000406000004080000040A0
310
000040C0000040E00000600000006020000060400000606000006080000060A0000060C0000060E00000800000008020000080400000806000008080000080A0000080C0000080E00000A0000000A0200000A0400000A0600000A0800000A0A00000A0C00000A0E00000C0000000C0200000C0400000C0600000C0800000C0
310
A00000C0C00000C0E00000E0000000E0200000E0400000E0600000E0800000E0A00000E0C00000E0E00040000000400020004000400040006000400080004000A0004000C0004000E00040200000402020004020400040206000402080004020A0004020C0004020E000404000004040200040404000404060004040800040
310
40A0004040C0004040E00040600000406020004060400040606000406080004060A0004060C0004060E00040800000408020004080400040806000408080004080A0004080C0004080E00040A0000040A0200040A0400040A0600040A0800040A0A00040A0C00040A0E00040C0000040C0200040C0400040C0600040C08000
310
40C0A00040C0C00040C0E00040E0000040E0200040E0400040E0600040E0800040E0A00040E0C00040E0E00080000000800020008000400080006000800080008000A0008000C0008000E00080200000802020008020400080206000802080008020A0008020C0008020E00080400000804020008040400080406000804080
310
008040A0008040C0008040E00080600000806020008060400080606000806080008060A0008060C0008060E00080800000808020008080400080806000808080008080A0008080C0008080E00080A0000080A0200080A0400080A0600080A0800080A0A00080A0C00080A0E00080C0000080C0200080C0400080C0600080C0
310
800080C0A00080C0C00080C0E00080E0000080E0200080E0400080E0600080E0800080E0A00080E0C00080E0E000C0000000C0002000C0004000C0006000C0008000C000A000C000C000C000E000C0200000C0202000C0204000C0206000C0208000C020A000C020C000C020E000C0400000C0402000C0404000C0406000C0
310
408000C040A000C040C000C040E000C0600000C0602000C0604000C0606000C0608000C060A000C060C000C060E000C0800000C0802000C0804000C0806000C0808000C080A000C080C000C080E000C0A00000C0A02000C0A04000C0A06000C0A08000C0A0A000C0A0C000C0A0E000C0C00000C0C02000C0C04000C0C06000
310
C0C08000C0C0A000F0FBFF00A4A0A000808080000000FF0000FF000000FFFF00FF000000FF00FF00FFFF0000FFFFFF0000000000000000000000000000000000000000000000000000000000000000000000000000000000000000000000000000000000000000000000000000000000000000000000000000000000000000
310
00000000000000000000000000000000000000000000000000000000000000000000000000000000000000000000000000000000000000000000000000000000000000000000000000000000000000000000000000000000000000000000000000000000000000000000000000000000000000000000000000000000000000
310
00000000000000000000000000000000000000000000000000000000000000000000000000000000000000000000000000000000000000000000000000000000000000000000000000000000000000000000000000000000000000000000000000000000000000000000000000000000000000000000000000000000000000
310
0000000000000000000000000000000000000000FFFFFFFFFFFFFFFFFFF9F9FFFFFFFFF9FFFFFFFFFFFFF9F9FFFFFFFFFFFFF900F9F9F9F9F9F9F9F9F9F9F9F9F9F9F9F9F9F9F9F9F9F9F9F9F9F9F9F9F9F9F900FF0000000000000000F9F9F9F9F9F9F9F9F9FFFFFFFFFFFFFFFFFFF9FFFF0000F9F9F9F9F9F9F9F9F9F9FF
310
F9FFFFFFF9FFFFFFFFFFFFFFFFFFFFFFF9FFFF0000F9F9F9F9F9F9F9F9F9F9F9F9F9FBFBFBFBFBFBFBFB0000000000000000FF0000F9F9F9F9F9F9F9F9F9F9F9F9F9FFFFFFFFFFFFFFFFFFFFFF0000000000FF0000F9F9F9F9F9F9F9F9F9F9F9F9F9FFFFFFFFFFFFFFFFFFFFFF0000000000FF0000F9F9F9F9F9F9F9F9F9F9
310
F9F9F9F9F9F9F9F9F9F9F9F9F9F9F9F9F9F9F9FF0000FFF9F9F900F9F9F9F9FFF9F9FBFBFBFBFBFBFBFBFB0000000000000000FF0000F9F9F9F9F9F9F9F9F9F9FFFFFFFFFFFFFFFFFFFFFFFFFFFFFFFFFFFFFFFF00000000000000000000000000000000000000000000000000000000000000000000000000000000000000
310
00000000000000000000000000000000000000000000000000000000000000000000000000000000000000000000000000000000000000000000000000000000000000000000000000000000000000000000000000000000000000000000000000000000000000000000000000000000000000000000000000000000000000
310
00000000000000000000000000000000000000000000000000000000000000000000000000000000000000000000000000000000000000000000000000000000000000000000000000000000000000000000000000000000000000000000000000000000000000000000000000000000000000000000000000000000000000
310
0000000000000000000000000000000000000000000000000000000000000000000000000000000000000000000000000000000000000000
  0
BLOCK_RECORD
  5
26D
330
1
100
AcDbSymbolTableRecord
100
AcDbBlockTableRecord
  2
IGS-A4
340
0
310
2800000020000000200000000100080000000000000400000000000000000000000000000000000000000000000080000080000000808000800000008000800080800000C0C0C000C0DCC000F0CAA6000020400000206000002080000020A0000020C0000020E00000400000004020000040400000406000004080000040A0
310
000040C0000040E00000600000006020000060400000606000006080000060A0000060C0000060E00000800000008020000080400000806000008080000080A0000080C0000080E00000A0000000A0200000A0400000A0600000A0800000A0A00000A0C00000A0E00000C0000000C0200000C0400000C0600000C0800000C0
310
A00000C0C00000C0E00000E0000000E0200000E0400000E0600000E0800000E0A00000E0C00000E0E00040000000400020004000400040006000400080004000A0004000C0004000E00040200000402020004020400040206000402080004020A0004020C0004020E000404000004040200040404000404060004040800040
310
40A0004040C0004040E00040600000406020004060400040606000406080004060A0004060C0004060E00040800000408020004080400040806000408080004080A0004080C0004080E00040A0000040A0200040A0400040A0600040A0800040A0A00040A0C00040A0E00040C0000040C0200040C0400040C0600040C08000
310
40C0A00040C0C00040C0E00040E0000040E0200040E0400040E0600040E0800040E0A00040E0C00040E0E00080000000800020008000400080006000800080008000A0008000C0008000E00080200000802020008020400080206000802080008020A0008020C0008020E00080400000804020008040400080406000804080
310
008040A0008040C0008040E00080600000806020008060400080606000806080008060A0008060C0008060E00080800000808020008080400080806000808080008080A0008080C0008080E00080A0000080A0200080A0400080A0600080A0800080A0A00080A0C00080A0E00080C0000080C0200080C0400080C0600080C0
310
800080C0A00080C0C00080C0E00080E0000080E0200080E0400080E0600080E0800080E0A00080E0C00080E0E000C0000000C0002000C0004000C0006000C0008000C000A000C000C000C000E000C0200000C0202000C0204000C0206000C0208000C020A000C020C000C020E000C0400000C0402000C0404000C0406000C0
310
408000C040A000C040C000C040E000C0600000C0602000C0604000C0606000C0608000C060A000C060C000C060E000C0800000C0802000C0804000C0806000C0808000C080A000C080C000C080E000C0A00000C0A02000C0A04000C0A06000C0A08000C0A0A000C0A0C000C0A0E000C0C00000C0C02000C0C04000C0C06000
310
C0C08000C0C0A000F0FBFF00A4A0A000808080000000FF0000FF000000FFFF00FF000000FF00FF00FFFF0000FFFFFF0000000000000000000000000000000000000000000000000000000000000000000000000000000000000000000000000000000000000000000000000000000000000000000000FFFFFFFFFFFFFFFFFF
310
FFFFFFFFFFFFFFFFFF0000000000000000000000000000FF00000000000000000000000000000000FF0000000000000000000000000000FF00000000000000000000000000000000FF0000000000000000000000000000FF00000000000000000000000000000000FF0000000000000000000000000000FF00000000000000
310
000000000000000000FF0000000000000000000000000000FF00000000000000000000000000000000FF0000000000000000000000000000FF00000000000000000000000000000000FF0000000000000000000000000000FF00000000000000000000000000000000FF0000000000000000000000000000FF000000000000
310
00000000000000000000FF0000000000000000000000000000FF00000000000000000000000000000000FF0000000000000000000000000000FF00000000000000000000000000000000FF0000000000000000000000000000FF00000000000000000000000000000000FF0000000000000000000000000000FF0000000000
310
0000000000000000000000FF0000000000000000000000000000FF00000000000000000000000000000000FF0000000000000000000000000000FF00000000000000000000000000000000FF0000000000000000000000000000FF00000000000000000000000000000000FF0000000000000000000000000000FF00000000
310
000000000000000000000000FF0000000000000000000000000000FF00000000000000000000000000000000FF0000000000000000000000000000FF00000000000000000000000000000000FF0000000000000000000000000000FF00000000000000000000000000000000FF0000000000000000000000000000FF000000
310
00000000000000000000000000FF0000000000000000000000000000FF00000000000000000000000000000000FF0000000000000000000000000000FF00000000000000000000000000000000FF0000000000000000000000000000FF00000000000000000000000000000000FF0000000000000000000000000000FF0000
310
0000000000000000000000000000FF0000000000000000000000000000FF00000000000000000000000000000000FF0000000000000000000000000000FF00000000000000000000000000000000FF0000000000000000000000000000FFFFFFFFFFFFFFFFFFFFFFFFFFFFFFFFFFFF00000000000000000000000000000000
310
0000000000000000000000000000000000000000000000000000000000000000000000000000000000000000000000000000000000000000
  0
BLOCK_RECORD
  5
279
330
1
100
AcDbSymbolTableRecord
100
AcDbBlockTableRecord
  2
CI
340
0
310
2800000020000000200000000100080000000000000400000000000000000000000000000000000000000000000080000080000000808000800000008000800080800000C0C0C000C0DCC000F0CAA6000020400000206000002080000020A0000020C0000020E00000400000004020000040400000406000004080000040A0
310
000040C0000040E00000600000006020000060400000606000006080000060A0000060C0000060E00000800000008020000080400000806000008080000080A0000080C0000080E00000A0000000A0200000A0400000A0600000A0800000A0A00000A0C00000A0E00000C0000000C0200000C0400000C0600000C0800000C0
310
A00000C0C00000C0E00000E0000000E0200000E0400000E0600000E0800000E0A00000E0C00000E0E00040000000400020004000400040006000400080004000A0004000C0004000E00040200000402020004020400040206000402080004020A0004020C0004020E000404000004040200040404000404060004040800040
310
40A0004040C0004040E00040600000406020004060400040606000406080004060A0004060C0004060E00040800000408020004080400040806000408080004080A0004080C0004080E00040A0000040A0200040A0400040A0600040A0800040A0A00040A0C00040A0E00040C0000040C0200040C0400040C0600040C08000
310
40C0A00040C0C00040C0E00040E0000040E0200040E0400040E0600040E0800040E0A00040E0C00040E0E00080000000800020008000400080006000800080008000A0008000C0008000E00080200000802020008020400080206000802080008020A0008020C0008020E00080400000804020008040400080406000804080
310
008040A0008040C0008040E00080600000806020008060400080606000806080008060A0008060C0008060E00080800000808020008080400080806000808080008080A0008080C0008080E00080A0000080A0200080A0400080A0600080A0800080A0A00080A0C00080A0E00080C0000080C0200080C0400080C0600080C0
310
800080C0A00080C0C00080C0E00080E0000080E0200080E0400080E0600080E0800080E0A00080E0C00080E0E000C0000000C0002000C0004000C0006000C0008000C000A000C000C000C000E000C0200000C0202000C0204000C0206000C0208000C020A000C020C000C020E000C0400000C0402000C0404000C0406000C0
310
408000C040A000C040C000C040E000C0600000C0602000C0604000C0606000C0608000C060A000C060C000C060E000C0800000C0802000C0804000C0806000C0808000C080A000C080C000C080E000C0A00000C0A02000C0A04000C0A06000C0A08000C0A0A000C0A0C000C0A0E000C0C00000C0C02000C0C04000C0C06000
310
C0C08000C0C0A000F0FBFF00A4A0A000808080000000FF0000FF000000FFFF00FF000000FF00FF00FFFF0000FFFFFF0000000000000000000000000000000000000000000000000000000000000000000000000000000000000000000000000000000000000000000000000000000000000000000000000000000000FFFFFF
310
00000000000000000000000000000000000000000000000000000000FF000000FFFFFFFFFFFF0000000000000000000000000000000000000000FFFF00000000000000000000FFFFFFFF000000000000000000000000000000FF00000000000000000000000000000000FF00000000000000000000000000FF000000000000
310
0000000000000000000000FF0000000000000000000000FFFF00000000000000000000000000000000000000FF000000000000000000FF000000000000000000000000000000000000000000FF0000000000000000FF0000000000000000000000000000000000000000000000FF00000000000000FF000000000000000000
310
0000000000000000000000000000FF00000000000000FF000000000000000000000000000000000000000000000000FF000000000000FF000000000000000000000000000000000000000000000000FF000000000000FF00000000000000000000000000000000000000000000000000FF0000000000FF0000000000000000
310
0000000000000000000000000000000000FF0000000000FF0000000000000000000000000000000000000000000000000000FF00000000FF0000000000000000000000000000000000000000000000000000FF00000000FF00000000000000000000000000000000000000000000000000FF0000000000FF00000000000000
310
000000000000000000000000000000000000FF0000000000FF000000000000000000000000000000000000000000000000FF000000000000FF000000000000000000000000000000000000000000000000FF000000000000FF0000000000000000000000000000000000000000000000FF00000000000000FF000000000000
310
0000000000000000000000000000000000FF0000000000000000FF000000000000000000000000000000000000000000FF00000000000000000000FFFF00000000000000000000000000000000000000FF000000000000000000000000FF0000000000000000000000000000000000FF0000000000000000000000000000FF
310
00000000000000000000000000000000FF000000000000000000000000000000FFFF0000000000000000000000FFFFFF000000000000000000000000000000000000FF00000000FFFFFFFFFFFF00000000000000000000000000000000000000000000FFFFFFFF000000000000000000000000000000000000000000000000
310
0000000000000000000000000000000000000000000000000000000000000000000000000000000000000000000000000000000000000000
  0
BLOCK_RECORD
  5
27D
330
1
100
AcDbSymbolTableRecord
100
AcDbBlockTableRecord
  2
IGS-TITLE
340
0
310
2800000020000000200000000100080000000000000400000000000000000000000000000000000000000000000080000080000000808000800000008000800080800000C0C0C000C0DCC000F0CAA6000020400000206000002080000020A0000020C0000020E00000400000004020000040400000406000004080000040A0
310
000040C0000040E00000600000006020000060400000606000006080000060A0000060C0000060E00000800000008020000080400000806000008080000080A0000080C0000080E00000A0000000A0200000A0400000A0600000A0800000A0A00000A0C00000A0E00000C0000000C0200000C0400000C0600000C0800000C0
310
A00000C0C00000C0E00000E0000000E0200000E0400000E0600000E0800000E0A00000E0C00000E0E00040000000400020004000400040006000400080004000A0004000C0004000E00040200000402020004020400040206000402080004020A0004020C0004020E000404000004040200040404000404060004040800040
310
40A0004040C0004040E00040600000406020004060400040606000406080004060A0004060C0004060E00040800000408020004080400040806000408080004080A0004080C0004080E00040A0000040A0200040A0400040A0600040A0800040A0A00040A0C00040A0E00040C0000040C0200040C0400040C0600040C08000
310
40C0A00040C0C00040C0E00040E0000040E0200040E0400040E0600040E0800040E0A00040E0C00040E0E00080000000800020008000400080006000800080008000A0008000C0008000E00080200000802020008020400080206000802080008020A0008020C0008020E00080400000804020008040400080406000804080
310
008040A0008040C0008040E00080600000806020008060400080606000806080008060A0008060C0008060E00080800000808020008080400080806000808080008080A0008080C0008080E00080A0000080A0200080A0400080A0600080A0800080A0A00080A0C00080A0E00080C0000080C0200080C0400080C0600080C0
310
800080C0A00080C0C00080C0E00080E0000080E0200080E0400080E0600080E0800080E0A00080E0C00080E0E000C0000000C0002000C0004000C0006000C0008000C000A000C000C000C000E000C0200000C0202000C0204000C0206000C0208000C020A000C020C000C020E000C0400000C0402000C0404000C0406000C0
310
408000C040A000C040C000C040E000C0600000C0602000C0604000C0606000C0608000C060A000C060C000C060E000C0800000C0802000C0804000C0806000C0808000C080A000C080C000C080E000C0A00000C0A02000C0A04000C0A06000C0A08000C0A0A000C0A0C000C0A0E000C0C00000C0C02000C0C04000C0C06000
310
C0C08000C0C0A000F0FBFF00A4A0A000808080000000FF0000FF000000FFFF00FF000000FF00FF00FFFF0000FFFFFF0000000000000000000000000000000000000000000000000000000000000000000000000000000000000000000000000000000000000000000000000000000000000000000000000000000000000000
310
00000000000000000000000000000000000000000000000000000000000000000000000000000000000000000000000000000000000000000000000000000000000000000000000000000000000000000000000000000000000000000000000000000000000000000000000000000000000000000000000000000000000000
310
00000000000000000000000000000000000000000000000000000000000000000000000000000000000000000000000000000000000000000000000000000000000000000000000000000000000000000000000000000000000000000000000000000000000000000000000000000000000000000000000000000000000000
310
0000000000000000000000000000000000000000000000000000000000000000000000000000000000000000000000000000000000000000000000000000000000000000000000000000000000000000000000000000000000000000000000000000000000000000000000000000000000000000FFFFFFFFFFFFFFFFFFFFFF
310
FFFFFFFFFFFFFFFFFFFFFFFFFFFFFFFFFFFFFF0000FFFFFFFFFFFFFFFFFFFFFFFFFFFFFFFFFFFFFFFFFFFFFFFFFFFFFFFFFFFF0000FFFFFFFFFFFFFFFFFFFFFFFFFFFFFFFFFFFF00000000FFFF000000FFFFFF0000FFFFFFFFFFFFFFFFFFFFFFFFFFFFFFFFFFFFFFFFFFFFFFFFFFFFFFFFFFFF000000000000000000000000
310
00000000000000000000000000000000000000000000000000000000000000000000000000000000000000000000000000000000000000000000000000000000000000000000000000000000000000000000000000000000000000000000000000000000000000000000000000000000000000000000000000000000000000
310
00000000000000000000000000000000000000000000000000000000000000000000000000000000000000000000000000000000000000000000000000000000000000000000000000000000000000000000000000000000000000000000000000000000000000000000000000000000000000000000000000000000000000
310
00000000000000000000000000000000000000000000000000000000000000000000000000000000000000000000000000000000000000000000000000000000000000000000000000000000000000000000000000000000000000000000000000000000000000000000000000000000000000000000000000000000000000
310
0000000000000000000000000000000000000000000000000000000000000000000000000000000000000000000000000000000000000000
  0
BLOCK_RECORD
  5
335
330
1
100
AcDbSymbolTableRecord
100
AcDbBlockTableRecord
  2
IGS2
340
0
310
2800000020000000200000000100080000000000000400000000000000000000000000000000000000000000000080000080000000808000800000008000800080800000C0C0C000C0DCC000F0CAA6000020400000206000002080000020A0000020C0000020E00000400000004020000040400000406000004080000040A0
310
000040C0000040E00000600000006020000060400000606000006080000060A0000060C0000060E00000800000008020000080400000806000008080000080A0000080C0000080E00000A0000000A0200000A0400000A0600000A0800000A0A00000A0C00000A0E00000C0000000C0200000C0400000C0600000C0800000C0
310
A00000C0C00000C0E00000E0000000E0200000E0400000E0600000E0800000E0A00000E0C00000E0E00040000000400020004000400040006000400080004000A0004000C0004000E00040200000402020004020400040206000402080004020A0004020C0004020E000404000004040200040404000404060004040800040
310
40A0004040C0004040E00040600000406020004060400040606000406080004060A0004060C0004060E00040800000408020004080400040806000408080004080A0004080C0004080E00040A0000040A0200040A0400040A0600040A0800040A0A00040A0C00040A0E00040C0000040C0200040C0400040C0600040C08000
310
40C0A00040C0C00040C0E00040E0000040E0200040E0400040E0600040E0800040E0A00040E0C00040E0E00080000000800020008000400080006000800080008000A0008000C0008000E00080200000802020008020400080206000802080008020A0008020C0008020E00080400000804020008040400080406000804080
310
008040A0008040C0008040E00080600000806020008060400080606000806080008060A0008060C0008060E00080800000808020008080400080806000808080008080A0008080C0008080E00080A0000080A0200080A0400080A0600080A0800080A0A00080A0C00080A0E00080C0000080C0200080C0400080C0600080C0
310
800080C0A00080C0C00080C0E00080E0000080E0200080E0400080E0600080E0800080E0A00080E0C00080E0E000C0000000C0002000C0004000C0006000C0008000C000A000C000C000C000E000C0200000C0202000C0204000C0206000C0208000C020A000C020C000C020E000C0400000C0402000C0404000C0406000C0
310
408000C040A000C040C000C040E000C0600000C0602000C0604000C0606000C0608000C060A000C060C000C060E000C0800000C0802000C0804000C0806000C0808000C080A000C080C000C080E000C0A00000C0A02000C0A04000C0A06000C0A08000C0A0A000C0A0C000C0A0E000C0C00000C0C02000C0C04000C0C06000
310
C0C08000C0C0A000F0FBFF00A4A0A000808080000000FF0000FF000000FFFF00FF000000FF00FF00FFFF0000FFFFFF0000000000000000000000000000000000000000000000000000000000000000000000000000000000000000000000000000000000000000000000000000000000000000000000000000000000000000
310
00000000000000000000000000000000000000000000000000000000000000000000000000000000000000000000000000000000000000000000000000000000000000000000000000000000000000000000F9FBFBF9F9F9FBFBF9F9F9F90000000000000000000000000000000000000000F9F9FBFBFBFBFBFBFBF9F9F900
310
00000000000000000000000000000000000000F9FBFBFBFBFBFBFBFBF9F9F90000000000000000000000000000000000000000F9F9F9F9F9F9F9F9F9F9F9F900000000000000000000000000000000000000000000000000000000000000000000000000000000000000000000000000000000000000000000000000000000
310
00000000000000000000000000000000000000000000000000000000000000000000000000000000000000000000000000000000000000000000000000000000000000000000000000000000000000000000000000000000000000000000000000000000000000000000000000000000000000000000000000000000000000
310
00000000000000000000000000000000000000000000000000000000000000000000000000000000000000000000000000000000000000000000000000000000000000000000000000000000000000000000000000000000000000000000000000000000000000000000000000000000000000000000000000000000000000
310
00000000000000000000000000000000000000000000000000000000000000000000000000000000000000000000000000000000000000000000000000000000000000000000000000000000000000000000000000000000000000000000000000000000000000000000000000000000000000000000000000000000000000
310
00000000000000000000000000000000000000000000000000000000000000000000000000000000000000000000000000000000000000000000000000000000000000000000000000000000000000000000000000000000000000000000000000000000000000000000000000000000000000000000000000000000000000
310
00000000000000000000000000000000000000000000000000000000000000000000000000000000000000000000000000000000000000000000000000000000000000000000000000000000000000000000000000000000000000000000000000000000000000000000000000000000000000000000000000000000000000
310
0000000000000000000000000000000000000000000000000000000000000000000000000000000000000000000000000000000000000000
  0
BLOCK_RECORD
  5
3FC
330
1
100
AcDbSymbolTableRecord
100
AcDbBlockTableRecord
  2
IGS_A1
340
0
310
2800000020000000200000000100080000000000000400000000000000000000000000000000000000000000000080000080000000808000800000008000800080800000C0C0C000C0DCC000F0CAA6000020400000206000002080000020A0000020C0000020E00000400000004020000040400000406000004080000040A0
310
000040C0000040E00000600000006020000060400000606000006080000060A0000060C0000060E00000800000008020000080400000806000008080000080A0000080C0000080E00000A0000000A0200000A0400000A0600000A0800000A0A00000A0C00000A0E00000C0000000C0200000C0400000C0600000C0800000C0
310
A00000C0C00000C0E00000E0000000E0200000E0400000E0600000E0800000E0A00000E0C00000E0E00040000000400020004000400040006000400080004000A0004000C0004000E00040200000402020004020400040206000402080004020A0004020C0004020E000404000004040200040404000404060004040800040
310
40A0004040C0004040E00040600000406020004060400040606000406080004060A0004060C0004060E00040800000408020004080400040806000408080004080A0004080C0004080E00040A0000040A0200040A0400040A0600040A0800040A0A00040A0C00040A0E00040C0000040C0200040C0400040C0600040C08000
310
40C0A00040C0C00040C0E00040E0000040E0200040E0400040E0600040E0800040E0A00040E0C00040E0E00080000000800020008000400080006000800080008000A0008000C0008000E00080200000802020008020400080206000802080008020A0008020C0008020E00080400000804020008040400080406000804080
310
008040A0008040C0008040E00080600000806020008060400080606000806080008060A0008060C0008060E00080800000808020008080400080806000808080008080A0008080C0008080E00080A0000080A0200080A0400080A0600080A0800080A0A00080A0C00080A0E00080C0000080C0200080C0400080C0600080C0
310
800080C0A00080C0C00080C0E00080E0000080E0200080E0400080E0600080E0800080E0A00080E0C00080E0E000C0000000C0002000C0004000C0006000C0008000C000A000C000C000C000E000C0200000C0202000C0204000C0206000C0208000C020A000C020C000C020E000C0400000C0402000C0404000C0406000C0
310
408000C040A000C040C000C040E000C0600000C0602000C0604000C0606000C0608000C060A000C060C000C060E000C0800000C0802000C0804000C0806000C0808000C080A000C080C000C080E000C0A00000C0A02000C0A04000C0A06000C0A08000C0A0A000C0A0C000C0A0E000C0C00000C0C02000C0C04000C0C06000
310
C0C08000C0C0A000F0FBFF00A4A0A000808080000000FF0000FF000000FFFF00FF000000FF00FF00FFFF0000FFFFFF0000000000000000000000000000000000000000000000000000000000000000000000000000000000000000000000000000000000000000000000000000000000000000000000000000000000000000
310
00000000000000000000000000000000000000000000000000000000000000000000000000000000000000000000000000000000000000000000000000000000000000000000000000000000000000000000000000000000000000000000000000000000000000000000000000000000000000000000000000000000000000
310
00000000000000000000000000000000000000F9F9F9F9F9F9F9F9F9F9F9F9F9F9F9F9F9F9F9F9F9F9F9F9F9F9000000000000F9FF0000000000000000000000000000000000000000000000F9000000000000F9FF0000000000000000000000000000000000000000000000F9000000000000F9FF00000000000000000000
310
00000000000000000000000000F9000000000000F9FF0000000000000000000000000000000000000000000000F9000000000000F9FF0000000000000000000000000000000000000000000000F9000000000000F9FF0000000000000000000000000000000000000000000000F9000000000000F9FF000000000000000000
310
0000000000000000000000000000F9000000000000F9FF0000000000000000000000000000000000000000000000F9000000000000F9FF0000000000000000000000000000000000000000000000F9000000000000F9FF0000000000000000000000000000000000000000000000F9000000000000F9FF0000000000000000
310
000000000000000000000000000000F9000000000000F9FF0000000000000000000000000000000000000000000000F9000000000000F9FF0000000000000000000000000000000000000000000000F9000000000000F9FF0000000000000000000000000000000000000000000000F9000000000000F9FF00000000000000
310
00000000000000000000000000000000F9000000000000F9FF0000000000000000000000000000000000000000000000F9000000000000F9F9F9F9F9F9F9F9F9F9F9F9F9F9F9F9F9F9F9F9F9F9F9F9F9F900000000000000000000000000000000000000000000000000000000000000000000000000000000000000000000
310
00000000000000000000000000000000000000000000000000000000000000000000000000000000000000000000000000000000000000000000000000000000000000000000000000000000000000000000000000000000000000000000000000000000000000000000000000000000000000000000000000000000000000
310
0000000000000000000000000000000000000000000000000000000000000000000000000000000000000000000000000000000000000000
  0
BLOCK_RECORD
  5
50A
330
1
100
AcDbSymbolTableRecord
100
AcDbBlockTableRecord
  2
jis_bl_revisionlist1
340
0
310
2800000020000000200000000100080000000000000400000000000000000000000000000000000000000000000080000080000000808000800000008000800080800000C0C0C000C0DCC000F0CAA6000020400000206000002080000020A0000020C0000020E00000400000004020000040400000406000004080000040A0
310
000040C0000040E00000600000006020000060400000606000006080000060A0000060C0000060E00000800000008020000080400000806000008080000080A0000080C0000080E00000A0000000A0200000A0400000A0600000A0800000A0A00000A0C00000A0E00000C0000000C0200000C0400000C0600000C0800000C0
310
A00000C0C00000C0E00000E0000000E0200000E0400000E0600000E0800000E0A00000E0C00000E0E00040000000400020004000400040006000400080004000A0004000C0004000E00040200000402020004020400040206000402080004020A0004020C0004020E000404000004040200040404000404060004040800040
310
40A0004040C0004040E00040600000406020004060400040606000406080004060A0004060C0004060E00040800000408020004080400040806000408080004080A0004080C0004080E00040A0000040A0200040A0400040A0600040A0800040A0A00040A0C00040A0E00040C0000040C0200040C0400040C0600040C08000
310
40C0A00040C0C00040C0E00040E0000040E0200040E0400040E0600040E0800040E0A00040E0C00040E0E00080000000800020008000400080006000800080008000A0008000C0008000E00080200000802020008020400080206000802080008020A0008020C0008020E00080400000804020008040400080406000804080
310
008040A0008040C0008040E00080600000806020008060400080606000806080008060A0008060C0008060E00080800000808020008080400080806000808080008080A0008080C0008080E00080A0000080A0200080A0400080A0600080A0800080A0A00080A0C00080A0E00080C0000080C0200080C0400080C0600080C0
310
800080C0A00080C0C00080C0E00080E0000080E0200080E0400080E0600080E0800080E0A00080E0C00080E0E000C0000000C0002000C0004000C0006000C0008000C000A000C000C000C000E000C0200000C0202000C0204000C0206000C0208000C020A000C020C000C020E000C0400000C0402000C0404000C0406000C0
310
408000C040A000C040C000C040E000C0600000C0602000C0604000C0606000C0608000C060A000C060C000C060E000C0800000C0802000C0804000C0806000C0808000C080A000C080C000C080E000C0A00000C0A02000C0A04000C0A06000C0A08000C0A0A000C0A0C000C0A0E000C0C00000C0C02000C0C04000C0C06000
310
C0C08000C0C0A000F0FBFF00A4A0A000808080000000FF0000FF000000FFFF00FF000000FF00FF00FFFF0000FFFFFF0000000000000000000000000000000000000000000000000000000000000000000000000000000000000000000000000000000000000000000000000000000000000000000000000000000000000000
310
00000000000000000000000000000000000000000000000000000000000000000000000000000000000000000000000000000000000000000000000000000000000000000000000000000000000000000000000000000000000000000000000000000000000000000000000000000000000000000000000000000000000000
310
00000000000000000000000000000000000000000000000000000000000000000000000000000000000000000000000000000000000000000000000000000000000000000000000000000000000000000000000000000000000000000000000000000000000000000000000000000000000000000000000000000000000000
310
00000000000000000000000000000000000000000000000000000000000000000000000000000000000000000000000000000000000000000000000000000000000000000000000000000000000000000000000000000000000000000000000000000000000000000000000000000000000000000000000000000000000000
310
000000000000000000000000000000000000000000FFFFFFFFFFFFFFFFFFFFFFFFFFFFFFFFFFFFFFFFFFFFFFFFFFFFFFFF00000000FFFFFFFFFFFFFFFFFFFFFFFFFFFFFFFFFFFFFFFFFFFFFFFFFFFFFFFFFFFF0000000000000000000000000000000000000000000000000000000000000000000000000000000000000000
310
00000000000000000000000000000000000000000000000000000000000000000000000000000000000000000000000000000000000000000000000000000000000000000000000000000000000000000000000000000000000000000000000000000000000000000000000000000000000000000000000000000000000000
310
00000000000000000000000000000000000000000000000000000000000000000000000000000000000000000000000000000000000000000000000000000000000000000000000000000000000000000000000000000000000000000000000000000000000000000000000000000000000000000000000000000000000000
310
00000000000000000000000000000000000000000000000000000000000000000000000000000000000000000000000000000000000000000000000000000000000000000000000000000000000000000000000000000000000000000000000000000000000000000000000000000000000000000000000000000000000000
310
0000000000000000000000000000000000000000000000000000000000000000000000000000000000000000000000000000000000000000
102
{BLKREFS
331
52F
102
}
1001
ACAD
1000
DesignCenter Data
1002
{
1070
     1
1070
     1
1002
}
  0
BLOCK_RECORD
  5
520
330
1
100
AcDbSymbolTableRecord
100
AcDbBlockTableRecord
  2
jis_bl_revisionlist0
340
0
310
2800000020000000200000000100080000000000000400000000000000000000000000000000000000000000000080000080000000808000800000008000800080800000C0C0C000C0DCC000F0CAA6000020400000206000002080000020A0000020C0000020E00000400000004020000040400000406000004080000040A0
310
000040C0000040E00000600000006020000060400000606000006080000060A0000060C0000060E00000800000008020000080400000806000008080000080A0000080C0000080E00000A0000000A0200000A0400000A0600000A0800000A0A00000A0C00000A0E00000C0000000C0200000C0400000C0600000C0800000C0
310
A00000C0C00000C0E00000E0000000E0200000E0400000E0600000E0800000E0A00000E0C00000E0E00040000000400020004000400040006000400080004000A0004000C0004000E00040200000402020004020400040206000402080004020A0004020C0004020E000404000004040200040404000404060004040800040
310
40A0004040C0004040E00040600000406020004060400040606000406080004060A0004060C0004060E00040800000408020004080400040806000408080004080A0004080C0004080E00040A0000040A0200040A0400040A0600040A0800040A0A00040A0C00040A0E00040C0000040C0200040C0400040C0600040C08000
310
40C0A00040C0C00040C0E00040E0000040E0200040E0400040E0600040E0800040E0A00040E0C00040E0E00080000000800020008000400080006000800080008000A0008000C0008000E00080200000802020008020400080206000802080008020A0008020C0008020E00080400000804020008040400080406000804080
310
008040A0008040C0008040E00080600000806020008060400080606000806080008060A0008060C0008060E00080800000808020008080400080806000808080008080A0008080C0008080E00080A0000080A0200080A0400080A0600080A0800080A0A00080A0C00080A0E00080C0000080C0200080C0400080C0600080C0
310
800080C0A00080C0C00080C0E00080E0000080E0200080E0400080E0600080E0800080E0A00080E0C00080E0E000C0000000C0002000C0004000C0006000C0008000C000A000C000C000C000E000C0200000C0202000C0204000C0206000C0208000C020A000C020C000C020E000C0400000C0402000C0404000C0406000C0
310
408000C040A000C040C000C040E000C0600000C0602000C0604000C0606000C0608000C060A000C060C000C060E000C0800000C0802000C0804000C0806000C0808000C080A000C080C000C080E000C0A00000C0A02000C0A04000C0A06000C0A08000C0A0A000C0A0C000C0A0E000C0C00000C0C02000C0C04000C0C06000
310
C0C08000C0C0A000F0FBFF00A4A0A000808080000000FF0000FF000000FFFF00FF000000FF00FF00FFFF0000FFFFFF0000000000000000000000000000000000000000000000000000000000000000000000000000000000000000000000000000000000000000000000000000000000000000000000000000000000000000
310
00000000000000000000000000000000000000000000000000000000000000000000000000000000000000000000000000000000000000000000000000000000000000000000000000000000000000000000000000000000000000000000000000000000000000000000000000000000000000000000000000000000000000
310
00000000000000000000000000000000000000000000000000000000000000000000000000000000000000000000000000000000000000000000000000000000000000000000000000000000000000000000000000000000000000000000000000000000000000000000000000000000000000000000000000000000000000
310
00000000000000000000000000000000000000000000000000000000000000000000000000000000000000000000000000000000000000000000000000000000000000000000000000000000000000000000000000000000000000000000000000000000000000000000000000000000000000000000000000000000000000
310
000000000000000000000000000000000000000000FFFFFFFFFFFFFFFFFFFFFFFFFFFFFFFFFFFFFFFFFFFFFFFFFFFFFFFFFFFF0000FFFFFFFFFFFFFFFFFFFFFFFFFFFFFFFFFFFFFFFFFFFFFFFFFFFFFFFFFFFF0000000000000000000000000000000000000000000000000000000000000000000000000000000000000000
310
00000000000000000000000000000000000000000000000000000000000000000000000000000000000000000000000000000000000000000000000000000000000000000000000000000000000000000000000000000000000000000000000000000000000000000000000000000000000000000000000000000000000000
310
00000000000000000000000000000000000000000000000000000000000000000000000000000000000000000000000000000000000000000000000000000000000000000000000000000000000000000000000000000000000000000000000000000000000000000000000000000000000000000000000000000000000000
310
00000000000000000000000000000000000000000000000000000000000000000000000000000000000000000000000000000000000000000000000000000000000000000000000000000000000000000000000000000000000000000000000000000000000000000000000000000000000000000000000000000000000000
310
0000000000000000000000000000000000000000000000000000000000000000000000000000000000000000000000000000000000000000
102
{BLKREFS
331
537
102
}
1001
ACAD
1000
DesignCenter Data
1002
{
1070
     1
1070
     1
1002
}
  0
BLOCK_RECORD
  5
52E
330
1
100
AcDbSymbolTableRecord
100
AcDbBlockTableRecord
  2
jis_bl_revisionlist
340
0
310
2800000020000000200000000100080000000000000400000000000000000000000000000000000000000000000080000080000000808000800000008000800080800000C0C0C000C0DCC000F0CAA6000020400000206000002080000020A0000020C0000020E00000400000004020000040400000406000004080000040A0
310
000040C0000040E00000600000006020000060400000606000006080000060A0000060C0000060E00000800000008020000080400000806000008080000080A0000080C0000080E00000A0000000A0200000A0400000A0600000A0800000A0A00000A0C00000A0E00000C0000000C0200000C0400000C0600000C0800000C0
310
A00000C0C00000C0E00000E0000000E0200000E0400000E0600000E0800000E0A00000E0C00000E0E00040000000400020004000400040006000400080004000A0004000C0004000E00040200000402020004020400040206000402080004020A0004020C0004020E000404000004040200040404000404060004040800040
310
40A0004040C0004040E00040600000406020004060400040606000406080004060A0004060C0004060E00040800000408020004080400040806000408080004080A0004080C0004080E00040A0000040A0200040A0400040A0600040A0800040A0A00040A0C00040A0E00040C0000040C0200040C0400040C0600040C08000
310
40C0A00040C0C00040C0E00040E0000040E0200040E0400040E0600040E0800040E0A00040E0C00040E0E00080000000800020008000400080006000800080008000A0008000C0008000E00080200000802020008020400080206000802080008020A0008020C0008020E00080400000804020008040400080406000804080
310
008040A0008040C0008040E00080600000806020008060400080606000806080008060A0008060C0008060E00080800000808020008080400080806000808080008080A0008080C0008080E00080A0000080A0200080A0400080A0600080A0800080A0A00080A0C00080A0E00080C0000080C0200080C0400080C0600080C0
310
800080C0A00080C0C00080C0E00080E0000080E0200080E0400080E0600080E0800080E0A00080E0C00080E0E000C0000000C0002000C0004000C0006000C0008000C000A000C000C000C000E000C0200000C0202000C0204000C0206000C0208000C020A000C020C000C020E000C0400000C0402000C0404000C0406000C0
310
408000C040A000C040C000C040E000C0600000C0602000C0604000C0606000C0608000C060A000C060C000C060E000C0800000C0802000C0804000C0806000C0808000C080A000C080C000C080E000C0A00000C0A02000C0A04000C0A06000C0A08000C0A0A000C0A0C000C0A0E000C0C00000C0C02000C0C04000C0C06000
310
C0C08000C0C0A000F0FBFF00A4A0A000808080000000FF0000FF000000FFFF00FF000000FF00FF00FFFF0000FFFFFF0000000000000000000000000000000000000000000000000000000000000000000000000000000000000000000000000000000000000000000000000000000000000000000000000000000000000000
310
00000000000000000000000000000000000000000000000000000000000000000000000000000000000000000000000000000000000000000000000000000000000000000000000000000000000000000000000000000000000000000000000000000000000000000000000000000000000000000000000000000000000000
310
00000000000000000000000000000000000000000000000000000000000000000000000000000000000000000000000000000000000000000000000000000000000000000000000000000000000000000000000000000000000000000000000000000000000000000000000000000000000000000000000000000000000000
310
00000000000000000000000000000000000000000000000000000000000000000000000000000000000000000000000000000000000000000000000000000000000000000000000000000000000000000000000000000000000000000000000000000000000000000000000000000000000000000000000000000000000000
310
000000000000000000000000000000000000000000FFF9F9F9FFF9F9FFFFFFFFFFFFFFFFFFFFFFFFFFFFFFFFFFFFF9F9FFFFFF0000FFFFF9FFFFF9FFFFFFFFFFFFFFFFFFFFFFFFFFFFFFFFFFFFFFF9FFFFFFFF0000000000000000000000000000000000000000000000000000000000000000000000000000000000000000
310
00000000000000000000000000000000000000000000000000000000000000000000000000000000000000000000000000000000000000000000000000000000000000000000000000000000000000000000000000000000000000000000000000000000000000000000000000000000000000000000000000000000000000
310
00000000000000000000000000000000000000000000000000000000000000000000000000000000000000000000000000000000000000000000000000000000000000000000000000000000000000000000000000000000000000000000000000000000000000000000000000000000000000000000000000000000000000
310
00000000000000000000000000000000000000000000000000000000000000000000000000000000000000000000000000000000000000000000000000000000000000000000000000000000000000000000000000000000000000000000000000000000000000000000000000000000000000000000000000000000000000
310
0000000000000000000000000000000000000000000000000000000000000000000000000000000000000000000000000000000000000000
  0
BLOCK_RECORD
  5
5D6
330
1
100
AcDbSymbolTableRecord
100
AcDbBlockTableRecord
  2
jis_br_revisionlist0
340
0
310
2800000020000000200000000100080000000000000400000000000000000000000000000000000000000000000080000080000000808000800000008000800080800000C0C0C000C0DCC000F0CAA6000020400000206000002080000020A0000020C0000020E00000400000004020000040400000406000004080000040A0
310
000040C0000040E00000600000006020000060400000606000006080000060A0000060C0000060E00000800000008020000080400000806000008080000080A0000080C0000080E00000A0000000A0200000A0400000A0600000A0800000A0A00000A0C00000A0E00000C0000000C0200000C0400000C0600000C0800000C0
310
A00000C0C00000C0E00000E0000000E0200000E0400000E0600000E0800000E0A00000E0C00000E0E00040000000400020004000400040006000400080004000A0004000C0004000E00040200000402020004020400040206000402080004020A0004020C0004020E000404000004040200040404000404060004040800040
310
40A0004040C0004040E00040600000406020004060400040606000406080004060A0004060C0004060E00040800000408020004080400040806000408080004080A0004080C0004080E00040A0000040A0200040A0400040A0600040A0800040A0A00040A0C00040A0E00040C0000040C0200040C0400040C0600040C08000
310
40C0A00040C0C00040C0E00040E0000040E0200040E0400040E0600040E0800040E0A00040E0C00040E0E00080000000800020008000400080006000800080008000A0008000C0008000E00080200000802020008020400080206000802080008020A0008020C0008020E00080400000804020008040400080406000804080
310
008040A0008040C0008040E00080600000806020008060400080606000806080008060A0008060C0008060E00080800000808020008080400080806000808080008080A0008080C0008080E00080A0000080A0200080A0400080A0600080A0800080A0A00080A0C00080A0E00080C0000080C0200080C0400080C0600080C0
310
800080C0A00080C0C00080C0E00080E0000080E0200080E0400080E0600080E0800080E0A00080E0C00080E0E000C0000000C0002000C0004000C0006000C0008000C000A000C000C000C000E000C0200000C0202000C0204000C0206000C0208000C020A000C020C000C020E000C0400000C0402000C0404000C0406000C0
310
408000C040A000C040C000C040E000C0600000C0602000C0604000C0606000C0608000C060A000C060C000C060E000C0800000C0802000C0804000C0806000C0808000C080A000C080C000C080E000C0A00000C0A02000C0A04000C0A06000C0A08000C0A0A000C0A0C000C0A0E000C0C00000C0C02000C0C04000C0C06000
310
C0C08000C0C0A000F0FBFF00A4A0A000808080000000FF0000FF000000FFFF00FF000000FF00FF00FFFF0000FFFFFF0000000000000000000000000000000000000000000000000000000000000000000000000000000000000000000000000000000000000000000000000000000000000000000000000000000000000000
310
00000000000000000000000000000000000000000000000000000000000000000000000000000000000000000000000000000000000000000000000000000000000000000000000000000000000000000000000000000000000000000000000000000000000000000000000000000000000000000000000000000000000000
310
00000000000000000000000000000000000000000000000000000000000000000000000000000000000000000000000000000000000000000000000000000000000000000000000000000000000000000000000000000000000000000000000000000000000000000000000000000000000000000000000000000000000000
310
00000000000000000000000000000000000000000000000000000000000000000000000000000000000000000000000000000000000000000000000000000000000000000000000000000000000000000000000000000000000000000000000000000000000000000000000000000000000000000000000000000000000000
310
000000000000000000000000000000000000000000FFFFFFFFFFFFFFFFFFFFFFFFFFFFFFFFFFFFFFFFFFFFFFFFFFFFFFFFFFFF0000FFFFFFFFFFFFFFFFFFFFFFFFFFFFFFFFFFFFFFFFFFFFFFFFFFFFFFFFFFFF0000000000000000000000000000000000000000000000000000000000000000000000000000000000000000
310
00000000000000000000000000000000000000000000000000000000000000000000000000000000000000000000000000000000000000000000000000000000000000000000000000000000000000000000000000000000000000000000000000000000000000000000000000000000000000000000000000000000000000
310
00000000000000000000000000000000000000000000000000000000000000000000000000000000000000000000000000000000000000000000000000000000000000000000000000000000000000000000000000000000000000000000000000000000000000000000000000000000000000000000000000000000000000
310
00000000000000000000000000000000000000000000000000000000000000000000000000000000000000000000000000000000000000000000000000000000000000000000000000000000000000000000000000000000000000000000000000000000000000000000000000000000000000000000000000000000000000
310
0000000000000000000000000000000000000000000000000000000000000000000000000000000000000000000000000000000000000000
102
{BLKREFS
331
603
102
}
1001
ACAD
1000
DesignCenter Data
1002
{
1070
     1
1070
     1
1002
}
  0
BLOCK_RECORD
  5
5E4
330
1
100
AcDbSymbolTableRecord
100
AcDbBlockTableRecord
  2
jis_br_revisionlist1
340
0
310
2800000020000000200000000100080000000000000400000000000000000000000000000000000000000000000080000080000000808000800000008000800080800000C0C0C000C0DCC000F0CAA6000020400000206000002080000020A0000020C0000020E00000400000004020000040400000406000004080000040A0
310
000040C0000040E00000600000006020000060400000606000006080000060A0000060C0000060E00000800000008020000080400000806000008080000080A0000080C0000080E00000A0000000A0200000A0400000A0600000A0800000A0A00000A0C00000A0E00000C0000000C0200000C0400000C0600000C0800000C0
310
A00000C0C00000C0E00000E0000000E0200000E0400000E0600000E0800000E0A00000E0C00000E0E00040000000400020004000400040006000400080004000A0004000C0004000E00040200000402020004020400040206000402080004020A0004020C0004020E000404000004040200040404000404060004040800040
310
40A0004040C0004040E00040600000406020004060400040606000406080004060A0004060C0004060E00040800000408020004080400040806000408080004080A0004080C0004080E00040A0000040A0200040A0400040A0600040A0800040A0A00040A0C00040A0E00040C0000040C0200040C0400040C0600040C08000
310
40C0A00040C0C00040C0E00040E0000040E0200040E0400040E0600040E0800040E0A00040E0C00040E0E00080000000800020008000400080006000800080008000A0008000C0008000E00080200000802020008020400080206000802080008020A0008020C0008020E00080400000804020008040400080406000804080
310
008040A0008040C0008040E00080600000806020008060400080606000806080008060A0008060C0008060E00080800000808020008080400080806000808080008080A0008080C0008080E00080A0000080A0200080A0400080A0600080A0800080A0A00080A0C00080A0E00080C0000080C0200080C0400080C0600080C0
310
800080C0A00080C0C00080C0E00080E0000080E0200080E0400080E0600080E0800080E0A00080E0C00080E0E000C0000000C0002000C0004000C0006000C0008000C000A000C000C000C000E000C0200000C0202000C0204000C0206000C0208000C020A000C020C000C020E000C0400000C0402000C0404000C0406000C0
310
408000C040A000C040C000C040E000C0600000C0602000C0604000C0606000C0608000C060A000C060C000C060E000C0800000C0802000C0804000C0806000C0808000C080A000C080C000C080E000C0A00000C0A02000C0A04000C0A06000C0A08000C0A0A000C0A0C000C0A0E000C0C00000C0C02000C0C04000C0C06000
310
C0C08000C0C0A000F0FBFF00A4A0A000808080000000FF0000FF000000FFFF00FF000000FF00FF00FFFF0000FFFFFF0000000000000000000000000000000000000000000000000000000000000000000000000000000000000000000000000000000000000000000000000000000000000000000000000000000000000000
310
00000000000000000000000000000000000000000000000000000000000000000000000000000000000000000000000000000000000000000000000000000000000000000000000000000000000000000000000000000000000000000000000000000000000000000000000000000000000000000000000000000000000000
310
00000000000000000000000000000000000000000000000000000000000000000000000000000000000000000000000000000000000000000000000000000000000000000000000000000000000000000000000000000000000000000000000000000000000000000000000000000000000000000000000000000000000000
310
00000000000000000000000000000000000000000000000000000000000000000000000000000000000000000000000000000000000000000000000000000000000000000000000000000000000000000000000000000000000000000000000000000000000000000000000000000000000000000000000000000000000000
310
000000000000000000000000000000000000000000FFFFFFFFFFFFFFFFFFFFFFFFFFFFFFFFFFFFFFFFFFFFFFFFFFFFFFFF00000000FFFFFFFFFFFFFFFFFFFFFFFFFFFFFFFFFFFFFFFFFFFFFFFFFFFFFFFFFFFF0000000000000000000000000000000000000000000000000000000000000000000000000000000000000000
310
00000000000000000000000000000000000000000000000000000000000000000000000000000000000000000000000000000000000000000000000000000000000000000000000000000000000000000000000000000000000000000000000000000000000000000000000000000000000000000000000000000000000000
310
00000000000000000000000000000000000000000000000000000000000000000000000000000000000000000000000000000000000000000000000000000000000000000000000000000000000000000000000000000000000000000000000000000000000000000000000000000000000000000000000000000000000000
310
00000000000000000000000000000000000000000000000000000000000000000000000000000000000000000000000000000000000000000000000000000000000000000000000000000000000000000000000000000000000000000000000000000000000000000000000000000000000000000000000000000000000000
310
0000000000000000000000000000000000000000000000000000000000000000000000000000000000000000000000000000000000000000
102
{BLKREFS
331
5FB
102
}
1001
ACAD
1000
DesignCenter Data
1002
{
1070
     1
1070
     1
1002
}
  0
BLOCK_RECORD
  5
5FA
330
1
100
AcDbSymbolTableRecord
100
AcDbBlockTableRecord
  2
jis_br_revisionlist
340
0
310
2800000020000000200000000100080000000000000400000000000000000000000000000000000000000000000080000080000000808000800000008000800080800000C0C0C000C0DCC000F0CAA6000020400000206000002080000020A0000020C0000020E00000400000004020000040400000406000004080000040A0
310
000040C0000040E00000600000006020000060400000606000006080000060A0000060C0000060E00000800000008020000080400000806000008080000080A0000080C0000080E00000A0000000A0200000A0400000A0600000A0800000A0A00000A0C00000A0E00000C0000000C0200000C0400000C0600000C0800000C0
310
A00000C0C00000C0E00000E0000000E0200000E0400000E0600000E0800000E0A00000E0C00000E0E00040000000400020004000400040006000400080004000A0004000C0004000E00040200000402020004020400040206000402080004020A0004020C0004020E000404000004040200040404000404060004040800040
310
40A0004040C0004040E00040600000406020004060400040606000406080004060A0004060C0004060E00040800000408020004080400040806000408080004080A0004080C0004080E00040A0000040A0200040A0400040A0600040A0800040A0A00040A0C00040A0E00040C0000040C0200040C0400040C0600040C08000
310
40C0A00040C0C00040C0E00040E0000040E0200040E0400040E0600040E0800040E0A00040E0C00040E0E00080000000800020008000400080006000800080008000A0008000C0008000E00080200000802020008020400080206000802080008020A0008020C0008020E00080400000804020008040400080406000804080
310
008040A0008040C0008040E00080600000806020008060400080606000806080008060A0008060C0008060E00080800000808020008080400080806000808080008080A0008080C0008080E00080A0000080A0200080A0400080A0600080A0800080A0A00080A0C00080A0E00080C0000080C0200080C0400080C0600080C0
310
800080C0A00080C0C00080C0E00080E0000080E0200080E0400080E0600080E0800080E0A00080E0C00080E0E000C0000000C0002000C0004000C0006000C0008000C000A000C000C000C000E000C0200000C0202000C0204000C0206000C0208000C020A000C020C000C020E000C0400000C0402000C0404000C0406000C0
310
408000C040A000C040C000C040E000C0600000C0602000C0604000C0606000C0608000C060A000C060C000C060E000C0800000C0802000C0804000C0806000C0808000C080A000C080C000C080E000C0A00000C0A02000C0A04000C0A06000C0A08000C0A0A000C0A0C000C0A0E000C0C00000C0C02000C0C04000C0C06000
310
C0C08000C0C0A000F0FBFF00A4A0A000808080000000FF0000FF000000FFFF00FF000000FF00FF00FFFF0000FFFFFF0000000000000000000000000000000000000000000000000000000000000000000000000000000000000000000000000000000000000000000000000000000000000000000000000000000000000000
310
00000000000000000000000000000000000000000000000000000000000000000000000000000000000000000000000000000000000000000000000000000000000000000000000000000000000000000000000000000000000000000000000000000000000000000000000000000000000000000000000000000000000000
310
00000000000000000000000000000000000000000000000000000000000000000000000000000000000000000000000000000000000000000000000000000000000000000000000000000000000000000000000000000000000000000000000000000000000000000000000000000000000000000000000000000000000000
310
0000000000000000000000000000000000000000000000000000000000000000000000000000000000000000000000000000000000000000000000000000000000000000000000000000000000000000000000000000000000000000000000000000000000000000000000000000000000000000FFFFF9FFFFF9FFFFFFFFFF
310
FFFFFFFFFFFFFFFFFFFFFFFFFFFFF9FFFFFFFF0000FFF9F9F9FFF9FFFFFFFFFFFFFFFFFFFFFFFFFFFFFFFFFFFFFFF9FFFFFFFF0000FF00FF0000F9F9F9F9F9F9F9F9F9F9F9F9F9F9F9F9F9F9F9F9F9000000FF0000FFFFFFFFFFFFFFFFFFFFFFFFFFFFFFFFFFFFFFFFFFFFFFFFFFFFFFFFFFFF000000000000000000000000
310
00000000000000000000000000000000000000000000000000000000000000000000000000000000000000000000000000000000000000000000000000000000000000000000000000000000000000000000000000000000000000000000000000000000000000000000000000000000000000000000000000000000000000
310
00000000000000000000000000000000000000000000000000000000000000000000000000000000000000000000000000000000000000000000000000000000000000000000000000000000000000000000000000000000000000000000000000000000000000000000000000000000000000000000000000000000000000
310
00000000000000000000000000000000000000000000000000000000000000000000000000000000000000000000000000000000000000000000000000000000000000000000000000000000000000000000000000000000000000000000000000000000000000000000000000000000000000000000000000000000000000
310
0000000000000000000000000000000000000000000000000000000000000000000000000000000000000000000000000000000000000000
  0
BLOCK_RECORD
  5
6A8
330
1
100
AcDbSymbolTableRecord
100
AcDbBlockTableRecord
  2
IGS_A3
340
0
310
2800000020000000200000000100080000000000000400000000000000000000000000000000000000000000000080000080000000808000800000008000800080800000C0C0C000C0DCC000F0CAA6000020400000206000002080000020A0000020C0000020E00000400000004020000040400000406000004080000040A0
310
000040C0000040E00000600000006020000060400000606000006080000060A0000060C0000060E00000800000008020000080400000806000008080000080A0000080C0000080E00000A0000000A0200000A0400000A0600000A0800000A0A00000A0C00000A0E00000C0000000C0200000C0400000C0600000C0800000C0
310
A00000C0C00000C0E00000E0000000E0200000E0400000E0600000E0800000E0A00000E0C00000E0E00040000000400020004000400040006000400080004000A0004000C0004000E00040200000402020004020400040206000402080004020A0004020C0004020E000404000004040200040404000404060004040800040
310
40A0004040C0004040E00040600000406020004060400040606000406080004060A0004060C0004060E00040800000408020004080400040806000408080004080A0004080C0004080E00040A0000040A0200040A0400040A0600040A0800040A0A00040A0C00040A0E00040C0000040C0200040C0400040C0600040C08000
310
40C0A00040C0C00040C0E00040E0000040E0200040E0400040E0600040E0800040E0A00040E0C00040E0E00080000000800020008000400080006000800080008000A0008000C0008000E00080200000802020008020400080206000802080008020A0008020C0008020E00080400000804020008040400080406000804080
310
008040A0008040C0008040E00080600000806020008060400080606000806080008060A0008060C0008060E00080800000808020008080400080806000808080008080A0008080C0008080E00080A0000080A0200080A0400080A0600080A0800080A0A00080A0C00080A0E00080C0000080C0200080C0400080C0600080C0
310
800080C0A00080C0C00080C0E00080E0000080E0200080E0400080E0600080E0800080E0A00080E0C00080E0E000C0000000C0002000C0004000C0006000C0008000C000A000C000C000C000E000C0200000C0202000C0204000C0206000C0208000C020A000C020C000C020E000C0400000C0402000C0404000C0406000C0
310
408000C040A000C040C000C040E000C0600000C0602000C0604000C0606000C0608000C060A000C060C000C060E000C0800000C0802000C0804000C0806000C0808000C080A000C080C000C080E000C0A00000C0A02000C0A04000C0A06000C0A08000C0A0A000C0A0C000C0A0E000C0C00000C0C02000C0C04000C0C06000
310
C0C08000C0C0A000F0FBFF00A4A0A000808080000000FF0000FF000000FFFF00FF000000FF00FF00FFFF0000FFFFFF0000000000000000000000000000000000000000000000000000000000000000000000000000000000000000000000000000000000000000000000000000000000000000000000000000000000000000
310
000000000000000000000000000000000000000000000000000000000000000000000000000000000000000000000000000000000000000000000000000000000000000000000000000000000000000000000000000000000000000000000000000000000000000000000000000000000000F9F9FFF9F9F9F9F9F9F9F9F9F9
310
F9F9F9F9F9F9F9F9F9F9F9F9F9F9F900000000F900FFFFFFFFFFFFFFFFFFFFFFFFFFFFFFFFFFFFFFFFFFFFFFFFFFF900000000F900FF0000000000000000000000000000000000000000000000FFF900000000F900FF0000000000000000000000000000000000000000000000FFF900000000F900FF000000000000000000
310
0000000000000000000000000000FFF900000000F900FF0000000000000000000000000000000000000000000000FFF900000000F900FF0000000000000000000000000000000000000000000000FFF900000000F900FF0000000000000000000000000000000000000000000000FFF900000000F900FF0000000000000000
310
000000000000000000000000000000FFF900000000F900FF0000000000000000000000000000000000000000000000FFF900000000F900FF0000000000000000000000000000000000000000000000FFF900000000F900FF0000000000000000000000000000000000000000000000FFF900000000F900FF00000000000000
310
00000000000000000000000000000000FFF900000000F900FF0000000000000000000000000000000000000000000000FFF900000000F900FF0000000000000000000000000000000000000000000000FFF900000000F900FF0000000000000000000000000000000000000000000000FFF900000000F900FF000000000000
310
0000000000000000000000000000000000FFF900000000F900FF0000000000000000000000000000000000000000000000FFF900000000F900FFFFFFFFFFFFFFFFFFFFFFFFFFFFFFFFFFFFFFFFFFFFFFFFFFF900000000F9F9F9F9F9F9F9F9F9F9F9F9F9F9F9F9F9F9F9F9F9F9F9F9F9F9F9F9000000000000000000000000
310
00000000000000000000000000000000000000000000000000000000000000000000000000000000000000000000000000000000000000000000000000000000000000000000000000000000000000000000000000000000000000000000000000000000000000000000000000000000000000000000000000000000000000
310
0000000000000000000000000000000000000000000000000000000000000000000000000000000000000000000000000000000000000000
  0
BLOCK_RECORD
  5
9ED
330
1
100
AcDbSymbolTableRecord
100
AcDbBlockTableRecord
  2
MAKR0
340
0
  0
BLOCK_RECORD
  5
9F2
330
1
100
AcDbSymbolTableRecord
100
AcDbBlockTableRecord
  2
BALN0
340
0
  0
BLOCK_RECORD
  5
9F9
330
1
100
AcDbSymbolTableRecord
100
AcDbBlockTableRecord
  2
*X21
340
0
102
{BLKREFS
331
C28
331
C44
102
}
  0
BLOCK_RECORD
  5
A71
330
1
100
AcDbSymbolTableRecord
100
AcDbBlockTableRecord
  2
IGS_A3-T
340
0
102
{BLKREFS
331
C1B
102
}
  0
BLOCK_RECORD
  5
A7C
330
1
100
AcDbSymbolTableRecord
100
AcDbBlockTableRecord
  2
IGS-TITLE-NO2
340
0
102
{BLKREFS
331
C12
102
}
  0
BLOCK_RECORD
  5
CE0
330
1
100
AcDbSymbolTableRecord
100
AcDbBlockTableRecord
  2
*D24
340
0
  0
BLOCK_RECORD
  5
CEC
330
1
100
AcDbSymbolTableRecord
100
AcDbBlockTableRecord
  2
*D25
340
0
  0
BLOCK_RECORD
  5
CF8
330
1
100
AcDbSymbolTableRecord
100
AcDbBlockTableRecord
  2
*D26
340
0
  0
BLOCK_RECORD
  5
D04
330
1
100
AcDbSymbolTableRecord
100
AcDbBlockTableRecord
  2
*D27
340
0
  0
BLOCK_RECORD
  5
D10
330
1
100
AcDbSymbolTableRecord
100
AcDbBlockTableRecord
  2
*D28
340
0
  0
BLOCK_RECORD
  5
D1C
330
1
100
AcDbSymbolTableRecord
100
AcDbBlockTableRecord
  2
*D29
340
0
  0
BLOCK_RECORD
  5
D28
330
1
100
AcDbSymbolTableRecord
100
AcDbBlockTableRecord
  2
*D30
340
0
  0
BLOCK_RECORD
  5
D34
330
1
100
AcDbSymbolTableRecord
100
AcDbBlockTableRecord
  2
*D31
340
0
  0
BLOCK_RECORD
  5
D40
330
1
100
AcDbSymbolTableRecord
100
AcDbBlockTableRecord
  2
*D32
340
0
  0
BLOCK_RECORD
  5
FBB
330
1
100
AcDbSymbolTableRecord
100
AcDbBlockTableRecord
  2
Xsec
340
0
102
{BLKREFS
331
FD0
102
}
  0
BLOCK_RECORD
  5
10E9
330
1
100
AcDbSymbolTableRecord
100
AcDbBlockTableRecord
  2
*D34
340
0
  0
BLOCK_RECORD
  5
1144
330
1
100
AcDbSymbolTableRecord
100
AcDbBlockTableRecord
  2
*S35
340
0
  0
BLOCK_RECORD
  5
114B
330
1
100
AcDbSymbolTableRecord
100
AcDbBlockTableRecord
  2
*S36
340
0
  0
BLOCK_RECORD
  5
1153
330
1
100
AcDbSymbolTableRecord
100
AcDbBlockTableRecord
  2
*S37
340
0
  0
BLOCK_RECORD
  5
1172
330
1
100
AcDbSymbolTableRecord
100
AcDbBlockTableRecord
  2
*S38
340
0
  0
ENDTAB
  0
ENDSEC
  0
SECTION
  2
BLOCKS
  0
BLOCK
  5
20
330
1F
100
AcDbEntity
  8
0
100
AcDbBlockBegin
  2
*Model_Space
 70
     0
 10
0.0
 20
0.0
 30
0.0
  3
*Model_Space
  1

  0
ENDBLK
  5
21
330
1F
100
AcDbEntity
  8
0
100
AcDbBlockEnd
  0
BLOCK
  5
1C
330
1B
100
AcDbEntity
 67
     1
  8
0
100
AcDbBlockBegin
  2
*Paper_Space
 70
     0
 10
0.0
 20
0.0
 30
0.0
  3
*Paper_Space
  1

  0
ENDBLK
  5
1D
330
1B
100
AcDbEntity
 67
     1
  8
0
100
AcDbBlockEnd
  0
BLOCK
  5
24
330
23
100
AcDbEntity
  8
0
100
AcDbBlockBegin
  2
*Paper_Space0
 70
     0
 10
0.0
 20
0.0
 30
0.0
  3
*Paper_Space0
  1

  0
ENDBLK
  5
25
330
23
100
AcDbEntity
  8
0
100
AcDbBlockEnd
  0
BLOCK
  5
7B
330
77
100
AcDbEntity
  8
0
100
AcDbBlockBegin
  2
_Open30
 70
     0
 10
0.0
 20
0.0
 30
0.0
  3
_Open30
  1

  0
LINE
  5
78
330
77
100
AcDbEntity
  8
0
  6
ByBlock
 62
     0
370
    -2
100
AcDbLine
 10
-1.0
 20
0.26794919
 30
0.0
 11
0.0
 21
0.0
 31
0.0
  0
LINE
  5
79
330
77
100
AcDbEntity
  8
0
  6
ByBlock
 62
     0
370
    -2
100
AcDbLine
 10
0.0
 20
0.0
 30
0.0
 11
-1.0
 21
-0.26794919
 31
0.0
  0
LINE
  5
7A
330
77
100
AcDbEntity
  8
0
  6
ByBlock
 62
     0
370
    -2
100
AcDbLine
 10
0.0
 20
0.0
 30
0.0
 11
-1.0
 21
0.0
 31
0.0
  0
ENDBLK
  5
7C
330
77
100
AcDbEntity
  8
0
100
AcDbBlockEnd
  0
BLOCK
  5
85
330
83
100
AcDbEntity
  8
0
100
AcDbBlockBegin
  2
GENAXEH
 70
     0
 10
0.0
 20
0.0
 30
0.0
  3
GENAXEH
  1

  0
LINE
  5
84
330
83
100
AcDbEntity
  8
0
100
AcDbLine
 10
-1.0
 20
0.0
 30
0.0
 11
1.0
 21
0.0
 31
0.0
  0
ENDBLK
  5
86
330
83
100
AcDbEntity
  8
0
100
AcDbBlockEnd
  0
BLOCK
  5
206
330
1F1
100
AcDbEntity
  8
0
100
AcDbBlockBegin
  2
IGS_A2
 70
     0
 10
0.0
 20
0.0
 30
0.0
  3
IGS_A2
  1

  0
LINE
  5
1F2
330
1F1
100
AcDbEntity
  8
AM_BOR
100
AcDbLine
 10
0.0
 20
0.0
 30
0.0
 11
0.0
 21
10.0
 31
0.0
  0
LINE
  5
1F3
330
1F1
100
AcDbEntity
  8
AM_BOR
100
AcDbLine
 10
0.0
 20
420.0
 30
0.0
 11
10.0
 21
420.0
 31
0.0
  0
LINE
  5
1F4
330
1F1
100
AcDbEntity
  8
AM_BOR
100
AcDbLine
 10
594.0
 20
420.0
 30
0.0
 11
594.0
 21
410.0
 31
0.0
  0
LINE
  5
1F5
330
1F1
100
AcDbEntity
  8
AM_BOR
100
AcDbLine
 10
594.0
 20
0.0
 30
0.0
 11
584.0
 21
0.0
 31
0.0
  0
LINE
  5
1F6
330
1F1
100
AcDbEntity
  8
0
100
AcDbLine
 10
20.0
 20
10.0
 30
0.0
 11
20.0
 21
410.0
 31
0.0
  0
LINE
  5
1F7
330
1F1
100
AcDbEntity
  8
0
100
AcDbLine
 10
574.0
 20
10.0
 30
0.0
 11
20.0
 21
10.0
 31
0.0
  0
LINE
  5
1F8
330
1F1
100
AcDbEntity
  8
0
100
AcDbLine
 10
574.0
 20
410.0
 30
0.0
 11
574.0
 21
10.0
 31
0.0
  0
LINE
  5
1F9
330
1F1
100
AcDbEntity
  8
0
100
AcDbLine
 10
20.0
 20
410.0
 30
0.0
 11
574.0
 21
410.0
 31
0.0
  0
LINE
  5
1FA
330
1F1
100
AcDbEntity
  8
AM_BOR
100
AcDbLine
 10
10.0
 20
0.0
 30
0.0
 11
0.0
 21
0.0
 31
0.0
  0
LINE
  5
1FB
330
1F1
100
AcDbEntity
  8
AM_BOR
100
AcDbLine
 10
0.0
 20
410.0
 30
0.0
 11
0.0
 21
420.0
 31
0.0
  0
LINE
  5
1FC
330
1F1
100
AcDbEntity
  8
AM_BOR
100
AcDbLine
 10
594.0
 20
10.0
 30
0.0
 11
594.0
 21
0.0
 31
0.0
  0
LINE
  5
1FD
330
1F1
100
AcDbEntity
  8
AM_BOR
100
AcDbLine
 10
584.0
 20
420.0
 30
0.0
 11
594.0
 21
420.0
 31
0.0
  0
TEXT
  5
1FE
330
1F1
100
AcDbEntity
  8
0
 60
     1
100
AcDbText
 10
574.0
 20
410.0
 30
0.0
 40
6.0
  1
!GENTITLE-RU
  7
ACJISTS
100
AcDbText
  0
TEXT
  5
1FF
330
1F1
100
AcDbEntity
  8
0
 60
     1
100
AcDbText
 10
594.0
 20
420.0
 30
0.0
 40
6.0
  1
!GENTITLE-MAX
  7
ACJISTS
100
AcDbText
  0
TEXT
  5
200
330
1F1
100
AcDbEntity
  8
0
 60
     1
100
AcDbText
 10
574.0
 20
10.0
 30
0.0
 40
6.0
  1
!GENTITLE-INSERT
  7
ACJISTS
100
AcDbText
  0
TEXT
  5
201
330
1F1
100
AcDbEntity
  8
0
 60
     1
100
AcDbText
 10
20.0
 20
10.0
 30
0.0
 40
6.0
  1
!GENTITLE-LL
  7
ACJISTS
100
AcDbText
  0
LINE
  5
202
330
1F1
100
AcDbEntity
  8
AM_BOR
 62
     1
370
    25
100
AcDbLine
 10
0.0
 20
420.0
 30
0.0
 11
594.0
 21
420.0
 31
0.0
  0
LINE
  5
203
330
1F1
100
AcDbEntity
  8
AM_BOR
 62
     1
370
    25
100
AcDbLine
 10
594.0
 20
420.0
 30
0.0
 11
594.0
 21
0.0
 31
0.0
  0
LINE
  5
204
330
1F1
100
AcDbEntity
  8
AM_BOR
 62
     1
370
    25
100
AcDbLine
 10
594.0
 20
0.0
 30
0.0
 11
0.0
 21
0.0
 31
0.0
  0
LINE
  5
205
330
1F1
100
AcDbEntity
  8
AM_BOR
 62
     1
370
    25
100
AcDbLine
 10
0.0
 20
0.0
 30
0.0
 11
0.0
 21
420.0
 31
0.0
  0
ENDBLK
  5
207
330
1F1
100
AcDbEntity
  8
0
100
AcDbBlockEnd
  0
BLOCK
  5
230
330
210
100
AcDbEntity
  8
0
100
AcDbBlockBegin
  2
GEN_A4
 70
     0
 10
0.0
 20
0.0
 30
0.0
  3
GEN_A4
  1

  0
LINE
  5
211
330
210
100
AcDbEntity
  8
RAHM2
100
AcDbLine
 10
0.0
 20
0.0
 30
0.0
 11
210.0
 21
0.0
 31
0.0
  0
LINE
  5
212
330
210
100
AcDbEntity
  8
RAHM2
100
AcDbLine
 10
210.0
 20
0.0
 30
0.0
 11
210.0
 21
297.0
 31
0.0
  0
LINE
  5
213
330
210
100
AcDbEntity
  8
RAHM2
100
AcDbLine
 10
210.0
 20
297.0
 30
0.0
 11
0.0
 21
297.0
 31
0.0
  0
LINE
  5
214
330
210
100
AcDbEntity
  8
RAHM2
100
AcDbLine
 10
0.0
 20
297.0
 30
0.0
 11
0.0
 21
0.0
 31
0.0
  0
LINE
  5
215
330
210
100
AcDbEntity
  8
0
100
AcDbLine
 10
15.0
 20
5.0
 30
0.0
 11
205.0
 21
5.0
 31
0.0
  0
LINE
  5
216
330
210
100
AcDbEntity
  8
0
100
AcDbLine
 10
205.0
 20
5.0
 30
0.0
 11
205.0
 21
292.0
 31
0.0
  0
LINE
  5
217
330
210
100
AcDbEntity
  8
0
100
AcDbLine
 10
205.0
 20
292.0
 30
0.0
 11
15.0
 21
292.0
 31
0.0
  0
LINE
  5
218
330
210
100
AcDbEntity
  8
0
100
AcDbLine
 10
15.0
 20
292.0
 30
0.0
 11
15.0
 21
287.0
 31
0.0
  0
LINE
  5
219
330
210
100
AcDbEntity
  8
RAHM2
100
AcDbLine
 10
62.5
 20
292.0
 30
0.0
 11
62.5
 21
287.0
 31
0.0
  0
TEXT
  5
21A
330
210
100
AcDbEntity
  8
RAHM2
100
AcDbText
 10
37.4
 20
287.5
 30
0.0
 40
4.0
  1
4
100
AcDbText
  0
TEXT
  5
21B
330
210
100
AcDbEntity
  8
RAHM2
100
AcDbText
 10
84.9
 20
287.5
 30
0.0
 40
4.0
  1
3
100
AcDbText
  0
LINE
  5
21C
330
210
100
AcDbEntity
  8
RAHM2
100
AcDbLine
 10
110.0
 20
292.0
 30
0.0
 11
110.0
 21
287.0
 31
0.0
  0
TEXT
  5
21D
330
210
100
AcDbEntity
  8
RAHM2
100
AcDbText
 10
132.4
 20
287.5
 30
0.0
 40
4.0
  1
2
100
AcDbText
  0
LINE
  5
21E
330
210
100
AcDbEntity
  8
RAHM2
100
AcDbLine
 10
157.5
 20
292.0
 30
0.0
 11
157.5
 21
287.0
 31
0.0
  0
TEXT
  5
21F
330
210
100
AcDbEntity
  8
RAHM2
100
AcDbText
 10
179.9
 20
287.5
 30
0.0
 40
4.0
  1
1
100
AcDbText
  0
LINE
  5
220
330
210
100
AcDbEntity
  8
RAHM2
100
AcDbLine
 10
15.0
 20
292.0
 30
0.0
 11
10.0
 21
292.0
 31
0.0
  0
LINE
  5
221
330
210
100
AcDbEntity
  8
RAHM2
100
AcDbLine
 10
15.0
 20
287.0
 30
0.0
 11
205.0
 21
287.0
 31
0.0
  0
LINE
  5
222
330
210
100
AcDbEntity
  8
0
100
AcDbLine
 10
15.0
 20
287.0
 30
0.0
 11
15.0
 21
5.0
 31
0.0
  0
TEXT
  5
223
330
210
100
AcDbEntity
  8
RAHM2
100
AcDbText
 10
11.15
 20
120.5
 30
0.0
 40
4.0
  1
A
100
AcDbText
  0
LINE
  5
224
330
210
100
AcDbEntity
  8
RAHM2
100
AcDbLine
 10
10.0
 20
146.0
 30
0.0
 11
15.0
 21
146.0
 31
0.0
  0
TEXT
  5
225
330
210
100
AcDbEntity
  8
RAHM2
100
AcDbText
 10
11.15
 20
167.5
 30
0.0
 40
4.0
  1
B
100
AcDbText
  0
LINE
  5
226
330
210
100
AcDbEntity
  8
RAHM2
100
AcDbLine
 10
10.0
 20
193.0
 30
0.0
 11
15.0
 21
193.0
 31
0.0
  0
TEXT
  5
227
330
210
100
AcDbEntity
  8
RAHM2
100
AcDbText
 10
11.15
 20
214.5
 30
0.0
 40
4.0
  1
C
100
AcDbText
  0
LINE
  5
228
330
210
100
AcDbEntity
  8
RAHM2
100
AcDbLine
 10
10.0
 20
240.0
 30
0.0
 11
15.0
 21
240.0
 31
0.0
  0
TEXT
  5
229
330
210
100
AcDbEntity
  8
RAHM2
100
AcDbText
 10
11.15
 20
261.5
 30
0.0
 40
4.0
  1
D
100
AcDbText
  0
LINE
  5
22A
330
210
100
AcDbEntity
  8
RAHM2
100
AcDbLine
 10
10.0
 20
99.0
 30
0.0
 11
15.0
 21
99.0
 31
0.0
  0
LINE
  5
22B
330
210
100
AcDbEntity
  8
RAHM2
100
AcDbLine
 10
10.0
 20
99.0
 30
0.0
 11
10.0
 21
292.0
 31
0.0
  0
TEXT
  5
22C
330
210
100
AcDbEntity
  8
0
 60
     1
100
AcDbText
 10
210.0
 20
297.0
 30
0.0
 40
3.5
  1
!GENTITLE-MAX
100
AcDbText
  0
TEXT
  5
22D
330
210
100
AcDbEntity
  8
0
 60
     1
100
AcDbText
 10
205.0
 20
287.0
 30
0.0
 40
3.5
  1
!GENTITLE-RU
100
AcDbText
  0
TEXT
  5
22E
330
210
100
AcDbEntity
  8
0
 60
     1
100
AcDbText
 10
15.0
 20
59.99
 30
0.0
 40
3.5
  1
!GENTITLE-LL
100
AcDbText
  0
TEXT
  5
22F
330
210
100
AcDbEntity
  8
0
 60
     1
100
AcDbText
 10
205.0
 20
5.0
 30
0.0
 40
3.5
  1
!GENTITLE-INSERT
100
AcDbText
  0
ENDBLK
  5
231
330
210
100
AcDbEntity
  8
0
100
AcDbBlockEnd
  0
BLOCK
  5
26B
330
232
100
AcDbEntity
  8
0
100
AcDbBlockBegin
  2
GENTITUS
 70
     2
 10
0.0
 20
0.0
 30
0.0
  3
GENTITUS
  1

  0
ATTDEF
  5
233
330
232
100
AcDbEntity
  8
RAHM2
100
AcDbText
 10
-161.2719926438011
 20
59.77949705640509
 30
0.0
 40
3.047999999999999
  1

100
AcDbAttributeDefinition
  3
File Name
  2
GEN-TITLE-DWG{10.58}
 70
     0
  0
ATTDEF
  5
234
330
232
100
AcDbEntity
  8
RAHM2
100
AcDbText
 10
-113.0375060754025
 20
1.655316229755442
 30
0.0
 40
3.047999999999999
  1

100
AcDbAttributeDefinition
  3
Scale
  2
GEN-TITLE-SCA{7.49}
 70
     0
  0
ATTDEF
  5
235
330
232
100
AcDbEntity
  8
RAHM2
100
AcDbText
 10
-170.5791365852594
 20
44.08298086452544
 30
0.0
 40
3.047999999999999
  1

100
AcDbAttributeDefinition
  3
Draft Date
  2
GEN-TITLE-DAT{6.03}
 70
     0
  0
ATTDEF
  5
236
330
232
100
AcDbEntity
  8
RAHM2
100
AcDbText
 10
-148.8439999999988
 20
44.06900000000002
 30
0.0
 40
3.047999999999999
  1

100
AcDbAttributeDefinition
  3
Drawn by
  2
GEN-TITLE-NAME{6.72}
 70
     0
  0
ATTDEF
  5
237
330
232
100
AcDbEntity
  8
RAHM5
100
AcDbText
 10
-121.9520790451008
 20
36.30136743197994
 30
0.0
 40
6.349999999999999
  1

100
AcDbAttributeDefinition
  3
Drawing Title
  2
GEN-TITLE-DES1{18.22}
 70
     0
  0
ATTDEF
  5
238
330
232
100
AcDbEntity
  8
RAHM3
100
AcDbText
 10
-121.9520790451008
 20
26.25984032860009
 30
0.0
 40
4.571999999999999
  1

100
AcDbAttributeDefinition
  3
Drawing Subtitle
  2
GEN-TITLE-DES2{26.26}
 70
     0
  0
ATTDEF
  5
239
330
232
100
AcDbEntity
  8
RAHM5
100
AcDbText
 10
-74.05731360850683
 20
9.398000000000024
 30
0.0
 40
6.349999999999999
  1
-
100
AcDbAttributeDefinition
  3
Drawing Number
  2
GEN-TITLE-NR{8.40}
 70
     0
  0
ATTDEF
  5
23A
330
232
100
AcDbEntity
  8
RAHM3
100
AcDbText
 10
-122.5443157926048
 20
49.65700000000004
 30
0.0
 40
4.571999999999999
  1

100
AcDbAttributeDefinition
  3
Design Activity
  2
GEN-TITLE-DACT{25.89}
 70
     0
  0
ATTDEF
  5
23B
330
232
100
AcDbEntity
  8
RAHM2
100
AcDbText
 10
-115.3186639642027
 20
9.398000000000024
 30
0.0
 40
3.047999999999999
  1
-
100
AcDbAttributeDefinition
  3
FSCM Number
  2
GEN-TITLE-FSCM{8.01}
 70
     0
  0
ATTDEF
  5
23C
330
232
100
AcDbEntity
  8
RAHM2
100
AcDbText
 10
-148.8439999999988
 20
28.82900000000001
 30
0.0
 40
3.047999999999999
  1

100
AcDbAttributeDefinition
  3
Approved by
  2
GEN-TITLE-APPM{6.72}
 70
     0
  0
ATTDEF
  5
23D
330
232
100
AcDbEntity
  8
RAHM2
100
AcDbText
 10
-170.7495891837786
 20
28.76581702429371
 30
0.0
 40
3.047999999999999
  1

100
AcDbAttributeDefinition
  3
Approval Date
  2
GEN-TITLE-APPD{6.08}
 70
     0
  0
ATTDEF
  5
23E
330
232
100
AcDbEntity
  8
RAHM2
100
AcDbText
 10
-148.8439999999989
 20
21.20900000000003
 30
0.0
 40
3.047999999999999
  1

100
AcDbAttributeDefinition
  3
Issued by
  2
GEN-TITLE-ISSM{6.72}
 70
     0
  0
ATTDEF
  5
23F
330
232
100
AcDbEntity
  8
RAHM2
100
AcDbText
 10
-170.5791365852594
 20
21.27742535250911
 30
0.0
 40
3.047999999999999
  1

100
AcDbAttributeDefinition
  3
Issue Date
  2
GEN-TITLE-ISSD{6.03}
 70
     0
  0
ATTDEF
  5
240
330
232
100
AcDbEntity
  8
RAHM2
100
AcDbText
 10
-122.025627714063
 20
9.007830168911709
 30
0.0
 40
3.047999999999999
  1

 72
     1
 11
-122.025627714063
 21
9.007830168911709
 31
0.0
100
AcDbAttributeDefinition
  3
Size
  2
GEN-TITLE-SIZ{2.46}
 70
     0
  0
ATTDEF
  5
241
330
232
100
AcDbEntity
  8
RAHM2
100
AcDbText
 10
-148.8439999999988
 20
36.44900000000004
 30
0.0
 40
3.047999999999999
  1

100
AcDbAttributeDefinition
  3
Checked by
  2
GEN-TITLE-CHKM{6.72}
 70
     0
  0
ATTDEF
  5
242
330
232
100
AcDbEntity
  8
RAHM2
100
AcDbText
 10
-155.7496724495927
 20
51.74156347614825
 30
0.0
 40
3.047999999999999
  1
-
100
AcDbAttributeDefinition
  3
Contract Number
  2
GEN-TITLE-CTRN{9.04}
 70
     0
  0
ATTDEF
  5
243
330
232
100
AcDbEntity
  8
RAHM2
100
AcDbText
 10
-170.7495891837786
 20
36.42439894440952
 30
0.0
 40
3.047999999999999
  1

100
AcDbAttributeDefinition
  3
Check Date
  2
GEN-TITLE-CHKD{6.16}
 70
     0
  0
ATTDEF
  5
244
330
232
100
AcDbEntity
  8
RAHM2
100
AcDbText
 10
-26.47195988711838
 20
1.564076906827722
 30
0.0
 40
3.047999999999999
  1

100
AcDbAttributeDefinition
  3
Sheet Number
  2
GEN-TITLE-SHEET{10.30}
 70
     0
  0
ATTDEF
  5
245
330
232
100
AcDbEntity
  8
RAHM2
100
AcDbText
 10
-6.220641135027562
 20
8.879862113045646
 30
0.0
 40
3.047999999999999
  1

 72
     1
 11
-6.220641135027562
 21
8.879862113045646
 31
0.0
100
AcDbAttributeDefinition
  3
Revision
  2
GEN-TITLE-REV{3.27}
 70
     0
  0
ATTDEF
  5
246
330
232
100
AcDbEntity
  8
RAHM2
100
AcDbText
 10
-69.95172301045787
 20
1.65100000000001
 30
0.0
 40
3.047999999999999
  1

100
AcDbAttributeDefinition
  3
Weight
  2
GEN-TITLE-WT{7.43}
 70
     0
  0
LINE
  5
247
330
232
100
AcDbEntity
  8
RAHM2
100
AcDbLine
 10
0.0
 20
47.49800000000004
 30
0.0
 11
-127.0
 21
47.49800000000004
 31
0.0
  0
TEXT
  5
248
330
232
100
AcDbEntity
  8
RAHM2
100
AcDbText
 10
-87.88400000000001
 20
16.00200000000004
 30
0.0
 40
2.032
  1
DWG NO
100
AcDbText
  0
TEXT
  5
249
330
232
100
AcDbEntity
  8
RAHM2
100
AcDbText
 10
-88.25401012743839
 20
1.705415101054569
 30
0.0
 40
2.032
  1
WEIGHT
100
AcDbText
  0
POLYLINE
  5
24A
330
232
100
AcDbEntity
  8
RAHM5
100
AcDb2dPolyline
 66
     1
 10
0.0
 20
0.0
 30
0.0
 70
     1
  0
VERTEX
  5
24B
330
24A
100
AcDbEntity
  8
RAHM5
100
AcDbVertex
100
AcDb2dVertex
 10
0.0
 20
63.50000000000003
 30
0.0
  0
VERTEX
  5
24C
330
24A
100
AcDbEntity
  8
RAHM5
100
AcDbVertex
100
AcDb2dVertex
 10
-182.8799999999977
 20
63.50000000000003
 30
0.0
  0
VERTEX
  5
24D
330
24A
100
AcDbEntity
  8
RAHM5
100
AcDbVertex
100
AcDb2dVertex
 10
-182.8799999999977
 20
0.0000000000000284
 30
0.0
  0
VERTEX
  5
24E
330
24A
100
AcDbEntity
  8
RAHM5
100
AcDbVertex
100
AcDb2dVertex
 10
0.0
 20
0.0
 30
0.0
  0
SEQEND
  5
24F
330
24A
100
AcDbEntity
  8
RAHM5
  0
LINE
  5
250
330
232
100
AcDbEntity
  8
RAHM5
100
AcDbLine
 10
0.0
 20
19.05000000000004
 30
0.0
 11
-127.0
 21
19.05000000000004
 31
0.0
  0
LINE
  5
251
330
232
100
AcDbEntity
  8
RAHM2
100
AcDbLine
 10
0.0
 20
6.350000000000036
 30
0.0
 11
-127.0
 21
6.350000000000036
 31
0.0
  0
LINE
  5
252
330
232
100
AcDbEntity
  8
RAHM5
100
AcDbLine
 10
-127.0
 20
0.0000000000000284
 30
0.0
 11
-127.0
 21
63.50000000000003
 31
0.0
  0
LINE
  5
253
330
232
100
AcDbEntity
  8
RAHM2
100
AcDbLine
 10
-127.0
 20
19.05000000000004
 30
0.0
 11
-182.8799999999977
 21
19.05000000000004
 31
0.0
  0
LINE
  5
254
330
232
100
AcDbEntity
  8
RAHM2
100
AcDbLine
 10
-127.0
 20
9.525000000000034
 30
0.0
 11
-182.8799999999977
 21
9.525000000000034
 31
0.0
  0
LINE
  5
255
330
232
100
AcDbEntity
  8
RAHM2
100
AcDbLine
 10
-127.0
 20
26.67000000000003
 30
0.0
 11
-182.8799999999977
 21
26.67000000000003
 31
0.0
  0
TEXT
  5
256
330
232
100
AcDbEntity
  8
RAHM2
100
AcDbText
 10
-182.0827700595082
 20
28.82900000000003
 30
0.0
 40
2.032
  1
APPR.
 11
-182.0827700595082
 21
29.84500000000003
 31
0.0
100
AcDbText
 73
     2
  0
TEXT
  5
257
330
232
100
AcDbEntity
  8
RAHM2
100
AcDbText
 10
-182.0827700595081
 20
21.20900000000004
 30
0.0
 40
2.032
  1
ISSUED
 11
-182.0827700595081
 21
22.22500000000004
 31
0.0
100
AcDbText
 73
     2
  0
LINE
  5
258
330
232
100
AcDbEntity
  8
0
100
AcDbLine
 10
-182.8799999999911
 20
0.0000000000001137
 30
0.0
 11
-182.8799999999911
 21
4.230000000000075
 31
0.0
  0
LINE
  5
259
330
232
100
AcDbEntity
  8
RAHM2
100
AcDbLine
 10
-117.348
 20
19.05000000000004
 30
0.0
 11
-117.348
 21
6.350000000000036
 31
0.0
  0
LINE
  5
25A
330
232
100
AcDbEntity
  8
RAHM2
100
AcDbLine
 10
-88.89999999999998
 20
19.05000000000004
 30
0.0
 11
-88.89999999999998
 21
6.350000000000036
 31
0.0
  0
TEXT
  5
25B
330
232
100
AcDbEntity
  8
RAHM2
100
AcDbText
 10
-125.984
 20
1.651000000000015
 30
0.0
 40
2.032
  1
SCALE
 11
-125.984
 21
2.667000000000015
 31
0.0
100
AcDbText
 73
     2
  0
LINE
  5
25C
330
232
100
AcDbEntity
  8
RAHM2
100
AcDbLine
 10
-88.89999999999998
 20
0.0000000000000142
 30
0.0
 11
-88.89999999999998
 21
6.350000000000036
 31
0.0
  0
TEXT
  5
25D
330
232
100
AcDbEntity
  8
RAHM2
100
AcDbText
 10
-116.332
 20
16.00200000000004
 30
0.0
 40
2.032
  1
FSCM NO
100
AcDbText
  0
TEXT
  5
25E
330
232
100
AcDbEntity
  8
RAHM2
100
AcDbText
 10
-125.984
 20
16.00200000000004
 30
0.0
 40
2.032
  1
SIZE
100
AcDbText
  0
LINE
  5
25F
330
232
100
AcDbEntity
  8
RAHM2
100
AcDbLine
 10
-182.8799999999977
 20
58.92800000000005
 30
0.0
 11
-127.0
 21
58.92800000000005
 31
0.0
  0
LINE
  5
260
330
232
100
AcDbEntity
  8
RAHM2
100
AcDbLine
 10
-127.0
 20
34.29000000000002
 30
0.0
 11
-182.8799999999977
 21
34.29000000000002
 31
0.0
  0
LINE
  5
261
330
232
100
AcDbEntity
  8
RAHM2
100
AcDbLine
 10
-127.0
 20
41.91000000000005
 30
0.0
 11
-182.8799999999977
 21
41.91000000000005
 31
0.0
  0
LINE
  5
262
330
232
100
AcDbEntity
  8
RAHM2
100
AcDbLine
 10
-127.0
 20
49.53000000000002
 30
0.0
 11
-182.8799999999977
 21
49.53000000000002
 31
0.0
  0
TEXT
  5
263
330
232
100
AcDbEntity
  8
RAHM2
100
AcDbText
 10
-180.3172639642003
 20
51.68900000000002
 30
0.0
 40
2.032
  1
CONTRACT NO
100
AcDbText
  0
TEXT
  5
264
330
232
100
AcDbEntity
  8
RAHM2
100
AcDbText
 10
-182.0827700595081
 20
44.06900000000002
 30
0.0
 40
2.032
  1
DRAWN
100
AcDbText
  0
TEXT
  5
265
330
232
100
AcDbEntity
  8
RAHM2
100
AcDbText
 10
-182.0827700595081
 20
36.44900000000003
 30
0.0
 40
2.032
  1
CHECK
 11
-182.0827700595081
 21
37.46500000000003
 31
0.0
100
AcDbText
 73
     2
  0
TEXT
  5
266
330
232
100
AcDbEntity
  8
RAHM2
100
AcDbText
 10
-180.3172639642003
 20
59.817
 30
0.0
 40
2.032
  1
FILE NAME
100
AcDbText
  0
TEXT
  5
267
330
232
100
AcDbEntity
  8
RAHM2
100
AcDbText
 10
-43.43400000000002
 20
1.651000000000015
 30
0.0
 40
2.032
  1
SHEET
 11
-43.43400000000002
 21
2.667000000000015
 31
0.0
100
AcDbText
 73
     2
  0
LINE
  5
268
330
232
100
AcDbEntity
  8
RAHM2
100
AcDbLine
 10
-44.44999999999999
 20
0.0
 30
0.0
 11
-44.44999999999999
 21
6.350000000000036
 31
0.0
  0
LINE
  5
269
330
232
100
AcDbEntity
  8
RAHM2
100
AcDbLine
 10
-12.69999999999999
 20
19.05000000000004
 30
0.0
 11
-12.69999999999999
 21
6.350000000000036
 31
0.0
  0
TEXT
  5
26A
330
232
100
AcDbEntity
  8
RAHM2
100
AcDbText
 10
-11.68400000000002
 20
16.00200000000004
 30
0.0
 40
2.032
  1
REV
100
AcDbText
  0
ENDBLK
  5
26C
330
232
100
AcDbEntity
  8
0
100
AcDbBlockEnd
  0
BLOCK
  5
277
330
26D
100
AcDbEntity
  8
0
100
AcDbBlockBegin
  2
IGS-A4
 70
     0
 10
0.0
 20
0.0
 30
0.0
  3
IGS-A4
  1

  0
POINT
  5
26E
330
26D
100
AcDbEntity
  8
0
 60
     1
100
AcDbPoint
 10
0.0
 20
0.0
 30
0.0
1001
GENIUS_GENODEF_13
1002
{
1000
HIER
1070
     1
1002
}
1002
{
1000
MANEDIT
1070
     0
1002
}
1002
{
1000
NOSEL
1070
     0
1002
}
1002
{
1000
BEHIND
1070
     0
1002
}
1002
{
1000
REACTOR
1002
}
1001
GENIUS_GENTITLE_13
1002
{
1000
SCALE
1000
1:1
1002
}
1002
{
1000
BORDER
1000
GEN_A4
1002
}
1002
{
1000
TITLE
1000
GENTITUS
1002
}
1002
{
1000
UNCHG
1002
{
1000
GEN-TITLE-SCA
1000
GEN-TITLE-SIZ
1002
}
1002
}
1002
{
1000
HRA
1005
0
1002
}
1002
{
1000
HTIT
1005
0
1002
}
1002
{
1000
GENIUSID
1005
26E
1002
}
1001
GENIUS_GENOBJ-N-TIT_13
1002
{
1000
OWNER
1000
GEN
1002
}
1001
GENIUS_GENOENT_13
1002
{
1000
MYREF
1005
26E
1002
}
1002
{
1000
GRP
1005
0
1002
}
1001
GENIUS_GENOLIS_13
1002
{
1000
ENT
1005
0
1005
0
1002
}
  0
LINE
  5
26F
330
26D
100
AcDbEntity
  8
0
100
AcDbLine
 10
15.0
 20
5.0
 30
0.0
 11
205.0
 21
5.0
 31
0.0
  0
LINE
  5
270
330
26D
100
AcDbEntity
  8
0
100
AcDbLine
 10
205.0
 20
5.0
 30
0.0
 11
205.0
 21
292.0
 31
0.0
  0
LINE
  5
271
330
26D
100
AcDbEntity
  8
0
100
AcDbLine
 10
205.0
 20
292.0
 30
0.0
 11
15.0
 21
292.0
 31
0.0
  0
LINE
  5
272
330
26D
100
AcDbEntity
  8
0
100
AcDbLine
 10
15.0
 20
292.0
 30
0.0
 11
15.0
 21
5.0
 31
0.0
  0
TEXT
  5
273
330
26D
100
AcDbEntity
  8
0
 60
     1
100
AcDbText
 10
210.0
 20
297.0
 30
0.0
 40
3.5
  1
!GENTITLE-MAX
100
AcDbText
  0
TEXT
  5
274
330
26D
100
AcDbEntity
  8
0
 60
     1
100
AcDbText
 10
205.0
 20
287.0
 30
0.0
 40
3.5
  1
!GENTITLE-RU
100
AcDbText
  0
TEXT
  5
275
330
26D
100
AcDbEntity
  8
0
 60
     1
100
AcDbText
 10
15.0
 20
59.99
 30
0.0
 40
3.5
  1
!GENTITLE-LL
100
AcDbText
  0
TEXT
  5
276
330
26D
100
AcDbEntity
  8
0
 60
     1
100
AcDbText
 10
205.0
 20
5.0
 30
0.0
 40
3.5
  1
!GENTITLE-INSERT
100
AcDbText
  0
ENDBLK
  5
278
330
26D
100
AcDbEntity
  8
0
100
AcDbBlockEnd
  0
BLOCK
  5
27B
330
279
100
AcDbEntity
  8
0
100
AcDbBlockBegin
  2
CI
 70
     0
 10
0.0
 20
0.0
 30
0.0
  3
CI
  1

  0
CIRCLE
  5
27A
330
279
100
AcDbEntity
  8
0
 62
     0
100
AcDbCircle
 10
0.0
 20
0.0
 30
0.0
 40
0.1666666666
  0
ENDBLK
  5
27C
330
279
100
AcDbEntity
  8
0
100
AcDbBlockEnd
  0
BLOCK
  5
306
330
27D
100
AcDbEntity
  8
0
100
AcDbBlockBegin
  2
IGS-TITLE
 70
     0
 10
0.0
 20
0.0
 30
0.0
  3
IGS-TITLE
  1

  0
LINE
  5
27E
330
27D
100
AcDbEntity
  8
1
  6
Continuous
 62
     7
100
AcDbLine
 10
-187.9990322581
 20
30.99983870970002
 30
65.0
 11
-187.9990322581
 21
-0.0001612902999852
 31
65.0
  0
LINE
  5
27F
330
27D
100
AcDbEntity
  8
1
  6
Continuous
 62
     7
100
AcDbLine
 10
-162.9990322581
 20
30.99983870970002
 30
65.0
 11
-162.9990322581
 21
-0.0001612902999852
 31
65.0
  0
LINE
  5
280
330
27D
100
AcDbEntity
  8
1
  6
Continuous
 62
     7
100
AcDbLine
 10
-127.9990322581
 20
30.99983870970002
 30
65.0
 11
-127.9990322581
 21
-0.0001612902999852
 31
65.0
  0
TEXT
  5
281
330
27D
100
AcDbEntity
  8
1
  6
Continuous
 62
     7
100
AcDbText
 10
-123.7222235162
 20
4.473885419400033
 30
65.0
 40
3.5
  1
ＲＥＶＩＳＩＯＮＳ
 50
90.0
 41
0.5824175824175821
 72
     5
 11
-123.7222235162
 21
25.67388541940002
 31
65.0
100
AcDbText
  0
TEXT
  5
282
330
27D
100
AcDbEntity
  8
1
  6
Continuous
 62
     7
100
AcDbText
 10
-152.9468905162
 20
26.24983841940002
 30
65.0
 40
3.5
  1
ＲＥＶ．ＭＡＲＫ
 41
0.583850931677019
 72
     5
 11
-134.1468905162
 21
26.24983841940002
 31
65.0
100
AcDbText
  0
TEXT
  5
283
330
27D
100
AcDbEntity
  8
1
  6
Continuous
 62
     7
100
AcDbText
 10
-152.9366495162
 20
20.24983841940002
 30
65.0
 40
3.5
  1
ＤＡＴＥ
 41
0.5974025974025966
 72
     5
 11
-143.7366495162
 21
20.24983841940002
 31
65.0
100
AcDbText
  0
TEXT
  5
284
330
27D
100
AcDbEntity
  8
1
  6
Continuous
 62
     7
100
AcDbText
 10
-152.9768155162
 20
14.24983841940002
 30
65.0
 40
3.5
  1
ＲＥＶＩＳＥＤ　ＢＹ
 41
0.5812807881773391
 72
     5
 11
-129.3768155162
 21
14.24983841940002
 31
65.0
100
AcDbText
  0
TEXT
  5
285
330
27D
100
AcDbEntity
  8
1
  6
Continuous
 62
     7
100
AcDbText
 10
-152.8294145162
 20
4.74983841940002
 30
65.0
 40
3.5
  1
ＣＯＮＴＥＮＴＳ
 41
0.5838509316770175
 72
     5
 11
-134.0294145162
 21
4.74983841940002
 31
65.0
100
AcDbText
  0
TEXT
  5
286
330
27D
100
AcDbEntity
  8
1
  6
Continuous
 62
     7
100
AcDbText
 10
-161.2490325162
 20
26.24983841940002
 30
65.0
 40
3.5
  1
変更
 41
0.8705357142857142
 72
     5
 11
-154.7490325162
 21
26.24983841940002
 31
65.0
100
AcDbText
  0
TEXT
  5
287
330
27D
100
AcDbEntity
  8
1
  6
Continuous
 62
     7
100
AcDbText
 10
-161.3990325162
 20
20.24983841940002
 30
65.0
 40
3.5
  1
年月日
 41
0.6071428571428532
 72
     5
 11
-154.5990325162
 21
20.24983841940002
 31
65.0
100
AcDbText
  0
TEXT
  5
288
330
27D
100
AcDbEntity
  8
1
  6
Continuous
 62
     7
100
AcDbText
 10
-161.3990325162
 20
14.24983841940002
 30
65.0
 40
3.5
  1
変更者
 41
0.582857142857139
 72
     5
 11
-154.5990325162
 21
14.24983841940002
 31
65.0
100
AcDbText
  0
TEXT
  5
289
330
27D
100
AcDbEntity
  8
1
  6
Continuous
 62
     7
100
AcDbText
 10
-161.2490325162
 20
4.74983841940002
 30
65.0
 40
3.5
  1
記事
 41
0.8705357142857144
 72
     5
 11
-154.7490325162
 21
4.74983841940002
 31
65.0
100
AcDbText
  0
LINE
  5
28A
330
27D
100
AcDbEntity
  8
1
  6
Continuous
 62
     7
100
AcDbLine
 10
-212.9990322581
 20
30.99983870970002
 30
65.0
 11
-212.9990322581
 21
-0.0001612902999852
 31
65.0
  0
LINE
  5
28B
330
27D
100
AcDbEntity
  8
1
  6
Continuous
 62
     7
100
AcDbLine
 10
-237.9990322581
 20
30.99983870970002
 30
65.0
 11
-237.9990322581
 21
-0.0001612902999852
 31
65.0
  0
LINE
  5
28C
330
27D
100
AcDbEntity
  8
1
  6
Continuous
 62
     7
100
AcDbLine
 10
-262.9990322581
 20
30.99983870970002
 30
65.0
 11
-262.9990322581
 21
-0.0001612902999852
 31
65.0
  0
LINE
  5
28D
330
27D
100
AcDbEntity
  8
1
  6
Continuous
 62
     7
100
AcDbLine
 10
-287.9990322581
 20
30.99983870970002
 30
65.0
 11
-287.9990322581
 21
-0.0001612902999852
 31
65.0
  0
LINE
  5
28E
330
27D
100
AcDbEntity
  8
1
  6
Continuous
 62
     7
100
AcDbLine
 10
-122.9990322581
 20
30.99983870970002
 30
65.0
 11
-287.9990322581
 21
30.99983870970002
 31
65.0
  0
LINE
  5
28F
330
27D
100
AcDbEntity
  8
1
  6
Continuous
 62
     7
100
AcDbLine
 10
-287.9990322581
 20
24.99983870970002
 30
65.0
 11
-127.9990322581
 21
24.99983870970002
 31
65.0
  0
LINE
  5
290
330
27D
100
AcDbEntity
  8
1
  6
Continuous
 62
     7
100
AcDbLine
 10
-287.9990322581
 20
18.99983870970001
 30
65.0
 11
-127.9990322581
 21
18.99983870970001
 31
65.0
  0
LINE
  5
291
330
27D
100
AcDbEntity
  8
1
  6
Continuous
 62
     7
100
AcDbLine
 10
-287.9990322581
 20
12.99983870970001
 30
65.0
 11
-127.9990322581
 21
12.99983870970001
 31
65.0
  0
LINE
  5
292
330
27D
100
AcDbEntity
  8
1
  6
Continuous
 62
     7
100
AcDbLine
 10
-54.99903225810003
 20
30.99983870970002
 30
65.0
 11
-54.99903225810003
 21
-0.0001612902999852
 31
65.0
  0
LINE
  5
293
330
27D
100
AcDbEntity
  8
1
  6
Continuous
 62
     7
100
AcDbLine
 10
-59.99903225810003
 20
-0.0001612902999852
 30
65.0
 11
-59.99903225810003
 21
30.99983870970002
 31
65.0
  0
LINE
  5
294
330
27D
100
AcDbEntity
  8
1
  6
Continuous
 62
     7
100
AcDbLine
 10
-75.99903225810002
 20
19.99983870970001
 30
65.0
 11
-75.99903225810002
 21
9.999838709700014
 31
65.0
  0
LINE
  5
295
330
27D
100
AcDbEntity
  8
1
  6
Continuous
 62
     7
100
AcDbLine
 10
-80.99903225810002
 20
9.999838709700014
 30
65.0
 11
-80.99903225810002
 21
19.99983870970001
 31
65.0
  0
LINE
  5
296
330
27D
100
AcDbEntity
  8
1
  6
Continuous
 62
     7
100
AcDbLine
 10
-96.99903225810006
 20
19.99983870970001
 30
65.0
 11
-96.99903225810006
 21
9.999838709700014
 31
65.0
  0
LINE
  5
297
330
27D
100
AcDbEntity
  8
1
  6
Continuous
 62
     7
100
AcDbLine
 10
-101.9990322581
 20
9.999838709700014
 30
65.0
 11
-101.9990322581
 21
19.99983870970001
 31
65.0
  0
LINE
  5
298
330
27D
100
AcDbEntity
  8
1
  6
Continuous
 62
     7
100
AcDbLine
 10
-117.9990322581
 20
30.99983870970002
 30
65.0
 11
-117.9990322581
 21
9.999838709700014
 31
65.0
  0
LINE
  5
299
330
27D
100
AcDbEntity
  8
1
  6
Continuous
 62
     7
100
AcDbLine
 10
-4.999032258100001
 20
30.99983870970002
 30
65.0
 11
-4.999032258100001
 21
19.99983870970001
 31
65.0
  0
LINE
  5
29A
330
27D
100
AcDbEntity
  8
1
  6
Continuous
 62
     7
100
AcDbLine
 10
-9.999032258100001
 20
30.99983870970002
 30
65.0
 11
-9.999032258100001
 21
19.99983870970001
 31
65.0
  0
LINE
  5
29B
330
27D
100
AcDbEntity
  8
1
  6
Continuous
 62
     7
100
AcDbLine
 10
-4.999032258100001
 20
9.999838709700014
 30
65.0
 11
-4.999032258100001
 21
-0.0001612902999852
 31
65.0
  0
LINE
  5
29C
330
27D
100
AcDbEntity
  8
1
  6
Continuous
 62
     7
100
AcDbLine
 10
-9.999032258100001
 20
9.999838709700014
 30
65.0
 11
-9.999032258100001
 21
-0.0001612902999852
 31
65.0
  0
LINE
  5
29D
330
27D
100
AcDbEntity
  8
1
  6
Continuous
 62
     7
100
AcDbLine
 10
-18.99903225810003
 20
9.999838709700014
 30
65.0
 11
-18.99903225810003
 21
-0.0001612902999852
 31
65.0
  0
LINE
  5
29E
330
27D
100
AcDbEntity
  8
1
  6
Continuous
 62
     7
100
AcDbLine
 10
-117.9990322581
 20
15.99983870970001
 30
65.0
 11
-101.9990322581
 21
15.99983870970001
 31
65.0
  0
LINE
  5
29F
330
27D
100
AcDbEntity
  8
1
  6
Continuous
 62
     7
100
AcDbLine
 10
-122.9990322581
 20
9.999838709700014
 30
65.0
 11
5.000967741899998
 21
9.999838709700014
 31
65.0
  0
LINE
  5
2A0
330
27D
100
AcDbEntity
  8
1
  6
Continuous
 62
     7
100
AcDbLine
 10
5.000967741899998
 20
19.99983870970001
 30
65.0
 11
-122.9990322581
 21
19.99983870970001
 31
65.0
  0
LINE
  5
2A1
330
27D
100
AcDbEntity
  8
1
  6
Continuous
 62
     7
100
AcDbLine
 10
-122.9990322581
 20
30.99983870970002
 30
65.0
 11
5.000967741899998
 21
30.99983870970002
 31
65.0
  0
LINE
  5
2A2
330
27D
100
AcDbEntity
  8
1
  6
Continuous
 62
     7
100
AcDbLine
 10
-122.9990322581
 20
30.99983870970002
 30
65.0
 11
-122.9990322581
 21
-0.0001612902999852
 31
65.0
  0
LINE
  5
2A3
330
27D
100
AcDbEntity
  8
1
  6
Continuous
 62
     7
100
AcDbLine
 10
-117.9990322581
 20
30.99983870970002
 30
65.0
 11
-117.9990322581
 21
9.999838709700014
 31
65.0
  0
TEXT
  5
2A4
330
27D
100
AcDbEntity
  8
1
  6
Continuous
 62
     7
100
AcDbText
 10
-122.2490325162
 20
25.74983841940002
 30
65.0
 40
3.5
  1
図
 41
1.153846153846153
 72
     5
 11
-118.7490325162
 21
25.74983841940002
 31
65.0
100
AcDbText
  0
TEXT
  5
2A5
330
27D
100
AcDbEntity
  8
1
  6
Continuous
 62
     7
100
AcDbText
 10
-101.2490325162
 20
10.74983841940002
 30
65.0
 40
3.5
  1
図
 41
1.153846153846153
 72
     5
 11
-97.74903251620004
 21
10.74983841940002
 31
65.0
100
AcDbText
  0
TEXT
  5
2A6
330
27D
100
AcDbEntity
  8
1
  6
Continuous
 62
     7
100
AcDbText
 10
-80.24903251620004
 20
10.74983841940002
 30
65.0
 40
3.5
  1
図
 41
1.153846153846153
 72
     5
 11
-76.74903251620005
 21
10.74983841940002
 31
65.0
100
AcDbText
  0
TEXT
  5
2A7
330
27D
100
AcDbEntity
  8
1
  6
Continuous
 62
     7
100
AcDbText
 10
-59.24903251620005
 20
4.74983841940002
 30
65.0
 40
3.5
  1
図
 41
1.153846153846153
 72
     5
 11
-55.74903251620004
 21
4.74983841940002
 31
65.0
100
AcDbText
  0
TEXT
  5
2A8
330
27D
100
AcDbEntity
  8
1
  6
Continuous
 62
     7
100
AcDbText
 10
-122.2490325162
 20
21.74983841940002
 30
65.0
 40
3.5
  1
名
 41
1.153846153846153
 72
     5
 11
-118.7490325162
 21
21.74983841940002
 31
65.0
100
AcDbText
  0
TEXT
  5
2A9
330
27D
100
AcDbEntity
  8
1
  6
Continuous
 62
     7
100
AcDbText
 10
-80.24903251620004
 20
14.74983841940002
 30
65.0
 40
3.5
  1
検
 41
1.071428571428571
 72
     5
 11
-76.74903251620005
 21
14.74983841940002
 31
65.0
100
AcDbText
  0
TEXT
  5
2AA
330
27D
100
AcDbEntity
  8
1
  6
Continuous
 62
     7
100
AcDbText
 10
-59.24903251620005
 20
0.749838419400021
 30
65.0
 40
3.5
  1
番
 41
1.071428571428571
 72
     5
 11
-55.74903251620004
 21
0.749838419400021
 31
65.0
100
AcDbText
  0
TEXT
  5
2AB
330
27D
100
AcDbEntity
  8
1
  6
Continuous
 62
     7
100
AcDbText
 10
-122.2490325162
 20
14.74983841940002
 30
65.0
 40
3.5
  1
設
 41
1.071428571428571
 72
     5
 11
-118.7490325162
 21
14.74983841940002
 31
65.0
100
AcDbText
  0
TEXT
  5
2AC
330
27D
100
AcDbEntity
  8
1
  6
Continuous
 62
     7
100
AcDbText
 10
-122.2490325162
 20
10.74983841940002
 30
65.0
 40
3.5
  1
計
 41
1.071428571428571
 72
     5
 11
-118.7490325162
 21
10.74983841940002
 31
65.0
100
AcDbText
  0
TEXT
  5
2AD
330
27D
100
AcDbEntity
  8
1
  6
Continuous
 62
     7
100
AcDbText
 10
-59.24903251620005
 20
14.74983841940002
 30
65.0
 40
3.5
  1
記
 41
1.071428571428571
 72
     5
 11
-55.74903251620004
 21
14.74983841940002
 31
65.0
100
AcDbText
  0
TEXT
  5
2AE
330
27D
100
AcDbEntity
  8
1
  6
Continuous
 62
     7
100
AcDbText
 10
-59.24903251620005
 20
10.74983841940002
 30
65.0
 40
3.5
  1
事
 41
1.071428571428571
 72
     5
 11
-55.74903251620004
 21
10.74983841940002
 31
65.0
100
AcDbText
  0
TEXT
  5
2AF
330
27D
100
AcDbEntity
  8
1
  6
Continuous
 62
     7
100
AcDbText
 10
-9.249032516200045
 20
25.74983841940002
 30
65.0
 40
3.5
  1
縮
 41
1.071428571428571
 72
     5
 11
-5.749032516200045
 21
25.74983841940002
 31
65.0
100
AcDbText
  0
TEXT
  5
2B0
330
27D
100
AcDbEntity
  8
1
  6
Continuous
 62
     7
100
AcDbText
 10
-9.249032516200045
 20
21.74983841940002
 30
65.0
 40
3.5
  1
尺
 41
1.071428571428571
 72
     5
 11
-5.749032516200045
 21
21.74983841940002
 31
65.0
100
AcDbText
  0
TEXT
  5
2B1
330
27D
100
AcDbEntity
  8
1
  6
Continuous
 62
     7
100
AcDbText
 10
-119.7490325162
 20
2.74983841940002
 30
65.0
 40
4.5
  1
伊藤鉄工株式会社
 41
1.369047619047618
 72
     5
 11
-62.24903251620005
 21
2.74983841940002
 31
65.0
100
AcDbText
  0
TEXT
  5
2B2
330
27D
100
AcDbEntity
  8
1
  6
Continuous
 62
     7
100
AcDbText
 10
-9.249032516200045
 20
5.99983841940002
 30
65.0
 40
3.0
  1
葉
 41
1.25
 72
     5
 11
-5.749032516200045
 21
5.99983841940002
 31
65.0
100
AcDbText
  0
TEXT
  5
2B3
330
27D
100
AcDbEntity
  8
1
  6
Continuous
 62
     7
100
AcDbText
 10
-9.249032516200045
 20
3.49983841940002
 30
65.0
 40
3.0
  1
ノ
 41
1.59090909090909
 72
     5
 11
-5.749032516200045
 21
3.49983841940002
 31
65.0
100
AcDbText
  0
TEXT
  5
2B4
330
27D
100
AcDbEntity
  8
1
  6
Continuous
 62
     7
100
AcDbText
 10
-9.249032516200045
 20
0.9998384194000209
 30
65.0
 40
3.0
  1
内
 41
1.346153846153846
 72
     5
 11
-5.749032516200045
 21
0.9998384194000209
 31
65.0
100
AcDbText
  0
LINE
  5
2B5
330
27D
100
AcDbEntity
  8
1
  6
Continuous
 62
     7
100
AcDbLine
 10
-122.9990322581
 20
30.99983870970002
 30
65.0
 11
-122.9990322581
 21
-0.0001612902999852
 31
65.0
  0
TEXT
  5
2B6
330
27D
100
AcDbEntity
  8
1
  6
Continuous
 62
     7
100
AcDbText
 10
-101.2490325162
 20
14.74983841940002
 30
65.0
 40
3.5
  1
製
 41
1.071428571428571
 72
     5
 11
-97.74903251620004
 21
14.74983841940002
 31
65.0
100
AcDbText
  0
LINE
  5
2B7
330
27D
100
AcDbEntity
  8
1
  6
Continuous
 62
     7
100
AcDbLine
 10
-69.62582009380001
 20
41.15905988960003
 30
65.0
 11
-65.90573309380004
 21
41.15905988960003
 31
65.0
  0
ARC
  5
2B8
330
27D
100
AcDbEntity
  8
1
  6
Continuous
 62
     7
100
AcDbCircle
 10
-60.94561709380004
 20
39.91903088960004
 30
65.0
 40
1.240029
100
AcDbArc
 50
90.0
 51
180.0
  0
LINE
  5
2B9
330
27D
100
AcDbEntity
  8
1
  6
Continuous
 62
     7
100
AcDbLine
 10
-56.19217259380004
 20
41.15905988960003
 30
65.0
 11
-60.94561709380004
 21
41.15905988960003
 31
65.0
  0
ARC
  5
2BA
330
27D
100
AcDbEntity
  8
1
  6
Continuous
 62
     7
100
AcDbCircle
 10
-56.19217259380004
 20
39.91903088960004
 30
65.0
 40
1.240029
100
AcDbArc
 50
0.0
 51
90.0
  0
ARC
  5
2BB
330
27D
100
AcDbEntity
  8
1
  6
Continuous
 62
     7
100
AcDbCircle
 10
-45.44525459380001
 20
39.91903088960004
 30
65.0
 40
1.240029
100
AcDbArc
 50
0.0
 51
90.0
  0
LINE
  5
2BC
330
27D
100
AcDbEntity
  8
1
  6
Continuous
 62
     7
100
AcDbLine
 10
-49.99202759380001
 20
41.15905988960003
 30
65.0
 11
-45.44525459380001
 21
41.15905988960003
 31
65.0
  0
ARC
  5
2BD
330
27D
100
AcDbEntity
  8
1
  6
Continuous
 62
     7
100
AcDbCircle
 10
-49.99202759380001
 20
39.91903088960004
 30
65.0
 40
1.240029
100
AcDbArc
 50
90.0
 51
180.0
  0
LINE
  5
2BE
330
27D
100
AcDbEntity
  8
1
  6
Continuous
 62
     7
100
AcDbLine
 10
-69.62582009380001
 20
40.33237388960003
 30
65.0
 11
-68.59246259380002
 21
40.33237388960003
 31
65.0
  0
LINE
  5
2BF
330
27D
100
AcDbEntity
  8
1
  6
Continuous
 62
     7
100
AcDbLine
 10
-68.59246259380002
 20
40.33237388960003
 30
65.0
 11
-68.59246259380002
 21
34.95891488960001
 31
65.0
  0
LINE
  5
2C0
330
27D
100
AcDbEntity
  8
1
  6
Continuous
 62
     7
100
AcDbLine
 10
-66.93909059380003
 20
34.95891488960001
 30
65.0
 11
-66.93909059380003
 21
40.33237388960003
 31
65.0
  0
LINE
  5
2C1
330
27D
100
AcDbEntity
  8
1
  6
Continuous
 62
     7
100
AcDbLine
 10
-66.93909059380003
 20
40.33237388960003
 30
65.0
 11
-65.90573309380004
 21
40.33237388960003
 31
65.0
  0
LINE
  5
2C2
330
27D
100
AcDbEntity
  8
1
  6
Continuous
 62
     7
100
AcDbLine
 10
-65.90573309380004
 20
41.15905988960003
 30
65.0
 11
-65.90573309380004
 21
40.33237388960003
 31
65.0
  0
LINE
  5
2C3
330
27D
100
AcDbEntity
  8
1
  6
Continuous
 62
     7
100
AcDbLine
 10
-69.62582009380001
 20
40.33237388960003
 30
65.0
 11
-69.62582009380001
 21
41.15905988960003
 31
65.0
  0
LINE
  5
2C4
330
27D
100
AcDbEntity
  8
1
  6
Continuous
 62
     7
100
AcDbLine
 10
-96.99903225810006
 20
15.99983870970001
 30
65.0
 11
-80.99903225810002
 21
15.99983870970001
 31
65.0
  0
LINE
  5
2C5
330
27D
100
AcDbEntity
  8
1
  6
Continuous
 62
     7
100
AcDbLine
 10
-75.99903225810002
 20
15.99983870970001
 30
65.0
 11
-59.99903225810003
 21
15.99983870970001
 31
65.0
  0
TEXT
  5
2C6
330
27D
100
AcDbEntity
  8
1
  6
Continuous
 62
     7
100
AcDbText
 10
-59.24903251620005
 20
25.74983841940002
 30
65.0
 40
3.5
  1
符
 41
1.071428571428571
 72
     5
 11
-55.74903251620004
 21
25.74983841940002
 31
65.0
100
AcDbText
  0
TEXT
  5
2C7
330
27D
100
AcDbEntity
  8
1
  6
Continuous
 62
     7
100
AcDbText
 10
-59.24903251620005
 20
21.74983841940002
 30
65.0
 40
3.5
  1
号
 41
1.071428571428571
 72
     5
 11
-55.74903251620004
 21
21.74983841940002
 31
65.0
100
AcDbText
  0
LINE
  5
2C8
330
27D
100
AcDbEntity
  8
1
  6
Continuous
 62
     7
100
AcDbLine
 10
-65.90573309380004
 20
34.13222888960002
 30
65.0
 11
-69.62582009380001
 21
34.13222888960002
 31
65.0
  0
CIRCLE
  5
2C9
330
27D
100
AcDbEntity
  8
1
  6
Continuous
 62
     7
100
AcDbCircle
 10
-64.25236109380001
 20
34.95891488960001
 30
65.0
 40
0.8266860000000001
  0
LINE
  5
2CA
330
27D
100
AcDbEntity
  8
1
  6
Continuous
 62
     7
100
AcDbLine
 10
-56.60551559380003
 20
34.95891488960001
 30
65.0
 11
-56.60551559380003
 21
34.13222888960002
 31
65.0
  0
LINE
  5
2CB
330
27D
100
AcDbEntity
  8
1
  6
Continuous
 62
     7
100
AcDbLine
 10
-56.60551559380003
 20
34.13222888960002
 30
65.0
 11
-54.95214359380002
 21
34.13222888960002
 31
65.0
  0
ARC
  5
2CC
330
27D
100
AcDbEntity
  8
1
  6
Continuous
 62
     7
100
AcDbCircle
 10
-60.94561709380004
 20
35.37225788960004
 30
65.0
 40
1.240029
100
AcDbArc
 50
180.0
 51
270.0
  0
LINE
  5
2CD
330
27D
100
AcDbEntity
  8
1
  6
Continuous
 62
     7
100
AcDbLine
 10
-60.94561709380004
 20
34.13222888960002
 30
65.0
 11
-60.53227409380001
 21
34.13222888960002
 31
65.0
  0
LINE
  5
2CE
330
27D
100
AcDbEntity
  8
1
  6
Continuous
 62
     7
100
AcDbLine
 10
-62.18564609380003
 20
35.37225788960004
 30
65.0
 11
-62.18564609380003
 21
39.91903088960004
 31
65.0
  0
CIRCLE
  5
2CF
330
27D
100
AcDbEntity
  8
1
  6
Continuous
 62
     7
100
AcDbCircle
 10
-53.50544309380002
 20
34.95891488960001
 30
65.0
 40
0.8266860000000001
  0
ARC
  5
2D0
330
27D
100
AcDbEntity
  8
1
  6
Continuous
 62
     7
100
AcDbCircle
 10
-49.99202759380001
 20
35.37225788960004
 30
65.0
 40
1.240029
100
AcDbArc
 50
180.0
 51
270.0
  0
LINE
  5
2D1
330
27D
100
AcDbEntity
  8
1
  6
Continuous
 62
     7
100
AcDbLine
 10
-45.44525459380001
 20
34.13222888960002
 30
65.0
 11
-49.99202759380001
 21
34.13222888960002
 31
65.0
  0
ARC
  5
2D2
330
27D
100
AcDbEntity
  8
1
  6
Continuous
 62
     7
100
AcDbCircle
 10
-45.44525459380001
 20
35.37225788960004
 30
65.0
 40
1.240029
100
AcDbArc
 50
270.0
 51
0.0
  0
LINE
  5
2D3
330
27D
100
AcDbEntity
  8
1
  6
Continuous
 62
     7
100
AcDbLine
 10
-51.23205659380004
 20
35.37225788960004
 30
65.0
 11
-51.23205659380004
 21
36.40561538960003
 31
65.0
  0
LINE
  5
2D4
330
27D
100
AcDbEntity
  8
1
  6
Continuous
 62
     7
100
AcDbLine
 10
-44.20522559380002
 20
39.91903088960004
 30
65.0
 11
-44.20522559380002
 21
38.88567338960001
 31
65.0
  0
CIRCLE
  5
2D5
330
27D
100
AcDbEntity
  8
1
  6
Continuous
 62
     7
100
AcDbCircle
 10
-42.75852509380003
 20
34.95891488960001
 30
65.0
 40
0.8266860000000001
  0
LINE
  5
2D6
330
27D
100
AcDbEntity
  8
1
  6
Continuous
 62
     7
100
AcDbLine
 10
-54.95214359380002
 20
39.09234488960001
 30
65.0
 11
-56.39884409380004
 21
39.09234488960001
 31
65.0
  0
LINE
  5
2D7
330
27D
100
AcDbEntity
  8
1
  6
Continuous
 62
     7
100
AcDbLine
 10
-56.39884409380004
 20
39.09234488960001
 30
65.0
 11
-56.39884409380004
 21
39.71235938960001
 31
65.0
  0
LINE
  5
2D8
330
27D
100
AcDbEntity
  8
1
  6
Continuous
 62
     7
100
AcDbLine
 10
-56.39884409380004
 20
39.71235938960001
 30
65.0
 11
-60.73894559380001
 21
39.71235938960001
 31
65.0
  0
LINE
  5
2D9
330
27D
100
AcDbEntity
  8
1
  6
Continuous
 62
     7
100
AcDbLine
 10
-60.73894559380001
 20
39.71235938960001
 30
65.0
 11
-60.73894559380001
 21
35.57892938960004
 31
65.0
  0
LINE
  5
2DA
330
27D
100
AcDbEntity
  8
1
  6
Continuous
 62
     7
100
AcDbLine
 10
-56.39884409380004
 20
37.02562988960003
 30
65.0
 11
-58.46555909380002
 21
37.02562988960003
 31
65.0
  0
LINE
  5
2DB
330
27D
100
AcDbEntity
  8
1
  6
Continuous
 62
     7
100
AcDbLine
 10
-58.46555909380002
 20
37.02562988960003
 30
65.0
 11
-58.46555909380002
 21
38.26565888960002
 31
65.0
  0
LINE
  5
2DC
330
27D
100
AcDbEntity
  8
1
  6
Continuous
 62
     7
100
AcDbLine
 10
-54.95214359380002
 20
39.09234488960001
 30
65.0
 11
-54.95214359380002
 21
39.91903088960004
 31
65.0
  0
LINE
  5
2DD
330
27D
100
AcDbEntity
  8
1
  6
Continuous
 62
     7
100
AcDbLine
 10
-56.39884409380004
 20
36.40561538960003
 30
65.0
 11
-56.39884409380004
 21
37.02562988960003
 31
65.0
  0
LINE
  5
2DE
330
27D
100
AcDbEntity
  8
1
  6
Continuous
 62
     7
100
AcDbLine
 10
-56.19217259380004
 20
38.26565888960002
 30
65.0
 11
-58.46555909380002
 21
38.26565888960002
 31
65.0
  0
LINE
  5
2DF
330
27D
100
AcDbEntity
  8
1
  6
Continuous
 62
     7
100
AcDbLine
 10
-54.95214359380002
 20
37.02562988960003
 30
65.0
 11
-54.95214359380002
 21
34.13222888960002
 31
65.0
  0
ARC
  5
2E0
330
27D
100
AcDbEntity
  8
1
  6
Continuous
 62
     7
100
AcDbCircle
 10
-56.19217259380004
 20
37.02562988960003
 30
65.0
 40
1.240029
100
AcDbArc
 50
0.0
 51
90.0
  0
LINE
  5
2E1
330
27D
100
AcDbEntity
  8
1
  6
Continuous
 62
     7
100
AcDbLine
 10
-58.10710069440005
 20
36.40561538960003
 30
65.0
 11
-56.39884409380004
 21
36.40561538960003
 31
65.0
  0
ARC
  5
2E2
330
27D
100
AcDbEntity
  8
1
  6
Continuous
 62
     7
100
AcDbCircle
 10
-58.10710069440005
 20
35.16558638960004
 30
65.0
 40
1.240029
100
AcDbArc
 50
90.0
 51
119.7448812969
  0
LINE
  5
2E3
330
27D
100
AcDbEntity
  8
1
  6
Continuous
 62
     7
100
AcDbLine
 10
-60.21241640110007
 20
35.57892938960004
 30
65.0
 11
-60.73894559380001
 21
35.57892938960004
 31
65.0
  0
LINE
  5
2E4
330
27D
100
AcDbEntity
  8
1
  6
Continuous
 62
     7
100
AcDbLine
 10
-59.59718972950007
 20
35.74231171430003
 30
65.0
 11
-58.72232736600004
 21
36.24223306480002
 31
65.0
  0
ARC
  5
2E5
330
27D
100
AcDbEntity
  8
1
  6
Continuous
 62
     7
100
AcDbCircle
 10
-60.21241640110007
 20
36.81895838960003
 30
65.0
 40
1.240029
100
AcDbArc
 50
270.0
 51
299.7448812969
  0
ARC
  5
2E6
330
27D
100
AcDbEntity
  8
1
  6
Continuous
 62
     7
100
AcDbCircle
 10
-57.72290849050005
 20
33.71888588960002
 30
65.0
 40
1.240029
100
AcDbArc
 50
90.0
 51
119.7448812969
  0
LINE
  5
2E7
330
27D
100
AcDbEntity
  8
1
  6
Continuous
 62
     7
100
AcDbLine
 10
-59.82822419720001
 20
34.13222888960002
 30
65.0
 11
-60.94561709380004
 21
34.13222888960002
 31
65.0
  0
ARC
  5
2E8
330
27D
100
AcDbEntity
  8
1
  6
Continuous
 62
     7
100
AcDbCircle
 10
-59.82822419720001
 20
35.37225788960004
 30
65.0
 40
1.240029
100
AcDbArc
 50
270.0
 51
299.7448812969
  0
LINE
  5
2E9
330
27D
100
AcDbEntity
  8
1
  6
Continuous
 62
     7
100
AcDbLine
 10
-58.33813516210004
 20
34.79553256480003
 30
65.0
 11
-59.21299752560002
 21
34.29561121430004
 31
65.0
  0
LINE
  5
2EA
330
27D
100
AcDbEntity
  8
1
  6
Continuous
 62
     7
100
AcDbLine
 10
-57.72290849050005
 20
34.95891488960001
 30
65.0
 11
-56.60551559380003
 21
34.95891488960001
 31
65.0
  0
LINE
  5
2EB
330
27D
100
AcDbEntity
  8
1
  6
Continuous
 62
     7
100
AcDbLine
 10
-68.59246259380002
 20
34.95891488960001
 30
65.0
 11
-69.62582009380001
 21
34.95891488960001
 31
65.0
  0
LINE
  5
2EC
330
27D
100
AcDbEntity
  8
1
  6
Continuous
 62
     7
100
AcDbLine
 10
-66.93909059380003
 20
34.95891488960001
 30
65.0
 11
-65.90573309380004
 21
34.95891488960001
 31
65.0
  0
LINE
  5
2ED
330
27D
100
AcDbEntity
  8
1
  6
Continuous
 62
     7
100
AcDbLine
 10
-69.62582009380001
 20
34.13222888960002
 30
65.0
 11
-69.62582009380001
 21
34.95891488960001
 31
65.0
  0
LINE
  5
2EE
330
27D
100
AcDbEntity
  8
1
  6
Continuous
 62
     7
100
AcDbLine
 10
-65.90573309380004
 20
34.95891488960001
 30
65.0
 11
-65.90573309380004
 21
34.13222888960002
 31
65.0
  0
LINE
  5
2EF
330
27D
100
AcDbEntity
  8
1
  6
Continuous
 62
     7
100
AcDbLine
 10
-49.78535609380002
 20
39.71235938960001
 30
65.0
 11
-45.65192609380001
 21
39.71235938960001
 31
65.0
  0
LINE
  5
2F0
330
27D
100
AcDbEntity
  8
1
  6
Continuous
 62
     7
100
AcDbLine
 10
-45.65192609380001
 20
39.71235938960001
 30
65.0
 11
-45.65192609380001
 21
38.88567338960001
 31
65.0
  0
LINE
  5
2F1
330
27D
100
AcDbEntity
  8
1
  6
Continuous
 62
     7
100
AcDbLine
 10
-49.78535609380002
 20
36.40561538960003
 30
65.0
 11
-49.78535609380002
 21
35.57892938960004
 31
65.0
  0
LINE
  5
2F2
330
27D
100
AcDbEntity
  8
1
  6
Continuous
 62
     7
100
AcDbLine
 10
-49.78535609380002
 20
35.57892938960004
 30
65.0
 11
-45.65192609380001
 21
35.57892938960004
 31
65.0
  0
LINE
  5
2F3
330
27D
100
AcDbEntity
  8
1
  6
Continuous
 62
     7
100
AcDbLine
 10
-49.78535609380002
 20
36.40561538960003
 30
65.0
 11
-51.23205659380004
 21
36.40561538960003
 31
65.0
  0
LINE
  5
2F4
330
27D
100
AcDbEntity
  8
1
  6
Continuous
 62
     7
100
AcDbLine
 10
-44.20522559380002
 20
38.88567338960001
 30
65.0
 11
-45.65192609380001
 21
38.88567338960001
 31
65.0
  0
LINE
  5
2F5
330
27D
100
AcDbEntity
  8
1
  6
Continuous
 62
     7
100
AcDbLine
 10
-45.65192609380001
 20
35.57892938960004
 30
65.0
 11
-45.65192609380001
 21
37.02562988960003
 31
65.0
  0
LINE
  5
2F6
330
27D
100
AcDbEntity
  8
1
  6
Continuous
 62
     7
100
AcDbLine
 10
-49.78535609380002
 20
38.26565888960002
 30
65.0
 11
-49.78535609380002
 21
39.71235938960001
 31
65.0
  0
LINE
  5
2F7
330
27D
100
AcDbEntity
  8
1
  6
Continuous
 62
     7
100
AcDbLine
 10
-44.20522559380002
 20
37.02562988960003
 30
65.0
 11
-44.20522559380002
 21
35.37225788960004
 31
65.0
  0
LINE
  5
2F8
330
27D
100
AcDbEntity
  8
1
  6
Continuous
 62
     7
100
AcDbLine
 10
-45.44525459380001
 20
38.26565888960002
 30
65.0
 11
-49.78535609380002
 21
38.26565888960002
 31
65.0
  0
ARC
  5
2F9
330
27D
100
AcDbEntity
  8
1
  6
Continuous
 62
     7
100
AcDbCircle
 10
-45.44525459380001
 20
37.02562988960003
 30
65.0
 40
1.240029
100
AcDbArc
 50
0.0
 51
90.0
  0
LINE
  5
2FA
330
27D
100
AcDbEntity
  8
1
  6
Continuous
 62
     7
100
AcDbLine
 10
-49.99202759400002
 20
37.02562988960003
 30
65.0
 11
-45.65192609380001
 21
37.02562988960003
 31
65.0
  0
LINE
  5
2FB
330
27D
100
AcDbEntity
  8
1
  6
Continuous
 62
     7
100
AcDbLine
 10
-51.23205659380004
 20
38.26565888960002
 30
65.0
 11
-51.23205659380004
 21
39.91903088960004
 31
65.0
  0
ARC
  5
2FC
330
27D
100
AcDbEntity
  8
1
  6
Continuous
 62
     7
100
AcDbCircle
 10
-49.99202759400002
 20
38.26565888960002
 30
65.0
 40
1.240029
100
AcDbArc
 50
180.0
 51
270.0
  0
LINE
  5
2FD
330
27D
100
AcDbEntity
  8
1
  6
Continuous
 62
     7
100
AcDbLine
 10
-4.999032258100001
 20
-0.0001612902999852
 30
65.0
 11
5.000967741899998
 21
9.999838709700014
 31
65.0
  0
LINE
  5
2FE
330
27D
100
AcDbEntity
  8
1
  6
Continuous
 62
     7
100
AcDbLine
 10
-4.999032258100001
 20
19.99983870970001
 30
65.0
 11
5.000967741899998
 21
30.99983870970002
 31
65.0
  0
TEXT
  5
2FF
330
27D
100
AcDbEntity
  8
1
  6
Continuous
 62
     7
100
AcDbText
 10
-179.7089845162
 20
23.95225941940004
 30
65.0
 40
8.0
  1
△
 41
1.153846153846153
 72
     5
 11
-171.7089845162
 21
23.95225941940004
 31
65.0
100
AcDbText
  0
TEXT
  5
300
330
27D
100
AcDbEntity
  8
1
  6
Continuous
 62
     7
100
AcDbText
 10
-204.7089845162
 20
23.95225941940004
 30
65.0
 40
8.0
  1
△
 41
1.153846153846153
 72
     5
 11
-196.7089845162
 21
23.95225941940004
 31
65.0
100
AcDbText
  0
TEXT
  5
301
330
27D
100
AcDbEntity
  8
1
  6
Continuous
 62
     7
100
AcDbText
 10
-229.7089845162
 20
23.95225941940004
 30
65.0
 40
8.0
  1
△
 41
1.153846153846153
 72
     5
 11
-221.7089845162
 21
23.95225941940004
 31
65.0
100
AcDbText
  0
TEXT
  5
302
330
27D
100
AcDbEntity
  8
1
  6
Continuous
 62
     7
100
AcDbText
 10
-254.7089845162
 20
23.95225941940004
 30
65.0
 40
8.0
  1
△
 41
1.153846153846153
 72
     5
 11
-246.7089845162
 21
23.95225941940004
 31
65.0
100
AcDbText
  0
TEXT
  5
303
330
27D
100
AcDbEntity
  8
1
  6
Continuous
 62
     7
100
AcDbText
 10
-279.7089845162
 20
23.95225941940004
 30
65.0
 40
8.0
  1
△
 41
1.153846153846153
 72
     5
 11
-271.7089845162
 21
23.95225941940004
 31
65.0
100
AcDbText
  0
LINE
  5
304
330
27D
100
AcDbEntity
  8
0
100
AcDbLine
 10
-287.9990322581
 20
-0.0001612902999852
 30
65.0
 11
5.000967741899998
 21
-0.0001612902999852
 31
65.0
  0
LINE
  5
305
330
27D
100
AcDbEntity
  8
0
100
AcDbLine
 10
5.000967741899998
 20
-0.0001612902999852
 30
65.0
 11
5.000967741899998
 21
30.99983870970002
 31
65.0
  0
ENDBLK
  5
307
330
27D
100
AcDbEntity
  8
0
100
AcDbBlockEnd
  0
BLOCK
  5
3B8
330
335
100
AcDbEntity
  8
0
100
AcDbBlockBegin
  2
IGS2
 70
     2
 10
0.0
 20
0.0
 30
0.0
  3
IGS2
  1

  0
POINT
  5
336
330
335
100
AcDbEntity
  8
0
 60
     1
100
AcDbPoint
 10
0.0
 20
0.0
 30
0.0
1001
GENIUS_GENODEF_13
1002
{
1000
HIER
1070
     1
1002
}
1002
{
1000
MANEDIT
1070
     0
1002
}
1002
{
1000
NOSEL
1070
     0
1002
}
1002
{
1000
BEHIND
1070
     0
1002
}
1002
{
1000
REACTOR
1002
}
1001
GENIUS_GENTITLE_13
1002
{
1000
SCALE
1000
1:1
1002
}
1002
{
1000
BORDER
1000
IGS-A4
1002
}
1002
{
1000
TITLE
1000
IGS-TITLE
1002
}
1002
{
1000
UNCHG
1002
{
1000
GEN-TITLE-SCA
1000
GEN-TITLE-SIZ
1002
}
1002
}
1002
{
1000
HRA
1005
0
1002
}
1002
{
1000
HTIT
1005
0
1002
}
1002
{
1000
GENIUSID
1005
336
1002
}
1001
GENIUS_GENOBJ-N-TIT_13
1002
{
1000
OWNER
1000
GEN
1002
}
1001
GENIUS_GENOENT_13
1002
{
1000
MYREF
1005
336
1002
}
1002
{
1000
GRP
1005
0
1002
}
1001
GENIUS_GENOLIS_13
1002
{
1000
ENT
1005
0
1005
0
1002
}
  0
LINE
  5
337
330
335
100
AcDbEntity
  8
RAHM3
100
AcDbLine
 10
-148.4080564410193
 20
8.825237325416161
 30
52.0
 11
-145.4319868410194
 21
8.825237325416161
 31
52.0
  0
ARC
  5
338
330
335
100
AcDbEntity
  8
RAHM3
100
AcDbCircle
 10
-141.4638940410194
 20
7.833214125416168
 30
52.0
 40
0.9920232
100
AcDbArc
 50
90.0
 51
180.0
  0
LINE
  5
339
330
335
100
AcDbEntity
  8
RAHM3
100
AcDbLine
 10
-137.6611384410193
 20
8.825237325416161
 30
52.0
 11
-141.4638940410194
 21
8.825237325416161
 31
52.0
  0
ARC
  5
33A
330
335
100
AcDbEntity
  8
RAHM3
100
AcDbCircle
 10
-137.6611384410193
 20
7.833214125416168
 30
52.0
 40
0.9920232
100
AcDbArc
 50
0.0
 51
90.0
  0
ARC
  5
33B
330
335
100
AcDbEntity
  8
RAHM3
100
AcDbCircle
 10
-129.0636040410194
 20
7.833214125416168
 30
52.0
 40
0.9920232
100
AcDbArc
 50
0.0
 51
90.0
  0
LINE
  5
33C
330
335
100
AcDbEntity
  8
RAHM3
100
AcDbLine
 10
-132.7010224410193
 20
8.825237325416161
 30
52.0
 11
-129.0636040410194
 21
8.825237325416161
 31
52.0
  0
ARC
  5
33D
330
335
100
AcDbEntity
  8
RAHM3
100
AcDbCircle
 10
-132.7010224410193
 20
7.833214125416168
 30
52.0
 40
0.9920232
100
AcDbArc
 50
90.0
 51
180.0
  0
LINE
  5
33E
330
335
100
AcDbEntity
  8
RAHM3
100
AcDbLine
 10
-148.4080564410193
 20
8.163888525416165
 30
52.0
 11
-147.5813704410193
 21
8.163888525416165
 31
52.0
  0
LINE
  5
33F
330
335
100
AcDbEntity
  8
RAHM3
100
AcDbLine
 10
-147.5813704410193
 20
8.163888525416165
 30
52.0
 11
-147.5813704410193
 21
3.865121325416145
 31
52.0
  0
LINE
  5
340
330
335
100
AcDbEntity
  8
RAHM3
100
AcDbLine
 10
-146.2586728410194
 20
3.865121325416145
 30
52.0
 11
-146.2586728410194
 21
8.163888525416165
 31
52.0
  0
LINE
  5
341
330
335
100
AcDbEntity
  8
RAHM3
100
AcDbLine
 10
-146.2586728410194
 20
8.163888525416165
 30
52.0
 11
-145.4319868410194
 21
8.163888525416165
 31
52.0
  0
LINE
  5
342
330
335
100
AcDbEntity
  8
RAHM3
100
AcDbLine
 10
-145.4319868410194
 20
8.825237325416161
 30
52.0
 11
-145.4319868410194
 21
8.163888525416165
 31
52.0
  0
LINE
  5
343
330
335
100
AcDbEntity
  8
RAHM3
100
AcDbLine
 10
-148.4080564410193
 20
8.163888525416165
 30
52.0
 11
-148.4080564410193
 21
8.825237325416161
 31
52.0
  0
LINE
  5
344
330
335
100
AcDbEntity
  8
RAHM3
100
AcDbLine
 10
-145.4319868410194
 20
3.203772525416149
 30
52.0
 11
-148.4080564410193
 21
3.203772525416149
 31
52.0
  0
CIRCLE
  5
345
330
335
100
AcDbEntity
  8
RAHM3
100
AcDbCircle
 10
-144.1092892410194
 20
3.865121325416145
 30
52.0
 40
0.6613488000000001
  0
LINE
  5
346
330
335
100
AcDbEntity
  8
RAHM3
100
AcDbLine
 10
-137.9918128410194
 20
3.865121325416145
 30
52.0
 11
-137.9918128410194
 21
3.203772525416149
 31
52.0
  0
LINE
  5
347
330
335
100
AcDbEntity
  8
RAHM3
100
AcDbLine
 10
-137.9918128410194
 20
3.203772525416149
 30
52.0
 11
-136.6691152410193
 21
3.203772525416149
 31
52.0
  0
ARC
  5
348
330
335
100
AcDbEntity
  8
RAHM3
100
AcDbCircle
 10
-141.4638940410194
 20
4.195795725416166
 30
52.0
 40
0.9920232
100
AcDbArc
 50
180.0
 51
270.0
  0
LINE
  5
349
330
335
100
AcDbEntity
  8
RAHM3
100
AcDbLine
 10
-141.4638940410194
 20
3.203772525416149
 30
52.0
 11
-141.1332196410193
 21
3.203772525416149
 31
52.0
  0
LINE
  5
34A
330
335
100
AcDbEntity
  8
RAHM3
100
AcDbLine
 10
-142.4559172410194
 20
4.195795725416166
 30
52.0
 11
-142.4559172410194
 21
7.833214125416168
 31
52.0
  0
CIRCLE
  5
34B
330
335
100
AcDbEntity
  8
RAHM3
100
AcDbCircle
 10
-135.5117548410193
 20
3.865121325416145
 30
52.0
 40
0.6613488000000001
  0
ARC
  5
34C
330
335
100
AcDbEntity
  8
RAHM3
100
AcDbCircle
 10
-132.7010224410193
 20
4.195795725416166
 30
52.0
 40
0.9920232
100
AcDbArc
 50
180.0
 51
270.0
  0
LINE
  5
34D
330
335
100
AcDbEntity
  8
RAHM3
100
AcDbLine
 10
-129.0636040410194
 20
3.203772525416149
 30
52.0
 11
-132.7010224410193
 21
3.203772525416149
 31
52.0
  0
ARC
  5
34E
330
335
100
AcDbEntity
  8
RAHM3
100
AcDbCircle
 10
-129.0636040410194
 20
4.195795725416166
 30
52.0
 40
0.9920232
100
AcDbArc
 50
270.0
 51
0.0
  0
LINE
  5
34F
330
335
100
AcDbEntity
  8
RAHM3
100
AcDbLine
 10
-133.6930456410194
 20
4.195795725416166
 30
52.0
 11
-133.6930456410194
 21
5.022481725416161
 31
52.0
  0
LINE
  5
350
330
335
100
AcDbEntity
  8
RAHM3
100
AcDbLine
 10
-128.0715808410194
 20
7.833214125416168
 30
52.0
 11
-128.0715808410194
 21
7.00652812541615
 31
52.0
  0
CIRCLE
  5
351
330
335
100
AcDbEntity
  8
RAHM3
100
AcDbCircle
 10
-126.9142204410194
 20
3.865121325416145
 30
52.0
 40
0.6613488000000001
  0
LINE
  5
352
330
335
100
AcDbEntity
  8
RAHM3
100
AcDbLine
 10
-136.6691152410193
 20
7.171865325416149
 30
52.0
 11
-137.8264756410194
 21
7.171865325416149
 31
52.0
  0
LINE
  5
353
330
335
100
AcDbEntity
  8
RAHM3
100
AcDbLine
 10
-137.8264756410194
 20
7.171865325416149
 30
52.0
 11
-137.8264756410194
 21
7.667876925416146
 31
52.0
  0
LINE
  5
354
330
335
100
AcDbEntity
  8
RAHM3
100
AcDbLine
 10
-137.8264756410194
 20
7.667876925416146
 30
52.0
 11
-141.2985568410193
 21
7.667876925416146
 31
52.0
  0
LINE
  5
355
330
335
100
AcDbEntity
  8
RAHM3
100
AcDbLine
 10
-141.2985568410193
 20
7.667876925416146
 30
52.0
 11
-141.2985568410193
 21
4.361132925416165
 31
52.0
  0
LINE
  5
356
330
335
100
AcDbEntity
  8
RAHM3
100
AcDbLine
 10
-137.8264756410194
 20
5.518493325416158
 30
52.0
 11
-139.4798476410193
 21
5.518493325416158
 31
52.0
  0
LINE
  5
357
330
335
100
AcDbEntity
  8
RAHM3
100
AcDbLine
 10
-139.4798476410193
 20
5.518493325416158
 30
52.0
 11
-139.4798476410193
 21
6.510516525416153
 31
52.0
  0
LINE
  5
358
330
335
100
AcDbEntity
  8
RAHM3
100
AcDbLine
 10
-136.6691152410193
 20
7.171865325416149
 30
52.0
 11
-136.6691152410193
 21
7.833214125416168
 31
52.0
  0
LINE
  5
359
330
335
100
AcDbEntity
  8
RAHM3
100
AcDbLine
 10
-137.8264756410194
 20
5.022481725416161
 30
52.0
 11
-137.8264756410194
 21
5.518493325416158
 31
52.0
  0
LINE
  5
35A
330
335
100
AcDbEntity
  8
RAHM3
100
AcDbLine
 10
-137.6611384410193
 20
6.510516525416153
 30
52.0
 11
-139.4798476410193
 21
6.510516525416153
 31
52.0
  0
LINE
  5
35B
330
335
100
AcDbEntity
  8
RAHM3
100
AcDbLine
 10
-136.6691152410193
 20
5.518493325416158
 30
52.0
 11
-136.6691152410193
 21
3.203772525416149
 31
52.0
  0
ARC
  5
35C
330
335
100
AcDbEntity
  8
RAHM3
100
AcDbCircle
 10
-137.6611384410193
 20
5.518493325416158
 30
52.0
 40
0.9920232
100
AcDbArc
 50
0.0
 51
90.0
  0
LINE
  5
35D
330
335
100
AcDbEntity
  8
RAHM3
100
AcDbLine
 10
-139.1930809214994
 20
5.022481725416161
 30
52.0
 11
-137.8264756410194
 21
5.022481725416161
 31
52.0
  0
ARC
  5
35E
330
335
100
AcDbEntity
  8
RAHM3
100
AcDbCircle
 10
-139.1930809214994
 20
4.030458525416167
 30
52.0
 40
0.9920232
100
AcDbArc
 50
90.0
 51
119.7448812969
  0
LINE
  5
35F
330
335
100
AcDbEntity
  8
RAHM3
100
AcDbLine
 10
-140.8773334868594
 20
4.361132925416165
 30
52.0
 11
-141.2985568410193
 21
4.361132925416165
 31
52.0
  0
LINE
  5
360
330
335
100
AcDbEntity
  8
RAHM3
100
AcDbLine
 10
-140.3851521495794
 20
4.491838785176161
 30
52.0
 11
-139.6852622587794
 21
4.891775865576152
 31
52.0
  0
ARC
  5
361
330
335
100
AcDbEntity
  8
RAHM3
100
AcDbCircle
 10
-140.8773334868594
 20
5.35315612541616
 30
52.0
 40
0.9920232
100
AcDbArc
 50
270.0
 51
299.7448812969
  0
ARC
  5
362
330
335
100
AcDbEntity
  8
RAHM3
100
AcDbCircle
 10
-138.8857271583794
 20
2.873098125416151
 30
52.0
 40
0.9920232
100
AcDbArc
 50
90.0
 51
119.7448812969
  0
LINE
  5
363
330
335
100
AcDbEntity
  8
RAHM3
100
AcDbLine
 10
-140.5699797237394
 20
3.203772525416149
 30
52.0
 11
-141.4638940410194
 21
3.203772525416149
 31
52.0
  0
ARC
  5
364
330
335
100
AcDbEntity
  8
RAHM3
100
AcDbCircle
 10
-140.5699797237394
 20
4.195795725416166
 30
52.0
 40
0.9920232
100
AcDbArc
 50
270.0
 51
299.7448812969
  0
LINE
  5
365
330
335
100
AcDbEntity
  8
RAHM3
100
AcDbLine
 10
-139.3779084956594
 20
3.734415465576159
 30
52.0
 11
-140.0777983864594
 21
3.334478385176168
 31
52.0
  0
LINE
  5
366
330
335
100
AcDbEntity
  8
RAHM3
100
AcDbLine
 10
-138.8857271583794
 20
3.865121325416145
 30
52.0
 11
-137.9918128410194
 21
3.865121325416145
 31
52.0
  0
LINE
  5
367
330
335
100
AcDbEntity
  8
RAHM3
100
AcDbLine
 10
-147.5813704410193
 20
3.865121325416145
 30
52.0
 11
-148.4080564410193
 21
3.865121325416145
 31
52.0
  0
LINE
  5
368
330
335
100
AcDbEntity
  8
RAHM3
100
AcDbLine
 10
-146.2586728410194
 20
3.865121325416145
 30
52.0
 11
-145.4319868410194
 21
3.865121325416145
 31
52.0
  0
LINE
  5
369
330
335
100
AcDbEntity
  8
RAHM3
100
AcDbLine
 10
-148.4080564410193
 20
3.203772525416149
 30
52.0
 11
-148.4080564410193
 21
3.865121325416145
 31
52.0
  0
LINE
  5
36A
330
335
100
AcDbEntity
  8
RAHM3
100
AcDbLine
 10
-145.4319868410194
 20
3.865121325416145
 30
52.0
 11
-145.4319868410194
 21
3.203772525416149
 31
52.0
  0
LINE
  5
36B
330
335
100
AcDbEntity
  8
RAHM3
100
AcDbLine
 10
-132.5356852410194
 20
7.667876925416146
 30
52.0
 11
-129.2289412410193
 21
7.667876925416146
 31
52.0
  0
LINE
  5
36C
330
335
100
AcDbEntity
  8
RAHM3
100
AcDbLine
 10
-129.2289412410193
 20
7.667876925416146
 30
52.0
 11
-129.2289412410193
 21
7.00652812541615
 31
52.0
  0
LINE
  5
36D
330
335
100
AcDbEntity
  8
RAHM3
100
AcDbLine
 10
-132.5356852410194
 20
5.022481725416161
 30
52.0
 11
-132.5356852410194
 21
4.361132925416165
 31
52.0
  0
LINE
  5
36E
330
335
100
AcDbEntity
  8
RAHM3
100
AcDbLine
 10
-132.5356852410194
 20
4.361132925416165
 30
52.0
 11
-129.2289412410193
 21
4.361132925416165
 31
52.0
  0
LINE
  5
36F
330
335
100
AcDbEntity
  8
RAHM3
100
AcDbLine
 10
-132.5356852410194
 20
5.022481725416161
 30
52.0
 11
-133.6930456410194
 21
5.022481725416161
 31
52.0
  0
LINE
  5
370
330
335
100
AcDbEntity
  8
RAHM3
100
AcDbLine
 10
-128.0715808410194
 20
7.00652812541615
 30
52.0
 11
-129.2289412410193
 21
7.00652812541615
 31
52.0
  0
LINE
  5
371
330
335
100
AcDbEntity
  8
RAHM3
100
AcDbLine
 10
-129.2289412410193
 20
4.361132925416165
 30
52.0
 11
-129.2289412410193
 21
5.518493325416158
 31
52.0
  0
LINE
  5
372
330
335
100
AcDbEntity
  8
RAHM3
100
AcDbLine
 10
-132.5356852410194
 20
6.510516525416153
 30
52.0
 11
-132.5356852410194
 21
7.667876925416146
 31
52.0
  0
LINE
  5
373
330
335
100
AcDbEntity
  8
RAHM3
100
AcDbLine
 10
-128.0715808410194
 20
5.518493325416158
 30
52.0
 11
-128.0715808410194
 21
4.195795725416166
 31
52.0
  0
LINE
  5
374
330
335
100
AcDbEntity
  8
RAHM3
100
AcDbLine
 10
-129.0636040410194
 20
6.510516525416153
 30
52.0
 11
-132.5356852410194
 21
6.510516525416153
 31
52.0
  0
ARC
  5
375
330
335
100
AcDbEntity
  8
RAHM3
100
AcDbCircle
 10
-129.0636040410194
 20
5.518493325416158
 30
52.0
 40
0.9920232
100
AcDbArc
 50
0.0
 51
90.0
  0
LINE
  5
376
330
335
100
AcDbEntity
  8
RAHM3
100
AcDbLine
 10
-132.7010224411794
 20
5.518493325416158
 30
52.0
 11
-129.2289412410193
 21
5.518493325416158
 31
52.0
  0
LINE
  5
377
330
335
100
AcDbEntity
  8
RAHM3
100
AcDbLine
 10
-133.6930456410194
 20
6.510516525416153
 30
52.0
 11
-133.6930456410194
 21
7.833214125416168
 31
52.0
  0
ARC
  5
378
330
335
100
AcDbEntity
  8
RAHM3
100
AcDbCircle
 10
-132.7010224411794
 20
6.510516525416153
 30
52.0
 40
0.9920232
100
AcDbArc
 50
180.0
 51
270.0
  0
POINT
  5
379
330
335
100
AcDbEntity
  8
0
 60
     1
100
AcDbPoint
 10
0.0
 20
0.0
 30
0.0
1001
GENIUS_GENODEF_13
1002
{
1000
HIER
1070
     1
1002
}
1002
{
1000
MANEDIT
1070
     0
1002
}
1002
{
1000
NOSEL
1070
     0
1002
}
1002
{
1000
BEHIND
1070
     0
1002
}
1002
{
1000
REACTOR
1002
}
1001
GENIUS_GENTITLE_13
1002
{
1000
SCALE
1000
1:1
1002
}
1002
{
1000
BORDER
1000
GEN_A4
1002
}
1002
{
1000
TITLE
1000
GENTITUS
1002
}
1002
{
1000
UNCHG
1002
{
1000
GEN-TITLE-SCA
1000
GEN-TITLE-SIZ
1002
}
1002
}
1002
{
1000
HRA
1005
0
1002
}
1002
{
1000
HTIT
1005
0
1002
}
1002
{
1000
GENIUSID
1005
379
1002
}
1001
GENIUS_GENOBJ-N-TIT_13
1002
{
1000
OWNER
1000
GEN
1002
}
1001
GENIUS_GENOENT_13
1002
{
1000
MYREF
1005
379
1002
}
1002
{
1000
GRP
1005
0
1002
}
1001
GENIUS_GENOLIS_13
1002
{
1000
ENT
1005
0
1005
0
1002
}
  0
TEXT
  5
37A
330
335
100
AcDbEntity
  8
0
 60
     1
100
AcDbText
 10
210.0
 20
297.0
 30
0.0
 40
3.5
  1
!GENTITLE-MAX
100
AcDbText
  0
TEXT
  5
37B
330
335
100
AcDbEntity
  8
0
 60
     1
100
AcDbText
 10
205.0
 20
287.0
 30
0.0
 40
3.5
  1
!GENTITLE-RU
100
AcDbText
  0
TEXT
  5
37C
330
335
100
AcDbEntity
  8
0
 60
     1
100
AcDbText
 10
15.0
 20
59.99
 30
0.0
 40
3.5
  1
!GENTITLE-LL
100
AcDbText
  0
TEXT
  5
37D
330
335
100
AcDbEntity
  8
0
 60
     1
100
AcDbText
 10
205.0
 20
5.0
 30
0.0
 40
3.5
  1
!GENTITLE-INSERT
100
AcDbText
  0
LINE
  5
37E
330
335
100
AcDbEntity
  8
RAHM2
100
AcDbLine
 10
-155.0
 20
12.0
 30
0.0
 11
0.0
 21
12.0
 31
0.0
  0
LINE
  5
37F
330
335
100
AcDbEntity
  8
RAHM2
100
AcDbLine
 10
-12.0
 20
12.0
 30
0.0
 11
-12.00000000000727
 21
0.0
 31
0.0
  0
LINE
  5
380
330
335
100
AcDbEntity
  8
RAHM2
100
AcDbLine
 10
-80.0
 20
19.99999999999272
 30
0.0
 11
0.0
 21
20.0
 31
0.0
  0
LINE
  5
381
330
335
100
AcDbEntity
  8
RAHM2
100
AcDbLine
 10
0.0
 20
27.0
 30
0.0
 11
-80.0
 21
27.0
 31
0.0
  0
MTEXT
  5
382
330
335
100
AcDbEntity
  8
RAHM2
100
AcDbMText
 10
-78.39748281353763
 20
37.79972226353243
 30
0.0
 40
2.5
 41
2.458156240282278
 71
     1
 72
     5
  1

 73
     1
 44
1.0
  0
TEXT
  5
383
330
335
100
AcDbEntity
  8
RAHM3
100
AcDbText
 10
-79.00900277736832
 20
36.89804600214973
 30
0.0
 40
2.299999999999999
  1
名称 ＴＩＴＬＥ
 41
0.8
100
AcDbText
  0
LINE
  5
384
330
335
100
AcDbEntity
  8
RAHM2
100
AcDbLine
 10
-80.0
 20
40.00000000000727
 30
0.0
 11
-80.0
 21
0.0
 31
0.0
  0
TEXT
  5
385
330
335
100
AcDbEntity
  8
RAHM3
100
AcDbText
 10
-79.00900277736832
 20
23.89804600216055
 30
0.0
 40
2.299999999999999
  1
符号 
 41
0.8
100
AcDbText
  0
TEXT
  5
386
330
335
100
AcDbEntity
  8
RAHM3
100
AcDbText
 10
-79.00900277736832
 20
16.89804600215146
 30
0.0
 40
2.299999999999999
  1
件名
 41
0.8
100
AcDbText
  0
TEXT
  5
387
330
335
100
AcDbEntity
  8
RAHM3
100
AcDbText
 10
-79.00900277736832
 20
8.898046002160548
 30
0.0
 40
2.299999999999999
  1
図番 ＤＲＡＷＩＮＧ ＮＯ．
 41
0.8
100
AcDbText
  0
CIRCLE
  5
388
330
335
100
AcDbEntity
  8
RAHM2
100
AcDbCircle
 10
-5.0
 20
5.0
 30
0.0
 40
4.5
  0
LINE
  5
389
330
335
100
AcDbEntity
  8
RAHM2
100
AcDbLine
 10
-130.0000000000018
 20
40.00000000000916
 30
0.0
 11
-130.0000000000018
 21
12.0
 31
0.0
  0
LINE
  5
38A
330
335
100
AcDbEntity
  8
RAHM2
100
AcDbLine
 10
-130.0000000000018
 20
26.00000000000458
 30
0.0
 11
-80.0
 21
25.99999999999818
 31
0.0
  0
LINE
  5
38B
330
335
100
AcDbEntity
  8
RAHM2
100
AcDbLine
 10
-105.0000000000018
 20
40.00000000000916
 30
0.0
 11
-105.0000000000018
 21
12.0
 31
0.0
  0
TEXT
  5
38C
330
335
100
AcDbEntity
  8
RAHM3
100
AcDbText
 10
-129.0090027773683
 20
36.89804600215881
 30
0.0
 40
2.299999999999999
  1
承認 ＡＰＰＤ
 41
0.8
100
AcDbText
  0
TEXT
  5
38D
330
335
100
AcDbEntity
  8
RAHM3
100
AcDbText
 10
-104.0090027773683
 20
36.8980460021551
 30
0.0
 40
2.299999999999999
  1
検図 ＣＨＫ
 41
0.8
100
AcDbText
  0
TEXT
  5
38E
330
335
100
AcDbEntity
  8
RAHM3
100
AcDbText
 10
-129.0090027773683
 20
22.89804600215422
 30
0.0
 40
2.299999999999999
  1
設計 ＥＮＧＲ
 41
0.8
100
AcDbText
  0
TEXT
  5
38F
330
335
100
AcDbEntity
  8
RAHM3
100
AcDbText
 10
-104.0090027773683
 20
22.89804600214964
 30
0.0
 40
2.299999999999999
  1
製図 ＤＲ ＤＡＴＥ
 41
0.8
100
AcDbText
  0
LINE
  5
390
330
335
100
AcDbEntity
  8
RAHM2
100
AcDbLine
 10
-155.0
 20
30.60000000000036
 30
0.0
 11
-130.0000000000018
 21
30.60000000000036
 31
0.0
  0
LINE
  5
391
330
335
100
AcDbEntity
  8
RAHM2
100
AcDbLine
 10
-155.0
 20
21.29999999999927
 30
0.0
 11
-130.0000000000018
 21
21.30000000000109
 31
0.0
  0
TEXT
  5
392
330
335
100
AcDbEntity
  8
RAHM3
100
AcDbText
 10
-121.7843516157921
 20
6.885079184961092
 30
0.0
 40
4.0
  1
伊藤鉄工株式会社
100
AcDbText
  0
TEXT
  5
393
330
335
100
AcDbEntity
  8
RAHM3
100
AcDbText
 10
-120.6675998914835
 20
3.578884653066273
 30
0.0
 40
2.0
  1
ITO TEKKO  CO.,LTD.
100
AcDbText
1001
GENIUS_GENTRA_14
1002
{
1070
     1
1000
/
1000
ITO TEKKO  CO.,LTD.
1000
JPN
1070
     0
1040
1.0
1070
     0
1002
}
  0
TEXT
  5
394
330
335
100
AcDbEntity
  8
RAHM3
100
AcDbText
 10
-120.6675998914835
 20
0.9279960228792472
 30
0.0
 40
2.0
  1
KAWAGUCHI  JAPAN
100
AcDbText
  0
TEXT
  5
395
330
335
100
AcDbEntity
  8
RAHM3
100
AcDbText
 10
-11.85206060358336
 20
9.69362381988742
 30
0.0
 40
1.8
  1
ＲＥＶ．ＭＡＲＫ
 41
0.6800000000000001
100
AcDbText
  0
TEXT
  5
396
330
335
100
AcDbEntity
  8
RAHM3
100
AcDbText
 10
-11.57052530051805
 20
7.425435269030799
 30
0.0
 40
1.8
  1
変
100
AcDbText
  0
TEXT
  5
397
330
335
100
AcDbEntity
  8
RAHM3
100
AcDbText
 10
-11.59004395148213
 20
4.996441785248862
 30
0.0
 40
1.8
  1
更
100
AcDbText
  0
TEXT
  5
398
330
335
100
AcDbEntity
  8
RAHM3
100
AcDbText
 10
-11.62938531906752
 20
2.617267270587205
 30
0.0
 40
1.8
  1
回
100
AcDbText
  0
TEXT
  5
399
330
335
100
AcDbEntity
  8
RAHM3
100
AcDbText
 10
-11.56556962136267
 20
0.3551115072955326
 30
0.0
 40
1.8
  1
数
100
AcDbText
  0
TEXT
  5
39A
330
335
100
AcDbEntity
  8
RAHM3
100
AcDbText
 10
-154.0090027773665
 20
36.89804600217056
 30
0.0
 40
2.299999999999999
  1
尺度 ＳＣＡＬＥ
 41
0.8
100
AcDbText
  0
TEXT
  5
39B
330
335
100
AcDbEntity
  8
RAHM3
100
AcDbText
 10
-154.0090027773665
 20
27.49804600215
 30
0.0
 40
2.299999999999999
  1
図面枚数 ＮＯ．  
 41
0.8
100
AcDbText
  0
LINE
  5
39C
330
335
100
AcDbEntity
  8
7A
100
AcDbLine
 10
-151.7551228444401
 20
16.64999999999988
 30
0.0
 11
-149.2551228444401
 21
16.64999999999988
 31
0.0
1001
GENIUS_GENOREF_13
1005
3A0
  0
LINE
  5
39D
330
335
100
AcDbEntity
  8
7A
100
AcDbLine
 10
-151.7551228444401
 20
16.64999999999988
 30
0.0
 11
-151.7551228444401
 21
19.14999999999988
 31
0.0
1001
GENIUS_GENOREF_13
1005
3A0
  0
LINE
  5
39E
330
335
100
AcDbEntity
  8
7A
100
AcDbLine
 10
-151.7551228444401
 20
16.64999999999988
 30
0.0
 11
-154.2551228444401
 21
16.64999999999988
 31
0.0
1001
GENIUS_GENOREF_13
1005
3A0
  0
LINE
  5
39F
330
335
100
AcDbEntity
  8
7A
100
AcDbLine
 10
-151.7551228444401
 20
16.64999999999988
 30
0.0
 11
-151.7551228444401
 21
14.14999999999988
 31
0.0
1001
GENIUS_GENOREF_13
1005
3A0
  0
POINT
  5
3A0
330
335
100
AcDbEntity
  8
0
 60
     1
100
AcDbPoint
 10
0.0
 20
0.0
 30
0.0
1001
GENIUS_GENODEF_13
1002
{
1000
HIER
1070
    10
1002
}
1002
{
1000
MANEDIT
1070
     0
1002
}
1002
{
1000
NOSEL
1070
     0
1002
}
1002
{
1000
BEHIND
1070
     0
1002
}
1002
{
1000
REACTOR
1002
}
1001
GENIUS_GENOBJ-N-CRS_13
1002
{
1000
OWNER
1000
GEN
1002
}
1001
GENIUS_GENOENT_13
1002
{
1000
MYREF
1005
3A0
1002
}
1002
{
1000
GRP
1005
0
1002
}
1001
GENIUS_GENOLIS_13
1002
{
1000
ENT
1005
39F
1005
39E
1005
39D
1005
39C
1002
}
  0
CIRCLE
  5
3A1
330
335
100
AcDbEntity
  8
RAHM3
100
AcDbCircle
 10
-151.7551228444401
 20
16.64999999999988
 30
0.0
 40
2.0
  0
CIRCLE
  5
3A2
330
335
100
AcDbEntity
  8
RAHM3
100
AcDbCircle
 10
-151.7551228444401
 20
16.64999999999952
 30
0.0
 40
1.0
  0
LINE
  5
3A3
330
335
100
AcDbEntity
  8
RAHM3
100
AcDbLine
 10
-147.7659442035316
 20
17.64999999999929
 30
0.0
 11
-147.7659442035316
 21
15.64999999999929
 31
0.0
  0
LINE
  5
3A4
330
335
100
AcDbEntity
  8
RAHM3
100
AcDbLine
 10
-147.7659442035316
 20
15.64999999999929
 30
0.0
 11
-143.7659442035316
 21
14.64999999999928
 31
0.0
  0
LINE
  5
3A5
330
335
100
AcDbEntity
  8
RAHM3
100
AcDbLine
 10
-143.7659442035316
 20
14.64999999999928
 30
0.0
 11
-143.7659442035316
 21
18.64999999999929
 31
0.0
  0
LINE
  5
3A6
330
335
100
AcDbEntity
  8
RAHM3
100
AcDbLine
 10
-143.7659442035316
 20
18.64999999999929
 30
0.0
 11
-147.7659442035316
 21
17.64999999999929
 31
0.0
  0
LINE
  5
3A7
330
335
100
AcDbEntity
  8
7A
100
AcDbLine
 10
-148.6350563849704
 20
16.64999999999929
 30
0.0
 11
-142.8462596443259
 21
16.64999999999929
 31
0.0
1001
GENIUS_GENODEF_13
1002
{
1000
HIER
1070
     0
1002
}
1002
{
1000
MANEDIT
1070
     0
1002
}
1002
{
1000
NOSEL
1070
     0
1002
}
1002
{
1000
BEHIND
1070
     0
1002
}
1002
{
1000
REACTOR
1002
}
1001
GENIUS_GENOBJ-N-CEN_13
1002
{
1000
OWNER
1000
GEN
1002
}
  0
TEXT
  5
3A8
330
335
100
AcDbEntity
  8
RAHM3
100
AcDbText
 10
-141.8454810851357
 20
18.28209750892168
 30
0.0
 40
2.1
  1
単位 ＵＮＩＴ
 41
0.7
100
AcDbText
  0
LINE
  5
3A9
330
335
100
AcDbEntity
  8
RAHM2
100
AcDbLine
 10
-142.5000000000009
 20
21.29999999999927
 30
0.0
 11
-142.5000000000009
 21
12.0
 31
0.0
  0
TEXT
  5
3AA
330
335
100
AcDbEntity
  8
RAHM3
100
AcDbText
 10
-139.6782849929894
 20
13.82826889824218
 30
0.0
 40
4.0
  1
ｍｍ
 41
0.8
100
AcDbText
  0
POLYLINE
  5
3AB
330
335
100
AcDbEntity
  8
RAHM2
100
AcDb2dPolyline
 66
     1
 10
0.0
 20
0.0
 30
0.0
 70
     1
  0
VERTEX
  5
3AC
330
3AB
100
AcDbEntity
  8
RAHM2
100
AcDbVertex
100
AcDb2dVertex
 10
-155.0
 20
-0.000000000001819
 30
0.0
  0
VERTEX
  5
3AD
330
3AB
100
AcDbEntity
  8
RAHM2
100
AcDbVertex
100
AcDb2dVertex
 10
-155.0
 20
40.00000000002091
 30
0.0
  0
VERTEX
  5
3AE
330
3AB
100
AcDbEntity
  8
RAHM2
100
AcDbVertex
100
AcDb2dVertex
 10
0.0
 20
39.99999999999273
 30
0.0
  0
VERTEX
  5
3AF
330
3AB
100
AcDbEntity
  8
RAHM2
100
AcDbVertex
100
AcDb2dVertex
 10
0.0
 20
0.0
 30
0.0
  0
SEQEND
  5
3B0
330
3AB
100
AcDbEntity
  8
RAHM2
  0
ATTDEF
  5
3B1
330
335
100
AcDbEntity
  8
RAHM3
100
AcDbText
 10
-147.2595867131855
 20
31.94728899818607
 30
0.0
 40
4.0
  1

100
AcDbAttributeDefinition
  3
尺度
  2
GEN-TITLE-SCA
 70
     0
  0
ATTDEF
  5
3B2
330
335
100
AcDbEntity
  8
RAHM3
100
AcDbText
 10
-73.09000000000001
 20
29.74
 30
0.0
 40
5.0
  1

100
AcDbAttributeDefinition
  3
名称
  2
ＴＩＴＬＥ
 70
     0
  0
ATTDEF
  5
3B3
330
335
100
AcDbEntity
  8
RAHM3
100
AcDbText
 10
-71.56287815584043
 20
21.80438312711384
 30
0.0
 40
3.0
  1

100
AcDbAttributeDefinition
  3
符号
  2
ｃｏｄｅ
 70
     0
  0
ATTDEF
  5
3B4
330
335
100
AcDbEntity
  8
RAHM3
100
AcDbText
 10
-70.74480649396313
 20
14.80438312710657
 30
0.0
 40
3.0
  1

100
AcDbAttributeDefinition
  3
件名
  2
件名
 70
     0
  0
ATTDEF
  5
3B5
330
335
100
AcDbEntity
  8
RAHM3
100
AcDbText
 10
-73.09000000000001
 20
1.739999999992722
 30
0.0
 40
5.0
  1

100
AcDbAttributeDefinition
  3
図面番号
  2
Ｎｏ．
 70
     0
  0
ATTDEF
  5
3B6
330
335
100
AcDbEntity
  8
RAHM3
100
AcDbText
 10
-100.45
 20
17.40708932112655
 30
0.0
 40
4.0
  1

100
AcDbAttributeDefinition
  3
製図者
  2
ＤＲ
 70
     0
  0
ATTDEF
  5
3B7
330
335
100
AcDbEntity
  8
RAHM3
100
AcDbText
 10
-103.7180853038729
 20
12.76999999999999
 30
0.0
 40
3.0
  1

 41
0.8
100
AcDbAttributeDefinition
  3
日付
  2
ｄａｔｅ
 70
     0
  0
ENDBLK
  5
3B9
330
335
100
AcDbEntity
  8
0
100
AcDbBlockEnd
  0
BLOCK
  5
411
330
3FC
100
AcDbEntity
  8
0
100
AcDbBlockBegin
  2
IGS_A1
 70
     0
 10
0.0
 20
0.0
 30
0.0
  3
IGS_A1
  1

  0
LINE
  5
3FD
330
3FC
100
AcDbEntity
  8
AM_BOR
100
AcDbLine
 10
0.0
 20
0.0
 30
0.0
 11
0.0
 21
15.0
 31
0.0
  0
LINE
  5
3FE
330
3FC
100
AcDbEntity
  8
AM_BOR
100
AcDbLine
 10
0.0
 20
594.0
 30
0.0
 11
15.0
 21
594.0
 31
0.0
  0
LINE
  5
3FF
330
3FC
100
AcDbEntity
  8
AM_BOR
100
AcDbLine
 10
841.0
 20
594.0
 30
0.0
 11
841.0
 21
579.0
 31
0.0
  0
LINE
  5
400
330
3FC
100
AcDbEntity
  8
AM_BOR
100
AcDbLine
 10
841.0
 20
0.0
 30
0.0
 11
826.0
 21
0.0
 31
0.0
  0
LINE
  5
401
330
3FC
100
AcDbEntity
  8
0
100
AcDbLine
 10
25.0
 20
20.0
 30
0.0
 11
25.0
 21
574.0
 31
0.0
  0
LINE
  5
402
330
3FC
100
AcDbEntity
  8
0
100
AcDbLine
 10
821.0
 20
20.0
 30
0.0
 11
25.0
 21
20.0
 31
0.0
  0
LINE
  5
403
330
3FC
100
AcDbEntity
  8
0
100
AcDbLine
 10
821.0
 20
574.0
 30
0.0
 11
821.0
 21
20.0
 31
0.0
  0
LINE
  5
404
330
3FC
100
AcDbEntity
  8
0
100
AcDbLine
 10
25.0
 20
574.0
 30
0.0
 11
821.0
 21
574.0
 31
0.0
  0
LINE
  5
405
330
3FC
100
AcDbEntity
  8
AM_BOR
100
AcDbLine
 10
15.0
 20
0.0
 30
0.0
 11
0.0
 21
0.0
 31
0.0
  0
LINE
  5
406
330
3FC
100
AcDbEntity
  8
AM_BOR
100
AcDbLine
 10
841.0
 20
15.0
 30
0.0
 11
841.0
 21
0.0
 31
0.0
  0
LINE
  5
407
330
3FC
100
AcDbEntity
  8
AM_BOR
100
AcDbLine
 10
826.0
 20
594.0
 30
0.0
 11
841.0
 21
594.0
 31
0.0
  0
LINE
  5
408
330
3FC
100
AcDbEntity
  8
AM_BOR
100
AcDbLine
 10
0.0
 20
579.0
 30
0.0
 11
0.0
 21
594.0
 31
0.0
  0
TEXT
  5
409
330
3FC
100
AcDbEntity
  8
0
 60
     1
100
AcDbText
 10
25.0
 20
20.0
 30
0.0
 40
12.0
  1
!GENTITLE-LL
  7
ACJISTS
100
AcDbText
  0
TEXT
  5
40A
330
3FC
100
AcDbEntity
  8
0
 60
     1
100
AcDbText
 10
841.0
 20
594.0
 30
0.0
 40
12.0
  1
!GENTITLE-MAX
  7
ACJISTS
100
AcDbText
  0
TEXT
  5
40B
330
3FC
100
AcDbEntity
  8
0
 60
     1
100
AcDbText
 10
821.0
 20
574.0
 30
0.0
 40
12.0
  1
!GENTITLE-RU
  7
ACJISTS
100
AcDbText
  0
TEXT
  5
40C
330
3FC
100
AcDbEntity
  8
0
 60
     1
100
AcDbText
 10
821.0
 20
20.0
 30
0.0
 40
12.0
  1
!GENTITLE-INSERT
  7
ACJISTS
100
AcDbText
  0
LINE
  5
40D
330
3FC
100
AcDbEntity
  8
AM_BOR
 62
     1
370
    25
100
AcDbLine
 10
0.0
 20
594.0
 30
0.0
 11
841.0
 21
594.0
 31
0.0
  0
LINE
  5
40E
330
3FC
100
AcDbEntity
  8
AM_BOR
 62
     1
370
    25
100
AcDbLine
 10
841.0
 20
594.0
 30
0.0
 11
841.0
 21
0.0
 31
0.0
  0
LINE
  5
40F
330
3FC
100
AcDbEntity
  8
AM_BOR
 62
     1
370
    25
100
AcDbLine
 10
841.0
 20
0.0
 30
0.0
 11
0.0
 21
0.0
 31
0.0
  0
LINE
  5
410
330
3FC
100
AcDbEntity
  8
AM_BOR
 62
     1
370
    25
100
AcDbLine
 10
0.0
 20
0.0
 30
0.0
 11
0.0
 21
594.0
 31
0.0
  0
ENDBLK
  5
412
330
3FC
100
AcDbEntity
  8
0
100
AcDbBlockEnd
  0
BLOCK
  5
51E
330
50A
100
AcDbEntity
  8
0
100
AcDbBlockBegin
  2
jis_bl_revisionlist1
 70
     2
 10
0.0
 20
0.0
 30
0.0
  3
jis_bl_revisionlist1
  1

  0
LINE
  5
680
330
50A
100
AcDbEntity
  8
0
100
AcDbLine
 10
0.0
 20
-4.999999963957748
 30
0.0
 11
182.8800000000001
 21
-4.999999963957748
 31
0.0
  0
LINE
  5
681
330
50A
100
AcDbEntity
  8
AM_BOR
 62
     1
370
    25
100
AcDbLine
 10
28.88000000000011
 20
-9.999999963957748
 30
0.0
 11
159.8800000000001
 21
-9.999999963957748
 31
0.0
  0
LINE
  5
682
330
50A
100
AcDbEntity
  8
0
100
AcDbLine
 10
0.0000000675292995
 20
-9.999999963957804
 30
0.0
 11
182.8800000675292
 21
-9.999999963957804
 31
0.0
  0
LINE
  5
683
330
50A
100
AcDbEntity
  8
0
100
AcDbLine
 10
8.880000000000109
 20
-9.999999963957804
 30
0.0
 11
8.880000000000109
 21
-4.999999963957748
 31
0.0
  0
LINE
  5
684
330
50A
100
AcDbEntity
  8
0
100
AcDbLine
 10
0.0
 20
-9.999999963957748
 30
0.0
 11
0.0
 21
-10.0
 31
0.0
  0
LINE
  5
685
330
50A
100
AcDbEntity
  8
AM_BOR
 62
     1
370
    25
100
AcDbLine
 10
8.880000000000109
 20
-10.0
 30
0.0
 11
8.880000000000109
 21
-4.999999963957748
 31
0.0
  0
LINE
  5
686
330
50A
100
AcDbEntity
  8
AM_BOR
 62
     1
370
    25
100
AcDbLine
 10
28.88000000000011
 20
-10.0
 30
0.0
 11
28.88000000000011
 21
-9.999999963957748
 31
0.0
  0
LINE
  5
687
330
50A
100
AcDbEntity
  8
0
100
AcDbLine
 10
0.0
 20
-4.999999963957748
 30
0.0
 11
0.0
 21
-9.999999963957748
 31
0.0
  0
LINE
  5
688
330
50A
100
AcDbEntity
  8
AM_BOR
 62
     1
370
    25
100
AcDbLine
 10
28.88000000000011
 20
-9.999999963957748
 30
0.0
 11
28.88000000000011
 21
-4.999999963957748
 31
0.0
  0
LINE
  5
689
330
50A
100
AcDbEntity
  8
AM_BOR
 62
     1
370
    25
100
AcDbLine
 10
159.8800000000001
 20
-10.0
 30
0.0
 11
159.8800000000001
 21
-9.999999963957748
 31
0.0
  0
LINE
  5
68A
330
50A
100
AcDbEntity
  8
0
100
AcDbLine
 10
182.8800000000001
 20
-10.0
 30
0.0
 11
182.8800000000001
 21
-9.999999963957748
 31
0.0
  0
LINE
  5
68B
330
50A
100
AcDbEntity
  8
AM_BOR
 62
     1
370
    25
100
AcDbLine
 10
159.8800000000001
 20
-9.999999963957748
 30
0.0
 11
159.8800000000001
 21
-4.999999963957748
 31
0.0
  0
LINE
  5
68C
330
50A
100
AcDbEntity
  8
0
100
AcDbLine
 10
182.8800000000001
 20
-9.999999963957748
 30
0.0
 11
182.8800000000001
 21
-4.999999963957748
 31
0.0
  0
ATTDEF
  5
68D
330
50A
100
AcDbEntity
  8
AM_BOR
 62
     1
370
    25
100
AcDbText
 10
9.880000000000109
 20
-8.999999999999658
 30
0.0
 40
3.0
  1

  7
ACJISTS
100
AcDbAttributeDefinition
  3
図面名
  2
GEN-REV-BLK{6}
 70
     0
1001
GENIUS_GENTRA_14
1002
{
1070
     3
1000
GENTRAPR,%s,(GENMSG gendwg 93)
1000
図面名
1000
JPN
1070
     0
1070
     0
1002
}
  0
ATTDEF
  5
68E
330
50A
100
AcDbEntity
  8
AM_BOR
 62
     1
370
    25
100
AcDbText
 10
29.88000000000011
 20
-9.000000000001477
 30
0.0
 40
3.0
  1

  7
ACJISTS
100
AcDbAttributeDefinition
  3
履歴 2 行目
  2
GEN-REV-TEXT2{43}
 70
     0
1001
GENIUS_GENTRA_14
1002
{
1070
     3
1000
GENTRAPR,%s,(GENMSG gendwg 92)
1000
履歴 2 行目
1000
JPN
1070
     0
1070
     0
1002
}
  0
ATTDEF
  5
68F
330
50A
100
AcDbEntity
  8
AM_BOR
 62
     1
370
    25
100
AcDbText
 10
0.9326324110411405
 20
-8.999999963957748
 30
0.0
 40
3.0
  1

  7
ACJISTS
100
AcDbAttributeDefinition
  3
番号
  2
GEN-REV-NR{2}
 70
     0
1001
GENIUS_GENTRA_14
1002
{
1070
     3
1000
GENTRAPR,%s,(GENMSG gendwg 98)
1000
番号
1000
JPN
1070
     0
1070
     0
1002
}
  0
ATTDEF
  5
690
330
50A
100
AcDbEntity
  8
AM_BOR
 62
     1
370
    25
100
AcDbText
 10
9.880000000000109
 20
-8.999999963957407
 30
0.0
 40
3.0
  1

  7
ACJISTS
100
AcDbAttributeDefinition
  3
日付
  2
GEN-REV-DAT{6}
 70
     0
1001
GENIUS_GENTRA_14
1002
{
1070
     3
1000
GENTRAPR,%s,(GENMSG gendwg 95)
1000
日付
1000
JPN
1070
     0
1070
     0
1002
}
  0
ATTDEF
  5
691
330
50A
100
AcDbEntity
  8
AM_BOR
 62
     1
370
    25
100
AcDbText
 10
160.8800000000001
 20
-8.713127708901765
 30
0.0
 40
3.0
  1

  7
ACJISTS
100
AcDbAttributeDefinition
  3
名前
  2
GEN-REV-NAME{7}
 70
     0
1001
GENIUS_GENTRA_14
1002
{
1070
     3
1000
GENTRAPR,%s,(GENMSG gendwg 97)
1000
名前
1000
JPN
1070
     0
1070
     0
1002
}
  0
ENDBLK
  5
51F
330
50A
100
AcDbEntity
  8
0
100
AcDbBlockEnd
  0
BLOCK
  5
52C
330
520
100
AcDbEntity
  8
0
100
AcDbBlockBegin
  2
jis_bl_revisionlist0
 70
     0
 10
0.0
 20
0.0
 30
0.0
  3
jis_bl_revisionlist0
  1

  0
LINE
  5
521
330
520
100
AcDbEntity
  8
0
100
AcDbLine
 10
182.88
 20
-5.347300637836838
 30
0.0
 11
0.0
 21
-5.347300637836809
 31
0.0
  0
LINE
  5
522
330
520
100
AcDbEntity
  8
0
100
AcDbLine
 10
0.0
 20
0.0
 30
0.0
 11
182.88
 21
0.0
 31
0.0
  0
TEXT
  5
523
330
520
100
AcDbEntity
  8
AM_BOR
 62
     1
370
    25
100
AcDbText
 10
9.879999999999995
 20
-4.105772405495713
 30
0.0
 40
3.0
  1
日付
  7
ACJISTS
100
AcDbText
1001
GENIUS_GENTRA_14
1002
{
1070
     1
1000
GENTRATX{6},%s,(GENMSG gendwg 95)
1000
日付
1000
JPN
1070
     0
1040
1.0
1070
     0
1002
}
  0
TEXT
  5
524
330
520
100
AcDbEntity
  8
AM_BOR
 62
     1
370
    25
100
AcDbText
 10
1.0
 20
-4.105772405495713
 30
0.0
 40
3.0
  1
番号
 41
0.9374999999999998
  7
ACJISTS
100
AcDbText
1001
GENIUS_GENTRA_14
1002
{
1070
     1
1000
GENTRATX{2},%s,(GENMSG gendwg 98)
1000
番号
1000
JPN
1070
     0
1040
1.0
1070
     0
1002
}
  0
TEXT
  5
525
330
520
100
AcDbEntity
  8
AM_BOR
 62
     1
370
    25
100
AcDbText
 10
29.87999999999999
 20
-4.10577240549685
 30
0.0
 40
3.0
  1
履歴
  7
ACJISTS
100
AcDbText
1001
GENIUS_GENTRA_14
1002
{
1070
     1
1000
GENTRATX{43},%s,(GENMSG gendwg 96)
1000
履歴
1000
JPN
1070
     0
1040
1.0
1070
     0
1002
}
  0
LINE
  5
526
330
520
100
AcDbEntity
  8
0
100
AcDbLine
 10
0.0
 20
-5.347300637836809
 30
0.0
 11
0.0
 21
0.0
 31
0.0
  0
LINE
  5
527
330
520
100
AcDbEntity
  8
AM_BOR
 62
     1
370
    25
100
AcDbLine
 10
8.879999999999995
 20
-5.347300637836809
 30
0.0
 11
8.879999999999995
 21
0.0
 31
0.0
  0
LINE
  5
528
330
520
100
AcDbEntity
  8
AM_BOR
 62
     1
370
    25
100
AcDbLine
 10
28.88
 20
0.0
 30
0.0
 11
28.88
 21
-5.347300637836809
 31
0.0
  0
TEXT
  5
529
330
520
100
AcDbEntity
  8
AM_BOR
 62
     1
370
    25
100
AcDbText
 10
160.8542175266192
 20
-4.105772405495201
 30
0.0
 40
3.0
  1
名前
  7
ACJISTS
100
AcDbText
1001
GENIUS_GENTRA_14
1002
{
1070
     1
1000
GENTRATX{7},%s,(GENMSG gendwg 97)
1000
名前
1000
JPN
1070
     0
1040
1.0
1070
     0
1002
}
  0
LINE
  5
52A
330
520
100
AcDbEntity
  8
AM_BOR
 62
     1
370
    25
100
AcDbLine
 10
159.88
 20
0.0
 30
0.0
 11
159.88
 21
-5.347300637836838
 31
0.0
  0
LINE
  5
52B
330
520
100
AcDbEntity
  8
0
100
AcDbLine
 10
182.88
 20
0.0
 30
0.0
 11
182.88
 21
-5.347300637836838
 31
0.0
  0
ENDBLK
  5
52D
330
520
100
AcDbEntity
  8
0
100
AcDbBlockEnd
  0
BLOCK
  5
538
330
52E
100
AcDbEntity
  8
0
100
AcDbBlockBegin
  2
jis_bl_revisionlist
 70
     0
 10
0.0
 20
0.0
 30
0.0
  3
jis_bl_revisionlist
  1

  0
INSERT
  5
52F
330
52E
100
AcDbEntity
  8
0
100
AcDbBlockReference
 66
     1
  2
jis_bl_revisionlist1
 10
0.0
 20
15.34730060179461
 30
0.0
  0
ATTRIB
  5
530
330
52F
100
AcDbEntity
  8
AM_BOR
 62
     1
370
    25
100
AcDbText
 10
9.879999999999995
 20
6.347300601794955
 30
0.0
 40
3.0
  1

  7
ACJISTS
100
AcDbAttribute
  2
GEN-REV-BLK{6}
 70
     0
1001
GENIUS_GENBLLY_14
1000
BOR2
  0
ATTRIB
  5
531
330
52F
100
AcDbEntity
  8
AM_BOR
 62
     1
370
    25
100
AcDbText
 10
29.87999999999999
 20
6.347300601793136
 30
0.0
 40
3.0
  1

  7
ACJISTS
100
AcDbAttribute
  2
GEN-REV-TEXT2{43}
 70
     0
1001
GENIUS_GENBLLY_14
1000
BOR2
  0
ATTRIB
  5
532
330
52F
100
AcDbEntity
  8
AM_BOR
 62
     1
370
    25
100
AcDbText
 10
0.9326324110412542
 20
11.34730060179461
 30
0.0
 40
3.0
  1

  7
ACJISTS
100
AcDbAttribute
  2
GEN-REV-NR{2}
 70
     0
1001
GENIUS_GENBLLY_14
1000
BOR2
  0
ATTRIB
  5
533
330
52F
100
AcDbEntity
  8
AM_BOR
 62
     1
370
    25
100
AcDbText
 10
9.879999999999995
 20
11.34730060179495
 30
0.0
 40
3.0
  1

  7
ACJISTS
100
AcDbAttribute
  2
GEN-REV-DAT{6}
 70
     0
1001
GENIUS_GENBLLY_14
1000
BOR2
  0
ATTRIB
  5
534
330
52F
100
AcDbEntity
  8
AM_BOR
 62
     1
370
    25
100
AcDbText
 10
29.87999999999999
 20
11.34730060179313
 30
0.0
 40
3.0
  1

  7
ACJISTS
100
AcDbAttribute
  2
GEN-REV-TEXT1{43}
 70
     0
1001
GENIUS_GENBLLY_14
1000
BOR2
  0
ATTRIB
  5
535
330
52F
100
AcDbEntity
  8
AM_BOR
 62
     1
370
    25
100
AcDbText
 10
160.88
 20
11.63417285685059
 30
0.0
 40
3.0
  1

  7
ACJISTS
100
AcDbAttribute
  2
GEN-REV-NAME{7}
 70
     0
1001
GENIUS_GENBLLY_14
1000
BOR2
  0
SEQEND
  5
536
330
52F
100
AcDbEntity
  8
0
  0
INSERT
  5
537
330
52E
100
AcDbEntity
  8
0
100
AcDbBlockReference
  2
jis_bl_revisionlist0
 10
0.0
 20
5.347300637836809
 30
0.0
  0
ENDBLK
  5
539
330
52E
100
AcDbEntity
  8
0
100
AcDbBlockEnd
  0
BLOCK
  5
5E2
330
5D6
100
AcDbEntity
  8
0
100
AcDbBlockBegin
  2
jis_br_revisionlist0
 70
     0
 10
0.0
 20
0.0
 30
0.0
  3
jis_br_revisionlist0
  1

  0
TEXT
  5
5D7
330
5D6
100
AcDbEntity
  8
AM_BOR
 62
     1
370
    25
100
AcDbText
 10
-22.02578247338079
 20
-4.105772405495201
 30
0.0
 40
3.0
  1
名前
  7
ACJISTS
100
AcDbText
1001
GENIUS_GENBLLY_14
1000
BOR2
1001
GENIUS_GENTRA_14
1002
{
1070
     1
1000
GENTRATX{7},%s,(GENMSG gendwg 97)
1000
名前
1000
JPN
1070
     0
1040
1.0
1070
     0
1002
}
  0
TEXT
  5
5D8
330
5D6
100
AcDbEntity
  8
AM_BOR
 62
     1
370
    25
100
AcDbText
 10
-153.0
 20
-4.10577240549685
 30
0.0
 40
3.0
  1
履歴
  7
ACJISTS
100
AcDbText
1001
GENIUS_GENBLLY_14
1000
BOR2
1001
GENIUS_GENTRA_14
1002
{
1070
     1
1000
GENTRATX{43},%s,(GENMSG gendwg 96)
1000
履歴
1000
JPN
1070
     0
1040
1.0
1070
     0
1002
}
  0
LINE
  5
5D9
330
5D6
100
AcDbEntity
  8
0
100
AcDbLine
 10
0.0
 20
-5.347300637836838
 30
0.0
 11
-182.88
 21
-5.347300637836809
 31
0.0
  0
LINE
  5
5DA
330
5D6
100
AcDbEntity
  8
0
100
AcDbLine
 10
-182.88
 20
0.0
 30
0.0
 11
0.0
 21
0.0
 31
0.0
  0
TEXT
  5
5DB
330
5D6
100
AcDbEntity
  8
AM_BOR
 62
     1
370
    25
100
AcDbText
 10
-173.0
 20
-4.105772405495713
 30
0.0
 40
3.0
  1
日付
  7
ACJISTS
100
AcDbText
1001
GENIUS_GENBLLY_14
1000
BOR2
1001
GENIUS_GENTRA_14
1002
{
1070
     1
1000
GENTRATX{6},%s,(GENMSG gendwg 95)
1000
日付
1000
JPN
1070
     0
1040
1.0
1070
     0
1002
}
  0
TEXT
  5
5DC
330
5D6
100
AcDbEntity
  8
AM_BOR
 62
     1
370
    25
100
AcDbText
 10
-181.88
 20
-4.105772405495713
 30
0.0
 40
3.0
  1
番号
 41
0.9374999999999998
  7
ACJISTS
100
AcDbText
1001
GENIUS_GENBLLY_14
1000
BOR2
1001
GENIUS_GENTRA_14
1002
{
1070
     1
1000
GENTRATX{2},%s,(GENMSG gendwg 98)
1000
番号
1000
JPN
1070
     0
1040
1.0
1070
     0
1002
}
  0
LINE
  5
5DD
330
5D6
100
AcDbEntity
  8
0
100
AcDbLine
 10
-182.88
 20
-5.347300637836809
 30
0.0
 11
-182.88
 21
0.0
 31
0.0
  0
LINE
  5
5DE
330
5D6
100
AcDbEntity
  8
AM_BOR
 62
     1
370
    25
100
AcDbLine
 10
-174.0
 20
-5.347300637836809
 30
0.0
 11
-174.0
 21
0.0
 31
0.0
1001
GENIUS_GENBLLY_14
1000
BOR2
  0
LINE
  5
5DF
330
5D6
100
AcDbEntity
  8
AM_BOR
 62
     1
370
    25
100
AcDbLine
 10
-154.0
 20
0.0
 30
0.0
 11
-154.0
 21
-5.347300637836809
 31
0.0
1001
GENIUS_GENBLLY_14
1000
BOR2
  0
LINE
  5
5E0
330
5D6
100
AcDbEntity
  8
AM_BOR
 62
     1
370
    25
100
AcDbLine
 10
-23.0
 20
0.0
 30
0.0
 11
-23.0
 21
-5.347300637836838
 31
0.0
1001
GENIUS_GENBLLY_14
1000
BOR2
  0
LINE
  5
5E1
330
5D6
100
AcDbEntity
  8
0
100
AcDbLine
 10
0.0
 20
0.0
 30
0.0
 11
0.0
 21
-5.347300637836838
 31
0.0
  0
ENDBLK
  5
5E3
330
5D6
100
AcDbEntity
  8
0
100
AcDbBlockEnd
  0
BLOCK
  5
5F8
330
5E4
100
AcDbEntity
  8
0
100
AcDbBlockBegin
  2
jis_br_revisionlist1
 70
     2
 10
0.0
 20
0.0
 30
0.0
  3
jis_br_revisionlist1
  1

  0
LINE
  5
5E5
330
5E4
100
AcDbEntity
  8
0
100
AcDbLine
 10
0.0
 20
-5.0
 30
0.0
 11
0.0
 21
0.0
 31
0.0
  0
LINE
  5
5E6
330
5E4
100
AcDbEntity
  8
AM_BOR
 62
     1
370
    25
100
AcDbLine
 10
-23.0
 20
-5.0
 30
0.0
 11
-23.0
 21
0.0
 31
0.0
1001
GENIUS_GENBLLY_14
1000
BOR2
  0
ATTDEF
  5
5E7
330
5E4
100
AcDbEntity
  8
AM_BOR
 62
     1
370
    25
100
AcDbText
 10
-22.0
 20
-3.713127744944017
 30
0.0
 40
3.0
  1

  7
ACJISTS
100
AcDbAttributeDefinition
  3
名前
  2
GEN-REV-NAME{7}
 70
     0
1001
GENIUS_GENBLLY_14
1000
BOR2
1001
GENIUS_GENTRA_14
1002
{
1070
     3
1000
GENTRAPR,%s,(GENMSG gendwg 97)
1000
名前
1000
JPN
1070
     0
1070
     0
1002
}
  0
LINE
  5
5E8
330
5E4
100
AcDbEntity
  8
0
100
AcDbLine
 10
0.0
 20
-10.0
 30
0.0
 11
0.0
 21
-5.0
 31
0.0
  0
LINE
  5
5E9
330
5E4
100
AcDbEntity
  8
AM_BOR
 62
     1
370
    25
100
AcDbLine
 10
-23.0
 20
-10.0
 30
0.0
 11
-23.0
 21
-5.0
 31
0.0
1001
GENIUS_GENBLLY_14
1000
BOR2
  0
LINE
  5
5EA
330
5E4
100
AcDbEntity
  8
AM_BOR
 62
     1
370
    25
100
AcDbLine
 10
-154.0
 20
-5.0
 30
0.0
 11
-154.0
 21
0.0
 31
0.0
1001
GENIUS_GENBLLY_14
1000
BOR2
  0
LINE
  5
5EB
330
5E4
100
AcDbEntity
  8
AM_BOR
 62
     1
370
    25
100
AcDbLine
 10
-154.0
 20
-10.0
 30
0.0
 11
-154.0
 21
-5.0
 31
0.0
1001
GENIUS_GENBLLY_14
1000
BOR2
  0
ATTDEF
  5
5EC
330
5E4
100
AcDbEntity
  8
AM_BOR
 62
     1
370
    25
100
AcDbText
 10
-153.0
 20
-4.000000000001477
 30
0.0
 40
3.0
  1

  7
ACJISTS
100
AcDbAttributeDefinition
  3
履歴 1 行目
  2
GEN-REV-TEXT1{43}
 70
     0
1001
GENIUS_GENBLLY_14
1000
BOR2
1001
GENIUS_GENTRA_14
1002
{
1070
     3
1000
GENTRAPR,%s,(GENMSG gendwg 94)
1000
履歴 1 行目
1000
JPN
1070
     0
1070
     0
1002
}
  0
ATTDEF
  5
5ED
330
5E4
100
AcDbEntity
  8
AM_BOR
 62
     1
370
    25
100
AcDbText
 10
-153.0
 20
-9.000000000001477
 30
0.0
 40
3.0
  1

  7
ACJISTS
100
AcDbAttributeDefinition
  3
履歴 2 行目
  2
GEN-REV-TEXT2{43}
 70
     0
1001
GENIUS_GENBLLY_14
1000
BOR2
1001
GENIUS_GENTRA_14
1002
{
1070
     3
1000
GENTRAPR,%s,(GENMSG gendwg 92)
1000
履歴 2 行目
1000
JPN
1070
     0
1070
     0
1002
}
  0
LINE
  5
5EE
330
5E4
100
AcDbEntity
  8
0
100
AcDbLine
 10
-182.88
 20
0.0
 30
0.0
 11
-182.88
 21
-5.0
 31
0.0
  0
LINE
  5
5EF
330
5E4
100
AcDbEntity
  8
AM_BOR
 62
     1
370
    25
100
AcDbLine
 10
-174.0
 20
-10.0
 30
0.0
 11
-174.0
 21
0.0
 31
0.0
1001
GENIUS_GENBLLY_14
1000
BOR2
  0
LINE
  5
5F0
330
5E4
100
AcDbEntity
  8
0
100
AcDbLine
 10
-182.88
 20
-5.0
 30
0.0
 11
-182.88
 21
-10.0
 31
0.0
  0
LINE
  5
5F1
330
5E4
100
AcDbEntity
  8
0
100
AcDbLine
 10
-174.0
 20
-9.999999963957804
 30
0.0
 11
-174.0
 21
0.0
 31
0.0
  0
ATTDEF
  5
5F2
330
5E4
100
AcDbEntity
  8
AM_BOR
 62
     1
370
    25
100
AcDbText
 10
-173.0
 20
-8.999999999999658
 30
0.0
 40
3.0
  1

  7
ACJISTS
100
AcDbAttributeDefinition
  3
図面名
  2
GEN-REV-BLK{6}
 70
     0
1001
GENIUS_GENBLLY_14
1000
BOR2
1001
GENIUS_GENTRA_14
1002
{
1070
     3
1000
GENTRAPR,%s,(GENMSG gendwg 93)
1000
図面名
1000
JPN
1070
     0
1070
     0
1002
}
  0
ATTDEF
  5
5F3
330
5E4
100
AcDbEntity
  8
AM_BOR
 62
     1
370
    25
100
AcDbText
 10
-173.0
 20
-3.999999999999658
 30
0.0
 40
3.0
  1

  7
ACJISTS
100
AcDbAttributeDefinition
  3
日付
  2
GEN-REV-DAT{6}
 70
     0
1001
GENIUS_GENBLLY_14
1000
BOR2
1001
GENIUS_GENTRA_14
1002
{
1070
     3
1000
GENTRAPR,%s,(GENMSG gendwg 95)
1000
日付
1000
JPN
1070
     0
1070
     0
1002
}
  0
ATTDEF
  5
5F4
330
5E4
100
AcDbEntity
  8
AM_BOR
 62
     1
370
    25
100
AcDbText
 10
-181.9473675889587
 20
-4.0
 30
0.0
 40
3.0
  1

  7
ACJISTS
100
AcDbAttributeDefinition
  3
番号
  2
GEN-REV-NR{2}
 70
     0
1001
GENIUS_GENBLLY_14
1000
BOR2
1001
GENIUS_GENTRA_14
1002
{
1070
     3
1000
GENTRAPR,%s,(GENMSG gendwg 98)
1000
番号
1000
JPN
1070
     0
1070
     0
1002
}
  0
LINE
  5
5F5
330
5E4
100
AcDbEntity
  8
0
100
AcDbLine
 10
-182.8799999324707
 20
-9.999999963957804
 30
0.0
 11
0.0000000675292426
 21
-9.999999963957804
 31
0.0
  0
LINE
  5
5F6
330
5E4
100
AcDbEntity
  8
AM_BOR
 62
     1
370
    25
100
AcDbLine
 10
-154.0
 20
-5.0
 30
0.0
 11
-23.0
 21
-5.0
 31
0.0
1001
GENIUS_GENBLLY_14
1000
BOR2
  0
LINE
  5
5F7
330
5E4
100
AcDbEntity
  8
0
100
AcDbLine
 10
-182.88
 20
0.0
 30
0.0
 11
0.0
 21
0.0
 31
0.0
  0
ENDBLK
  5
5F9
330
5E4
100
AcDbEntity
  8
0
100
AcDbBlockEnd
  0
BLOCK
  5
604
330
5FA
100
AcDbEntity
  8
0
100
AcDbBlockBegin
  2
jis_br_revisionlist
 70
     0
 10
0.0
 20
0.0
 30
0.0
  3
jis_br_revisionlist
  1

  0
INSERT
  5
5FB
330
5FA
100
AcDbEntity
  8
0
100
AcDbBlockReference
 66
     1
  2
jis_br_revisionlist1
 10
0.0
 20
15.34730060179464
 30
0.0
  0
ATTRIB
  5
5FC
330
5FB
100
AcDbEntity
  8
AM_BOR
 62
     1
370
    25
100
AcDbText
 10
-22.0
 20
11.63417285685062
 30
0.0
 40
3.0
  1

  7
ACJISTS
100
AcDbAttribute
  2
GEN-REV-NAME{7}
 70
     0
1001
GENIUS_GENBLLY_14
1000
BOR2
  0
ATTRIB
  5
5FD
330
5FB
100
AcDbEntity
  8
AM_BOR
 62
     1
370
    25
100
AcDbText
 10
-153.0
 20
11.34730060179316
 30
0.0
 40
3.0
  1

  7
ACJISTS
100
AcDbAttribute
  2
GEN-REV-TEXT1{43}
 70
     0
1001
GENIUS_GENBLLY_14
1000
BOR2
  0
ATTRIB
  5
5FE
330
5FB
100
AcDbEntity
  8
AM_BOR
 62
     1
370
    25
100
AcDbText
 10
-153.0
 20
6.347300601793168
 30
0.0
 40
3.0
  1

  7
ACJISTS
100
AcDbAttribute
  2
GEN-REV-TEXT2{43}
 70
     0
1001
GENIUS_GENBLLY_14
1000
BOR2
  0
ATTRIB
  5
5FF
330
5FB
100
AcDbEntity
  8
AM_BOR
 62
     1
370
    25
100
AcDbText
 10
-173.0
 20
6.347300601794987
 30
0.0
 40
3.0
  1

  7
ACJISTS
100
AcDbAttribute
  2
GEN-REV-BLK{6}
 70
     0
1001
GENIUS_GENBLLY_14
1000
BOR2
  0
ATTRIB
  5
600
330
5FB
100
AcDbEntity
  8
AM_BOR
 62
     1
370
    25
100
AcDbText
 10
-173.0
 20
11.34730060179498
 30
0.0
 40
3.0
  1

  7
ACJISTS
100
AcDbAttribute
  2
GEN-REV-DAT{6}
 70
     0
1001
GENIUS_GENBLLY_14
1000
BOR2
  0
ATTRIB
  5
601
330
5FB
100
AcDbEntity
  8
AM_BOR
 62
     1
370
    25
100
AcDbText
 10
-181.9473675889587
 20
11.34730060179464
 30
0.0
 40
3.0
  1

  7
ACJISTS
100
AcDbAttribute
  2
GEN-REV-NR{2}
 70
     0
1001
GENIUS_GENBLLY_14
1000
BOR2
  0
SEQEND
  5
602
330
5FB
100
AcDbEntity
  8
0
  0
INSERT
  5
603
330
5FA
100
AcDbEntity
  8
0
100
AcDbBlockReference
  2
jis_br_revisionlist0
 10
0.0
 20
5.347300637836838
 30
0.0
  0
ENDBLK
  5
605
330
5FA
100
AcDbEntity
  8
0
100
AcDbBlockEnd
  0
BLOCK
  5
6BE
330
6A8
100
AcDbEntity
  8
0
100
AcDbBlockBegin
  2
IGS_A3
 70
     0
 10
0.0
 20
0.0
 30
0.0
  3
IGS_A3
  1

  0
LINE
  5
6A9
330
6A8
100
AcDbEntity
  8
AM_BOR
100
AcDbLine
 10
0.0
 20
0.0
 30
0.0
 11
0.0
 21
10.0
 31
0.0
  0
LINE
  5
6AA
330
6A8
100
AcDbEntity
  8
AM_BOR
100
AcDbLine
 10
0.0
 20
297.0
 30
0.0
 11
10.0
 21
297.0
 31
0.0
  0
LINE
  5
6AB
330
6A8
100
AcDbEntity
  8
AM_BOR
100
AcDbLine
 10
420.0
 20
297.0
 30
0.0
 11
420.0
 21
287.0
 31
0.0
  0
LINE
  5
6AC
330
6A8
100
AcDbEntity
  8
AM_BOR
100
AcDbLine
 10
420.0
 20
0.0
 30
0.0
 11
410.0
 21
0.0
 31
0.0
  0
LINE
  5
6AD
330
6A8
100
AcDbEntity
  8
0
100
AcDbLine
 10
25.0
 20
10.0
 30
0.0
 11
25.0
 21
287.0
 31
0.0
  0
LINE
  5
6AE
330
6A8
100
AcDbEntity
  8
0
100
AcDbLine
 10
410.0
 20
10.0
 30
0.0
 11
25.0
 21
10.0
 31
0.0
  0
LINE
  5
6AF
330
6A8
100
AcDbEntity
  8
0
100
AcDbLine
 10
410.0
 20
287.0
 30
0.0
 11
410.0
 21
10.0
 31
0.0
  0
LINE
  5
6B0
330
6A8
100
AcDbEntity
  8
0
100
AcDbLine
 10
25.0
 20
287.0
 30
0.0
 11
410.0
 21
287.0
 31
0.0
  0
LINE
  5
6B1
330
6A8
100
AcDbEntity
  8
AM_BOR
100
AcDbLine
 10
0.0
 20
287.0
 30
0.0
 11
0.0
 21
297.0
 31
0.0
  0
LINE
  5
6B2
330
6A8
100
AcDbEntity
  8
AM_BOR
100
AcDbLine
 10
10.0
 20
0.0
 30
0.0
 11
0.0
 21
0.0
 31
0.0
  0
LINE
  5
6B3
330
6A8
100
AcDbEntity
  8
AM_BOR
100
AcDbLine
 10
420.0
 20
10.0
 30
0.0
 11
420.0
 21
0.0
 31
0.0
  0
LINE
  5
6B4
330
6A8
100
AcDbEntity
  8
AM_BOR
100
AcDbLine
 10
410.0
 20
297.0
 30
0.0
 11
420.0
 21
297.0
 31
0.0
  0
TEXT
  5
6B5
330
6A8
100
AcDbEntity
  8
0
 60
     1
100
AcDbText
 10
410.0
 20
287.0
 30
0.0
 40
3.5
  1
!GENTITLE-RU
  7
ACJISTS
100
AcDbText
  0
TEXT
  5
6B6
330
6A8
100
AcDbEntity
  8
0
 60
     1
100
AcDbText
 10
420.0
 20
297.0
 30
0.0
 40
3.5
  1
!GENTITLE-MAX
  7
ACJISTS
100
AcDbText
  0
TEXT
  5
6B7
330
6A8
100
AcDbEntity
  8
0
 60
     1
100
AcDbText
 10
410.0
 20
10.0
 30
0.0
 40
3.5
  1
!GENTITLE-INSERT
  7
ACJISTS
100
AcDbText
  0
TEXT
  5
6B8
330
6A8
100
AcDbEntity
  8
0
 60
     1
100
AcDbText
 10
25.0
 20
10.0
 30
0.0
 40
3.5
  1
!GENTITLE-LL
  7
ACJISTS
100
AcDbText
  0
LINE
  5
6B9
330
6A8
100
AcDbEntity
  8
AM_BOR
 62
     1
370
    25
100
AcDbLine
 10
0.0
 20
297.0
 30
0.0
 11
420.0
 21
297.0
 31
0.0
  0
LINE
  5
6BA
330
6A8
100
AcDbEntity
  8
AM_BOR
 62
     1
370
    25
100
AcDbLine
 10
420.0
 20
297.0
 30
0.0
 11
420.0
 21
0.0
 31
0.0
  0
LINE
  5
6BB
330
6A8
100
AcDbEntity
  8
AM_BOR
 62
     1
370
    25
100
AcDbLine
 10
420.0
 20
0.0
 30
0.0
 11
0.0
 21
0.0
 31
0.0
  0
LINE
  5
6BC
330
6A8
100
AcDbEntity
  8
AM_BOR
 62
     1
370
    25
100
AcDbLine
 10
0.0
 20
0.0
 30
0.0
 11
0.0
 21
297.0
 31
0.0
  0
TEXT
  5
6BD
330
6A8
100
AcDbEntity
  8
DEFPOINTS
100
AcDbText
 10
19.5941472374451
 20
2.504073349097552
 30
0.0
 40
5.0
  1
A3
100
AcDbText
  0
ENDBLK
  5
6BF
330
6A8
100
AcDbEntity
  8
0
100
AcDbBlockEnd
  0
BLOCK
  5
9EE
330
9ED
100
AcDbEntity
  8
0
100
AcDbBlockBegin
  2
MAKR0
 70
     0
 10
626.98708266
 20
1123.5987754938
 30
0.0
  3
MAKR0
  1

  0
CIRCLE
  5
9EF
330
9ED
100
AcDbEntity
  8
1
  6
ByBlock
 62
     2
100
AcDbCircle
 10
626.98708266
 20
1123.5987754938
 30
0.0
 40
17.5
  0
TEXT
  5
9F0
330
9ED
100
AcDbEntity
  8
1
  6
Continuous
 62
     7
100
AcDbText
 10
619.487083
 20
1113.598775
 30
0.0
 40
20.0
  1
１
 41
1.25
 72
     5
 11
634.4870829999999
 21
1113.598775
 31
0.0
100
AcDbText
  0
ENDBLK
  5
9F1
330
9ED
100
AcDbEntity
  8
0
100
AcDbBlockEnd
  0
BLOCK
  5
9F3
330
9F2
100
AcDbEntity
  8
0
100
AcDbBlockBegin
  2
BALN0
 70
     0
 10
405.0568590227999
 20
468.0159804988
 30
0.0
  3
BALN0
  1

  0
SOLID
  5
9F4
330
9F2
100
AcDbEntity
  8
1
  6
Continuous
 62
     2
100
AcDbTrace
 10
411.7483595226
 20
475.4472536778
 30
0.0
 11
414.5675050346
 21
471.1059016043
 31
0.0
 12
405.0568590227999
 22
468.0159804988
 32
0.0
 13
405.0568590227999
 23
468.0159804988
 33
0.0
  0
LINE
  5
9F5
330
9F2
100
AcDbEntity
  8
1
  6
ByBlock
 62
     2
100
AcDbLine
 10
405.0568590227999
 20
468.0159804988
 30
0.0
 11
539.089738579
 21
555.0529644754
 31
0.0
  0
CIRCLE
  5
9F6
330
9F2
100
AcDbEntity
  8
1
  6
ByBlock
 62
     2
100
AcDbCircle
 10
560.0568590228
 20
568.6683917656999
 30
0.0
 40
25.0
  0
TEXT
  5
9F7
330
9F2
100
AcDbEntity
  8
1
  6
Continuous
 62
     7
100
AcDbText
 10
550.056859
 20
556.168392
 30
0.0
 40
25.0
  1
１
 41
1.333333333333333
 72
     5
 11
570.056859
 21
556.168392
 31
0.0
100
AcDbText
  0
ENDBLK
  5
9F8
330
9F2
100
AcDbEntity
  8
0
100
AcDbBlockEnd
  0
BLOCK
  5
9FA
330
9F9
100
AcDbEntity
  8
0
100
AcDbBlockBegin
  2
*X21
 70
     1
 10
0.0
 20
0.0
 30
0.0
  3
*X21
  1
GEVFRAME
  0
LINE
  5
9FB
330
9F9
100
AcDbEntity
  8
0
 62
     0
100
AcDbLine
 10
1037.172247917808
 20
542.1975010872253
 30
0.0
 11
1083.573522324383
 21
588.5987754937999
 31
0.0
  0
LINE
  5
9FC
330
9F9
100
AcDbEntity
  8
0
 62
     0
100
AcDbLine
 10
1037.172247917812
 20
556.3396367109604
 30
0.0
 11
1069.431386700652
 21
588.5987754937999
 31
0.0
  0
LINE
  5
9FD
330
9F9
100
AcDbEntity
  8
0
 62
     0
100
AcDbLine
 10
1037.172247917816
 20
570.4817723346954
 30
0.0
 11
1055.289251076921
 21
588.5987754937999
 31
0.0
  0
LINE
  5
9FE
330
9F9
100
AcDbEntity
  8
0
 62
     0
100
AcDbLine
 10
1037.172247917821
 20
584.6239079584303
 30
0.0
 11
1041.14711545319
 21
588.5987754937999
 31
0.0
  0
LINE
  5
9FF
330
9F9
100
AcDbEntity
  8
0
 62
     0
100
AcDbLine
 10
1037.715657948114
 20
528.5987754938
 30
0.0
 11
1096.202723932032
 21
587.0858414777181
 31
0.0
  0
LINE
  5
A00
330
9F9
100
AcDbEntity
  8
0
 62
     0
100
AcDbLine
 10
1051.857793571845
 20
528.5987754938
 30
0.0
 11
1098.201858378418
 21
574.942840300373
 31
0.0
  0
LINE
  5
A01
330
9F9
100
AcDbEntity
  8
0
 62
     0
100
AcDbLine
 10
1065.999929195576
 20
528.5987754938
 30
0.0
 11
1099.136627483553
 21
561.7354737817775
 31
0.0
  0
LINE
  5
A02
330
9F9
100
AcDbEntity
  8
0
 62
     0
100
AcDbLine
 10
1080.142064819307
 20
528.5987754938
 30
0.0
 11
1098.697284727269
 21
547.1539954017623
 31
0.0
  0
LINE
  5
A03
330
9F9
100
AcDbEntity
  8
0
 62
     0
100
AcDbLine
 10
1091.284200443038
 20
525.5987754937999
 30
0.0
 11
1096.309755955343
 21
530.6243310061055
 31
0.0
  0
ENDBLK
  5
A04
330
9F9
100
AcDbEntity
  8
0
100
AcDbBlockEnd
  0
BLOCK
  5
A72
330
A71
100
AcDbEntity
  8
0
100
AcDbBlockBegin
  2
IGS_A3-T
 70
     0
 10
0.0
 20
0.0
 30
0.0
  3
IGS_A3-T
  1

  0
TEXT
  5
A73
330
A71
100
AcDbEntity
  8
0
 60
     1
100
AcDbText
 10
297.0000000000036
 20
420.0
 30
0.0
 40
2.0
  1
!GENTITLE-MAX
100
AcDbText
  0
TEXT
  5
A74
330
A71
100
AcDbEntity
  8
0
 60
     1
100
AcDbText
 10
287.0000000000036
 20
410.0
 30
0.0
 40
2.0
  1
!GENTITLE-RU
100
AcDbText
  0
TEXT
  5
A75
330
A71
100
AcDbEntity
  8
0
 60
     1
100
AcDbText
 10
287.0000000000036
 20
10.00000000000005
 30
0.0
 40
2.0
  1
!GENTITLE-INSERT
100
AcDbText
  0
TEXT
  5
A76
330
A71
100
AcDbEntity
  8
0
 60
     1
100
AcDbText
 10
10.0
 20
10.00000000000005
 30
0.0
 40
2.0
  1
!GENTITLE-LL
100
AcDbText
  0
LINE
  5
A77
330
A71
100
AcDbEntity
  8
RAHM2
100
AcDbLine
 10
10.00000000000358
 20
10.00000000000005
 30
0.0
 11
10.00000000000358
 21
410.0
 31
0.0
  0
LINE
  5
A78
330
A71
100
AcDbEntity
  8
RAHM2
100
AcDbLine
 10
287.0000000000036
 20
10.00000000000005
 30
0.0
 11
10.00000000000358
 21
10.00000000000005
 31
0.0
  0
LINE
  5
A79
330
A71
100
AcDbEntity
  8
RAHM2
100
AcDbLine
 10
10.00000000000358
 20
410.0
 30
0.0
 11
287.0000000000036
 21
410.0
 31
0.0
  0
LINE
  5
A7A
330
A71
100
AcDbEntity
  8
RAHM2
100
AcDbLine
 10
287.0000000000036
 20
410.0
 30
0.0
 11
287.0000000000035
 21
10.0
 31
0.0
  0
ENDBLK
  5
A7B
330
A71
100
AcDbEntity
  8
0
100
AcDbBlockEnd
  0
BLOCK
  5
A7D
330
A7C
100
AcDbEntity
  8
0
100
AcDbBlockBegin
  2
IGS-TITLE-NO2
 70
     2
 10
0.0
 20
0.0
 30
0.0
  3
IGS-TITLE-NO2
  1

  0
POINT
  5
A7E
330
A7C
100
AcDbEntity
  8
0
 60
     1
100
AcDbPoint
 10
0.0
 20
0.0
 30
0.0
1001
GENIUS_GENODEF_13
1002
{
1000
HIER
1070
     1
1002
}
1002
{
1000
MANEDIT
1070
     0
1002
}
1002
{
1000
NOSEL
1070
     0
1002
}
1002
{
1000
BEHIND
1070
     0
1002
}
1002
{
1000
REACTOR
1002
}
1001
GENIUS_GENTITLE_13
1002
{
1000
SCALE
1000
1:1
1002
}
1002
{
1000
BORDER
1000
IGS-A4
1002
}
1002
{
1000
TITLE
1000
IGS-TITLE
1002
}
1002
{
1000
UNCHG
1002
{
1000
GEN-TITLE-SCA
1000
GEN-TITLE-SIZ
1002
}
1002
}
1002
{
1000
HRA
1005
0
1002
}
1002
{
1000
HTIT
1005
0
1002
}
1002
{
1000
GENIUSID
1005
A7E
1002
}
1001
GENIUS_GENOBJ-N-TIT_13
1002
{
1000
OWNER
1000
GEN
1002
}
1001
GENIUS_GENOENT_13
1002
{
1000
MYREF
1005
A7E
1002
}
1002
{
1000
GRP
1005
0
1002
}
1001
GENIUS_GENOLIS_13
1002
{
1000
ENT
1005
0
1005
0
1002
}
  0
LINE
  5
A7F
330
A7C
100
AcDbEntity
  8
RAHM3
100
AcDbLine
 10
-148.4080564410193
 20
8.825237325416161
 30
52.0
 11
-145.4319868410194
 21
8.825237325416161
 31
52.0
  0
ARC
  5
A80
330
A7C
100
AcDbEntity
  8
RAHM3
100
AcDbCircle
 10
-141.4638940410194
 20
7.833214125416168
 30
52.0
 40
0.9920232
100
AcDbArc
 50
90.0
 51
180.0
  0
LINE
  5
A81
330
A7C
100
AcDbEntity
  8
RAHM3
100
AcDbLine
 10
-137.6611384410193
 20
8.825237325416161
 30
52.0
 11
-141.4638940410194
 21
8.825237325416161
 31
52.0
  0
ARC
  5
A82
330
A7C
100
AcDbEntity
  8
RAHM3
100
AcDbCircle
 10
-137.6611384410193
 20
7.833214125416168
 30
52.0
 40
0.9920232
100
AcDbArc
 50
0.0
 51
90.0
  0
ARC
  5
A83
330
A7C
100
AcDbEntity
  8
RAHM3
100
AcDbCircle
 10
-129.0636040410194
 20
7.833214125416168
 30
52.0
 40
0.9920232
100
AcDbArc
 50
0.0
 51
90.0
  0
LINE
  5
A84
330
A7C
100
AcDbEntity
  8
RAHM3
100
AcDbLine
 10
-132.7010224410193
 20
8.825237325416161
 30
52.0
 11
-129.0636040410194
 21
8.825237325416161
 31
52.0
  0
ARC
  5
A85
330
A7C
100
AcDbEntity
  8
RAHM3
100
AcDbCircle
 10
-132.7010224410193
 20
7.833214125416168
 30
52.0
 40
0.9920232
100
AcDbArc
 50
90.0
 51
180.0
  0
LINE
  5
A86
330
A7C
100
AcDbEntity
  8
RAHM3
100
AcDbLine
 10
-148.4080564410193
 20
8.163888525416165
 30
52.0
 11
-147.5813704410193
 21
8.163888525416165
 31
52.0
  0
LINE
  5
A87
330
A7C
100
AcDbEntity
  8
RAHM3
100
AcDbLine
 10
-147.5813704410193
 20
8.163888525416165
 30
52.0
 11
-147.5813704410193
 21
3.865121325416145
 31
52.0
  0
LINE
  5
A88
330
A7C
100
AcDbEntity
  8
RAHM3
100
AcDbLine
 10
-146.2586728410194
 20
3.865121325416145
 30
52.0
 11
-146.2586728410194
 21
8.163888525416165
 31
52.0
  0
LINE
  5
A89
330
A7C
100
AcDbEntity
  8
RAHM3
100
AcDbLine
 10
-146.2586728410194
 20
8.163888525416165
 30
52.0
 11
-145.4319868410194
 21
8.163888525416165
 31
52.0
  0
LINE
  5
A8A
330
A7C
100
AcDbEntity
  8
RAHM3
100
AcDbLine
 10
-145.4319868410194
 20
8.825237325416161
 30
52.0
 11
-145.4319868410194
 21
8.163888525416165
 31
52.0
  0
LINE
  5
A8B
330
A7C
100
AcDbEntity
  8
RAHM3
100
AcDbLine
 10
-148.4080564410193
 20
8.163888525416165
 30
52.0
 11
-148.4080564410193
 21
8.825237325416161
 31
52.0
  0
LINE
  5
A8C
330
A7C
100
AcDbEntity
  8
RAHM3
100
AcDbLine
 10
-145.4319868410194
 20
3.203772525416149
 30
52.0
 11
-148.4080564410193
 21
3.203772525416149
 31
52.0
  0
CIRCLE
  5
A8D
330
A7C
100
AcDbEntity
  8
RAHM3
100
AcDbCircle
 10
-144.1092892410194
 20
3.865121325416145
 30
52.0
 40
0.6613488000000001
  0
LINE
  5
A8E
330
A7C
100
AcDbEntity
  8
RAHM3
100
AcDbLine
 10
-137.9918128410194
 20
3.865121325416145
 30
52.0
 11
-137.9918128410194
 21
3.203772525416149
 31
52.0
  0
LINE
  5
A8F
330
A7C
100
AcDbEntity
  8
RAHM3
100
AcDbLine
 10
-137.9918128410194
 20
3.203772525416149
 30
52.0
 11
-136.6691152410193
 21
3.203772525416149
 31
52.0
  0
ARC
  5
A90
330
A7C
100
AcDbEntity
  8
RAHM3
100
AcDbCircle
 10
-141.4638940410194
 20
4.195795725416166
 30
52.0
 40
0.9920232
100
AcDbArc
 50
180.0
 51
270.0
  0
LINE
  5
A91
330
A7C
100
AcDbEntity
  8
RAHM3
100
AcDbLine
 10
-141.4638940410194
 20
3.203772525416149
 30
52.0
 11
-141.1332196410193
 21
3.203772525416149
 31
52.0
  0
LINE
  5
A92
330
A7C
100
AcDbEntity
  8
RAHM3
100
AcDbLine
 10
-142.4559172410194
 20
4.195795725416166
 30
52.0
 11
-142.4559172410194
 21
7.833214125416168
 31
52.0
  0
CIRCLE
  5
A93
330
A7C
100
AcDbEntity
  8
RAHM3
100
AcDbCircle
 10
-135.5117548410193
 20
3.865121325416145
 30
52.0
 40
0.6613488000000001
  0
ARC
  5
A94
330
A7C
100
AcDbEntity
  8
RAHM3
100
AcDbCircle
 10
-132.7010224410193
 20
4.195795725416166
 30
52.0
 40
0.9920232
100
AcDbArc
 50
180.0
 51
270.0
  0
LINE
  5
A95
330
A7C
100
AcDbEntity
  8
RAHM3
100
AcDbLine
 10
-129.0636040410194
 20
3.203772525416149
 30
52.0
 11
-132.7010224410193
 21
3.203772525416149
 31
52.0
  0
ARC
  5
A96
330
A7C
100
AcDbEntity
  8
RAHM3
100
AcDbCircle
 10
-129.0636040410194
 20
4.195795725416166
 30
52.0
 40
0.9920232
100
AcDbArc
 50
270.0
 51
0.0
  0
LINE
  5
A97
330
A7C
100
AcDbEntity
  8
RAHM3
100
AcDbLine
 10
-133.6930456410194
 20
4.195795725416166
 30
52.0
 11
-133.6930456410194
 21
5.022481725416161
 31
52.0
  0
LINE
  5
A98
330
A7C
100
AcDbEntity
  8
RAHM3
100
AcDbLine
 10
-128.0715808410194
 20
7.833214125416168
 30
52.0
 11
-128.0715808410194
 21
7.00652812541615
 31
52.0
  0
CIRCLE
  5
A99
330
A7C
100
AcDbEntity
  8
RAHM3
100
AcDbCircle
 10
-126.9142204410194
 20
3.865121325416145
 30
52.0
 40
0.6613488000000001
  0
LINE
  5
A9A
330
A7C
100
AcDbEntity
  8
RAHM3
100
AcDbLine
 10
-136.6691152410193
 20
7.171865325416149
 30
52.0
 11
-137.8264756410194
 21
7.171865325416149
 31
52.0
  0
LINE
  5
A9B
330
A7C
100
AcDbEntity
  8
RAHM3
100
AcDbLine
 10
-137.8264756410194
 20
7.171865325416149
 30
52.0
 11
-137.8264756410194
 21
7.667876925416146
 31
52.0
  0
LINE
  5
A9C
330
A7C
100
AcDbEntity
  8
RAHM3
100
AcDbLine
 10
-137.8264756410194
 20
7.667876925416146
 30
52.0
 11
-141.2985568410193
 21
7.667876925416146
 31
52.0
  0
LINE
  5
A9D
330
A7C
100
AcDbEntity
  8
RAHM3
100
AcDbLine
 10
-141.2985568410193
 20
7.667876925416146
 30
52.0
 11
-141.2985568410193
 21
4.361132925416165
 31
52.0
  0
LINE
  5
A9E
330
A7C
100
AcDbEntity
  8
RAHM3
100
AcDbLine
 10
-137.8264756410194
 20
5.518493325416158
 30
52.0
 11
-139.4798476410193
 21
5.518493325416158
 31
52.0
  0
LINE
  5
A9F
330
A7C
100
AcDbEntity
  8
RAHM3
100
AcDbLine
 10
-139.4798476410193
 20
5.518493325416158
 30
52.0
 11
-139.4798476410193
 21
6.510516525416153
 31
52.0
  0
LINE
  5
AA0
330
A7C
100
AcDbEntity
  8
RAHM3
100
AcDbLine
 10
-136.6691152410193
 20
7.171865325416149
 30
52.0
 11
-136.6691152410193
 21
7.833214125416168
 31
52.0
  0
LINE
  5
AA1
330
A7C
100
AcDbEntity
  8
RAHM3
100
AcDbLine
 10
-137.8264756410194
 20
5.022481725416161
 30
52.0
 11
-137.8264756410194
 21
5.518493325416158
 31
52.0
  0
LINE
  5
AA2
330
A7C
100
AcDbEntity
  8
RAHM3
100
AcDbLine
 10
-137.6611384410193
 20
6.510516525416153
 30
52.0
 11
-139.4798476410193
 21
6.510516525416153
 31
52.0
  0
LINE
  5
AA3
330
A7C
100
AcDbEntity
  8
RAHM3
100
AcDbLine
 10
-136.6691152410193
 20
5.518493325416158
 30
52.0
 11
-136.6691152410193
 21
3.203772525416149
 31
52.0
  0
ARC
  5
AA4
330
A7C
100
AcDbEntity
  8
RAHM3
100
AcDbCircle
 10
-137.6611384410193
 20
5.518493325416158
 30
52.0
 40
0.9920232
100
AcDbArc
 50
0.0
 51
90.0
  0
LINE
  5
AA5
330
A7C
100
AcDbEntity
  8
RAHM3
100
AcDbLine
 10
-139.1930809214994
 20
5.022481725416161
 30
52.0
 11
-137.8264756410194
 21
5.022481725416161
 31
52.0
  0
ARC
  5
AA6
330
A7C
100
AcDbEntity
  8
RAHM3
100
AcDbCircle
 10
-139.1930809214994
 20
4.030458525416167
 30
52.0
 40
0.9920232
100
AcDbArc
 50
90.0
 51
119.7448812969
  0
LINE
  5
AA7
330
A7C
100
AcDbEntity
  8
RAHM3
100
AcDbLine
 10
-140.8773334868594
 20
4.361132925416165
 30
52.0
 11
-141.2985568410193
 21
4.361132925416165
 31
52.0
  0
LINE
  5
AA8
330
A7C
100
AcDbEntity
  8
RAHM3
100
AcDbLine
 10
-140.3851521495794
 20
4.491838785176161
 30
52.0
 11
-139.6852622587794
 21
4.891775865576152
 31
52.0
  0
ARC
  5
AA9
330
A7C
100
AcDbEntity
  8
RAHM3
100
AcDbCircle
 10
-140.8773334868594
 20
5.35315612541616
 30
52.0
 40
0.9920232
100
AcDbArc
 50
270.0
 51
299.7448812969
  0
ARC
  5
AAA
330
A7C
100
AcDbEntity
  8
RAHM3
100
AcDbCircle
 10
-138.8857271583794
 20
2.873098125416151
 30
52.0
 40
0.9920232
100
AcDbArc
 50
90.0
 51
119.7448812969
  0
LINE
  5
AAB
330
A7C
100
AcDbEntity
  8
RAHM3
100
AcDbLine
 10
-140.5699797237394
 20
3.203772525416149
 30
52.0
 11
-141.4638940410194
 21
3.203772525416149
 31
52.0
  0
ARC
  5
AAC
330
A7C
100
AcDbEntity
  8
RAHM3
100
AcDbCircle
 10
-140.5699797237394
 20
4.195795725416166
 30
52.0
 40
0.9920232
100
AcDbArc
 50
270.0
 51
299.7448812969
  0
LINE
  5
AAD
330
A7C
100
AcDbEntity
  8
RAHM3
100
AcDbLine
 10
-139.3779084956594
 20
3.734415465576159
 30
52.0
 11
-140.0777983864594
 21
3.334478385176168
 31
52.0
  0
LINE
  5
AAE
330
A7C
100
AcDbEntity
  8
RAHM3
100
AcDbLine
 10
-138.8857271583794
 20
3.865121325416145
 30
52.0
 11
-137.9918128410194
 21
3.865121325416145
 31
52.0
  0
LINE
  5
AAF
330
A7C
100
AcDbEntity
  8
RAHM3
100
AcDbLine
 10
-147.5813704410193
 20
3.865121325416145
 30
52.0
 11
-148.4080564410193
 21
3.865121325416145
 31
52.0
  0
LINE
  5
AB0
330
A7C
100
AcDbEntity
  8
RAHM3
100
AcDbLine
 10
-146.2586728410194
 20
3.865121325416145
 30
52.0
 11
-145.4319868410194
 21
3.865121325416145
 31
52.0
  0
LINE
  5
AB1
330
A7C
100
AcDbEntity
  8
RAHM3
100
AcDbLine
 10
-148.4080564410193
 20
3.203772525416149
 30
52.0
 11
-148.4080564410193
 21
3.865121325416145
 31
52.0
  0
LINE
  5
AB2
330
A7C
100
AcDbEntity
  8
RAHM3
100
AcDbLine
 10
-145.4319868410194
 20
3.865121325416145
 30
52.0
 11
-145.4319868410194
 21
3.203772525416149
 31
52.0
  0
LINE
  5
AB3
330
A7C
100
AcDbEntity
  8
RAHM3
100
AcDbLine
 10
-132.5356852410194
 20
7.667876925416146
 30
52.0
 11
-129.2289412410193
 21
7.667876925416146
 31
52.0
  0
LINE
  5
AB4
330
A7C
100
AcDbEntity
  8
RAHM3
100
AcDbLine
 10
-129.2289412410193
 20
7.667876925416146
 30
52.0
 11
-129.2289412410193
 21
7.00652812541615
 31
52.0
  0
LINE
  5
AB5
330
A7C
100
AcDbEntity
  8
RAHM3
100
AcDbLine
 10
-132.5356852410194
 20
5.022481725416161
 30
52.0
 11
-132.5356852410194
 21
4.361132925416165
 31
52.0
  0
LINE
  5
AB6
330
A7C
100
AcDbEntity
  8
RAHM3
100
AcDbLine
 10
-132.5356852410194
 20
4.361132925416165
 30
52.0
 11
-129.2289412410193
 21
4.361132925416165
 31
52.0
  0
LINE
  5
AB7
330
A7C
100
AcDbEntity
  8
RAHM3
100
AcDbLine
 10
-132.5356852410194
 20
5.022481725416161
 30
52.0
 11
-133.6930456410194
 21
5.022481725416161
 31
52.0
  0
LINE
  5
AB8
330
A7C
100
AcDbEntity
  8
RAHM3
100
AcDbLine
 10
-128.0715808410194
 20
7.00652812541615
 30
52.0
 11
-129.2289412410193
 21
7.00652812541615
 31
52.0
  0
LINE
  5
AB9
330
A7C
100
AcDbEntity
  8
RAHM3
100
AcDbLine
 10
-129.2289412410193
 20
4.361132925416165
 30
52.0
 11
-129.2289412410193
 21
5.518493325416158
 31
52.0
  0
LINE
  5
ABA
330
A7C
100
AcDbEntity
  8
RAHM3
100
AcDbLine
 10
-132.5356852410194
 20
6.510516525416153
 30
52.0
 11
-132.5356852410194
 21
7.667876925416146
 31
52.0
  0
LINE
  5
ABB
330
A7C
100
AcDbEntity
  8
RAHM3
100
AcDbLine
 10
-128.0715808410194
 20
5.518493325416158
 30
52.0
 11
-128.0715808410194
 21
4.195795725416166
 31
52.0
  0
LINE
  5
ABC
330
A7C
100
AcDbEntity
  8
RAHM3
100
AcDbLine
 10
-129.0636040410194
 20
6.510516525416153
 30
52.0
 11
-132.5356852410194
 21
6.510516525416153
 31
52.0
  0
ARC
  5
ABD
330
A7C
100
AcDbEntity
  8
RAHM3
100
AcDbCircle
 10
-129.0636040410194
 20
5.518493325416158
 30
52.0
 40
0.9920232
100
AcDbArc
 50
0.0
 51
90.0
  0
LINE
  5
ABE
330
A7C
100
AcDbEntity
  8
RAHM3
100
AcDbLine
 10
-132.7010224411794
 20
5.518493325416158
 30
52.0
 11
-129.2289412410193
 21
5.518493325416158
 31
52.0
  0
LINE
  5
ABF
330
A7C
100
AcDbEntity
  8
RAHM3
100
AcDbLine
 10
-133.6930456410194
 20
6.510516525416153
 30
52.0
 11
-133.6930456410194
 21
7.833214125416168
 31
52.0
  0
ARC
  5
AC0
330
A7C
100
AcDbEntity
  8
RAHM3
100
AcDbCircle
 10
-132.7010224411794
 20
6.510516525416153
 30
52.0
 40
0.9920232
100
AcDbArc
 50
180.0
 51
270.0
  0
POINT
  5
AC1
330
A7C
100
AcDbEntity
  8
0
 60
     1
100
AcDbPoint
 10
0.0
 20
0.0
 30
0.0
1001
GENIUS_GENODEF_13
1002
{
1000
HIER
1070
     1
1002
}
1002
{
1000
MANEDIT
1070
     0
1002
}
1002
{
1000
NOSEL
1070
     0
1002
}
1002
{
1000
BEHIND
1070
     0
1002
}
1002
{
1000
REACTOR
1002
}
1001
GENIUS_GENTITLE_13
1002
{
1000
SCALE
1000
1:1
1002
}
1002
{
1000
BORDER
1000
GEN_A4
1002
}
1002
{
1000
TITLE
1000
GENTITUS
1002
}
1002
{
1000
UNCHG
1002
{
1000
GEN-TITLE-SCA
1000
GEN-TITLE-SIZ
1002
}
1002
}
1002
{
1000
HRA
1005
0
1002
}
1002
{
1000
HTIT
1005
0
1002
}
1002
{
1000
GENIUSID
1005
AC1
1002
}
1001
GENIUS_GENOBJ-N-TIT_13
1002
{
1000
OWNER
1000
GEN
1002
}
1001
GENIUS_GENOENT_13
1002
{
1000
MYREF
1005
AC1
1002
}
1002
{
1000
GRP
1005
0
1002
}
1001
GENIUS_GENOLIS_13
1002
{
1000
ENT
1005
0
1005
0
1002
}
  0
TEXT
  5
AC2
330
A7C
100
AcDbEntity
  8
0
 60
     1
100
AcDbText
 10
210.0
 20
297.0
 30
0.0
 40
3.5
  1
!GENTITLE-MAX
100
AcDbText
  0
TEXT
  5
AC3
330
A7C
100
AcDbEntity
  8
0
 60
     1
100
AcDbText
 10
205.0
 20
287.0
 30
0.0
 40
3.5
  1
!GENTITLE-RU
100
AcDbText
  0
TEXT
  5
AC4
330
A7C
100
AcDbEntity
  8
0
 60
     1
100
AcDbText
 10
15.0
 20
59.99
 30
0.0
 40
3.5
  1
!GENTITLE-LL
100
AcDbText
  0
TEXT
  5
AC5
330
A7C
100
AcDbEntity
  8
0
 60
     1
100
AcDbText
 10
205.0
 20
5.0
 30
0.0
 40
3.5
  1
!GENTITLE-INSERT
100
AcDbText
  0
LINE
  5
AC6
330
A7C
100
AcDbEntity
  8
RAHM2
100
AcDbLine
 10
-155.0
 20
12.0
 30
0.0
 11
0.0
 21
12.0
 31
0.0
  0
LINE
  5
AC7
330
A7C
100
AcDbEntity
  8
RAHM2
100
AcDbLine
 10
-12.0
 20
12.0
 30
0.0
 11
-12.00000000000727
 21
0.0
 31
0.0
  0
LINE
  5
AC8
330
A7C
100
AcDbEntity
  8
RAHM2
100
AcDbLine
 10
-80.0
 20
19.99999999999272
 30
0.0
 11
0.0
 21
20.0
 31
0.0
  0
LINE
  5
AC9
330
A7C
100
AcDbEntity
  8
RAHM2
100
AcDbLine
 10
0.0
 20
27.0
 30
0.0
 11
-80.0
 21
27.0
 31
0.0
  0
MTEXT
  5
ACA
330
A7C
100
AcDbEntity
  8
RAHM2
100
AcDbMText
 10
-78.39748281353763
 20
37.79972226353243
 30
0.0
 40
2.5
 41
2.458156240282278
 71
     1
 72
     5
  1

 73
     1
 44
1.0
  0
TEXT
  5
ACB
330
A7C
100
AcDbEntity
  8
RAHM3
100
AcDbText
 10
-79.00900277736832
 20
36.89804600214973
 30
0.0
 40
2.299999999999999
  1
名称 ＴＩＴＬＥ
 41
0.8
100
AcDbText
  0
LINE
  5
ACC
330
A7C
100
AcDbEntity
  8
RAHM2
100
AcDbLine
 10
-80.0
 20
40.00000000000727
 30
0.0
 11
-80.0
 21
0.0
 31
0.0
  0
TEXT
  5
ACD
330
A7C
100
AcDbEntity
  8
RAHM3
100
AcDbText
 10
-79.00900277736832
 20
23.89804600216055
 30
0.0
 40
2.299999999999999
  1
符号 
 41
0.8
100
AcDbText
  0
TEXT
  5
ACE
330
A7C
100
AcDbEntity
  8
RAHM3
100
AcDbText
 10
-79.00900277736832
 20
16.89804600215146
 30
0.0
 40
2.299999999999999
  1
件名
 41
0.8
100
AcDbText
  0
TEXT
  5
ACF
330
A7C
100
AcDbEntity
  8
RAHM3
100
AcDbText
 10
-79.00900277736832
 20
8.898046002160548
 30
0.0
 40
2.299999999999999
  1
図番 ＤＲＡＷＩＮＧ ＮＯ．
 41
0.8
100
AcDbText
  0
CIRCLE
  5
AD0
330
A7C
100
AcDbEntity
  8
RAHM2
100
AcDbCircle
 10
-5.0
 20
5.0
 30
0.0
 40
4.5
  0
LINE
  5
AD1
330
A7C
100
AcDbEntity
  8
RAHM2
100
AcDbLine
 10
-130.0000000000018
 20
40.00000000000916
 30
0.0
 11
-130.0000000000018
 21
12.0
 31
0.0
  0
LINE
  5
AD2
330
A7C
100
AcDbEntity
  8
RAHM2
100
AcDbLine
 10
-130.0000000000018
 20
26.00000000000458
 30
0.0
 11
-80.0
 21
25.99999999999818
 31
0.0
  0
LINE
  5
AD3
330
A7C
100
AcDbEntity
  8
RAHM2
100
AcDbLine
 10
-105.0000000000018
 20
40.00000000000916
 30
0.0
 11
-105.0000000000018
 21
12.0
 31
0.0
  0
TEXT
  5
AD4
330
A7C
100
AcDbEntity
  8
RAHM3
100
AcDbText
 10
-129.0090027773683
 20
36.89804600215881
 30
0.0
 40
2.299999999999999
  1
承認 ＡＰＰＤ
 41
0.8
100
AcDbText
  0
TEXT
  5
AD5
330
A7C
100
AcDbEntity
  8
RAHM3
100
AcDbText
 10
-104.0090027773683
 20
36.8980460021551
 30
0.0
 40
2.299999999999999
  1
検図 ＣＨＫ
 41
0.8
100
AcDbText
  0
TEXT
  5
AD6
330
A7C
100
AcDbEntity
  8
RAHM3
100
AcDbText
 10
-129.0090027773683
 20
22.89804600215422
 30
0.0
 40
2.299999999999999
  1
設計 ＥＮＧＲ
 41
0.8
100
AcDbText
  0
TEXT
  5
AD7
330
A7C
100
AcDbEntity
  8
RAHM3
100
AcDbText
 10
-104.0090027773683
 20
22.89804600214964
 30
0.0
 40
2.299999999999999
  1
製図 ＤＲ ＤＡＴＥ
 41
0.8
100
AcDbText
  0
LINE
  5
AD8
330
A7C
100
AcDbEntity
  8
RAHM2
100
AcDbLine
 10
-155.0
 20
30.60000000000036
 30
0.0
 11
-130.0000000000018
 21
30.60000000000036
 31
0.0
  0
LINE
  5
AD9
330
A7C
100
AcDbEntity
  8
RAHM2
100
AcDbLine
 10
-155.0
 20
21.29999999999927
 30
0.0
 11
-130.0000000000018
 21
21.30000000000109
 31
0.0
  0
TEXT
  5
ADA
330
A7C
100
AcDbEntity
  8
RAHM3
100
AcDbText
 10
-121.7843516157921
 20
6.885079184961092
 30
0.0
 40
4.0
  1
伊藤鉄工株式会社
100
AcDbText
  0
TEXT
  5
ADB
330
A7C
100
AcDbEntity
  8
RAHM3
100
AcDbText
 10
-120.6675998914835
 20
3.578884653066273
 30
0.0
 40
2.0
  1
ITO TEKKO  CO.,LTD.
100
AcDbText
  0
TEXT
  5
ADC
330
A7C
100
AcDbEntity
  8
RAHM3
100
AcDbText
 10
-120.6675998914835
 20
0.9279960228792472
 30
0.0
 40
2.0
  1
KAWAGUCHI  JAPAN
100
AcDbText
  0
TEXT
  5
ADD
330
A7C
100
AcDbEntity
  8
RAHM3
100
AcDbText
 10
-11.85206060358336
 20
9.69362381988742
 30
0.0
 40
1.8
  1
ＲＥＶ．ＭＡＲＫ
 41
0.6800000000000001
100
AcDbText
  0
TEXT
  5
ADE
330
A7C
100
AcDbEntity
  8
RAHM3
100
AcDbText
 10
-11.57052530051805
 20
7.425435269030799
 30
0.0
 40
1.8
  1
変
100
AcDbText
  0
TEXT
  5
ADF
330
A7C
100
AcDbEntity
  8
RAHM3
100
AcDbText
 10
-11.59004395148213
 20
4.996441785248862
 30
0.0
 40
1.8
  1
更
100
AcDbText
  0
TEXT
  5
AE0
330
A7C
100
AcDbEntity
  8
RAHM3
100
AcDbText
 10
-11.62938531906752
 20
2.617267270587205
 30
0.0
 40
1.8
  1
回
100
AcDbText
  0
TEXT
  5
AE1
330
A7C
100
AcDbEntity
  8
RAHM3
100
AcDbText
 10
-11.56556962136267
 20
0.3551115072955326
 30
0.0
 40
1.8
  1
数
100
AcDbText
  0
TEXT
  5
AE2
330
A7C
100
AcDbEntity
  8
RAHM3
100
AcDbText
 10
-154.0090027773665
 20
36.89804600217056
 30
0.0
 40
2.299999999999999
  1
尺度 ＳＣＡＬＥ
 41
0.8
100
AcDbText
  0
TEXT
  5
AE3
330
A7C
100
AcDbEntity
  8
RAHM3
100
AcDbText
 10
-154.0090027773665
 20
27.49804600215
 30
0.0
 40
2.299999999999999
  1
図面枚数 ＮＯ．  
 41
0.8
100
AcDbText
  0
LINE
  5
AE4
330
A7C
100
AcDbEntity
  8
7A
100
AcDbLine
 10
-151.7551228444401
 20
16.64999999999988
 30
0.0
 11
-149.2551228444401
 21
16.64999999999988
 31
0.0
1001
GENIUS_GENOREF_13
1005
AE8
  0
LINE
  5
AE5
330
A7C
100
AcDbEntity
  8
7A
100
AcDbLine
 10
-151.7551228444401
 20
16.64999999999988
 30
0.0
 11
-151.7551228444401
 21
19.14999999999988
 31
0.0
1001
GENIUS_GENOREF_13
1005
AE8
  0
LINE
  5
AE6
330
A7C
100
AcDbEntity
  8
7A
100
AcDbLine
 10
-151.7551228444401
 20
16.64999999999988
 30
0.0
 11
-154.2551228444401
 21
16.64999999999988
 31
0.0
1001
GENIUS_GENOREF_13
1005
AE8
  0
LINE
  5
AE7
330
A7C
100
AcDbEntity
  8
7A
100
AcDbLine
 10
-151.7551228444401
 20
16.64999999999988
 30
0.0
 11
-151.7551228444401
 21
14.14999999999988
 31
0.0
1001
GENIUS_GENOREF_13
1005
AE8
  0
POINT
  5
AE8
330
A7C
100
AcDbEntity
  8
0
 60
     1
100
AcDbPoint
 10
0.0
 20
0.0
 30
0.0
1001
GENIUS_GENODEF_13
1002
{
1000
HIER
1070
    10
1002
}
1002
{
1000
MANEDIT
1070
     0
1002
}
1002
{
1000
NOSEL
1070
     0
1002
}
1002
{
1000
BEHIND
1070
     0
1002
}
1002
{
1000
REACTOR
1002
}
1001
GENIUS_GENOBJ-N-CRS_13
1002
{
1000
OWNER
1000
GEN
1002
}
1001
GENIUS_GENOENT_13
1002
{
1000
MYREF
1005
AE8
1002
}
1002
{
1000
GRP
1005
0
1002
}
1001
GENIUS_GENOLIS_13
1002
{
1000
ENT
1005
AE7
1005
AE6
1005
AE5
1005
AE4
1002
}
  0
CIRCLE
  5
AE9
330
A7C
100
AcDbEntity
  8
RAHM3
100
AcDbCircle
 10
-151.7551228444401
 20
16.64999999999988
 30
0.0
 40
2.0
  0
CIRCLE
  5
AEA
330
A7C
100
AcDbEntity
  8
RAHM3
100
AcDbCircle
 10
-151.7551228444401
 20
16.64999999999952
 30
0.0
 40
1.0
  0
LINE
  5
AEB
330
A7C
100
AcDbEntity
  8
RAHM3
100
AcDbLine
 10
-147.7659442035316
 20
17.64999999999929
 30
0.0
 11
-147.7659442035316
 21
15.64999999999929
 31
0.0
  0
LINE
  5
AEC
330
A7C
100
AcDbEntity
  8
RAHM3
100
AcDbLine
 10
-147.7659442035316
 20
15.64999999999929
 30
0.0
 11
-143.7659442035316
 21
14.64999999999928
 31
0.0
  0
LINE
  5
AED
330
A7C
100
AcDbEntity
  8
RAHM3
100
AcDbLine
 10
-143.7659442035316
 20
14.64999999999928
 30
0.0
 11
-143.7659442035316
 21
18.64999999999929
 31
0.0
  0
LINE
  5
AEE
330
A7C
100
AcDbEntity
  8
RAHM3
100
AcDbLine
 10
-143.7659442035316
 20
18.64999999999929
 30
0.0
 11
-147.7659442035316
 21
17.64999999999929
 31
0.0
  0
LINE
  5
AEF
330
A7C
100
AcDbEntity
  8
7A
100
AcDbLine
 10
-148.6350563849704
 20
16.64999999999929
 30
0.0
 11
-142.8462596443259
 21
16.64999999999929
 31
0.0
1001
GENIUS_GENODEF_13
1002
{
1000
HIER
1070
     0
1002
}
1002
{
1000
MANEDIT
1070
     0
1002
}
1002
{
1000
NOSEL
1070
     0
1002
}
1002
{
1000
BEHIND
1070
     0
1002
}
1002
{
1000
REACTOR
1002
}
1001
GENIUS_GENOBJ-N-CEN_13
1002
{
1000
OWNER
1000
GEN
1002
}
  0
TEXT
  5
AF0
330
A7C
100
AcDbEntity
  8
RAHM3
100
AcDbText
 10
-141.8454810851357
 20
18.28209750892168
 30
0.0
 40
2.1
  1
単位 ＵＮＩＴ
 41
0.7
100
AcDbText
  0
LINE
  5
AF1
330
A7C
100
AcDbEntity
  8
RAHM2
100
AcDbLine
 10
-142.5000000000009
 20
21.29999999999927
 30
0.0
 11
-142.5000000000009
 21
12.0
 31
0.0
  0
TEXT
  5
AF2
330
A7C
100
AcDbEntity
  8
RAHM3
100
AcDbText
 10
-139.6782849929894
 20
13.82826889824218
 30
0.0
 40
4.0
  1
ｍｍ
 41
0.8
100
AcDbText
  0
POLYLINE
  5
AF3
330
A7C
100
AcDbEntity
  8
RAHM2
100
AcDb2dPolyline
 66
     1
 10
0.0
 20
0.0
 30
0.0
 70
     1
  0
VERTEX
  5
AF4
330
AF3
100
AcDbEntity
  8
RAHM2
100
AcDbVertex
100
AcDb2dVertex
 10
-155.0
 20
-0.000000000001819
 30
0.0
  0
VERTEX
  5
AF5
330
AF3
100
AcDbEntity
  8
RAHM2
100
AcDbVertex
100
AcDb2dVertex
 10
-155.0
 20
40.00000000002091
 30
0.0
  0
VERTEX
  5
AF6
330
AF3
100
AcDbEntity
  8
RAHM2
100
AcDbVertex
100
AcDb2dVertex
 10
0.0
 20
39.99999999999273
 30
0.0
  0
VERTEX
  5
AF7
330
AF3
100
AcDbEntity
  8
RAHM2
100
AcDbVertex
100
AcDb2dVertex
 10
0.0
 20
0.0
 30
0.0
  0
SEQEND
  5
AF8
330
AF3
100
AcDbEntity
  8
RAHM2
  0
ATTDEF
  5
AF9
330
A7C
100
AcDbEntity
  8
RAHM3
100
AcDbText
 10
-147.2595867131855
 20
31.94728899818607
 30
0.0
 40
4.0
  1

100
AcDbAttributeDefinition
  3
尺度
  2
GEN-TITLE-SCA
 70
     0
  0
ATTDEF
  5
AFA
330
A7C
100
AcDbEntity
  8
RAHM3
100
AcDbText
 10
-73.09000000000001
 20
29.74
 30
0.0
 40
5.0
  1

100
AcDbAttributeDefinition
  3
名称
  2
ＴＩＴＬＥ
 70
     0
  0
ATTDEF
  5
AFB
330
A7C
100
AcDbEntity
  8
RAHM3
100
AcDbText
 10
-71.56287815584043
 20
21.80438312711384
 30
0.0
 40
3.0
  1

100
AcDbAttributeDefinition
  3
符号
  2
ｃｏｄｅ
 70
     0
  0
ATTDEF
  5
AFC
330
A7C
100
AcDbEntity
  8
RAHM3
100
AcDbText
 10
-70.74480649396313
 20
14.80438312710657
 30
0.0
 40
3.0
  1

100
AcDbAttributeDefinition
  3
件名
  2
件名
 70
     0
  0
ATTDEF
  5
AFD
330
A7C
100
AcDbEntity
  8
RAHM3
100
AcDbText
 10
-73.09000000000001
 20
1.739999999992722
 30
0.0
 40
5.0
  1

100
AcDbAttributeDefinition
  3
図面番号
  2
Ｎｏ．
 70
     0
  0
ATTDEF
  5
AFE
330
A7C
100
AcDbEntity
  8
RAHM3
100
AcDbText
 10
-100.45
 20
17.40708932112655
 30
0.0
 40
4.0
  1

100
AcDbAttributeDefinition
  3
製図者
  2
ＤＲ
 70
     0
  0
ATTDEF
  5
AFF
330
A7C
100
AcDbEntity
  8
RAHM3
100
AcDbText
 10
-101.7393618882534
 20
12.76999999999999
 30
0.0
 40
3.0
  1

 41
0.8
100
AcDbAttributeDefinition
  3
日付
  2
ｄａｔｅ
 70
     0
  0
ENDBLK
  5
B00
330
A7C
100
AcDbEntity
  8
0
100
AcDbBlockEnd
  0
BLOCK
  5
CEA
330
CE0
100
AcDbEntity
  8
0
100
AcDbBlockBegin
  2
*D24
 70
     1
 10
0.0
 20
0.0
 30
0.0
  3
*D24
  1

  0
LINE
  5
1106
330
CE0
100
AcDbEntity
  8
5
100
AcDbLine
 10
736.0666794087714
 20
1762.236603812789
 30
0.0
 11
736.0666794087714
 21
1960.23660381279
 31
0.0
  0
LINE
  5
1107
330
CE0
100
AcDbEntity
  8
5
100
AcDbLine
 10
536.0666794087714
 20
1762.236603812797
 30
0.0
 11
536.0666794087714
 21
1960.23660381279
 31
0.0
  0
LINE
  5
1108
330
CE0
100
AcDbEntity
  8
5
100
AcDbLine
 10
723.5666794087714
 20
1955.23660381279
 30
0.0
 11
548.5666794087714
 21
1955.23660381279
 31
0.0
  0
INSERT
  5
1109
330
CE0
100
AcDbEntity
  8
5
100
AcDbBlockReference
  2
_Open30
 10
736.0666794087714
 20
1955.23660381279
 30
0.0
 41
12.5
 42
12.5
 43
12.5
  0
INSERT
  5
110A
330
CE0
100
AcDbEntity
  8
5
100
AcDbBlockReference
  2
_Open30
 10
536.0666794087714
 20
1955.23660381279
 30
0.0
 41
12.5
 42
12.5
 43
12.5
 50
180.0
  0
MTEXT
  5
110B
330
CE0
100
AcDbEntity
  8
5
 62
     2
100
AcDbMText
 10
636.0666794087714
 20
1973.988818379719
 30
0.0
 40
22.5
 41
0.0
 71
     5
 72
     1
  1
%%c200
 73
     1
 44
1.0
  0
POINT
  5
110C
330
CE0
100
AcDbEntity
  8
DEFPOINTS
 62
     0
100
AcDbPoint
 10
736.0666794087714
 20
1757.23660381279
 30
0.0
  0
POINT
  5
110D
330
CE0
100
AcDbEntity
  8
DEFPOINTS
 62
     0
100
AcDbPoint
 10
536.0666794087714
 20
1757.236603812797
 30
0.0
  0
POINT
  5
110E
330
CE0
100
AcDbEntity
  8
DEFPOINTS
 62
     0
100
AcDbPoint
 10
536.0666794087714
 20
1955.23660381279
 30
0.0
  0
ENDBLK
  5
CEB
330
CE0
100
AcDbEntity
  8
0
100
AcDbBlockEnd
  0
BLOCK
  5
CF6
330
CEC
100
AcDbEntity
  8
0
100
AcDbBlockBegin
  2
*D25
 70
     1
 10
0.0
 20
0.0
 30
0.0
  3
*D25
  1

  0
LINE
  5
F9E
330
CEC
100
AcDbEntity
  8
5
100
AcDbLine
 10
431.0666794087715
 20
1057.236603812797
 30
0.0
 11
376.8573692436747
 21
1057.236603812797
 31
0.0
  0
LINE
  5
F9F
330
CEC
100
AcDbEntity
  8
5
100
AcDbLine
 10
601.0666794087715
 20
1557.236603812826
 30
0.0
 11
376.8573692436748
 21
1557.236603812826
 31
0.0
  0
LINE
  5
FA0
330
CEC
100
AcDbEntity
  8
5
100
AcDbLine
 10
381.8573692436747
 20
1069.736603812797
 30
0.0
 11
381.8573692436748
 21
1544.736603812826
 31
0.0
  0
INSERT
  5
FA1
330
CEC
100
AcDbEntity
  8
5
100
AcDbBlockReference
  2
_Open30
 10
381.8573692436747
 20
1057.236603812797
 30
0.0
 41
12.5
 42
12.5
 43
12.5
 50
270.0
  0
INSERT
  5
FA2
330
CEC
100
AcDbEntity
  8
5
100
AcDbBlockReference
  2
_Open30
 10
381.8573692436748
 20
1557.236603812826
 30
0.0
 41
12.5
 42
12.5
 43
12.5
 50
90.0
  0
MTEXT
  5
FA3
330
CEC
100
AcDbEntity
  8
5
 62
     2
100
AcDbMText
 10
363.1073692436745
 20
1307.236603812812
 30
0.0
 40
22.5
 41
0.0
 71
     5
 72
     1
  1
500
 11
0.0000000000000001
 21
1.0
 31
0.0
 73
     1
 44
1.0
  0
POINT
  5
FA4
330
CEC
100
AcDbEntity
  8
DEFPOINTS
 62
     0
100
AcDbPoint
 10
436.0666794087714
 20
1057.236603812797
 30
0.0
  0
POINT
  5
FA5
330
CEC
100
AcDbEntity
  8
DEFPOINTS
 62
     0
100
AcDbPoint
 10
606.0666794087715
 20
1557.236603812826
 30
0.0
  0
POINT
  5
FA6
330
CEC
100
AcDbEntity
  8
DEFPOINTS
 62
     0
100
AcDbPoint
 10
381.8573692436748
 20
1557.236603812826
 30
0.0
  0
ENDBLK
  5
CF7
330
CEC
100
AcDbEntity
  8
0
100
AcDbBlockEnd
  0
BLOCK
  5
D02
330
CF8
100
AcDbEntity
  8
0
100
AcDbBlockBegin
  2
*D26
 70
     1
 10
0.0
 20
0.0
 30
0.0
  3
*D26
  1

  0
LINE
  5
F95
330
CF8
100
AcDbEntity
  8
5
100
AcDbLine
 10
631.0666794087715
 20
1857.236603812797
 30
0.0
 11
296.8573692436751
 21
1857.236603812797
 31
0.0
  0
LINE
  5
F96
330
CF8
100
AcDbEntity
  8
5
100
AcDbLine
 10
526.0666794087715
 20
757.2366038127898
 30
0.0
 11
296.8573692436748
 21
757.2366038127898
 31
0.0
  0
LINE
  5
F97
330
CF8
100
AcDbEntity
  8
5
100
AcDbLine
 10
301.857369243675
 20
1844.736603812797
 30
0.0
 11
301.8573692436748
 21
769.7366038127898
 31
0.0
  0
INSERT
  5
F98
330
CF8
100
AcDbEntity
  8
5
100
AcDbBlockReference
  2
_Open30
 10
301.857369243675
 20
1857.236603812797
 30
0.0
 41
12.5
 42
12.5
 43
12.5
 50
90.0
  0
INSERT
  5
F99
330
CF8
100
AcDbEntity
  8
5
100
AcDbBlockReference
  2
_Open30
 10
301.8573692436748
 20
757.2366038127898
 30
0.0
 41
12.5
 42
12.5
 43
12.5
 50
270.0
  0
MTEXT
  5
F9A
330
CF8
100
AcDbEntity
  8
5
 62
     2
100
AcDbMText
 10
283.1073692436747
 20
1307.236603812794
 30
0.0
 40
22.5
 41
0.0
 71
     5
 72
     1
  1
1100
 11
0.0000000000000001
 21
1.0
 31
0.0
 73
     1
 44
1.0
  0
POINT
  5
F9B
330
CF8
100
AcDbEntity
  8
DEFPOINTS
 62
     0
100
AcDbPoint
 10
636.0666794087714
 20
1857.236603812797
 30
0.0
  0
POINT
  5
F9C
330
CF8
100
AcDbEntity
  8
DEFPOINTS
 62
     0
100
AcDbPoint
 10
531.0666794087715
 20
757.2366038127898
 30
0.0
  0
POINT
  5
F9D
330
CF8
100
AcDbEntity
  8
DEFPOINTS
 62
     0
100
AcDbPoint
 10
301.8573692436748
 20
757.2366038127898
 30
0.0
  0
ENDBLK
  5
D03
330
CF8
100
AcDbEntity
  8
0
100
AcDbBlockEnd
  0
BLOCK
  5
D0E
330
D04
100
AcDbEntity
  8
0
100
AcDbBlockBegin
  2
*D27
 70
     1
 10
0.0
 20
0.0
 30
0.0
  3
*D27
  1

  0
LINE
  5
F8C
330
D04
100
AcDbEntity
  8
5
100
AcDbLine
 10
352.6677757919715
 20
1057.23660381279
 30
0.0
 11
336.8573692436747
 21
1057.23660381279
 31
0.0
  0
LINE
  5
F8D
330
D04
100
AcDbEntity
  8
5
100
AcDbLine
 10
631.0666794087715
 20
1857.236603812797
 30
0.0
 11
336.8573692436748
 21
1857.236603812797
 31
0.0
  0
LINE
  5
F8E
330
D04
100
AcDbEntity
  8
5
100
AcDbLine
 10
341.8573692436747
 20
1069.73660381279
 30
0.0
 11
341.8573692436748
 21
1844.736603812797
 31
0.0
  0
INSERT
  5
F8F
330
D04
100
AcDbEntity
  8
5
100
AcDbBlockReference
  2
_Open30
 10
341.8573692436747
 20
1057.23660381279
 30
0.0
 41
12.5
 42
12.5
 43
12.5
 50
270.0
  0
INSERT
  5
F90
330
D04
100
AcDbEntity
  8
5
100
AcDbBlockReference
  2
_Open30
 10
341.8573692436748
 20
1857.236603812797
 30
0.0
 41
12.5
 42
12.5
 43
12.5
 50
90.0
  0
MTEXT
  5
F91
330
D04
100
AcDbEntity
  8
5
 62
     2
100
AcDbMText
 10
323.1073692436746
 20
1457.236603812793
 30
0.0
 40
22.5
 41
0.0
 71
     5
 72
     1
  1
800
 11
0.0000000000000001
 21
1.0
 31
0.0
 73
     1
 44
1.0
  0
POINT
  5
F92
330
D04
100
AcDbEntity
  8
DEFPOINTS
 62
     0
100
AcDbPoint
 10
357.6677757919715
 20
1057.23660381279
 30
0.0
  0
POINT
  5
F93
330
D04
100
AcDbEntity
  8
DEFPOINTS
 62
     0
100
AcDbPoint
 10
636.0666794087714
 20
1857.236603812797
 30
0.0
  0
POINT
  5
F94
330
D04
100
AcDbEntity
  8
DEFPOINTS
 62
     0
100
AcDbPoint
 10
341.8573692436748
 20
1857.236603812797
 30
0.0
  0
ENDBLK
  5
D0F
330
D04
100
AcDbEntity
  8
0
100
AcDbBlockEnd
  0
BLOCK
  5
D1A
330
D10
100
AcDbEntity
  8
0
100
AcDbBlockBegin
  2
*D28
 70
     1
 10
0.0
 20
0.0
 30
0.0
  3
*D28
  1

  0
LINE
  5
F83
330
D10
100
AcDbEntity
  8
5
100
AcDbLine
 10
526.0666794087715
 20
757.2366038127898
 30
0.0
 11
336.8573692436748
 21
757.2366038127898
 31
0.0
  0
LINE
  5
F84
330
D10
100
AcDbEntity
  8
5
100
AcDbLine
 10
352.6677757919715
 20
1057.23660381279
 30
0.0
 11
336.8573692436748
 21
1057.23660381279
 31
0.0
  0
LINE
  5
F85
330
D10
100
AcDbEntity
  8
5
100
AcDbLine
 10
341.8573692436748
 20
769.7366038127898
 30
0.0
 11
341.8573692436748
 21
1044.73660381279
 31
0.0
  0
INSERT
  5
F86
330
D10
100
AcDbEntity
  8
5
100
AcDbBlockReference
  2
_Open30
 10
341.8573692436748
 20
757.2366038127898
 30
0.0
 41
12.5
 42
12.5
 43
12.5
 50
270.0
  0
INSERT
  5
F87
330
D10
100
AcDbEntity
  8
5
100
AcDbBlockReference
  2
_Open30
 10
341.8573692436748
 20
1057.23660381279
 30
0.0
 41
12.5
 42
12.5
 43
12.5
 50
90.0
  0
MTEXT
  5
F88
330
D10
100
AcDbEntity
  8
5
 62
     2
100
AcDbMText
 10
323.1073692436747
 20
907.2366038127899
 30
0.0
 40
22.5
 41
0.0
 71
     5
 72
     1
  1
300
 11
0.0000000000000001
 21
1.0
 31
0.0
 73
     1
 44
1.0
  0
POINT
  5
F89
330
D10
100
AcDbEntity
  8
DEFPOINTS
 62
     0
100
AcDbPoint
 10
531.0666794087715
 20
757.2366038127898
 30
0.0
  0
POINT
  5
F8A
330
D10
100
AcDbEntity
  8
DEFPOINTS
 62
     0
100
AcDbPoint
 10
357.6677757919715
 20
1057.23660381279
 30
0.0
  0
POINT
  5
F8B
330
D10
100
AcDbEntity
  8
DEFPOINTS
 62
     0
100
AcDbPoint
 10
341.8573692436748
 20
1057.23660381279
 30
0.0
  0
ENDBLK
  5
D1B
330
D10
100
AcDbEntity
  8
0
100
AcDbBlockEnd
  0
BLOCK
  5
D26
330
D1C
100
AcDbEntity
  8
0
100
AcDbBlockBegin
  2
*D29
 70
     1
 10
0.0
 20
0.0
 30
0.0
  3
*D29
  1

  0
LINE
  5
F7A
330
D1C
100
AcDbEntity
  8
5
100
AcDbLine
 10
436.0666794087714
 20
652.2366038127898
 30
0.0
 11
436.0666794087714
 21
419.1416534493705
 31
0.0
  0
LINE
  5
F7B
330
D1C
100
AcDbEntity
  8
5
100
AcDbLine
 10
836.0666794087714
 20
652.2366038127971
 30
0.0
 11
836.0666794087714
 21
419.1416534493705
 31
0.0
  0
LINE
  5
F7C
330
D1C
100
AcDbEntity
  8
5
100
AcDbLine
 10
448.5666794087714
 20
424.1416534493705
 30
0.0
 11
823.5666794087714
 21
424.1416534493705
 31
0.0
  0
INSERT
  5
F7D
330
D1C
100
AcDbEntity
  8
5
100
AcDbBlockReference
  2
_Open30
 10
436.0666794087714
 20
424.1416534493705
 30
0.0
 41
12.5
 42
12.5
 43
12.5
 50
180.0
  0
INSERT
  5
F7E
330
D1C
100
AcDbEntity
  8
5
100
AcDbBlockReference
  2
_Open30
 10
836.0666794087714
 20
424.1416534493705
 30
0.0
 41
12.5
 42
12.5
 43
12.5
  0
MTEXT
  5
F7F
330
D1C
100
AcDbEntity
  8
5
 62
     2
100
AcDbMText
 10
636.0666794087714
 20
442.8916534493705
 30
0.0
 40
22.5
 41
0.0
 71
     5
 72
     1
  1
□400
 73
     1
 44
1.0
  0
POINT
  5
F80
330
D1C
100
AcDbEntity
  8
DEFPOINTS
 62
     0
100
AcDbPoint
 10
436.0666794087714
 20
657.2366038127898
 30
0.0
  0
POINT
  5
F81
330
D1C
100
AcDbEntity
  8
DEFPOINTS
 62
     0
100
AcDbPoint
 10
836.0666794087714
 20
657.2366038127971
 30
0.0
  0
POINT
  5
F82
330
D1C
100
AcDbEntity
  8
DEFPOINTS
 62
     0
100
AcDbPoint
 10
836.0666794087714
 20
424.1416534493705
 30
0.0
  0
ENDBLK
  5
D27
330
D1C
100
AcDbEntity
  8
0
100
AcDbBlockEnd
  0
BLOCK
  5
D32
330
D28
100
AcDbEntity
  8
0
100
AcDbBlockBegin
  2
*D30
 70
     1
 10
0.0
 20
0.0
 30
0.0
  3
*D30
  1

  0
LINE
  5
F71
330
D28
100
AcDbEntity
  8
5
100
AcDbLine
 10
741.0666794087715
 20
752.2366038127898
 30
0.0
 11
741.0666794087715
 21
475.6170942184386
 31
0.0
  0
LINE
  5
F72
330
D28
100
AcDbEntity
  8
5
100
AcDbLine
 10
531.0666794087715
 20
752.2366038127898
 30
0.0
 11
531.0666794087715
 21
475.6170942184386
 31
0.0
  0
LINE
  5
F73
330
D28
100
AcDbEntity
  8
5
100
AcDbLine
 10
728.5666794087715
 20
480.6170942184386
 30
0.0
 11
543.5666794087715
 21
480.6170942184386
 31
0.0
  0
INSERT
  5
F74
330
D28
100
AcDbEntity
  8
5
100
AcDbBlockReference
  2
_Open30
 10
741.0666794087715
 20
480.6170942184386
 30
0.0
 41
12.5
 42
12.5
 43
12.5
  0
INSERT
  5
F75
330
D28
100
AcDbEntity
  8
5
100
AcDbBlockReference
  2
_Open30
 10
531.0666794087715
 20
480.6170942184386
 30
0.0
 41
12.5
 42
12.5
 43
12.5
 50
180.0
  0
MTEXT
  5
F76
330
D28
100
AcDbEntity
  8
5
 62
     2
100
AcDbMText
 10
636.0666794087714
 20
499.3693087853677
 30
0.0
 40
22.5
 41
0.0
 71
     5
 72
     1
  1
%%c210
 73
     1
 44
1.0
  0
POINT
  5
F77
330
D28
100
AcDbEntity
  8
DEFPOINTS
 62
     0
100
AcDbPoint
 10
741.0666794087715
 20
757.2366038127898
 30
0.0
  0
POINT
  5
F78
330
D28
100
AcDbEntity
  8
DEFPOINTS
 62
     0
100
AcDbPoint
 10
531.0666794087715
 20
757.2366038127898
 30
0.0
  0
POINT
  5
F79
330
D28
100
AcDbEntity
  8
DEFPOINTS
 62
     0
100
AcDbPoint
 10
531.0666794087715
 20
480.6170942184386
 30
0.0
  0
ENDBLK
  5
D33
330
D28
100
AcDbEntity
  8
0
100
AcDbBlockEnd
  0
BLOCK
  5
D3E
330
D34
100
AcDbEntity
  8
0
100
AcDbBlockBegin
  2
*D31
 70
     1
 10
0.0
 20
0.0
 30
0.0
  3
*D31
  1

  0
LINE
  5
F68
330
D34
100
AcDbEntity
  8
5
100
AcDbLine
 10
901.0666794087638
 20
657.2366038127898
 30
0.0
 11
977.6844401074212
 21
657.2366038127898
 31
0.0
  0
LINE
  5
F69
330
D34
100
AcDbEntity
  8
5
100
AcDbLine
 10
901.0666794087715
 20
557.2366038127898
 30
0.0
 11
977.6844401074212
 21
557.2366038127898
 31
0.0
  0
LINE
  5
F6A
330
D34
100
AcDbEntity
  8
5
100
AcDbLine
 10
972.6844401074213
 20
644.7366038127898
 30
0.0
 11
972.6844401074213
 21
569.7366038127898
 31
0.0
  0
INSERT
  5
F6B
330
D34
100
AcDbEntity
  8
5
100
AcDbBlockReference
  2
_Open30
 10
972.6844401074213
 20
657.2366038127898
 30
0.0
 41
12.5
 42
12.5
 43
12.5
 50
90.0
  0
INSERT
  5
F6C
330
D34
100
AcDbEntity
  8
5
100
AcDbBlockReference
  2
_Open30
 10
972.6844401074213
 20
557.2366038127898
 30
0.0
 41
12.5
 42
12.5
 43
12.5
 50
270.0
  0
MTEXT
  5
F6D
330
D34
100
AcDbEntity
  8
5
 62
     2
100
AcDbMText
 10
953.9344401074211
 20
607.23660381279
 30
0.0
 40
22.5
 41
0.0
 71
     5
 72
     1
  1
100
 11
0.0000000000000001
 21
1.0
 31
0.0
 73
     1
 44
1.0
  0
POINT
  5
F6E
330
D34
100
AcDbEntity
  8
DEFPOINTS
 62
     0
100
AcDbPoint
 10
896.0666794087638
 20
657.2366038127898
 30
0.0
  0
POINT
  5
F6F
330
D34
100
AcDbEntity
  8
DEFPOINTS
 62
     0
100
AcDbPoint
 10
896.0666794087714
 20
557.2366038127898
 30
0.0
  0
POINT
  5
F70
330
D34
100
AcDbEntity
  8
DEFPOINTS
 62
     0
100
AcDbPoint
 10
972.6844401074213
 20
557.2366038127898
 30
0.0
  0
ENDBLK
  5
D3F
330
D34
100
AcDbEntity
  8
0
100
AcDbBlockEnd
  0
BLOCK
  5
D4A
330
D40
100
AcDbEntity
  8
0
100
AcDbBlockBegin
  2
*D32
 70
     1
 10
0.0
 20
0.0
 30
0.0
  3
*D32
  1

  0
LINE
  5
F5F
330
D40
100
AcDbEntity
  8
5
100
AcDbLine
 10
961.0666794087714
 20
1057.23660381279
 30
0.0
 11
977.6844401074214
 21
1057.23660381279
 31
0.0
  0
LINE
  5
F60
330
D40
100
AcDbEntity
  8
5
100
AcDbLine
 10
901.0666794087638
 20
657.2366038127898
 30
0.0
 11
977.6844401074212
 21
657.2366038127898
 31
0.0
  0
LINE
  5
F61
330
D40
100
AcDbEntity
  8
5
100
AcDbLine
 10
972.6844401074215
 20
1044.73660381279
 30
0.0
 11
972.6844401074213
 21
669.7366038127898
 31
0.0
  0
INSERT
  5
F62
330
D40
100
AcDbEntity
  8
5
100
AcDbBlockReference
  2
_Open30
 10
972.6844401074215
 20
1057.23660381279
 30
0.0
 41
12.5
 42
12.5
 43
12.5
 50
90.0
  0
INSERT
  5
F63
330
D40
100
AcDbEntity
  8
5
100
AcDbBlockReference
  2
_Open30
 10
972.6844401074213
 20
657.2366038127898
 30
0.0
 41
12.5
 42
12.5
 43
12.5
 50
270.0
  0
MTEXT
  5
F64
330
D40
100
AcDbEntity
  8
5
 62
     2
100
AcDbMText
 10
953.9344401074211
 20
857.2366038127899
 30
0.0
 40
22.5
 41
0.0
 71
     5
 72
     1
  1
400
 11
0.0000000000000001
 21
1.0
 31
0.0
 73
     1
 44
1.0
  0
POINT
  5
F65
330
D40
100
AcDbEntity
  8
DEFPOINTS
 62
     0
100
AcDbPoint
 10
956.0666794087715
 20
1057.23660381279
 30
0.0
  0
POINT
  5
F66
330
D40
100
AcDbEntity
  8
DEFPOINTS
 62
     0
100
AcDbPoint
 10
896.0666794087638
 20
657.2366038127898
 30
0.0
  0
POINT
  5
F67
330
D40
100
AcDbEntity
  8
DEFPOINTS
 62
     0
100
AcDbPoint
 10
972.6844401074213
 20
657.2366038127898
 30
0.0
  0
ENDBLK
  5
D4B
330
D40
100
AcDbEntity
  8
0
100
AcDbBlockEnd
  0
BLOCK
  5
FBC
330
FBB
100
AcDbEntity
  8
0
100
AcDbBlockBegin
  2
Xsec
 70
     2
 10
0.0
 20
0.0
 30
0.0
  3
Xsec
  1

  0
SOLID
  5
FBD
330
FBB
100
AcDbEntity
  8
0
  6
Continuous
 62
     7
100
AcDbTrace
 10
-2.0
 20
0.0
 30
0.0
 11
0.0
 21
0.0
 31
0.0
 12
0.0
 22
-4.0
 32
0.0
 13
0.0
 23
-4.0
 33
0.0
  0
LINE
  5
FBE
330
FBB
100
AcDbEntity
  8
0
  6
Continuous
 62
     7
100
AcDbLine
 10
0.0
 20
-4.0
 30
0.0
 11
-2.0
 21
0.0
 31
0.0
  0
LINE
  5
FBF
330
FBB
100
AcDbEntity
  8
0
  6
Continuous
 62
     7
100
AcDbLine
 10
0.0
 20
0.0
 30
0.0
 11
-5.0
 21
0.0
 31
0.0
  0
LINE
  5
FC0
330
FBB
100
AcDbEntity
  8
0
  6
Continuous
 62
     7
100
AcDbLine
 10
0.0
 20
-4.0
 30
0.0
 11
0.0
 21
0.0
 31
0.0
  0
CIRCLE
  5
FC1
330
FBB
100
AcDbEntity
  8
0
  6
Continuous
 62
     7
100
AcDbCircle
 10
5.0
 20
-2.0
 30
0.0
 40
4.0
  0
ATTDEF
  5
FC2
330
FBB
100
AcDbEntity
  8
0
  6
Continuous
 62
     7
100
AcDbText
 10
5.0
 20
-1.999999999999943
 30
0.0
 40
3.2
  1

 41
1.199999999999999
  7
MSG
 72
     4
 11
5.0
 21
-1.999999999999943
 31
0.0
100
AcDbAttributeDefinition
  3
MARK
  2
XSEC
 70
     0
  0
ENDBLK
  5
FC3
330
FBB
100
AcDbEntity
  8
0
100
AcDbBlockEnd
  0
BLOCK
  5
111B
330
10E9
100
AcDbEntity
  8
0
100
AcDbBlockBegin
  2
*D34
 70
     1
 10
0.0
 20
0.0
 30
0.0
  3
*D34
  1

  0
LINE
  5
110F
330
10E9
100
AcDbEntity
  8
AM_5
100
AcDbLine
 10
543.0666794087715
 20
1750.73660381279
 30
0.0
 11
543.0666794087715
 21
1910.23660381279
 31
0.0
  0
LINE
  5
1110
330
10E9
100
AcDbEntity
  8
AM_5
100
AcDbLine
 10
729.0666794087715
 20
1750.736603812789
 30
0.0
 11
729.0666794087715
 21
1910.23660381279
 31
0.0
  0
LINE
  5
1111
330
10E9
100
AcDbEntity
  8
AM_5
100
AcDbLine
 10
555.5666794087715
 20
1905.23660381279
 30
0.0
 11
716.5666794087715
 21
1905.23660381279
 31
0.0
  0
INSERT
  5
1112
330
10E9
100
AcDbEntity
  8
AM_5
100
AcDbBlockReference
  2
_Open30
 10
543.0666794087715
 20
1905.23660381279
 30
0.0
 41
12.5
 42
12.5
 43
12.5
 50
180.0
  0
INSERT
  5
1113
330
10E9
100
AcDbEntity
  8
AM_5
100
AcDbBlockReference
  2
_Open30
 10
729.0666794087715
 20
1905.23660381279
 30
0.0
 41
12.5
 42
12.5
 43
12.5
  0
MTEXT
  5
1114
330
10E9
100
AcDbEntity
  8
AM_5
 62
     2
100
AcDbMText
 10
636.0666794087714
 20
1923.98660381279
 30
0.0
 40
22.5
 41
0.0
 71
     5
 72
     1
  1
%%c186
 73
     1
 44
1.0
  0
POINT
  5
1115
330
10E9
100
AcDbEntity
  8
DEFPOINTS
 62
     0
100
AcDbPoint
 10
543.0666794087715
 20
1745.73660381279
 30
0.0
  0
POINT
  5
1116
330
10E9
100
AcDbEntity
  8
DEFPOINTS
 62
     0
100
AcDbPoint
 10
729.0666794087715
 20
1745.73660381279
 30
0.0
  0
POINT
  5
1117
330
10E9
100
AcDbEntity
  8
DEFPOINTS
 62
     0
100
AcDbPoint
 10
729.0666794087715
 20
1905.23660381279
 30
0.0
  0
ENDBLK
  5
111C
330
10E9
100
AcDbEntity
  8
0
100
AcDbBlockEnd
  0
BLOCK
  5
1148
330
1144
100
AcDbEntity
  8
0
100
AcDbBlockBegin
  2
*S35
 70
     1
 10
0.0
 20
0.0
 30
0.0
  3
*S35
  1

  0
CIRCLE
  5
1145
330
1144
100
AcDbEntity
  8
AM_12
 62
     4
100
AcDbCircle
 10
735.8072152172753
 20
1407.328686847461
 30
0.0
 40
7.875
  0
LINE
  5
1146
330
1144
100
AcDbEntity
  8
AM_12
 62
     4
100
AcDbLine
 10
727.9322152172754
 20
1399.453686847461
 30
0.0
 11
743.6822152172753
 21
1415.203686847461
 31
0.0
  0
LINE
  5
1147
330
1144
100
AcDbEntity
  8
AM_12
 62
     4
100
AcDbLine
 10
727.9322152172754
 20
1415.203686847461
 30
0.0
 11
743.6822152172753
 21
1399.453686847461
 31
0.0
  0
ENDBLK
  5
1149
330
1144
100
AcDbEntity
  8
0
100
AcDbBlockEnd
  0
BLOCK
  5
1150
330
114B
100
AcDbEntity
  8
0
100
AcDbBlockBegin
  2
*S36
 70
     1
 10
0.0
 20
0.0
 30
0.0
  3
*S36
  1

  0
LINE
  5
114C
330
114B
100
AcDbEntity
  8
AM_5
100
AcDbLine
 10
825.8530498183372
 20
1465.457769629985
 30
0.0
 11
746.0168424200746
 21
1415.581515216012
 31
0.0
  0
TRACE
  5
114D
330
114B
100
AcDbEntity
  8
AM_5
100
AcDbTrace
 10
744.9182139965967
 20
1417.340074027234
 30
0.0
 11
747.1154708435527
 21
1413.822956404791
 31
0.0
 12
732.6592620376715
 22
1407.23660381279
 32
0.0
 13
732.6592620376715
 23
1407.23660381279
 33
0.0
  0
MTEXT
  5
114E
330
114B
100
AcDbEntity
  8
AM_5
 62
     2
100
AcDbMText
 10
847.0025520904755
 20
1478.670546018421
 30
0.0
 40
17.5
 41
0.0
 71
     5
 72
     5
  1
1
  7
ACJISTS
 73
     1
 44
1.0
  0
CIRCLE
  5
114F
330
114B
100
AcDbEntity
  8
AM_5
 62
     3
100
AcDbCircle
 10
847.0025520904755
 20
1478.670546018421
 30
0.0
 40
24.9375
  0
ENDBLK
  5
1151
330
114B
100
AcDbEntity
  8
0
100
AcDbBlockEnd
  0
BLOCK
  5
116F
330
1153
100
AcDbEntity
  8
0
100
AcDbBlockBegin
  2
*S37
 70
     1
 10
0.0
 20
0.0
 30
0.0
  3
*S37
  1

  0
MTEXT
  5
1154
330
1153
100
AcDbEntity
  8
8
 62
     7
100
AcDbMText
 10
830.2469030459604
 20
2081.041229870889
 30
0.0
 40
22.5
 41
49.49999999999999
 71
     2
 72
     5
  1
1
  7
ACJISTS
 73
     1
 44
1.0
  0
LINE
  5
1155
330
1153
100
AcDbEntity
  8
8
 62
     1
100
AcDbLine
 10
859.4969030459603
 20
2087.791229870889
 30
0.0
 11
859.4969030459603
 21
2013.541229870889
 31
0.0
  0
MTEXT
  5
1156
330
1153
100
AcDbEntity
  8
8
 62
     7
100
AcDbMText
 10
971.9969030459605
 20
2081.041229870889
 30
0.0
 40
22.5
 41
216.0
 71
     2
 72
     5
  1
本体
  7
ACJISTS
 73
     1
 44
1.0
  0
LINE
  5
1157
330
1153
100
AcDbEntity
  8
8
 62
     1
100
AcDbLine
 10
1084.49690304596
 20
2087.791229870889
 30
0.0
 11
1084.49690304596
 21
2013.541229870889
 31
0.0
  0
MTEXT
  5
1158
330
1153
100
AcDbEntity
  8
8
 62
     7
100
AcDbMText
 10
1113.74690304596
 20
2081.041229870889
 30
0.0
 40
22.5
 41
49.5
 71
     2
 72
     5
  1
1
  7
ACJISTS
 73
     1
 44
1.0
  0
LINE
  5
1159
330
1153
100
AcDbEntity
  8
8
 62
     1
100
AcDbLine
 10
1142.99690304596
 20
2087.791229870889
 30
0.0
 11
1142.99690304596
 21
2013.541229870889
 31
0.0
  0
MTEXT
  5
115A
330
1153
100
AcDbEntity
  8
8
 62
     7
100
AcDbMText
 10
1200.49690304596
 20
2081.041229870889
 30
0.0
 40
22.5
 41
106.0
 71
     2
 72
     5
  1
FCD
  7
ACJISTS
 73
     1
 44
1.0
  0
LINE
  5
115B
330
1153
100
AcDbEntity
  8
8
 62
     1
100
AcDbLine
 10
1257.99690304596
 20
2087.791229870889
 30
0.0
 11
1257.99690304596
 21
2013.541229870889
 31
0.0
  0
MTEXT
  5
115C
330
1153
100
AcDbEntity
  8
8
 62
     7
100
AcDbMText
 10
1307.99690304596
 20
2081.041229870889
 30
0.0
 40
22.5
 41
91.0
 71
     2
 72
     5
  1
40
  7
ACJISTS
 73
     1
 44
1.0
  0
LINE
  5
115D
330
1153
100
AcDbEntity
  8
8
 62
     1
100
AcDbLine
 10
1357.99690304596
 20
2087.791229870889
 30
0.0
 11
1357.99690304596
 21
2013.541229870889
 31
0.0
  0
MTEXT
  5
115E
330
1153
100
AcDbEntity
  8
8
 62
     7
100
AcDbMText
 10
1457.996903045961
 20
2081.041229870889
 30
0.0
 40
22.5
 41
191.0
 71
     2
 72
     5
  1
防錆塗装の上、樹脂系塗料塗装
  7
ACJISTS
 73
     1
 44
1.0
  0
LINE
  5
115F
330
1153
100
AcDbEntity
  8
8
 62
     1
100
AcDbLine
 10
800.9969030459604
 20
2087.791229870889
 30
0.0
 11
1557.99690304596
 21
2087.791229870889
 31
0.0
  0
MTEXT
  5
1160
330
1153
100
AcDbEntity
  8
8
 62
     7
100
AcDbMText
 10
830.2469030459604
 20
2118.166229870889
 30
0.0
 40
22.5
 41
49.49999999999999
 71
     2
 72
     5
  1
部番
  7
ACJISTS
 73
     1
 44
1.0
  0
LINE
  5
1161
330
1153
100
AcDbEntity
  8
8
 62
     1
100
AcDbLine
 10
859.4969030459603
 20
2124.916229870889
 30
0.0
 11
859.4969030459603
 21
2087.791229870889
 31
0.0
  0
MTEXT
  5
1162
330
1153
100
AcDbEntity
  8
8
 62
     7
100
AcDbMText
 10
971.9969030459605
 20
2118.166229870889
 30
0.0
 40
22.5
 41
216.0
 71
     2
 72
     5
  1
部  品  名
  7
ACJISTS
 73
     1
 44
1.0
  0
LINE
  5
1163
330
1153
100
AcDbEntity
  8
8
 62
     1
100
AcDbLine
 10
1084.49690304596
 20
2124.916229870889
 30
0.0
 11
1084.49690304596
 21
2087.791229870889
 31
0.0
  0
MTEXT
  5
1164
330
1153
100
AcDbEntity
  8
8
 62
     7
100
AcDbMText
 10
1113.74690304596
 20
2118.166229870889
 30
0.0
 40
22.5
 41
49.5
 71
     2
 72
     5
  1
数量
  7
ACJISTS
 73
     1
 44
1.0
  0
LINE
  5
1165
330
1153
100
AcDbEntity
  8
8
 62
     1
100
AcDbLine
 10
1142.99690304596
 20
2124.916229870889
 30
0.0
 11
1142.99690304596
 21
2087.791229870889
 31
0.0
  0
MTEXT
  5
1166
330
1153
100
AcDbEntity
  8
8
 62
     7
100
AcDbMText
 10
1200.49690304596
 20
2118.166229870889
 30
0.0
 40
22.5
 41
106.0
 71
     2
 72
     5
  1
材  質
  7
ACJISTS
 73
     1
 44
1.0
  0
LINE
  5
1167
330
1153
100
AcDbEntity
  8
8
 62
     1
100
AcDbLine
 10
1257.99690304596
 20
2124.916229870889
 30
0.0
 11
1257.99690304596
 21
2087.791229870889
 31
0.0
  0
MTEXT
  5
1168
330
1153
100
AcDbEntity
  8
8
 62
     7
100
AcDbMText
 10
1307.99690304596
 20
2118.166229870889
 30
0.0
 40
22.5
 41
91.0
 71
     2
 72
     5
  1
重量
  7
ACJISTS
 73
     1
 44
1.0
  0
LINE
  5
1169
330
1153
100
AcDbEntity
  8
8
 62
     1
100
AcDbLine
 10
1357.99690304596
 20
2124.916229870889
 30
0.0
 11
1357.99690304596
 21
2087.791229870889
 31
0.0
  0
MTEXT
  5
116A
330
1153
100
AcDbEntity
  8
8
 62
     7
100
AcDbMText
 10
1457.996903045961
 20
2118.166229870889
 30
0.0
 40
22.5
 41
191.0
 71
     2
 72
     5
  1
備　　考
  7
ACJISTS
 73
     1
 44
1.0
  0
LINE
  5
116B
330
1153
100
AcDbEntity
  8
8
 62
     7
100
AcDbLine
 10
800.9969030459604
 20
2124.916229870889
 30
0.0
 11
1557.99690304596
 21
2124.916229870889
 31
0.0
  0
LINE
  5
116C
330
1153
100
AcDbEntity
  8
8
 62
     7
100
AcDbLine
 10
1557.99690304596
 20
2124.916229870889
 30
0.0
 11
1557.99690304596
 21
2013.541229870889
 31
0.0
  0
LINE
  5
116D
330
1153
100
AcDbEntity
  8
8
 62
     7
100
AcDbLine
 10
1557.99690304596
 20
2013.541229870889
 30
0.0
 11
800.9969030459604
 21
2013.541229870889
 31
0.0
  0
LINE
  5
116E
330
1153
100
AcDbEntity
  8
8
 62
     7
100
AcDbLine
 10
800.9969030459604
 20
2013.541229870889
 30
0.0
 11
800.9969030459604
 21
2124.916229870889
 31
0.0
  0
ENDBLK
  5
1170
330
1153
100
AcDbEntity
  8
0
100
AcDbBlockEnd
  0
BLOCK
  5
1179
330
1172
100
AcDbEntity
  8
0
100
AcDbBlockBegin
  2
*S38
 70
     1
 10
0.0
 20
0.0
 30
0.0
  3
*S38
  1

  0
LINE
  5
1173
330
1172
100
AcDbEntity
  8
AM_5
100
AcDbLine
 10
1001.641169080683
 20
1649.57364196996
 30
0.0
 11
761.8412182932818
 21
1649.57364196996
 31
0.0
  0
LINE
  5
1174
330
1172
100
AcDbEntity
  8
AM_5
100
AcDbLine
 10
761.8412182932818
 20
1649.57364196996
 30
0.0
 11
662.063146008054
 21
1576.321839581671
 31
0.0
  0
LINE
  5
1175
330
1172
100
AcDbEntity
  8
AM_5
100
AcDbLine
 10
662.063146008054
 20
1576.321839581671
 30
0.0
 11
649.3671972037532
 21
1567.001143043398
 31
0.0
  0
LINE
  5
1176
330
1172
100
AcDbEntity
  8
AM_5
100
AcDbLine
 10
660.8360530350111
 20
1577.993292943541
 30
0.0
 11
649.3671972037532
 21
1567.001143043398
 31
0.0
  0
LINE
  5
1177
330
1172
100
AcDbEntity
  8
AM_5
100
AcDbLine
 10
649.3671972037532
 20
1567.001143043398
 30
0.0
 11
663.2902389810968
 21
1574.6503862198
 31
0.0
  0
MTEXT
  5
1178
330
1172
100
AcDbEntity
  8
AM_5
 62
     2
100
AcDbMText
 10
777.5912182932818
 20
1657.44864196996
 30
0.0
 40
15.75
 41
0.0
 71
     7
 72
     5
  1
2-%%c33　トゥインクルアイ
  7
ACJISTS
 73
     1
 44
1.0
  0
ENDBLK
  5
117A
330
1172
100
AcDbEntity
  8
0
100
AcDbBlockEnd
  0
ENDSEC
  0
SECTION
  2
ENTITIES
  0
INSERT
  5
C12
330
1F
100
AcDbEntity
  8
0
100
AcDbBlockReference
 66
     1
  2
IGS-TITLE-NO2
 10
1557.996903045961
 20
124.9162298708897
 30
0.0
 41
5.0
 42
5.0
 43
5.0
1001
GENIUS_GENOREF_13
1005
CDF
  0
ATTRIB
  5
C13
330
C12
100
AcDbEntity
  8
RAHM3
100
AcDbText
 10
821.698969480033
 20
284.6526748618201
 30
0.0
 40
20.0
  1
1:5
100
AcDbAttribute
  2
GEN-TITLE-SCA
 70
     0
  0
ATTRIB
  5
C14
330
C12
100
AcDbEntity
  8
RAHM3
100
AcDbText
 10
1192.54690304596
 20
273.6162298708897
 30
0.0
 40
25.0
  1
車止
100
AcDbAttribute
  2
ＴＩＴＬＥ
 70
     0
  0
ATTRIB
  5
C15
330
C12
100
AcDbEntity
  8
RAHM3
100
AcDbText
 10
1200.182512266758
 20
233.9381455064589
 30
0.0
 40
15.0
  1
ＩＧＰ－２００Ｔ－００００
100
AcDbAttribute
  2
ｃｏｄｅ
 70
     0
  0
ATTRIB
  5
C16
330
C12
100
AcDbEntity
  8
RAHM3
100
AcDbText
 10
1204.272870576145
 20
198.9381455064225
 30
0.0
 40
15.0
  1

100
AcDbAttribute
  2
件名
 70
     0
  0
ATTRIB
  5
C17
330
C12
100
AcDbEntity
  8
RAHM3
100
AcDbText
 10
1192.54690304596
 20
133.6162298708533
 30
0.0
 40
25.0
  1
Ｔ２１Ａ００４４２
100
AcDbAttribute
  2
Ｎｏ．
 70
     0
  0
ATTRIB
  5
C18
330
C12
100
AcDbEntity
  8
RAHM3
100
AcDbText
 10
1055.74690304596
 20
211.9516764765225
 30
0.0
 40
20.0
  1
あらい
100
AcDbAttribute
  2
ＤＲ
 70
     0
  0
ATTRIB
  5
C19
330
C12
100
AcDbEntity
  8
RAHM3
100
AcDbText
 10
1049.300093604693
 20
188.7662298708896
 30
0.0
 40
15.0
  1
９８，４，１７
 41
0.8000000000000001
100
AcDbAttribute
  2
ｄａｔｅ
 70
     0
  0
SEQEND
  5
C1A
330
C12
100
AcDbEntity
  8
0
  0
INSERT
  5
C1B
330
1F
100
AcDbEntity
  8
0
100
AcDbBlockReference
  2
IGS_A3-T
 10
122.9969030459424
 20
74.91622987088942
 30
0.0
 41
5.0
 42
5.0
 43
5.0
1001
GENIUS_GENSCREG_13
1040
5.0
1040
1.0
1011
122.9969030459424
1021
74.91622987088942
1031
0.0
1011
1507.996903045942
1021
2074.91622987089
1031
0.0
1001
GENIUS_GENODEF_13
1002
{
1000
HIER
1070
     0
1002
}
1002
{
1000
MANEDIT
1070
     0
1002
}
1002
{
1000
NOSEL
1070
     0
1002
}
1002
{
1000
BEHIND
1070
     0
1002
}
1002
{
1000
REACTOR
1002
}
1001
GENIUS_GENOBJ-N-SDF_13
1002
{
1000
OWNER
1000
GEN
1002
}
1001
GENIUS_GENOREF_13
1005
CDF
  0
LINE
  5
C1C
330
1F
100
AcDbEntity
  8
0
100
AcDbLine
 10
1283.913958283153
 20
1494.864871435761
 30
0.0
 11
1258.032053772893
 21
1494.864871435759
 31
0.0
  0
LINE
  5
C1D
330
1F
100
AcDbEntity
  8
0
100
AcDbLine
 10
1216.321375654244
 20
1413.272288806857
 30
0.0
 11
1216.321375654255
 21
1383.272288806857
 31
0.0
  0
LINE
  5
C1E
330
1F
100
AcDbEntity
  8
0
100
AcDbLine
 10
1187.321375654241
 20
1424.154193317097
 30
0.0
 11
1187.321375654244
 21
1415.772288806856
 31
0.0
  0
LINE
  5
C1F
330
1F
100
AcDbEntity
  8
0
100
AcDbLine
 10
1191.321375654244
 20
1414.772288806856
 30
0.0
 11
1187.321375654244
 21
1414.772288806856
 31
0.0
  0
LINE
  5
C20
330
1F
100
AcDbEntity
  8
0
100
AcDbLine
 10
1191.321375654244
 20
1415.772288806856
 30
0.0
 11
1187.321375654244
 21
1415.772288806856
 31
0.0
  0
LINE
  5
C21
330
1F
100
AcDbEntity
  8
0
100
AcDbLine
 10
1191.321375654255
 20
1381.772288806856
 30
0.0
 11
1187.321375654255
 21
1381.772288806856
 31
0.0
  0
LINE
  5
C22
330
1F
100
AcDbEntity
  8
0
100
AcDbLine
 10
1191.321375654255
 20
1380.772288806856
 30
0.0
 11
1187.321375654255
 21
1380.772288806856
 31
0.0
  0
LINE
  5
C23
330
1F
100
AcDbEntity
  8
0
100
AcDbLine
 10
1191.321375654254
 20
1383.272288806856
 30
0.0
 11
1191.321375654255
 21
1380.772288806856
 31
0.0
  0
LINE
  5
C24
330
1F
100
AcDbEntity
  8
0
100
AcDbLine
 10
1191.321375654244
 20
1415.772288806856
 30
0.0
 11
1191.321375654244
 21
1413.272288806856
 31
0.0
  0
ARC
  5
C25
330
1F
100
AcDbEntity
  8
0
100
AcDbCircle
 10
1254.383875654206
 20
1398.272288806883
 30
0.0
 40
69.06249999995671
100
AcDbArc
 50
166.1775457619657
 51
193.8224542380821
  0
LINE
  5
C26
330
1F
100
AcDbEntity
  8
0
100
AcDbLine
 10
1216.321375654244
 20
1413.272288806857
 30
0.0
 11
1191.321375654244
 21
1413.272288806856
 31
0.0
  0
LINE
  5
C27
330
1F
100
AcDbEntity
  8
0
100
AcDbLine
 10
1216.321375654255
 20
1383.272288806857
 30
0.0
 11
1191.321375654254
 21
1383.272288806856
 31
0.0
  0
INSERT
  5
C28
330
1F
100
AcDbEntity
  8
8
 62
     3
100
AcDbBlockReference
  2
*X21
 10
1734.90749961317
 20
1118.972901059982
 30
0.0
 41
-0.5
 42
0.5
 43
0.5
1001
GENIUS_GENODEF_13
1002
{
1000
HIER
1070
     0
1002
}
1002
{
1000
MANEDIT
1070
     0
1002
}
1002
{
1000
NOSEL
1070
     0
1002
}
1002
{
1000
BEHIND
1070
     0
1002
}
1002
{
1000
REACTOR
1002
}
1001
GENIUS_GENOBJ-N-HTC_13
1002
{
1000
OWNER
1000
GEN
1002
}
1001
GENIUS_GENHATCH_13
1002
{
1000
DATA
1040
45.0
1042
1.25
1000
_U
1070
     0
1011
1204.5239334492
1021
1405.928336510933
1031
0.0
1002
}
1002
{
1000
UCS
1010
0.0
1020
0.0
1030
0.0
1010
1.0
1020
0.0
1030
0.0
1010
0.0
1020
1.0
1030
0.0
1002
}
1001
ACAD
1000
HATCH
1002
{
1070
    19
1000
_U
1040
10.0
1040
0.7853981633974483
1070
     0
1002
}
  0
LINE
  5
C29
330
1F
100
AcDbEntity
  8
0
100
AcDbLine
 10
1213.203280164496
 20
1468.9829669255
 30
0.0
 11
1187.321375654241
 21
1424.154193317097
 31
0.0
  0
LINE
  5
C2A
330
1F
100
AcDbEntity
  8
0
100
AcDbLine
 10
1258.032053772893
 20
1494.864871435759
 30
0.0
 11
1213.203280164496
 21
1468.9829669255
 31
0.0
  0
ARC
  5
C2B
330
1F
100
AcDbEntity
  8
0
100
AcDbCircle
 10
1283.913958283159
 20
1398.27228880686
 30
0.0
 40
82.00000000001891
100
AcDbArc
 50
90.00000000000325
 51
169.4597140347954
  0
LINE
  5
C2C
330
1F
100
AcDbEntity
  8
0
100
AcDbLine
 10
1258.03205377291
 20
1301.679706177941
 30
0.0
 11
1283.913958283163
 21
1301.679706177942
 31
0.0
  0
LINE
  5
C2D
330
1F
100
AcDbEntity
  8
0
100
AcDbLine
 10
1187.321375654258
 20
1372.390384296589
 30
0.0
 11
1213.20328016451
 21
1327.561610688188
 31
0.0
  0
LINE
  5
C2E
330
1F
100
AcDbEntity
  8
0
100
AcDbLine
 10
1213.20328016451
 20
1327.561610688188
 30
0.0
 11
1258.03205377291
 21
1301.679706177941
 31
0.0
  0
LINE
  5
C2F
330
1F
100
AcDbEntity
  8
0
100
AcDbLine
 10
1187.321375654255
 20
1380.772288806856
 30
0.0
 11
1187.321375654258
 21
1372.390384296589
 31
0.0
  0
ARC
  5
C30
330
1F
100
AcDbEntity
  8
0
100
AcDbCircle
 10
1283.913958283159
 20
1398.27228880686
 30
0.0
 40
82.00000000001891
100
AcDbArc
 50
190.5402859652097
 51
270.0000000000017
  0
DIMENSION
  5
C3A
330
1F
100
AcDbEntity
  8
5
100
AcDbDimension
  2
*D24
 10
536.0666794087714
 20
1955.23660381279
 30
0.0
 11
636.0666794087714
 21
1973.988818379719
 31
0.0
 70
    32
  1
%%c<>
 71
     5
 42
200.0
  3
IGS
100
AcDbAlignedDimension
 13
736.0666794087714
 23
1757.23660381279
 33
0.0
 14
536.0666794087714
 24
1757.236603812797
 34
0.0
100
AcDbRotatedDimension
1001
GENIUS_GENDTOL_13
1000

1000
JS7
1000

1040
0.0
1001
ACAD
1000
DSTYLE
1002
{
1070
    40
1040
5.0
1070
   178
1070
     2
1002
}
  0
DIMENSION
  5
C3B
330
1F
100
AcDbEntity
  8
5
100
AcDbDimension
  2
*D25
 10
381.8573692436748
 20
1557.236603812826
 30
0.0
 11
363.1073692436745
 21
1307.236603812812
 31
0.0
 70
    32
  1
<>
 71
     5
 42
500.0000000000293
  3
IGS
100
AcDbAlignedDimension
 13
436.0666794087714
 23
1057.236603812797
 33
0.0
 14
606.0666794087715
 24
1557.236603812826
 34
0.0
 50
90.0
100
AcDbRotatedDimension
1001
GENIUS_GENDREL_13
1005
C3D
1005
0
1040
10.0
1001
GENIUS_GENDTOL_13
1000

1000
JS7
1000

1040
0.0
1001
ACAD
1000
DSTYLE
1002
{
1070
    40
1040
5.0
1070
   178
1070
     2
1002
}
  0
DIMENSION
  5
C3C
330
1F
100
AcDbEntity
  8
5
100
AcDbDimension
  2
*D26
 10
301.8573692436748
 20
757.2366038127898
 30
0.0
 11
283.1073692436747
 21
1307.236603812794
 31
0.0
 70
    32
  1
<>
 71
     5
 42
1100.000000000007
  3
IGS
100
AcDbAlignedDimension
 13
636.0666794087714
 23
1857.236603812797
 33
0.0
 14
531.0666794087715
 24
757.2366038127898
 34
0.0
 50
90.0
100
AcDbRotatedDimension
1001
GENIUS_GENDREL_13
1005
C3D
1005
0
1040
10.0
1001
GENIUS_GENDTOL_13
1000

1000
JS7
1000

1040
0.0
1001
ACAD
1000
DSTYLE
1002
{
1070
    40
1040
5.0
1070
   178
1070
     2
1002
}
  0
DIMENSION
  5
C3D
330
1F
100
AcDbEntity
  8
5
100
AcDbDimension
  2
*D27
 10
341.8573692436748
 20
1857.236603812797
 30
0.0
 11
323.1073692436746
 21
1457.236603812793
 31
0.0
 70
    32
  1
<>
 71
     5
 42
800.0000000000074
  3
IGS
100
AcDbAlignedDimension
 13
357.6677757919715
 23
1057.23660381279
 33
0.0
 14
636.0666794087714
 24
1857.236603812797
 34
0.0
 50
90.0
100
AcDbRotatedDimension
1001
GENIUS_GENDREL_13
1005
C3E
1005
C3B
1040
0.0
1001
GENIUS_GENDTOL_13
1000

1000
JS7
1000

1040
0.0
1001
ACAD
1000
DSTYLE
1002
{
1070
    40
1040
5.0
1070
   178
1070
     2
1002
}
  0
DIMENSION
  5
C3E
330
1F
100
AcDbEntity
  8
5
100
AcDbDimension
  2
*D28
 10
341.8573692436748
 20
1057.23660381279
 30
0.0
 11
323.1073692436747
 21
907.2366038127899
 31
0.0
 70
    32
  1
<>
 71
     5
 42
299.9999999999998
  3
IGS
100
AcDbAlignedDimension
 13
531.0666794087715
 23
757.2366038127898
 33
0.0
 14
357.6677757919715
 24
1057.23660381279
 34
0.0
 50
90.0
100
AcDbRotatedDimension
1001
GENIUS_GENDREL_13
1005
0
1005
C3D
1040
0.0
1001
GENIUS_GENDTOL_13
1000

1000
JS7
1000

1040
0.0
1001
ACAD
1000
DSTYLE
1002
{
1070
    40
1040
5.0
1070
   178
1070
     2
1002
}
  0
DIMENSION
  5
C3F
330
1F
100
AcDbEntity
  8
5
100
AcDbDimension
  2
*D29
 10
836.0666794087714
 20
424.1416534493705
 30
0.0
 11
636.0666794087714
 21
442.8916534493705
 31
0.0
 70
    32
  1
□<>
 71
     5
 42
400.0
  3
IGS
100
AcDbAlignedDimension
 13
436.0666794087714
 23
657.2366038127898
 33
0.0
 14
836.0666794087714
 24
657.2366038127971
 34
0.0
100
AcDbRotatedDimension
1001
GENIUS_GENDREL_13
1005
C40
1005
0
1040
10.0
1001
GENIUS_GENDTOL_13
1000

1000
JS7
1000

1040
0.0
1001
ACAD
1000
DSTYLE
1002
{
1070
    40
1040
5.0
1070
   178
1070
     2
1002
}
  0
DIMENSION
  5
C40
330
1F
100
AcDbEntity
  8
5
100
AcDbDimension
  2
*D30
 10
531.0666794087715
 20
480.6170942184386
 30
0.0
 11
636.0666794087714
 21
499.3693087853677
 31
0.0
 70
    32
  1
%%c<>
 71
     5
 42
210.0
  3
IGS
100
AcDbAlignedDimension
 13
741.0666794087715
 23
757.2366038127898
 33
0.0
 14
531.0666794087715
 24
757.2366038127898
 34
0.0
100
AcDbRotatedDimension
1001
GENIUS_GENDREL_13
1005
0
1005
C3F
1040
0.0
1001
GENIUS_GENDTOL_13
1000

1000
JS7
1000

1040
0.0
1001
ACAD
1000
DSTYLE
1002
{
1070
    40
1040
5.0
1070
   178
1070
     2
1002
}
  0
DIMENSION
  5
C41
330
1F
100
AcDbEntity
  8
5
100
AcDbDimension
  2
*D31
 10
972.6844401074213
 20
557.2366038127898
 30
0.0
 11
953.9344401074211
 21
607.23660381279
 31
0.0
 70
    32
  1
<>
 71
     5
 42
100.0
  3
IGS
100
AcDbAlignedDimension
 13
896.0666794087638
 23
657.2366038127898
 33
0.0
 14
896.0666794087714
 24
557.2366038127898
 34
0.0
 50
90.0
100
AcDbRotatedDimension
1001
GENIUS_GENDREL_13
1005
C42
1005
0
1040
0.0
1001
GENIUS_GENDTOL_13
1000

1000
JS7
1000

1040
0.0
1001
ACAD
1000
DSTYLE
1002
{
1070
    40
1040
5.0
1070
   178
1070
     2
1002
}
  0
DIMENSION
  5
C42
330
1F
100
AcDbEntity
  8
5
100
AcDbDimension
  2
*D32
 10
972.6844401074213
 20
657.2366038127898
 30
0.0
 11
953.9344401074211
 21
857.2366038127899
 31
0.0
 70
    32
  1
<>
 71
     5
 42
399.9999999999999
  3
IGS
100
AcDbAlignedDimension
 13
956.0666794087715
 23
1057.23660381279
 33
0.0
 14
896.0666794087638
 24
657.2366038127898
 34
0.0
 50
90.0
100
AcDbRotatedDimension
1001
GENIUS_GENDREL_13
1005
0
1005
C41
1040
0.0
1001
GENIUS_GENDTOL_13
1000

1000
JS7
1000

1040
0.0
1001
ACAD
1000
DSTYLE
1002
{
1070
    40
1040
5.0
1070
   178
1070
     2
1002
}
  0
ARC
  5
C43
330
1F
100
AcDbEntity
  8
0
100
AcDbCircle
 10
1283.913958283153
 20
1398.27228880686
 30
0.0
 40
82.00000000001891
100
AcDbArc
 50
270.0
 51
349.459714034793
  0
INSERT
  5
C44
330
1F
100
AcDbEntity
  8
8
 62
     3
100
AcDbBlockReference
  2
*X21
 10
832.9204169531562
 20
1118.97290105996
 30
0.0
 41
0.5
 42
0.5
 43
0.5
1001
GENIUS_GENODEF_13
1002
{
1000
HIER
1070
     0
1002
}
1002
{
1000
MANEDIT
1070
     0
1002
}
1002
{
1000
NOSEL
1070
     0
1002
}
1002
{
1000
BEHIND
1070
     0
1002
}
1002
{
1000
REACTOR
1002
}
1001
GENIUS_GENOBJ-N-HTC_13
1002
{
1000
OWNER
1000
GEN
1002
}
1001
GENIUS_GENHATCH_13
1002
{
1000
DATA
1040
45.0
1042
1.25
1000
_U
1070
     0
1011
1363.303983117112
1021
1405.928336510937
1031
0.0
1002
}
1002
{
1000
UCS
1010
0.0
1020
0.0
1030
0.0
1010
1.0
1020
0.0
1030
0.0
1010
0.0
1020
1.0
1030
0.0
1002
}
1001
ACAD
1000
HATCH
1002
{
1070
    19
1000
_U
1040
10.0
1040
0.7853981633974483
1070
     0
1002
}
  0
LINE
  5
C45
330
1F
100
AcDbEntity
  8
0
100
AcDbLine
 10
1380.506540912058
 20
1380.77228880686
 30
0.0
 11
1380.506540912056
 21
1372.390384296594
 31
0.0
  0
LINE
  5
C46
330
1F
100
AcDbEntity
  8
0
100
AcDbLine
 10
1376.506540912059
 20
1383.27228880686
 30
0.0
 11
1376.506540912058
 21
1380.77228880686
 31
0.0
  0
ARC
  5
C47
330
1F
100
AcDbEntity
  8
0
100
AcDbCircle
 10
1313.444040912106
 20
1398.272288806885
 30
0.0
 40
69.06249999995671
100
AcDbArc
 50
346.1775457619215
 51
13.82245423803747
  0
LINE
  5
C48
330
1F
100
AcDbEntity
  8
0
100
AcDbLine
 10
1351.506540912059
 20
1383.27228880686
 30
0.0
 11
1376.506540912059
 21
1383.27228880686
 31
0.0
1001
GENIUS_GENOREF_13
1005
CDD
  0
LINE
  5
C49
330
1F
100
AcDbEntity
  8
0
100
AcDbLine
 10
1351.506540912067
 20
1413.27228880686
 30
0.0
 11
1376.506540912067
 21
1413.27228880686
 31
0.0
1001
GENIUS_GENOREF_13
1005
CDD
  0
LINE
  5
C4A
330
1F
100
AcDbEntity
  8
0
100
AcDbLine
 10
1376.506540912058
 20
1380.77228880686
 30
0.0
 11
1380.506540912058
 21
1380.77228880686
 31
0.0
1001
GENIUS_GENOREF_13
1005
CDD
  0
LINE
  5
C4B
330
1F
100
AcDbEntity
  8
0
100
AcDbLine
 10
1376.506540912068
 20
1415.77228880686
 30
0.0
 11
1380.506540912068
 21
1415.77228880686
 31
0.0
1001
GENIUS_GENOREF_13
1005
CDD
  0
LINE
  5
C4C
330
1F
100
AcDbEntity
  8
0
100
AcDbLine
 10
1376.506540912058
 20
1381.772288806861
 30
0.0
 11
1380.506540912058
 21
1381.772288806861
 31
0.0
1001
GENIUS_GENOREF_13
1005
CDD
  0
LINE
  5
C4D
330
1F
100
AcDbEntity
  8
0
100
AcDbLine
 10
1376.506540912067
 20
1414.772288806861
 30
0.0
 11
1380.506540912067
 21
1414.772288806861
 31
0.0
1001
GENIUS_GENOREF_13
1005
CDD
  0
LINE
  5
C4E
330
1F
100
AcDbEntity
  8
0
100
AcDbLine
 10
1351.506540912067
 20
1413.27228880686
 30
0.0
 11
1351.506540912059
 21
1383.27228880686
 31
0.0
  0
LINE
  5
C4F
330
1F
100
AcDbEntity
  8
0
100
AcDbLine
 10
1376.506540912068
 20
1415.77228880686
 30
0.0
 11
1376.506540912067
 21
1413.27228880686
 31
0.0
  0
ARC
  5
C50
330
1F
100
AcDbEntity
  8
0
100
AcDbCircle
 10
1283.913958283153
 20
1398.27228880686
 30
0.0
 40
82.00000000001891
100
AcDbArc
 50
10.540285965207
 51
90.0
  0
LINE
  5
C51
330
1F
100
AcDbEntity
  8
0
100
AcDbLine
 10
1309.795862793407
 20
1301.679706177942
 30
0.0
 11
1283.913958283154
 21
1301.679706177942
 31
0.0
  0
LINE
  5
C52
330
1F
100
AcDbEntity
  8
0
100
AcDbLine
 10
1354.624636401805
 20
1327.561610688192
 30
0.0
 11
1309.795862793407
 21
1301.679706177942
 31
0.0
  0
LINE
  5
C53
330
1F
100
AcDbEntity
  8
0
100
AcDbLine
 10
1380.506540912056
 20
1372.390384296594
 30
0.0
 11
1354.624636401805
 21
1327.561610688192
 31
0.0
  0
LINE
  5
C54
330
1F
100
AcDbEntity
  8
0
100
AcDbLine
 10
1380.50654091207
 20
1424.154193317101
 30
0.0
 11
1380.506540912068
 21
1415.77228880686
 31
0.0
  0
LINE
  5
C55
330
1F
100
AcDbEntity
  8
0
100
AcDbLine
 10
1354.624636401813
 20
1468.982966925503
 30
0.0
 11
1380.50654091207
 21
1424.154193317101
 31
0.0
  0
LINE
  5
C56
330
1F
100
AcDbEntity
  8
0
100
AcDbLine
 10
1309.795862793414
 20
1494.864871435761
 30
0.0
 11
1354.624636401813
 21
1468.982966925503
 31
0.0
  0
LINE
  5
C57
330
1F
100
AcDbEntity
  8
0
100
AcDbLine
 10
1283.913958283154
 20
1494.864871435761
 30
0.0
 11
1309.795862793414
 21
1494.864871435761
 31
0.0
  0
CIRCLE
  5
C58
330
1F
100
AcDbEntity
  8
0
100
AcDbCircle
 10
636.0666794087714
 20
1557.236603812826
 30
0.0
 40
17.5
  0
CIRCLE
  5
C59
330
1F
100
AcDbEntity
  8
0
100
AcDbCircle
 10
636.0666794087714
 20
1557.236603812826
 30
0.0
 40
16.5
  0
LINE
  5
C5A
330
1F
100
AcDbEntity
  8
7
100
AcDbLine
 10
606.0666794087715
 20
1557.236603812826
 30
0.0
 11
666.0666794087715
 21
1557.236603812826
 31
0.0
  0
LINE
  5
C5D
330
1F
100
AcDbEntity
  8
AM_7
100
AcDbLine
 10
1398.913958283154
 20
1398.272288806859
 30
0.0
 11
1168.913958283154
 21
1398.272288806859
 31
0.0
1001
GENIUS_GENOREF_13
1005
CDD
  0
LINE
  5
C5E
330
1F
100
AcDbEntity
  8
AM_7
100
AcDbLine
 10
1283.913958283154
 20
1283.272288806856
 30
0.0
 11
1283.913958283154
 21
1513.272288806856
 31
0.0
1001
GENIUS_GENOREF_13
1005
CDD
  0
LINE
  5
C5F
330
1F
100
AcDbEntity
  8
4A
100
AcDbLine
 10
376.0666794087715
 20
557.2366038127898
 30
0.0
 11
896.0666794087714
 21
557.2366038127898
 31
0.0
  0
LINE
  5
C60
330
1F
100
AcDbEntity
  8
4A
100
AcDbLine
 10
376.0666794087715
 20
657.2366038127898
 30
0.0
 11
896.0666794087714
 21
657.2366038127898
 31
0.0
  0
LINE
  5
C61
330
1F
100
AcDbEntity
  8
4A
100
AcDbLine
 10
436.0666794087714
 20
1057.23660381279
 30
0.0
 11
436.0666794087714
 21
657.2366038127898
 31
0.0
  0
LINE
  5
C62
330
1F
100
AcDbEntity
  8
4A
100
AcDbLine
 10
836.0666794087714
 20
657.2366038127898
 30
0.0
 11
836.0666794087714
 21
1057.23660381279
 31
0.0
  0
LINE
  5
C63
330
1F
100
AcDbEntity
  8
8
 62
     3
100
AcDbLine
 10
936.8684776177715
 20
1057.23660381279
 30
0.0
 11
956.0666794087715
 21
1038.03840202179
 31
0.0
  0
LINE
  5
C64
330
1F
100
AcDbEntity
  8
8
 62
     3
100
AcDbLine
 10
953.5351442844717
 20
1040.569937146089
 30
0.0
 11
956.0666794087715
 21
1043.10147227039
 31
0.0
  0
LINE
  5
C65
330
1F
100
AcDbEntity
  8
4A
100
AcDbLine
 10
741.0666794087715
 20
1057.23660381279
 30
0.0
 11
956.0666794087715
 21
1057.23660381279
 31
0.0
  0
TEXT
  5
C66
330
1F
100
AcDbEntity
  8
1
  6
Continuous
 62
     7
100
AcDbText
 10
947.813238052638
 20
1061.07541137709
 30
0.0
 40
20.0
  1
ＧＬ
 11
947.813238052638
 21
1061.07541137709
 31
0.0
100
AcDbText
 73
     1
  0
LINE
  5
C67
330
1F
100
AcDbEntity
  8
5
100
AcDbLine
 10
376.0666794087715
 20
1057.23660381279
 30
0.0
 11
357.6677757919715
 21
1057.23660381279
 31
0.0
  0
LINE
  5
C68
330
1F
100
AcDbEntity
  8
4A
100
AcDbLine
 10
531.0666794087715
 20
1057.23660381279
 30
0.0
 11
376.0666794087715
 21
1057.23660381279
 31
0.0
  0
LINE
  5
C69
330
1F
100
AcDbEntity
  8
4A
100
AcDbLine
 10
896.0666794087714
 20
657.2366038127898
 30
0.0
 11
896.0666794087714
 21
557.2366038127898
 31
0.0
  0
LINE
  5
C6A
330
1F
100
AcDbEntity
  8
4A
100
AcDbLine
 10
376.0666794087715
 20
657.2366038127898
 30
0.0
 11
376.0666794087715
 21
557.2366038127898
 31
0.0
  0
LINE
  5
C6B
330
1F
100
AcDbEntity
  8
8
 62
     3
100
AcDbLine
 10
460.6854668120716
 20
627.2366038127898
 30
0.0
 11
452.6469910390715
 21
657.2366038127898
 31
0.0
  0
LINE
  5
C6C
330
1F
100
AcDbEntity
  8
8
 62
     3
100
AcDbLine
 10
449.9674991147714
 20
587.2366038127899
 30
0.0
 11
458.0059748877715
 21
557.2366038127898
 31
0.0
  0
LINE
  5
C6D
330
1F
100
AcDbEntity
  8
8
 62
     3
100
AcDbLine
 10
468.7239425849716
 20
657.2366038127898
 30
0.0
 11
441.9290233418714
 21
557.2366038127898
 31
0.0
  0
LINE
  5
C6E
330
1F
100
AcDbEntity
  8
8
 62
     3
100
AcDbLine
 10
510.6854668120716
 20
627.2366038127898
 30
0.0
 11
502.6469910390715
 21
657.2366038127898
 31
0.0
  0
LINE
  5
C6F
330
1F
100
AcDbEntity
  8
8
 62
     3
100
AcDbLine
 10
499.9674991147714
 20
587.2366038127899
 30
0.0
 11
508.0059748877715
 21
557.2366038127898
 31
0.0
  0
LINE
  5
C70
330
1F
100
AcDbEntity
  8
8
 62
     3
100
AcDbLine
 10
518.7239425849716
 20
657.2366038127898
 30
0.0
 11
491.9290233418714
 21
557.2366038127898
 31
0.0
  0
LINE
  5
C71
330
1F
100
AcDbEntity
  8
8
 62
     3
100
AcDbLine
 10
560.6854668120716
 20
627.2366038127898
 30
0.0
 11
552.6469910390715
 21
657.2366038127898
 31
0.0
  0
LINE
  5
C72
330
1F
100
AcDbEntity
  8
8
 62
     3
100
AcDbLine
 10
549.9674991147714
 20
587.2366038127899
 30
0.0
 11
558.0059748877715
 21
557.2366038127898
 31
0.0
  0
LINE
  5
C73
330
1F
100
AcDbEntity
  8
8
 62
     3
100
AcDbLine
 10
568.7239425849716
 20
657.2366038127898
 30
0.0
 11
541.9290233418714
 21
557.2366038127898
 31
0.0
  0
LINE
  5
C74
330
1F
100
AcDbEntity
  8
8
 62
     3
100
AcDbLine
 10
610.6854668120716
 20
627.2366038127898
 30
0.0
 11
602.6469910390715
 21
657.2366038127898
 31
0.0
  0
LINE
  5
C75
330
1F
100
AcDbEntity
  8
8
 62
     3
100
AcDbLine
 10
599.9674991147717
 20
587.2366038127899
 30
0.0
 11
608.0059748877715
 21
557.2366038127898
 31
0.0
  0
LINE
  5
C76
330
1F
100
AcDbEntity
  8
8
 62
     3
100
AcDbLine
 10
618.7239425849716
 20
657.2366038127898
 30
0.0
 11
591.9290233418714
 21
557.2366038127898
 31
0.0
  0
LINE
  5
C77
330
1F
100
AcDbEntity
  8
8
 62
     3
100
AcDbLine
 10
660.6854668120716
 20
627.2366038127898
 30
0.0
 11
652.6469910390715
 21
657.2366038127898
 31
0.0
  0
LINE
  5
C78
330
1F
100
AcDbEntity
  8
8
 62
     3
100
AcDbLine
 10
649.9674991147717
 20
587.2366038127899
 30
0.0
 11
658.0059748877715
 21
557.2366038127898
 31
0.0
  0
LINE
  5
C79
330
1F
100
AcDbEntity
  8
8
 62
     3
100
AcDbLine
 10
668.7239425849716
 20
657.2366038127898
 30
0.0
 11
641.9290233418714
 21
557.2366038127898
 31
0.0
  0
LINE
  5
C7A
330
1F
100
AcDbEntity
  8
8
 62
     3
100
AcDbLine
 10
710.6854668120716
 20
627.2366038127898
 30
0.0
 11
702.6469910390715
 21
657.2366038127898
 31
0.0
  0
LINE
  5
C7B
330
1F
100
AcDbEntity
  8
8
 62
     3
100
AcDbLine
 10
699.9674991147714
 20
587.2366038127899
 30
0.0
 11
708.0059748877715
 21
557.2366038127898
 31
0.0
  0
LINE
  5
C7C
330
1F
100
AcDbEntity
  8
8
 62
     3
100
AcDbLine
 10
718.7239425849716
 20
657.2366038127898
 30
0.0
 11
691.9290233418714
 21
557.2366038127898
 31
0.0
  0
LINE
  5
C7D
330
1F
100
AcDbEntity
  8
8
 62
     3
100
AcDbLine
 10
760.6854668120716
 20
627.2366038127898
 30
0.0
 11
752.6469910390715
 21
657.2366038127898
 31
0.0
  0
LINE
  5
C7E
330
1F
100
AcDbEntity
  8
8
 62
     3
100
AcDbLine
 10
749.9674991147714
 20
587.2366038127899
 30
0.0
 11
758.0059748877715
 21
557.2366038127898
 31
0.0
  0
LINE
  5
C7F
330
1F
100
AcDbEntity
  8
8
 62
     3
100
AcDbLine
 10
768.7239425849716
 20
657.2366038127898
 30
0.0
 11
741.9290233418714
 21
557.2366038127898
 31
0.0
  0
LINE
  5
C80
330
1F
100
AcDbEntity
  8
8
 62
     3
100
AcDbLine
 10
810.6854668120716
 20
627.2366038127898
 30
0.0
 11
802.6469910390714
 21
657.2366038127898
 31
0.0
  0
LINE
  5
C81
330
1F
100
AcDbEntity
  8
8
 62
     3
100
AcDbLine
 10
799.9674991147714
 20
587.2366038127899
 30
0.0
 11
808.0059748877715
 21
557.2366038127898
 31
0.0
  0
LINE
  5
C82
330
1F
100
AcDbEntity
  8
8
 62
     3
100
AcDbLine
 10
818.7239425849716
 20
657.2366038127898
 30
0.0
 11
791.9290233418714
 21
557.2366038127898
 31
0.0
  0
LINE
  5
C83
330
1F
100
AcDbEntity
  8
8
 62
     3
100
AcDbLine
 10
860.6854668120716
 20
627.2366038127898
 30
0.0
 11
852.6469910390714
 21
657.2366038127898
 31
0.0
  0
LINE
  5
C84
330
1F
100
AcDbEntity
  8
8
 62
     3
100
AcDbLine
 10
849.9674991147715
 20
587.2366038127899
 30
0.0
 11
858.0059748877715
 21
557.2366038127898
 31
0.0
  0
LINE
  5
C85
330
1F
100
AcDbEntity
  8
8
 62
     3
100
AcDbLine
 10
868.7239425849716
 20
657.2366038127898
 30
0.0
 11
841.9290233418715
 21
557.2366038127898
 31
0.0
  0
LINE
  5
C86
330
1F
100
AcDbEntity
  8
8
 62
     3
100
AcDbLine
 10
410.6854668120716
 20
627.2366038127898
 30
0.0
 11
402.6469910390715
 21
657.2366038127898
 31
0.0
  0
LINE
  5
C87
330
1F
100
AcDbEntity
  8
8
 62
     3
100
AcDbLine
 10
399.9674991147715
 20
587.2366038127899
 30
0.0
 11
408.0059748877715
 21
557.2366038127898
 31
0.0
  0
LINE
  5
C88
330
1F
100
AcDbEntity
  8
8
 62
     3
100
AcDbLine
 10
418.7239425849716
 20
657.2366038127898
 30
0.0
 11
391.9290233418715
 21
557.2366038127898
 31
0.0
  0
LINE
  5
C89
330
1F
100
AcDbEntity
  8
8
 62
     3
100
AcDbLine
 10
626.5069548227716
 20
757.2366038127898
 30
0.0
 11
524.8223040226717
 21
657.2366038127898
 31
0.0
  0
LINE
  5
C8A
330
1F
100
AcDbEntity
  8
8
 62
     3
100
AcDbLine
 10
638.8996614924715
 20
757.2366038127898
 30
0.0
 11
538.8996614924715
 21
657.2366038127898
 31
0.0
  0
LINE
  5
C8B
330
1F
100
AcDbEntity
  8
8
 62
     3
100
AcDbLine
 10
836.0666794087714
 20
954.4036217290896
 30
0.0
 11
741.0666794087715
 21
859.4036217290897
 31
0.0
  0
LINE
  5
C8C
330
1F
100
AcDbEntity
  8
8
 62
     3
100
AcDbLine
 10
836.0666794087714
 20
963.3244675534898
 30
0.0
 11
741.0666794087715
 21
869.8983710358898
 31
0.0
  0
LINE
  5
C8D
330
1F
100
AcDbEntity
  8
8
 62
     3
100
AcDbLine
 10
741.0666794087715
 20
882.0310387270898
 30
0.0
 11
836.0666794087714
 21
977.0310387270898
 31
0.0
  0
LINE
  5
C8E
330
1F
100
AcDbEntity
  8
8
 62
     3
100
AcDbLine
 10
516.2722444944716
 20
657.2366038127898
 30
0.0
 11
616.2722444944716
 21
757.2366038127898
 31
0.0
  0
LINE
  5
C8F
330
1F
100
AcDbEntity
  8
8
 62
     3
100
AcDbLine
 10
774.8508882571716
 20
1057.23660381279
 30
0.0
 11
741.0666794087715
 21
1023.45239496439
 31
0.0
  0
LINE
  5
C90
330
1F
100
AcDbEntity
  8
8
 62
     3
100
AcDbLine
 10
741.0666794087715
 20
1034.76610346339
 30
0.0
 11
763.5371797581715
 21
1057.23660381279
 31
0.0
  0
LINE
  5
C91
330
1F
100
AcDbEntity
  8
8
 62
     3
100
AcDbLine
 10
752.2234712591717
 20
1057.23660381279
 30
0.0
 11
741.0666794087715
 21
1046.079811962289
 31
0.0
  0
LINE
  5
C92
330
1F
100
AcDbEntity
  8
8
 62
     3
100
AcDbLine
 10
836.0666794087714
 20
790.3548484937897
 30
0.0
 11
702.9484347276715
 21
657.2366038127898
 31
0.0
  0
LINE
  5
C93
330
1F
100
AcDbEntity
  8
8
 62
     3
100
AcDbLine
 10
680.3210177297715
 20
657.2366038127898
 30
0.0
 11
836.0666794087714
 21
812.9822654917898
 31
0.0
  0
LINE
  5
C94
330
1F
100
AcDbEntity
  8
8
 62
     3
100
AcDbLine
 10
836.0666794087714
 20
799.2756943181899
 30
0.0
 11
691.6347262287716
 21
657.2366038127898
 31
0.0
  0
LINE
  5
C95
330
1F
100
AcDbEntity
  8
8
 62
     3
100
AcDbLine
 10
531.0666794087715
 20
1000.12858519759
 30
0.0
 11
436.0666794087714
 21
905.1285851975897
 31
0.0
  0
LINE
  5
C96
330
1F
100
AcDbEntity
  8
8
 62
     3
100
AcDbLine
 10
531.0666794087715
 20
988.8148766985898
 30
0.0
 11
436.0666794087714
 21
893.8148766985896
 31
0.0
  0
LINE
  5
C97
330
1F
100
AcDbEntity
  8
8
 62
     3
100
AcDbLine
 10
531.0666794087715
 20
977.5011681995898
 30
0.0
 11
436.0666794087714
 21
882.5011681995899
 31
0.0
  0
LINE
  5
C98
330
1F
100
AcDbEntity
  8
8
 62
     3
100
AcDbLine
 10
531.0666794087715
 20
824.7661034633898
 30
0.0
 11
436.0666794087714
 21
729.7661034633899
 31
0.0
  0
LINE
  5
C99
330
1F
100
AcDbEntity
  8
8
 62
     3
100
AcDbLine
 10
531.0666794087715
 20
836.0798119622897
 30
0.0
 11
436.0666794087714
 21
741.0798119622897
 31
0.0
  0
LINE
  5
C9A
330
1F
100
AcDbEntity
  8
8
 62
     3
100
AcDbLine
 10
436.0666794087714
 20
718.4523949643898
 30
0.0
 11
531.0666794087715
 21
813.4523949643897
 31
0.0
  0
LINE
  5
C9B
330
1F
100
AcDbEntity
  8
7
100
AcDbLine
 10
636.0666794087714
 20
1880.62946173919
 30
0.0
 11
636.0666794087714
 21
534.2650900409897
 31
0.0
  0
LINE
  5
C9C
330
1F
100
AcDbEntity
  8
8
 62
     3
100
AcDbLine
 10
836.8684776177715
 20
1026.90880130459
 30
0.0
 11
857.6065483972715
 21
1006.17073052509
 31
0.0
  0
LINE
  5
C9D
330
1F
100
AcDbEntity
  8
8
 62
     3
100
AcDbLine
 10
836.8684776177715
 20
1057.23660381279
 30
0.0
 11
886.8684776177715
 21
1007.23660381279
 31
0.0
  0
LINE
  5
C9E
330
1F
100
AcDbEntity
  8
8
 62
     3
100
AcDbLine
 10
870.2018109511714
 20
1023.90327047939
 30
0.0
 11
903.5351442844717
 21
1057.23660381279
 31
0.0
  0
LINE
  5
C9F
330
1F
100
AcDbEntity
  8
8
 62
     3
100
AcDbLine
 10
853.5351442844717
 20
1040.569937146089
 30
0.0
 11
870.2018109511714
 21
1057.23660381279
 31
0.0
  0
LINE
  5
CA0
330
1F
100
AcDbEntity
  8
8
 62
     3
100
AcDbLine
 10
920.2018109511714
 20
1040.569937146089
 30
0.0
 11
953.5351442844717
 21
1007.23660381279
 31
0.0
  0
LINE
  5
CA1
330
1F
100
AcDbEntity
  8
8
 62
     3
100
AcDbLine
 10
903.5351442844717
 20
1023.90327047939
 30
0.0
 11
920.2018109511714
 21
1007.23660381279
 31
0.0
  0
LINE
  5
CA2
330
1F
100
AcDbEntity
  8
8
 62
     3
100
AcDbLine
 10
886.8684776177715
 20
1007.23660381279
 30
0.0
 11
936.8684776177715
 21
1057.23660381279
 31
0.0
  0
LINE
  5
CA3
330
1F
100
AcDbEntity
  8
1
  6
Continuous
 62
     7
100
AcDbLine
 10
741.0666794087715
 20
757.2366038127898
 30
0.0
 11
741.0666794087715
 21
1105.73660381279
 31
0.0
  0
LINE
  5
CA4
330
1F
100
AcDbEntity
  8
1
  6
Continuous
 62
     7
100
AcDbLine
 10
531.0666794087715
 20
757.2366038127898
 30
0.0
 11
531.0666794087715
 21
1105.73660381279
 31
0.0
  0
LINE
  5
CA5
330
1F
100
AcDbEntity
  8
1
  6
Continuous
 62
     7
100
AcDbLine
 10
531.0666794087715
 20
757.2366038127898
 30
0.0
 11
741.0666794087715
 21
757.2366038127898
 31
0.0
  0
LINE
  5
CA6
330
1F
100
AcDbEntity
  8
1
  6
Continuous
 62
     7
100
AcDbLine
 10
732.6592620376715
 20
1677.23660381279
 30
0.0
 11
539.4740967798716
 21
1677.23660381279
 31
0.0
  0
LINE
  5
CA7
330
1F
100
AcDbEntity
  8
1
  6
Continuous
 62
     7
100
AcDbLine
 10
661.9485839189715
 20
1677.23660381279
 30
0.0
 11
661.9485839189715
 21
1137.23660381279
 31
0.0
  0
LINE
  5
CA8
330
1F
100
AcDbEntity
  8
1
  6
Continuous
 62
     7
100
AcDbLine
 10
706.7773575273715
 20
1677.23660381279
 30
0.0
 11
706.7773575273715
 21
1137.23660381279
 31
0.0
  0
LINE
  5
CA9
330
1F
100
AcDbEntity
  8
1
  6
Continuous
 62
     7
100
AcDbLine
 10
732.6592620376715
 20
1677.23660381279
 30
0.0
 11
732.6592620376715
 21
1137.23660381279
 31
0.0
  0
LINE
  5
CAA
330
1F
100
AcDbEntity
  8
1
  6
Continuous
 62
     7
100
AcDbLine
 10
610.1847748984714
 20
1677.23660381279
 30
0.0
 11
610.1847748984714
 21
1137.23660381279
 31
0.0
  0
LINE
  5
CAB
330
1F
100
AcDbEntity
  8
1
  6
Continuous
 62
     7
100
AcDbLine
 10
565.3560012900716
 20
1677.23660381279
 30
0.0
 11
565.3560012900716
 21
1137.23660381279
 31
0.0
  0
LINE
  5
CAC
330
1F
100
AcDbEntity
  8
1
  6
Continuous
 62
     7
100
AcDbLine
 10
539.4740967798716
 20
1677.23660381279
 30
0.0
 11
539.4740967798716
 21
1137.23660381279
 31
0.0
  0
LINE
  5
CAD
330
1F
100
AcDbEntity
  8
1
  6
Continuous
 62
     7
100
AcDbLine
 10
736.0666794087714
 20
1108.73660381279
 30
0.0
 11
736.0666794087714
 21
1137.23660381279
 31
0.0
  0
LINE
  5
CAE
330
1F
100
AcDbEntity
  8
1
  6
Continuous
 62
     7
100
AcDbLine
 10
536.0666794087714
 20
1108.73660381279
 30
0.0
 11
536.0666794087714
 21
1137.23660381279
 31
0.0
  0
ARC
  5
CAF
330
1F
100
AcDbEntity
  8
1
  6
Continuous
 62
     7
100
AcDbCircle
 10
534.5666794087715
 20
1108.73660381279
 30
0.0
 40
1.5
100
AcDbArc
 50
270.0
 51
0.0
  0
ARC
  5
CB0
330
1F
100
AcDbEntity
  8
1
  6
Continuous
 62
     7
100
AcDbCircle
 10
737.5666794087715
 20
1108.73660381279
 30
0.0
 40
1.5
100
AcDbArc
 50
180.0
 51
270.0
  0
ARC
  5
CB1
330
1F
100
AcDbEntity
  8
1
  6
Continuous
 62
     7
100
AcDbCircle
 10
532.5666794087715
 20
1105.73660381279
 30
0.0
 40
1.5
100
AcDbArc
 50
90.0
 51
180.0
  0
LINE
  5
CB2
330
1F
100
AcDbEntity
  8
1
  6
Continuous
 62
     7
100
AcDbLine
 10
532.5666794087715
 20
1107.23660381279
 30
0.0
 11
739.5666794087714
 21
1107.23660381279
 31
0.0
  0
ARC
  5
CB3
330
1F
100
AcDbEntity
  8
1
  6
Continuous
 62
     7
100
AcDbCircle
 10
739.5666794087714
 20
1105.73660381279
 30
0.0
 40
1.5
100
AcDbArc
 50
0.0
 51
90.0
  0
ARC
  5
CB4
330
1F
100
AcDbEntity
  8
1
  6
Continuous
 62
     7
100
AcDbCircle
 10
541.5666794087715
 20
1678.73660381279
 30
0.0
 40
1.5
100
AcDbArc
 50
270.0
 51
0.0
  0
LINE
  5
CB5
330
1F
100
AcDbEntity
  8
1
  6
Continuous
 62
     7
100
AcDbLine
 10
543.0666794087715
 20
1678.73660381279
 30
0.0
 11
543.0666794087715
 21
1685.73660381279
 31
0.0
  0
ARC
  5
CB6
330
1F
100
AcDbEntity
  8
1
  6
Continuous
 62
     7
100
AcDbCircle
 10
541.5666794087715
 20
1685.73660381279
 30
0.0
 40
1.5
100
AcDbArc
 50
0.0
 51
90.0
  0
ARC
  5
CB7
330
1F
100
AcDbEntity
  8
1
  6
Continuous
 62
     7
100
AcDbCircle
 10
541.5666794087715
 20
1708.73660381279
 30
0.0
 40
1.5
100
AcDbArc
 50
270.0
 51
0.0
  0
LINE
  5
CB8
330
1F
100
AcDbEntity
  8
1
  6
Continuous
 62
     7
100
AcDbLine
 10
543.0666794087715
 20
1708.73660381279
 30
0.0
 11
543.0666794087715
 21
1715.736603812789
 31
0.0
  0
ARC
  5
CB9
330
1F
100
AcDbEntity
  8
1
  6
Continuous
 62
     7
100
AcDbCircle
 10
541.5666794087715
 20
1715.736603812789
 30
0.0
 40
1.5
100
AcDbArc
 50
0.0
 51
90.0
  0
ARC
  5
CBA
330
1F
100
AcDbEntity
  8
1
  6
Continuous
 62
     7
100
AcDbCircle
 10
541.5666794087715
 20
1738.73660381279
 30
0.0
 40
1.5
100
AcDbArc
 50
270.0
 51
0.0
  0
LINE
  5
CBB
330
1F
100
AcDbEntity
  8
1
  6
Continuous
 62
     7
100
AcDbLine
 10
543.0666794087715
 20
1738.73660381279
 30
0.0
 11
543.0666794087715
 21
1745.73660381279
 31
0.0
  0
ARC
  5
CBC
330
1F
100
AcDbEntity
  8
1
  6
Continuous
 62
     7
100
AcDbCircle
 10
541.5666794087715
 20
1745.73660381279
 30
0.0
 40
1.5
100
AcDbArc
 50
0.0
 51
90.0
  0
ARC
  5
CBD
330
1F
100
AcDbEntity
  8
1
  6
Continuous
 62
     7
100
AcDbCircle
 10
730.5666794087715
 20
1678.73660381279
 30
0.0
 40
1.5
100
AcDbArc
 50
180.0
 51
270.0
  0
LINE
  5
CBE
330
1F
100
AcDbEntity
  8
1
  6
Continuous
 62
     7
100
AcDbLine
 10
729.0666794087715
 20
1678.73660381279
 30
0.0
 11
729.0666794087715
 21
1685.73660381279
 31
0.0
  0
ARC
  5
CBF
330
1F
100
AcDbEntity
  8
1
  6
Continuous
 62
     7
100
AcDbCircle
 10
730.5666794087715
 20
1685.73660381279
 30
0.0
 40
1.5
100
AcDbArc
 50
90.0
 51
180.0
  0
ARC
  5
CC0
330
1F
100
AcDbEntity
  8
1
  6
Continuous
 62
     7
100
AcDbCircle
 10
730.5666794087715
 20
1708.73660381279
 30
0.0
 40
1.5
100
AcDbArc
 50
180.0
 51
270.0
  0
LINE
  5
CC1
330
1F
100
AcDbEntity
  8
1
  6
Continuous
 62
     7
100
AcDbLine
 10
729.0666794087715
 20
1708.73660381279
 30
0.0
 11
729.0666794087715
 21
1715.736603812789
 31
0.0
  0
ARC
  5
CC2
330
1F
100
AcDbEntity
  8
1
  6
Continuous
 62
     7
100
AcDbCircle
 10
730.5666794087715
 20
1715.736603812789
 30
0.0
 40
1.5
100
AcDbArc
 50
90.0
 51
180.0
  0
ARC
  5
CC3
330
1F
100
AcDbEntity
  8
1
  6
Continuous
 62
     7
100
AcDbCircle
 10
730.5666794087715
 20
1738.73660381279
 30
0.0
 40
1.5
100
AcDbArc
 50
180.0
 51
270.0
  0
LINE
  5
CC4
330
1F
100
AcDbEntity
  8
1
  6
Continuous
 62
     7
100
AcDbLine
 10
729.0666794087715
 20
1738.73660381279
 30
0.0
 11
729.0666794087715
 21
1745.73660381279
 31
0.0
  0
ARC
  5
CC5
330
1F
100
AcDbEntity
  8
1
  6
Continuous
 62
     7
100
AcDbCircle
 10
730.5666794087715
 20
1745.73660381279
 30
0.0
 40
1.5
100
AcDbArc
 50
90.0
 51
180.0
  0
ARC
  5
CC6
330
1F
100
AcDbEntity
  8
1
  6
Continuous
 62
     7
100
AcDbCircle
 10
537.5666794087715
 20
1688.73660381279
 30
0.0
 40
1.5
100
AcDbArc
 50
180.0
 51
270.0
  0
LINE
  5
CC7
330
1F
100
AcDbEntity
  8
1
  6
Continuous
 62
     7
100
AcDbLine
 10
536.0666794087714
 20
1688.73660381279
 30
0.0
 11
536.0666794087714
 21
1705.73660381279
 31
0.0
  0
LINE
  5
CC8
330
1F
100
AcDbEntity
  8
1
  6
Continuous
 62
     7
100
AcDbLine
 10
537.5666794087715
 20
1687.236603812789
 30
0.0
 11
734.5666794087715
 21
1687.236603812789
 31
0.0
  0
ARC
  5
CC9
330
1F
100
AcDbEntity
  8
1
  6
Continuous
 62
     7
100
AcDbCircle
 10
537.5666794087715
 20
1705.73660381279
 30
0.0
 40
1.5
100
AcDbArc
 50
90.0
 51
180.0
  0
LINE
  5
CCA
330
1F
100
AcDbEntity
  8
1
  6
Continuous
 62
     7
100
AcDbLine
 10
537.5666794087715
 20
1707.23660381279
 30
0.0
 11
734.5666794087715
 21
1707.23660381279
 31
0.0
  0
ARC
  5
CCB
330
1F
100
AcDbEntity
  8
1
  6
Continuous
 62
     7
100
AcDbCircle
 10
537.5666794087715
 20
1718.736603812789
 30
0.0
 40
1.5
100
AcDbArc
 50
180.0
 51
270.0
  0
LINE
  5
CCC
330
1F
100
AcDbEntity
  8
1
  6
Continuous
 62
     7
100
AcDbLine
 10
536.0666794087714
 20
1718.736603812789
 30
0.0
 11
536.0666794087714
 21
1735.73660381279
 31
0.0
  0
LINE
  5
CCD
330
1F
100
AcDbEntity
  8
1
  6
Continuous
 62
     7
100
AcDbLine
 10
537.5666794087715
 20
1717.236603812789
 30
0.0
 11
734.5666794087715
 21
1717.236603812789
 31
0.0
  0
ARC
  5
CCE
330
1F
100
AcDbEntity
  8
1
  6
Continuous
 62
     7
100
AcDbCircle
 10
537.5666794087715
 20
1735.73660381279
 30
0.0
 40
1.5
100
AcDbArc
 50
90.0
 51
180.0
  0
LINE
  5
CCF
330
1F
100
AcDbEntity
  8
1
  6
Continuous
 62
     7
100
AcDbLine
 10
537.5666794087715
 20
1737.23660381279
 30
0.0
 11
734.5666794087715
 21
1737.23660381279
 31
0.0
  0
ARC
  5
CD0
330
1F
100
AcDbEntity
  8
1
  6
Continuous
 62
     7
100
AcDbCircle
 10
734.5666794087715
 20
1748.73660381279
 30
0.0
 40
1.5
100
AcDbArc
 50
270.0
 51
0.0
  0
LINE
  5
CD1
330
1F
100
AcDbEntity
  8
1
  6
Continuous
 62
     7
100
AcDbLine
 10
734.5666794087715
 20
1747.23660381279
 30
0.0
 11
537.5666794087715
 21
1747.23660381279
 31
0.0
  0
LINE
  5
CD2
330
1F
100
AcDbEntity
  8
1
  6
Continuous
 62
     7
100
AcDbLine
 10
736.0666794087714
 20
1748.73660381279
 30
0.0
 11
736.0666794087714
 21
1757.23660381279
 31
0.0
  0
ARC
  5
CD3
330
1F
100
AcDbEntity
  8
1
  6
Continuous
 62
     7
100
AcDbCircle
 10
537.5666794087715
 20
1748.73660381279
 30
0.0
 40
1.5
100
AcDbArc
 50
180.0
 51
270.0
  0
LINE
  5
CD4
330
1F
100
AcDbEntity
  8
1
  6
Continuous
 62
     7
100
AcDbLine
 10
536.0666794087714
 20
1748.73660381279
 30
0.0
 11
536.0666794087714
 21
1757.23660381279
 31
0.0
  0
ARC
  5
CD5
330
1F
100
AcDbEntity
  8
1
  6
Continuous
 62
     7
100
AcDbCircle
 10
734.5666794087715
 20
1688.73660381279
 30
0.0
 40
1.5
100
AcDbArc
 50
270.0
 51
0.0
  0
LINE
  5
CD6
330
1F
100
AcDbEntity
  8
1
  6
Continuous
 62
     7
100
AcDbLine
 10
736.0666794087714
 20
1688.73660381279
 30
0.0
 11
736.0666794087714
 21
1705.73660381279
 31
0.0
  0
ARC
  5
CD7
330
1F
100
AcDbEntity
  8
1
  6
Continuous
 62
     7
100
AcDbCircle
 10
734.5666794087715
 20
1705.73660381279
 30
0.0
 40
1.5
100
AcDbArc
 50
0.0
 51
90.0
  0
ARC
  5
CD8
330
1F
100
AcDbEntity
  8
1
  6
Continuous
 62
     7
100
AcDbCircle
 10
734.5666794087715
 20
1718.736603812789
 30
0.0
 40
1.5
100
AcDbArc
 50
270.0
 51
0.0
  0
LINE
  5
CD9
330
1F
100
AcDbEntity
  8
1
  6
Continuous
 62
     7
100
AcDbLine
 10
736.0666794087714
 20
1718.736603812789
 30
0.0
 11
736.0666794087714
 21
1735.73660381279
 31
0.0
  0
ARC
  5
CDA
330
1F
100
AcDbEntity
  8
1
  6
Continuous
 62
     7
100
AcDbCircle
 10
734.5666794087715
 20
1735.73660381279
 30
0.0
 40
1.5
100
AcDbArc
 50
0.0
 51
90.0
  0
LINE
  5
CDB
330
1F
100
AcDbEntity
  8
1
  6
Continuous
 62
     7
100
AcDbLine
 10
736.0666794087714
 20
1137.23660381279
 30
0.0
 11
536.0666794087714
 21
1137.23660381279
 31
0.0
  0
ARC
  5
CDC
330
1F
100
AcDbEntity
  8
1
  6
Continuous
 62
     7
100
AcDbCircle
 10
636.0666794087714
 20
1757.23660381279
 30
0.0
 40
100.0
100
AcDbArc
 50
0.0
 51
180.0
  0
POINT
  5
CDD
330
1F
100
AcDbEntity
  8
0
 60
     1
100
AcDbPoint
 10
122.9969030459424
 20
74.91622987088942
 30
0.0
1001
GENIUS_GENODEF_13
1002
{
1000
HIER
1070
    10
1002
}
1002
{
1000
MANEDIT
1070
     1
1002
}
1002
{
1000
NOSEL
1070
     0
1002
}
1002
{
1000
BEHIND
1070
     0
1002
}
1002
{
1000
REACTOR
1002
}
1001
GENIUS_GENOBJ-N-CRS_13
1002
{
1000
OWNER
1000
GEN
1002
}
1001
GENIUS_GENOENT_13
1002
{
1000
MYREF
1005
CDD
1002
}
1002
{
1000
GRP
1005
0
1002
}
1001
GENIUS_GENOLIS_13
1002
{
1000
ENT
1005
C5B
1005
C5C
1005
C5D
1005
C5E
1002
}
  0
POINT
  5
CDF
330
1F
100
AcDbEntity
  8
0
 60
     1
100
AcDbPoint
 10
122.9969030459424
 20
74.91622987088942
 30
0.0
1001
GENIUS_GENODEF_13
1002
{
1000
HIER
1070
     1
1002
}
1002
{
1000
MANEDIT
1070
     0
1002
}
1002
{
1000
NOSEL
1070
     0
1002
}
1002
{
1000
BEHIND
1070
     0
1002
}
1002
{
1000
REACTOR
1002
}
1001
GENIUS_GENTITLE_13
1002
{
1000
SCALE
1000
1:5
1002
}
1002
{
1000
BORDER
1000
IGS_A3-T
1002
}
1002
{
1000
TITLE
1000
IGS-TITLE-NO2
1002
}
1002
{
1000
UNCHG
1002
{
1000
GEN-TITLE-SCA
1000
GEN-TITLE-SIZ
1002
}
1002
}
1002
{
1000
HRA
1005
C1B
1002
}
1002
{
1000
HTIT
1005
C12
1002
}
1002
{
1000
GENIUSID
1005
CDF
1002
}
1001
GENIUS_GENOLIS_13
1002
{
1000
ENT
1005
C1B
1005
C12
1002
}
1001
GENIUS_GENOBJ-N-TIT_13
1002
{
1000
OWNER
1000
GEN
1002
}
1001
GENIUS_GENOENT_13
1002
{
1000
MYREF
1005
CDF
1002
}
1002
{
1000
GRP
1005
0
1002
}
  0
INSERT
  5
FD0
330
1F
100
AcDbEntity
  8
SUNPO
100
AcDbBlockReference
 66
     1
  2
Xsec
 10
792.4664120159804
 20
1557.236603812826
 30
0.0
 41
5.0
 42
5.0
 43
5.0
  0
ATTRIB
  5
FD1
330
FD0
100
AcDbEntity
  8
0
  6
Continuous
 62
     7
100
AcDbText
 10
810.2664120159804
 20
1539.236603812826
 30
0.0
 40
16.0
  1
A
 72
     4
 11
817.4664120159805
 21
1547.236603812826
 31
0.0
100
AcDbAttribute
  2
XSEC
 70
     0
  0
SEQEND
  5
FD2
330
FD0
100
AcDbEntity
  8
SUNPO
  0
TEXT
  5
FD3
330
1F
100
AcDbEntity
  8
0
100
AcDbText
 10
1197.02766939941
 20
1233.467913342007
 30
0.0
 40
35.0
  1
Ａ 矢視図
 11
1197.02766939941
 21
1233.467913342007
 31
0.0
100
AcDbText
 73
     1
  0
TEXT
  5
1051
330
1F
100
AcDbEntity
  8
0
 60
     1
100
AcDbText
 10
2607.996903045961
 20
757.473540423759
 30
0.0
 40
17.5
  1
!GENTITLE-MAX
100
AcDbText
  0
TEXT
  5
1052
330
1F
100
AcDbEntity
  8
0
 60
     1
100
AcDbText
 10
2582.996903045961
 20
707.473540423759
 30
0.0
 40
17.5
  1
!GENTITLE-RU
100
AcDbText
  0
TEXT
  5
1053
330
1F
100
AcDbEntity
  8
0
 60
     1
100
AcDbText
 10
1632.99690304596
 20
-427.5764595762409
 30
0.0
 40
17.5
  1
!GENTITLE-LL
100
AcDbText
  0
TEXT
  5
1054
330
1F
100
AcDbEntity
  8
0
 60
     1
100
AcDbText
 10
2582.996903045961
 20
-702.526459576241
 30
0.0
 40
17.5
  1
!GENTITLE-INSERT
100
AcDbText
  0
MTEXT
  5
1059
330
1F
100
AcDbEntity
  8
RAHM2
100
AcDbMText
 10
1166.009488978272
 20
-538.5278482585788
 30
0.0
 40
12.5
 41
12.29078120141139
 71
     1
 72
     5
  1

 73
     1
 44
1.0
  0
ATTDEF
  5
1094
330
1F
100
AcDbEntity
  8
RAHM3
100
AcDbText
 10
1055.746903046078
 20
281.9516764765135
 30
0.0
 40
20.0
  1

100
AcDbAttributeDefinition
  3
製図者
  2
鈴木
 70
     0
  0
ATTDEF
  5
1095
330
1F
100
AcDbEntity
  8
RAHM3
100
AcDbText
 10
1049.300093604811
 20
258.7662298708807
 30
0.0
 40
15.0
  1

 41
0.8
100
AcDbAttributeDefinition
  3
日付
  2
９８，４，１７
 70
     0
  0
ATTDEF
  5
1096
330
1F
100
AcDbEntity
  8
RAHM3
100
AcDbText
 10
930.7469030459515
 20
211.9516764765226
 30
0.0
 40
20.0
  1

100
AcDbAttributeDefinition
  3
製図者
  2
あらい
 70
     0
  0
ATTDEF
  5
1097
330
1F
100
AcDbEntity
  8
RAHM3
100
AcDbText
 10
924.3000936046843
 20
188.7662298708898
 30
0.0
 40
15.0
  1

 41
0.8
100
AcDbAttributeDefinition
  3
日付
  2
９８，４，１７
 70
     0
  0
ATTDEF
  5
1098
330
1F
100
AcDbEntity
  8
RAHM3
100
AcDbText
 10
930.7469030459515
 20
281.9516764765455
 30
0.0
 40
20.0
  1

100
AcDbAttributeDefinition
  3
製図者
  2
篠崎
 70
     0
  0
ATTDEF
  5
1099
330
1F
100
AcDbEntity
  8
RAHM3
100
AcDbText
 10
924.3000936046843
 20
258.7662298709126
 30
0.0
 40
15.0
  1

 41
0.8
100
AcDbAttributeDefinition
  3
日付
  2
９８，４，１７
 70
     0
  0
INSERT
  5
10C0
102
{ACAD_REACTORS
330
10BD
102
}
330
1F
100
AcDbEntity
  8
AM_12
100
AcDbBlockReference
  2
*S35
 10
0.0
 20
0.0
 30
0.0
  0
INSERT
  5
10C7
102
{ACAD_REACTORS
330
10C6
102
}
330
1F
100
AcDbEntity
  8
AM_5
100
AcDbBlockReference
  2
*S36
 10
0.0
 20
0.0
 30
0.0
  0
INSERT
  5
10D0
102
{ACAD_REACTORS
330
4A6
102
}
330
1F
100
AcDbEntity
  8
8
100
AcDbBlockReference
  2
*S37
 10
0.0
 20
0.0
 30
0.0
  0
DIMENSION
  5
10E8
330
1F
100
AcDbEntity
  8
AM_5
100
AcDbDimension
  2
*D34
 10
729.0666794087715
 20
1905.23660381279
 30
0.0
 11
636.0666794087714
 21
1923.98660381279
 31
0.0
 70
    32
  1
%%c<>
 71
     5
 42
186.0
  3
IGS
100
AcDbAlignedDimension
 13
543.0666794087715
 23
1745.73660381279
 33
0.0
 14
729.0666794087715
 24
1745.73660381279
 34
0.0
100
AcDbRotatedDimension
  0
INSERT
  5
111F
330
1F
100
AcDbEntity
  8
AM_5
100
AcDbBlockReference
  2
*S38
 10
0.0
 20
0.0
 30
0.0
  0
ENDSEC
  0
SECTION
  2
OBJECTS
  0
DICTIONARY
  5
C
330
0
100
AcDbDictionary
281
     1
  3
ACAD_COLOR
350
985
  3
ACAD_GROUP
350
D
  3
ACAD_LAYOUT
350
1A
  3
ACAD_MATERIAL
350
984
  3
ACAD_MLINESTYLE
350
17
  3
ACAD_PLOTSETTINGS
350
19
  3
ACAD_PLOTSTYLENAME
350
E
  3
AcDbVariableDictionary
350
43
  3
AcmDictionary
350
55
  3
AMG
350
2B
  3
AMGSNAPSETTINGS
350
A8
  3
ASE_INDEX_DICTIONARY
350
942
  0
DICTIONARY
  5
B1
330
1F
100
AcDbDictionary
280
     1
281
     1
  3
ACAD_INDEX
360
B2
  0
DICTIONARY
  5
985
102
{ACAD_REACTORS
330
C
102
}
330
C
100
AcDbDictionary
281
     1
  0
DICTIONARY
  5
D
102
{ACAD_REACTORS
330
C
102
}
330
C
100
AcDbDictionary
281
     1
  0
DICTIONARY
  5
1A
102
{ACAD_REACTORS
330
C
102
}
330
C
100
AcDbDictionary
281
     1
  3
Model
350
22
  3
ﾚｲｱｳﾄ1
350
1E
  3
ﾚｲｱｳﾄ2
350
26
  0
DICTIONARY
  5
984
102
{ACAD_REACTORS
330
C
102
}
330
C
100
AcDbDictionary
281
     1
  0
DICTIONARY
  5
17
102
{ACAD_REACTORS
330
C
102
}
330
C
100
AcDbDictionary
281
     1
  3
Standard
350
18
  0
DICTIONARY
  5
19
102
{ACAD_REACTORS
330
C
102
}
330
C
100
AcDbDictionary
281
     1
  0
ACDBDICTIONARYWDFLT
  5
E
102
{ACAD_REACTORS
330
C
102
}
330
C
100
AcDbDictionary
281
     1
  3
Normal
350
F
100
AcDbDictionaryWithDefault
340
F
  0
DICTIONARY
  5
43
102
{ACAD_REACTORS
330
C
102
}
330
C
100
AcDbDictionary
281
     1
  3
INDEXCTL
350
44
  3
SORTENTS
350
774
  0
DICTIONARY
  5
55
102
{ACAD_REACTORS
330
C
102
}
330
C
100
AcDbDictionary
281
     1
  3
AcmBOM
350
3D1
  3
AcmStdDictionary
350
59
  3
AMDTSECTSYM_ARROWCOLOR
350
98E
  0
DICTIONARY
  5
2B
102
{ACAD_REACTORS
330
C
102
}
330
C
100
AcDbDictionary
281
     1
  0
DICTIONARY
  5
A8
102
{ACAD_REACTORS
330
C
102
}
330
C
100
AcDbDictionary
281
     1
  0
DICTIONARY
  5
942
102
{ACAD_REACTORS
330
C
102
}
330
C
100
AcDbDictionary
281
     1
  3
ASEBlockHierarchyIndexRecord
350
944
1001
DCO15
1040
1418113613.734
  0
DICTIONARY
  5
B2
102
{ACAD_REACTORS
330
B1
102
}
330
B1
100
AcDbDictionary
281
     1
  3
*A1
350
B3
  0
LAYOUT
  5
22
102
{ACAD_REACTORS
330
1A
102
}
330
1A
100
AcDbPlotSettings
  1

  2
RICOH imagio Neo C380 RPCS
  4
A3
  6
AM_VIEW1
 40
5.873749732971191
 41
5.873747825622558
 42
5.873748779296875
 43
5.873748779296875
 44
296.9259948730469
 45
419.9466552734374
 46
4.089999999999999
 47
4.099999999999999
 48
0.0
 49
0.0
140
0.0
141
0.0
142
1.0
143
5.0
 70
 11940
 72
     1
 73
     0
 74
     2
  7
monochrome.ctb
 75
     0
147
0.2
 76
     0
 77
     2
 78
   300
148
-172.9969030459603
149
-124.9162298708897
100
AcDbLayout
  1
Model
 70
     1
 71
     0
 10
0.0
 20
0.0
 11
12.0
 21
9.0
 12
0.0
 22
0.0
 32
0.0
 14
0.0
 24
0.0
 34
0.0
 15
0.0
 25
0.0
 35
0.0
146
0.0
 13
0.0
 23
0.0
 33
0.0
 16
1.0
 26
0.0
 36
0.0
 17
0.0
 27
1.0
 37
0.0
 76
     0
330
1F
  0
LAYOUT
  5
1E
102
{ACAD_REACTORS
330
1A
102
}
330
1A
100
AcDbPlotSettings
  1

  2
MUTOH RL-803C(ﾌﾟﾛｯﾀﾓｰﾄﾞ)
  4

  6

 40
0.0
 41
0.0
 42
0.0
 43
0.0
 44
0.0
 45
0.0
 46
0.0
 47
0.0
 48
0.0
 49
0.0
140
0.0
141
0.0
142
1.0
143
1.0
 70
   688
 72
     0
 73
     0
 74
     5
  7
monochrome.ctb
 75
    16
147
1.0
 76
     0
 77
     2
 78
   300
148
0.0
149
0.0
100
AcDbLayout
  1
ﾚｲｱｳﾄ1
 70
     1
 71
     1
 10
0.0
 20
0.0
 11
420.0
 21
297.0
 12
0.0
 22
0.0
 32
0.0
 14
1.000000000000000E+20
 24
1.000000000000000E+20
 34
1.000000000000000E+20
 15
-1.000000000000000E+20
 25
-1.000000000000000E+20
 35
-1.000000000000000E+20
146
0.0
 13
0.0
 23
0.0
 33
0.0
 16
1.0
 26
0.0
 36
0.0
 17
0.0
 27
1.0
 37
0.0
 76
     0
330
1B
  0
LAYOUT
  5
26
102
{ACAD_REACTORS
330
1A
102
}
330
1A
100
AcDbPlotSettings
  1

  2
MUTOH RL-803C(ﾌﾟﾛｯﾀﾓｰﾄﾞ)
  4

  6

 40
0.0
 41
0.0
 42
0.0
 43
0.0
 44
0.0
 45
0.0
 46
0.0
 47
0.0
 48
0.0
 49
0.0
140
0.0
141
0.0
142
1.0
143
1.0
 70
   688
 72
     0
 73
     0
 74
     5
  7
monochrome.ctb
 75
    16
147
1.0
 76
     0
 77
     2
 78
   300
148
0.0
149
0.0
100
AcDbLayout
  1
ﾚｲｱｳﾄ2
 70
     1
 71
     2
 10
0.0
 20
0.0
 11
12.0
 21
9.0
 12
0.0
 22
0.0
 32
0.0
 14
0.0
 24
0.0
 34
0.0
 15
0.0
 25
0.0
 35
0.0
146
0.0
 13
0.0
 23
0.0
 33
0.0
 16
1.0
 26
0.0
 36
0.0
 17
0.0
 27
1.0
 37
0.0
 76
     0
330
23
  0
MLINESTYLE
  5
18
102
{ACAD_REACTORS
330
17
102
}
330
17
100
AcDbMlineStyle
  2
STANDARD
 70
     0
  3

 62
   256
 51
90.0
 52
90.0
 71
     2
 49
0.5
 62
   256
  6
BYLAYER
 49
-0.5
 62
   256
  6
BYLAYER
  0
ACDBPLACEHOLDER
  5
F
102
{ACAD_REACTORS
330
E
102
}
330
E
  0
DICTIONARYVAR
  5
44
102
{ACAD_REACTORS
330
43
102
}
330
43
100
DictionaryVariables
280
     0
  1
1
  0
DICTIONARYVAR
  5
774
102
{ACAD_REACTORS
330
43
102
}
330
43
100
DictionaryVariables
280
     0
  1
96
  0
DICTIONARY
  5
3D1
102
{ACAD_REACTORS
330
55
102
}
330
55
100
AcDbDictionary
281
     1
  0
DICTIONARY
  5
59
102
{ACAD_REACTORS
330
55
102
}
330
55
100
AcDbDictionary
281
     1
  0
XRECORD
  5
98E
102
{ACAD_REACTORS
330
55
102
}
330
55
100
AcDbXrecord
280
     1
 90
-1023410169
  0
XRECORD
  5
944
102
{ACAD_REACTORS
330
942
102
}
330
942
100
AcDbXrecord
280
     1
330
52F
330
537
330
5FB
330
603
  0
LAYER_INDEX
  5
B3
102
{ACAD_REACTORS
330
B2
102
}
330
B2
100
AcDbIndex
 40
2454714.741047812
100
AcDbLayerIndex
  8
0
360
B4
 90
       51
  8
RAHM2
360
156
 90
        1
  8
AM_BOR
360
4B6
 90
        0
  8
RAHM3
360
4B7
 90
        6
  8
RAHM5
360
4B8
 90
        0
  8
1
360
4B9
 90
       59
  8
DEFPOINTS
360
4BA
 90
        0
  8
7A
360
4BD
 90
        0
  8
5
360
EAD
 90
       10
  8
6
360
EAE
 90
        0
  8
7
360
EAF
 90
        2
  8
8
360
EB0
 90
       60
  8
4A
360
EB1
 90
        8
  8
AM_7
360
FDF
 90
        2
  8
AM_4
360
FE0
 90
        0
  8
SUNPO
360
FE1
 90
        1
  8
AM_CL
360
FE2
 90
        0
  8
AM_5
360
10CB
 90
        3
  8
AM_12
360
10CC
 90
        1
  8
AM_PAREF
360
10CD
 90
        0
  0
IDBUFFER
  5
B4
330
0
100
AcDbIdBuffer
330
1051
330
1052
330
1053
330
1054
330
C2B
330
C2C
330
C2D
330
C2E
330
C2F
330
C30
330
C43
330
C45
330
C46
330
C47
330
C48
330
C49
330
C4A
330
C4B
330
C4C
330
C4D
330
C4E
330
C4F
330
C50
330
C51
330
C52
330
C53
330
C54
330
C55
330
C56
330
C57
330
C58
330
C59
330
CDD
330
C2A
330
CDF
330
FD3
330
C12
330
C1B
330
C1C
330
C1D
330
C1E
330
C1F
330
C20
330
C21
330
C22
330
C23
330
C24
330
C25
330
C26
330
C27
330
C29
  0
IDBUFFER
  5
156
330
0
100
AcDbIdBuffer
330
1059
  0
IDBUFFER
  5
4B6
330
0
100
AcDbIdBuffer
  0
IDBUFFER
  5
4B7
330
0
100
AcDbIdBuffer
330
1094
330
1095
330
1096
330
1097
330
1098
330
1099
  0
IDBUFFER
  5
4B8
330
0
100
AcDbIdBuffer
  0
IDBUFFER
  5
4B9
330
0
100
AcDbIdBuffer
330
CBE
330
CBF
330
CC0
330
CC1
330
CC2
330
CC3
330
CC4
330
CC5
330
CC6
330
CC7
330
CC8
330
CC9
330
CCA
330
CCB
330
CCC
330
CCD
330
CCE
330
CCF
330
CD0
330
CD1
330
CD2
330
CD3
330
CD4
330
CD5
330
CD6
330
CD7
330
CD8
330
CD9
330
CDA
330
CDB
330
CDC
330
CBC
330
CBB
330
CBA
330
CB9
330
CB8
330
CB7
330
CB6
330
CB5
330
CB4
330
CB3
330
CB2
330
CB1
330
CB0
330
CAF
330
CAE
330
CAD
330
CAC
330
CAB
330
CAA
330
CA9
330
CBD
330
C66
330
CA3
330
CA4
330
CA5
330
CA6
330
CA7
330
CA8
  0
IDBUFFER
  5
4BA
330
0
100
AcDbIdBuffer
  0
IDBUFFER
  5
4BD
330
0
100
AcDbIdBuffer
  0
IDBUFFER
  5
EAD
330
0
100
AcDbIdBuffer
330
C67
330
C3A
330
C3B
330
C3C
330
C3D
330
C3E
330
C3F
330
C40
330
C41
330
C42
  0
IDBUFFER
  5
EAE
330
0
100
AcDbIdBuffer
  0
IDBUFFER
  5
EAF
330
0
100
AcDbIdBuffer
330
C5A
330
C9B
  0
IDBUFFER
  5
EB0
330
0
100
AcDbIdBuffer
330
10D0
330
C97
330
C98
330
C99
330
C9A
330
C9C
330
C9D
330
C9E
330
C9F
330
CA0
330
CA1
330
CA2
330
C28
330
C44
330
C63
330
C64
330
C6B
330
C6C
330
C6D
330
C6E
330
C6F
330
C70
330
C71
330
C72
330
C73
330
C74
330
C75
330
C76
330
C77
330
C78
330
C79
330
C7A
330
C7B
330
C7C
330
C7D
330
C7E
330
C7F
330
C80
330
C81
330
C82
330
C83
330
C84
330
C85
330
C86
330
C87
330
C88
330
C89
330
C8A
330
C8B
330
C8C
330
C8D
330
C8E
330
C8F
330
C90
330
C91
330
C92
330
C93
330
C94
330
C95
330
C96
  0
IDBUFFER
  5
EB1
330
0
100
AcDbIdBuffer
330
C5F
330
C60
330
C61
330
C62
330
C65
330
C68
330
C69
330
C6A
  0
IDBUFFER
  5
FDF
330
0
100
AcDbIdBuffer
330
C5D
330
C5E
  0
IDBUFFER
  5
FE0
330
0
100
AcDbIdBuffer
  0
IDBUFFER
  5
FE1
330
0
100
AcDbIdBuffer
330
FD0
  0
IDBUFFER
  5
FE2
330
0
100
AcDbIdBuffer
  0
IDBUFFER
  5
10CB
330
0
100
AcDbIdBuffer
330
10C7
330
10E8
330
111F
  0
IDBUFFER
  5
10CC
330
0
100
AcDbIdBuffer
330
10C0
  0
IDBUFFER
  5
10CD
330
0
100
AcDbIdBuffer
  0
ENDSEC
  0
EOF
