  0
SECTION
  2
HEADER
  9
$ACADVER
  1
AC1018
  9
$ACADMAINTVER
 70
     2
  9
$DWGCODEPAGE
  3
ANSI_932
  9
$CUSTOMPROPERTYTAG
  1
AmdtFileType
  9
$CUSTOMPROPERTY
  1
84
  9
$INSBASE
 10
0.0
 20
0.0
 30
0.0
  9
$EXTMIN
 10
1327.572205548079
 20
-440.3419682340402
 30
0.0
  9
$EXTMAX
 10
2812.572205548079
 20
1659.65803176596
 30
260.0
  9
$LIMMIN
 10
1377.572205548079
 20
-390.3419682340398
  9
$LIMMAX
 10
2762.572205548079
 20
1534.65803176596
  9
$ORTHOMODE
 70
     0
  9
$REGENMODE
 70
     1
  9
$FILLMODE
 70
     1
  9
$QTEXTMODE
 70
     0
  9
$MIRRTEXT
 70
     1
  9
$LTSCALE
 40
5.0
  9
$ATTMODE
 70
     1
  9
$TEXTSIZE
 40
2.5
  9
$TRACEWID
 40
1.0
  9
$TEXTSTYLE
  7
STANDARD
  9
$CLAYER
  8
AM_0
  9
$CELTYPE
  6
ByLayer
  9
$CECOLOR
 62
   256
  9
$CELTSCALE
 40
1.0
  9
$DISPSILH
 70
     0
  9
$DIMSCALE
 40
1.0
  9
$DIMASZ
 40
2.5
  9
$DIMEXO
 40
1.0
  9
$DIMDLI
 40
10.0
  9
$DIMRND
 40
0.0
  9
$DIMDLE
 40
0.0
  9
$DIMEXE
 40
1.0
  9
$DIMTP
 40
0.1
  9
$DIMTM
 40
0.1
  9
$DIMTXT
 40
3.0
  9
$DIMCEN
 40
0.0
  9
$DIMTSZ
 40
0.0
  9
$DIMTOL
 70
     0
  9
$DIMLIM
 70
     0
  9
$DIMTIH
 70
     0
  9
$DIMTOH
 70
     0
  9
$DIMSE1
 70
     0
  9
$DIMSE2
 70
     0
  9
$DIMTAD
 70
     3
  9
$DIMZIN
 70
     8
  9
$DIMBLK
  1
Open30
  9
$DIMASO
 70
     1
  9
$DIMSHO
 70
     1
  9
$DIMPOST
  1

  9
$DIMAPOST
  1
"
  9
$DIMALT
 70
     0
  9
$DIMALTD
 70
     2
  9
$DIMALTF
 40
0.0393701
  9
$DIMLFAC
 40
1.0
  9
$DIMTOFL
 70
     1
  9
$DIMTVP
 40
0.0
  9
$DIMTIX
 70
     0
  9
$DIMSOXD
 70
     0
  9
$DIMSAH
 70
     0
  9
$DIMBLK1
  1

  9
$DIMBLK2
  1

  9
$DIMSTYLE
  2
IGS
  9
$DIMCLRD
 70
   256
  9
$DIMCLRE
 70
   256
  9
$DIMCLRT
 70
     2
  9
$DIMTFAC
 40
0.71
  9
$DIMGAP
 40
1.5
  9
$DIMJUST
 70
     0
  9
$DIMSD1
 70
     0
  9
$DIMSD2
 70
     0
  9
$DIMTOLJ
 70
     0
  9
$DIMTZIN
 70
     8
  9
$DIMALTZ
 70
     0
  9
$DIMALTTZ
 70
     0
  9
$DIMUPT
 70
     0
  9
$DIMDEC
 70
     1
  9
$DIMTDEC
 70
     1
  9
$DIMALTU
 70
     2
  9
$DIMALTTD
 70
     2
  9
$DIMTXSTY
  7
STANDARD
  9
$DIMAUNIT
 70
     0
  9
$DIMADEC
 70
     0
  9
$DIMALTRND
 40
0.0
  9
$DIMAZIN
 70
     2
  9
$DIMDSEP
 70
    46
  9
$DIMATFIT
 70
     3
  9
$DIMFRAC
 70
     0
  9
$DIMLDRBLK
  1
Open30
  9
$DIMLUNIT
 70
     2
  9
$DIMLWD
 70
    -1
  9
$DIMLWE
 70
    -1
  9
$DIMTMOVE
 70
     0
  9
$LUNITS
 70
     2
  9
$LUPREC
 70
     2
  9
$SKETCHINC
 40
1.0
  9
$FILLETRAD
 40
0.0
  9
$AUNITS
 70
     0
  9
$AUPREC
 70
     0
  9
$MENU
  1
.
  9
$ELEVATION
 40
0.0
  9
$PELEVATION
 40
0.0
  9
$THICKNESS
 40
0.0
  9
$LIMCHECK
 70
     0
  9
$CHAMFERA
 40
12.5
  9
$CHAMFERB
 40
12.5
  9
$CHAMFERC
 40
20.0
  9
$CHAMFERD
 40
0.0
  9
$SKPOLY
 70
     0
  9
$TDCREATE
 40
2454537.753967234
  9
$TDUCREATE
 40
2454537.378967234
  9
$TDUPDATE
 40
2454714.741256505
  9
$TDUUPDATE
 40
2454714.366256505
  9
$TDINDWG
 40
0.0201738079
  9
$TDUSRTIMER
 40
0.0201736227
  9
$USRTIMER
 70
     1
  9
$ANGBASE
 50
0.0
  9
$ANGDIR
 70
     0
  9
$PDMODE
 70
     0
  9
$PDSIZE
 40
0.0
  9
$PLINEWID
 40
0.0
  9
$SPLFRAME
 70
     0
  9
$SPLINETYPE
 70
     6
  9
$SPLINESEGS
 70
     8
  9
$HANDSEED
  5
6AA1
  9
$SURFTAB1
 70
     6
  9
$SURFTAB2
 70
     6
  9
$SURFTYPE
 70
     6
  9
$SURFU
 70
     6
  9
$SURFV
 70
     6
  9
$UCSBASE
  2

  9
$UCSNAME
  2

  9
$UCSORG
 10
0.0
 20
0.0
 30
0.0
  9
$UCSXDIR
 10
1.0
 20
0.0
 30
0.0
  9
$UCSYDIR
 10
0.0
 20
1.0
 30
0.0
  9
$UCSORTHOREF
  2

  9
$UCSORTHOVIEW
 70
     0
  9
$UCSORGTOP
 10
0.0
 20
0.0
 30
0.0
  9
$UCSORGBOTTOM
 10
0.0
 20
0.0
 30
0.0
  9
$UCSORGLEFT
 10
0.0
 20
0.0
 30
0.0
  9
$UCSORGRIGHT
 10
0.0
 20
0.0
 30
0.0
  9
$UCSORGFRONT
 10
0.0
 20
0.0
 30
0.0
  9
$UCSORGBACK
 10
0.0
 20
0.0
 30
0.0
  9
$PUCSBASE
  2

  9
$PUCSNAME
  2

  9
$PUCSORG
 10
0.0
 20
0.0
 30
0.0
  9
$PUCSXDIR
 10
1.0
 20
0.0
 30
0.0
  9
$PUCSYDIR
 10
0.0
 20
1.0
 30
0.0
  9
$PUCSORTHOREF
  2

  9
$PUCSORTHOVIEW
 70
     0
  9
$PUCSORGTOP
 10
0.0
 20
0.0
 30
0.0
  9
$PUCSORGBOTTOM
 10
0.0
 20
0.0
 30
0.0
  9
$PUCSORGLEFT
 10
0.0
 20
0.0
 30
0.0
  9
$PUCSORGRIGHT
 10
0.0
 20
0.0
 30
0.0
  9
$PUCSORGFRONT
 10
0.0
 20
0.0
 30
0.0
  9
$PUCSORGBACK
 10
0.0
 20
0.0
 30
0.0
  9
$USERI1
 70
     0
  9
$USERI2
 70
     0
  9
$USERI3
 70
     0
  9
$USERI4
 70
     0
  9
$USERI5
 70
     0
  9
$USERR1
 40
0.0
  9
$USERR2
 40
0.0
  9
$USERR3
 40
0.0
  9
$USERR4
 40
0.0
  9
$USERR5
 40
0.0
  9
$WORLDVIEW
 70
     1
  9
$SHADEDGE
 70
     3
  9
$SHADEDIF
 70
    70
  9
$TILEMODE
 70
     1
  9
$MAXACTVP
 70
    64
  9
$PINSBASE
 10
0.0
 20
0.0
 30
0.0
  9
$PLIMCHECK
 70
     0
  9
$PEXTMIN
 10
1.000000000000000E+20
 20
1.000000000000000E+20
 30
1.000000000000000E+20
  9
$PEXTMAX
 10
-1.000000000000000E+20
 20
-1.000000000000000E+20
 30
-1.000000000000000E+20
  9
$PLIMMIN
 10
0.0
 20
0.0
  9
$PLIMMAX
 10
420.0
 20
297.0
  9
$UNITMODE
 70
     0
  9
$VISRETAIN
 70
     1
  9
$PLINEGEN
 70
     0
  9
$PSLTSCALE
 70
     1
  9
$TREEDEPTH
 70
  3020
  9
$CMLSTYLE
  2
Standard
  9
$CMLJUST
 70
     0
  9
$CMLSCALE
 40
20.0
  9
$PROXYGRAPHICS
 70
     1
  9
$MEASUREMENT
 70
     1
  9
$CELWEIGHT
370
    -1
  9
$ENDCAPS
280
     0
  9
$JOINSTYLE
280
     0
  9
$LWDISPLAY
290
     0
  9
$INSUNITS
 70
     4
  9
$HYPERLINKBASE
  1

  9
$STYLESHEET
  1
monochrome.ctb
  9
$XEDIT
290
     1
  9
$CEPSNTYPE
380
     0
  9
$PSTYLEMODE
290
     1
  9
$FINGERPRINTGUID
  2
{A179640A-E7AE-11D4-BDB4-00B0D0A1239A}
  9
$VERSIONGUID
  2
{1779BF88-C0E4-42D0-B347-C3418C37249C}
  9
$EXTNAMES
290
     1
  9
$PSVPSCALE
 40
0.0
  9
$OLESTARTUP
290
     0
  9
$SORTENTS
280
   103
  9
$INDEXCTL
280
     1
  9
$HIDETEXT
280
     0
  9
$XCLIPFRAME
290
     0
  9
$HALOGAP
280
     0
  9
$OBSCOLOR
 70
   257
  9
$OBSLTYPE
280
     0
  9
$INTERSECTIONDISPLAY
280
     0
  9
$INTERSECTIONCOLOR
 70
   257
  9
$DIMASSOC
280
     1
  9
$PROJECTNAME
  1

  0
ENDSEC
  0
SECTION
  2
CLASSES
  0
CLASS
  1
ACDBDICTIONARYWDFLT
  2
AcDbDictionaryWithDefault
  3
ObjectDBX Classes
 90
        0
 91
        1
280
     0
281
     0
  0
CLASS
  1
AMGSETTINGSOBJ
  2
AmgSettingsObj
  3
"AcadM|Product Description: AutoCAD Mechanical 2000|Company: Autodesk"
 90
        0
 91
        4
280
     0
281
     0
  0
CLASS
  1
AMGOBJPROPCFG
  2
AmgObjPropCfg
  3
"AmgLay|Product Description: AutoCAD Mechanical 2000|Company: Autodesk"
 90
        1
 91
        1
280
     0
281
     0
  0
CLASS
  1
ACME_DOCUMENT
  2
AcMeDbDoc
  3
AcMeServices
 90
        0
 91
        2
280
     0
281
     0
  0
CLASS
  1
ACMESCOPE
  2
AcMeScope
  3
AcMeServices
 90
        0
 91
        1
280
     0
281
     0
  0
CLASS
  1
ACMECOMMANDHISTORY
  2
AcMeCommandHistory
  3
AcMeServices
 90
        0
 91
        1
280
     0
281
     0
  0
CLASS
  1
DICTIONARYVAR
  2
AcDbDictionaryVar
  3
ObjectDBX Classes
 90
        0
 91
        2
280
     0
281
     0
  0
CLASS
  1
ACIMSYSVARMAN
  2
AcImSysVarManager
  3
AcMeServices
 90
        0
 91
        5
280
     0
281
     0
  0
CLASS
  1
ACIMREALSYSVAR
  2
AcImRealSysVar
  3
AcMeServices
 90
        0
 91
        3
280
     0
281
     0
  0
CLASS
  1
ACIMINTSYSVAR
  2
AcImIntSysVar
  3
AcMeServices
 90
        0
 91
       26
280
     0
281
     0
  0
CLASS
  1
ACMEDRAWINGMAN
  2
AcMeDrawingMan
  3
AcMeServices
 90
        0
 91
        1
280
     0
281
     0
  0
CLASS
  1
ACMEVIEW
  2
AcMeView
  3
AcMeServices
 90
        0
 91
        1
280
     0
281
     0
  0
CLASS
  1
ACDBENTITYCACHE
  2
AcMeEntityCache
  3
AcMeServices
 90
        0
 91
        1
280
     0
281
     0
  0
CLASS
  1
GSMANAGER
  2
AcMeGSManager
  3
AcMeServices
 90
        0
 91
        1
280
     0
281
     0
  0
CLASS
  1
AMDTINTERNALREACTOR
  2
AmdtInternalReactor
  3
AcMeServices
 90
        0
 91
        9
280
     0
281
     0
  0
CLASS
  1
ACMESTATEMGR
  2
AcMeStateMgr
  3
AcMeServices
 90
        0
 91
        1
280
     0
281
     0
  0
CLASS
  1
ACGREFMASTER
  2
AcGrefMaster
  3
AcAttribServices
 90
        0
 91
        1
280
     0
281
     0
  0
CLASS
  1
ACME_DATABASE
  2
AcMeDbDatabase
  3
AcMeServices
 90
        0
 91
        1
280
     0
281
     0
  0
CLASS
  1
ACRFINSADJUSTERMGR
  2
AcRfInsAdjusterMgr
  3
AcMeServices
 90
        0
 91
        1
280
     0
281
     0
  0
CLASS
  1
ACGREFACADMASTER
  2
AcGrefacadMaster
  3
AcGrefServices
 90
        0
 91
        1
280
     0
281
     0
  0
CLASS
  1
AMIMASTER
  2
AmiMaster
  3
AmiServices
 90
        0
 91
        1
280
     0
281
     0
  0
CLASS
  1
ACMDATADICTIONARY
  2
AcmDataDictionary
  3
"AcmSymBB|Product Description: AutoCAD Mechanical 2004 DX|Company: Autodesk"
 90
        0
 91
        1
280
     0
281
     0
  0
CLASS
  1
ACMDATAENTRYBLOCK
  2
AcmDataEntryBlock
  3
"AcmSymBB|Product Description: AutoCAD Mechanical 2004 DX|Company: Autodesk"
 90
        0
 91
        1
280
     0
281
     0
  0
CLASS
  1
ACMSTANDARDJIS
  2
AcmStandardJIS
  3
"Amdt_StdImp|Product Description: AutoCAD Mechanical 2004 DX|Company: Autodesk"
 90
        0
 91
        1
280
     0
281
     0
  0
CLASS
  1
ACMSURFSTANDARDJIS
  2
AcmSurfTextStdJIS
  3
"Amdt_StdImp|Product Description: AutoCAD Mechanical 2004 DX|Company: Autodesk"
 90
        0
 91
        1
280
     0
281
     0
  0
CLASS
  1
ACMFCFSTANDARDJIS
  2
AcmFCFStdJIS
  3
"Amdt_StdImp|Product Description: AutoCAD Mechanical 2004 DX|Company: Autodesk"
 90
        0
 91
        1
280
     0
281
     0
  0
CLASS
  1
ACMWELDSTANDARDJIS
  2
AcmWeldingStdJIS
  3
"Amdt_StdImp|Product Description: AutoCAD Mechanical 2004 DX|Company: Autodesk"
 90
        0
 91
        1
280
     0
281
     0
  0
CLASS
  1
ACMIDSTANDARDJIS
  2
AcmIdStdJIS
  3
"Amdt_StdImp|Product Description: AutoCAD Mechanical 2004 DX|Company: Autodesk"
 90
        0
 91
        1
280
     0
281
     0
  0
CLASS
  1
ACMDATUMSTANDARDJIS
  2
AcmDatumStdJIS
  3
"Amdt_StdImp|Product Description: AutoCAD Mechanical 2004 DX|Company: Autodesk"
 90
        0
 91
        1
280
     0
281
     0
  0
CLASS
  1
ACMBOMSTANDARDJIS
  2
AcmBOMStdJIS
  3
"Amdt_StdImp|Product Description: AutoCAD Mechanical 2004 DX|Company: Autodesk"
 90
        0
 91
        1
280
     0
281
     0
  0
CLASS
  1
ACMDETAILSTANDARDJIS
  2
AmdtDetailSymStdJIS
  3
"Amdt_StdImp|Product Description: AutoCAD Mechanical 2004 DX|Company: Autodesk"
 90
        0
 91
        1
280
     0
281
     0
  0
CLASS
  1
ACMSECTIONSTANDARDJIS
  2
AmdtSectionSymStdJIS
  3
"Amdt_StdImp|Product Description: AutoCAD Mechanical 2004 DX|Company: Autodesk"
 90
        0
 91
        1
280
     0
281
     0
  0
CLASS
  1
ACMCENTERLINESTANDARDJIS
  2
AmdtCenterLineStdJIS
  3
"Amdt_StdImp|Product Description: AutoCAD Mechanical 2004 DX|Company: Autodesk"
 90
        0
 91
        1
280
     0
281
     0
  0
CLASS
  1
ACAMGLAYSTD
  2
AcAmgLayStd
  3
"AcAmgLayStd|Product Description: AutoCAD Mechanical 2000|Company: Autodesk"
 90
        0
 91
        2
280
     0
281
     0
  0
CLASS
  1
ACAMGDIMSTD
  2
AcAmgDimStd
  3
"AcAmgDimStd|Product Description: AutoCAD Mechanical 2000|Company: Autodesk"
 90
        0
 91
        2
280
     0
281
     0
  0
CLASS
  1
ACAMGTITLESTD
  2
AcAmgTitleStd
  3
"TITLEAPP"
 90
        0
 91
        2
280
     0
281
     0
  0
CLASS
  1
ACMSTANDARDISO
  2
AcmStandardISO
  3
"Amdt_StdImp|Product Description: AutoCAD Mechanical 2004 DX|Company: Autodesk"
 90
        0
 91
        1
280
     0
281
     0
  0
CLASS
  1
AMDTEDGESTANDARDISO
  2
AmdtEdgeStdISO
  3
"Amdt_StdImp|Product Description: AutoCAD Mechanical 2004 DX|Company: Autodesk"
 90
        0
 91
        1
280
     0
281
     0
  0
CLASS
  1
ACMSURFSTANDARDISO
  2
AcmSurfTextStdISO
  3
"Amdt_StdImp|Product Description: AutoCAD Mechanical 2004 DX|Company: Autodesk"
 90
        0
 91
        1
280
     0
281
     0
  0
CLASS
  1
ACMFCFSTANDARDISO
  2
AcmFCFStdISO
  3
"Amdt_StdImp|Product Description: AutoCAD Mechanical 2004 DX|Company: Autodesk"
 90
        0
 91
        1
280
     0
281
     0
  0
CLASS
  1
ACMWELDSTANDARDISO
  2
AcmWeldingStdISO
  3
"Amdt_StdImp|Product Description: AutoCAD Mechanical 2004 DX|Company: Autodesk"
 90
        0
 91
        1
280
     0
281
     0
  0
CLASS
  1
ACMIDSTANDARDISO
  2
AcmIdStdISO
  3
"Amdt_StdImp|Product Description: AutoCAD Mechanical 2004 DX|Company: Autodesk"
 90
        0
 91
        1
280
     0
281
     0
  0
CLASS
  1
ACMDATUMSTANDARDISO
  2
AcmDatumStdISO
  3
"Amdt_StdImp|Product Description: AutoCAD Mechanical 2004 DX|Company: Autodesk"
 90
        0
 91
        1
280
     0
281
     0
  0
CLASS
  1
ACMBOMSTANDARDISO
  2
AcmBOMStdISO
  3
"Amdt_StdImp|Product Description: AutoCAD Mechanical 2004 DX|Company: Autodesk"
 90
        0
 91
        1
280
     0
281
     0
  0
CLASS
  1
ACMDETAILSTANDARDISO
  2
AmdtDetailSymStdISO
  3
"Amdt_StdImp|Product Description: AutoCAD Mechanical 2004 DX|Company: Autodesk"
 90
        0
 91
        1
280
     0
281
     0
  0
CLASS
  1
ACMSECTIONSTANDARDISO
  2
AmdtSectionSymStdISO
  3
"Amdt_StdImp|Product Description: AutoCAD Mechanical 2004 DX|Company: Autodesk"
 90
        0
 91
        1
280
     0
281
     0
  0
CLASS
  1
ACMCENTERLINESTANDARDISO
  2
AmdtCenterLineStdISO
  3
"Amdt_StdImp|Product Description: AutoCAD Mechanical 2004 DX|Company: Autodesk"
 90
        0
 91
        1
280
     0
281
     0
  0
CLASS
  1
ACIMSTRSYSVAR
  2
AcImStrSysVar
  3
AcMeServices
 90
        0
 91
        5
280
     0
281
     0
  0
CLASS
  1
ACAMGFILTERDAT
  2
AcAmgFilterDat
  3
"AcadM|Product Description: AutoCAD Mechanical 2000|Company: Autodesk"
 90
        0
 91
        6
280
     0
281
     0
  0
CLASS
  1
LAYER_INDEX
  2
AcDbLayerIndex
  3
ObjectDBX Classes
 90
        0
 91
        1
280
     0
281
     0
  0
CLASS
  1
IDBUFFER
  2
AcDbIdBuffer
  3
ObjectDBX Classes
 90
        0
 91
       14
280
     0
281
     0
  0
CLASS
  1
AMDTFORMULAUPDATEDISPATCHER
  2
AmdtFormulaUpdateDispatcher
  3
AcMeServices
 90
        0
 91
        1
280
     0
281
     0
  0
CLASS
  1
ACMDATAENTRYPART
  2
AcmDataEntryPart
  3
"AcmSymBB|Product Description: AutoCAD Mechanical 2004 DX|Company: Autodesk"
 90
        0
 91
        0
280
     0
281
     0
  0
CLASS
  1
ACMPARTREF
  2
AcmPartRef
  3
"AcmSymBB|Product Description: AutoCAD Mechanical 2004 DX|Company: Autodesk"
 90
     1023
 91
        0
280
     0
281
     1
  0
CLASS
  1
ACMDATAENTRY
  2
AcmDataEntry
  3
"AcmSymBB|Product Description: AutoCAD Mechanical 2004 DX|Company: Autodesk"
 90
        0
 91
        4
280
     0
281
     0
  0
CLASS
  1
ACMBOM
  2
AcmBom
  3
"AcmSymBB|Product Description: AutoCAD Mechanical 2004 DX|Company: Autodesk"
 90
        0
 91
        1
280
     0
281
     0
  0
CLASS
  1
ACMBOMROW
  2
AcmBomRow
  3
"AcmSymBB|Product Description: AutoCAD Mechanical 2004 DX|Company: Autodesk"
 90
        0
 91
        0
280
     0
281
     0
  0
CLASS
  1
ACMBALLOON
  2
AcmBalloon
  3
"AcmSymBB|Product Description: AutoCAD Mechanical 2004 DX|Company: Autodesk"
 90
     1023
 91
        0
280
     0
281
     1
  0
CLASS
  1
ACMPARTLIST
  2
AcmPartList
  3
"AcmSymBB|Product Description: AutoCAD Mechanical 2004 DX|Company: Autodesk"
 90
     1023
 91
        0
280
     0
281
     1
  0
CLASS
  1
ACDBLINERES
  2
AcDbLineRes
  3
AcGrefServices
 90
        0
 91
        7
280
     0
281
     0
  0
CLASS
  1
ACRFINSADJ
  2
AcRfInsAdjuster
  3
AcMeServices
 90
        0
 91
        0
280
     0
281
     0
  0
CLASS
  1
STDPART2D
  2
AmgStdPart
  3
"AmgStdPart|Product Description: AutoCAD Mechanical 2000|Company: Autodesk"
 90
     1023
 91
        0
280
     0
281
     1
  0
CLASS
  1
ACDBSTDPARTRES_ARC
  2
AcDbStdPartRes_Arc
  3
"AcDbStdPartRes_Arc|Product Description: AutoCAD Mechanical 2000|Company: Autodesk"
 90
        0
 91
        0
280
     0
281
     0
  0
CLASS
  1
ACMPICKOBJ
  2
AcmPickEnt
  3
"AcmSymBB|Product Description: AutoCAD Mechanical 2004 DX|Company: Autodesk"
 90
        0
 91
        0
280
     0
281
     1
  0
CLASS
  1
ACDBSTDPARTRES_LINE
  2
AcDbStdPartRes_Line
  3
"AcDbStdPartRes_Line|Product Description: AutoCAD Mechanical 2000|Company: Autodesk"
 90
        0
 91
        0
280
     0
281
     0
  0
CLASS
  1
AM_DRAWING_MGR
  2
AcDmDwgMgr
  3
AcMechDwgViewMgmt
 90
        0
 91
        1
280
     0
281
     0
  0
CLASS
  1
AM_DWG_DOCUMENT
  2
AcDmDwgDocument
  3
AcMechDwgViewMgmt
 90
        0
 91
        1
280
     0
281
     0
  0
CLASS
  1
AM_DWG_SHEET
  2
AcDmSheet
  3
AcMechDwgViewMgmt
 90
        0
 91
        2
280
     0
281
     0
  0
CLASS
  1
AM_VIEWDIMPARMAP
  2
AcDmViewDimParMap
  3
AcMechDwgViewMgmt
 90
        0
 91
        2
280
     0
281
     0
  0
CLASS
  1
AM_DWGMGR_NAME
  2
AcDmDwgMgrName
  3
AcMechDwgViewMgmt
 90
        0
 91
        1
280
     0
281
     0
  0
CLASS
  1
AMDTMENUSTATEMGR
  2
AmdtMenuStateMgr
  3
McadcomServices
 90
        0
 91
        1
280
     0
281
     0
  0
CLASS
  1
AMDTMCOMMENUSTATE
  2
AmdtMcomMenuState
  3
McadcomServices
 90
        0
 91
        1
280
     0
281
     0
  0
CLASS
  1
MAPIAMMOUDLE
  2
MApiAmModule
  3
MApiAmServices
 90
        0
 91
        1
280
     0
281
     0
  0
CLASS
  1
AMDTADMENUSTATE
  2
AmdtAdMenuState
  3
DesignerServices
 90
        0
 91
        1
280
     0
281
     0
  0
CLASS
  1
ADAPPL
  2
AcAdAppl
  3
DesignerServices
 90
        0
 91
        1
280
     0
281
     0
  0
CLASS
  1
DEPMGR
  2
AcAdDepMgr
  3
DesignerServices
 90
        0
 91
        1
280
     0
281
     0
  0
CLASS
  1
PARAMMGR
  2
AcAdParamMgr
  3
DesignerServices
 90
        0
 91
        1
280
     0
281
     0
  0
CLASS
  1
PARAMSCOPE
  2
AcAdParamScope
  3
DesignerServices
 90
        0
 91
        1
280
     0
281
     0
  0
CLASS
  1
NAMEDAPPL
  2
AcAdNamedAppl
  3
DesignerServices
 90
        0
 91
        1
280
     0
281
     0
  0
CLASS
  1
AMDTDMMENUSTATE
  2
AmdtDmMenuState
  3
AcMechDwgViewMgmt
 90
        0
 91
        1
280
     0
281
     0
  0
CLASS
  1
AMDTAMMENUSTATE
  2
AmdtAmMenuState
  3
DesignerAssemblies
 90
        0
 91
        1
280
     0
281
     0
  0
CLASS
  1
ACAMPROJECT
  2
AcAmProject
  3
DesignerAssemblies
 90
        0
 91
        1
280
     0
281
     0
  0
CLASS
  1
ACAMGRCOMPDEF
  2
AcAmGrCompDef
  3
DesignerAssemblies
 90
        0
 91
        1
280
     0
281
     0
  0
CLASS
  1
ACCMCONTEXT
  2
AcCmContext
  3
DesignerAssemblies
 90
        0
 91
        1
280
     0
281
     0
  0
CLASS
  1
ACAMCOMPDEF
  2
AcAmCompDef
  3
DesignerAssemblies
 90
        0
 91
        1
280
     0
281
     0
  0
CLASS
  1
ACAMCOMPDEFMGR
  2
AcAmCompDefMgr
  3
DesignerAssemblies
 90
        0
 91
        1
280
     0
281
     0
  0
CLASS
  1
AMCONTEXTMGR
  2
AcAmContextMgr
  3
DesignerAssemblies
 90
        0
 91
        1
280
     0
281
     0
  0
CLASS
  1
ACAMCONTEXTMODELER
  2
AcAmContextModeler
  3
DesignerAssemblies
 90
        0
 91
        1
280
     0
281
     0
  0
CLASS
  1
ACMTHREADLINESTANDARDJIS
  2
AmdtThreadLineStdJIS
  3
"Amdt_StdImp|Product Description: AutoCAD Mechanical 2004 DX|Company: Autodesk"
 90
        0
 91
        1
280
     0
281
     0
  0
CLASS
  1
ACMNOTESTANDARDJIS
  2
AmdtNoteStdJIS
  3
"Amdt_StdImp|Product Description: AutoCAD Mechanical 2004 DX|Company: Autodesk"
 90
        0
 91
        1
280
     0
281
     0
  0
CLASS
  1
AMDTNOTETEMPLATEDB
  2
AmdtNoteTemplateDB
  3
AMDT_STDIMP_MODULE_NAME
 90
        0
 91
        8
280
     0
281
     0
  0
CLASS
  1
ACMTHREADLINESTANDARDISO
  2
AmdtThreadLineStdISO
  3
"Amdt_StdImp|Product Description: AutoCAD Mechanical 2004 DX|Company: Autodesk"
 90
        0
 91
        1
280
     0
281
     0
  0
CLASS
  1
ACMNOTESTANDARDISO
  2
AmdtNoteStdISO
  3
"Amdt_StdImp|Product Description: AutoCAD Mechanical 2004 DX|Company: Autodesk"
 90
        0
 91
        1
280
     0
281
     0
  0
CLASS
  1
CATALOGSTATE
  2
AcAmCatalogState
  3
DesignerAssemblies
 90
        0
 91
        1
280
     0
281
     0
  0
CLASS
  1
ACAMGRCOMPDEFSET
  2
AcAmGrCompDefSet
  3
DesignerAssemblies
 90
        0
 91
        1
280
     0
281
     0
  0
CLASS
  1
AMDTBROWSERDBTAB
  2
AmdtBrowserDbTab
  3
McadcomServices
 90
        0
 91
        1
280
     0
281
     0
  0
CLASS
  1
CBROWSERAPPOBJECT
  2
CBrowserAppObject
  3
McadcomServices
 90
        0
 91
        3
280
     0
281
     0
  0
CLASS
  1
DM_PLACEHOLDER
  2
AcDmSelsetPlaceholder
  3
AcMechDwgViewMgmt
 90
        0
 91
        1
280
     0
281
     0
  0
CLASS
  1
AMDTNOTE
  2
AmdtNote
  3
"AcmSymBB|Product Description: AutoCAD Mechanical 2004 DX|Company: Autodesk"
 90
     1023
 91
       13
280
     0
281
     1
  0
ENDSEC
  0
SECTION
  2
TABLES
  0
TABLE
  2
VPORT
  5
8
330
0
100
AcDbSymbolTable
 70
     3
  0
VPORT
  5
6AA0
330
8
100
AcDbSymbolTableRecord
100
AcDbViewportTableRecord
  2
*Active
 70
     0
 10
0.0
 20
0.0
 11
1.0
 21
1.0
 12
2128.075257537281
 22
609.6173812963569
 13
0.0
 23
0.0
 14
12.5
 24
12.5
 15
50.0
 25
50.0
 16
0.0
 26
0.0
 36
1.0
 17
0.0
 27
0.0
 37
0.0
 40
2115.70796362874
 41
1.498730964467005
 42
50.0
 43
0.0
 44
0.0
 50
0.0
 51
0.0
 71
    16
 72
   100
 73
     1
 74
     3
 75
     0
 76
     0
 77
     0
 78
     0
281
     0
 65
     1
110
0.0
120
0.0
130
0.0
111
1.0
121
0.0
131
0.0
112
0.0
122
1.0
132
0.0
 79
     0
146
0.0
  0
ENDTAB
  0
TABLE
  2
LTYPE
  5
5
330
0
100
AcDbSymbolTable
 70
    23
  0
LTYPE
  5
14
330
5
100
AcDbSymbolTableRecord
100
AcDbLinetypeTableRecord
  2
ByBlock
 70
     0
  3

 72
    65
 73
     0
 40
0.0
  0
LTYPE
  5
15
330
5
100
AcDbSymbolTableRecord
100
AcDbLinetypeTableRecord
  2
ByLayer
 70
     0
  3

 72
    65
 73
     0
 40
0.0
  0
LTYPE
  5
16
330
5
100
AcDbSymbolTableRecord
100
AcDbLinetypeTableRecord
  2
Continuous
 70
     0
  3
Solid line
 72
    65
 73
     0
 40
0.0
  0
LTYPE
  5
35
330
5
100
AcDbSymbolTableRecord
100
AcDbLinetypeTableRecord
  2
AM_ISO02W050
 70
     0
  3
__ __ __ __ __ __ __ __ __ __ __ __ __ __ __
 72
    65
 73
     2
 40
7.5
 49
6.0
 74
     0
 49
-1.5
 74
     0
  0
LTYPE
  5
36
330
5
100
AcDbSymbolTableRecord
100
AcDbLinetypeTableRecord
  2
AM_ISO08W050
 70
     0
  3
____ . ____ . ____ . ____ . ____ . ____ . ____
 72
    65
 73
     4
 40
18.0
 49
12.0
 74
     0
 49
-1.5
 74
     0
 49
3.0
 74
     0
 49
-1.5
 74
     0
  0
LTYPE
  5
37
330
5
100
AcDbSymbolTableRecord
100
AcDbLinetypeTableRecord
  2
AM_ISO09W050
 70
     0
  3
_____ . . _____ . . _____ . . ____ .. ____
 72
    65
 73
     6
 40
22.5
 49
12.0
 74
     0
 49
-1.5
 74
     0
 49
3.0
 74
     0
 49
-1.5
 74
     0
 49
3.0
 74
     0
 49
-1.5
 74
     0
  0
LTYPE
  5
38
330
5
100
AcDbSymbolTableRecord
100
AcDbLinetypeTableRecord
  2
Amconstr
 70
     0
  3
_______________________
 72
    65
 73
     2
 40
9999.0
 49
9999.0
 74
     0
 49
0.0
 74
     0
  0
LTYPE
  5
39
330
5
100
AcDbSymbolTableRecord
100
AcDbLinetypeTableRecord
  2
AM_ISO08W050x2
 70
     0
  3
__ . __ . __ . __ . __ . __
 72
    65
 73
     4
 40
9.0
 49
6.0
 74
     0
 49
-0.75
 74
     0
 49
1.5
 74
     0
 49
-0.75
 74
     0
  0
LTYPE
  5
3A
330
5
100
AcDbSymbolTableRecord
100
AcDbLinetypeTableRecord
  2
AM_ISO02W050x2
 70
     0
  3
 _ _ _ _ _ _ _ _ _ _ _ _
 72
    65
 73
     2
 40
3.75
 49
3.0
 74
     0
 49
-0.75
 74
     0
  0
LTYPE
  5
3B
330
5
100
AcDbSymbolTableRecord
100
AcDbLinetypeTableRecord
  2
Amzigzag
 70
     0
  3
/\/-/\/-/\/-/\/-/\/-/\/
 72
    65
 73
     2
 40
11.0001
 49
0.0001
 74
     4
 75
   135
340
3C
 46
0.04
 50
0.0
 44
0.0
 45
0.0
 49
-11.0
 74
     0
  0
LTYPE
  5
64
330
5
100
AcDbSymbolTableRecord
100
AcDbLinetypeTableRecord
  2
ACJISTGB
 70
     0
  3
__ . . __ . .
 72
    65
 73
     6
 40
9.0
 49
4.0
 74
     0
 49
-1.0
 74
     0
 49
1.0
 74
     0
 49
-1.0
 74
     0
 49
1.0
 74
     0
 49
-1.0
 74
     0
  0
LTYPE
  5
65
330
5
100
AcDbSymbolTableRecord
100
AcDbLinetypeTableRecord
  2
ACJISTGL
 70
     0
  3
_ _ _ _ _
 72
    65
 73
     2
 40
3.0
 49
2.0
 74
     0
 49
-1.0
 74
     0
  0
LTYPE
  5
69
330
5
100
AcDbSymbolTableRecord
100
AcDbLinetypeTableRecord
  2
CENTER
 70
     0
  3
__ . __
 72
    65
 73
     4
 40
7.0
 49
4.0
 74
     0
 49
-1.0
 74
     0
 49
1.0
 74
     0
 49
-1.0
 74
     0
  0
LTYPE
  5
8F
330
5
100
AcDbSymbolTableRecord
100
AcDbLinetypeTableRecord
  2
ACISOWELD
 70
     0
  3
_ _ _ _ _
 72
    65
 73
     2
 40
2.0
 49
2.0
 74
     0
 49
-1.0
 74
     0
  0
LTYPE
  5
92
330
5
100
AcDbSymbolTableRecord
100
AcDbLinetypeTableRecord
  2
ACISOTGB
 70
     0
  3
__ . . __ . .
 72
    65
 73
     6
 40
9.0
 49
4.0
 74
     0
 49
-1.0
 74
     0
 49
1.0
 74
     0
 49
-1.0
 74
     0
 49
1.0
 74
     0
 49
-1.0
 74
     0
  0
LTYPE
  5
93
330
5
100
AcDbSymbolTableRecord
100
AcDbLinetypeTableRecord
  2
ACISOTGL
 70
     0
  3
_ _ _ _ _
 72
    65
 73
     2
 40
3.0
 49
2.0
 74
     0
 49
-1.0
 74
     0
  0
LTYPE
  5
308
330
5
100
AcDbSymbolTableRecord
100
AcDbLinetypeTableRecord
  2
DASHED
 70
     0
  3
__ __ __ __ __ __ __ __ __ __ __ __ __ __ __
 72
    65
 73
     2
 40
3.0
 49
2.0
 74
     0
 49
-1.0
 74
     0
  0
LTYPE
  5
309
330
5
100
AcDbSymbolTableRecord
100
AcDbLinetypeTableRecord
  2
HIDDEN
 70
     0
  3
_ _ _ _ _ _ _ _ _ _ _ _ _ _ _ _ _ _ _ _ _ _ _
 72
    65
 73
     2
 40
1.5
 49
1.0
 74
     0
 49
-0.5
 74
     0
  0
LTYPE
  5
30A
330
5
100
AcDbSymbolTableRecord
100
AcDbLinetypeTableRecord
  2
PHANTOM
 70
     0
  3
_____ _ _ _____ _ _ _____ _ _ _____ _ _ ____
 72
    65
 73
     6
 40
27.0
 49
20.0
 74
     0
 49
-1.0
 74
     0
 49
2.0
 74
     0
 49
-1.0
 74
     0
 49
2.0
 74
     0
 49
-1.0
 74
     0
  0
LTYPE
  5
30B
330
5
100
AcDbSymbolTableRecord
100
AcDbLinetypeTableRecord
  2
DOT
 70
     0
  3
...............................................
 72
    65
 73
     2
 40
1.5
 49
0.5
 74
     0
 49
-1.0
 74
     0
  0
LTYPE
  5
30C
330
5
100
AcDbSymbolTableRecord
100
AcDbLinetypeTableRecord
  2
DASHDOT
 70
     0
  3
__ . __ . __ . __ . __ . __ . __ . __ . __ . __
 72
    65
 73
     4
 40
8.5
 49
6.0
 74
     0
 49
-1.0
 74
     0
 49
0.5
 74
     0
 49
-1.0
 74
     0
  0
LTYPE
  5
30D
330
5
100
AcDbSymbolTableRecord
100
AcDbLinetypeTableRecord
  2
DIVIDE
 70
     0
  3
__ . . __ . . __ . . __ . . __ . . __ . . __
 72
    65
 73
     6
 40
10.0
 49
6.0
 74
     0
 49
-1.0
 74
     0
 49
0.5
 74
     0
 49
-1.0
 74
     0
 49
0.5
 74
     0
 49
-1.0
 74
     0
  0
LTYPE
  5
30E
330
5
100
AcDbSymbolTableRecord
100
AcDbLinetypeTableRecord
  2
BORDER
 70
     0
  3
__ __ . __ __ . __ __ . __ __ . __ __ . __ __
 72
    65
 73
     6
 40
15.5
 49
6.0
 74
     0
 49
-1.0
 74
     0
 49
6.0
 74
     0
 49
-1.0
 74
     0
 49
0.5
 74
     0
 49
-1.0
 74
     0
  0
LTYPE
  5
30F
330
5
100
AcDbSymbolTableRecord
100
AcDbLinetypeTableRecord
  2
GEN7A
 70
     0
  3
__ . __ . __
 72
    65
 73
     4
 40
6.875
 49
5.0
 74
     0
 49
-0.625
 74
     0
 49
0.625
 74
     0
 49
-0.625
 74
     0
  0
LTYPE
  5
9B5
330
5
100
AcDbSymbolTableRecord
100
AcDbLinetypeTableRecord
  2
PHANTOM2
 70
     0
  3
Phantom (.5x) ___ _ _ ___ _ _ ___ _ _ ___ _ _
 72
    65
 73
     6
 40
31.75
 49
15.875
 74
     0
 49
-3.174999999999999
 74
     0
 49
3.174999999999999
 74
     0
 49
-3.174999999999999
 74
     0
 49
3.174999999999999
 74
     0
 49
-3.174999999999999
 74
     0
  0
ENDTAB
  0
TABLE
  2
LAYER
  5
2
102
{ACAD_XDICTIONARY
360
664A
102
}
330
0
100
AcDbSymbolTable
 70
    14
  0
LAYER
  5
10
330
2
100
AcDbSymbolTableRecord
100
AcDbLayerTableRecord
  2
0
 70
     0
 62
     7
  6
Continuous
370
    -3
390
F
  0
LAYER
  5
F5
330
2
100
AcDbSymbolTableRecord
100
AcDbLayerTableRecord
  2
RAHM2
 70
     0
 62
     1
  6
Continuous
370
    -3
390
F
  0
LAYER
  5
1EF
330
2
100
AcDbSymbolTableRecord
100
AcDbLayerTableRecord
  2
AM_BOR
 70
     0
 62
     7
  6
Continuous
370
    50
390
F
  0
LAYER
  5
310
330
2
100
AcDbSymbolTableRecord
100
AcDbLayerTableRecord
  2
RAHM3
 70
     0
 62
     2
  6
Continuous
370
    -3
390
F
  0
LAYER
  5
311
330
2
100
AcDbSymbolTableRecord
100
AcDbLayerTableRecord
  2
RAHM5
 70
     0
 62
     7
  6
Continuous
370
    -3
390
F
  0
LAYER
  5
312
330
2
100
AcDbSymbolTableRecord
100
AcDbLayerTableRecord
  2
1
 70
     0
 62
     7
  6
Continuous
370
    -3
390
F
  0
LAYER
  5
313
330
2
100
AcDbSymbolTableRecord
100
AcDbLayerTableRecord
  2
DEFPOINTS
 70
     0
 62
     7
  6
Continuous
290
     0
370
    -3
390
F
  0
LAYER
  5
316
330
2
100
AcDbSymbolTableRecord
100
AcDbLayerTableRecord
  2
7A
 70
     0
 62
     4
  6
GEN7A
370
    -3
390
F
  0
LAYER
  5
9ED
330
2
100
AcDbSymbolTableRecord
100
AcDbLayerTableRecord
  2
AM_5
 70
     0
 62
     3
  6
Continuous
370
    25
390
F
  0
LAYER
  5
6520
330
2
100
AcDbSymbolTableRecord
100
AcDbLayerTableRecord
  2
AM_7
 70
     0
 62
     4
  6
AM_ISO08W050
370
    25
390
F
  0
LAYER
  5
6649
330
2
100
AcDbSymbolTableRecord
100
AcDbLayerTableRecord
  2
AM_0
 70
     0
 62
     7
  6
Continuous
370
    50
390
F
  0
LAYER
  5
673C
330
2
100
AcDbSymbolTableRecord
100
AcDbLayerTableRecord
  2
AM_3
 70
     0
 62
     6
  6
AM_ISO02W050
370
    25
390
F
  0
LAYER
  5
6942
330
2
100
AcDbSymbolTableRecord
100
AcDbLayerTableRecord
  2
TEXT
 70
     0
 62
     7
  6
Continuous
370
    -3
390
F
  0
LAYER
  5
69A2
330
2
100
AcDbSymbolTableRecord
100
AcDbLayerTableRecord
  2
AM_4
 70
     0
 62
     3
  6
Continuous
370
    25
390
F
  0
ENDTAB
  0
TABLE
  2
STYLE
  5
3
330
0
100
AcDbSymbolTable
 70
     9
  0
STYLE
  5
11
330
3
100
AcDbSymbolTableRecord
100
AcDbTextStyleTableRecord
  2
STANDARD
 70
     0
 40
0.0
 41
1.0
 50
0.0
 71
     0
 42
2.5
  3
ISOCP.SHX
  4
EXTFONT.SHX
  0
STYLE
  5
3C
330
3
100
AcDbSymbolTableRecord
100
AcDbTextStyleTableRecord
  2

 70
     1
 40
0.0
 41
1.0
 50
0.0
 71
     0
 42
2.5
  3
ltypeshp.shx
  4

  0
STYLE
  5
5D
330
3
100
AcDbSymbolTableRecord
100
AcDbTextStyleTableRecord
  2
ACJISTS
 70
     0
 40
1.0
 41
1.0
 50
0.0
 71
     0
 42
2.5
  3
isocp.shx
  4
extfont.shx
  0
STYLE
  5
60
330
3
100
AcDbSymbolTableRecord
100
AcDbTextStyleTableRecord
  2
ACJISGDT
 70
     0
 40
0.0
 41
1.0
 50
0.0
 71
     0
 42
2.5
  3
amgdt.shx
  4

  0
STYLE
  5
89
330
3
100
AcDbSymbolTableRecord
100
AcDbTextStyleTableRecord
  2
ACISOTS
 70
     0
 40
1.0
 41
1.0
 50
0.0
 71
     0
 42
2.5
  3
isocp.shx
  4
extfont.shx
  0
STYLE
  5
8D
330
3
100
AcDbSymbolTableRecord
100
AcDbTextStyleTableRecord
  2
ACISOGDT
 70
     0
 40
0.0
 41
1.0
 50
0.0
 71
     0
 42
2.5
  3
amgdt.shx
  4

  0
STYLE
  5
A4
330
3
100
AcDbSymbolTableRecord
100
AcDbTextStyleTableRecord
  2
USER1
 70
     0
 40
0.0
 41
1.0
 50
0.0
 71
     0
 42
2.5
  3
TXT.SHX
  4

  0
STYLE
  5
A5
330
3
100
AcDbSymbolTableRecord
100
AcDbTextStyleTableRecord
  2
USER2
 70
     0
 40
0.0
 41
1.0
 50
0.0
 71
     0
 42
2.5
  3
SIMPLEX.SHX
  4

  0
STYLE
  5
A6
330
3
100
AcDbSymbolTableRecord
100
AcDbTextStyleTableRecord
  2
USER3
 70
     0
 40
0.0
 41
1.0
 50
0.0
 71
     0
 42
2.5
  3
ITALIC.SHX
  4

  0
ENDTAB
  0
TABLE
  2
VIEW
  5
6
330
0
100
AcDbSymbolTable
 70
     6
  0
VIEW
  5
3C5
330
6
100
AcDbSymbolTableRecord
100
AcDbViewTableRecord
  2
AM_VIEW1
 70
     0
 40
742.4999999999999
 10
1419.758591371715
 20
37.71845216751172
 41
1071.687192118226
 11
0.0
 21
0.0
 31
1.0
 12
0.0
 22
0.0
 32
0.0
 42
50.0
 43
0.0
 44
0.0
 50
0.0
 71
    16
281
     0
 72
     0
  0
VIEW
  5
3C6
330
6
100
AcDbSymbolTableRecord
100
AcDbViewTableRecord
  2
AM_VIEW2
 70
     0
 40
742.4999999999999
 10
2448.071399253489
 20
37.71845216751172
 41
1071.687192118226
 11
0.0
 21
0.0
 31
1.0
 12
0.0
 22
0.0
 32
0.0
 42
50.0
 43
0.0
 44
0.0
 50
0.0
 71
    16
281
     0
 72
     0
  0
VIEW
  5
3C7
330
6
100
AcDbSymbolTableRecord
100
AcDbViewTableRecord
  2
AM_VIEW3
 70
     0
 40
742.4999999999999
 10
1419.758591371715
 20
-704.7815478324882
 41
1071.687192118226
 11
0.0
 21
0.0
 31
1.0
 12
0.0
 22
0.0
 32
0.0
 42
50.0
 43
0.0
 44
0.0
 50
0.0
 71
    16
281
     0
 72
     0
  0
VIEW
  5
3C8
330
6
100
AcDbSymbolTableRecord
100
AcDbViewTableRecord
  2
AM_VIEW4
 70
     0
 40
742.4999999999999
 10
2448.071399253489
 20
-704.7815478324882
 41
1071.687192118226
 11
0.0
 21
0.0
 31
1.0
 12
0.0
 22
0.0
 32
0.0
 42
50.0
 43
0.0
 44
0.0
 50
0.0
 71
    16
281
     0
 72
     0
  0
VIEW
  5
3C9
330
6
100
AcDbSymbolTableRecord
100
AcDbViewTableRecord
  2
AM_VIEW5
 70
     0
 40
742.4999999999999
 10
1933.914995312601
 20
-333.5315478324883
 41
1071.687192118226
 11
0.0
 21
0.0
 31
1.0
 12
0.0
 22
0.0
 32
0.0
 42
50.0
 43
0.0
 44
0.0
 50
0.0
 71
    16
281
     0
 72
     0
  0
VIEW
  5
3CA
330
6
100
AcDbSymbolTableRecord
100
AcDbViewTableRecord
  2
AM_VIEW6
 70
     0
 40
1484.98515
 10
1933.914995312601
 20
-333.5315478324883
 41
2143.35295049261
 11
0.0
 21
0.0
 31
1.0
 12
0.0
 22
0.0
 32
0.0
 42
50.0
 43
0.0
 44
0.0
 50
0.0
 71
    16
281
     0
 72
     0
  0
ENDTAB
  0
TABLE
  2
UCS
  5
7
330
0
100
AcDbSymbolTable
 70
     0
  0
ENDTAB
  0
TABLE
  2
APPID
  5
9
330
0
100
AcDbSymbolTable
 70
    47
  0
APPID
  5
12
330
9
100
AcDbSymbolTableRecord
100
AcDbRegAppTableRecord
  2
ACAD
 70
     0
  0
APPID
  5
2D
330
9
100
AcDbSymbolTableRecord
100
AcDbRegAppTableRecord
  2
MCAD_NO_VIS
 70
     0
  0
APPID
  5
2E
330
9
100
AcDbSymbolTableRecord
100
AcDbRegAppTableRecord
  2
ACAD_TEMP_GRAPHIC
 70
     0
  0
APPID
  5
2F
330
9
100
AcDbSymbolTableRecord
100
AcDbRegAppTableRecord
  2
ACATTRIBSERVICES
 70
     0
  0
APPID
  5
1F0
330
9
100
AcDbSymbolTableRecord
100
AcDbRegAppTableRecord
  2
GENIUS_GENBLLY_14
 70
     0
  0
APPID
  5
321
330
9
100
AcDbSymbolTableRecord
100
AcDbRegAppTableRecord
  2
GENIUS_GENCFG_13
 70
     0
  0
APPID
  5
322
330
9
100
AcDbSymbolTableRecord
100
AcDbRegAppTableRecord
  2
GENIUS_GENOBJ_13
 70
     0
  0
APPID
  5
323
330
9
100
AcDbSymbolTableRecord
100
AcDbRegAppTableRecord
  2
GENIUS_GENODEF_13
 70
     0
  0
APPID
  5
324
330
9
100
AcDbSymbolTableRecord
100
AcDbRegAppTableRecord
  2
GENIUS_GENOENT_13
 70
     0
  0
APPID
  5
325
330
9
100
AcDbSymbolTableRecord
100
AcDbRegAppTableRecord
  2
GENIUS_GENOLIS_13
 70
     0
  0
APPID
  5
326
330
9
100
AcDbSymbolTableRecord
100
AcDbRegAppTableRecord
  2
GENIUS_GENOREF_13
 70
     0
  0
APPID
  5
327
330
9
100
AcDbSymbolTableRecord
100
AcDbRegAppTableRecord
  2
GENIUS_GENOBJ-N-TIT_13
 70
     0
  0
APPID
  5
328
330
9
100
AcDbSymbolTableRecord
100
AcDbRegAppTableRecord
  2
GENIUS_GENTITLE_13
 70
     0
  0
APPID
  5
329
330
9
100
AcDbSymbolTableRecord
100
AcDbRegAppTableRecord
  2
GENIUS_GENZVEED_13
 70
     0
  0
APPID
  5
32A
330
9
100
AcDbSymbolTableRecord
100
AcDbRegAppTableRecord
  2
GENIUS_GENOBJ-N-SDF_13
 70
     0
  0
APPID
  5
32B
330
9
100
AcDbSymbolTableRecord
100
AcDbRegAppTableRecord
  2
GENIUS_GENSCREG_13
 70
     0
  0
APPID
  5
32C
330
9
100
AcDbSymbolTableRecord
100
AcDbRegAppTableRecord
  2
GENIUS_GENCFG0_13
 70
     0
  0
APPID
  5
32D
330
9
100
AcDbSymbolTableRecord
100
AcDbRegAppTableRecord
  2
GENIUS_GENCFG1_13
 70
     0
  0
APPID
  5
32E
330
9
100
AcDbSymbolTableRecord
100
AcDbRegAppTableRecord
  2
GENIUS_GENCFG2_13
 70
     0
  0
APPID
  5
32F
330
9
100
AcDbSymbolTableRecord
100
AcDbRegAppTableRecord
  2
GENIUS_GENCFG3_13
 70
     0
  0
APPID
  5
330
330
9
100
AcDbSymbolTableRecord
100
AcDbRegAppTableRecord
  2
GENIUS_GENCFG4_13
 70
     0
  0
APPID
  5
331
330
9
100
AcDbSymbolTableRecord
100
AcDbRegAppTableRecord
  2
GENIUS_GEVCFG0_13
 70
     0
  0
APPID
  5
332
330
9
100
AcDbSymbolTableRecord
100
AcDbRegAppTableRecord
  2
GENIUS_GENOBJ-N-CRS_13
 70
     0
  0
APPID
  5
333
330
9
100
AcDbSymbolTableRecord
100
AcDbRegAppTableRecord
  2
GENIUS_GENOBJ-N-CEN_13
 70
     0
  0
APPID
  5
334
330
9
100
AcDbSymbolTableRecord
100
AcDbRegAppTableRecord
  2
GENIUS_GEFCFG0_13
 70
     0
  0
APPID
  5
3BA
330
9
100
AcDbSymbolTableRecord
100
AcDbRegAppTableRecord
  2
GENIUS_GENTRA_14
 70
     0
  0
APPID
  5
3CB
330
9
100
AcDbSymbolTableRecord
100
AcDbRegAppTableRecord
  2
GENIUS_GENSCREG_15
 70
     0
  0
APPID
  5
436
330
9
100
AcDbSymbolTableRecord
100
AcDbRegAppTableRecord
  2
GEVID984623613
 70
     0
  0
APPID
  5
437
330
9
100
AcDbSymbolTableRecord
100
AcDbRegAppTableRecord
  2
GEVDC
 70
     0
  0
APPID
  5
438
330
9
100
AcDbSymbolTableRecord
100
AcDbRegAppTableRecord
  2
GEVCON
 70
     0
  0
APPID
  5
43C
330
9
100
AcDbSymbolTableRecord
100
AcDbRegAppTableRecord
  2
GENIUS_GENBH_13
 70
     0
  0
APPID
  5
43E
330
9
100
AcDbSymbolTableRecord
100
AcDbRegAppTableRecord
  2
GENIUS_GENOBJ-NBEHI-BHF_13
 70
     0
  0
APPID
  5
440
330
9
100
AcDbSymbolTableRecord
100
AcDbRegAppTableRecord
  2
GENIUS_GENOBJ-NBEHI-BHB_13
 70
     0
  0
APPID
  5
455
330
9
100
AcDbSymbolTableRecord
100
AcDbRegAppTableRecord
  2
GENIUS_GENOBJ-F-SCPASSM_13
 70
     0
  0
APPID
  5
47B
330
9
100
AcDbSymbolTableRecord
100
AcDbRegAppTableRecord
  2
GEVID984623614
 70
     0
  0
APPID
  5
48B
330
9
100
AcDbSymbolTableRecord
100
AcDbRegAppTableRecord
  2
GEVID984623615
 70
     0
  0
APPID
  5
54A
330
9
100
AcDbSymbolTableRecord
100
AcDbRegAppTableRecord
  2
GENIUS_GENOBJ-N-REV_13
 70
     0
  0
APPID
  5
54B
330
9
100
AcDbSymbolTableRecord
100
AcDbRegAppTableRecord
  2
GENIUS_GENOBJ-N-RSSYM_13
 70
     0
  0
APPID
  5
54C
330
9
100
AcDbSymbolTableRecord
100
AcDbRegAppTableRecord
  2
GENIUS_GENSYMENT_13
 70
     0
  0
APPID
  5
54D
330
9
100
AcDbSymbolTableRecord
100
AcDbRegAppTableRecord
  2
GENIUS_GENSCSYM_13
 70
     0
  0
APPID
  5
943
330
9
100
AcDbSymbolTableRecord
100
AcDbRegAppTableRecord
  2
DCO15
 70
     0
  0
APPID
  5
9B7
330
9
100
AcDbSymbolTableRecord
100
AcDbRegAppTableRecord
  2
AD_DRAW
 70
     0
  0
APPID
  5
9D5
330
9
100
AcDbSymbolTableRecord
100
AcDbRegAppTableRecord
  2
DESIGNERASSEMBLIES
 70
     0
  0
APPID
  5
9E5
330
9
100
AcDbSymbolTableRecord
100
AcDbRegAppTableRecord
  2
ACADM_DIM_EDIT
 70
     0
  0
APPID
  5
9E6
330
9
100
AcDbSymbolTableRecord
100
AcDbRegAppTableRecord
  2
AMDT_DM_ADJ
 70
     0
  0
APPID
  5
659D
330
9
100
AcDbSymbolTableRecord
100
AcDbRegAppTableRecord
  2
GENIUS_GENDIMSH_14
 70
     0
  0
APPID
  5
65C2
330
9
100
AcDbSymbolTableRecord
100
AcDbRegAppTableRecord
  2
GENIUS_GENDTOL_13
 70
     0
  0
ENDTAB
  0
TABLE
  2
DIMSTYLE
  5
A
330
0
100
AcDbSymbolTable
 70
    26
100
AcDbDimStyleTable
 71
     1
340
76
  0
DIMSTYLE
105
27
330
A
100
AcDbSymbolTableRecord
100
AcDbDimStyleTableRecord
  2
ISO-25
 70
     0
 41
2.5
 42
0.625
 43
3.75
 44
1.25
 73
     0
 74
     0
 77
     1
 78
     8
140
2.5
141
2.5
143
0.03937007874016
147
0.625
171
     3
172
     1
271
     2
272
     2
274
     3
283
     0
284
     8
340
11
  0
DIMSTYLE
105
76
330
A
100
AcDbSymbolTableRecord
100
AcDbDimStyleTableRecord
  2
IGS
 70
     0
  4
"
 41
2.5
 42
1.0
 43
10.0
 44
1.0
 47
0.1
 48
0.1
 73
     0
 74
     0
 77
     3
 78
     8
 79
     2
140
3.0
141
0.0
143
0.0393701
146
0.71
147
1.5
172
     1
176
   256
177
   256
178
     2
271
     2
272
     2
283
     0
284
     8
340
11
341
77
342
77
371
    -1
372
    -1
  0
DIMSTYLE
105
7D
330
A
100
AcDbSymbolTableRecord
100
AcDbDimStyleTableRecord
  2
IGS$3
 70
     0
  4
"
 41
2.5
 42
1.0
 43
10.0
 44
1.0
 47
0.1
 48
0.1
 73
     0
 77
     3
 78
     8
 79
     2
140
3.0
141
0.0
143
0.0393701
146
0.71
147
1.5
176
   256
177
   256
178
     2
271
     2
272
     2
283
     0
284
     8
288
     1
289
     0
340
11
341
77
342
77
371
    -1
372
    -1
  0
DIMSTYLE
105
7E
330
A
100
AcDbSymbolTableRecord
100
AcDbDimStyleTableRecord
  2
IGS$4
 70
     0
  4
"
 41
2.5
 42
1.0
 43
10.0
 44
1.0
 47
0.1
 48
0.1
 73
     0
 77
     3
 78
     8
 79
     2
140
3.0
141
0.0
143
0.0393701
146
0.71
147
1.5
176
   256
177
   256
178
     2
271
     2
272
     2
283
     0
284
     8
288
     1
289
     0
340
11
341
77
342
77
371
    -1
372
    -1
  0
DIMSTYLE
105
7F
330
A
100
AcDbSymbolTableRecord
100
AcDbDimStyleTableRecord
  2
IGS$6
 70
     0
  4
"
 41
2.5
 42
1.0
 43
10.0
 44
1.0
 47
0.1
 48
0.1
 73
     0
 74
     0
 78
     8
 79
     2
140
3.0
141
0.0
143
0.0393701
146
0.71
147
1.5
172
     1
176
   256
177
   256
178
     2
271
     2
272
     2
283
     0
284
     8
340
11
341
77
342
77
371
    -1
372
    -1
  0
DIMSTYLE
105
80
330
A
100
AcDbSymbolTableRecord
100
AcDbDimStyleTableRecord
  2
IGS$7
 70
     0
  4
"
 41
2.5
 42
1.0
 43
10.0
 44
1.0
 47
0.1
 48
0.1
 73
     0
 74
     0
 77
     3
 78
     8
 79
     2
140
5.0
141
0.0
143
0.0393701
146
0.71
147
1.5
172
     1
176
   256
177
   256
178
     2
271
     2
272
     2
283
     0
284
     8
340
11
341
77
342
77
371
    -1
372
    -1
  0
DIMSTYLE
105
81
330
A
100
AcDbSymbolTableRecord
100
AcDbDimStyleTableRecord
  2
IGS$SF
 70
     0
  4
"
 41
2.5
 42
1.0
 43
10.0
 44
1.0
 47
0.1
 48
0.1
 73
     0
 74
     0
 75
     1
 76
     1
 77
     3
 78
     8
 79
     2
140
3.5
141
0.0
143
0.0393701
146
0.71
147
1.5
172
     1
176
   256
177
   256
178
     2
271
     2
272
     3
274
     4
283
     0
284
     8
340
11
341
77
342
77
343
77
344
77
371
    -1
372
    -1
  0
DIMSTYLE
105
82
330
A
100
AcDbSymbolTableRecord
100
AcDbDimStyleTableRecord
  2
IGS$SH
 70
     0
  4
"
 41
2.5
 42
1.0
 43
10.0
 44
1.0
 47
0.1
 48
0.1
 73
     0
 74
     0
 75
     1
 76
     1
 77
     3
 78
     8
 79
     2
140
3.5
141
0.0
143
0.0393701
144
2.0
146
0.71
147
1.5
172
     1
173
     1
176
   256
177
   256
178
     2
271
     2
272
     3
274
     4
283
     0
284
     8
340
11
341
77
342
77
343
83
344
77
371
    -1
372
    -1
  0
DIMSTYLE
105
9A
330
A
100
AcDbSymbolTableRecord
100
AcDbDimStyleTableRecord
  2
AM_ISO
 70
     0
  4
"
 41
2.5
 42
1.0
 43
10.0
 44
1.0
 47
0.1
 48
0.1
 73
     0
 74
     0
 77
     1
 78
     8
 79
     2
140
3.5
141
0.0
143
0.0393701
146
0.71
147
1.5
172
     1
176
   256
177
   256
178
     2
271
     2
272
     3
274
     4
283
     0
284
     8
340
11
371
    -1
372
    -1
  0
DIMSTYLE
105
9B
330
A
100
AcDbSymbolTableRecord
100
AcDbDimStyleTableRecord
  2
AM_ISO$3
 70
     0
  4
"
 41
2.5
 42
1.0
 43
10.0
 44
1.0
 47
0.1
 48
0.1
 73
     0
 77
     1
 78
     8
 79
     2
140
3.5
141
0.0
143
0.0393701
146
0.71
147
1.5
176
   256
177
   256
178
     2
271
     2
272
     3
274
     4
283
     0
284
     8
288
     1
289
     0
340
11
371
    -1
372
    -1
  0
DIMSTYLE
105
9C
330
A
100
AcDbSymbolTableRecord
100
AcDbDimStyleTableRecord
  2
AM_ISO$4
 70
     0
  4
"
 41
2.5
 42
1.0
 43
10.0
 44
1.0
 47
0.1
 48
0.1
 73
     0
 77
     1
 78
     8
 79
     2
140
3.5
141
0.0
143
0.0393701
146
0.71
147
1.5
176
   256
177
   256
178
     2
271
     2
272
     3
274
     4
283
     0
284
     8
288
     1
289
     0
340
11
371
    -1
372
    -1
  0
DIMSTYLE
105
9D
330
A
100
AcDbSymbolTableRecord
100
AcDbDimStyleTableRecord
  2
AM_ISO$6
 70
     0
  4
"
 41
2.5
 42
1.0
 43
10.0
 44
1.0
 47
0.1
 48
0.1
 73
     0
 74
     0
 78
     8
 79
     2
140
3.5
141
0.0
143
0.0393701
146
0.71
147
1.5
172
     1
176
   256
177
   256
178
     2
271
     2
272
     3
274
     4
283
     0
284
     8
340
11
371
    -1
372
    -1
  0
DIMSTYLE
105
9E
330
A
100
AcDbSymbolTableRecord
100
AcDbDimStyleTableRecord
  2
AM_ISO$7
 70
     0
  4
"
 41
2.5
 42
1.0
 43
10.0
 44
1.0
 47
0.1
 48
0.1
 73
     0
 74
     0
 77
     1
 78
     8
 79
     2
140
5.0
141
0.0
143
0.0393701
146
0.71
147
1.5
172
     1
176
   256
177
   256
178
     2
271
     2
272
     3
274
     4
283
     0
284
     8
340
11
371
    -1
372
    -1
  0
DIMSTYLE
105
9F
330
A
100
AcDbSymbolTableRecord
100
AcDbDimStyleTableRecord
  2
AM_ISO$SF
 70
     0
  4
"
 41
2.5
 42
1.0
 43
10.0
 44
1.0
 47
0.1
 48
0.1
 73
     0
 74
     0
 75
     1
 76
     1
 77
     1
 78
     8
 79
     2
140
3.5
141
0.0
143
0.0393701
146
0.71
147
1.5
172
     1
176
   256
177
   256
178
     2
271
     2
272
     3
274
     4
283
     0
284
     8
340
11
371
    -1
372
    -1
  0
DIMSTYLE
105
A0
330
A
100
AcDbSymbolTableRecord
100
AcDbDimStyleTableRecord
  2
AM_ISO$SH
 70
     0
  4
"
 41
2.5
 42
1.0
 43
10.0
 44
1.0
 47
0.1
 48
0.1
 73
     0
 74
     0
 75
     1
 76
     1
 77
     1
 78
     8
 79
     2
140
3.5
141
0.0
143
0.0393701
144
2.0
146
0.71
147
1.5
172
     1
173
     1
176
   256
177
   256
178
     2
271
     2
272
     3
274
     4
283
     0
284
     8
340
11
343
83
371
    -1
372
    -1
  0
DIMSTYLE
105
317
330
A
100
AcDbSymbolTableRecord
100
AcDbDimStyleTableRecord
  2
STANDARD
 70
     0
340
11
  0
DIMSTYLE
105
318
330
A
100
AcDbSymbolTableRecord
100
AcDbDimStyleTableRecord
  2
ISO-35
 70
     0
 41
3.5
 42
0.875
 43
5.25
 44
1.75
 74
     0
 77
     1
 78
     8
140
3.5
141
3.5
143
0.0394
145
1.399999999999999
147
0.875
172
     1
340
11
  0
DIMSTYLE
105
319
330
A
100
AcDbSymbolTableRecord
100
AcDbDimStyleTableRecord
  2
ISO-5
 70
     0
 41
5.0
 42
1.25
 43
7.5
 44
2.5
 74
     0
 77
     1
 78
     8
140
5.0
141
5.0
143
0.0394
145
2.0
147
1.25
172
     1
340
11
  0
DIMSTYLE
105
31A
330
A
100
AcDbSymbolTableRecord
100
AcDbDimStyleTableRecord
  2
ISO-7
 70
     0
 41
7.0
 42
1.75
 43
10.5
 44
3.5
 74
     0
 77
     1
 78
     8
140
7.0
141
7.0
143
0.0394
145
2.799999999999999
147
1.75
172
     1
340
11
  0
DIMSTYLE
105
31B
330
A
100
AcDbSymbolTableRecord
100
AcDbDimStyleTableRecord
  2
ISO1
 70
     0
 41
10.0
 42
2.5
 43
15.0
 44
5.0
 74
     0
 77
     1
 78
     8
140
10.0
141
10.0
143
0.0394
145
4.0
147
2.5
172
     1
340
11
  0
DIMSTYLE
105
31C
330
A
100
AcDbSymbolTableRecord
100
AcDbDimStyleTableRecord
  2
ISO1-4
 70
     0
 41
14.0
 42
3.5
 43
21.0
 44
7.0
 74
     0
 77
     1
 78
     8
140
14.0
141
14.0
143
0.0394
145
5.599999999999999
147
3.5
172
     1
340
11
  0
DIMSTYLE
105
31D
330
A
100
AcDbSymbolTableRecord
100
AcDbDimStyleTableRecord
  2
ISO2
 70
     0
 41
20.0
 42
5.0
 43
30.0
 44
10.0
 74
     0
 77
     1
 78
     8
140
20.0
141
20.0
143
0.0394
145
8.0
147
5.0
172
     1
340
11
  0
DIMSTYLE
105
31E
330
A
100
AcDbSymbolTableRecord
100
AcDbDimStyleTableRecord
  2
GEN-ISO$4
 70
     0
  3
<>
 41
2.5
 42
1.0
 43
10.0
 44
1.0
 47
0.1
 48
0.1
 73
     0
 77
     1
 78
     8
140
3.5
141
0.0
143
0.0393701
146
0.71
147
1.5
176
   256
177
   256
178
     2
271
     2
272
     3
274
     4
283
     0
288
     1
289
     0
340
11
  0
DIMSTYLE
105
31F
330
A
100
AcDbSymbolTableRecord
100
AcDbDimStyleTableRecord
  2
GEN-ISO$3
 70
     0
  3
<>
 41
2.5
 42
1.0
 43
10.0
 44
1.0
 47
0.1
 48
0.1
 73
     0
 77
     1
 78
     8
140
3.5
141
0.0
143
0.0393701
146
0.71
147
1.5
176
   256
177
   256
178
     2
271
     2
272
     3
274
     4
283
     0
288
     1
289
     0
340
11
  0
DIMSTYLE
105
320
330
A
100
AcDbSymbolTableRecord
100
AcDbDimStyleTableRecord
  2
GEN-ISO
 70
     0
  3
<>
 41
2.5
 42
1.0
 43
10.0
 44
1.0
 47
0.1
 48
0.1
 73
     0
 74
     0
 77
     1
 78
     8
140
3.5
141
0.0
143
0.0393701
146
0.71
147
1.5
172
     1
176
   256
177
   256
178
     2
271
     2
272
     3
274
     4
283
     0
340
11
  0
DIMSTYLE
105
AA2
102
{ACAD_REACTORS
330
6532
330
6563
330
6589
330
65A4
330
65F3
330
661B
330
667E
330
66C1
330
66F9
102
}
330
A
100
AcDbSymbolTableRecord
100
AcDbDimStyleTableRecord
  2
IGS$0
 70
     0
  4
"
 41
2.5
 42
1.0
 43
10.0
 44
1.0
 47
0.1
 48
0.1
 73
     0
 74
     0
 77
     3
 78
     8
 79
     2
140
3.0
141
0.0
143
0.0393701
146
0.71
147
1.5
172
     1
176
   256
177
   256
178
     2
271
     1
272
     1
283
     0
284
     8
340
11
341
77
342
77
371
    -1
372
    -1
  0
ENDTAB
  0
TABLE
  2
BLOCK_RECORD
  5
1
330
0
100
AcDbSymbolTable
 70
    43
  0
BLOCK_RECORD
  5
1F
102
{ACAD_XDICTIONARY
360
B1
102
}
330
1
100
AcDbSymbolTableRecord
100
AcDbBlockTableRecord
  2
*Model_Space
340
22
  0
BLOCK_RECORD
  5
1B
330
1
100
AcDbSymbolTableRecord
100
AcDbBlockTableRecord
  2
*Paper_Space
340
1E
  0
BLOCK_RECORD
  5
23
330
1
100
AcDbSymbolTableRecord
100
AcDbBlockTableRecord
  2
*Paper_Space0
340
26
  0
BLOCK_RECORD
  5
77
330
1
100
AcDbSymbolTableRecord
100
AcDbBlockTableRecord
  2
_Open30
340
0
310
2800000020000000200000000100080000000000000400000000000000000000000000000000000000000000000080000080000000808000800000008000800080800000C0C0C000C0DCC000F0CAA6000020400000206000002080000020A0000020C0000020E00000400000004020000040400000406000004080000040A0
310
000040C0000040E00000600000006020000060400000606000006080000060A0000060C0000060E00000800000008020000080400000806000008080000080A0000080C0000080E00000A0000000A0200000A0400000A0600000A0800000A0A00000A0C00000A0E00000C0000000C0200000C0400000C0600000C0800000C0
310
A00000C0C00000C0E00000E0000000E0200000E0400000E0600000E0800000E0A00000E0C00000E0E00040000000400020004000400040006000400080004000A0004000C0004000E00040200000402020004020400040206000402080004020A0004020C0004020E000404000004040200040404000404060004040800040
310
40A0004040C0004040E00040600000406020004060400040606000406080004060A0004060C0004060E00040800000408020004080400040806000408080004080A0004080C0004080E00040A0000040A0200040A0400040A0600040A0800040A0A00040A0C00040A0E00040C0000040C0200040C0400040C0600040C08000
310
40C0A00040C0C00040C0E00040E0000040E0200040E0400040E0600040E0800040E0A00040E0C00040E0E00080000000800020008000400080006000800080008000A0008000C0008000E00080200000802020008020400080206000802080008020A0008020C0008020E00080400000804020008040400080406000804080
310
008040A0008040C0008040E00080600000806020008060400080606000806080008060A0008060C0008060E00080800000808020008080400080806000808080008080A0008080C0008080E00080A0000080A0200080A0400080A0600080A0800080A0A00080A0C00080A0E00080C0000080C0200080C0400080C0600080C0
310
800080C0A00080C0C00080C0E00080E0000080E0200080E0400080E0600080E0800080E0A00080E0C00080E0E000C0000000C0002000C0004000C0006000C0008000C000A000C000C000C000E000C0200000C0202000C0204000C0206000C0208000C020A000C020C000C020E000C0400000C0402000C0404000C0406000C0
310
408000C040A000C040C000C040E000C0600000C0602000C0604000C0606000C0608000C060A000C060C000C060E000C0800000C0802000C0804000C0806000C0808000C080A000C080C000C080E000C0A00000C0A02000C0A04000C0A06000C0A08000C0A0A000C0A0C000C0A0E000C0C00000C0C02000C0C04000C0C06000
310
C0C08000C0C0A000F0FBFF00A4A0A000808080000000FF0000FF000000FFFF00FF000000FF00FF00FFFF0000FFFFFF0000000000000000000000000000000000000000000000000000000000000000000000000000000000000000000000000000000000000000000000000000000000000000000000000000000000000000
310
00000000000000000000000000000000000000000000000000000000000000000000000000000000000000000000000000000000000000000000000000000000000000000000000000000000000000000000000000000000000000000000000000000000000000000000000000000000000000000000000000000000000000
310
000000000000000000000000000000000000000000000000000000000000000000000000000000000000000000000000000000FFFF0000000000000000000000000000000000000000000000000000000000000000FFFFFFFF0000000000000000000000000000000000000000000000000000000000000000FFFFFFFF0000
310
000000000000000000000000000000000000000000000000000000000000FFFFFF0000000000000000000000000000000000000000000000000000000000000000FFFFFFFF0000000000000000000000000000000000000000000000000000000000000000FFFFFF0000000000000000000000000000000000000000000000
310
000000000000000000FFFFFFFF0000000000000000000000000000000000000000000000000000000000000000FFFFFFFF00000000FFFFFFFFFFFFFFFFFFFFFFFFFFFFFFFFFFFFFFFFFFFFFFFFFFFFFFFFFFFF00000000000000000000000000000000000000000000000000FFFFFFFF000000000000000000000000000000
310
000000000000000000FFFFFFFF000000000000000000000000000000000000000000000000FFFFFFFF000000000000000000000000000000000000000000000000FFFFFFFF000000000000000000000000000000000000000000000000FFFFFFFF000000000000000000000000000000000000000000000000FFFFFFFF0000
310
0000000000000000000000000000000000000000000000FFFFFF0000000000000000000000000000000000000000000000000000000000000000000000000000000000000000000000000000000000000000000000000000000000000000000000000000000000000000000000000000000000000000000000000000000000
310
00000000000000000000000000000000000000000000000000000000000000000000000000000000000000000000000000000000000000000000000000000000000000000000000000000000000000000000000000000000000000000000000000000000000000000000000000000000000000000000000000000000000000
310
0000000000000000000000000000000000000000000000000000000000000000000000000000000000000000000000000000000000000000
102
{BLKREFS
331
68E3
331
68E4
331
68EC
331
68ED
331
68F5
331
68F6
331
6907
331
6908
331
6910
331
6911
331
6919
331
691A
331
6922
331
6923
331
692B
331
692C
331
69CD
331
69CE
102
}
  0
BLOCK_RECORD
  5
83
330
1
100
AcDbSymbolTableRecord
100
AcDbBlockTableRecord
  2
GENAXEH
340
0
310
2800000020000000200000000100080000000000000400000000000000000000000000000000000000000000000080000080000000808000800000008000800080800000C0C0C000C0DCC000F0CAA6000020400000206000002080000020A0000020C0000020E00000400000004020000040400000406000004080000040A0
310
000040C0000040E00000600000006020000060400000606000006080000060A0000060C0000060E00000800000008020000080400000806000008080000080A0000080C0000080E00000A0000000A0200000A0400000A0600000A0800000A0A00000A0C00000A0E00000C0000000C0200000C0400000C0600000C0800000C0
310
A00000C0C00000C0E00000E0000000E0200000E0400000E0600000E0800000E0A00000E0C00000E0E00040000000400020004000400040006000400080004000A0004000C0004000E00040200000402020004020400040206000402080004020A0004020C0004020E000404000004040200040404000404060004040800040
310
40A0004040C0004040E00040600000406020004060400040606000406080004060A0004060C0004060E00040800000408020004080400040806000408080004080A0004080C0004080E00040A0000040A0200040A0400040A0600040A0800040A0A00040A0C00040A0E00040C0000040C0200040C0400040C0600040C08000
310
40C0A00040C0C00040C0E00040E0000040E0200040E0400040E0600040E0800040E0A00040E0C00040E0E00080000000800020008000400080006000800080008000A0008000C0008000E00080200000802020008020400080206000802080008020A0008020C0008020E00080400000804020008040400080406000804080
310
008040A0008040C0008040E00080600000806020008060400080606000806080008060A0008060C0008060E00080800000808020008080400080806000808080008080A0008080C0008080E00080A0000080A0200080A0400080A0600080A0800080A0A00080A0C00080A0E00080C0000080C0200080C0400080C0600080C0
310
800080C0A00080C0C00080C0E00080E0000080E0200080E0400080E0600080E0800080E0A00080E0C00080E0E000C0000000C0002000C0004000C0006000C0008000C000A000C000C000C000E000C0200000C0202000C0204000C0206000C0208000C020A000C020C000C020E000C0400000C0402000C0404000C0406000C0
310
408000C040A000C040C000C040E000C0600000C0602000C0604000C0606000C0608000C060A000C060C000C060E000C0800000C0802000C0804000C0806000C0808000C080A000C080C000C080E000C0A00000C0A02000C0A04000C0A06000C0A08000C0A0A000C0A0C000C0A0E000C0C00000C0C02000C0C04000C0C06000
310
C0C08000C0C0A000F0FBFF00A4A0A000808080000000FF0000FF000000FFFF00FF000000FF00FF00FFFF0000FFFFFF0000000000000000000000000000000000000000000000000000000000000000000000000000000000000000000000000000000000000000000000000000000000000000000000000000000000000000
310
00000000000000000000000000000000000000000000000000000000000000000000000000000000000000000000000000000000000000000000000000000000000000000000000000000000000000000000000000000000000000000000000000000000000000000000000000000000000000000000000000000000000000
310
00000000000000000000000000000000000000000000000000000000000000000000000000000000000000000000000000000000000000000000000000000000000000000000000000000000000000000000000000000000000000000000000000000000000000000000000000000000000000000000000000000000000000
310
00000000000000000000000000000000000000000000000000000000000000000000000000000000000000000000000000000000000000000000000000000000000000000000000000000000000000000000000000000000000000000000000000000000000000000000000000000000000000000000000000000000000000
310
0000000000000000000000000000000000000000000000000000000000000000000000000000000000000000000000000000000000FFFFFFFFFFFFFFFFFFFFFFFFFFFFFFFFFFFFFFFFFFFFFFFFFFFFFFFFFFFF0000000000000000000000000000000000000000000000000000000000000000000000000000000000000000
310
00000000000000000000000000000000000000000000000000000000000000000000000000000000000000000000000000000000000000000000000000000000000000000000000000000000000000000000000000000000000000000000000000000000000000000000000000000000000000000000000000000000000000
310
00000000000000000000000000000000000000000000000000000000000000000000000000000000000000000000000000000000000000000000000000000000000000000000000000000000000000000000000000000000000000000000000000000000000000000000000000000000000000000000000000000000000000
310
00000000000000000000000000000000000000000000000000000000000000000000000000000000000000000000000000000000000000000000000000000000000000000000000000000000000000000000000000000000000000000000000000000000000000000000000000000000000000000000000000000000000000
310
0000000000000000000000000000000000000000000000000000000000000000000000000000000000000000000000000000000000000000
  0
BLOCK_RECORD
  5
1F1
330
1
100
AcDbSymbolTableRecord
100
AcDbBlockTableRecord
  2
IGS_A2
340
0
310
2800000020000000200000000100080000000000000400000000000000000000000000000000000000000000000080000080000000808000800000008000800080800000C0C0C000C0DCC000F0CAA6000020400000206000002080000020A0000020C0000020E00000400000004020000040400000406000004080000040A0
310
000040C0000040E00000600000006020000060400000606000006080000060A0000060C0000060E00000800000008020000080400000806000008080000080A0000080C0000080E00000A0000000A0200000A0400000A0600000A0800000A0A00000A0C00000A0E00000C0000000C0200000C0400000C0600000C0800000C0
310
A00000C0C00000C0E00000E0000000E0200000E0400000E0600000E0800000E0A00000E0C00000E0E00040000000400020004000400040006000400080004000A0004000C0004000E00040200000402020004020400040206000402080004020A0004020C0004020E000404000004040200040404000404060004040800040
310
40A0004040C0004040E00040600000406020004060400040606000406080004060A0004060C0004060E00040800000408020004080400040806000408080004080A0004080C0004080E00040A0000040A0200040A0400040A0600040A0800040A0A00040A0C00040A0E00040C0000040C0200040C0400040C0600040C08000
310
40C0A00040C0C00040C0E00040E0000040E0200040E0400040E0600040E0800040E0A00040E0C00040E0E00080000000800020008000400080006000800080008000A0008000C0008000E00080200000802020008020400080206000802080008020A0008020C0008020E00080400000804020008040400080406000804080
310
008040A0008040C0008040E00080600000806020008060400080606000806080008060A0008060C0008060E00080800000808020008080400080806000808080008080A0008080C0008080E00080A0000080A0200080A0400080A0600080A0800080A0A00080A0C00080A0E00080C0000080C0200080C0400080C0600080C0
310
800080C0A00080C0C00080C0E00080E0000080E0200080E0400080E0600080E0800080E0A00080E0C00080E0E000C0000000C0002000C0004000C0006000C0008000C000A000C000C000C000E000C0200000C0202000C0204000C0206000C0208000C020A000C020C000C020E000C0400000C0402000C0404000C0406000C0
310
408000C040A000C040C000C040E000C0600000C0602000C0604000C0606000C0608000C060A000C060C000C060E000C0800000C0802000C0804000C0806000C0808000C080A000C080C000C080E000C0A00000C0A02000C0A04000C0A06000C0A08000C0A0A000C0A0C000C0A0E000C0C00000C0C02000C0C04000C0C06000
310
C0C08000C0C0A000F0FBFF00A4A0A000808080000000FF0000FF000000FFFF00FF000000FF00FF00FFFF0000FFFFFF0000000000000000000000000000000000000000000000000000000000000000000000000000000000000000000000000000000000000000000000000000000000000000000000000000000000000000
310
000000000000000000000000000000000000000000000000000000000000000000000000000000000000000000000000000000000000000000000000000000000000000000000000000000000000000000000000000000000000000000000000000000000000000000000000000000000000F9F9F9F9F9F9F9F9F9F9F9F9F9
310
F9F9F9F9F9F9F9F9F9F9F9F9F9F90000000000F9FFFFFFFFFFFFFFFFFFFFFFFFFFFFFFFFFFFFFFFFFFFFFFFFFFF90000000000F9FF0000000000000000000000000000000000000000000000FFF90000000000F9FF0000000000000000000000000000000000000000000000FFF90000000000F9FF00000000000000000000
310
00000000000000000000000000FFF90000000000F9FF0000000000000000000000000000000000000000000000FFF90000000000F9FF0000000000000000000000000000000000000000000000FFF90000000000F9FF0000000000000000000000000000000000000000000000FFF90000000000F9FF000000000000000000
310
0000000000000000000000000000FFF90000000000F9FF0000000000000000000000000000000000000000000000FFF90000000000F9FF0000000000000000000000000000000000000000000000FFF90000000000F9FF0000000000000000000000000000000000000000000000FFF90000000000F9FF0000000000000000
310
000000000000000000000000000000FFF90000000000F9FF0000000000000000000000000000000000000000000000FFF90000000000F9FF0000000000000000000000000000000000000000000000FFF90000000000F9FF0000000000000000000000000000000000000000000000FFF90000000000F9FF00000000000000
310
00000000000000000000000000000000FFF90000000000F9FF0000000000000000000000000000000000000000000000FFF90000000000F9F9F9F9F9F9F9F9F9F9F9F9F9F9F9F9F9F9F9F9F9F9F9F9F9F9F9000000000000000000000000000000000000000000000000000000000000000000000000000000000000000000
310
00000000000000000000000000000000000000000000000000000000000000000000000000000000000000000000000000000000000000000000000000000000000000000000000000000000000000000000000000000000000000000000000000000000000000000000000000000000000000000000000000000000000000
310
0000000000000000000000000000000000000000000000000000000000000000000000000000000000000000000000000000000000000000
  0
BLOCK_RECORD
  5
210
330
1
100
AcDbSymbolTableRecord
100
AcDbBlockTableRecord
  2
GEN_A4
340
0
310
2800000020000000200000000100080000000000000400000000000000000000000000000000000000000000000080000080000000808000800000008000800080800000C0C0C000C0DCC000F0CAA6000020400000206000002080000020A0000020C0000020E00000400000004020000040400000406000004080000040A0
310
000040C0000040E00000600000006020000060400000606000006080000060A0000060C0000060E00000800000008020000080400000806000008080000080A0000080C0000080E00000A0000000A0200000A0400000A0600000A0800000A0A00000A0C00000A0E00000C0000000C0200000C0400000C0600000C0800000C0
310
A00000C0C00000C0E00000E0000000E0200000E0400000E0600000E0800000E0A00000E0C00000E0E00040000000400020004000400040006000400080004000A0004000C0004000E00040200000402020004020400040206000402080004020A0004020C0004020E000404000004040200040404000404060004040800040
310
40A0004040C0004040E00040600000406020004060400040606000406080004060A0004060C0004060E00040800000408020004080400040806000408080004080A0004080C0004080E00040A0000040A0200040A0400040A0600040A0800040A0A00040A0C00040A0E00040C0000040C0200040C0400040C0600040C08000
310
40C0A00040C0C00040C0E00040E0000040E0200040E0400040E0600040E0800040E0A00040E0C00040E0E00080000000800020008000400080006000800080008000A0008000C0008000E00080200000802020008020400080206000802080008020A0008020C0008020E00080400000804020008040400080406000804080
310
008040A0008040C0008040E00080600000806020008060400080606000806080008060A0008060C0008060E00080800000808020008080400080806000808080008080A0008080C0008080E00080A0000080A0200080A0400080A0600080A0800080A0A00080A0C00080A0E00080C0000080C0200080C0400080C0600080C0
310
800080C0A00080C0C00080C0E00080E0000080E0200080E0400080E0600080E0800080E0A00080E0C00080E0E000C0000000C0002000C0004000C0006000C0008000C000A000C000C000C000E000C0200000C0202000C0204000C0206000C0208000C020A000C020C000C020E000C0400000C0402000C0404000C0406000C0
310
408000C040A000C040C000C040E000C0600000C0602000C0604000C0606000C0608000C060A000C060C000C060E000C0800000C0802000C0804000C0806000C0808000C080A000C080C000C080E000C0A00000C0A02000C0A04000C0A06000C0A08000C0A0A000C0A0C000C0A0E000C0C00000C0C02000C0C04000C0C06000
310
C0C08000C0C0A000F0FBFF00A4A0A000808080000000FF0000FF000000FFFF00FF000000FF00FF00FFFF0000FFFFFF00000000000000000000000000000000000000000000000000000000000000000000000000F9F9F9F9F9F9F9F9F9F9F9F9F9F9F9F9F9F9F9F9F90000000000000000000000F900FFFFFFFFFFFFFFFFFF
310
FFFFFFFFFFFFFFFFFFF90000000000000000000000F900FF00000000000000000000000000000000FFF90000000000000000000000F900FF00000000000000000000000000000000FFF90000000000000000000000F900FF00000000000000000000000000000000FFF90000000000000000000000F900FF00000000000000
310
000000000000000000FFF90000000000000000000000F900FF00000000000000000000000000000000FFF90000000000000000000000F900FF00000000000000000000000000000000FFF90000000000000000000000F900FF00000000000000000000000000000000FFF90000000000000000000000F900FF000000000000
310
00000000000000000000FFF90000000000000000000000F9F9F900000000000000000000000000000000FFF90000000000000000000000F9F9FF00000000000000000000000000000000FFF90000000000000000000000F9F9FF00000000000000000000000000000000FFF90000000000000000000000F9F9FF0000000000
310
0000000000000000000000FFF90000000000000000000000F9F9F900000000000000000000000000000000FFF90000000000000000000000F9F9FF00000000000000000000000000000000FFF90000000000000000000000F9F9FF00000000000000000000000000000000FFF90000000000000000000000F9F9FF00000000
310
000000000000000000000000FFF90000000000000000000000F9F9FF00000000000000000000000000000000FFF90000000000000000000000F9F9F900000000000000000000000000000000FFF90000000000000000000000F9F9FF00000000000000000000000000000000FFF90000000000000000000000F9F9FF000000
310
00000000000000000000000000FFF90000000000000000000000F9F9FF00000000000000000000000000000000FFF90000000000000000000000F9F9F900000000000000000000000000000000FFF90000000000000000000000F9F9FF00000000000000000000000000000000FFF90000000000000000000000F9F9FF0000
310
0000000000000000000000000000FFF90000000000000000000000F9F9FF00000000000000000000000000000000FFF90000000000000000000000F9F9FFF9F9F9F9F9F9F9F9F9F9F9F9F9F9F9F9F9F90000000000000000000000F9F9F9FFF9FFF9FFF9FFF9FFFFF9FFF9FFF9FFFFF9000000000000000000000000000000
310
0000000000000000000000000000000000000000000000000000000000000000000000000000000000000000000000000000000000000000
  0
BLOCK_RECORD
  5
232
330
1
100
AcDbSymbolTableRecord
100
AcDbBlockTableRecord
  2
GENTITUS
340
0
310
2800000020000000200000000100080000000000000400000000000000000000000000000000000000000000000080000080000000808000800000008000800080800000C0C0C000C0DCC000F0CAA6000020400000206000002080000020A0000020C0000020E00000400000004020000040400000406000004080000040A0
310
000040C0000040E00000600000006020000060400000606000006080000060A0000060C0000060E00000800000008020000080400000806000008080000080A0000080C0000080E00000A0000000A0200000A0400000A0600000A0800000A0A00000A0C00000A0E00000C0000000C0200000C0400000C0600000C0800000C0
310
A00000C0C00000C0E00000E0000000E0200000E0400000E0600000E0800000E0A00000E0C00000E0E00040000000400020004000400040006000400080004000A0004000C0004000E00040200000402020004020400040206000402080004020A0004020C0004020E000404000004040200040404000404060004040800040
310
40A0004040C0004040E00040600000406020004060400040606000406080004060A0004060C0004060E00040800000408020004080400040806000408080004080A0004080C0004080E00040A0000040A0200040A0400040A0600040A0800040A0A00040A0C00040A0E00040C0000040C0200040C0400040C0600040C08000
310
40C0A00040C0C00040C0E00040E0000040E0200040E0400040E0600040E0800040E0A00040E0C00040E0E00080000000800020008000400080006000800080008000A0008000C0008000E00080200000802020008020400080206000802080008020A0008020C0008020E00080400000804020008040400080406000804080
310
008040A0008040C0008040E00080600000806020008060400080606000806080008060A0008060C0008060E00080800000808020008080400080806000808080008080A0008080C0008080E00080A0000080A0200080A0400080A0600080A0800080A0A00080A0C00080A0E00080C0000080C0200080C0400080C0600080C0
310
800080C0A00080C0C00080C0E00080E0000080E0200080E0400080E0600080E0800080E0A00080E0C00080E0E000C0000000C0002000C0004000C0006000C0008000C000A000C000C000C000E000C0200000C0202000C0204000C0206000C0208000C020A000C020C000C020E000C0400000C0402000C0404000C0406000C0
310
408000C040A000C040C000C040E000C0600000C0602000C0604000C0606000C0608000C060A000C060C000C060E000C0800000C0802000C0804000C0806000C0808000C080A000C080C000C080E000C0A00000C0A02000C0A04000C0A06000C0A08000C0A0A000C0A0C000C0A0E000C0C00000C0C02000C0C04000C0C06000
310
C0C08000C0C0A000F0FBFF00A4A0A000808080000000FF0000FF000000FFFF00FF000000FF00FF00FFFF0000FFFFFF0000000000000000000000000000000000000000000000000000000000000000000000000000000000000000000000000000000000000000000000000000000000000000000000000000000000000000
310
00000000000000000000000000000000000000000000000000000000000000000000000000000000000000000000000000000000000000000000000000000000000000000000000000000000000000000000000000000000000000000000000000000000000000000000000000000000000000000000000000000000000000
310
00000000000000000000000000000000000000000000000000000000000000000000000000000000000000000000000000000000000000000000000000000000000000000000000000000000000000000000000000000000000000000000000000000000000000000000000000000000000000000000000000000000000000
310
0000000000000000000000000000000000000000FFFFFFFFFFFFFFFFFFF9F9FFFFFFFFF9FFFFFFFFFFFFF9F9FFFFFFFFFFFFF900F9F9F9F9F9F9F9F9F9F9F9F9F9F9F9F9F9F9F9F9F9F9F9F9F9F9F9F9F9F9F900FF0000000000000000F9F9F9F9F9F9F9F9F9FFFFFFFFFFFFFFFFFFF9FFFF0000F9F9F9F9F9F9F9F9F9F9FF
310
F9FFFFFFF9FFFFFFFFFFFFFFFFFFFFFFF9FFFF0000F9F9F9F9F9F9F9F9F9F9F9F9F9FBFBFBFBFBFBFBFB0000000000000000FF0000F9F9F9F9F9F9F9F9F9F9F9F9F9FFFFFFFFFFFFFFFFFFFFFF0000000000FF0000F9F9F9F9F9F9F9F9F9F9F9F9F9FFFFFFFFFFFFFFFFFFFFFF0000000000FF0000F9F9F9F9F9F9F9F9F9F9
310
F9F9F9F9F9F9F9F9F9F9F9F9F9F9F9F9F9F9F9FF0000FFF9F9F900F9F9F9F9FFF9F9FBFBFBFBFBFBFBFBFB0000000000000000FF0000F9F9F9F9F9F9F9F9F9F9FFFFFFFFFFFFFFFFFFFFFFFFFFFFFFFFFFFFFFFF00000000000000000000000000000000000000000000000000000000000000000000000000000000000000
310
00000000000000000000000000000000000000000000000000000000000000000000000000000000000000000000000000000000000000000000000000000000000000000000000000000000000000000000000000000000000000000000000000000000000000000000000000000000000000000000000000000000000000
310
00000000000000000000000000000000000000000000000000000000000000000000000000000000000000000000000000000000000000000000000000000000000000000000000000000000000000000000000000000000000000000000000000000000000000000000000000000000000000000000000000000000000000
310
0000000000000000000000000000000000000000000000000000000000000000000000000000000000000000000000000000000000000000
  0
BLOCK_RECORD
  5
26D
330
1
100
AcDbSymbolTableRecord
100
AcDbBlockTableRecord
  2
IGS-A4
340
0
310
2800000020000000200000000100080000000000000400000000000000000000000000000000000000000000000080000080000000808000800000008000800080800000C0C0C000C0DCC000F0CAA6000020400000206000002080000020A0000020C0000020E00000400000004020000040400000406000004080000040A0
310
000040C0000040E00000600000006020000060400000606000006080000060A0000060C0000060E00000800000008020000080400000806000008080000080A0000080C0000080E00000A0000000A0200000A0400000A0600000A0800000A0A00000A0C00000A0E00000C0000000C0200000C0400000C0600000C0800000C0
310
A00000C0C00000C0E00000E0000000E0200000E0400000E0600000E0800000E0A00000E0C00000E0E00040000000400020004000400040006000400080004000A0004000C0004000E00040200000402020004020400040206000402080004020A0004020C0004020E000404000004040200040404000404060004040800040
310
40A0004040C0004040E00040600000406020004060400040606000406080004060A0004060C0004060E00040800000408020004080400040806000408080004080A0004080C0004080E00040A0000040A0200040A0400040A0600040A0800040A0A00040A0C00040A0E00040C0000040C0200040C0400040C0600040C08000
310
40C0A00040C0C00040C0E00040E0000040E0200040E0400040E0600040E0800040E0A00040E0C00040E0E00080000000800020008000400080006000800080008000A0008000C0008000E00080200000802020008020400080206000802080008020A0008020C0008020E00080400000804020008040400080406000804080
310
008040A0008040C0008040E00080600000806020008060400080606000806080008060A0008060C0008060E00080800000808020008080400080806000808080008080A0008080C0008080E00080A0000080A0200080A0400080A0600080A0800080A0A00080A0C00080A0E00080C0000080C0200080C0400080C0600080C0
310
800080C0A00080C0C00080C0E00080E0000080E0200080E0400080E0600080E0800080E0A00080E0C00080E0E000C0000000C0002000C0004000C0006000C0008000C000A000C000C000C000E000C0200000C0202000C0204000C0206000C0208000C020A000C020C000C020E000C0400000C0402000C0404000C0406000C0
310
408000C040A000C040C000C040E000C0600000C0602000C0604000C0606000C0608000C060A000C060C000C060E000C0800000C0802000C0804000C0806000C0808000C080A000C080C000C080E000C0A00000C0A02000C0A04000C0A06000C0A08000C0A0A000C0A0C000C0A0E000C0C00000C0C02000C0C04000C0C06000
310
C0C08000C0C0A000F0FBFF00A4A0A000808080000000FF0000FF000000FFFF00FF000000FF00FF00FFFF0000FFFFFF0000000000000000000000000000000000000000000000000000000000000000000000000000000000000000000000000000000000000000000000000000000000000000000000FFFFFFFFFFFFFFFFFF
310
FFFFFFFFFFFFFFFFFF0000000000000000000000000000FF00000000000000000000000000000000FF0000000000000000000000000000FF00000000000000000000000000000000FF0000000000000000000000000000FF00000000000000000000000000000000FF0000000000000000000000000000FF00000000000000
310
000000000000000000FF0000000000000000000000000000FF00000000000000000000000000000000FF0000000000000000000000000000FF00000000000000000000000000000000FF0000000000000000000000000000FF00000000000000000000000000000000FF0000000000000000000000000000FF000000000000
310
00000000000000000000FF0000000000000000000000000000FF00000000000000000000000000000000FF0000000000000000000000000000FF00000000000000000000000000000000FF0000000000000000000000000000FF00000000000000000000000000000000FF0000000000000000000000000000FF0000000000
310
0000000000000000000000FF0000000000000000000000000000FF00000000000000000000000000000000FF0000000000000000000000000000FF00000000000000000000000000000000FF0000000000000000000000000000FF00000000000000000000000000000000FF0000000000000000000000000000FF00000000
310
000000000000000000000000FF0000000000000000000000000000FF00000000000000000000000000000000FF0000000000000000000000000000FF00000000000000000000000000000000FF0000000000000000000000000000FF00000000000000000000000000000000FF0000000000000000000000000000FF000000
310
00000000000000000000000000FF0000000000000000000000000000FF00000000000000000000000000000000FF0000000000000000000000000000FF00000000000000000000000000000000FF0000000000000000000000000000FF00000000000000000000000000000000FF0000000000000000000000000000FF0000
310
0000000000000000000000000000FF0000000000000000000000000000FF00000000000000000000000000000000FF0000000000000000000000000000FF00000000000000000000000000000000FF0000000000000000000000000000FFFFFFFFFFFFFFFFFFFFFFFFFFFFFFFFFFFF00000000000000000000000000000000
310
0000000000000000000000000000000000000000000000000000000000000000000000000000000000000000000000000000000000000000
  0
BLOCK_RECORD
  5
279
330
1
100
AcDbSymbolTableRecord
100
AcDbBlockTableRecord
  2
CI
340
0
310
2800000020000000200000000100080000000000000400000000000000000000000000000000000000000000000080000080000000808000800000008000800080800000C0C0C000C0DCC000F0CAA6000020400000206000002080000020A0000020C0000020E00000400000004020000040400000406000004080000040A0
310
000040C0000040E00000600000006020000060400000606000006080000060A0000060C0000060E00000800000008020000080400000806000008080000080A0000080C0000080E00000A0000000A0200000A0400000A0600000A0800000A0A00000A0C00000A0E00000C0000000C0200000C0400000C0600000C0800000C0
310
A00000C0C00000C0E00000E0000000E0200000E0400000E0600000E0800000E0A00000E0C00000E0E00040000000400020004000400040006000400080004000A0004000C0004000E00040200000402020004020400040206000402080004020A0004020C0004020E000404000004040200040404000404060004040800040
310
40A0004040C0004040E00040600000406020004060400040606000406080004060A0004060C0004060E00040800000408020004080400040806000408080004080A0004080C0004080E00040A0000040A0200040A0400040A0600040A0800040A0A00040A0C00040A0E00040C0000040C0200040C0400040C0600040C08000
310
40C0A00040C0C00040C0E00040E0000040E0200040E0400040E0600040E0800040E0A00040E0C00040E0E00080000000800020008000400080006000800080008000A0008000C0008000E00080200000802020008020400080206000802080008020A0008020C0008020E00080400000804020008040400080406000804080
310
008040A0008040C0008040E00080600000806020008060400080606000806080008060A0008060C0008060E00080800000808020008080400080806000808080008080A0008080C0008080E00080A0000080A0200080A0400080A0600080A0800080A0A00080A0C00080A0E00080C0000080C0200080C0400080C0600080C0
310
800080C0A00080C0C00080C0E00080E0000080E0200080E0400080E0600080E0800080E0A00080E0C00080E0E000C0000000C0002000C0004000C0006000C0008000C000A000C000C000C000E000C0200000C0202000C0204000C0206000C0208000C020A000C020C000C020E000C0400000C0402000C0404000C0406000C0
310
408000C040A000C040C000C040E000C0600000C0602000C0604000C0606000C0608000C060A000C060C000C060E000C0800000C0802000C0804000C0806000C0808000C080A000C080C000C080E000C0A00000C0A02000C0A04000C0A06000C0A08000C0A0A000C0A0C000C0A0E000C0C00000C0C02000C0C04000C0C06000
310
C0C08000C0C0A000F0FBFF00A4A0A000808080000000FF0000FF000000FFFF00FF000000FF00FF00FFFF0000FFFFFF0000000000000000000000000000000000000000000000000000000000000000000000000000000000000000000000000000000000000000000000000000000000000000000000000000000000FFFFFF
310
00000000000000000000000000000000000000000000000000000000FF000000FFFFFFFFFFFF0000000000000000000000000000000000000000FFFF00000000000000000000FFFFFFFF000000000000000000000000000000FF00000000000000000000000000000000FF00000000000000000000000000FF000000000000
310
0000000000000000000000FF0000000000000000000000FFFF00000000000000000000000000000000000000FF000000000000000000FF000000000000000000000000000000000000000000FF0000000000000000FF0000000000000000000000000000000000000000000000FF00000000000000FF000000000000000000
310
0000000000000000000000000000FF00000000000000FF000000000000000000000000000000000000000000000000FF000000000000FF000000000000000000000000000000000000000000000000FF000000000000FF00000000000000000000000000000000000000000000000000FF0000000000FF0000000000000000
310
0000000000000000000000000000000000FF0000000000FF0000000000000000000000000000000000000000000000000000FF00000000FF0000000000000000000000000000000000000000000000000000FF00000000FF00000000000000000000000000000000000000000000000000FF0000000000FF00000000000000
310
000000000000000000000000000000000000FF0000000000FF000000000000000000000000000000000000000000000000FF000000000000FF000000000000000000000000000000000000000000000000FF000000000000FF0000000000000000000000000000000000000000000000FF00000000000000FF000000000000
310
0000000000000000000000000000000000FF0000000000000000FF000000000000000000000000000000000000000000FF00000000000000000000FFFF00000000000000000000000000000000000000FF000000000000000000000000FF0000000000000000000000000000000000FF0000000000000000000000000000FF
310
00000000000000000000000000000000FF000000000000000000000000000000FFFF0000000000000000000000FFFFFF000000000000000000000000000000000000FF00000000FFFFFFFFFFFF00000000000000000000000000000000000000000000FFFFFFFF000000000000000000000000000000000000000000000000
310
0000000000000000000000000000000000000000000000000000000000000000000000000000000000000000000000000000000000000000
  0
BLOCK_RECORD
  5
27D
330
1
100
AcDbSymbolTableRecord
100
AcDbBlockTableRecord
  2
IGS-TITLE
340
0
310
2800000020000000200000000100080000000000000400000000000000000000000000000000000000000000000080000080000000808000800000008000800080800000C0C0C000C0DCC000F0CAA6000020400000206000002080000020A0000020C0000020E00000400000004020000040400000406000004080000040A0
310
000040C0000040E00000600000006020000060400000606000006080000060A0000060C0000060E00000800000008020000080400000806000008080000080A0000080C0000080E00000A0000000A0200000A0400000A0600000A0800000A0A00000A0C00000A0E00000C0000000C0200000C0400000C0600000C0800000C0
310
A00000C0C00000C0E00000E0000000E0200000E0400000E0600000E0800000E0A00000E0C00000E0E00040000000400020004000400040006000400080004000A0004000C0004000E00040200000402020004020400040206000402080004020A0004020C0004020E000404000004040200040404000404060004040800040
310
40A0004040C0004040E00040600000406020004060400040606000406080004060A0004060C0004060E00040800000408020004080400040806000408080004080A0004080C0004080E00040A0000040A0200040A0400040A0600040A0800040A0A00040A0C00040A0E00040C0000040C0200040C0400040C0600040C08000
310
40C0A00040C0C00040C0E00040E0000040E0200040E0400040E0600040E0800040E0A00040E0C00040E0E00080000000800020008000400080006000800080008000A0008000C0008000E00080200000802020008020400080206000802080008020A0008020C0008020E00080400000804020008040400080406000804080
310
008040A0008040C0008040E00080600000806020008060400080606000806080008060A0008060C0008060E00080800000808020008080400080806000808080008080A0008080C0008080E00080A0000080A0200080A0400080A0600080A0800080A0A00080A0C00080A0E00080C0000080C0200080C0400080C0600080C0
310
800080C0A00080C0C00080C0E00080E0000080E0200080E0400080E0600080E0800080E0A00080E0C00080E0E000C0000000C0002000C0004000C0006000C0008000C000A000C000C000C000E000C0200000C0202000C0204000C0206000C0208000C020A000C020C000C020E000C0400000C0402000C0404000C0406000C0
310
408000C040A000C040C000C040E000C0600000C0602000C0604000C0606000C0608000C060A000C060C000C060E000C0800000C0802000C0804000C0806000C0808000C080A000C080C000C080E000C0A00000C0A02000C0A04000C0A06000C0A08000C0A0A000C0A0C000C0A0E000C0C00000C0C02000C0C04000C0C06000
310
C0C08000C0C0A000F0FBFF00A4A0A000808080000000FF0000FF000000FFFF00FF000000FF00FF00FFFF0000FFFFFF0000000000000000000000000000000000000000000000000000000000000000000000000000000000000000000000000000000000000000000000000000000000000000000000000000000000000000
310
00000000000000000000000000000000000000000000000000000000000000000000000000000000000000000000000000000000000000000000000000000000000000000000000000000000000000000000000000000000000000000000000000000000000000000000000000000000000000000000000000000000000000
310
00000000000000000000000000000000000000000000000000000000000000000000000000000000000000000000000000000000000000000000000000000000000000000000000000000000000000000000000000000000000000000000000000000000000000000000000000000000000000000000000000000000000000
310
0000000000000000000000000000000000000000000000000000000000000000000000000000000000000000000000000000000000000000000000000000000000000000000000000000000000000000000000000000000000000000000000000000000000000000000000000000000000000000FFFFFFFFFFFFFFFFFFFFFF
310
FFFFFFFFFFFFFFFFFFFFFFFFFFFFFFFFFFFFFF0000FFFFFFFFFFFFFFFFFFFFFFFFFFFFFFFFFFFFFFFFFFFFFFFFFFFFFFFFFFFF0000FFFFFFFFFFFFFFFFFFFFFFFFFFFFFFFFFFFF00000000FFFF000000FFFFFF0000FFFFFFFFFFFFFFFFFFFFFFFFFFFFFFFFFFFFFFFFFFFFFFFFFFFFFFFFFFFF000000000000000000000000
310
00000000000000000000000000000000000000000000000000000000000000000000000000000000000000000000000000000000000000000000000000000000000000000000000000000000000000000000000000000000000000000000000000000000000000000000000000000000000000000000000000000000000000
310
00000000000000000000000000000000000000000000000000000000000000000000000000000000000000000000000000000000000000000000000000000000000000000000000000000000000000000000000000000000000000000000000000000000000000000000000000000000000000000000000000000000000000
310
00000000000000000000000000000000000000000000000000000000000000000000000000000000000000000000000000000000000000000000000000000000000000000000000000000000000000000000000000000000000000000000000000000000000000000000000000000000000000000000000000000000000000
310
0000000000000000000000000000000000000000000000000000000000000000000000000000000000000000000000000000000000000000
  0
BLOCK_RECORD
  5
335
330
1
100
AcDbSymbolTableRecord
100
AcDbBlockTableRecord
  2
IGS2
340
0
310
2800000020000000200000000100080000000000000400000000000000000000000000000000000000000000000080000080000000808000800000008000800080800000C0C0C000C0DCC000F0CAA6000020400000206000002080000020A0000020C0000020E00000400000004020000040400000406000004080000040A0
310
000040C0000040E00000600000006020000060400000606000006080000060A0000060C0000060E00000800000008020000080400000806000008080000080A0000080C0000080E00000A0000000A0200000A0400000A0600000A0800000A0A00000A0C00000A0E00000C0000000C0200000C0400000C0600000C0800000C0
310
A00000C0C00000C0E00000E0000000E0200000E0400000E0600000E0800000E0A00000E0C00000E0E00040000000400020004000400040006000400080004000A0004000C0004000E00040200000402020004020400040206000402080004020A0004020C0004020E000404000004040200040404000404060004040800040
310
40A0004040C0004040E00040600000406020004060400040606000406080004060A0004060C0004060E00040800000408020004080400040806000408080004080A0004080C0004080E00040A0000040A0200040A0400040A0600040A0800040A0A00040A0C00040A0E00040C0000040C0200040C0400040C0600040C08000
310
40C0A00040C0C00040C0E00040E0000040E0200040E0400040E0600040E0800040E0A00040E0C00040E0E00080000000800020008000400080006000800080008000A0008000C0008000E00080200000802020008020400080206000802080008020A0008020C0008020E00080400000804020008040400080406000804080
310
008040A0008040C0008040E00080600000806020008060400080606000806080008060A0008060C0008060E00080800000808020008080400080806000808080008080A0008080C0008080E00080A0000080A0200080A0400080A0600080A0800080A0A00080A0C00080A0E00080C0000080C0200080C0400080C0600080C0
310
800080C0A00080C0C00080C0E00080E0000080E0200080E0400080E0600080E0800080E0A00080E0C00080E0E000C0000000C0002000C0004000C0006000C0008000C000A000C000C000C000E000C0200000C0202000C0204000C0206000C0208000C020A000C020C000C020E000C0400000C0402000C0404000C0406000C0
310
408000C040A000C040C000C040E000C0600000C0602000C0604000C0606000C0608000C060A000C060C000C060E000C0800000C0802000C0804000C0806000C0808000C080A000C080C000C080E000C0A00000C0A02000C0A04000C0A06000C0A08000C0A0A000C0A0C000C0A0E000C0C00000C0C02000C0C04000C0C06000
310
C0C08000C0C0A000F0FBFF00A4A0A000808080000000FF0000FF000000FFFF00FF000000FF00FF00FFFF0000FFFFFF0000000000000000000000000000000000000000000000000000000000000000000000000000000000000000000000000000000000000000000000000000000000000000000000000000000000000000
310
00000000000000000000000000000000000000000000000000000000000000000000000000000000000000000000000000000000000000000000000000000000000000000000000000000000000000000000F9FBFBF9F9F9FBFBF9F9F9F90000000000000000000000000000000000000000F9F9FBFBFBFBFBFBFBF9F9F900
310
00000000000000000000000000000000000000F9FBFBFBFBFBFBFBFBF9F9F90000000000000000000000000000000000000000F9F9F9F9F9F9F9F9F9F9F9F900000000000000000000000000000000000000000000000000000000000000000000000000000000000000000000000000000000000000000000000000000000
310
00000000000000000000000000000000000000000000000000000000000000000000000000000000000000000000000000000000000000000000000000000000000000000000000000000000000000000000000000000000000000000000000000000000000000000000000000000000000000000000000000000000000000
310
00000000000000000000000000000000000000000000000000000000000000000000000000000000000000000000000000000000000000000000000000000000000000000000000000000000000000000000000000000000000000000000000000000000000000000000000000000000000000000000000000000000000000
310
00000000000000000000000000000000000000000000000000000000000000000000000000000000000000000000000000000000000000000000000000000000000000000000000000000000000000000000000000000000000000000000000000000000000000000000000000000000000000000000000000000000000000
310
00000000000000000000000000000000000000000000000000000000000000000000000000000000000000000000000000000000000000000000000000000000000000000000000000000000000000000000000000000000000000000000000000000000000000000000000000000000000000000000000000000000000000
310
00000000000000000000000000000000000000000000000000000000000000000000000000000000000000000000000000000000000000000000000000000000000000000000000000000000000000000000000000000000000000000000000000000000000000000000000000000000000000000000000000000000000000
310
0000000000000000000000000000000000000000000000000000000000000000000000000000000000000000000000000000000000000000
102
{BLKREFS
331
4735
102
}
  0
BLOCK_RECORD
  5
3FC
330
1
100
AcDbSymbolTableRecord
100
AcDbBlockTableRecord
  2
IGS_A1
340
0
310
2800000020000000200000000100080000000000000400000000000000000000000000000000000000000000000080000080000000808000800000008000800080800000C0C0C000C0DCC000F0CAA6000020400000206000002080000020A0000020C0000020E00000400000004020000040400000406000004080000040A0
310
000040C0000040E00000600000006020000060400000606000006080000060A0000060C0000060E00000800000008020000080400000806000008080000080A0000080C0000080E00000A0000000A0200000A0400000A0600000A0800000A0A00000A0C00000A0E00000C0000000C0200000C0400000C0600000C0800000C0
310
A00000C0C00000C0E00000E0000000E0200000E0400000E0600000E0800000E0A00000E0C00000E0E00040000000400020004000400040006000400080004000A0004000C0004000E00040200000402020004020400040206000402080004020A0004020C0004020E000404000004040200040404000404060004040800040
310
40A0004040C0004040E00040600000406020004060400040606000406080004060A0004060C0004060E00040800000408020004080400040806000408080004080A0004080C0004080E00040A0000040A0200040A0400040A0600040A0800040A0A00040A0C00040A0E00040C0000040C0200040C0400040C0600040C08000
310
40C0A00040C0C00040C0E00040E0000040E0200040E0400040E0600040E0800040E0A00040E0C00040E0E00080000000800020008000400080006000800080008000A0008000C0008000E00080200000802020008020400080206000802080008020A0008020C0008020E00080400000804020008040400080406000804080
310
008040A0008040C0008040E00080600000806020008060400080606000806080008060A0008060C0008060E00080800000808020008080400080806000808080008080A0008080C0008080E00080A0000080A0200080A0400080A0600080A0800080A0A00080A0C00080A0E00080C0000080C0200080C0400080C0600080C0
310
800080C0A00080C0C00080C0E00080E0000080E0200080E0400080E0600080E0800080E0A00080E0C00080E0E000C0000000C0002000C0004000C0006000C0008000C000A000C000C000C000E000C0200000C0202000C0204000C0206000C0208000C020A000C020C000C020E000C0400000C0402000C0404000C0406000C0
310
408000C040A000C040C000C040E000C0600000C0602000C0604000C0606000C0608000C060A000C060C000C060E000C0800000C0802000C0804000C0806000C0808000C080A000C080C000C080E000C0A00000C0A02000C0A04000C0A06000C0A08000C0A0A000C0A0C000C0A0E000C0C00000C0C02000C0C04000C0C06000
310
C0C08000C0C0A000F0FBFF00A4A0A000808080000000FF0000FF000000FFFF00FF000000FF00FF00FFFF0000FFFFFF0000000000000000000000000000000000000000000000000000000000000000000000000000000000000000000000000000000000000000000000000000000000000000000000000000000000000000
310
00000000000000000000000000000000000000000000000000000000000000000000000000000000000000000000000000000000000000000000000000000000000000000000000000000000000000000000000000000000000000000000000000000000000000000000000000000000000000000000000000000000000000
310
00000000000000000000000000000000000000F9F9F9F9F9F9F9F9F9F9F9F9F9F9F9F9F9F9F9F9F9F9F9F9F9F9000000000000F9FF0000000000000000000000000000000000000000000000F9000000000000F9FF0000000000000000000000000000000000000000000000F9000000000000F9FF00000000000000000000
310
00000000000000000000000000F9000000000000F9FF0000000000000000000000000000000000000000000000F9000000000000F9FF0000000000000000000000000000000000000000000000F9000000000000F9FF0000000000000000000000000000000000000000000000F9000000000000F9FF000000000000000000
310
0000000000000000000000000000F9000000000000F9FF0000000000000000000000000000000000000000000000F9000000000000F9FF0000000000000000000000000000000000000000000000F9000000000000F9FF0000000000000000000000000000000000000000000000F9000000000000F9FF0000000000000000
310
000000000000000000000000000000F9000000000000F9FF0000000000000000000000000000000000000000000000F9000000000000F9FF0000000000000000000000000000000000000000000000F9000000000000F9FF0000000000000000000000000000000000000000000000F9000000000000F9FF00000000000000
310
00000000000000000000000000000000F9000000000000F9FF0000000000000000000000000000000000000000000000F9000000000000F9F9F9F9F9F9F9F9F9F9F9F9F9F9F9F9F9F9F9F9F9F9F9F9F9F900000000000000000000000000000000000000000000000000000000000000000000000000000000000000000000
310
00000000000000000000000000000000000000000000000000000000000000000000000000000000000000000000000000000000000000000000000000000000000000000000000000000000000000000000000000000000000000000000000000000000000000000000000000000000000000000000000000000000000000
310
0000000000000000000000000000000000000000000000000000000000000000000000000000000000000000000000000000000000000000
  0
BLOCK_RECORD
  5
50A
330
1
100
AcDbSymbolTableRecord
100
AcDbBlockTableRecord
  2
jis_bl_revisionlist1
340
0
310
2800000020000000200000000100080000000000000400000000000000000000000000000000000000000000000080000080000000808000800000008000800080800000C0C0C000C0DCC000F0CAA6000020400000206000002080000020A0000020C0000020E00000400000004020000040400000406000004080000040A0
310
000040C0000040E00000600000006020000060400000606000006080000060A0000060C0000060E00000800000008020000080400000806000008080000080A0000080C0000080E00000A0000000A0200000A0400000A0600000A0800000A0A00000A0C00000A0E00000C0000000C0200000C0400000C0600000C0800000C0
310
A00000C0C00000C0E00000E0000000E0200000E0400000E0600000E0800000E0A00000E0C00000E0E00040000000400020004000400040006000400080004000A0004000C0004000E00040200000402020004020400040206000402080004020A0004020C0004020E000404000004040200040404000404060004040800040
310
40A0004040C0004040E00040600000406020004060400040606000406080004060A0004060C0004060E00040800000408020004080400040806000408080004080A0004080C0004080E00040A0000040A0200040A0400040A0600040A0800040A0A00040A0C00040A0E00040C0000040C0200040C0400040C0600040C08000
310
40C0A00040C0C00040C0E00040E0000040E0200040E0400040E0600040E0800040E0A00040E0C00040E0E00080000000800020008000400080006000800080008000A0008000C0008000E00080200000802020008020400080206000802080008020A0008020C0008020E00080400000804020008040400080406000804080
310
008040A0008040C0008040E00080600000806020008060400080606000806080008060A0008060C0008060E00080800000808020008080400080806000808080008080A0008080C0008080E00080A0000080A0200080A0400080A0600080A0800080A0A00080A0C00080A0E00080C0000080C0200080C0400080C0600080C0
310
800080C0A00080C0C00080C0E00080E0000080E0200080E0400080E0600080E0800080E0A00080E0C00080E0E000C0000000C0002000C0004000C0006000C0008000C000A000C000C000C000E000C0200000C0202000C0204000C0206000C0208000C020A000C020C000C020E000C0400000C0402000C0404000C0406000C0
310
408000C040A000C040C000C040E000C0600000C0602000C0604000C0606000C0608000C060A000C060C000C060E000C0800000C0802000C0804000C0806000C0808000C080A000C080C000C080E000C0A00000C0A02000C0A04000C0A06000C0A08000C0A0A000C0A0C000C0A0E000C0C00000C0C02000C0C04000C0C06000
310
C0C08000C0C0A000F0FBFF00A4A0A000808080000000FF0000FF000000FFFF00FF000000FF00FF00FFFF0000FFFFFF0000000000000000000000000000000000000000000000000000000000000000000000000000000000000000000000000000000000000000000000000000000000000000000000000000000000000000
310
00000000000000000000000000000000000000000000000000000000000000000000000000000000000000000000000000000000000000000000000000000000000000000000000000000000000000000000000000000000000000000000000000000000000000000000000000000000000000000000000000000000000000
310
00000000000000000000000000000000000000000000000000000000000000000000000000000000000000000000000000000000000000000000000000000000000000000000000000000000000000000000000000000000000000000000000000000000000000000000000000000000000000000000000000000000000000
310
00000000000000000000000000000000000000000000000000000000000000000000000000000000000000000000000000000000000000000000000000000000000000000000000000000000000000000000000000000000000000000000000000000000000000000000000000000000000000000000000000000000000000
310
000000000000000000000000000000000000000000FFFFFFFFFFFFFFFFFFFFFFFFFFFFFFFFFFFFFFFFFFFFFFFFFFFFFFFF00000000FFFFFFFFFFFFFFFFFFFFFFFFFFFFFFFFFFFFFFFFFFFFFFFFFFFFFFFFFFFF0000000000000000000000000000000000000000000000000000000000000000000000000000000000000000
310
00000000000000000000000000000000000000000000000000000000000000000000000000000000000000000000000000000000000000000000000000000000000000000000000000000000000000000000000000000000000000000000000000000000000000000000000000000000000000000000000000000000000000
310
00000000000000000000000000000000000000000000000000000000000000000000000000000000000000000000000000000000000000000000000000000000000000000000000000000000000000000000000000000000000000000000000000000000000000000000000000000000000000000000000000000000000000
310
00000000000000000000000000000000000000000000000000000000000000000000000000000000000000000000000000000000000000000000000000000000000000000000000000000000000000000000000000000000000000000000000000000000000000000000000000000000000000000000000000000000000000
310
0000000000000000000000000000000000000000000000000000000000000000000000000000000000000000000000000000000000000000
102
{BLKREFS
331
52F
102
}
1001
ACAD
1000
DesignCenter Data
1002
{
1070
     1
1070
     1
1002
}
  0
BLOCK_RECORD
  5
520
330
1
100
AcDbSymbolTableRecord
100
AcDbBlockTableRecord
  2
jis_bl_revisionlist0
340
0
310
2800000020000000200000000100080000000000000400000000000000000000000000000000000000000000000080000080000000808000800000008000800080800000C0C0C000C0DCC000F0CAA6000020400000206000002080000020A0000020C0000020E00000400000004020000040400000406000004080000040A0
310
000040C0000040E00000600000006020000060400000606000006080000060A0000060C0000060E00000800000008020000080400000806000008080000080A0000080C0000080E00000A0000000A0200000A0400000A0600000A0800000A0A00000A0C00000A0E00000C0000000C0200000C0400000C0600000C0800000C0
310
A00000C0C00000C0E00000E0000000E0200000E0400000E0600000E0800000E0A00000E0C00000E0E00040000000400020004000400040006000400080004000A0004000C0004000E00040200000402020004020400040206000402080004020A0004020C0004020E000404000004040200040404000404060004040800040
310
40A0004040C0004040E00040600000406020004060400040606000406080004060A0004060C0004060E00040800000408020004080400040806000408080004080A0004080C0004080E00040A0000040A0200040A0400040A0600040A0800040A0A00040A0C00040A0E00040C0000040C0200040C0400040C0600040C08000
310
40C0A00040C0C00040C0E00040E0000040E0200040E0400040E0600040E0800040E0A00040E0C00040E0E00080000000800020008000400080006000800080008000A0008000C0008000E00080200000802020008020400080206000802080008020A0008020C0008020E00080400000804020008040400080406000804080
310
008040A0008040C0008040E00080600000806020008060400080606000806080008060A0008060C0008060E00080800000808020008080400080806000808080008080A0008080C0008080E00080A0000080A0200080A0400080A0600080A0800080A0A00080A0C00080A0E00080C0000080C0200080C0400080C0600080C0
310
800080C0A00080C0C00080C0E00080E0000080E0200080E0400080E0600080E0800080E0A00080E0C00080E0E000C0000000C0002000C0004000C0006000C0008000C000A000C000C000C000E000C0200000C0202000C0204000C0206000C0208000C020A000C020C000C020E000C0400000C0402000C0404000C0406000C0
310
408000C040A000C040C000C040E000C0600000C0602000C0604000C0606000C0608000C060A000C060C000C060E000C0800000C0802000C0804000C0806000C0808000C080A000C080C000C080E000C0A00000C0A02000C0A04000C0A06000C0A08000C0A0A000C0A0C000C0A0E000C0C00000C0C02000C0C04000C0C06000
310
C0C08000C0C0A000F0FBFF00A4A0A000808080000000FF0000FF000000FFFF00FF000000FF00FF00FFFF0000FFFFFF0000000000000000000000000000000000000000000000000000000000000000000000000000000000000000000000000000000000000000000000000000000000000000000000000000000000000000
310
00000000000000000000000000000000000000000000000000000000000000000000000000000000000000000000000000000000000000000000000000000000000000000000000000000000000000000000000000000000000000000000000000000000000000000000000000000000000000000000000000000000000000
310
00000000000000000000000000000000000000000000000000000000000000000000000000000000000000000000000000000000000000000000000000000000000000000000000000000000000000000000000000000000000000000000000000000000000000000000000000000000000000000000000000000000000000
310
00000000000000000000000000000000000000000000000000000000000000000000000000000000000000000000000000000000000000000000000000000000000000000000000000000000000000000000000000000000000000000000000000000000000000000000000000000000000000000000000000000000000000
310
000000000000000000000000000000000000000000FFFFFFFFFFFFFFFFFFFFFFFFFFFFFFFFFFFFFFFFFFFFFFFFFFFFFFFFFFFF0000FFFFFFFFFFFFFFFFFFFFFFFFFFFFFFFFFFFFFFFFFFFFFFFFFFFFFFFFFFFF0000000000000000000000000000000000000000000000000000000000000000000000000000000000000000
310
00000000000000000000000000000000000000000000000000000000000000000000000000000000000000000000000000000000000000000000000000000000000000000000000000000000000000000000000000000000000000000000000000000000000000000000000000000000000000000000000000000000000000
310
00000000000000000000000000000000000000000000000000000000000000000000000000000000000000000000000000000000000000000000000000000000000000000000000000000000000000000000000000000000000000000000000000000000000000000000000000000000000000000000000000000000000000
310
00000000000000000000000000000000000000000000000000000000000000000000000000000000000000000000000000000000000000000000000000000000000000000000000000000000000000000000000000000000000000000000000000000000000000000000000000000000000000000000000000000000000000
310
0000000000000000000000000000000000000000000000000000000000000000000000000000000000000000000000000000000000000000
102
{BLKREFS
331
537
102
}
1001
ACAD
1000
DesignCenter Data
1002
{
1070
     1
1070
     1
1002
}
  0
BLOCK_RECORD
  5
52E
330
1
100
AcDbSymbolTableRecord
100
AcDbBlockTableRecord
  2
jis_bl_revisionlist
340
0
310
2800000020000000200000000100080000000000000400000000000000000000000000000000000000000000000080000080000000808000800000008000800080800000C0C0C000C0DCC000F0CAA6000020400000206000002080000020A0000020C0000020E00000400000004020000040400000406000004080000040A0
310
000040C0000040E00000600000006020000060400000606000006080000060A0000060C0000060E00000800000008020000080400000806000008080000080A0000080C0000080E00000A0000000A0200000A0400000A0600000A0800000A0A00000A0C00000A0E00000C0000000C0200000C0400000C0600000C0800000C0
310
A00000C0C00000C0E00000E0000000E0200000E0400000E0600000E0800000E0A00000E0C00000E0E00040000000400020004000400040006000400080004000A0004000C0004000E00040200000402020004020400040206000402080004020A0004020C0004020E000404000004040200040404000404060004040800040
310
40A0004040C0004040E00040600000406020004060400040606000406080004060A0004060C0004060E00040800000408020004080400040806000408080004080A0004080C0004080E00040A0000040A0200040A0400040A0600040A0800040A0A00040A0C00040A0E00040C0000040C0200040C0400040C0600040C08000
310
40C0A00040C0C00040C0E00040E0000040E0200040E0400040E0600040E0800040E0A00040E0C00040E0E00080000000800020008000400080006000800080008000A0008000C0008000E00080200000802020008020400080206000802080008020A0008020C0008020E00080400000804020008040400080406000804080
310
008040A0008040C0008040E00080600000806020008060400080606000806080008060A0008060C0008060E00080800000808020008080400080806000808080008080A0008080C0008080E00080A0000080A0200080A0400080A0600080A0800080A0A00080A0C00080A0E00080C0000080C0200080C0400080C0600080C0
310
800080C0A00080C0C00080C0E00080E0000080E0200080E0400080E0600080E0800080E0A00080E0C00080E0E000C0000000C0002000C0004000C0006000C0008000C000A000C000C000C000E000C0200000C0202000C0204000C0206000C0208000C020A000C020C000C020E000C0400000C0402000C0404000C0406000C0
310
408000C040A000C040C000C040E000C0600000C0602000C0604000C0606000C0608000C060A000C060C000C060E000C0800000C0802000C0804000C0806000C0808000C080A000C080C000C080E000C0A00000C0A02000C0A04000C0A06000C0A08000C0A0A000C0A0C000C0A0E000C0C00000C0C02000C0C04000C0C06000
310
C0C08000C0C0A000F0FBFF00A4A0A000808080000000FF0000FF000000FFFF00FF000000FF00FF00FFFF0000FFFFFF0000000000000000000000000000000000000000000000000000000000000000000000000000000000000000000000000000000000000000000000000000000000000000000000000000000000000000
310
00000000000000000000000000000000000000000000000000000000000000000000000000000000000000000000000000000000000000000000000000000000000000000000000000000000000000000000000000000000000000000000000000000000000000000000000000000000000000000000000000000000000000
310
00000000000000000000000000000000000000000000000000000000000000000000000000000000000000000000000000000000000000000000000000000000000000000000000000000000000000000000000000000000000000000000000000000000000000000000000000000000000000000000000000000000000000
310
00000000000000000000000000000000000000000000000000000000000000000000000000000000000000000000000000000000000000000000000000000000000000000000000000000000000000000000000000000000000000000000000000000000000000000000000000000000000000000000000000000000000000
310
000000000000000000000000000000000000000000FFF9F9F9FFF9F9FFFFFFFFFFFFFFFFFFFFFFFFFFFFFFFFFFFFF9F9FFFFFF0000FFFFF9FFFFF9FFFFFFFFFFFFFFFFFFFFFFFFFFFFFFFFFFFFFFF9FFFFFFFF0000000000000000000000000000000000000000000000000000000000000000000000000000000000000000
310
00000000000000000000000000000000000000000000000000000000000000000000000000000000000000000000000000000000000000000000000000000000000000000000000000000000000000000000000000000000000000000000000000000000000000000000000000000000000000000000000000000000000000
310
00000000000000000000000000000000000000000000000000000000000000000000000000000000000000000000000000000000000000000000000000000000000000000000000000000000000000000000000000000000000000000000000000000000000000000000000000000000000000000000000000000000000000
310
00000000000000000000000000000000000000000000000000000000000000000000000000000000000000000000000000000000000000000000000000000000000000000000000000000000000000000000000000000000000000000000000000000000000000000000000000000000000000000000000000000000000000
310
0000000000000000000000000000000000000000000000000000000000000000000000000000000000000000000000000000000000000000
  0
BLOCK_RECORD
  5
5D6
330
1
100
AcDbSymbolTableRecord
100
AcDbBlockTableRecord
  2
jis_br_revisionlist0
340
0
310
2800000020000000200000000100080000000000000400000000000000000000000000000000000000000000000080000080000000808000800000008000800080800000C0C0C000C0DCC000F0CAA6000020400000206000002080000020A0000020C0000020E00000400000004020000040400000406000004080000040A0
310
000040C0000040E00000600000006020000060400000606000006080000060A0000060C0000060E00000800000008020000080400000806000008080000080A0000080C0000080E00000A0000000A0200000A0400000A0600000A0800000A0A00000A0C00000A0E00000C0000000C0200000C0400000C0600000C0800000C0
310
A00000C0C00000C0E00000E0000000E0200000E0400000E0600000E0800000E0A00000E0C00000E0E00040000000400020004000400040006000400080004000A0004000C0004000E00040200000402020004020400040206000402080004020A0004020C0004020E000404000004040200040404000404060004040800040
310
40A0004040C0004040E00040600000406020004060400040606000406080004060A0004060C0004060E00040800000408020004080400040806000408080004080A0004080C0004080E00040A0000040A0200040A0400040A0600040A0800040A0A00040A0C00040A0E00040C0000040C0200040C0400040C0600040C08000
310
40C0A00040C0C00040C0E00040E0000040E0200040E0400040E0600040E0800040E0A00040E0C00040E0E00080000000800020008000400080006000800080008000A0008000C0008000E00080200000802020008020400080206000802080008020A0008020C0008020E00080400000804020008040400080406000804080
310
008040A0008040C0008040E00080600000806020008060400080606000806080008060A0008060C0008060E00080800000808020008080400080806000808080008080A0008080C0008080E00080A0000080A0200080A0400080A0600080A0800080A0A00080A0C00080A0E00080C0000080C0200080C0400080C0600080C0
310
800080C0A00080C0C00080C0E00080E0000080E0200080E0400080E0600080E0800080E0A00080E0C00080E0E000C0000000C0002000C0004000C0006000C0008000C000A000C000C000C000E000C0200000C0202000C0204000C0206000C0208000C020A000C020C000C020E000C0400000C0402000C0404000C0406000C0
310
408000C040A000C040C000C040E000C0600000C0602000C0604000C0606000C0608000C060A000C060C000C060E000C0800000C0802000C0804000C0806000C0808000C080A000C080C000C080E000C0A00000C0A02000C0A04000C0A06000C0A08000C0A0A000C0A0C000C0A0E000C0C00000C0C02000C0C04000C0C06000
310
C0C08000C0C0A000F0FBFF00A4A0A000808080000000FF0000FF000000FFFF00FF000000FF00FF00FFFF0000FFFFFF0000000000000000000000000000000000000000000000000000000000000000000000000000000000000000000000000000000000000000000000000000000000000000000000000000000000000000
310
00000000000000000000000000000000000000000000000000000000000000000000000000000000000000000000000000000000000000000000000000000000000000000000000000000000000000000000000000000000000000000000000000000000000000000000000000000000000000000000000000000000000000
310
00000000000000000000000000000000000000000000000000000000000000000000000000000000000000000000000000000000000000000000000000000000000000000000000000000000000000000000000000000000000000000000000000000000000000000000000000000000000000000000000000000000000000
310
00000000000000000000000000000000000000000000000000000000000000000000000000000000000000000000000000000000000000000000000000000000000000000000000000000000000000000000000000000000000000000000000000000000000000000000000000000000000000000000000000000000000000
310
000000000000000000000000000000000000000000FFFFFFFFFFFFFFFFFFFFFFFFFFFFFFFFFFFFFFFFFFFFFFFFFFFFFFFFFFFF0000FFFFFFFFFFFFFFFFFFFFFFFFFFFFFFFFFFFFFFFFFFFFFFFFFFFFFFFFFFFF0000000000000000000000000000000000000000000000000000000000000000000000000000000000000000
310
00000000000000000000000000000000000000000000000000000000000000000000000000000000000000000000000000000000000000000000000000000000000000000000000000000000000000000000000000000000000000000000000000000000000000000000000000000000000000000000000000000000000000
310
00000000000000000000000000000000000000000000000000000000000000000000000000000000000000000000000000000000000000000000000000000000000000000000000000000000000000000000000000000000000000000000000000000000000000000000000000000000000000000000000000000000000000
310
00000000000000000000000000000000000000000000000000000000000000000000000000000000000000000000000000000000000000000000000000000000000000000000000000000000000000000000000000000000000000000000000000000000000000000000000000000000000000000000000000000000000000
310
0000000000000000000000000000000000000000000000000000000000000000000000000000000000000000000000000000000000000000
102
{BLKREFS
331
603
102
}
1001
ACAD
1000
DesignCenter Data
1002
{
1070
     1
1070
     1
1002
}
  0
BLOCK_RECORD
  5
5E4
330
1
100
AcDbSymbolTableRecord
100
AcDbBlockTableRecord
  2
jis_br_revisionlist1
340
0
310
2800000020000000200000000100080000000000000400000000000000000000000000000000000000000000000080000080000000808000800000008000800080800000C0C0C000C0DCC000F0CAA6000020400000206000002080000020A0000020C0000020E00000400000004020000040400000406000004080000040A0
310
000040C0000040E00000600000006020000060400000606000006080000060A0000060C0000060E00000800000008020000080400000806000008080000080A0000080C0000080E00000A0000000A0200000A0400000A0600000A0800000A0A00000A0C00000A0E00000C0000000C0200000C0400000C0600000C0800000C0
310
A00000C0C00000C0E00000E0000000E0200000E0400000E0600000E0800000E0A00000E0C00000E0E00040000000400020004000400040006000400080004000A0004000C0004000E00040200000402020004020400040206000402080004020A0004020C0004020E000404000004040200040404000404060004040800040
310
40A0004040C0004040E00040600000406020004060400040606000406080004060A0004060C0004060E00040800000408020004080400040806000408080004080A0004080C0004080E00040A0000040A0200040A0400040A0600040A0800040A0A00040A0C00040A0E00040C0000040C0200040C0400040C0600040C08000
310
40C0A00040C0C00040C0E00040E0000040E0200040E0400040E0600040E0800040E0A00040E0C00040E0E00080000000800020008000400080006000800080008000A0008000C0008000E00080200000802020008020400080206000802080008020A0008020C0008020E00080400000804020008040400080406000804080
310
008040A0008040C0008040E00080600000806020008060400080606000806080008060A0008060C0008060E00080800000808020008080400080806000808080008080A0008080C0008080E00080A0000080A0200080A0400080A0600080A0800080A0A00080A0C00080A0E00080C0000080C0200080C0400080C0600080C0
310
800080C0A00080C0C00080C0E00080E0000080E0200080E0400080E0600080E0800080E0A00080E0C00080E0E000C0000000C0002000C0004000C0006000C0008000C000A000C000C000C000E000C0200000C0202000C0204000C0206000C0208000C020A000C020C000C020E000C0400000C0402000C0404000C0406000C0
310
408000C040A000C040C000C040E000C0600000C0602000C0604000C0606000C0608000C060A000C060C000C060E000C0800000C0802000C0804000C0806000C0808000C080A000C080C000C080E000C0A00000C0A02000C0A04000C0A06000C0A08000C0A0A000C0A0C000C0A0E000C0C00000C0C02000C0C04000C0C06000
310
C0C08000C0C0A000F0FBFF00A4A0A000808080000000FF0000FF000000FFFF00FF000000FF00FF00FFFF0000FFFFFF0000000000000000000000000000000000000000000000000000000000000000000000000000000000000000000000000000000000000000000000000000000000000000000000000000000000000000
310
00000000000000000000000000000000000000000000000000000000000000000000000000000000000000000000000000000000000000000000000000000000000000000000000000000000000000000000000000000000000000000000000000000000000000000000000000000000000000000000000000000000000000
310
00000000000000000000000000000000000000000000000000000000000000000000000000000000000000000000000000000000000000000000000000000000000000000000000000000000000000000000000000000000000000000000000000000000000000000000000000000000000000000000000000000000000000
310
00000000000000000000000000000000000000000000000000000000000000000000000000000000000000000000000000000000000000000000000000000000000000000000000000000000000000000000000000000000000000000000000000000000000000000000000000000000000000000000000000000000000000
310
000000000000000000000000000000000000000000FFFFFFFFFFFFFFFFFFFFFFFFFFFFFFFFFFFFFFFFFFFFFFFFFFFFFFFF00000000FFFFFFFFFFFFFFFFFFFFFFFFFFFFFFFFFFFFFFFFFFFFFFFFFFFFFFFFFFFF0000000000000000000000000000000000000000000000000000000000000000000000000000000000000000
310
00000000000000000000000000000000000000000000000000000000000000000000000000000000000000000000000000000000000000000000000000000000000000000000000000000000000000000000000000000000000000000000000000000000000000000000000000000000000000000000000000000000000000
310
00000000000000000000000000000000000000000000000000000000000000000000000000000000000000000000000000000000000000000000000000000000000000000000000000000000000000000000000000000000000000000000000000000000000000000000000000000000000000000000000000000000000000
310
00000000000000000000000000000000000000000000000000000000000000000000000000000000000000000000000000000000000000000000000000000000000000000000000000000000000000000000000000000000000000000000000000000000000000000000000000000000000000000000000000000000000000
310
0000000000000000000000000000000000000000000000000000000000000000000000000000000000000000000000000000000000000000
102
{BLKREFS
331
5FB
102
}
1001
ACAD
1000
DesignCenter Data
1002
{
1070
     1
1070
     1
1002
}
  0
BLOCK_RECORD
  5
5FA
330
1
100
AcDbSymbolTableRecord
100
AcDbBlockTableRecord
  2
jis_br_revisionlist
340
0
310
2800000020000000200000000100080000000000000400000000000000000000000000000000000000000000000080000080000000808000800000008000800080800000C0C0C000C0DCC000F0CAA6000020400000206000002080000020A0000020C0000020E00000400000004020000040400000406000004080000040A0
310
000040C0000040E00000600000006020000060400000606000006080000060A0000060C0000060E00000800000008020000080400000806000008080000080A0000080C0000080E00000A0000000A0200000A0400000A0600000A0800000A0A00000A0C00000A0E00000C0000000C0200000C0400000C0600000C0800000C0
310
A00000C0C00000C0E00000E0000000E0200000E0400000E0600000E0800000E0A00000E0C00000E0E00040000000400020004000400040006000400080004000A0004000C0004000E00040200000402020004020400040206000402080004020A0004020C0004020E000404000004040200040404000404060004040800040
310
40A0004040C0004040E00040600000406020004060400040606000406080004060A0004060C0004060E00040800000408020004080400040806000408080004080A0004080C0004080E00040A0000040A0200040A0400040A0600040A0800040A0A00040A0C00040A0E00040C0000040C0200040C0400040C0600040C08000
310
40C0A00040C0C00040C0E00040E0000040E0200040E0400040E0600040E0800040E0A00040E0C00040E0E00080000000800020008000400080006000800080008000A0008000C0008000E00080200000802020008020400080206000802080008020A0008020C0008020E00080400000804020008040400080406000804080
310
008040A0008040C0008040E00080600000806020008060400080606000806080008060A0008060C0008060E00080800000808020008080400080806000808080008080A0008080C0008080E00080A0000080A0200080A0400080A0600080A0800080A0A00080A0C00080A0E00080C0000080C0200080C0400080C0600080C0
310
800080C0A00080C0C00080C0E00080E0000080E0200080E0400080E0600080E0800080E0A00080E0C00080E0E000C0000000C0002000C0004000C0006000C0008000C000A000C000C000C000E000C0200000C0202000C0204000C0206000C0208000C020A000C020C000C020E000C0400000C0402000C0404000C0406000C0
310
408000C040A000C040C000C040E000C0600000C0602000C0604000C0606000C0608000C060A000C060C000C060E000C0800000C0802000C0804000C0806000C0808000C080A000C080C000C080E000C0A00000C0A02000C0A04000C0A06000C0A08000C0A0A000C0A0C000C0A0E000C0C00000C0C02000C0C04000C0C06000
310
C0C08000C0C0A000F0FBFF00A4A0A000808080000000FF0000FF000000FFFF00FF000000FF00FF00FFFF0000FFFFFF0000000000000000000000000000000000000000000000000000000000000000000000000000000000000000000000000000000000000000000000000000000000000000000000000000000000000000
310
00000000000000000000000000000000000000000000000000000000000000000000000000000000000000000000000000000000000000000000000000000000000000000000000000000000000000000000000000000000000000000000000000000000000000000000000000000000000000000000000000000000000000
310
00000000000000000000000000000000000000000000000000000000000000000000000000000000000000000000000000000000000000000000000000000000000000000000000000000000000000000000000000000000000000000000000000000000000000000000000000000000000000000000000000000000000000
310
0000000000000000000000000000000000000000000000000000000000000000000000000000000000000000000000000000000000000000000000000000000000000000000000000000000000000000000000000000000000000000000000000000000000000000000000000000000000000000FFFFF9FFFFF9FFFFFFFFFF
310
FFFFFFFFFFFFFFFFFFFFFFFFFFFFF9FFFFFFFF0000FFF9F9F9FFF9FFFFFFFFFFFFFFFFFFFFFFFFFFFFFFFFFFFFFFF9FFFFFFFF0000FF00FF0000F9F9F9F9F9F9F9F9F9F9F9F9F9F9F9F9F9F9F9F9F9000000FF0000FFFFFFFFFFFFFFFFFFFFFFFFFFFFFFFFFFFFFFFFFFFFFFFFFFFFFFFFFFFF000000000000000000000000
310
00000000000000000000000000000000000000000000000000000000000000000000000000000000000000000000000000000000000000000000000000000000000000000000000000000000000000000000000000000000000000000000000000000000000000000000000000000000000000000000000000000000000000
310
00000000000000000000000000000000000000000000000000000000000000000000000000000000000000000000000000000000000000000000000000000000000000000000000000000000000000000000000000000000000000000000000000000000000000000000000000000000000000000000000000000000000000
310
00000000000000000000000000000000000000000000000000000000000000000000000000000000000000000000000000000000000000000000000000000000000000000000000000000000000000000000000000000000000000000000000000000000000000000000000000000000000000000000000000000000000000
310
0000000000000000000000000000000000000000000000000000000000000000000000000000000000000000000000000000000000000000
  0
BLOCK_RECORD
  5
6A8
330
1
100
AcDbSymbolTableRecord
100
AcDbBlockTableRecord
  2
IGS_A3
340
0
310
2800000020000000200000000100080000000000000400000000000000000000000000000000000000000000000080000080000000808000800000008000800080800000C0C0C000C0DCC000F0CAA6000020400000206000002080000020A0000020C0000020E00000400000004020000040400000406000004080000040A0
310
000040C0000040E00000600000006020000060400000606000006080000060A0000060C0000060E00000800000008020000080400000806000008080000080A0000080C0000080E00000A0000000A0200000A0400000A0600000A0800000A0A00000A0C00000A0E00000C0000000C0200000C0400000C0600000C0800000C0
310
A00000C0C00000C0E00000E0000000E0200000E0400000E0600000E0800000E0A00000E0C00000E0E00040000000400020004000400040006000400080004000A0004000C0004000E00040200000402020004020400040206000402080004020A0004020C0004020E000404000004040200040404000404060004040800040
310
40A0004040C0004040E00040600000406020004060400040606000406080004060A0004060C0004060E00040800000408020004080400040806000408080004080A0004080C0004080E00040A0000040A0200040A0400040A0600040A0800040A0A00040A0C00040A0E00040C0000040C0200040C0400040C0600040C08000
310
40C0A00040C0C00040C0E00040E0000040E0200040E0400040E0600040E0800040E0A00040E0C00040E0E00080000000800020008000400080006000800080008000A0008000C0008000E00080200000802020008020400080206000802080008020A0008020C0008020E00080400000804020008040400080406000804080
310
008040A0008040C0008040E00080600000806020008060400080606000806080008060A0008060C0008060E00080800000808020008080400080806000808080008080A0008080C0008080E00080A0000080A0200080A0400080A0600080A0800080A0A00080A0C00080A0E00080C0000080C0200080C0400080C0600080C0
310
800080C0A00080C0C00080C0E00080E0000080E0200080E0400080E0600080E0800080E0A00080E0C00080E0E000C0000000C0002000C0004000C0006000C0008000C000A000C000C000C000E000C0200000C0202000C0204000C0206000C0208000C020A000C020C000C020E000C0400000C0402000C0404000C0406000C0
310
408000C040A000C040C000C040E000C0600000C0602000C0604000C0606000C0608000C060A000C060C000C060E000C0800000C0802000C0804000C0806000C0808000C080A000C080C000C080E000C0A00000C0A02000C0A04000C0A06000C0A08000C0A0A000C0A0C000C0A0E000C0C00000C0C02000C0C04000C0C06000
310
C0C08000C0C0A000F0FBFF00A4A0A000808080000000FF0000FF000000FFFF00FF000000FF00FF00FFFF0000FFFFFF0000000000000000000000000000000000000000000000000000000000000000000000000000000000000000000000000000000000000000000000000000000000000000000000000000000000000000
310
000000000000000000000000000000000000000000000000000000000000000000000000000000000000000000000000000000000000000000000000000000000000000000000000000000000000000000000000000000000000000000000000000000000000000000000000000000000000F9F9FFF9F9F9F9F9F9F9F9F9F9
310
F9F9F9F9F9F9F9F9F9F9F9F9F9F9F900000000F900FFFFFFFFFFFFFFFFFFFFFFFFFFFFFFFFFFFFFFFFFFFFFFFFFFF900000000F900FF0000000000000000000000000000000000000000000000FFF900000000F900FF0000000000000000000000000000000000000000000000FFF900000000F900FF000000000000000000
310
0000000000000000000000000000FFF900000000F900FF0000000000000000000000000000000000000000000000FFF900000000F900FF0000000000000000000000000000000000000000000000FFF900000000F900FF0000000000000000000000000000000000000000000000FFF900000000F900FF0000000000000000
310
000000000000000000000000000000FFF900000000F900FF0000000000000000000000000000000000000000000000FFF900000000F900FF0000000000000000000000000000000000000000000000FFF900000000F900FF0000000000000000000000000000000000000000000000FFF900000000F900FF00000000000000
310
00000000000000000000000000000000FFF900000000F900FF0000000000000000000000000000000000000000000000FFF900000000F900FF0000000000000000000000000000000000000000000000FFF900000000F900FF0000000000000000000000000000000000000000000000FFF900000000F900FF000000000000
310
0000000000000000000000000000000000FFF900000000F900FF0000000000000000000000000000000000000000000000FFF900000000F900FFFFFFFFFFFFFFFFFFFFFFFFFFFFFFFFFFFFFFFFFFFFFFFFFFF900000000F9F9F9F9F9F9F9F9F9F9F9F9F9F9F9F9F9F9F9F9F9F9F9F9F9F9F9F9000000000000000000000000
310
00000000000000000000000000000000000000000000000000000000000000000000000000000000000000000000000000000000000000000000000000000000000000000000000000000000000000000000000000000000000000000000000000000000000000000000000000000000000000000000000000000000000000
310
0000000000000000000000000000000000000000000000000000000000000000000000000000000000000000000000000000000000000000
102
{BLKREFS
331
4734
102
}
  0
BLOCK_RECORD
  5
6533
330
1
100
AcDbSymbolTableRecord
100
AcDbBlockTableRecord
  2
*D19
340
0
  0
BLOCK_RECORD
  5
6564
330
1
100
AcDbSymbolTableRecord
100
AcDbBlockTableRecord
  2
*D20
340
0
  0
BLOCK_RECORD
  5
658A
330
1
100
AcDbSymbolTableRecord
100
AcDbBlockTableRecord
  2
*D21
340
0
  0
BLOCK_RECORD
  5
65A5
330
1
100
AcDbSymbolTableRecord
100
AcDbBlockTableRecord
  2
*D22
340
0
  0
BLOCK_RECORD
  5
65F4
330
1
100
AcDbSymbolTableRecord
100
AcDbBlockTableRecord
  2
*D23
340
0
  0
BLOCK_RECORD
  5
661C
330
1
100
AcDbSymbolTableRecord
100
AcDbBlockTableRecord
  2
*D24
340
0
  0
BLOCK_RECORD
  5
667F
330
1
100
AcDbSymbolTableRecord
100
AcDbBlockTableRecord
  2
*D25
340
0
  0
BLOCK_RECORD
  5
66C2
330
1
100
AcDbSymbolTableRecord
100
AcDbBlockTableRecord
  2
*D26
340
0
  0
BLOCK_RECORD
  5
66FA
330
1
100
AcDbSymbolTableRecord
100
AcDbBlockTableRecord
  2
*D27
340
0
  0
BLOCK_RECORD
  5
6801
330
1
100
AcDbSymbolTableRecord
100
AcDbBlockTableRecord
  2
PCUT
340
0
  0
BLOCK_RECORD
  5
693A
330
1
100
AcDbSymbolTableRecord
100
AcDbBlockTableRecord
  2
NAKAMURA
340
0
310
2800000020000000200000000100080000000000000400000000000000000000000000000000000000000000000080000080000000808000800000008000800080800000C0C0C000C0DCC000F0CAA6000020400000206000002080000020A0000020C0000020E00000400000004020000040400000406000004080000040A0
310
000040C0000040E00000600000006020000060400000606000006080000060A0000060C0000060E00000800000008020000080400000806000008080000080A0000080C0000080E00000A0000000A0200000A0400000A0600000A0800000A0A00000A0C00000A0E00000C0000000C0200000C0400000C0600000C0800000C0
310
A00000C0C00000C0E00000E0000000E0200000E0400000E0600000E0800000E0A00000E0C00000E0E00040000000400020004000400040006000400080004000A0004000C0004000E00040200000402020004020400040206000402080004020A0004020C0004020E000404000004040200040404000404060004040800040
310
40A0004040C0004040E00040600000406020004060400040606000406080004060A0004060C0004060E00040800000408020004080400040806000408080004080A0004080C0004080E00040A0000040A0200040A0400040A0600040A0800040A0A00040A0C00040A0E00040C0000040C0200040C0400040C0600040C08000
310
40C0A00040C0C00040C0E00040E0000040E0200040E0400040E0600040E0800040E0A00040E0C00040E0E00080000000800020008000400080006000800080008000A0008000C0008000E00080200000802020008020400080206000802080008020A0008020C0008020E00080400000804020008040400080406000804080
310
008040A0008040C0008040E00080600000806020008060400080606000806080008060A0008060C0008060E00080800000808020008080400080806000808080008080A0008080C0008080E00080A0000080A0200080A0400080A0600080A0800080A0A00080A0C00080A0E00080C0000080C0200080C0400080C0600080C0
310
800080C0A00080C0C00080C0E00080E0000080E0200080E0400080E0600080E0800080E0A00080E0C00080E0E000C0000000C0002000C0004000C0006000C0008000C000A000C000C000C000E000C0200000C0202000C0204000C0206000C0208000C020A000C020C000C020E000C0400000C0402000C0404000C0406000C0
310
408000C040A000C040C000C040E000C0600000C0602000C0604000C0606000C0608000C060A000C060C000C060E000C0800000C0802000C0804000C0806000C0808000C080A000C080C000C080E000C0A00000C0A02000C0A04000C0A06000C0A08000C0A0A000C0A0C000C0A0E000C0C00000C0C02000C0C04000C0C06000
310
C0C08000C0C0A000F0FBFF00A4A0A000808080000000FF0000FF000000FFFF00FF000000FF00FF00FFFF0000FFFFFF000000000000000000000000000000000000000000000000000000000000000000000000000000000000000000000000FFFFFF000000000000000000000000000000000000000000000000FFFFFFFFFF
310
000000FFFF0000000000000000000000000000000000000000FFFF00000000000000000000FFFFFF00000000000000000000000000000000FF00000000FF0000000000FF00FFFF00FFFF00000000000000000000000000FF0000000000FF0000000000FF0000FF000000FF0000000000000000000000FF000000FFFFFFFFFF
310
FF00FF00FF00FFFF00000000FF000000000000000000FF00000000FF0000FF00FF0000FFFFFFFFFF0000000000FF0000000000000000FF00000000FF0000FF00FF0000FFFFFFFFFF0000000000FF00000000000000FF0000000000FF0000FF00FF00FFFFFFFFFFFFFF0000000000FF000000000000FF0000000000FFFFFFFF
310
FFFF000000FF0000FF00000000000000FF00000000FF000000000000000000FF0000000000FF0000FF00000000000000FF00000000FFFFFFFFFFFFFFFFFFFFFFFFFFFFFFFFFFFFFFFFFFFFFFFFFFFFFFFF00000000FF0000000000000000000000000000000000000000000000000000FF000000FF00000000000000000000
310
000000000000000000000000000000000000FF0000FF00000000000000000000000000000000000000000000000000000000FF0000FF00000000000000000000000000000000000000000000000000000000FF0000FF00000000000000000000000000000000000000000000000000000000FF000000FF0000000000000000
310
000000000000000000000000000000000000FF00000000FF0000000000000000000000000000000000000000000000000000FF00000000FF0000000000000000000000000000000000000000000000000000FF0000000000FF00000000000000000000000000000000000000000000000000FF0000000000FFFFFFFFFFFFFF
310
FFFFFFFFFFFFFFFFFFFFFFFFFFFFFFFFFFFFFF00000000000000FF000000000000FFFF00FFFF00FFFF00FF000000000000FF0000000000000000FF000000000000FF00FFFF0000FFFF00FF000000000000FF000000000000000000FF00000000FFFF00FFFF0000FFFFFFFF0000000000FF0000000000000000000000FF0000
310
0000FFFFFF00FFFFFFFFFFFF00000000FF00000000000000000000000000FF0000FFFFFFFFFFFF00FFFFFFFFFF00FFFF000000000000000000000000000000FFFF00FFFFFFFFFFFFFFFFFFFFFFFF00000000000000000000000000000000000000FFFFFFFFFF0000FFFFFFFF00000000000000000000000000000000000000
310
00000000000000FFFFFF00000000000000000000000000000000000000000000000000000000000000000000000000000000000000000000
102
{BLKREFS
331
694B
331
6950
102
}
1001
ACAD
1000
DesignCenter Data
1002
{
1070
     1
1070
     4
1002
}
  0
BLOCK_RECORD
  5
6A1E
330
1
100
AcDbSymbolTableRecord
100
AcDbBlockTableRecord
  2
*S30
340
0
  0
BLOCK_RECORD
  5
6A28
330
1
100
AcDbSymbolTableRecord
100
AcDbBlockTableRecord
  2
*S31
340
0
  0
BLOCK_RECORD
  5
6A32
330
1
100
AcDbSymbolTableRecord
100
AcDbBlockTableRecord
  2
*S32
340
0
  0
BLOCK_RECORD
  5
6A3C
330
1
100
AcDbSymbolTableRecord
100
AcDbBlockTableRecord
  2
*S33
340
0
  0
BLOCK_RECORD
  5
6A46
330
1
100
AcDbSymbolTableRecord
100
AcDbBlockTableRecord
  2
*S34
340
0
  0
BLOCK_RECORD
  5
6A50
330
1
100
AcDbSymbolTableRecord
100
AcDbBlockTableRecord
  2
*S35
340
0
  0
BLOCK_RECORD
  5
6A5A
330
1
100
AcDbSymbolTableRecord
100
AcDbBlockTableRecord
  2
*S36
340
0
  0
BLOCK_RECORD
  5
6A64
330
1
100
AcDbSymbolTableRecord
100
AcDbBlockTableRecord
  2
*S37
340
0
  0
BLOCK_RECORD
  5
6A6E
330
1
100
AcDbSymbolTableRecord
100
AcDbBlockTableRecord
  2
*S38
340
0
  0
BLOCK_RECORD
  5
6A78
330
1
100
AcDbSymbolTableRecord
100
AcDbBlockTableRecord
  2
*S39
340
0
  0
BLOCK_RECORD
  5
6A82
330
1
100
AcDbSymbolTableRecord
100
AcDbBlockTableRecord
  2
*S40
340
0
  0
BLOCK_RECORD
  5
6A8C
330
1
100
AcDbSymbolTableRecord
100
AcDbBlockTableRecord
  2
*S41
340
0
  0
BLOCK_RECORD
  5
6A96
330
1
100
AcDbSymbolTableRecord
100
AcDbBlockTableRecord
  2
*S42
340
0
  0
ENDTAB
  0
ENDSEC
  0
SECTION
  2
BLOCKS
  0
BLOCK
  5
20
330
1F
100
AcDbEntity
  8
0
100
AcDbBlockBegin
  2
*Model_Space
 70
     0
 10
0.0
 20
0.0
 30
0.0
  3
*Model_Space
  1

  0
ENDBLK
  5
21
330
1F
100
AcDbEntity
  8
0
100
AcDbBlockEnd
  0
BLOCK
  5
1C
330
1B
100
AcDbEntity
 67
     1
  8
0
100
AcDbBlockBegin
  2
*Paper_Space
 70
     0
 10
0.0
 20
0.0
 30
0.0
  3
*Paper_Space
  1

  0
ENDBLK
  5
1D
330
1B
100
AcDbEntity
 67
     1
  8
0
100
AcDbBlockEnd
  0
BLOCK
  5
24
330
23
100
AcDbEntity
  8
0
100
AcDbBlockBegin
  2
*Paper_Space0
 70
     0
 10
0.0
 20
0.0
 30
0.0
  3
*Paper_Space0
  1

  0
ENDBLK
  5
25
330
23
100
AcDbEntity
  8
0
100
AcDbBlockEnd
  0
BLOCK
  5
7B
330
77
100
AcDbEntity
  8
0
100
AcDbBlockBegin
  2
_Open30
 70
     0
 10
0.0
 20
0.0
 30
0.0
  3
_Open30
  1

  0
LINE
  5
78
330
77
100
AcDbEntity
  8
0
  6
ByBlock
 62
     0
370
    -2
100
AcDbLine
 10
-1.0
 20
0.26794919
 30
0.0
 11
0.0
 21
0.0
 31
0.0
  0
LINE
  5
79
330
77
100
AcDbEntity
  8
0
  6
ByBlock
 62
     0
370
    -2
100
AcDbLine
 10
0.0
 20
0.0
 30
0.0
 11
-1.0
 21
-0.26794919
 31
0.0
  0
LINE
  5
7A
330
77
100
AcDbEntity
  8
0
  6
ByBlock
 62
     0
370
    -2
100
AcDbLine
 10
0.0
 20
0.0
 30
0.0
 11
-1.0
 21
0.0
 31
0.0
  0
ENDBLK
  5
7C
330
77
100
AcDbEntity
  8
0
100
AcDbBlockEnd
  0
BLOCK
  5
85
330
83
100
AcDbEntity
  8
0
100
AcDbBlockBegin
  2
GENAXEH
 70
     0
 10
0.0
 20
0.0
 30
0.0
  3
GENAXEH
  1

  0
LINE
  5
84
330
83
100
AcDbEntity
  8
0
100
AcDbLine
 10
-1.0
 20
0.0
 30
0.0
 11
1.0
 21
0.0
 31
0.0
  0
ENDBLK
  5
86
330
83
100
AcDbEntity
  8
0
100
AcDbBlockEnd
  0
BLOCK
  5
206
330
1F1
100
AcDbEntity
  8
0
100
AcDbBlockBegin
  2
IGS_A2
 70
     0
 10
0.0
 20
0.0
 30
0.0
  3
IGS_A2
  1

  0
LINE
  5
1F2
330
1F1
100
AcDbEntity
  8
AM_BOR
100
AcDbLine
 10
0.0
 20
0.0
 30
0.0
 11
0.0
 21
10.0
 31
0.0
  0
LINE
  5
1F3
330
1F1
100
AcDbEntity
  8
AM_BOR
100
AcDbLine
 10
0.0
 20
420.0
 30
0.0
 11
10.0
 21
420.0
 31
0.0
  0
LINE
  5
1F4
330
1F1
100
AcDbEntity
  8
AM_BOR
100
AcDbLine
 10
594.0
 20
420.0
 30
0.0
 11
594.0
 21
410.0
 31
0.0
  0
LINE
  5
1F5
330
1F1
100
AcDbEntity
  8
AM_BOR
100
AcDbLine
 10
594.0
 20
0.0
 30
0.0
 11
584.0
 21
0.0
 31
0.0
  0
LINE
  5
1F6
330
1F1
100
AcDbEntity
  8
0
100
AcDbLine
 10
20.0
 20
10.0
 30
0.0
 11
20.0
 21
410.0
 31
0.0
  0
LINE
  5
1F7
330
1F1
100
AcDbEntity
  8
0
100
AcDbLine
 10
574.0
 20
10.0
 30
0.0
 11
20.0
 21
10.0
 31
0.0
  0
LINE
  5
1F8
330
1F1
100
AcDbEntity
  8
0
100
AcDbLine
 10
574.0
 20
410.0
 30
0.0
 11
574.0
 21
10.0
 31
0.0
  0
LINE
  5
1F9
330
1F1
100
AcDbEntity
  8
0
100
AcDbLine
 10
20.0
 20
410.0
 30
0.0
 11
574.0
 21
410.0
 31
0.0
  0
LINE
  5
1FA
330
1F1
100
AcDbEntity
  8
AM_BOR
100
AcDbLine
 10
10.0
 20
0.0
 30
0.0
 11
0.0
 21
0.0
 31
0.0
  0
LINE
  5
1FB
330
1F1
100
AcDbEntity
  8
AM_BOR
100
AcDbLine
 10
0.0
 20
410.0
 30
0.0
 11
0.0
 21
420.0
 31
0.0
  0
LINE
  5
1FC
330
1F1
100
AcDbEntity
  8
AM_BOR
100
AcDbLine
 10
594.0
 20
10.0
 30
0.0
 11
594.0
 21
0.0
 31
0.0
  0
LINE
  5
1FD
330
1F1
100
AcDbEntity
  8
AM_BOR
100
AcDbLine
 10
584.0
 20
420.0
 30
0.0
 11
594.0
 21
420.0
 31
0.0
  0
TEXT
  5
1FE
330
1F1
100
AcDbEntity
  8
0
 60
     1
100
AcDbText
 10
574.0
 20
410.0
 30
0.0
 40
6.0
  1
!GENTITLE-RU
  7
ACJISTS
100
AcDbText
  0
TEXT
  5
1FF
330
1F1
100
AcDbEntity
  8
0
 60
     1
100
AcDbText
 10
594.0
 20
420.0
 30
0.0
 40
6.0
  1
!GENTITLE-MAX
  7
ACJISTS
100
AcDbText
  0
TEXT
  5
200
330
1F1
100
AcDbEntity
  8
0
 60
     1
100
AcDbText
 10
574.0
 20
10.0
 30
0.0
 40
6.0
  1
!GENTITLE-INSERT
  7
ACJISTS
100
AcDbText
  0
TEXT
  5
201
330
1F1
100
AcDbEntity
  8
0
 60
     1
100
AcDbText
 10
20.0
 20
10.0
 30
0.0
 40
6.0
  1
!GENTITLE-LL
  7
ACJISTS
100
AcDbText
  0
LINE
  5
202
330
1F1
100
AcDbEntity
  8
AM_BOR
 62
     1
370
    25
100
AcDbLine
 10
0.0
 20
420.0
 30
0.0
 11
594.0
 21
420.0
 31
0.0
  0
LINE
  5
203
330
1F1
100
AcDbEntity
  8
AM_BOR
 62
     1
370
    25
100
AcDbLine
 10
594.0
 20
420.0
 30
0.0
 11
594.0
 21
0.0
 31
0.0
  0
LINE
  5
204
330
1F1
100
AcDbEntity
  8
AM_BOR
 62
     1
370
    25
100
AcDbLine
 10
594.0
 20
0.0
 30
0.0
 11
0.0
 21
0.0
 31
0.0
  0
LINE
  5
205
330
1F1
100
AcDbEntity
  8
AM_BOR
 62
     1
370
    25
100
AcDbLine
 10
0.0
 20
0.0
 30
0.0
 11
0.0
 21
420.0
 31
0.0
  0
ENDBLK
  5
207
330
1F1
100
AcDbEntity
  8
0
100
AcDbBlockEnd
  0
BLOCK
  5
230
330
210
100
AcDbEntity
  8
0
100
AcDbBlockBegin
  2
GEN_A4
 70
     0
 10
0.0
 20
0.0
 30
0.0
  3
GEN_A4
  1

  0
LINE
  5
211
330
210
100
AcDbEntity
  8
RAHM2
100
AcDbLine
 10
0.0
 20
0.0
 30
0.0
 11
210.0
 21
0.0
 31
0.0
  0
LINE
  5
212
330
210
100
AcDbEntity
  8
RAHM2
100
AcDbLine
 10
210.0
 20
0.0
 30
0.0
 11
210.0
 21
297.0
 31
0.0
  0
LINE
  5
213
330
210
100
AcDbEntity
  8
RAHM2
100
AcDbLine
 10
210.0
 20
297.0
 30
0.0
 11
0.0
 21
297.0
 31
0.0
  0
LINE
  5
214
330
210
100
AcDbEntity
  8
RAHM2
100
AcDbLine
 10
0.0
 20
297.0
 30
0.0
 11
0.0
 21
0.0
 31
0.0
  0
LINE
  5
215
330
210
100
AcDbEntity
  8
0
100
AcDbLine
 10
15.0
 20
5.0
 30
0.0
 11
205.0
 21
5.0
 31
0.0
  0
LINE
  5
216
330
210
100
AcDbEntity
  8
0
100
AcDbLine
 10
205.0
 20
5.0
 30
0.0
 11
205.0
 21
292.0
 31
0.0
  0
LINE
  5
217
330
210
100
AcDbEntity
  8
0
100
AcDbLine
 10
205.0
 20
292.0
 30
0.0
 11
15.0
 21
292.0
 31
0.0
  0
LINE
  5
218
330
210
100
AcDbEntity
  8
0
100
AcDbLine
 10
15.0
 20
292.0
 30
0.0
 11
15.0
 21
287.0
 31
0.0
  0
LINE
  5
219
330
210
100
AcDbEntity
  8
RAHM2
100
AcDbLine
 10
62.5
 20
292.0
 30
0.0
 11
62.5
 21
287.0
 31
0.0
  0
TEXT
  5
21A
330
210
100
AcDbEntity
  8
RAHM2
100
AcDbText
 10
37.4
 20
287.5
 30
0.0
 40
4.0
  1
4
100
AcDbText
  0
TEXT
  5
21B
330
210
100
AcDbEntity
  8
RAHM2
100
AcDbText
 10
84.9
 20
287.5
 30
0.0
 40
4.0
  1
3
100
AcDbText
  0
LINE
  5
21C
330
210
100
AcDbEntity
  8
RAHM2
100
AcDbLine
 10
110.0
 20
292.0
 30
0.0
 11
110.0
 21
287.0
 31
0.0
  0
TEXT
  5
21D
330
210
100
AcDbEntity
  8
RAHM2
100
AcDbText
 10
132.4
 20
287.5
 30
0.0
 40
4.0
  1
2
100
AcDbText
  0
LINE
  5
21E
330
210
100
AcDbEntity
  8
RAHM2
100
AcDbLine
 10
157.5
 20
292.0
 30
0.0
 11
157.5
 21
287.0
 31
0.0
  0
TEXT
  5
21F
330
210
100
AcDbEntity
  8
RAHM2
100
AcDbText
 10
179.9
 20
287.5
 30
0.0
 40
4.0
  1
1
100
AcDbText
  0
LINE
  5
220
330
210
100
AcDbEntity
  8
RAHM2
100
AcDbLine
 10
15.0
 20
292.0
 30
0.0
 11
10.0
 21
292.0
 31
0.0
  0
LINE
  5
221
330
210
100
AcDbEntity
  8
RAHM2
100
AcDbLine
 10
15.0
 20
287.0
 30
0.0
 11
205.0
 21
287.0
 31
0.0
  0
LINE
  5
222
330
210
100
AcDbEntity
  8
0
100
AcDbLine
 10
15.0
 20
287.0
 30
0.0
 11
15.0
 21
5.0
 31
0.0
  0
TEXT
  5
223
330
210
100
AcDbEntity
  8
RAHM2
100
AcDbText
 10
11.15
 20
120.5
 30
0.0
 40
4.0
  1
A
100
AcDbText
  0
LINE
  5
224
330
210
100
AcDbEntity
  8
RAHM2
100
AcDbLine
 10
10.0
 20
146.0
 30
0.0
 11
15.0
 21
146.0
 31
0.0
  0
TEXT
  5
225
330
210
100
AcDbEntity
  8
RAHM2
100
AcDbText
 10
11.15
 20
167.5
 30
0.0
 40
4.0
  1
B
100
AcDbText
  0
LINE
  5
226
330
210
100
AcDbEntity
  8
RAHM2
100
AcDbLine
 10
10.0
 20
193.0
 30
0.0
 11
15.0
 21
193.0
 31
0.0
  0
TEXT
  5
227
330
210
100
AcDbEntity
  8
RAHM2
100
AcDbText
 10
11.15
 20
214.5
 30
0.0
 40
4.0
  1
C
100
AcDbText
  0
LINE
  5
228
330
210
100
AcDbEntity
  8
RAHM2
100
AcDbLine
 10
10.0
 20
240.0
 30
0.0
 11
15.0
 21
240.0
 31
0.0
  0
TEXT
  5
229
330
210
100
AcDbEntity
  8
RAHM2
100
AcDbText
 10
11.15
 20
261.5
 30
0.0
 40
4.0
  1
D
100
AcDbText
  0
LINE
  5
22A
330
210
100
AcDbEntity
  8
RAHM2
100
AcDbLine
 10
10.0
 20
99.0
 30
0.0
 11
15.0
 21
99.0
 31
0.0
  0
LINE
  5
22B
330
210
100
AcDbEntity
  8
RAHM2
100
AcDbLine
 10
10.0
 20
99.0
 30
0.0
 11
10.0
 21
292.0
 31
0.0
  0
TEXT
  5
22C
330
210
100
AcDbEntity
  8
0
 60
     1
100
AcDbText
 10
210.0
 20
297.0
 30
0.0
 40
3.5
  1
!GENTITLE-MAX
100
AcDbText
  0
TEXT
  5
22D
330
210
100
AcDbEntity
  8
0
 60
     1
100
AcDbText
 10
205.0
 20
287.0
 30
0.0
 40
3.5
  1
!GENTITLE-RU
100
AcDbText
  0
TEXT
  5
22E
330
210
100
AcDbEntity
  8
0
 60
     1
100
AcDbText
 10
15.0
 20
59.99
 30
0.0
 40
3.5
  1
!GENTITLE-LL
100
AcDbText
  0
TEXT
  5
22F
330
210
100
AcDbEntity
  8
0
 60
     1
100
AcDbText
 10
205.0
 20
5.0
 30
0.0
 40
3.5
  1
!GENTITLE-INSERT
100
AcDbText
  0
ENDBLK
  5
231
330
210
100
AcDbEntity
  8
0
100
AcDbBlockEnd
  0
BLOCK
  5
26B
330
232
100
AcDbEntity
  8
0
100
AcDbBlockBegin
  2
GENTITUS
 70
     2
 10
0.0
 20
0.0
 30
0.0
  3
GENTITUS
  1

  0
ATTDEF
  5
233
330
232
100
AcDbEntity
  8
RAHM2
100
AcDbText
 10
-161.2719926438011
 20
59.77949705640509
 30
0.0
 40
3.047999999999999
  1

100
AcDbAttributeDefinition
  3
File Name
  2
GEN-TITLE-DWG{10.58}
 70
     0
  0
ATTDEF
  5
234
330
232
100
AcDbEntity
  8
RAHM2
100
AcDbText
 10
-113.0375060754025
 20
1.655316229755442
 30
0.0
 40
3.047999999999999
  1

100
AcDbAttributeDefinition
  3
Scale
  2
GEN-TITLE-SCA{7.49}
 70
     0
  0
ATTDEF
  5
235
330
232
100
AcDbEntity
  8
RAHM2
100
AcDbText
 10
-170.5791365852594
 20
44.08298086452544
 30
0.0
 40
3.047999999999999
  1

100
AcDbAttributeDefinition
  3
Draft Date
  2
GEN-TITLE-DAT{6.03}
 70
     0
  0
ATTDEF
  5
236
330
232
100
AcDbEntity
  8
RAHM2
100
AcDbText
 10
-148.8439999999988
 20
44.06900000000002
 30
0.0
 40
3.047999999999999
  1

100
AcDbAttributeDefinition
  3
Drawn by
  2
GEN-TITLE-NAME{6.72}
 70
     0
  0
ATTDEF
  5
237
330
232
100
AcDbEntity
  8
RAHM5
100
AcDbText
 10
-121.9520790451008
 20
36.30136743197994
 30
0.0
 40
6.349999999999999
  1

100
AcDbAttributeDefinition
  3
Drawing Title
  2
GEN-TITLE-DES1{18.22}
 70
     0
  0
ATTDEF
  5
238
330
232
100
AcDbEntity
  8
RAHM3
100
AcDbText
 10
-121.9520790451008
 20
26.25984032860009
 30
0.0
 40
4.571999999999999
  1

100
AcDbAttributeDefinition
  3
Drawing Subtitle
  2
GEN-TITLE-DES2{26.26}
 70
     0
  0
ATTDEF
  5
239
330
232
100
AcDbEntity
  8
RAHM5
100
AcDbText
 10
-74.05731360850683
 20
9.398000000000024
 30
0.0
 40
6.349999999999999
  1
-
100
AcDbAttributeDefinition
  3
Drawing Number
  2
GEN-TITLE-NR{8.40}
 70
     0
  0
ATTDEF
  5
23A
330
232
100
AcDbEntity
  8
RAHM3
100
AcDbText
 10
-122.5443157926048
 20
49.65700000000004
 30
0.0
 40
4.571999999999999
  1

100
AcDbAttributeDefinition
  3
Design Activity
  2
GEN-TITLE-DACT{25.89}
 70
     0
  0
ATTDEF
  5
23B
330
232
100
AcDbEntity
  8
RAHM2
100
AcDbText
 10
-115.3186639642027
 20
9.398000000000024
 30
0.0
 40
3.047999999999999
  1
-
100
AcDbAttributeDefinition
  3
FSCM Number
  2
GEN-TITLE-FSCM{8.01}
 70
     0
  0
ATTDEF
  5
23C
330
232
100
AcDbEntity
  8
RAHM2
100
AcDbText
 10
-148.8439999999988
 20
28.82900000000001
 30
0.0
 40
3.047999999999999
  1

100
AcDbAttributeDefinition
  3
Approved by
  2
GEN-TITLE-APPM{6.72}
 70
     0
  0
ATTDEF
  5
23D
330
232
100
AcDbEntity
  8
RAHM2
100
AcDbText
 10
-170.7495891837786
 20
28.76581702429371
 30
0.0
 40
3.047999999999999
  1

100
AcDbAttributeDefinition
  3
Approval Date
  2
GEN-TITLE-APPD{6.08}
 70
     0
  0
ATTDEF
  5
23E
330
232
100
AcDbEntity
  8
RAHM2
100
AcDbText
 10
-148.8439999999989
 20
21.20900000000003
 30
0.0
 40
3.047999999999999
  1

100
AcDbAttributeDefinition
  3
Issued by
  2
GEN-TITLE-ISSM{6.72}
 70
     0
  0
ATTDEF
  5
23F
330
232
100
AcDbEntity
  8
RAHM2
100
AcDbText
 10
-170.5791365852594
 20
21.27742535250911
 30
0.0
 40
3.047999999999999
  1

100
AcDbAttributeDefinition
  3
Issue Date
  2
GEN-TITLE-ISSD{6.03}
 70
     0
  0
ATTDEF
  5
240
330
232
100
AcDbEntity
  8
RAHM2
100
AcDbText
 10
-122.025627714063
 20
9.007830168911709
 30
0.0
 40
3.047999999999999
  1

 72
     1
 11
-122.025627714063
 21
9.007830168911709
 31
0.0
100
AcDbAttributeDefinition
  3
Size
  2
GEN-TITLE-SIZ{2.46}
 70
     0
  0
ATTDEF
  5
241
330
232
100
AcDbEntity
  8
RAHM2
100
AcDbText
 10
-148.8439999999988
 20
36.44900000000004
 30
0.0
 40
3.047999999999999
  1

100
AcDbAttributeDefinition
  3
Checked by
  2
GEN-TITLE-CHKM{6.72}
 70
     0
  0
ATTDEF
  5
242
330
232
100
AcDbEntity
  8
RAHM2
100
AcDbText
 10
-155.7496724495927
 20
51.74156347614825
 30
0.0
 40
3.047999999999999
  1
-
100
AcDbAttributeDefinition
  3
Contract Number
  2
GEN-TITLE-CTRN{9.04}
 70
     0
  0
ATTDEF
  5
243
330
232
100
AcDbEntity
  8
RAHM2
100
AcDbText
 10
-170.7495891837786
 20
36.42439894440952
 30
0.0
 40
3.047999999999999
  1

100
AcDbAttributeDefinition
  3
Check Date
  2
GEN-TITLE-CHKD{6.16}
 70
     0
  0
ATTDEF
  5
244
330
232
100
AcDbEntity
  8
RAHM2
100
AcDbText
 10
-26.47195988711838
 20
1.564076906827722
 30
0.0
 40
3.047999999999999
  1

100
AcDbAttributeDefinition
  3
Sheet Number
  2
GEN-TITLE-SHEET{10.30}
 70
     0
  0
ATTDEF
  5
245
330
232
100
AcDbEntity
  8
RAHM2
100
AcDbText
 10
-6.220641135027562
 20
8.879862113045646
 30
0.0
 40
3.047999999999999
  1

 72
     1
 11
-6.220641135027562
 21
8.879862113045646
 31
0.0
100
AcDbAttributeDefinition
  3
Revision
  2
GEN-TITLE-REV{3.27}
 70
     0
  0
ATTDEF
  5
246
330
232
100
AcDbEntity
  8
RAHM2
100
AcDbText
 10
-69.95172301045787
 20
1.65100000000001
 30
0.0
 40
3.047999999999999
  1

100
AcDbAttributeDefinition
  3
Weight
  2
GEN-TITLE-WT{7.43}
 70
     0
  0
LINE
  5
247
330
232
100
AcDbEntity
  8
RAHM2
100
AcDbLine
 10
0.0
 20
47.49800000000004
 30
0.0
 11
-127.0
 21
47.49800000000004
 31
0.0
  0
TEXT
  5
248
330
232
100
AcDbEntity
  8
RAHM2
100
AcDbText
 10
-87.88400000000001
 20
16.00200000000004
 30
0.0
 40
2.032
  1
DWG NO
100
AcDbText
  0
TEXT
  5
249
330
232
100
AcDbEntity
  8
RAHM2
100
AcDbText
 10
-88.25401012743839
 20
1.705415101054569
 30
0.0
 40
2.032
  1
WEIGHT
100
AcDbText
  0
POLYLINE
  5
24A
330
232
100
AcDbEntity
  8
RAHM5
100
AcDb2dPolyline
 66
     1
 10
0.0
 20
0.0
 30
0.0
 70
     1
  0
VERTEX
  5
24B
330
24A
100
AcDbEntity
  8
RAHM5
100
AcDbVertex
100
AcDb2dVertex
 10
0.0
 20
63.50000000000003
 30
0.0
  0
VERTEX
  5
24C
330
24A
100
AcDbEntity
  8
RAHM5
100
AcDbVertex
100
AcDb2dVertex
 10
-182.8799999999977
 20
63.50000000000003
 30
0.0
  0
VERTEX
  5
24D
330
24A
100
AcDbEntity
  8
RAHM5
100
AcDbVertex
100
AcDb2dVertex
 10
-182.8799999999977
 20
0.0000000000000284
 30
0.0
  0
VERTEX
  5
24E
330
24A
100
AcDbEntity
  8
RAHM5
100
AcDbVertex
100
AcDb2dVertex
 10
0.0
 20
0.0
 30
0.0
  0
SEQEND
  5
24F
330
24A
100
AcDbEntity
  8
RAHM5
  0
LINE
  5
250
330
232
100
AcDbEntity
  8
RAHM5
100
AcDbLine
 10
0.0
 20
19.05000000000004
 30
0.0
 11
-127.0
 21
19.05000000000004
 31
0.0
  0
LINE
  5
251
330
232
100
AcDbEntity
  8
RAHM2
100
AcDbLine
 10
0.0
 20
6.350000000000036
 30
0.0
 11
-127.0
 21
6.350000000000036
 31
0.0
  0
LINE
  5
252
330
232
100
AcDbEntity
  8
RAHM5
100
AcDbLine
 10
-127.0
 20
0.0000000000000284
 30
0.0
 11
-127.0
 21
63.50000000000003
 31
0.0
  0
LINE
  5
253
330
232
100
AcDbEntity
  8
RAHM2
100
AcDbLine
 10
-127.0
 20
19.05000000000004
 30
0.0
 11
-182.8799999999977
 21
19.05000000000004
 31
0.0
  0
LINE
  5
254
330
232
100
AcDbEntity
  8
RAHM2
100
AcDbLine
 10
-127.0
 20
9.525000000000034
 30
0.0
 11
-182.8799999999977
 21
9.525000000000034
 31
0.0
  0
LINE
  5
255
330
232
100
AcDbEntity
  8
RAHM2
100
AcDbLine
 10
-127.0
 20
26.67000000000003
 30
0.0
 11
-182.8799999999977
 21
26.67000000000003
 31
0.0
  0
TEXT
  5
256
330
232
100
AcDbEntity
  8
RAHM2
100
AcDbText
 10
-182.0827700595082
 20
28.82900000000003
 30
0.0
 40
2.032
  1
APPR.
 11
-182.0827700595082
 21
29.84500000000003
 31
0.0
100
AcDbText
 73
     2
  0
TEXT
  5
257
330
232
100
AcDbEntity
  8
RAHM2
100
AcDbText
 10
-182.0827700595081
 20
21.20900000000004
 30
0.0
 40
2.032
  1
ISSUED
 11
-182.0827700595081
 21
22.22500000000004
 31
0.0
100
AcDbText
 73
     2
  0
LINE
  5
258
330
232
100
AcDbEntity
  8
0
100
AcDbLine
 10
-182.8799999999911
 20
0.0000000000001137
 30
0.0
 11
-182.8799999999911
 21
4.230000000000075
 31
0.0
  0
LINE
  5
259
330
232
100
AcDbEntity
  8
RAHM2
100
AcDbLine
 10
-117.348
 20
19.05000000000004
 30
0.0
 11
-117.348
 21
6.350000000000036
 31
0.0
  0
LINE
  5
25A
330
232
100
AcDbEntity
  8
RAHM2
100
AcDbLine
 10
-88.89999999999998
 20
19.05000000000004
 30
0.0
 11
-88.89999999999998
 21
6.350000000000036
 31
0.0
  0
TEXT
  5
25B
330
232
100
AcDbEntity
  8
RAHM2
100
AcDbText
 10
-125.984
 20
1.651000000000015
 30
0.0
 40
2.032
  1
SCALE
 11
-125.984
 21
2.667000000000015
 31
0.0
100
AcDbText
 73
     2
  0
LINE
  5
25C
330
232
100
AcDbEntity
  8
RAHM2
100
AcDbLine
 10
-88.89999999999998
 20
0.0000000000000142
 30
0.0
 11
-88.89999999999998
 21
6.350000000000036
 31
0.0
  0
TEXT
  5
25D
330
232
100
AcDbEntity
  8
RAHM2
100
AcDbText
 10
-116.332
 20
16.00200000000004
 30
0.0
 40
2.032
  1
FSCM NO
100
AcDbText
  0
TEXT
  5
25E
330
232
100
AcDbEntity
  8
RAHM2
100
AcDbText
 10
-125.984
 20
16.00200000000004
 30
0.0
 40
2.032
  1
SIZE
100
AcDbText
  0
LINE
  5
25F
330
232
100
AcDbEntity
  8
RAHM2
100
AcDbLine
 10
-182.8799999999977
 20
58.92800000000005
 30
0.0
 11
-127.0
 21
58.92800000000005
 31
0.0
  0
LINE
  5
260
330
232
100
AcDbEntity
  8
RAHM2
100
AcDbLine
 10
-127.0
 20
34.29000000000002
 30
0.0
 11
-182.8799999999977
 21
34.29000000000002
 31
0.0
  0
LINE
  5
261
330
232
100
AcDbEntity
  8
RAHM2
100
AcDbLine
 10
-127.0
 20
41.91000000000005
 30
0.0
 11
-182.8799999999977
 21
41.91000000000005
 31
0.0
  0
LINE
  5
262
330
232
100
AcDbEntity
  8
RAHM2
100
AcDbLine
 10
-127.0
 20
49.53000000000002
 30
0.0
 11
-182.8799999999977
 21
49.53000000000002
 31
0.0
  0
TEXT
  5
263
330
232
100
AcDbEntity
  8
RAHM2
100
AcDbText
 10
-180.3172639642003
 20
51.68900000000002
 30
0.0
 40
2.032
  1
CONTRACT NO
100
AcDbText
  0
TEXT
  5
264
330
232
100
AcDbEntity
  8
RAHM2
100
AcDbText
 10
-182.0827700595081
 20
44.06900000000002
 30
0.0
 40
2.032
  1
DRAWN
100
AcDbText
  0
TEXT
  5
265
330
232
100
AcDbEntity
  8
RAHM2
100
AcDbText
 10
-182.0827700595081
 20
36.44900000000003
 30
0.0
 40
2.032
  1
CHECK
 11
-182.0827700595081
 21
37.46500000000003
 31
0.0
100
AcDbText
 73
     2
  0
TEXT
  5
266
330
232
100
AcDbEntity
  8
RAHM2
100
AcDbText
 10
-180.3172639642003
 20
59.817
 30
0.0
 40
2.032
  1
FILE NAME
100
AcDbText
  0
TEXT
  5
267
330
232
100
AcDbEntity
  8
RAHM2
100
AcDbText
 10
-43.43400000000002
 20
1.651000000000015
 30
0.0
 40
2.032
  1
SHEET
 11
-43.43400000000002
 21
2.667000000000015
 31
0.0
100
AcDbText
 73
     2
  0
LINE
  5
268
330
232
100
AcDbEntity
  8
RAHM2
100
AcDbLine
 10
-44.44999999999999
 20
0.0
 30
0.0
 11
-44.44999999999999
 21
6.350000000000036
 31
0.0
  0
LINE
  5
269
330
232
100
AcDbEntity
  8
RAHM2
100
AcDbLine
 10
-12.69999999999999
 20
19.05000000000004
 30
0.0
 11
-12.69999999999999
 21
6.350000000000036
 31
0.0
  0
TEXT
  5
26A
330
232
100
AcDbEntity
  8
RAHM2
100
AcDbText
 10
-11.68400000000002
 20
16.00200000000004
 30
0.0
 40
2.032
  1
REV
100
AcDbText
  0
ENDBLK
  5
26C
330
232
100
AcDbEntity
  8
0
100
AcDbBlockEnd
  0
BLOCK
  5
277
330
26D
100
AcDbEntity
  8
0
100
AcDbBlockBegin
  2
IGS-A4
 70
     0
 10
0.0
 20
0.0
 30
0.0
  3
IGS-A4
  1

  0
POINT
  5
26E
330
26D
100
AcDbEntity
  8
0
 60
     1
100
AcDbPoint
 10
0.0
 20
0.0
 30
0.0
1001
GENIUS_GENODEF_13
1002
{
1000
HIER
1070
     1
1002
}
1002
{
1000
MANEDIT
1070
     0
1002
}
1002
{
1000
NOSEL
1070
     0
1002
}
1002
{
1000
BEHIND
1070
     0
1002
}
1002
{
1000
REACTOR
1002
}
1001
GENIUS_GENTITLE_13
1002
{
1000
SCALE
1000
1:1
1002
}
1002
{
1000
BORDER
1000
GEN_A4
1002
}
1002
{
1000
TITLE
1000
GENTITUS
1002
}
1002
{
1000
UNCHG
1002
{
1000
GEN-TITLE-SCA
1000
GEN-TITLE-SIZ
1002
}
1002
}
1002
{
1000
HRA
1005
0
1002
}
1002
{
1000
HTIT
1005
0
1002
}
1002
{
1000
GENIUSID
1005
26E
1002
}
1001
GENIUS_GENOBJ-N-TIT_13
1002
{
1000
OWNER
1000
GEN
1002
}
1001
GENIUS_GENOENT_13
1002
{
1000
MYREF
1005
26E
1002
}
1002
{
1000
GRP
1005
0
1002
}
1001
GENIUS_GENOLIS_13
1002
{
1000
ENT
1005
0
1005
0
1002
}
  0
LINE
  5
26F
330
26D
100
AcDbEntity
  8
0
100
AcDbLine
 10
15.0
 20
5.0
 30
0.0
 11
205.0
 21
5.0
 31
0.0
  0
LINE
  5
270
330
26D
100
AcDbEntity
  8
0
100
AcDbLine
 10
205.0
 20
5.0
 30
0.0
 11
205.0
 21
292.0
 31
0.0
  0
LINE
  5
271
330
26D
100
AcDbEntity
  8
0
100
AcDbLine
 10
205.0
 20
292.0
 30
0.0
 11
15.0
 21
292.0
 31
0.0
  0
LINE
  5
272
330
26D
100
AcDbEntity
  8
0
100
AcDbLine
 10
15.0
 20
292.0
 30
0.0
 11
15.0
 21
5.0
 31
0.0
  0
TEXT
  5
273
330
26D
100
AcDbEntity
  8
0
 60
     1
100
AcDbText
 10
210.0
 20
297.0
 30
0.0
 40
3.5
  1
!GENTITLE-MAX
100
AcDbText
  0
TEXT
  5
274
330
26D
100
AcDbEntity
  8
0
 60
     1
100
AcDbText
 10
205.0
 20
287.0
 30
0.0
 40
3.5
  1
!GENTITLE-RU
100
AcDbText
  0
TEXT
  5
275
330
26D
100
AcDbEntity
  8
0
 60
     1
100
AcDbText
 10
15.0
 20
59.99
 30
0.0
 40
3.5
  1
!GENTITLE-LL
100
AcDbText
  0
TEXT
  5
276
330
26D
100
AcDbEntity
  8
0
 60
     1
100
AcDbText
 10
205.0
 20
5.0
 30
0.0
 40
3.5
  1
!GENTITLE-INSERT
100
AcDbText
  0
ENDBLK
  5
278
330
26D
100
AcDbEntity
  8
0
100
AcDbBlockEnd
  0
BLOCK
  5
27B
330
279
100
AcDbEntity
  8
0
100
AcDbBlockBegin
  2
CI
 70
     0
 10
0.0
 20
0.0
 30
0.0
  3
CI
  1

  0
CIRCLE
  5
27A
330
279
100
AcDbEntity
  8
0
 62
     0
100
AcDbCircle
 10
0.0
 20
0.0
 30
0.0
 40
0.1666666666
  0
ENDBLK
  5
27C
330
279
100
AcDbEntity
  8
0
100
AcDbBlockEnd
  0
BLOCK
  5
306
330
27D
100
AcDbEntity
  8
0
100
AcDbBlockBegin
  2
IGS-TITLE
 70
     0
 10
0.0
 20
0.0
 30
0.0
  3
IGS-TITLE
  1

  0
LINE
  5
27E
330
27D
100
AcDbEntity
  8
1
  6
Continuous
 62
     7
100
AcDbLine
 10
-187.9990322581
 20
30.99983870970002
 30
65.0
 11
-187.9990322581
 21
-0.0001612902999852
 31
65.0
  0
LINE
  5
27F
330
27D
100
AcDbEntity
  8
1
  6
Continuous
 62
     7
100
AcDbLine
 10
-162.9990322581
 20
30.99983870970002
 30
65.0
 11
-162.9990322581
 21
-0.0001612902999852
 31
65.0
  0
LINE
  5
280
330
27D
100
AcDbEntity
  8
1
  6
Continuous
 62
     7
100
AcDbLine
 10
-127.9990322581
 20
30.99983870970002
 30
65.0
 11
-127.9990322581
 21
-0.0001612902999852
 31
65.0
  0
TEXT
  5
281
330
27D
100
AcDbEntity
  8
1
  6
Continuous
 62
     7
100
AcDbText
 10
-123.7222235162
 20
4.473885419400033
 30
65.0
 40
3.5
  1
ＲＥＶＩＳＩＯＮＳ
 50
90.0
 41
0.5824175824175821
 72
     5
 11
-123.7222235162
 21
25.67388541940002
 31
65.0
100
AcDbText
  0
TEXT
  5
282
330
27D
100
AcDbEntity
  8
1
  6
Continuous
 62
     7
100
AcDbText
 10
-152.9468905162
 20
26.24983841940002
 30
65.0
 40
3.5
  1
ＲＥＶ．ＭＡＲＫ
 41
0.583850931677019
 72
     5
 11
-134.1468905162
 21
26.24983841940002
 31
65.0
100
AcDbText
  0
TEXT
  5
283
330
27D
100
AcDbEntity
  8
1
  6
Continuous
 62
     7
100
AcDbText
 10
-152.9366495162
 20
20.24983841940002
 30
65.0
 40
3.5
  1
ＤＡＴＥ
 41
0.5974025974025966
 72
     5
 11
-143.7366495162
 21
20.24983841940002
 31
65.0
100
AcDbText
  0
TEXT
  5
284
330
27D
100
AcDbEntity
  8
1
  6
Continuous
 62
     7
100
AcDbText
 10
-152.9768155162
 20
14.24983841940002
 30
65.0
 40
3.5
  1
ＲＥＶＩＳＥＤ　ＢＹ
 41
0.5812807881773391
 72
     5
 11
-129.3768155162
 21
14.24983841940002
 31
65.0
100
AcDbText
  0
TEXT
  5
285
330
27D
100
AcDbEntity
  8
1
  6
Continuous
 62
     7
100
AcDbText
 10
-152.8294145162
 20
4.74983841940002
 30
65.0
 40
3.5
  1
ＣＯＮＴＥＮＴＳ
 41
0.5838509316770175
 72
     5
 11
-134.0294145162
 21
4.74983841940002
 31
65.0
100
AcDbText
  0
TEXT
  5
286
330
27D
100
AcDbEntity
  8
1
  6
Continuous
 62
     7
100
AcDbText
 10
-161.2490325162
 20
26.24983841940002
 30
65.0
 40
3.5
  1
変更
 41
0.8705357142857142
 72
     5
 11
-154.7490325162
 21
26.24983841940002
 31
65.0
100
AcDbText
  0
TEXT
  5
287
330
27D
100
AcDbEntity
  8
1
  6
Continuous
 62
     7
100
AcDbText
 10
-161.3990325162
 20
20.24983841940002
 30
65.0
 40
3.5
  1
年月日
 41
0.6071428571428532
 72
     5
 11
-154.5990325162
 21
20.24983841940002
 31
65.0
100
AcDbText
  0
TEXT
  5
288
330
27D
100
AcDbEntity
  8
1
  6
Continuous
 62
     7
100
AcDbText
 10
-161.3990325162
 20
14.24983841940002
 30
65.0
 40
3.5
  1
変更者
 41
0.582857142857139
 72
     5
 11
-154.5990325162
 21
14.24983841940002
 31
65.0
100
AcDbText
  0
TEXT
  5
289
330
27D
100
AcDbEntity
  8
1
  6
Continuous
 62
     7
100
AcDbText
 10
-161.2490325162
 20
4.74983841940002
 30
65.0
 40
3.5
  1
記事
 41
0.8705357142857144
 72
     5
 11
-154.7490325162
 21
4.74983841940002
 31
65.0
100
AcDbText
  0
LINE
  5
28A
330
27D
100
AcDbEntity
  8
1
  6
Continuous
 62
     7
100
AcDbLine
 10
-212.9990322581
 20
30.99983870970002
 30
65.0
 11
-212.9990322581
 21
-0.0001612902999852
 31
65.0
  0
LINE
  5
28B
330
27D
100
AcDbEntity
  8
1
  6
Continuous
 62
     7
100
AcDbLine
 10
-237.9990322581
 20
30.99983870970002
 30
65.0
 11
-237.9990322581
 21
-0.0001612902999852
 31
65.0
  0
LINE
  5
28C
330
27D
100
AcDbEntity
  8
1
  6
Continuous
 62
     7
100
AcDbLine
 10
-262.9990322581
 20
30.99983870970002
 30
65.0
 11
-262.9990322581
 21
-0.0001612902999852
 31
65.0
  0
LINE
  5
28D
330
27D
100
AcDbEntity
  8
1
  6
Continuous
 62
     7
100
AcDbLine
 10
-287.9990322581
 20
30.99983870970002
 30
65.0
 11
-287.9990322581
 21
-0.0001612902999852
 31
65.0
  0
LINE
  5
28E
330
27D
100
AcDbEntity
  8
1
  6
Continuous
 62
     7
100
AcDbLine
 10
-122.9990322581
 20
30.99983870970002
 30
65.0
 11
-287.9990322581
 21
30.99983870970002
 31
65.0
  0
LINE
  5
28F
330
27D
100
AcDbEntity
  8
1
  6
Continuous
 62
     7
100
AcDbLine
 10
-287.9990322581
 20
24.99983870970002
 30
65.0
 11
-127.9990322581
 21
24.99983870970002
 31
65.0
  0
LINE
  5
290
330
27D
100
AcDbEntity
  8
1
  6
Continuous
 62
     7
100
AcDbLine
 10
-287.9990322581
 20
18.99983870970001
 30
65.0
 11
-127.9990322581
 21
18.99983870970001
 31
65.0
  0
LINE
  5
291
330
27D
100
AcDbEntity
  8
1
  6
Continuous
 62
     7
100
AcDbLine
 10
-287.9990322581
 20
12.99983870970001
 30
65.0
 11
-127.9990322581
 21
12.99983870970001
 31
65.0
  0
LINE
  5
292
330
27D
100
AcDbEntity
  8
1
  6
Continuous
 62
     7
100
AcDbLine
 10
-54.99903225810003
 20
30.99983870970002
 30
65.0
 11
-54.99903225810003
 21
-0.0001612902999852
 31
65.0
  0
LINE
  5
293
330
27D
100
AcDbEntity
  8
1
  6
Continuous
 62
     7
100
AcDbLine
 10
-59.99903225810003
 20
-0.0001612902999852
 30
65.0
 11
-59.99903225810003
 21
30.99983870970002
 31
65.0
  0
LINE
  5
294
330
27D
100
AcDbEntity
  8
1
  6
Continuous
 62
     7
100
AcDbLine
 10
-75.99903225810002
 20
19.99983870970001
 30
65.0
 11
-75.99903225810002
 21
9.999838709700014
 31
65.0
  0
LINE
  5
295
330
27D
100
AcDbEntity
  8
1
  6
Continuous
 62
     7
100
AcDbLine
 10
-80.99903225810002
 20
9.999838709700014
 30
65.0
 11
-80.99903225810002
 21
19.99983870970001
 31
65.0
  0
LINE
  5
296
330
27D
100
AcDbEntity
  8
1
  6
Continuous
 62
     7
100
AcDbLine
 10
-96.99903225810006
 20
19.99983870970001
 30
65.0
 11
-96.99903225810006
 21
9.999838709700014
 31
65.0
  0
LINE
  5
297
330
27D
100
AcDbEntity
  8
1
  6
Continuous
 62
     7
100
AcDbLine
 10
-101.9990322581
 20
9.999838709700014
 30
65.0
 11
-101.9990322581
 21
19.99983870970001
 31
65.0
  0
LINE
  5
298
330
27D
100
AcDbEntity
  8
1
  6
Continuous
 62
     7
100
AcDbLine
 10
-117.9990322581
 20
30.99983870970002
 30
65.0
 11
-117.9990322581
 21
9.999838709700014
 31
65.0
  0
LINE
  5
299
330
27D
100
AcDbEntity
  8
1
  6
Continuous
 62
     7
100
AcDbLine
 10
-4.999032258100001
 20
30.99983870970002
 30
65.0
 11
-4.999032258100001
 21
19.99983870970001
 31
65.0
  0
LINE
  5
29A
330
27D
100
AcDbEntity
  8
1
  6
Continuous
 62
     7
100
AcDbLine
 10
-9.999032258100001
 20
30.99983870970002
 30
65.0
 11
-9.999032258100001
 21
19.99983870970001
 31
65.0
  0
LINE
  5
29B
330
27D
100
AcDbEntity
  8
1
  6
Continuous
 62
     7
100
AcDbLine
 10
-4.999032258100001
 20
9.999838709700014
 30
65.0
 11
-4.999032258100001
 21
-0.0001612902999852
 31
65.0
  0
LINE
  5
29C
330
27D
100
AcDbEntity
  8
1
  6
Continuous
 62
     7
100
AcDbLine
 10
-9.999032258100001
 20
9.999838709700014
 30
65.0
 11
-9.999032258100001
 21
-0.0001612902999852
 31
65.0
  0
LINE
  5
29D
330
27D
100
AcDbEntity
  8
1
  6
Continuous
 62
     7
100
AcDbLine
 10
-18.99903225810003
 20
9.999838709700014
 30
65.0
 11
-18.99903225810003
 21
-0.0001612902999852
 31
65.0
  0
LINE
  5
29E
330
27D
100
AcDbEntity
  8
1
  6
Continuous
 62
     7
100
AcDbLine
 10
-117.9990322581
 20
15.99983870970001
 30
65.0
 11
-101.9990322581
 21
15.99983870970001
 31
65.0
  0
LINE
  5
29F
330
27D
100
AcDbEntity
  8
1
  6
Continuous
 62
     7
100
AcDbLine
 10
-122.9990322581
 20
9.999838709700014
 30
65.0
 11
5.000967741899998
 21
9.999838709700014
 31
65.0
  0
LINE
  5
2A0
330
27D
100
AcDbEntity
  8
1
  6
Continuous
 62
     7
100
AcDbLine
 10
5.000967741899998
 20
19.99983870970001
 30
65.0
 11
-122.9990322581
 21
19.99983870970001
 31
65.0
  0
LINE
  5
2A1
330
27D
100
AcDbEntity
  8
1
  6
Continuous
 62
     7
100
AcDbLine
 10
-122.9990322581
 20
30.99983870970002
 30
65.0
 11
5.000967741899998
 21
30.99983870970002
 31
65.0
  0
LINE
  5
2A2
330
27D
100
AcDbEntity
  8
1
  6
Continuous
 62
     7
100
AcDbLine
 10
-122.9990322581
 20
30.99983870970002
 30
65.0
 11
-122.9990322581
 21
-0.0001612902999852
 31
65.0
  0
LINE
  5
2A3
330
27D
100
AcDbEntity
  8
1
  6
Continuous
 62
     7
100
AcDbLine
 10
-117.9990322581
 20
30.99983870970002
 30
65.0
 11
-117.9990322581
 21
9.999838709700014
 31
65.0
  0
TEXT
  5
2A4
330
27D
100
AcDbEntity
  8
1
  6
Continuous
 62
     7
100
AcDbText
 10
-122.2490325162
 20
25.74983841940002
 30
65.0
 40
3.5
  1
図
 41
1.153846153846153
 72
     5
 11
-118.7490325162
 21
25.74983841940002
 31
65.0
100
AcDbText
  0
TEXT
  5
2A5
330
27D
100
AcDbEntity
  8
1
  6
Continuous
 62
     7
100
AcDbText
 10
-101.2490325162
 20
10.74983841940002
 30
65.0
 40
3.5
  1
図
 41
1.153846153846153
 72
     5
 11
-97.74903251620004
 21
10.74983841940002
 31
65.0
100
AcDbText
  0
TEXT
  5
2A6
330
27D
100
AcDbEntity
  8
1
  6
Continuous
 62
     7
100
AcDbText
 10
-80.24903251620004
 20
10.74983841940002
 30
65.0
 40
3.5
  1
図
 41
1.153846153846153
 72
     5
 11
-76.74903251620005
 21
10.74983841940002
 31
65.0
100
AcDbText
  0
TEXT
  5
2A7
330
27D
100
AcDbEntity
  8
1
  6
Continuous
 62
     7
100
AcDbText
 10
-59.24903251620005
 20
4.74983841940002
 30
65.0
 40
3.5
  1
図
 41
1.153846153846153
 72
     5
 11
-55.74903251620004
 21
4.74983841940002
 31
65.0
100
AcDbText
  0
TEXT
  5
2A8
330
27D
100
AcDbEntity
  8
1
  6
Continuous
 62
     7
100
AcDbText
 10
-122.2490325162
 20
21.74983841940002
 30
65.0
 40
3.5
  1
名
 41
1.153846153846153
 72
     5
 11
-118.7490325162
 21
21.74983841940002
 31
65.0
100
AcDbText
  0
TEXT
  5
2A9
330
27D
100
AcDbEntity
  8
1
  6
Continuous
 62
     7
100
AcDbText
 10
-80.24903251620004
 20
14.74983841940002
 30
65.0
 40
3.5
  1
検
 41
1.071428571428571
 72
     5
 11
-76.74903251620005
 21
14.74983841940002
 31
65.0
100
AcDbText
  0
TEXT
  5
2AA
330
27D
100
AcDbEntity
  8
1
  6
Continuous
 62
     7
100
AcDbText
 10
-59.24903251620005
 20
0.749838419400021
 30
65.0
 40
3.5
  1
番
 41
1.071428571428571
 72
     5
 11
-55.74903251620004
 21
0.749838419400021
 31
65.0
100
AcDbText
  0
TEXT
  5
2AB
330
27D
100
AcDbEntity
  8
1
  6
Continuous
 62
     7
100
AcDbText
 10
-122.2490325162
 20
14.74983841940002
 30
65.0
 40
3.5
  1
設
 41
1.071428571428571
 72
     5
 11
-118.7490325162
 21
14.74983841940002
 31
65.0
100
AcDbText
  0
TEXT
  5
2AC
330
27D
100
AcDbEntity
  8
1
  6
Continuous
 62
     7
100
AcDbText
 10
-122.2490325162
 20
10.74983841940002
 30
65.0
 40
3.5
  1
計
 41
1.071428571428571
 72
     5
 11
-118.7490325162
 21
10.74983841940002
 31
65.0
100
AcDbText
  0
TEXT
  5
2AD
330
27D
100
AcDbEntity
  8
1
  6
Continuous
 62
     7
100
AcDbText
 10
-59.24903251620005
 20
14.74983841940002
 30
65.0
 40
3.5
  1
記
 41
1.071428571428571
 72
     5
 11
-55.74903251620004
 21
14.74983841940002
 31
65.0
100
AcDbText
  0
TEXT
  5
2AE
330
27D
100
AcDbEntity
  8
1
  6
Continuous
 62
     7
100
AcDbText
 10
-59.24903251620005
 20
10.74983841940002
 30
65.0
 40
3.5
  1
事
 41
1.071428571428571
 72
     5
 11
-55.74903251620004
 21
10.74983841940002
 31
65.0
100
AcDbText
  0
TEXT
  5
2AF
330
27D
100
AcDbEntity
  8
1
  6
Continuous
 62
     7
100
AcDbText
 10
-9.249032516200045
 20
25.74983841940002
 30
65.0
 40
3.5
  1
縮
 41
1.071428571428571
 72
     5
 11
-5.749032516200045
 21
25.74983841940002
 31
65.0
100
AcDbText
  0
TEXT
  5
2B0
330
27D
100
AcDbEntity
  8
1
  6
Continuous
 62
     7
100
AcDbText
 10
-9.249032516200045
 20
21.74983841940002
 30
65.0
 40
3.5
  1
尺
 41
1.071428571428571
 72
     5
 11
-5.749032516200045
 21
21.74983841940002
 31
65.0
100
AcDbText
  0
TEXT
  5
2B1
330
27D
100
AcDbEntity
  8
1
  6
Continuous
 62
     7
100
AcDbText
 10
-119.7490325162
 20
2.74983841940002
 30
65.0
 40
4.5
  1
伊藤鉄工株式会社
 41
1.369047619047618
 72
     5
 11
-62.24903251620005
 21
2.74983841940002
 31
65.0
100
AcDbText
  0
TEXT
  5
2B2
330
27D
100
AcDbEntity
  8
1
  6
Continuous
 62
     7
100
AcDbText
 10
-9.249032516200045
 20
5.99983841940002
 30
65.0
 40
3.0
  1
葉
 41
1.25
 72
     5
 11
-5.749032516200045
 21
5.99983841940002
 31
65.0
100
AcDbText
  0
TEXT
  5
2B3
330
27D
100
AcDbEntity
  8
1
  6
Continuous
 62
     7
100
AcDbText
 10
-9.249032516200045
 20
3.49983841940002
 30
65.0
 40
3.0
  1
ノ
 41
1.59090909090909
 72
     5
 11
-5.749032516200045
 21
3.49983841940002
 31
65.0
100
AcDbText
  0
TEXT
  5
2B4
330
27D
100
AcDbEntity
  8
1
  6
Continuous
 62
     7
100
AcDbText
 10
-9.249032516200045
 20
0.9998384194000209
 30
65.0
 40
3.0
  1
内
 41
1.346153846153846
 72
     5
 11
-5.749032516200045
 21
0.9998384194000209
 31
65.0
100
AcDbText
  0
LINE
  5
2B5
330
27D
100
AcDbEntity
  8
1
  6
Continuous
 62
     7
100
AcDbLine
 10
-122.9990322581
 20
30.99983870970002
 30
65.0
 11
-122.9990322581
 21
-0.0001612902999852
 31
65.0
  0
TEXT
  5
2B6
330
27D
100
AcDbEntity
  8
1
  6
Continuous
 62
     7
100
AcDbText
 10
-101.2490325162
 20
14.74983841940002
 30
65.0
 40
3.5
  1
製
 41
1.071428571428571
 72
     5
 11
-97.74903251620004
 21
14.74983841940002
 31
65.0
100
AcDbText
  0
LINE
  5
2B7
330
27D
100
AcDbEntity
  8
1
  6
Continuous
 62
     7
100
AcDbLine
 10
-69.62582009380001
 20
41.15905988960003
 30
65.0
 11
-65.90573309380004
 21
41.15905988960003
 31
65.0
  0
ARC
  5
2B8
330
27D
100
AcDbEntity
  8
1
  6
Continuous
 62
     7
100
AcDbCircle
 10
-60.94561709380004
 20
39.91903088960004
 30
65.0
 40
1.240029
100
AcDbArc
 50
90.0
 51
180.0
  0
LINE
  5
2B9
330
27D
100
AcDbEntity
  8
1
  6
Continuous
 62
     7
100
AcDbLine
 10
-56.19217259380004
 20
41.15905988960003
 30
65.0
 11
-60.94561709380004
 21
41.15905988960003
 31
65.0
  0
ARC
  5
2BA
330
27D
100
AcDbEntity
  8
1
  6
Continuous
 62
     7
100
AcDbCircle
 10
-56.19217259380004
 20
39.91903088960004
 30
65.0
 40
1.240029
100
AcDbArc
 50
0.0
 51
90.0
  0
ARC
  5
2BB
330
27D
100
AcDbEntity
  8
1
  6
Continuous
 62
     7
100
AcDbCircle
 10
-45.44525459380001
 20
39.91903088960004
 30
65.0
 40
1.240029
100
AcDbArc
 50
0.0
 51
90.0
  0
LINE
  5
2BC
330
27D
100
AcDbEntity
  8
1
  6
Continuous
 62
     7
100
AcDbLine
 10
-49.99202759380001
 20
41.15905988960003
 30
65.0
 11
-45.44525459380001
 21
41.15905988960003
 31
65.0
  0
ARC
  5
2BD
330
27D
100
AcDbEntity
  8
1
  6
Continuous
 62
     7
100
AcDbCircle
 10
-49.99202759380001
 20
39.91903088960004
 30
65.0
 40
1.240029
100
AcDbArc
 50
90.0
 51
180.0
  0
LINE
  5
2BE
330
27D
100
AcDbEntity
  8
1
  6
Continuous
 62
     7
100
AcDbLine
 10
-69.62582009380001
 20
40.33237388960003
 30
65.0
 11
-68.59246259380002
 21
40.33237388960003
 31
65.0
  0
LINE
  5
2BF
330
27D
100
AcDbEntity
  8
1
  6
Continuous
 62
     7
100
AcDbLine
 10
-68.59246259380002
 20
40.33237388960003
 30
65.0
 11
-68.59246259380002
 21
34.95891488960001
 31
65.0
  0
LINE
  5
2C0
330
27D
100
AcDbEntity
  8
1
  6
Continuous
 62
     7
100
AcDbLine
 10
-66.93909059380003
 20
34.95891488960001
 30
65.0
 11
-66.93909059380003
 21
40.33237388960003
 31
65.0
  0
LINE
  5
2C1
330
27D
100
AcDbEntity
  8
1
  6
Continuous
 62
     7
100
AcDbLine
 10
-66.93909059380003
 20
40.33237388960003
 30
65.0
 11
-65.90573309380004
 21
40.33237388960003
 31
65.0
  0
LINE
  5
2C2
330
27D
100
AcDbEntity
  8
1
  6
Continuous
 62
     7
100
AcDbLine
 10
-65.90573309380004
 20
41.15905988960003
 30
65.0
 11
-65.90573309380004
 21
40.33237388960003
 31
65.0
  0
LINE
  5
2C3
330
27D
100
AcDbEntity
  8
1
  6
Continuous
 62
     7
100
AcDbLine
 10
-69.62582009380001
 20
40.33237388960003
 30
65.0
 11
-69.62582009380001
 21
41.15905988960003
 31
65.0
  0
LINE
  5
2C4
330
27D
100
AcDbEntity
  8
1
  6
Continuous
 62
     7
100
AcDbLine
 10
-96.99903225810006
 20
15.99983870970001
 30
65.0
 11
-80.99903225810002
 21
15.99983870970001
 31
65.0
  0
LINE
  5
2C5
330
27D
100
AcDbEntity
  8
1
  6
Continuous
 62
     7
100
AcDbLine
 10
-75.99903225810002
 20
15.99983870970001
 30
65.0
 11
-59.99903225810003
 21
15.99983870970001
 31
65.0
  0
TEXT
  5
2C6
330
27D
100
AcDbEntity
  8
1
  6
Continuous
 62
     7
100
AcDbText
 10
-59.24903251620005
 20
25.74983841940002
 30
65.0
 40
3.5
  1
符
 41
1.071428571428571
 72
     5
 11
-55.74903251620004
 21
25.74983841940002
 31
65.0
100
AcDbText
  0
TEXT
  5
2C7
330
27D
100
AcDbEntity
  8
1
  6
Continuous
 62
     7
100
AcDbText
 10
-59.24903251620005
 20
21.74983841940002
 30
65.0
 40
3.5
  1
号
 41
1.071428571428571
 72
     5
 11
-55.74903251620004
 21
21.74983841940002
 31
65.0
100
AcDbText
  0
LINE
  5
2C8
330
27D
100
AcDbEntity
  8
1
  6
Continuous
 62
     7
100
AcDbLine
 10
-65.90573309380004
 20
34.13222888960002
 30
65.0
 11
-69.62582009380001
 21
34.13222888960002
 31
65.0
  0
CIRCLE
  5
2C9
330
27D
100
AcDbEntity
  8
1
  6
Continuous
 62
     7
100
AcDbCircle
 10
-64.25236109380001
 20
34.95891488960001
 30
65.0
 40
0.8266860000000001
  0
LINE
  5
2CA
330
27D
100
AcDbEntity
  8
1
  6
Continuous
 62
     7
100
AcDbLine
 10
-56.60551559380003
 20
34.95891488960001
 30
65.0
 11
-56.60551559380003
 21
34.13222888960002
 31
65.0
  0
LINE
  5
2CB
330
27D
100
AcDbEntity
  8
1
  6
Continuous
 62
     7
100
AcDbLine
 10
-56.60551559380003
 20
34.13222888960002
 30
65.0
 11
-54.95214359380002
 21
34.13222888960002
 31
65.0
  0
ARC
  5
2CC
330
27D
100
AcDbEntity
  8
1
  6
Continuous
 62
     7
100
AcDbCircle
 10
-60.94561709380004
 20
35.37225788960004
 30
65.0
 40
1.240029
100
AcDbArc
 50
180.0
 51
270.0
  0
LINE
  5
2CD
330
27D
100
AcDbEntity
  8
1
  6
Continuous
 62
     7
100
AcDbLine
 10
-60.94561709380004
 20
34.13222888960002
 30
65.0
 11
-60.53227409380001
 21
34.13222888960002
 31
65.0
  0
LINE
  5
2CE
330
27D
100
AcDbEntity
  8
1
  6
Continuous
 62
     7
100
AcDbLine
 10
-62.18564609380003
 20
35.37225788960004
 30
65.0
 11
-62.18564609380003
 21
39.91903088960004
 31
65.0
  0
CIRCLE
  5
2CF
330
27D
100
AcDbEntity
  8
1
  6
Continuous
 62
     7
100
AcDbCircle
 10
-53.50544309380002
 20
34.95891488960001
 30
65.0
 40
0.8266860000000001
  0
ARC
  5
2D0
330
27D
100
AcDbEntity
  8
1
  6
Continuous
 62
     7
100
AcDbCircle
 10
-49.99202759380001
 20
35.37225788960004
 30
65.0
 40
1.240029
100
AcDbArc
 50
180.0
 51
270.0
  0
LINE
  5
2D1
330
27D
100
AcDbEntity
  8
1
  6
Continuous
 62
     7
100
AcDbLine
 10
-45.44525459380001
 20
34.13222888960002
 30
65.0
 11
-49.99202759380001
 21
34.13222888960002
 31
65.0
  0
ARC
  5
2D2
330
27D
100
AcDbEntity
  8
1
  6
Continuous
 62
     7
100
AcDbCircle
 10
-45.44525459380001
 20
35.37225788960004
 30
65.0
 40
1.240029
100
AcDbArc
 50
270.0
 51
0.0
  0
LINE
  5
2D3
330
27D
100
AcDbEntity
  8
1
  6
Continuous
 62
     7
100
AcDbLine
 10
-51.23205659380004
 20
35.37225788960004
 30
65.0
 11
-51.23205659380004
 21
36.40561538960003
 31
65.0
  0
LINE
  5
2D4
330
27D
100
AcDbEntity
  8
1
  6
Continuous
 62
     7
100
AcDbLine
 10
-44.20522559380002
 20
39.91903088960004
 30
65.0
 11
-44.20522559380002
 21
38.88567338960001
 31
65.0
  0
CIRCLE
  5
2D5
330
27D
100
AcDbEntity
  8
1
  6
Continuous
 62
     7
100
AcDbCircle
 10
-42.75852509380003
 20
34.95891488960001
 30
65.0
 40
0.8266860000000001
  0
LINE
  5
2D6
330
27D
100
AcDbEntity
  8
1
  6
Continuous
 62
     7
100
AcDbLine
 10
-54.95214359380002
 20
39.09234488960001
 30
65.0
 11
-56.39884409380004
 21
39.09234488960001
 31
65.0
  0
LINE
  5
2D7
330
27D
100
AcDbEntity
  8
1
  6
Continuous
 62
     7
100
AcDbLine
 10
-56.39884409380004
 20
39.09234488960001
 30
65.0
 11
-56.39884409380004
 21
39.71235938960001
 31
65.0
  0
LINE
  5
2D8
330
27D
100
AcDbEntity
  8
1
  6
Continuous
 62
     7
100
AcDbLine
 10
-56.39884409380004
 20
39.71235938960001
 30
65.0
 11
-60.73894559380001
 21
39.71235938960001
 31
65.0
  0
LINE
  5
2D9
330
27D
100
AcDbEntity
  8
1
  6
Continuous
 62
     7
100
AcDbLine
 10
-60.73894559380001
 20
39.71235938960001
 30
65.0
 11
-60.73894559380001
 21
35.57892938960004
 31
65.0
  0
LINE
  5
2DA
330
27D
100
AcDbEntity
  8
1
  6
Continuous
 62
     7
100
AcDbLine
 10
-56.39884409380004
 20
37.02562988960003
 30
65.0
 11
-58.46555909380002
 21
37.02562988960003
 31
65.0
  0
LINE
  5
2DB
330
27D
100
AcDbEntity
  8
1
  6
Continuous
 62
     7
100
AcDbLine
 10
-58.46555909380002
 20
37.02562988960003
 30
65.0
 11
-58.46555909380002
 21
38.26565888960002
 31
65.0
  0
LINE
  5
2DC
330
27D
100
AcDbEntity
  8
1
  6
Continuous
 62
     7
100
AcDbLine
 10
-54.95214359380002
 20
39.09234488960001
 30
65.0
 11
-54.95214359380002
 21
39.91903088960004
 31
65.0
  0
LINE
  5
2DD
330
27D
100
AcDbEntity
  8
1
  6
Continuous
 62
     7
100
AcDbLine
 10
-56.39884409380004
 20
36.40561538960003
 30
65.0
 11
-56.39884409380004
 21
37.02562988960003
 31
65.0
  0
LINE
  5
2DE
330
27D
100
AcDbEntity
  8
1
  6
Continuous
 62
     7
100
AcDbLine
 10
-56.19217259380004
 20
38.26565888960002
 30
65.0
 11
-58.46555909380002
 21
38.26565888960002
 31
65.0
  0
LINE
  5
2DF
330
27D
100
AcDbEntity
  8
1
  6
Continuous
 62
     7
100
AcDbLine
 10
-54.95214359380002
 20
37.02562988960003
 30
65.0
 11
-54.95214359380002
 21
34.13222888960002
 31
65.0
  0
ARC
  5
2E0
330
27D
100
AcDbEntity
  8
1
  6
Continuous
 62
     7
100
AcDbCircle
 10
-56.19217259380004
 20
37.02562988960003
 30
65.0
 40
1.240029
100
AcDbArc
 50
0.0
 51
90.0
  0
LINE
  5
2E1
330
27D
100
AcDbEntity
  8
1
  6
Continuous
 62
     7
100
AcDbLine
 10
-58.10710069440005
 20
36.40561538960003
 30
65.0
 11
-56.39884409380004
 21
36.40561538960003
 31
65.0
  0
ARC
  5
2E2
330
27D
100
AcDbEntity
  8
1
  6
Continuous
 62
     7
100
AcDbCircle
 10
-58.10710069440005
 20
35.16558638960004
 30
65.0
 40
1.240029
100
AcDbArc
 50
90.0
 51
119.7448812969
  0
LINE
  5
2E3
330
27D
100
AcDbEntity
  8
1
  6
Continuous
 62
     7
100
AcDbLine
 10
-60.21241640110007
 20
35.57892938960004
 30
65.0
 11
-60.73894559380001
 21
35.57892938960004
 31
65.0
  0
LINE
  5
2E4
330
27D
100
AcDbEntity
  8
1
  6
Continuous
 62
     7
100
AcDbLine
 10
-59.59718972950007
 20
35.74231171430003
 30
65.0
 11
-58.72232736600004
 21
36.24223306480002
 31
65.0
  0
ARC
  5
2E5
330
27D
100
AcDbEntity
  8
1
  6
Continuous
 62
     7
100
AcDbCircle
 10
-60.21241640110007
 20
36.81895838960003
 30
65.0
 40
1.240029
100
AcDbArc
 50
270.0
 51
299.7448812969
  0
ARC
  5
2E6
330
27D
100
AcDbEntity
  8
1
  6
Continuous
 62
     7
100
AcDbCircle
 10
-57.72290849050005
 20
33.71888588960002
 30
65.0
 40
1.240029
100
AcDbArc
 50
90.0
 51
119.7448812969
  0
LINE
  5
2E7
330
27D
100
AcDbEntity
  8
1
  6
Continuous
 62
     7
100
AcDbLine
 10
-59.82822419720001
 20
34.13222888960002
 30
65.0
 11
-60.94561709380004
 21
34.13222888960002
 31
65.0
  0
ARC
  5
2E8
330
27D
100
AcDbEntity
  8
1
  6
Continuous
 62
     7
100
AcDbCircle
 10
-59.82822419720001
 20
35.37225788960004
 30
65.0
 40
1.240029
100
AcDbArc
 50
270.0
 51
299.7448812969
  0
LINE
  5
2E9
330
27D
100
AcDbEntity
  8
1
  6
Continuous
 62
     7
100
AcDbLine
 10
-58.33813516210004
 20
34.79553256480003
 30
65.0
 11
-59.21299752560002
 21
34.29561121430004
 31
65.0
  0
LINE
  5
2EA
330
27D
100
AcDbEntity
  8
1
  6
Continuous
 62
     7
100
AcDbLine
 10
-57.72290849050005
 20
34.95891488960001
 30
65.0
 11
-56.60551559380003
 21
34.95891488960001
 31
65.0
  0
LINE
  5
2EB
330
27D
100
AcDbEntity
  8
1
  6
Continuous
 62
     7
100
AcDbLine
 10
-68.59246259380002
 20
34.95891488960001
 30
65.0
 11
-69.62582009380001
 21
34.95891488960001
 31
65.0
  0
LINE
  5
2EC
330
27D
100
AcDbEntity
  8
1
  6
Continuous
 62
     7
100
AcDbLine
 10
-66.93909059380003
 20
34.95891488960001
 30
65.0
 11
-65.90573309380004
 21
34.95891488960001
 31
65.0
  0
LINE
  5
2ED
330
27D
100
AcDbEntity
  8
1
  6
Continuous
 62
     7
100
AcDbLine
 10
-69.62582009380001
 20
34.13222888960002
 30
65.0
 11
-69.62582009380001
 21
34.95891488960001
 31
65.0
  0
LINE
  5
2EE
330
27D
100
AcDbEntity
  8
1
  6
Continuous
 62
     7
100
AcDbLine
 10
-65.90573309380004
 20
34.95891488960001
 30
65.0
 11
-65.90573309380004
 21
34.13222888960002
 31
65.0
  0
LINE
  5
2EF
330
27D
100
AcDbEntity
  8
1
  6
Continuous
 62
     7
100
AcDbLine
 10
-49.78535609380002
 20
39.71235938960001
 30
65.0
 11
-45.65192609380001
 21
39.71235938960001
 31
65.0
  0
LINE
  5
2F0
330
27D
100
AcDbEntity
  8
1
  6
Continuous
 62
     7
100
AcDbLine
 10
-45.65192609380001
 20
39.71235938960001
 30
65.0
 11
-45.65192609380001
 21
38.88567338960001
 31
65.0
  0
LINE
  5
2F1
330
27D
100
AcDbEntity
  8
1
  6
Continuous
 62
     7
100
AcDbLine
 10
-49.78535609380002
 20
36.40561538960003
 30
65.0
 11
-49.78535609380002
 21
35.57892938960004
 31
65.0
  0
LINE
  5
2F2
330
27D
100
AcDbEntity
  8
1
  6
Continuous
 62
     7
100
AcDbLine
 10
-49.78535609380002
 20
35.57892938960004
 30
65.0
 11
-45.65192609380001
 21
35.57892938960004
 31
65.0
  0
LINE
  5
2F3
330
27D
100
AcDbEntity
  8
1
  6
Continuous
 62
     7
100
AcDbLine
 10
-49.78535609380002
 20
36.40561538960003
 30
65.0
 11
-51.23205659380004
 21
36.40561538960003
 31
65.0
  0
LINE
  5
2F4
330
27D
100
AcDbEntity
  8
1
  6
Continuous
 62
     7
100
AcDbLine
 10
-44.20522559380002
 20
38.88567338960001
 30
65.0
 11
-45.65192609380001
 21
38.88567338960001
 31
65.0
  0
LINE
  5
2F5
330
27D
100
AcDbEntity
  8
1
  6
Continuous
 62
     7
100
AcDbLine
 10
-45.65192609380001
 20
35.57892938960004
 30
65.0
 11
-45.65192609380001
 21
37.02562988960003
 31
65.0
  0
LINE
  5
2F6
330
27D
100
AcDbEntity
  8
1
  6
Continuous
 62
     7
100
AcDbLine
 10
-49.78535609380002
 20
38.26565888960002
 30
65.0
 11
-49.78535609380002
 21
39.71235938960001
 31
65.0
  0
LINE
  5
2F7
330
27D
100
AcDbEntity
  8
1
  6
Continuous
 62
     7
100
AcDbLine
 10
-44.20522559380002
 20
37.02562988960003
 30
65.0
 11
-44.20522559380002
 21
35.37225788960004
 31
65.0
  0
LINE
  5
2F8
330
27D
100
AcDbEntity
  8
1
  6
Continuous
 62
     7
100
AcDbLine
 10
-45.44525459380001
 20
38.26565888960002
 30
65.0
 11
-49.78535609380002
 21
38.26565888960002
 31
65.0
  0
ARC
  5
2F9
330
27D
100
AcDbEntity
  8
1
  6
Continuous
 62
     7
100
AcDbCircle
 10
-45.44525459380001
 20
37.02562988960003
 30
65.0
 40
1.240029
100
AcDbArc
 50
0.0
 51
90.0
  0
LINE
  5
2FA
330
27D
100
AcDbEntity
  8
1
  6
Continuous
 62
     7
100
AcDbLine
 10
-49.99202759400002
 20
37.02562988960003
 30
65.0
 11
-45.65192609380001
 21
37.02562988960003
 31
65.0
  0
LINE
  5
2FB
330
27D
100
AcDbEntity
  8
1
  6
Continuous
 62
     7
100
AcDbLine
 10
-51.23205659380004
 20
38.26565888960002
 30
65.0
 11
-51.23205659380004
 21
39.91903088960004
 31
65.0
  0
ARC
  5
2FC
330
27D
100
AcDbEntity
  8
1
  6
Continuous
 62
     7
100
AcDbCircle
 10
-49.99202759400002
 20
38.26565888960002
 30
65.0
 40
1.240029
100
AcDbArc
 50
180.0
 51
270.0
  0
LINE
  5
2FD
330
27D
100
AcDbEntity
  8
1
  6
Continuous
 62
     7
100
AcDbLine
 10
-4.999032258100001
 20
-0.0001612902999852
 30
65.0
 11
5.000967741899998
 21
9.999838709700014
 31
65.0
  0
LINE
  5
2FE
330
27D
100
AcDbEntity
  8
1
  6
Continuous
 62
     7
100
AcDbLine
 10
-4.999032258100001
 20
19.99983870970001
 30
65.0
 11
5.000967741899998
 21
30.99983870970002
 31
65.0
  0
TEXT
  5
2FF
330
27D
100
AcDbEntity
  8
1
  6
Continuous
 62
     7
100
AcDbText
 10
-179.7089845162
 20
23.95225941940004
 30
65.0
 40
8.0
  1
△
 41
1.153846153846153
 72
     5
 11
-171.7089845162
 21
23.95225941940004
 31
65.0
100
AcDbText
  0
TEXT
  5
300
330
27D
100
AcDbEntity
  8
1
  6
Continuous
 62
     7
100
AcDbText
 10
-204.7089845162
 20
23.95225941940004
 30
65.0
 40
8.0
  1
△
 41
1.153846153846153
 72
     5
 11
-196.7089845162
 21
23.95225941940004
 31
65.0
100
AcDbText
  0
TEXT
  5
301
330
27D
100
AcDbEntity
  8
1
  6
Continuous
 62
     7
100
AcDbText
 10
-229.7089845162
 20
23.95225941940004
 30
65.0
 40
8.0
  1
△
 41
1.153846153846153
 72
     5
 11
-221.7089845162
 21
23.95225941940004
 31
65.0
100
AcDbText
  0
TEXT
  5
302
330
27D
100
AcDbEntity
  8
1
  6
Continuous
 62
     7
100
AcDbText
 10
-254.7089845162
 20
23.95225941940004
 30
65.0
 40
8.0
  1
△
 41
1.153846153846153
 72
     5
 11
-246.7089845162
 21
23.95225941940004
 31
65.0
100
AcDbText
  0
TEXT
  5
303
330
27D
100
AcDbEntity
  8
1
  6
Continuous
 62
     7
100
AcDbText
 10
-279.7089845162
 20
23.95225941940004
 30
65.0
 40
8.0
  1
△
 41
1.153846153846153
 72
     5
 11
-271.7089845162
 21
23.95225941940004
 31
65.0
100
AcDbText
  0
LINE
  5
304
330
27D
100
AcDbEntity
  8
0
100
AcDbLine
 10
-287.9990322581
 20
-0.0001612902999852
 30
65.0
 11
5.000967741899998
 21
-0.0001612902999852
 31
65.0
  0
LINE
  5
305
330
27D
100
AcDbEntity
  8
0
100
AcDbLine
 10
5.000967741899998
 20
-0.0001612902999852
 30
65.0
 11
5.000967741899998
 21
30.99983870970002
 31
65.0
  0
ENDBLK
  5
307
330
27D
100
AcDbEntity
  8
0
100
AcDbBlockEnd
  0
BLOCK
  5
3B8
330
335
100
AcDbEntity
  8
0
100
AcDbBlockBegin
  2
IGS2
 70
     2
 10
0.0
 20
0.0
 30
0.0
  3
IGS2
  1

  0
POINT
  5
336
330
335
100
AcDbEntity
  8
0
 60
     1
100
AcDbPoint
 10
0.0
 20
0.0
 30
0.0
1001
GENIUS_GENODEF_13
1002
{
1000
HIER
1070
     1
1002
}
1002
{
1000
MANEDIT
1070
     0
1002
}
1002
{
1000
NOSEL
1070
     0
1002
}
1002
{
1000
BEHIND
1070
     0
1002
}
1002
{
1000
REACTOR
1002
}
1001
GENIUS_GENTITLE_13
1002
{
1000
SCALE
1000
1:1
1002
}
1002
{
1000
BORDER
1000
IGS-A4
1002
}
1002
{
1000
TITLE
1000
IGS-TITLE
1002
}
1002
{
1000
UNCHG
1002
{
1000
GEN-TITLE-SCA
1000
GEN-TITLE-SIZ
1002
}
1002
}
1002
{
1000
HRA
1005
0
1002
}
1002
{
1000
HTIT
1005
0
1002
}
1002
{
1000
GENIUSID
1005
336
1002
}
1001
GENIUS_GENOBJ-N-TIT_13
1002
{
1000
OWNER
1000
GEN
1002
}
1001
GENIUS_GENOENT_13
1002
{
1000
MYREF
1005
336
1002
}
1002
{
1000
GRP
1005
0
1002
}
1001
GENIUS_GENOLIS_13
1002
{
1000
ENT
1005
0
1005
0
1002
}
  0
LINE
  5
337
330
335
100
AcDbEntity
  8
RAHM3
100
AcDbLine
 10
-148.4080564410193
 20
8.825237325416161
 30
52.0
 11
-145.4319868410194
 21
8.825237325416161
 31
52.0
  0
ARC
  5
338
330
335
100
AcDbEntity
  8
RAHM3
100
AcDbCircle
 10
-141.4638940410194
 20
7.833214125416168
 30
52.0
 40
0.9920232
100
AcDbArc
 50
90.0
 51
180.0
  0
LINE
  5
339
330
335
100
AcDbEntity
  8
RAHM3
100
AcDbLine
 10
-137.6611384410193
 20
8.825237325416161
 30
52.0
 11
-141.4638940410194
 21
8.825237325416161
 31
52.0
  0
ARC
  5
33A
330
335
100
AcDbEntity
  8
RAHM3
100
AcDbCircle
 10
-137.6611384410193
 20
7.833214125416168
 30
52.0
 40
0.9920232
100
AcDbArc
 50
0.0
 51
90.0
  0
ARC
  5
33B
330
335
100
AcDbEntity
  8
RAHM3
100
AcDbCircle
 10
-129.0636040410194
 20
7.833214125416168
 30
52.0
 40
0.9920232
100
AcDbArc
 50
0.0
 51
90.0
  0
LINE
  5
33C
330
335
100
AcDbEntity
  8
RAHM3
100
AcDbLine
 10
-132.7010224410193
 20
8.825237325416161
 30
52.0
 11
-129.0636040410194
 21
8.825237325416161
 31
52.0
  0
ARC
  5
33D
330
335
100
AcDbEntity
  8
RAHM3
100
AcDbCircle
 10
-132.7010224410193
 20
7.833214125416168
 30
52.0
 40
0.9920232
100
AcDbArc
 50
90.0
 51
180.0
  0
LINE
  5
33E
330
335
100
AcDbEntity
  8
RAHM3
100
AcDbLine
 10
-148.4080564410193
 20
8.163888525416165
 30
52.0
 11
-147.5813704410193
 21
8.163888525416165
 31
52.0
  0
LINE
  5
33F
330
335
100
AcDbEntity
  8
RAHM3
100
AcDbLine
 10
-147.5813704410193
 20
8.163888525416165
 30
52.0
 11
-147.5813704410193
 21
3.865121325416145
 31
52.0
  0
LINE
  5
340
330
335
100
AcDbEntity
  8
RAHM3
100
AcDbLine
 10
-146.2586728410194
 20
3.865121325416145
 30
52.0
 11
-146.2586728410194
 21
8.163888525416165
 31
52.0
  0
LINE
  5
341
330
335
100
AcDbEntity
  8
RAHM3
100
AcDbLine
 10
-146.2586728410194
 20
8.163888525416165
 30
52.0
 11
-145.4319868410194
 21
8.163888525416165
 31
52.0
  0
LINE
  5
342
330
335
100
AcDbEntity
  8
RAHM3
100
AcDbLine
 10
-145.4319868410194
 20
8.825237325416161
 30
52.0
 11
-145.4319868410194
 21
8.163888525416165
 31
52.0
  0
LINE
  5
343
330
335
100
AcDbEntity
  8
RAHM3
100
AcDbLine
 10
-148.4080564410193
 20
8.163888525416165
 30
52.0
 11
-148.4080564410193
 21
8.825237325416161
 31
52.0
  0
LINE
  5
344
330
335
100
AcDbEntity
  8
RAHM3
100
AcDbLine
 10
-145.4319868410194
 20
3.203772525416149
 30
52.0
 11
-148.4080564410193
 21
3.203772525416149
 31
52.0
  0
CIRCLE
  5
345
330
335
100
AcDbEntity
  8
RAHM3
100
AcDbCircle
 10
-144.1092892410194
 20
3.865121325416145
 30
52.0
 40
0.6613488000000001
  0
LINE
  5
346
330
335
100
AcDbEntity
  8
RAHM3
100
AcDbLine
 10
-137.9918128410194
 20
3.865121325416145
 30
52.0
 11
-137.9918128410194
 21
3.203772525416149
 31
52.0
  0
LINE
  5
347
330
335
100
AcDbEntity
  8
RAHM3
100
AcDbLine
 10
-137.9918128410194
 20
3.203772525416149
 30
52.0
 11
-136.6691152410193
 21
3.203772525416149
 31
52.0
  0
ARC
  5
348
330
335
100
AcDbEntity
  8
RAHM3
100
AcDbCircle
 10
-141.4638940410194
 20
4.195795725416166
 30
52.0
 40
0.9920232
100
AcDbArc
 50
180.0
 51
270.0
  0
LINE
  5
349
330
335
100
AcDbEntity
  8
RAHM3
100
AcDbLine
 10
-141.4638940410194
 20
3.203772525416149
 30
52.0
 11
-141.1332196410193
 21
3.203772525416149
 31
52.0
  0
LINE
  5
34A
330
335
100
AcDbEntity
  8
RAHM3
100
AcDbLine
 10
-142.4559172410194
 20
4.195795725416166
 30
52.0
 11
-142.4559172410194
 21
7.833214125416168
 31
52.0
  0
CIRCLE
  5
34B
330
335
100
AcDbEntity
  8
RAHM3
100
AcDbCircle
 10
-135.5117548410193
 20
3.865121325416145
 30
52.0
 40
0.6613488000000001
  0
ARC
  5
34C
330
335
100
AcDbEntity
  8
RAHM3
100
AcDbCircle
 10
-132.7010224410193
 20
4.195795725416166
 30
52.0
 40
0.9920232
100
AcDbArc
 50
180.0
 51
270.0
  0
LINE
  5
34D
330
335
100
AcDbEntity
  8
RAHM3
100
AcDbLine
 10
-129.0636040410194
 20
3.203772525416149
 30
52.0
 11
-132.7010224410193
 21
3.203772525416149
 31
52.0
  0
ARC
  5
34E
330
335
100
AcDbEntity
  8
RAHM3
100
AcDbCircle
 10
-129.0636040410194
 20
4.195795725416166
 30
52.0
 40
0.9920232
100
AcDbArc
 50
270.0
 51
0.0
  0
LINE
  5
34F
330
335
100
AcDbEntity
  8
RAHM3
100
AcDbLine
 10
-133.6930456410194
 20
4.195795725416166
 30
52.0
 11
-133.6930456410194
 21
5.022481725416161
 31
52.0
  0
LINE
  5
350
330
335
100
AcDbEntity
  8
RAHM3
100
AcDbLine
 10
-128.0715808410194
 20
7.833214125416168
 30
52.0
 11
-128.0715808410194
 21
7.00652812541615
 31
52.0
  0
CIRCLE
  5
351
330
335
100
AcDbEntity
  8
RAHM3
100
AcDbCircle
 10
-126.9142204410194
 20
3.865121325416145
 30
52.0
 40
0.6613488000000001
  0
LINE
  5
352
330
335
100
AcDbEntity
  8
RAHM3
100
AcDbLine
 10
-136.6691152410193
 20
7.171865325416149
 30
52.0
 11
-137.8264756410194
 21
7.171865325416149
 31
52.0
  0
LINE
  5
353
330
335
100
AcDbEntity
  8
RAHM3
100
AcDbLine
 10
-137.8264756410194
 20
7.171865325416149
 30
52.0
 11
-137.8264756410194
 21
7.667876925416146
 31
52.0
  0
LINE
  5
354
330
335
100
AcDbEntity
  8
RAHM3
100
AcDbLine
 10
-137.8264756410194
 20
7.667876925416146
 30
52.0
 11
-141.2985568410193
 21
7.667876925416146
 31
52.0
  0
LINE
  5
355
330
335
100
AcDbEntity
  8
RAHM3
100
AcDbLine
 10
-141.2985568410193
 20
7.667876925416146
 30
52.0
 11
-141.2985568410193
 21
4.361132925416165
 31
52.0
  0
LINE
  5
356
330
335
100
AcDbEntity
  8
RAHM3
100
AcDbLine
 10
-137.8264756410194
 20
5.518493325416158
 30
52.0
 11
-139.4798476410193
 21
5.518493325416158
 31
52.0
  0
LINE
  5
357
330
335
100
AcDbEntity
  8
RAHM3
100
AcDbLine
 10
-139.4798476410193
 20
5.518493325416158
 30
52.0
 11
-139.4798476410193
 21
6.510516525416153
 31
52.0
  0
LINE
  5
358
330
335
100
AcDbEntity
  8
RAHM3
100
AcDbLine
 10
-136.6691152410193
 20
7.171865325416149
 30
52.0
 11
-136.6691152410193
 21
7.833214125416168
 31
52.0
  0
LINE
  5
359
330
335
100
AcDbEntity
  8
RAHM3
100
AcDbLine
 10
-137.8264756410194
 20
5.022481725416161
 30
52.0
 11
-137.8264756410194
 21
5.518493325416158
 31
52.0
  0
LINE
  5
35A
330
335
100
AcDbEntity
  8
RAHM3
100
AcDbLine
 10
-137.6611384410193
 20
6.510516525416153
 30
52.0
 11
-139.4798476410193
 21
6.510516525416153
 31
52.0
  0
LINE
  5
35B
330
335
100
AcDbEntity
  8
RAHM3
100
AcDbLine
 10
-136.6691152410193
 20
5.518493325416158
 30
52.0
 11
-136.6691152410193
 21
3.203772525416149
 31
52.0
  0
ARC
  5
35C
330
335
100
AcDbEntity
  8
RAHM3
100
AcDbCircle
 10
-137.6611384410193
 20
5.518493325416158
 30
52.0
 40
0.9920232
100
AcDbArc
 50
0.0
 51
90.0
  0
LINE
  5
35D
330
335
100
AcDbEntity
  8
RAHM3
100
AcDbLine
 10
-139.1930809214994
 20
5.022481725416161
 30
52.0
 11
-137.8264756410194
 21
5.022481725416161
 31
52.0
  0
ARC
  5
35E
330
335
100
AcDbEntity
  8
RAHM3
100
AcDbCircle
 10
-139.1930809214994
 20
4.030458525416167
 30
52.0
 40
0.9920232
100
AcDbArc
 50
90.0
 51
119.7448812969
  0
LINE
  5
35F
330
335
100
AcDbEntity
  8
RAHM3
100
AcDbLine
 10
-140.8773334868594
 20
4.361132925416165
 30
52.0
 11
-141.2985568410193
 21
4.361132925416165
 31
52.0
  0
LINE
  5
360
330
335
100
AcDbEntity
  8
RAHM3
100
AcDbLine
 10
-140.3851521495794
 20
4.491838785176161
 30
52.0
 11
-139.6852622587794
 21
4.891775865576152
 31
52.0
  0
ARC
  5
361
330
335
100
AcDbEntity
  8
RAHM3
100
AcDbCircle
 10
-140.8773334868594
 20
5.35315612541616
 30
52.0
 40
0.9920232
100
AcDbArc
 50
270.0
 51
299.7448812969
  0
ARC
  5
362
330
335
100
AcDbEntity
  8
RAHM3
100
AcDbCircle
 10
-138.8857271583794
 20
2.873098125416151
 30
52.0
 40
0.9920232
100
AcDbArc
 50
90.0
 51
119.7448812969
  0
LINE
  5
363
330
335
100
AcDbEntity
  8
RAHM3
100
AcDbLine
 10
-140.5699797237394
 20
3.203772525416149
 30
52.0
 11
-141.4638940410194
 21
3.203772525416149
 31
52.0
  0
ARC
  5
364
330
335
100
AcDbEntity
  8
RAHM3
100
AcDbCircle
 10
-140.5699797237394
 20
4.195795725416166
 30
52.0
 40
0.9920232
100
AcDbArc
 50
270.0
 51
299.7448812969
  0
LINE
  5
365
330
335
100
AcDbEntity
  8
RAHM3
100
AcDbLine
 10
-139.3779084956594
 20
3.734415465576159
 30
52.0
 11
-140.0777983864594
 21
3.334478385176168
 31
52.0
  0
LINE
  5
366
330
335
100
AcDbEntity
  8
RAHM3
100
AcDbLine
 10
-138.8857271583794
 20
3.865121325416145
 30
52.0
 11
-137.9918128410194
 21
3.865121325416145
 31
52.0
  0
LINE
  5
367
330
335
100
AcDbEntity
  8
RAHM3
100
AcDbLine
 10
-147.5813704410193
 20
3.865121325416145
 30
52.0
 11
-148.4080564410193
 21
3.865121325416145
 31
52.0
  0
LINE
  5
368
330
335
100
AcDbEntity
  8
RAHM3
100
AcDbLine
 10
-146.2586728410194
 20
3.865121325416145
 30
52.0
 11
-145.4319868410194
 21
3.865121325416145
 31
52.0
  0
LINE
  5
369
330
335
100
AcDbEntity
  8
RAHM3
100
AcDbLine
 10
-148.4080564410193
 20
3.203772525416149
 30
52.0
 11
-148.4080564410193
 21
3.865121325416145
 31
52.0
  0
LINE
  5
36A
330
335
100
AcDbEntity
  8
RAHM3
100
AcDbLine
 10
-145.4319868410194
 20
3.865121325416145
 30
52.0
 11
-145.4319868410194
 21
3.203772525416149
 31
52.0
  0
LINE
  5
36B
330
335
100
AcDbEntity
  8
RAHM3
100
AcDbLine
 10
-132.5356852410194
 20
7.667876925416146
 30
52.0
 11
-129.2289412410193
 21
7.667876925416146
 31
52.0
  0
LINE
  5
36C
330
335
100
AcDbEntity
  8
RAHM3
100
AcDbLine
 10
-129.2289412410193
 20
7.667876925416146
 30
52.0
 11
-129.2289412410193
 21
7.00652812541615
 31
52.0
  0
LINE
  5
36D
330
335
100
AcDbEntity
  8
RAHM3
100
AcDbLine
 10
-132.5356852410194
 20
5.022481725416161
 30
52.0
 11
-132.5356852410194
 21
4.361132925416165
 31
52.0
  0
LINE
  5
36E
330
335
100
AcDbEntity
  8
RAHM3
100
AcDbLine
 10
-132.5356852410194
 20
4.361132925416165
 30
52.0
 11
-129.2289412410193
 21
4.361132925416165
 31
52.0
  0
LINE
  5
36F
330
335
100
AcDbEntity
  8
RAHM3
100
AcDbLine
 10
-132.5356852410194
 20
5.022481725416161
 30
52.0
 11
-133.6930456410194
 21
5.022481725416161
 31
52.0
  0
LINE
  5
370
330
335
100
AcDbEntity
  8
RAHM3
100
AcDbLine
 10
-128.0715808410194
 20
7.00652812541615
 30
52.0
 11
-129.2289412410193
 21
7.00652812541615
 31
52.0
  0
LINE
  5
371
330
335
100
AcDbEntity
  8
RAHM3
100
AcDbLine
 10
-129.2289412410193
 20
4.361132925416165
 30
52.0
 11
-129.2289412410193
 21
5.518493325416158
 31
52.0
  0
LINE
  5
372
330
335
100
AcDbEntity
  8
RAHM3
100
AcDbLine
 10
-132.5356852410194
 20
6.510516525416153
 30
52.0
 11
-132.5356852410194
 21
7.667876925416146
 31
52.0
  0
LINE
  5
373
330
335
100
AcDbEntity
  8
RAHM3
100
AcDbLine
 10
-128.0715808410194
 20
5.518493325416158
 30
52.0
 11
-128.0715808410194
 21
4.195795725416166
 31
52.0
  0
LINE
  5
374
330
335
100
AcDbEntity
  8
RAHM3
100
AcDbLine
 10
-129.0636040410194
 20
6.510516525416153
 30
52.0
 11
-132.5356852410194
 21
6.510516525416153
 31
52.0
  0
ARC
  5
375
330
335
100
AcDbEntity
  8
RAHM3
100
AcDbCircle
 10
-129.0636040410194
 20
5.518493325416158
 30
52.0
 40
0.9920232
100
AcDbArc
 50
0.0
 51
90.0
  0
LINE
  5
376
330
335
100
AcDbEntity
  8
RAHM3
100
AcDbLine
 10
-132.7010224411794
 20
5.518493325416158
 30
52.0
 11
-129.2289412410193
 21
5.518493325416158
 31
52.0
  0
LINE
  5
377
330
335
100
AcDbEntity
  8
RAHM3
100
AcDbLine
 10
-133.6930456410194
 20
6.510516525416153
 30
52.0
 11
-133.6930456410194
 21
7.833214125416168
 31
52.0
  0
ARC
  5
378
330
335
100
AcDbEntity
  8
RAHM3
100
AcDbCircle
 10
-132.7010224411794
 20
6.510516525416153
 30
52.0
 40
0.9920232
100
AcDbArc
 50
180.0
 51
270.0
  0
POINT
  5
379
330
335
100
AcDbEntity
  8
0
 60
     1
100
AcDbPoint
 10
0.0
 20
0.0
 30
0.0
1001
GENIUS_GENODEF_13
1002
{
1000
HIER
1070
     1
1002
}
1002
{
1000
MANEDIT
1070
     0
1002
}
1002
{
1000
NOSEL
1070
     0
1002
}
1002
{
1000
BEHIND
1070
     0
1002
}
1002
{
1000
REACTOR
1002
}
1001
GENIUS_GENTITLE_13
1002
{
1000
SCALE
1000
1:1
1002
}
1002
{
1000
BORDER
1000
GEN_A4
1002
}
1002
{
1000
TITLE
1000
GENTITUS
1002
}
1002
{
1000
UNCHG
1002
{
1000
GEN-TITLE-SCA
1000
GEN-TITLE-SIZ
1002
}
1002
}
1002
{
1000
HRA
1005
0
1002
}
1002
{
1000
HTIT
1005
0
1002
}
1002
{
1000
GENIUSID
1005
379
1002
}
1001
GENIUS_GENOBJ-N-TIT_13
1002
{
1000
OWNER
1000
GEN
1002
}
1001
GENIUS_GENOENT_13
1002
{
1000
MYREF
1005
379
1002
}
1002
{
1000
GRP
1005
0
1002
}
1001
GENIUS_GENOLIS_13
1002
{
1000
ENT
1005
0
1005
0
1002
}
  0
TEXT
  5
37A
330
335
100
AcDbEntity
  8
0
 60
     1
100
AcDbText
 10
210.0
 20
297.0
 30
0.0
 40
3.5
  1
!GENTITLE-MAX
100
AcDbText
  0
TEXT
  5
37B
330
335
100
AcDbEntity
  8
0
 60
     1
100
AcDbText
 10
205.0
 20
287.0
 30
0.0
 40
3.5
  1
!GENTITLE-RU
100
AcDbText
  0
TEXT
  5
37C
330
335
100
AcDbEntity
  8
0
 60
     1
100
AcDbText
 10
15.0
 20
59.99
 30
0.0
 40
3.5
  1
!GENTITLE-LL
100
AcDbText
  0
TEXT
  5
37D
330
335
100
AcDbEntity
  8
0
 60
     1
100
AcDbText
 10
205.0
 20
5.0
 30
0.0
 40
3.5
  1
!GENTITLE-INSERT
100
AcDbText
  0
LINE
  5
37E
330
335
100
AcDbEntity
  8
RAHM2
100
AcDbLine
 10
-155.0
 20
12.0
 30
0.0
 11
0.0
 21
12.0
 31
0.0
  0
LINE
  5
37F
330
335
100
AcDbEntity
  8
RAHM2
100
AcDbLine
 10
-12.0
 20
12.0
 30
0.0
 11
-12.00000000000727
 21
0.0
 31
0.0
  0
LINE
  5
380
330
335
100
AcDbEntity
  8
RAHM2
100
AcDbLine
 10
-80.0
 20
19.99999999999272
 30
0.0
 11
0.0
 21
20.0
 31
0.0
  0
LINE
  5
381
330
335
100
AcDbEntity
  8
RAHM2
100
AcDbLine
 10
0.0
 20
27.0
 30
0.0
 11
-80.0
 21
27.0
 31
0.0
  0
MTEXT
  5
382
330
335
100
AcDbEntity
  8
RAHM2
100
AcDbMText
 10
-78.39748281353763
 20
37.79972226353243
 30
0.0
 40
2.5
 41
2.458156240282278
 71
     1
 72
     5
  1

 73
     1
 44
1.0
  0
TEXT
  5
383
330
335
100
AcDbEntity
  8
RAHM3
100
AcDbText
 10
-79.00900277736832
 20
36.89804600214973
 30
0.0
 40
2.299999999999999
  1
名称 ＴＩＴＬＥ
 41
0.8
100
AcDbText
  0
LINE
  5
384
330
335
100
AcDbEntity
  8
RAHM2
100
AcDbLine
 10
-80.0
 20
40.00000000000727
 30
0.0
 11
-80.0
 21
0.0
 31
0.0
  0
TEXT
  5
385
330
335
100
AcDbEntity
  8
RAHM3
100
AcDbText
 10
-79.00900277736832
 20
23.89804600216055
 30
0.0
 40
2.299999999999999
  1
符号 
 41
0.8
100
AcDbText
  0
TEXT
  5
386
330
335
100
AcDbEntity
  8
RAHM3
100
AcDbText
 10
-79.00900277736832
 20
16.89804600215146
 30
0.0
 40
2.299999999999999
  1
件名
 41
0.8
100
AcDbText
  0
TEXT
  5
387
330
335
100
AcDbEntity
  8
RAHM3
100
AcDbText
 10
-79.00900277736832
 20
8.898046002160548
 30
0.0
 40
2.299999999999999
  1
図番 ＤＲＡＷＩＮＧ ＮＯ．
 41
0.8
100
AcDbText
  0
CIRCLE
  5
388
330
335
100
AcDbEntity
  8
RAHM2
100
AcDbCircle
 10
-5.0
 20
5.0
 30
0.0
 40
4.5
  0
LINE
  5
389
330
335
100
AcDbEntity
  8
RAHM2
100
AcDbLine
 10
-130.0000000000018
 20
40.00000000000916
 30
0.0
 11
-130.0000000000018
 21
12.0
 31
0.0
  0
LINE
  5
38A
330
335
100
AcDbEntity
  8
RAHM2
100
AcDbLine
 10
-130.0000000000018
 20
26.00000000000458
 30
0.0
 11
-80.0
 21
25.99999999999818
 31
0.0
  0
LINE
  5
38B
330
335
100
AcDbEntity
  8
RAHM2
100
AcDbLine
 10
-105.0000000000018
 20
40.00000000000916
 30
0.0
 11
-105.0000000000018
 21
12.0
 31
0.0
  0
TEXT
  5
38C
330
335
100
AcDbEntity
  8
RAHM3
100
AcDbText
 10
-129.0090027773683
 20
36.89804600215881
 30
0.0
 40
2.299999999999999
  1
承認 ＡＰＰＤ
 41
0.8
100
AcDbText
  0
TEXT
  5
38D
330
335
100
AcDbEntity
  8
RAHM3
100
AcDbText
 10
-104.0090027773683
 20
36.8980460021551
 30
0.0
 40
2.299999999999999
  1
検図 ＣＨＫ
 41
0.8
100
AcDbText
  0
TEXT
  5
38E
330
335
100
AcDbEntity
  8
RAHM3
100
AcDbText
 10
-129.0090027773683
 20
22.89804600215422
 30
0.0
 40
2.299999999999999
  1
設計 ＥＮＧＲ
 41
0.8
100
AcDbText
  0
TEXT
  5
38F
330
335
100
AcDbEntity
  8
RAHM3
100
AcDbText
 10
-104.0090027773683
 20
22.89804600214964
 30
0.0
 40
2.299999999999999
  1
製図 ＤＲ ＤＡＴＥ
 41
0.8
100
AcDbText
  0
LINE
  5
390
330
335
100
AcDbEntity
  8
RAHM2
100
AcDbLine
 10
-155.0
 20
30.60000000000036
 30
0.0
 11
-130.0000000000018
 21
30.60000000000036
 31
0.0
  0
LINE
  5
391
330
335
100
AcDbEntity
  8
RAHM2
100
AcDbLine
 10
-155.0
 20
21.29999999999927
 30
0.0
 11
-130.0000000000018
 21
21.30000000000109
 31
0.0
  0
TEXT
  5
392
330
335
100
AcDbEntity
  8
RAHM3
100
AcDbText
 10
-121.7843516157921
 20
6.885079184961092
 30
0.0
 40
4.0
  1
伊藤鉄工株式会社
100
AcDbText
  0
TEXT
  5
393
330
335
100
AcDbEntity
  8
RAHM3
100
AcDbText
 10
-120.6675998914835
 20
3.578884653066273
 30
0.0
 40
2.0
  1
ITO TEKKO  CO.,LTD.
100
AcDbText
1001
GENIUS_GENTRA_14
1002
{
1070
     1
1000
/
1000
ITO TEKKO  CO.,LTD.
1000
JPN
1070
     0
1040
1.0
1070
     0
1002
}
  0
TEXT
  5
394
330
335
100
AcDbEntity
  8
RAHM3
100
AcDbText
 10
-120.6675998914835
 20
0.9279960228792472
 30
0.0
 40
2.0
  1
KAWAGUCHI  JAPAN
100
AcDbText
  0
TEXT
  5
395
330
335
100
AcDbEntity
  8
RAHM3
100
AcDbText
 10
-11.85206060358336
 20
9.69362381988742
 30
0.0
 40
1.8
  1
ＲＥＶ．ＭＡＲＫ
 41
0.6800000000000001
100
AcDbText
  0
TEXT
  5
396
330
335
100
AcDbEntity
  8
RAHM3
100
AcDbText
 10
-11.57052530051805
 20
7.425435269030799
 30
0.0
 40
1.8
  1
変
100
AcDbText
  0
TEXT
  5
397
330
335
100
AcDbEntity
  8
RAHM3
100
AcDbText
 10
-11.59004395148213
 20
4.996441785248862
 30
0.0
 40
1.8
  1
更
100
AcDbText
  0
TEXT
  5
398
330
335
100
AcDbEntity
  8
RAHM3
100
AcDbText
 10
-11.62938531906752
 20
2.617267270587205
 30
0.0
 40
1.8
  1
回
100
AcDbText
  0
TEXT
  5
399
330
335
100
AcDbEntity
  8
RAHM3
100
AcDbText
 10
-11.56556962136267
 20
0.3551115072955326
 30
0.0
 40
1.8
  1
数
100
AcDbText
  0
TEXT
  5
39A
330
335
100
AcDbEntity
  8
RAHM3
100
AcDbText
 10
-154.0090027773665
 20
36.89804600217056
 30
0.0
 40
2.299999999999999
  1
尺度 ＳＣＡＬＥ
 41
0.8
100
AcDbText
  0
TEXT
  5
39B
330
335
100
AcDbEntity
  8
RAHM3
100
AcDbText
 10
-154.0090027773665
 20
27.49804600215
 30
0.0
 40
2.299999999999999
  1
図面枚数 ＮＯ．  
 41
0.8
100
AcDbText
  0
LINE
  5
39C
330
335
100
AcDbEntity
  8
7A
100
AcDbLine
 10
-151.7551228444401
 20
16.64999999999988
 30
0.0
 11
-149.2551228444401
 21
16.64999999999988
 31
0.0
1001
GENIUS_GENOREF_13
1005
3A0
  0
LINE
  5
39D
330
335
100
AcDbEntity
  8
7A
100
AcDbLine
 10
-151.7551228444401
 20
16.64999999999988
 30
0.0
 11
-151.7551228444401
 21
19.14999999999988
 31
0.0
1001
GENIUS_GENOREF_13
1005
3A0
  0
LINE
  5
39E
330
335
100
AcDbEntity
  8
7A
100
AcDbLine
 10
-151.7551228444401
 20
16.64999999999988
 30
0.0
 11
-154.2551228444401
 21
16.64999999999988
 31
0.0
1001
GENIUS_GENOREF_13
1005
3A0
  0
LINE
  5
39F
330
335
100
AcDbEntity
  8
7A
100
AcDbLine
 10
-151.7551228444401
 20
16.64999999999988
 30
0.0
 11
-151.7551228444401
 21
14.14999999999988
 31
0.0
1001
GENIUS_GENOREF_13
1005
3A0
  0
POINT
  5
3A0
330
335
100
AcDbEntity
  8
0
 60
     1
100
AcDbPoint
 10
0.0
 20
0.0
 30
0.0
1001
GENIUS_GENODEF_13
1002
{
1000
HIER
1070
    10
1002
}
1002
{
1000
MANEDIT
1070
     0
1002
}
1002
{
1000
NOSEL
1070
     0
1002
}
1002
{
1000
BEHIND
1070
     0
1002
}
1002
{
1000
REACTOR
1002
}
1001
GENIUS_GENOBJ-N-CRS_13
1002
{
1000
OWNER
1000
GEN
1002
}
1001
GENIUS_GENOENT_13
1002
{
1000
MYREF
1005
3A0
1002
}
1002
{
1000
GRP
1005
0
1002
}
1001
GENIUS_GENOLIS_13
1002
{
1000
ENT
1005
39F
1005
39E
1005
39D
1005
39C
1002
}
  0
CIRCLE
  5
3A1
330
335
100
AcDbEntity
  8
RAHM3
100
AcDbCircle
 10
-151.7551228444401
 20
16.64999999999988
 30
0.0
 40
2.0
  0
CIRCLE
  5
3A2
330
335
100
AcDbEntity
  8
RAHM3
100
AcDbCircle
 10
-151.7551228444401
 20
16.64999999999952
 30
0.0
 40
1.0
  0
LINE
  5
3A3
330
335
100
AcDbEntity
  8
RAHM3
100
AcDbLine
 10
-147.7659442035316
 20
17.64999999999929
 30
0.0
 11
-147.7659442035316
 21
15.64999999999929
 31
0.0
  0
LINE
  5
3A4
330
335
100
AcDbEntity
  8
RAHM3
100
AcDbLine
 10
-147.7659442035316
 20
15.64999999999929
 30
0.0
 11
-143.7659442035316
 21
14.64999999999928
 31
0.0
  0
LINE
  5
3A5
330
335
100
AcDbEntity
  8
RAHM3
100
AcDbLine
 10
-143.7659442035316
 20
14.64999999999928
 30
0.0
 11
-143.7659442035316
 21
18.64999999999929
 31
0.0
  0
LINE
  5
3A6
330
335
100
AcDbEntity
  8
RAHM3
100
AcDbLine
 10
-143.7659442035316
 20
18.64999999999929
 30
0.0
 11
-147.7659442035316
 21
17.64999999999929
 31
0.0
  0
LINE
  5
3A7
330
335
100
AcDbEntity
  8
7A
100
AcDbLine
 10
-148.6350563849704
 20
16.64999999999929
 30
0.0
 11
-142.8462596443259
 21
16.64999999999929
 31
0.0
1001
GENIUS_GENODEF_13
1002
{
1000
HIER
1070
     0
1002
}
1002
{
1000
MANEDIT
1070
     0
1002
}
1002
{
1000
NOSEL
1070
     0
1002
}
1002
{
1000
BEHIND
1070
     0
1002
}
1002
{
1000
REACTOR
1002
}
1001
GENIUS_GENOBJ-N-CEN_13
1002
{
1000
OWNER
1000
GEN
1002
}
  0
TEXT
  5
3A8
330
335
100
AcDbEntity
  8
RAHM3
100
AcDbText
 10
-141.8454810851357
 20
18.28209750892168
 30
0.0
 40
2.1
  1
単位 ＵＮＩＴ
 41
0.7
100
AcDbText
  0
LINE
  5
3A9
330
335
100
AcDbEntity
  8
RAHM2
100
AcDbLine
 10
-142.5000000000009
 20
21.29999999999927
 30
0.0
 11
-142.5000000000009
 21
12.0
 31
0.0
  0
TEXT
  5
3AA
330
335
100
AcDbEntity
  8
RAHM3
100
AcDbText
 10
-139.6782849929894
 20
13.82826889824218
 30
0.0
 40
4.0
  1
ｍｍ
 41
0.8
100
AcDbText
  0
POLYLINE
  5
3AB
330
335
100
AcDbEntity
  8
RAHM2
100
AcDb2dPolyline
 66
     1
 10
0.0
 20
0.0
 30
0.0
 70
     1
  0
VERTEX
  5
3AC
330
3AB
100
AcDbEntity
  8
RAHM2
100
AcDbVertex
100
AcDb2dVertex
 10
-155.0
 20
-0.000000000001819
 30
0.0
  0
VERTEX
  5
3AD
330
3AB
100
AcDbEntity
  8
RAHM2
100
AcDbVertex
100
AcDb2dVertex
 10
-155.0
 20
40.00000000002091
 30
0.0
  0
VERTEX
  5
3AE
330
3AB
100
AcDbEntity
  8
RAHM2
100
AcDbVertex
100
AcDb2dVertex
 10
0.0
 20
39.99999999999273
 30
0.0
  0
VERTEX
  5
3AF
330
3AB
100
AcDbEntity
  8
RAHM2
100
AcDbVertex
100
AcDb2dVertex
 10
0.0
 20
0.0
 30
0.0
  0
SEQEND
  5
3B0
330
3AB
100
AcDbEntity
  8
RAHM2
  0
ATTDEF
  5
3B1
330
335
100
AcDbEntity
  8
RAHM3
100
AcDbText
 10
-147.2595867131855
 20
31.94728899818607
 30
0.0
 40
4.0
  1

100
AcDbAttributeDefinition
  3
尺度
  2
GEN-TITLE-SCA
 70
     0
  0
ATTDEF
  5
3B2
330
335
100
AcDbEntity
  8
RAHM3
100
AcDbText
 10
-73.09000000000001
 20
29.74
 30
0.0
 40
5.0
  1

100
AcDbAttributeDefinition
  3
名称
  2
ＴＩＴＬＥ
 70
     0
  0
ATTDEF
  5
3B3
330
335
100
AcDbEntity
  8
RAHM3
100
AcDbText
 10
-71.56287815584043
 20
21.80438312711384
 30
0.0
 40
3.0
  1

100
AcDbAttributeDefinition
  3
符号
  2
ｃｏｄｅ
 70
     0
  0
ATTDEF
  5
3B4
330
335
100
AcDbEntity
  8
RAHM3
100
AcDbText
 10
-70.74480649396313
 20
14.80438312710657
 30
0.0
 40
3.0
  1

100
AcDbAttributeDefinition
  3
件名
  2
件名
 70
     0
  0
ATTDEF
  5
3B5
330
335
100
AcDbEntity
  8
RAHM3
100
AcDbText
 10
-73.09000000000001
 20
1.739999999992722
 30
0.0
 40
5.0
  1

100
AcDbAttributeDefinition
  3
図面番号
  2
Ｎｏ．
 70
     0
  0
ATTDEF
  5
3B6
330
335
100
AcDbEntity
  8
RAHM3
100
AcDbText
 10
-100.45
 20
17.40708932112655
 30
0.0
 40
4.0
  1

100
AcDbAttributeDefinition
  3
製図者
  2
ＤＲ
 70
     0
  0
ATTDEF
  5
3B7
330
335
100
AcDbEntity
  8
RAHM3
100
AcDbText
 10
-103.7180853038729
 20
12.76999999999999
 30
0.0
 40
3.0
  1

 41
0.8
100
AcDbAttributeDefinition
  3
日付
  2
ｄａｔｅ
 70
     0
  0
ENDBLK
  5
3B9
330
335
100
AcDbEntity
  8
0
100
AcDbBlockEnd
  0
BLOCK
  5
411
330
3FC
100
AcDbEntity
  8
0
100
AcDbBlockBegin
  2
IGS_A1
 70
     0
 10
0.0
 20
0.0
 30
0.0
  3
IGS_A1
  1

  0
LINE
  5
3FD
330
3FC
100
AcDbEntity
  8
AM_BOR
100
AcDbLine
 10
0.0
 20
0.0
 30
0.0
 11
0.0
 21
15.0
 31
0.0
  0
LINE
  5
3FE
330
3FC
100
AcDbEntity
  8
AM_BOR
100
AcDbLine
 10
0.0
 20
594.0
 30
0.0
 11
15.0
 21
594.0
 31
0.0
  0
LINE
  5
3FF
330
3FC
100
AcDbEntity
  8
AM_BOR
100
AcDbLine
 10
841.0
 20
594.0
 30
0.0
 11
841.0
 21
579.0
 31
0.0
  0
LINE
  5
400
330
3FC
100
AcDbEntity
  8
AM_BOR
100
AcDbLine
 10
841.0
 20
0.0
 30
0.0
 11
826.0
 21
0.0
 31
0.0
  0
LINE
  5
401
330
3FC
100
AcDbEntity
  8
0
100
AcDbLine
 10
25.0
 20
20.0
 30
0.0
 11
25.0
 21
574.0
 31
0.0
  0
LINE
  5
402
330
3FC
100
AcDbEntity
  8
0
100
AcDbLine
 10
821.0
 20
20.0
 30
0.0
 11
25.0
 21
20.0
 31
0.0
  0
LINE
  5
403
330
3FC
100
AcDbEntity
  8
0
100
AcDbLine
 10
821.0
 20
574.0
 30
0.0
 11
821.0
 21
20.0
 31
0.0
  0
LINE
  5
404
330
3FC
100
AcDbEntity
  8
0
100
AcDbLine
 10
25.0
 20
574.0
 30
0.0
 11
821.0
 21
574.0
 31
0.0
  0
LINE
  5
405
330
3FC
100
AcDbEntity
  8
AM_BOR
100
AcDbLine
 10
15.0
 20
0.0
 30
0.0
 11
0.0
 21
0.0
 31
0.0
  0
LINE
  5
406
330
3FC
100
AcDbEntity
  8
AM_BOR
100
AcDbLine
 10
841.0
 20
15.0
 30
0.0
 11
841.0
 21
0.0
 31
0.0
  0
LINE
  5
407
330
3FC
100
AcDbEntity
  8
AM_BOR
100
AcDbLine
 10
826.0
 20
594.0
 30
0.0
 11
841.0
 21
594.0
 31
0.0
  0
LINE
  5
408
330
3FC
100
AcDbEntity
  8
AM_BOR
100
AcDbLine
 10
0.0
 20
579.0
 30
0.0
 11
0.0
 21
594.0
 31
0.0
  0
TEXT
  5
409
330
3FC
100
AcDbEntity
  8
0
 60
     1
100
AcDbText
 10
25.0
 20
20.0
 30
0.0
 40
12.0
  1
!GENTITLE-LL
  7
ACJISTS
100
AcDbText
  0
TEXT
  5
40A
330
3FC
100
AcDbEntity
  8
0
 60
     1
100
AcDbText
 10
841.0
 20
594.0
 30
0.0
 40
12.0
  1
!GENTITLE-MAX
  7
ACJISTS
100
AcDbText
  0
TEXT
  5
40B
330
3FC
100
AcDbEntity
  8
0
 60
     1
100
AcDbText
 10
821.0
 20
574.0
 30
0.0
 40
12.0
  1
!GENTITLE-RU
  7
ACJISTS
100
AcDbText
  0
TEXT
  5
40C
330
3FC
100
AcDbEntity
  8
0
 60
     1
100
AcDbText
 10
821.0
 20
20.0
 30
0.0
 40
12.0
  1
!GENTITLE-INSERT
  7
ACJISTS
100
AcDbText
  0
LINE
  5
40D
330
3FC
100
AcDbEntity
  8
AM_BOR
 62
     1
370
    25
100
AcDbLine
 10
0.0
 20
594.0
 30
0.0
 11
841.0
 21
594.0
 31
0.0
  0
LINE
  5
40E
330
3FC
100
AcDbEntity
  8
AM_BOR
 62
     1
370
    25
100
AcDbLine
 10
841.0
 20
594.0
 30
0.0
 11
841.0
 21
0.0
 31
0.0
  0
LINE
  5
40F
330
3FC
100
AcDbEntity
  8
AM_BOR
 62
     1
370
    25
100
AcDbLine
 10
841.0
 20
0.0
 30
0.0
 11
0.0
 21
0.0
 31
0.0
  0
LINE
  5
410
330
3FC
100
AcDbEntity
  8
AM_BOR
 62
     1
370
    25
100
AcDbLine
 10
0.0
 20
0.0
 30
0.0
 11
0.0
 21
594.0
 31
0.0
  0
ENDBLK
  5
412
330
3FC
100
AcDbEntity
  8
0
100
AcDbBlockEnd
  0
BLOCK
  5
51E
330
50A
100
AcDbEntity
  8
0
100
AcDbBlockBegin
  2
jis_bl_revisionlist1
 70
     2
 10
0.0
 20
0.0
 30
0.0
  3
jis_bl_revisionlist1
  1

  0
LINE
  5
680
330
50A
100
AcDbEntity
  8
0
100
AcDbLine
 10
0.0
 20
-4.999999963957748
 30
0.0
 11
182.8800000000001
 21
-4.999999963957748
 31
0.0
  0
LINE
  5
681
330
50A
100
AcDbEntity
  8
AM_BOR
 62
     1
370
    25
100
AcDbLine
 10
28.88000000000011
 20
-9.999999963957748
 30
0.0
 11
159.8800000000001
 21
-9.999999963957748
 31
0.0
  0
LINE
  5
682
330
50A
100
AcDbEntity
  8
0
100
AcDbLine
 10
0.0000000675292995
 20
-9.999999963957804
 30
0.0
 11
182.8800000675292
 21
-9.999999963957804
 31
0.0
  0
LINE
  5
683
330
50A
100
AcDbEntity
  8
0
100
AcDbLine
 10
8.880000000000109
 20
-9.999999963957804
 30
0.0
 11
8.880000000000109
 21
-4.999999963957748
 31
0.0
  0
LINE
  5
684
330
50A
100
AcDbEntity
  8
0
100
AcDbLine
 10
0.0
 20
-9.999999963957748
 30
0.0
 11
0.0
 21
-10.0
 31
0.0
  0
LINE
  5
685
330
50A
100
AcDbEntity
  8
AM_BOR
 62
     1
370
    25
100
AcDbLine
 10
8.880000000000109
 20
-10.0
 30
0.0
 11
8.880000000000109
 21
-4.999999963957748
 31
0.0
  0
LINE
  5
686
330
50A
100
AcDbEntity
  8
AM_BOR
 62
     1
370
    25
100
AcDbLine
 10
28.88000000000011
 20
-10.0
 30
0.0
 11
28.88000000000011
 21
-9.999999963957748
 31
0.0
  0
LINE
  5
687
330
50A
100
AcDbEntity
  8
0
100
AcDbLine
 10
0.0
 20
-4.999999963957748
 30
0.0
 11
0.0
 21
-9.999999963957748
 31
0.0
  0
LINE
  5
688
330
50A
100
AcDbEntity
  8
AM_BOR
 62
     1
370
    25
100
AcDbLine
 10
28.88000000000011
 20
-9.999999963957748
 30
0.0
 11
28.88000000000011
 21
-4.999999963957748
 31
0.0
  0
LINE
  5
689
330
50A
100
AcDbEntity
  8
AM_BOR
 62
     1
370
    25
100
AcDbLine
 10
159.8800000000001
 20
-10.0
 30
0.0
 11
159.8800000000001
 21
-9.999999963957748
 31
0.0
  0
LINE
  5
68A
330
50A
100
AcDbEntity
  8
0
100
AcDbLine
 10
182.8800000000001
 20
-10.0
 30
0.0
 11
182.8800000000001
 21
-9.999999963957748
 31
0.0
  0
LINE
  5
68B
330
50A
100
AcDbEntity
  8
AM_BOR
 62
     1
370
    25
100
AcDbLine
 10
159.8800000000001
 20
-9.999999963957748
 30
0.0
 11
159.8800000000001
 21
-4.999999963957748
 31
0.0
  0
LINE
  5
68C
330
50A
100
AcDbEntity
  8
0
100
AcDbLine
 10
182.8800000000001
 20
-9.999999963957748
 30
0.0
 11
182.8800000000001
 21
-4.999999963957748
 31
0.0
  0
ATTDEF
  5
68D
330
50A
100
AcDbEntity
  8
AM_BOR
 62
     1
370
    25
100
AcDbText
 10
9.880000000000109
 20
-8.999999999999658
 30
0.0
 40
3.0
  1

  7
ACJISTS
100
AcDbAttributeDefinition
  3
図面名
  2
GEN-REV-BLK{6}
 70
     0
1001
GENIUS_GENTRA_14
1002
{
1070
     3
1000
GENTRAPR,%s,(GENMSG gendwg 93)
1000
図面名
1000
JPN
1070
     0
1070
     0
1002
}
  0
ATTDEF
  5
68E
330
50A
100
AcDbEntity
  8
AM_BOR
 62
     1
370
    25
100
AcDbText
 10
29.88000000000011
 20
-9.000000000001477
 30
0.0
 40
3.0
  1

  7
ACJISTS
100
AcDbAttributeDefinition
  3
履歴 2 行目
  2
GEN-REV-TEXT2{43}
 70
     0
1001
GENIUS_GENTRA_14
1002
{
1070
     3
1000
GENTRAPR,%s,(GENMSG gendwg 92)
1000
履歴 2 行目
1000
JPN
1070
     0
1070
     0
1002
}
  0
ATTDEF
  5
68F
330
50A
100
AcDbEntity
  8
AM_BOR
 62
     1
370
    25
100
AcDbText
 10
0.9326324110411405
 20
-8.999999963957748
 30
0.0
 40
3.0
  1

  7
ACJISTS
100
AcDbAttributeDefinition
  3
番号
  2
GEN-REV-NR{2}
 70
     0
1001
GENIUS_GENTRA_14
1002
{
1070
     3
1000
GENTRAPR,%s,(GENMSG gendwg 98)
1000
番号
1000
JPN
1070
     0
1070
     0
1002
}
  0
ATTDEF
  5
690
330
50A
100
AcDbEntity
  8
AM_BOR
 62
     1
370
    25
100
AcDbText
 10
9.880000000000109
 20
-8.999999963957407
 30
0.0
 40
3.0
  1

  7
ACJISTS
100
AcDbAttributeDefinition
  3
日付
  2
GEN-REV-DAT{6}
 70
     0
1001
GENIUS_GENTRA_14
1002
{
1070
     3
1000
GENTRAPR,%s,(GENMSG gendwg 95)
1000
日付
1000
JPN
1070
     0
1070
     0
1002
}
  0
ATTDEF
  5
691
330
50A
100
AcDbEntity
  8
AM_BOR
 62
     1
370
    25
100
AcDbText
 10
160.8800000000001
 20
-8.713127708901765
 30
0.0
 40
3.0
  1

  7
ACJISTS
100
AcDbAttributeDefinition
  3
名前
  2
GEN-REV-NAME{7}
 70
     0
1001
GENIUS_GENTRA_14
1002
{
1070
     3
1000
GENTRAPR,%s,(GENMSG gendwg 97)
1000
名前
1000
JPN
1070
     0
1070
     0
1002
}
  0
ENDBLK
  5
51F
330
50A
100
AcDbEntity
  8
0
100
AcDbBlockEnd
  0
BLOCK
  5
52C
330
520
100
AcDbEntity
  8
0
100
AcDbBlockBegin
  2
jis_bl_revisionlist0
 70
     0
 10
0.0
 20
0.0
 30
0.0
  3
jis_bl_revisionlist0
  1

  0
LINE
  5
521
330
520
100
AcDbEntity
  8
0
100
AcDbLine
 10
182.88
 20
-5.347300637836838
 30
0.0
 11
0.0
 21
-5.347300637836809
 31
0.0
  0
LINE
  5
522
330
520
100
AcDbEntity
  8
0
100
AcDbLine
 10
0.0
 20
0.0
 30
0.0
 11
182.88
 21
0.0
 31
0.0
  0
TEXT
  5
523
330
520
100
AcDbEntity
  8
AM_BOR
 62
     1
370
    25
100
AcDbText
 10
9.879999999999995
 20
-4.105772405495713
 30
0.0
 40
3.0
  1
日付
  7
ACJISTS
100
AcDbText
1001
GENIUS_GENTRA_14
1002
{
1070
     1
1000
GENTRATX{6},%s,(GENMSG gendwg 95)
1000
日付
1000
JPN
1070
     0
1040
1.0
1070
     0
1002
}
  0
TEXT
  5
524
330
520
100
AcDbEntity
  8
AM_BOR
 62
     1
370
    25
100
AcDbText
 10
1.0
 20
-4.105772405495713
 30
0.0
 40
3.0
  1
番号
 41
0.9374999999999998
  7
ACJISTS
100
AcDbText
1001
GENIUS_GENTRA_14
1002
{
1070
     1
1000
GENTRATX{2},%s,(GENMSG gendwg 98)
1000
番号
1000
JPN
1070
     0
1040
1.0
1070
     0
1002
}
  0
TEXT
  5
525
330
520
100
AcDbEntity
  8
AM_BOR
 62
     1
370
    25
100
AcDbText
 10
29.87999999999999
 20
-4.10577240549685
 30
0.0
 40
3.0
  1
履歴
  7
ACJISTS
100
AcDbText
1001
GENIUS_GENTRA_14
1002
{
1070
     1
1000
GENTRATX{43},%s,(GENMSG gendwg 96)
1000
履歴
1000
JPN
1070
     0
1040
1.0
1070
     0
1002
}
  0
LINE
  5
526
330
520
100
AcDbEntity
  8
0
100
AcDbLine
 10
0.0
 20
-5.347300637836809
 30
0.0
 11
0.0
 21
0.0
 31
0.0
  0
LINE
  5
527
330
520
100
AcDbEntity
  8
AM_BOR
 62
     1
370
    25
100
AcDbLine
 10
8.879999999999995
 20
-5.347300637836809
 30
0.0
 11
8.879999999999995
 21
0.0
 31
0.0
  0
LINE
  5
528
330
520
100
AcDbEntity
  8
AM_BOR
 62
     1
370
    25
100
AcDbLine
 10
28.88
 20
0.0
 30
0.0
 11
28.88
 21
-5.347300637836809
 31
0.0
  0
TEXT
  5
529
330
520
100
AcDbEntity
  8
AM_BOR
 62
     1
370
    25
100
AcDbText
 10
160.8542175266192
 20
-4.105772405495201
 30
0.0
 40
3.0
  1
名前
  7
ACJISTS
100
AcDbText
1001
GENIUS_GENTRA_14
1002
{
1070
     1
1000
GENTRATX{7},%s,(GENMSG gendwg 97)
1000
名前
1000
JPN
1070
     0
1040
1.0
1070
     0
1002
}
  0
LINE
  5
52A
330
520
100
AcDbEntity
  8
AM_BOR
 62
     1
370
    25
100
AcDbLine
 10
159.88
 20
0.0
 30
0.0
 11
159.88
 21
-5.347300637836838
 31
0.0
  0
LINE
  5
52B
330
520
100
AcDbEntity
  8
0
100
AcDbLine
 10
182.88
 20
0.0
 30
0.0
 11
182.88
 21
-5.347300637836838
 31
0.0
  0
ENDBLK
  5
52D
330
520
100
AcDbEntity
  8
0
100
AcDbBlockEnd
  0
BLOCK
  5
538
330
52E
100
AcDbEntity
  8
0
100
AcDbBlockBegin
  2
jis_bl_revisionlist
 70
     0
 10
0.0
 20
0.0
 30
0.0
  3
jis_bl_revisionlist
  1

  0
INSERT
  5
52F
330
52E
100
AcDbEntity
  8
0
100
AcDbBlockReference
 66
     1
  2
jis_bl_revisionlist1
 10
0.0
 20
15.34730060179461
 30
0.0
  0
ATTRIB
  5
530
330
52F
100
AcDbEntity
  8
AM_BOR
 62
     1
370
    25
100
AcDbText
 10
9.879999999999995
 20
6.347300601794955
 30
0.0
 40
3.0
  1

  7
ACJISTS
100
AcDbAttribute
  2
GEN-REV-BLK{6}
 70
     0
1001
GENIUS_GENBLLY_14
1000
BOR2
  0
ATTRIB
  5
531
330
52F
100
AcDbEntity
  8
AM_BOR
 62
     1
370
    25
100
AcDbText
 10
29.87999999999999
 20
6.347300601793136
 30
0.0
 40
3.0
  1

  7
ACJISTS
100
AcDbAttribute
  2
GEN-REV-TEXT2{43}
 70
     0
1001
GENIUS_GENBLLY_14
1000
BOR2
  0
ATTRIB
  5
532
330
52F
100
AcDbEntity
  8
AM_BOR
 62
     1
370
    25
100
AcDbText
 10
0.9326324110412542
 20
11.34730060179461
 30
0.0
 40
3.0
  1

  7
ACJISTS
100
AcDbAttribute
  2
GEN-REV-NR{2}
 70
     0
1001
GENIUS_GENBLLY_14
1000
BOR2
  0
ATTRIB
  5
533
330
52F
100
AcDbEntity
  8
AM_BOR
 62
     1
370
    25
100
AcDbText
 10
9.879999999999995
 20
11.34730060179495
 30
0.0
 40
3.0
  1

  7
ACJISTS
100
AcDbAttribute
  2
GEN-REV-DAT{6}
 70
     0
1001
GENIUS_GENBLLY_14
1000
BOR2
  0
ATTRIB
  5
534
330
52F
100
AcDbEntity
  8
AM_BOR
 62
     1
370
    25
100
AcDbText
 10
29.87999999999999
 20
11.34730060179313
 30
0.0
 40
3.0
  1

  7
ACJISTS
100
AcDbAttribute
  2
GEN-REV-TEXT1{43}
 70
     0
1001
GENIUS_GENBLLY_14
1000
BOR2
  0
ATTRIB
  5
535
330
52F
100
AcDbEntity
  8
AM_BOR
 62
     1
370
    25
100
AcDbText
 10
160.88
 20
11.63417285685059
 30
0.0
 40
3.0
  1

  7
ACJISTS
100
AcDbAttribute
  2
GEN-REV-NAME{7}
 70
     0
1001
GENIUS_GENBLLY_14
1000
BOR2
  0
SEQEND
  5
536
330
52F
100
AcDbEntity
  8
0
  0
INSERT
  5
537
330
52E
100
AcDbEntity
  8
0
100
AcDbBlockReference
  2
jis_bl_revisionlist0
 10
0.0
 20
5.347300637836809
 30
0.0
  0
ENDBLK
  5
539
330
52E
100
AcDbEntity
  8
0
100
AcDbBlockEnd
  0
BLOCK
  5
5E2
330
5D6
100
AcDbEntity
  8
0
100
AcDbBlockBegin
  2
jis_br_revisionlist0
 70
     0
 10
0.0
 20
0.0
 30
0.0
  3
jis_br_revisionlist0
  1

  0
TEXT
  5
5D7
330
5D6
100
AcDbEntity
  8
AM_BOR
 62
     1
370
    25
100
AcDbText
 10
-22.02578247338079
 20
-4.105772405495201
 30
0.0
 40
3.0
  1
名前
  7
ACJISTS
100
AcDbText
1001
GENIUS_GENBLLY_14
1000
BOR2
1001
GENIUS_GENTRA_14
1002
{
1070
     1
1000
GENTRATX{7},%s,(GENMSG gendwg 97)
1000
名前
1000
JPN
1070
     0
1040
1.0
1070
     0
1002
}
  0
TEXT
  5
5D8
330
5D6
100
AcDbEntity
  8
AM_BOR
 62
     1
370
    25
100
AcDbText
 10
-153.0
 20
-4.10577240549685
 30
0.0
 40
3.0
  1
履歴
  7
ACJISTS
100
AcDbText
1001
GENIUS_GENBLLY_14
1000
BOR2
1001
GENIUS_GENTRA_14
1002
{
1070
     1
1000
GENTRATX{43},%s,(GENMSG gendwg 96)
1000
履歴
1000
JPN
1070
     0
1040
1.0
1070
     0
1002
}
  0
LINE
  5
5D9
330
5D6
100
AcDbEntity
  8
0
100
AcDbLine
 10
0.0
 20
-5.347300637836838
 30
0.0
 11
-182.88
 21
-5.347300637836809
 31
0.0
  0
LINE
  5
5DA
330
5D6
100
AcDbEntity
  8
0
100
AcDbLine
 10
-182.88
 20
0.0
 30
0.0
 11
0.0
 21
0.0
 31
0.0
  0
TEXT
  5
5DB
330
5D6
100
AcDbEntity
  8
AM_BOR
 62
     1
370
    25
100
AcDbText
 10
-173.0
 20
-4.105772405495713
 30
0.0
 40
3.0
  1
日付
  7
ACJISTS
100
AcDbText
1001
GENIUS_GENBLLY_14
1000
BOR2
1001
GENIUS_GENTRA_14
1002
{
1070
     1
1000
GENTRATX{6},%s,(GENMSG gendwg 95)
1000
日付
1000
JPN
1070
     0
1040
1.0
1070
     0
1002
}
  0
TEXT
  5
5DC
330
5D6
100
AcDbEntity
  8
AM_BOR
 62
     1
370
    25
100
AcDbText
 10
-181.88
 20
-4.105772405495713
 30
0.0
 40
3.0
  1
番号
 41
0.9374999999999998
  7
ACJISTS
100
AcDbText
1001
GENIUS_GENBLLY_14
1000
BOR2
1001
GENIUS_GENTRA_14
1002
{
1070
     1
1000
GENTRATX{2},%s,(GENMSG gendwg 98)
1000
番号
1000
JPN
1070
     0
1040
1.0
1070
     0
1002
}
  0
LINE
  5
5DD
330
5D6
100
AcDbEntity
  8
0
100
AcDbLine
 10
-182.88
 20
-5.347300637836809
 30
0.0
 11
-182.88
 21
0.0
 31
0.0
  0
LINE
  5
5DE
330
5D6
100
AcDbEntity
  8
AM_BOR
 62
     1
370
    25
100
AcDbLine
 10
-174.0
 20
-5.347300637836809
 30
0.0
 11
-174.0
 21
0.0
 31
0.0
1001
GENIUS_GENBLLY_14
1000
BOR2
  0
LINE
  5
5DF
330
5D6
100
AcDbEntity
  8
AM_BOR
 62
     1
370
    25
100
AcDbLine
 10
-154.0
 20
0.0
 30
0.0
 11
-154.0
 21
-5.347300637836809
 31
0.0
1001
GENIUS_GENBLLY_14
1000
BOR2
  0
LINE
  5
5E0
330
5D6
100
AcDbEntity
  8
AM_BOR
 62
     1
370
    25
100
AcDbLine
 10
-23.0
 20
0.0
 30
0.0
 11
-23.0
 21
-5.347300637836838
 31
0.0
1001
GENIUS_GENBLLY_14
1000
BOR2
  0
LINE
  5
5E1
330
5D6
100
AcDbEntity
  8
0
100
AcDbLine
 10
0.0
 20
0.0
 30
0.0
 11
0.0
 21
-5.347300637836838
 31
0.0
  0
ENDBLK
  5
5E3
330
5D6
100
AcDbEntity
  8
0
100
AcDbBlockEnd
  0
BLOCK
  5
5F8
330
5E4
100
AcDbEntity
  8
0
100
AcDbBlockBegin
  2
jis_br_revisionlist1
 70
     2
 10
0.0
 20
0.0
 30
0.0
  3
jis_br_revisionlist1
  1

  0
LINE
  5
5E5
330
5E4
100
AcDbEntity
  8
0
100
AcDbLine
 10
0.0
 20
-5.0
 30
0.0
 11
0.0
 21
0.0
 31
0.0
  0
LINE
  5
5E6
330
5E4
100
AcDbEntity
  8
AM_BOR
 62
     1
370
    25
100
AcDbLine
 10
-23.0
 20
-5.0
 30
0.0
 11
-23.0
 21
0.0
 31
0.0
1001
GENIUS_GENBLLY_14
1000
BOR2
  0
ATTDEF
  5
5E7
330
5E4
100
AcDbEntity
  8
AM_BOR
 62
     1
370
    25
100
AcDbText
 10
-22.0
 20
-3.713127744944017
 30
0.0
 40
3.0
  1

  7
ACJISTS
100
AcDbAttributeDefinition
  3
名前
  2
GEN-REV-NAME{7}
 70
     0
1001
GENIUS_GENBLLY_14
1000
BOR2
1001
GENIUS_GENTRA_14
1002
{
1070
     3
1000
GENTRAPR,%s,(GENMSG gendwg 97)
1000
名前
1000
JPN
1070
     0
1070
     0
1002
}
  0
LINE
  5
5E8
330
5E4
100
AcDbEntity
  8
0
100
AcDbLine
 10
0.0
 20
-10.0
 30
0.0
 11
0.0
 21
-5.0
 31
0.0
  0
LINE
  5
5E9
330
5E4
100
AcDbEntity
  8
AM_BOR
 62
     1
370
    25
100
AcDbLine
 10
-23.0
 20
-10.0
 30
0.0
 11
-23.0
 21
-5.0
 31
0.0
1001
GENIUS_GENBLLY_14
1000
BOR2
  0
LINE
  5
5EA
330
5E4
100
AcDbEntity
  8
AM_BOR
 62
     1
370
    25
100
AcDbLine
 10
-154.0
 20
-5.0
 30
0.0
 11
-154.0
 21
0.0
 31
0.0
1001
GENIUS_GENBLLY_14
1000
BOR2
  0
LINE
  5
5EB
330
5E4
100
AcDbEntity
  8
AM_BOR
 62
     1
370
    25
100
AcDbLine
 10
-154.0
 20
-10.0
 30
0.0
 11
-154.0
 21
-5.0
 31
0.0
1001
GENIUS_GENBLLY_14
1000
BOR2
  0
ATTDEF
  5
5EC
330
5E4
100
AcDbEntity
  8
AM_BOR
 62
     1
370
    25
100
AcDbText
 10
-153.0
 20
-4.000000000001477
 30
0.0
 40
3.0
  1

  7
ACJISTS
100
AcDbAttributeDefinition
  3
履歴 1 行目
  2
GEN-REV-TEXT1{43}
 70
     0
1001
GENIUS_GENBLLY_14
1000
BOR2
1001
GENIUS_GENTRA_14
1002
{
1070
     3
1000
GENTRAPR,%s,(GENMSG gendwg 94)
1000
履歴 1 行目
1000
JPN
1070
     0
1070
     0
1002
}
  0
ATTDEF
  5
5ED
330
5E4
100
AcDbEntity
  8
AM_BOR
 62
     1
370
    25
100
AcDbText
 10
-153.0
 20
-9.000000000001477
 30
0.0
 40
3.0
  1

  7
ACJISTS
100
AcDbAttributeDefinition
  3
履歴 2 行目
  2
GEN-REV-TEXT2{43}
 70
     0
1001
GENIUS_GENBLLY_14
1000
BOR2
1001
GENIUS_GENTRA_14
1002
{
1070
     3
1000
GENTRAPR,%s,(GENMSG gendwg 92)
1000
履歴 2 行目
1000
JPN
1070
     0
1070
     0
1002
}
  0
LINE
  5
5EE
330
5E4
100
AcDbEntity
  8
0
100
AcDbLine
 10
-182.88
 20
0.0
 30
0.0
 11
-182.88
 21
-5.0
 31
0.0
  0
LINE
  5
5EF
330
5E4
100
AcDbEntity
  8
AM_BOR
 62
     1
370
    25
100
AcDbLine
 10
-174.0
 20
-10.0
 30
0.0
 11
-174.0
 21
0.0
 31
0.0
1001
GENIUS_GENBLLY_14
1000
BOR2
  0
LINE
  5
5F0
330
5E4
100
AcDbEntity
  8
0
100
AcDbLine
 10
-182.88
 20
-5.0
 30
0.0
 11
-182.88
 21
-10.0
 31
0.0
  0
LINE
  5
5F1
330
5E4
100
AcDbEntity
  8
0
100
AcDbLine
 10
-174.0
 20
-9.999999963957804
 30
0.0
 11
-174.0
 21
0.0
 31
0.0
  0
ATTDEF
  5
5F2
330
5E4
100
AcDbEntity
  8
AM_BOR
 62
     1
370
    25
100
AcDbText
 10
-173.0
 20
-8.999999999999658
 30
0.0
 40
3.0
  1

  7
ACJISTS
100
AcDbAttributeDefinition
  3
図面名
  2
GEN-REV-BLK{6}
 70
     0
1001
GENIUS_GENBLLY_14
1000
BOR2
1001
GENIUS_GENTRA_14
1002
{
1070
     3
1000
GENTRAPR,%s,(GENMSG gendwg 93)
1000
図面名
1000
JPN
1070
     0
1070
     0
1002
}
  0
ATTDEF
  5
5F3
330
5E4
100
AcDbEntity
  8
AM_BOR
 62
     1
370
    25
100
AcDbText
 10
-173.0
 20
-3.999999999999658
 30
0.0
 40
3.0
  1

  7
ACJISTS
100
AcDbAttributeDefinition
  3
日付
  2
GEN-REV-DAT{6}
 70
     0
1001
GENIUS_GENBLLY_14
1000
BOR2
1001
GENIUS_GENTRA_14
1002
{
1070
     3
1000
GENTRAPR,%s,(GENMSG gendwg 95)
1000
日付
1000
JPN
1070
     0
1070
     0
1002
}
  0
ATTDEF
  5
5F4
330
5E4
100
AcDbEntity
  8
AM_BOR
 62
     1
370
    25
100
AcDbText
 10
-181.9473675889587
 20
-4.0
 30
0.0
 40
3.0
  1

  7
ACJISTS
100
AcDbAttributeDefinition
  3
番号
  2
GEN-REV-NR{2}
 70
     0
1001
GENIUS_GENBLLY_14
1000
BOR2
1001
GENIUS_GENTRA_14
1002
{
1070
     3
1000
GENTRAPR,%s,(GENMSG gendwg 98)
1000
番号
1000
JPN
1070
     0
1070
     0
1002
}
  0
LINE
  5
5F5
330
5E4
100
AcDbEntity
  8
0
100
AcDbLine
 10
-182.8799999324707
 20
-9.999999963957804
 30
0.0
 11
0.0000000675292426
 21
-9.999999963957804
 31
0.0
  0
LINE
  5
5F6
330
5E4
100
AcDbEntity
  8
AM_BOR
 62
     1
370
    25
100
AcDbLine
 10
-154.0
 20
-5.0
 30
0.0
 11
-23.0
 21
-5.0
 31
0.0
1001
GENIUS_GENBLLY_14
1000
BOR2
  0
LINE
  5
5F7
330
5E4
100
AcDbEntity
  8
0
100
AcDbLine
 10
-182.88
 20
0.0
 30
0.0
 11
0.0
 21
0.0
 31
0.0
  0
ENDBLK
  5
5F9
330
5E4
100
AcDbEntity
  8
0
100
AcDbBlockEnd
  0
BLOCK
  5
604
330
5FA
100
AcDbEntity
  8
0
100
AcDbBlockBegin
  2
jis_br_revisionlist
 70
     0
 10
0.0
 20
0.0
 30
0.0
  3
jis_br_revisionlist
  1

  0
INSERT
  5
5FB
330
5FA
100
AcDbEntity
  8
0
100
AcDbBlockReference
 66
     1
  2
jis_br_revisionlist1
 10
0.0
 20
15.34730060179464
 30
0.0
  0
ATTRIB
  5
5FC
330
5FB
100
AcDbEntity
  8
AM_BOR
 62
     1
370
    25
100
AcDbText
 10
-22.0
 20
11.63417285685062
 30
0.0
 40
3.0
  1

  7
ACJISTS
100
AcDbAttribute
  2
GEN-REV-NAME{7}
 70
     0
1001
GENIUS_GENBLLY_14
1000
BOR2
  0
ATTRIB
  5
5FD
330
5FB
100
AcDbEntity
  8
AM_BOR
 62
     1
370
    25
100
AcDbText
 10
-153.0
 20
11.34730060179316
 30
0.0
 40
3.0
  1

  7
ACJISTS
100
AcDbAttribute
  2
GEN-REV-TEXT1{43}
 70
     0
1001
GENIUS_GENBLLY_14
1000
BOR2
  0
ATTRIB
  5
5FE
330
5FB
100
AcDbEntity
  8
AM_BOR
 62
     1
370
    25
100
AcDbText
 10
-153.0
 20
6.347300601793168
 30
0.0
 40
3.0
  1

  7
ACJISTS
100
AcDbAttribute
  2
GEN-REV-TEXT2{43}
 70
     0
1001
GENIUS_GENBLLY_14
1000
BOR2
  0
ATTRIB
  5
5FF
330
5FB
100
AcDbEntity
  8
AM_BOR
 62
     1
370
    25
100
AcDbText
 10
-173.0
 20
6.347300601794987
 30
0.0
 40
3.0
  1

  7
ACJISTS
100
AcDbAttribute
  2
GEN-REV-BLK{6}
 70
     0
1001
GENIUS_GENBLLY_14
1000
BOR2
  0
ATTRIB
  5
600
330
5FB
100
AcDbEntity
  8
AM_BOR
 62
     1
370
    25
100
AcDbText
 10
-173.0
 20
11.34730060179498
 30
0.0
 40
3.0
  1

  7
ACJISTS
100
AcDbAttribute
  2
GEN-REV-DAT{6}
 70
     0
1001
GENIUS_GENBLLY_14
1000
BOR2
  0
ATTRIB
  5
601
330
5FB
100
AcDbEntity
  8
AM_BOR
 62
     1
370
    25
100
AcDbText
 10
-181.9473675889587
 20
11.34730060179464
 30
0.0
 40
3.0
  1

  7
ACJISTS
100
AcDbAttribute
  2
GEN-REV-NR{2}
 70
     0
1001
GENIUS_GENBLLY_14
1000
BOR2
  0
SEQEND
  5
602
330
5FB
100
AcDbEntity
  8
0
  0
INSERT
  5
603
330
5FA
100
AcDbEntity
  8
0
100
AcDbBlockReference
  2
jis_br_revisionlist0
 10
0.0
 20
5.347300637836838
 30
0.0
  0
ENDBLK
  5
605
330
5FA
100
AcDbEntity
  8
0
100
AcDbBlockEnd
  0
BLOCK
  5
6BE
330
6A8
100
AcDbEntity
  8
0
100
AcDbBlockBegin
  2
IGS_A3
 70
     0
 10
0.0
 20
0.0
 30
0.0
  3
IGS_A3
  1

  0
LINE
  5
6A9
330
6A8
100
AcDbEntity
  8
AM_BOR
100
AcDbLine
 10
0.0
 20
0.0
 30
0.0
 11
0.0
 21
10.0
 31
0.0
  0
LINE
  5
6AA
330
6A8
100
AcDbEntity
  8
AM_BOR
100
AcDbLine
 10
0.0
 20
297.0
 30
0.0
 11
10.0
 21
297.0
 31
0.0
  0
LINE
  5
6AB
330
6A8
100
AcDbEntity
  8
AM_BOR
100
AcDbLine
 10
420.0
 20
297.0
 30
0.0
 11
420.0
 21
287.0
 31
0.0
  0
LINE
  5
6AC
330
6A8
100
AcDbEntity
  8
AM_BOR
100
AcDbLine
 10
420.0
 20
0.0
 30
0.0
 11
410.0
 21
0.0
 31
0.0
  0
LINE
  5
6AD
330
6A8
100
AcDbEntity
  8
0
100
AcDbLine
 10
25.0
 20
10.0
 30
0.0
 11
25.0
 21
287.0
 31
0.0
  0
LINE
  5
6AE
330
6A8
100
AcDbEntity
  8
0
100
AcDbLine
 10
410.0
 20
10.0
 30
0.0
 11
25.0
 21
10.0
 31
0.0
  0
LINE
  5
6AF
330
6A8
100
AcDbEntity
  8
0
100
AcDbLine
 10
410.0
 20
287.0
 30
0.0
 11
410.0
 21
10.0
 31
0.0
  0
LINE
  5
6B0
330
6A8
100
AcDbEntity
  8
0
100
AcDbLine
 10
25.0
 20
287.0
 30
0.0
 11
410.0
 21
287.0
 31
0.0
  0
LINE
  5
6B1
330
6A8
100
AcDbEntity
  8
AM_BOR
100
AcDbLine
 10
0.0
 20
287.0
 30
0.0
 11
0.0
 21
297.0
 31
0.0
  0
LINE
  5
6B2
330
6A8
100
AcDbEntity
  8
AM_BOR
100
AcDbLine
 10
10.0
 20
0.0
 30
0.0
 11
0.0
 21
0.0
 31
0.0
  0
LINE
  5
6B3
330
6A8
100
AcDbEntity
  8
AM_BOR
100
AcDbLine
 10
420.0
 20
10.0
 30
0.0
 11
420.0
 21
0.0
 31
0.0
  0
LINE
  5
6B4
330
6A8
100
AcDbEntity
  8
AM_BOR
100
AcDbLine
 10
410.0
 20
297.0
 30
0.0
 11
420.0
 21
297.0
 31
0.0
  0
TEXT
  5
6B5
330
6A8
100
AcDbEntity
  8
0
 60
     1
100
AcDbText
 10
410.0
 20
287.0
 30
0.0
 40
3.5
  1
!GENTITLE-RU
  7
ACJISTS
100
AcDbText
  0
TEXT
  5
6B6
330
6A8
100
AcDbEntity
  8
0
 60
     1
100
AcDbText
 10
420.0
 20
297.0
 30
0.0
 40
3.5
  1
!GENTITLE-MAX
  7
ACJISTS
100
AcDbText
  0
TEXT
  5
6B7
330
6A8
100
AcDbEntity
  8
0
 60
     1
100
AcDbText
 10
410.0
 20
10.0
 30
0.0
 40
3.5
  1
!GENTITLE-INSERT
  7
ACJISTS
100
AcDbText
  0
TEXT
  5
6B8
330
6A8
100
AcDbEntity
  8
0
 60
     1
100
AcDbText
 10
25.0
 20
10.0
 30
0.0
 40
3.5
  1
!GENTITLE-LL
  7
ACJISTS
100
AcDbText
  0
LINE
  5
6B9
330
6A8
100
AcDbEntity
  8
AM_BOR
 62
     1
370
    25
100
AcDbLine
 10
0.0
 20
297.0
 30
0.0
 11
420.0
 21
297.0
 31
0.0
  0
LINE
  5
6BA
330
6A8
100
AcDbEntity
  8
AM_BOR
 62
     1
370
    25
100
AcDbLine
 10
420.0
 20
297.0
 30
0.0
 11
420.0
 21
0.0
 31
0.0
  0
LINE
  5
6BB
330
6A8
100
AcDbEntity
  8
AM_BOR
 62
     1
370
    25
100
AcDbLine
 10
420.0
 20
0.0
 30
0.0
 11
0.0
 21
0.0
 31
0.0
  0
LINE
  5
6BC
330
6A8
100
AcDbEntity
  8
AM_BOR
 62
     1
370
    25
100
AcDbLine
 10
0.0
 20
0.0
 30
0.0
 11
0.0
 21
297.0
 31
0.0
  0
TEXT
  5
6BD
330
6A8
100
AcDbEntity
  8
DEFPOINTS
100
AcDbText
 10
19.5941472374451
 20
2.504073349097552
 30
0.0
 40
5.0
  1
A3
100
AcDbText
  0
ENDBLK
  5
6BF
330
6A8
100
AcDbEntity
  8
0
100
AcDbBlockEnd
  0
BLOCK
  5
6552
330
6533
100
AcDbEntity
  8
0
100
AcDbBlockBegin
  2
*D19
 70
     1
 10
0.0
 20
0.0
 30
0.0
  3
*D19
  1

  0
LINE
  5
6928
330
6533
100
AcDbEntity
  8
AM_5
100
AcDbLine
 10
1838.535062443572
 20
1373.312297173261
 30
0.0
 11
1838.535062443572
 21
1433.312297173261
 31
0.0
  0
LINE
  5
6929
330
6533
100
AcDbEntity
  8
AM_5
100
AcDbLine
 10
2035.535107443572
 20
1373.312297173261
 30
0.0
 11
2035.535107443572
 21
1433.312297173261
 31
0.0
  0
LINE
  5
692A
330
6533
100
AcDbEntity
  8
AM_5
100
AcDbLine
 10
1851.035062443572
 20
1428.312297173261
 30
0.0
 11
2023.035107443572
 21
1428.312297173261
 31
0.0
  0
INSERT
  5
692B
330
6533
100
AcDbEntity
  8
AM_5
100
AcDbBlockReference
  2
_Open30
 10
1838.535062443572
 20
1428.312297173261
 30
0.0
 41
12.5
 42
12.5
 43
12.5
 50
180.0
  0
INSERT
  5
692C
330
6533
100
AcDbEntity
  8
AM_5
100
AcDbBlockReference
  2
_Open30
 10
2035.535107443572
 20
1428.312297173261
 30
0.0
 41
12.5
 42
12.5
 43
12.5
  0
MTEXT
  5
692D
330
6533
100
AcDbEntity
  8
AM_5
 62
     2
100
AcDbMText
 10
1937.035084943572
 20
1443.312297173261
 30
0.0
 40
15.0
 41
0.0
 71
     5
 72
     1
  1
%%c197
 73
     1
 44
1.0
  0
POINT
  5
692E
330
6533
100
AcDbEntity
  8
DEFPOINTS
 62
     0
100
AcDbPoint
 10
1838.535062443572
 20
1368.312297173261
 30
0.0
  0
POINT
  5
692F
330
6533
100
AcDbEntity
  8
DEFPOINTS
 62
     0
100
AcDbPoint
 10
2035.535107443572
 20
1368.312297173261
 30
0.0
  0
POINT
  5
6930
330
6533
100
AcDbEntity
  8
DEFPOINTS
 62
     0
100
AcDbPoint
 10
2035.535107443572
 20
1428.312297173261
 30
0.0
  0
ENDBLK
  5
6553
330
6533
100
AcDbEntity
  8
0
100
AcDbBlockEnd
  0
BLOCK
  5
65BB
330
6564
100
AcDbEntity
  8
0
100
AcDbBlockBegin
  2
*D20
 70
     1
 10
0.0
 20
0.0
 30
0.0
  3
*D20
  1

  0
LINE
  5
691F
330
6564
100
AcDbEntity
  8
AM_5
100
AcDbLine
 10
2035.53510700724
 20
1373.312297260528
 30
0.0
 11
2308.522442273063
 21
1373.312297260528
 31
0.0
  0
LINE
  5
6920
330
6564
100
AcDbEntity
  8
AM_5
100
AcDbLine
 10
2248.522442273062
 20
673.3122972605278
 30
0.0
 11
2308.522442273063
 21
673.3122972605277
 31
0.0
  0
LINE
  5
6921
330
6564
100
AcDbEntity
  8
AM_5
100
AcDbLine
 10
2303.522442273063
 20
1360.812297260528
 30
0.0
 11
2303.522442273063
 21
685.8122972605278
 31
0.0
  0
INSERT
  5
6922
330
6564
100
AcDbEntity
  8
AM_5
100
AcDbBlockReference
  2
_Open30
 10
2303.522442273063
 20
1373.312297260528
 30
0.0
 41
12.5
 42
12.5
 43
12.5
 50
90.0
  0
INSERT
  5
6923
330
6564
100
AcDbEntity
  8
AM_5
100
AcDbBlockReference
  2
_Open30
 10
2303.522442273063
 20
673.3122972605278
 30
0.0
 41
12.5
 42
12.5
 43
12.5
 50
270.0
  0
MTEXT
  5
6924
330
6564
100
AcDbEntity
  8
AM_5
 62
     2
100
AcDbMText
 10
2288.522442273063
 20
1023.312297260528
 30
0.0
 40
15.0
 41
0.0
 71
     5
 72
     1
  1
700
 11
0.0000000000000001
 21
1.0
 31
0.0
 73
     1
 44
1.0
  0
POINT
  5
6925
330
6564
100
AcDbEntity
  8
DEFPOINTS
 62
     0
100
AcDbPoint
 10
2030.53510700724
 20
1373.312297260528
 30
0.0
  0
POINT
  5
6926
330
6564
100
AcDbEntity
  8
DEFPOINTS
 62
     0
100
AcDbPoint
 10
2243.522442273063
 20
673.3122972605278
 30
0.0
  0
POINT
  5
6927
330
6564
100
AcDbEntity
  8
DEFPOINTS
 62
     0
100
AcDbPoint
 10
2303.522442273063
 20
673.3122972605278
 30
0.0
  0
ENDBLK
  5
65BC
330
6564
100
AcDbEntity
  8
0
100
AcDbBlockEnd
  0
BLOCK
  5
65BD
330
658A
100
AcDbEntity
  8
0
100
AcDbBlockBegin
  2
*D21
 70
     1
 10
0.0
 20
0.0
 30
0.0
  3
*D21
  1

  0
LINE
  5
6916
330
658A
100
AcDbEntity
  8
AM_5
100
AcDbLine
 10
2192.035122443573
 20
-36.54013772273994
 30
0.0
 11
2308.522442273063
 21
-36.54013772273997
 31
0.0
  0
LINE
  5
6917
330
658A
100
AcDbEntity
  8
AM_5
100
AcDbLine
 10
2248.522442273062
 20
673.3122972605278
 30
0.0
 11
2308.522442273063
 21
673.3122972605277
 31
0.0
  0
LINE
  5
6918
330
658A
100
AcDbEntity
  8
AM_5
100
AcDbLine
 10
2303.522442273063
 20
-24.04013772273997
 30
0.0
 11
2303.522442273063
 21
660.8122972605278
 31
0.0
  0
INSERT
  5
6919
330
658A
100
AcDbEntity
  8
AM_5
100
AcDbBlockReference
  2
_Open30
 10
2303.522442273063
 20
-36.54013772273997
 30
0.0
 41
12.5
 42
12.5
 43
12.5
 50
270.0
  0
INSERT
  5
691A
330
658A
100
AcDbEntity
  8
AM_5
100
AcDbBlockReference
  2
_Open30
 10
2303.522442273063
 20
673.3122972605278
 30
0.0
 41
12.5
 42
12.5
 43
12.5
 50
90.0
  0
MTEXT
  5
691B
330
658A
100
AcDbEntity
  8
AM_5
 62
     2
100
AcDbMText
 10
2288.522442273063
 20
318.3860797688943
 30
0.0
 40
15.0
 41
0.0
 71
     5
 72
     1
  1
880
 11
0.0000000000000001
 21
1.0
 31
0.0
 73
     1
 44
1.0
  0
POINT
  5
691C
330
658A
100
AcDbEntity
  8
DEFPOINTS
 62
     0
100
AcDbPoint
 10
2187.035122443573
 20
-36.54013772273993
 30
0.0
  0
POINT
  5
691D
330
658A
100
AcDbEntity
  8
DEFPOINTS
 62
     0
100
AcDbPoint
 10
2243.522442273063
 20
673.3122972605278
 30
0.0
  0
POINT
  5
691E
330
658A
100
AcDbEntity
  8
DEFPOINTS
 62
     0
100
AcDbPoint
 10
2303.522442273063
 20
673.3122972605278
 30
0.0
  0
ENDBLK
  5
65BE
330
658A
100
AcDbEntity
  8
0
100
AcDbBlockEnd
  0
BLOCK
  5
65BF
330
65A5
100
AcDbEntity
  8
0
100
AcDbBlockBegin
  2
*D22
 70
     1
 10
0.0
 20
0.0
 30
0.0
  3
*D22
  1

  0
LINE
  5
690D
330
65A5
100
AcDbEntity
  8
AM_5
100
AcDbLine
 10
2192.035122443573
 20
-136.5401377227399
 30
0.0
 11
2308.522442273063
 21
-136.5401377227399
 31
0.0
  0
LINE
  5
690E
330
65A5
100
AcDbEntity
  8
AM_5
100
AcDbLine
 10
2192.035122443573
 20
-36.54013772273994
 30
0.0
 11
2308.522442273063
 21
-36.54013772273997
 31
0.0
  0
LINE
  5
690F
330
65A5
100
AcDbEntity
  8
AM_5
100
AcDbLine
 10
2303.522442273063
 20
-124.0401377227399
 30
0.0
 11
2303.522442273063
 21
-49.04013772273996
 31
0.0
  0
INSERT
  5
6910
330
65A5
100
AcDbEntity
  8
AM_5
100
AcDbBlockReference
  2
_Open30
 10
2303.522442273063
 20
-136.5401377227399
 30
0.0
 41
12.5
 42
12.5
 43
12.5
 50
270.0
  0
INSERT
  5
6911
330
65A5
100
AcDbEntity
  8
AM_5
100
AcDbBlockReference
  2
_Open30
 10
2303.522442273063
 20
-36.54013772273997
 30
0.0
 41
12.5
 42
12.5
 43
12.5
 50
90.0
  0
MTEXT
  5
6912
330
65A5
100
AcDbEntity
  8
AM_5
 62
     2
100
AcDbMText
 10
2288.520965895111
 20
-86.54013772273959
 30
0.0
 40
15.0
 41
0.0
 71
     5
 72
     1
  1
150～200
 11
0.0000000000000001
 21
1.0
 31
0.0
 73
     1
 44
1.0
  0
POINT
  5
6913
330
65A5
100
AcDbEntity
  8
DEFPOINTS
 62
     0
100
AcDbPoint
 10
2187.035122443573
 20
-136.5401377227399
 30
0.0
  0
POINT
  5
6914
330
65A5
100
AcDbEntity
  8
DEFPOINTS
 62
     0
100
AcDbPoint
 10
2187.035122443573
 20
-36.54013772273993
 30
0.0
  0
POINT
  5
6915
330
65A5
100
AcDbEntity
  8
DEFPOINTS
 62
     0
100
AcDbPoint
 10
2303.522442273063
 20
-36.54013772273997
 30
0.0
  0
ENDBLK
  5
65C0
330
65A5
100
AcDbEntity
  8
0
100
AcDbBlockEnd
  0
BLOCK
  5
660A
330
65F4
100
AcDbEntity
  8
0
100
AcDbBlockBegin
  2
*D23
 70
     1
 10
0.0
 20
0.0
 30
0.0
  3
*D23
  1

  0
LINE
  5
6904
330
65F4
100
AcDbEntity
  8
AM_5
100
AcDbLine
 10
2192.035122443573
 20
673.3122972605279
 30
0.0
 11
2252.035122443574
 21
673.3122972605279
 31
0.0
  0
LINE
  5
6905
330
65F4
100
AcDbEntity
  8
AM_5
100
AcDbLine
 10
2192.035122443573
 20
423.3122972605278
 30
0.0
 11
2252.035122443574
 21
423.3122972605278
 31
0.0
  0
LINE
  5
6906
330
65F4
100
AcDbEntity
  8
AM_5
100
AcDbLine
 10
2247.035122443573
 20
660.8122972605279
 30
0.0
 11
2247.035122443573
 21
435.8122972605278
 31
0.0
  0
INSERT
  5
6907
330
65F4
100
AcDbEntity
  8
AM_5
100
AcDbBlockReference
  2
_Open30
 10
2247.035122443573
 20
673.3122972605279
 30
0.0
 41
12.5
 42
12.5
 43
12.5
 50
90.0
  0
INSERT
  5
6908
330
65F4
100
AcDbEntity
  8
AM_5
100
AcDbBlockReference
  2
_Open30
 10
2247.035122443573
 20
423.3122972605278
 30
0.0
 41
12.5
 42
12.5
 43
12.5
 50
270.0
  0
MTEXT
  5
6909
330
65F4
100
AcDbEntity
  8
AM_5
 62
     2
100
AcDbMText
 10
2232.033646065621
 20
548.3122972605283
 30
0.0
 40
15.0
 41
0.0
 71
     5
 72
     1
  1
250
 11
0.0000000000000001
 21
1.0
 31
0.0
 73
     1
 44
1.0
  0
POINT
  5
690A
330
65F4
100
AcDbEntity
  8
DEFPOINTS
 62
     0
100
AcDbPoint
 10
2187.035122443573
 20
673.3122972605279
 30
0.0
  0
POINT
  5
690B
330
65F4
100
AcDbEntity
  8
DEFPOINTS
 62
     0
100
AcDbPoint
 10
2187.035122443573
 20
423.3122972605278
 30
0.0
  0
POINT
  5
690C
330
65F4
100
AcDbEntity
  8
DEFPOINTS
 62
     0
100
AcDbPoint
 10
2247.035122443573
 20
423.3122972605278
 30
0.0
  0
ENDBLK
  5
660B
330
65F4
100
AcDbEntity
  8
0
100
AcDbBlockEnd
  0
BLOCK
  5
6632
330
661C
100
AcDbEntity
  8
0
100
AcDbBlockBegin
  2
*D24
 70
     1
 10
0.0
 20
0.0
 30
0.0
  3
*D24
  1

  0
LINE
  5
69CA
330
661C
100
AcDbEntity
  8
AM_5
100
AcDbLine
 10
1687.035047443573
 20
418.3122972605278
 30
0.0
 11
1687.035047443573
 21
325.6257475303992
 31
0.0
  0
LINE
  5
69CB
330
661C
100
AcDbEntity
  8
AM_5
100
AcDbLine
 10
2187.035122443572
 20
418.3122972605278
 30
0.0
 11
2187.035122443572
 21
325.6257475303992
 31
0.0
  0
LINE
  5
69CC
330
661C
100
AcDbEntity
  8
AM_5
100
AcDbLine
 10
1699.535047443573
 20
330.6257475303992
 30
0.0
 11
2174.535122443572
 21
330.6257475303992
 31
0.0
  0
INSERT
  5
69CD
330
661C
100
AcDbEntity
  8
AM_5
100
AcDbBlockReference
  2
_Open30
 10
1687.035047443573
 20
330.6257475303992
 30
0.0
 41
12.5
 42
12.5
 43
12.5
 50
180.0
  0
INSERT
  5
69CE
330
661C
100
AcDbEntity
  8
AM_5
100
AcDbBlockReference
  2
_Open30
 10
2187.035122443572
 20
330.6257475303992
 30
0.0
 41
12.5
 42
12.5
 43
12.5
  0
MTEXT
  5
69CF
330
661C
100
AcDbEntity
  8
AM_5
 62
     2
100
AcDbMText
 10
1937.035084943572
 20
345.6257475303992
 30
0.0
 40
15.0
 41
0.0
 71
     5
 72
     1
  1
{\Famgdt|c128;o}500
 73
     1
 44
1.0
  0
POINT
  5
69D0
330
661C
100
AcDbEntity
  8
DEFPOINTS
 62
     0
100
AcDbPoint
 10
1687.035047443573
 20
423.3122972605278
 30
0.0
  0
POINT
  5
69D1
330
661C
100
AcDbEntity
  8
DEFPOINTS
 62
     0
100
AcDbPoint
 10
2187.035122443572
 20
423.3122972605277
 30
0.0
  0
POINT
  5
69D2
330
661C
100
AcDbEntity
  8
DEFPOINTS
 62
     0
100
AcDbPoint
 10
2187.035122443572
 20
330.6257475303992
 30
0.0
  0
ENDBLK
  5
6633
330
661C
100
AcDbEntity
  8
0
100
AcDbBlockEnd
  0
BLOCK
  5
669E
330
667F
100
AcDbEntity
  8
0
100
AcDbBlockBegin
  2
*D25
 70
     1
 10
0.0
 20
0.0
 30
0.0
  3
*D25
  1

  0
LINE
  5
68F2
330
667F
100
AcDbEntity
  8
AM_5
100
AcDbLine
 10
1854.535047443573
 20
142.471787344477
 30
0.0
 11
1854.535047443573
 21
82.4717873444769
 31
0.0
  0
LINE
  5
68F3
330
667F
100
AcDbEntity
  8
AM_5
100
AcDbLine
 10
2019.535122443572
 20
142.471787344477
 30
0.0
 11
2019.535122443572
 21
82.4717873444769
 31
0.0
  0
LINE
  5
68F4
330
667F
100
AcDbEntity
  8
AM_5
100
AcDbLine
 10
1867.035047443573
 20
87.4717873444769
 30
0.0
 11
2007.035122443573
 21
87.4717873444769
 31
0.0
  0
INSERT
  5
68F5
330
667F
100
AcDbEntity
  8
AM_5
100
AcDbBlockReference
  2
_Open30
 10
1854.535047443573
 20
87.4717873444769
 30
0.0
 41
12.5
 42
12.5
 43
12.5
 50
180.0
  0
INSERT
  5
68F6
330
667F
100
AcDbEntity
  8
AM_5
100
AcDbBlockReference
  2
_Open30
 10
2019.535122443572
 20
87.4717873444769
 30
0.0
 41
12.5
 42
12.5
 43
12.5
  0
MTEXT
  5
68F7
330
667F
100
AcDbEntity
  8
AM_5
 62
     2
100
AcDbMText
 10
1937.035084943573
 20
102.4717873444769
 30
0.0
 40
15.0
 41
0.0
 71
     5
 72
     1
  1
%%c165
 73
     1
 44
1.0
  0
POINT
  5
68F8
330
667F
100
AcDbEntity
  8
DEFPOINTS
 62
     0
100
AcDbPoint
 10
1854.535047443573
 20
147.471787344477
 30
0.0
  0
POINT
  5
68F9
330
667F
100
AcDbEntity
  8
DEFPOINTS
 62
     0
100
AcDbPoint
 10
2019.535122443572
 20
147.471787344477
 30
0.0
  0
POINT
  5
68FA
330
667F
100
AcDbEntity
  8
DEFPOINTS
 62
     0
100
AcDbPoint
 10
2019.535122443572
 20
87.4717873444769
 30
0.0
  0
ENDBLK
  5
669F
330
667F
100
AcDbEntity
  8
0
100
AcDbBlockEnd
  0
BLOCK
  5
66E1
330
66C2
100
AcDbEntity
  8
0
100
AcDbBlockBegin
  2
*D26
 70
     1
 10
0.0
 20
0.0
 30
0.0
  3
*D26
  1

  0
LINE
  5
68E9
330
66C2
100
AcDbEntity
  8
AM_5
100
AcDbLine
 10
1837.035047443572
 20
685.8122972605278
 30
0.0
 11
1837.035047443572
 21
745.812297260528
 31
0.0
  0
LINE
  5
68EA
330
66C2
100
AcDbEntity
  8
AM_5
100
AcDbLine
 10
2037.035122443572
 20
685.8122972605278
 30
0.0
 11
2037.035122443572
 21
745.812297260528
 31
0.0
  0
LINE
  5
68EB
330
66C2
100
AcDbEntity
  8
AM_5
100
AcDbLine
 10
1849.535047443573
 20
740.812297260528
 30
0.0
 11
2024.535122443573
 21
740.812297260528
 31
0.0
  0
INSERT
  5
68EC
330
66C2
100
AcDbEntity
  8
AM_5
100
AcDbBlockReference
  2
_Open30
 10
1837.035047443572
 20
740.812297260528
 30
0.0
 41
12.5
 42
12.5
 43
12.5
 50
180.0
  0
INSERT
  5
68ED
330
66C2
100
AcDbEntity
  8
AM_5
100
AcDbBlockReference
  2
_Open30
 10
2037.035122443572
 20
740.812297260528
 30
0.0
 41
12.5
 42
12.5
 43
12.5
  0
MTEXT
  5
68EE
330
66C2
100
AcDbEntity
  8
AM_5
 62
     2
100
AcDbMText
 10
1937.035084943573
 20
755.8137736384807
 30
0.0
 40
15.0
 41
0.0
 71
     5
 72
     1
  1
%%c200
 73
     1
 44
1.0
  0
POINT
  5
68EF
330
66C2
100
AcDbEntity
  8
DEFPOINTS
 62
     0
100
AcDbPoint
 10
1837.035047443572
 20
680.8122972605278
 30
0.0
  0
POINT
  5
68F0
330
66C2
100
AcDbEntity
  8
DEFPOINTS
 62
     0
100
AcDbPoint
 10
2037.035122443572
 20
680.8122972605278
 30
0.0
  0
POINT
  5
68F1
330
66C2
100
AcDbEntity
  8
DEFPOINTS
 62
     0
100
AcDbPoint
 10
2037.035122443572
 20
740.812297260528
 30
0.0
  0
ENDBLK
  5
66E2
330
66C2
100
AcDbEntity
  8
0
100
AcDbBlockEnd
  0
BLOCK
  5
6719
330
66FA
100
AcDbEntity
  8
0
100
AcDbBlockBegin
  2
*D27
 70
     1
 10
0.0
 20
0.0
 30
0.0
  3
*D27
  1

  0
LINE
  5
68E0
330
66FA
100
AcDbEntity
  8
AM_5
100
AcDbLine
 10
1879.885082443572
 20
1002.3759967807
 30
0.0
 11
1879.885082443572
 21
1025.434059993226
 31
0.0
  0
LINE
  5
68E1
330
66FA
100
AcDbEntity
  8
AM_5
100
AcDbLine
 10
1994.185082443572
 20
1002.3759967807
 30
0.0
 11
1994.185082443572
 21
1025.434059993226
 31
0.0
  0
LINE
  5
68E2
330
66FA
100
AcDbEntity
  8
AM_5
100
AcDbLine
 10
1892.385082443572
 20
1020.434059993226
 30
0.0
 11
1981.685082443572
 21
1020.434059993226
 31
0.0
  0
INSERT
  5
68E3
330
66FA
100
AcDbEntity
  8
AM_5
100
AcDbBlockReference
  2
_Open30
 10
1879.885082443572
 20
1020.434059993226
 30
0.0
 41
12.5
 42
12.5
 43
12.5
 50
180.0
  0
INSERT
  5
68E4
330
66FA
100
AcDbEntity
  8
AM_5
100
AcDbBlockReference
  2
_Open30
 10
1994.185082443572
 20
1020.434059993226
 30
0.0
 41
12.5
 42
12.5
 43
12.5
  0
MTEXT
  5
68E5
330
66FA
100
AcDbEntity
  8
AM_5
 62
     2
100
AcDbMText
 10
1937.035082443572
 20
1035.435536371178
 30
0.0
 40
15.0
 41
0.0
 71
     5
 72
     1
  1
%%c114.3×2.5
 73
     1
 44
1.0
  0
POINT
  5
68E6
330
66FA
100
AcDbEntity
  8
DEFPOINTS
 62
     0
100
AcDbPoint
 10
1879.885082443572
 20
997.3759967807
 30
0.0
  0
POINT
  5
68E7
330
66FA
100
AcDbEntity
  8
DEFPOINTS
 62
     0
100
AcDbPoint
 10
1994.185082443572
 20
997.3759967807
 30
0.0
  0
POINT
  5
68E8
330
66FA
100
AcDbEntity
  8
DEFPOINTS
 62
     0
100
AcDbPoint
 10
1994.185082443572
 20
1020.434059993226
 30
0.0
  0
ENDBLK
  5
671A
330
66FA
100
AcDbEntity
  8
0
100
AcDbBlockEnd
  0
BLOCK
  5
6803
330
6801
100
AcDbEntity
  8
0
100
AcDbBlockBegin
  2
PCUT
 70
     0
 10
0.0
 20
0.0
 30
0.0
  3
PCUT
  1

  0
LWPOLYLINE
  5
6802
330
6801
100
AcDbEntity
  8
0
100
AcDbPolyline
 90
        4
 70
     0
 43
0.0
 10
0.4999999999927241
 20
0.000000000007276
 42
-0.3999999999951828
 10
0.999999999992724
 20
0.000000000007276
 42
-0.4000000000192688
 10
0.4999999999927241
 20
0.000000000007276
 42
0.3999999999951828
 10
-0.000000000007276
 20
0.000000000007276
  0
ENDBLK
  5
6804
330
6801
100
AcDbEntity
  8
0
100
AcDbBlockEnd
  0
BLOCK
  5
693B
330
693A
100
AcDbEntity
  8
0
100
AcDbBlockBegin
  2
NAKAMURA
 70
     0
 10
0.0
 20
0.0
 30
0.0
  3
NAKAMURA
  1

  0
CIRCLE
  5
693C
330
693A
100
AcDbEntity
  8
0
100
AcDbCircle
 10
0.0
 20
-0.0000000000000071
 30
0.0
 40
5.75
  0
LINE
  5
693D
330
693A
100
AcDbEntity
  8
0
100
AcDbLine
 10
5.390964663212002
 20
2.0
 30
0.0
 11
-5.390964663211889
 21
1.999999999999985
 31
0.0
  0
TEXT
  5
693E
330
693A
100
AcDbEntity
  8
0
100
AcDbText
 10
-1.40956822548013
 20
2.272712767880801
 30
0.0
 40
2.875000000632499
  1
藤
 50
0.000000000000708
 72
     4
 11
-0.0679015585183152
 21
3.710212768197067
 31
0.0
100
AcDbText
  0
TEXT
  5
693F
330
693A
100
AcDbEntity
  8
0
100
AcDbText
 10
-1.227410318497265
 20
-5.354429741660606
 30
0.0
 40
2.875000000632499
  1
繁
 50
0.000000000000708
 72
     4
 11
0.1142563484645507
 21
-3.91692974134434
 31
0.0
100
AcDbText
  0
LINE
  5
6940
330
693A
100
AcDbEntity
  8
0
100
AcDbLine
 10
5.390964663212002
 20
-1.999999999999964
 30
0.0
 11
-5.390964663211889
 21
-2.000000000000021
 31
0.0
  0
ENDBLK
  5
6941
330
693A
100
AcDbEntity
  8
0
100
AcDbBlockEnd
  0
BLOCK
  5
6A25
330
6A1E
100
AcDbEntity
  8
0
100
AcDbBlockBegin
  2
*S30
 70
     1
 10
0.0
 20
0.0
 30
0.0
  3
*S30
  1

  0
LINE
  5
6A1F
330
6A1E
100
AcDbEntity
  8
AM_5
100
AcDbLine
 10
1533.138486298342
 20
279.9520942299387
 30
0.0
 11
1698.296824363988
 21
279.9520942299387
 31
0.0
  0
LINE
  5
6A20
330
6A1E
100
AcDbEntity
  8
AM_5
100
AcDbLine
 10
1698.296824363988
 20
279.9520942299387
 30
0.0
 11
1751.218609327733
 21
414.655612116258
 31
0.0
  0
LINE
  5
6A21
330
6A1E
100
AcDbEntity
  8
AM_5
100
AcDbLine
 10
1751.218609327733
 20
414.655612116258
 30
0.0
 11
1756.977874199305
 21
429.3148538476398
 31
0.0
  0
LINE
  5
6A22
330
6A1E
100
AcDbEntity
  8
AM_5
100
AcDbLine
 10
1753.148535105796
 20
413.8973905150312
 30
0.0
 11
1756.977874199305
 21
429.3148538476398
 31
0.0
  0
LINE
  5
6A23
330
6A1E
100
AcDbEntity
  8
AM_5
100
AcDbLine
 10
1756.977874199305
 20
429.3148538476398
 30
0.0
 11
1749.28868354967
 21
415.4138337174847
 31
0.0
  0
MTEXT
  5
6A24
330
6A1E
100
AcDbEntity
  8
AM_5
 62
     2
100
AcDbMText
 10
1682.546824363988
 20
287.8270942299387
 30
0.0
 40
15.75
 41
0.0
 71
     9
 72
     5
  1
基礎コンクリート
  7
ACJISTS
 73
     1
 44
1.0
  0
ENDBLK
  5
6A26
330
6A1E
100
AcDbEntity
  8
0
100
AcDbBlockEnd
  0
BLOCK
  5
6A2F
330
6A28
100
AcDbEntity
  8
0
100
AcDbBlockBegin
  2
*S31
 70
     1
 10
0.0
 20
0.0
 30
0.0
  3
*S31
  1

  0
LINE
  5
6A29
330
6A28
100
AcDbEntity
  8
AM_5
100
AcDbLine
 10
1614.626534993581
 20
720.3343384407653
 30
0.0
 11
1701.514034993581
 21
720.3343384407653
 31
0.0
  0
LINE
  5
6A2A
330
6A28
100
AcDbEntity
  8
AM_5
100
AcDbLine
 10
1701.514034993581
 20
720.3343384407653
 30
0.0
 11
1801.909760381954
 21
593.0348255035528
 31
0.0
  0
LINE
  5
6A2B
330
6A28
100
AcDbEntity
  8
AM_5
100
AcDbLine
 10
1801.909760381954
 20
593.0348255035528
 30
0.0
 11
1811.662939208822
 21
580.6680149700672
 31
0.0
  0
LINE
  5
6A2C
330
6A28
100
AcDbEntity
  8
AM_5
100
AcDbLine
 10
1800.281638895295
 20
591.750795157308
 30
0.0
 11
1811.662939208822
 21
580.6680149700672
 31
0.0
  0
LINE
  5
6A2D
330
6A28
100
AcDbEntity
  8
AM_5
100
AcDbLine
 10
1811.662939208822
 20
580.6680149700672
 30
0.0
 11
1803.537881868614
 21
594.3188558497975
 31
0.0
  0
MTEXT
  5
6A2E
330
6A28
100
AcDbEntity
  8
AM_5
 62
     2
100
AcDbMText
 10
1685.764034993581
 20
728.2093384407653
 30
0.0
 40
15.75
 41
0.0
 71
     9
 72
     5
  1
アンカー
  7
ACJISTS
 73
     1
 44
1.0
  0
ENDBLK
  5
6A30
330
6A28
100
AcDbEntity
  8
0
100
AcDbBlockEnd
  0
BLOCK
  5
6A39
330
6A32
100
AcDbEntity
  8
0
100
AcDbBlockBegin
  2
*S32
 70
     1
 10
0.0
 20
0.0
 30
0.0
  3
*S32
  1

  0
LINE
  5
6A33
330
6A32
100
AcDbEntity
  8
AM_5
100
AcDbLine
 10
1558.111483840882
 20
429.9747831715421
 30
0.0
 11
1626.098983840882
 21
429.9747831715421
 31
0.0
  0
LINE
  5
6A34
330
6A32
100
AcDbEntity
  8
AM_5
100
AcDbLine
 10
1626.098983840882
 20
429.9747831715421
 30
0.0
 11
1823.619581581044
 21
551.4649717263502
 31
0.0
  0
LINE
  5
6A35
330
6A32
100
AcDbEntity
  8
AM_5
100
AcDbLine
 10
1823.619581581044
 20
551.4649717263502
 30
0.0
 11
1837.035047443572
 21
559.7165034442387
 31
0.0
  0
LINE
  5
6A36
330
6A32
100
AcDbEntity
  8
AM_5
100
AcDbLine
 10
1824.705916335778
 20
549.6987921471299
 30
0.0
 11
1837.035047443572
 21
559.7165034442387
 31
0.0
  0
LINE
  5
6A37
330
6A32
100
AcDbEntity
  8
AM_5
100
AcDbLine
 10
1837.035047443572
 20
559.7165034442387
 30
0.0
 11
1822.533246826309
 21
553.2311513055703
 31
0.0
  0
MTEXT
  5
6A38
330
6A32
100
AcDbEntity
  8
AM_5
 62
     2
100
AcDbMText
 10
1610.348983840882
 20
437.8497831715422
 30
0.0
 40
15.75
 41
0.0
 71
     9
 72
     5
  1
ベース
  7
ACJISTS
 73
     1
 44
1.0
  0
ENDBLK
  5
6A3A
330
6A32
100
AcDbEntity
  8
0
100
AcDbBlockEnd
  0
BLOCK
  5
6A43
330
6A3C
100
AcDbEntity
  8
0
100
AcDbBlockBegin
  2
*S33
 70
     1
 10
0.0
 20
0.0
 30
0.0
  3
*S33
  1

  0
LINE
  5
6A3D
330
6A3C
100
AcDbEntity
  8
AM_5
100
AcDbLine
 10
1658.555879800172
 20
782.5561613251738
 30
0.0
 11
1801.093379800171
 21
782.5561613251738
 31
0.0
  0
LINE
  5
6A3E
330
6A3C
100
AcDbEntity
  8
AM_5
100
AcDbLine
 10
1801.093379800171
 20
782.5561613251738
 30
0.0
 11
1863.015459548131
 21
705.5841455236905
 31
0.0
  0
LINE
  5
6A3F
330
6A3C
100
AcDbEntity
  8
AM_5
100
AcDbLine
 10
1863.015459548131
 20
705.5841455236905
 30
0.0
 11
1872.887857443572
 21
693.3122972605278
 31
0.0
  0
LINE
  5
6A40
330
6A3C
100
AcDbEntity
  8
AM_5
100
AcDbLine
 10
1861.39984008148
 20
704.2844196893782
 30
0.0
 11
1872.887857443572
 21
693.3122972605278
 31
0.0
  0
LINE
  5
6A41
330
6A3C
100
AcDbEntity
  8
AM_5
100
AcDbLine
 10
1872.887857443572
 20
693.3122972605278
 30
0.0
 11
1864.631079014781
 21
706.883871358003
 31
0.0
  0
MTEXT
  5
6A42
330
6A3C
100
AcDbEntity
  8
AM_5
 62
     2
100
AcDbMText
 10
1785.343379800172
 20
790.4311613251739
 30
0.0
 40
15.75
 41
0.0
 71
     9
 72
     5
  1
クイックロック
  7
ACJISTS
 73
     1
 44
1.0
  0
ENDBLK
  5
6A44
330
6A3C
100
AcDbEntity
  8
0
100
AcDbBlockEnd
  0
BLOCK
  5
6A4D
330
6A46
100
AcDbEntity
  8
0
100
AcDbBlockBegin
  2
*S34
 70
     1
 10
0.0
 20
0.0
 30
0.0
  3
*S34
  1

  0
LINE
  5
6A47
330
6A46
100
AcDbEntity
  8
AM_5
100
AcDbLine
 10
2172.558386874883
 20
738.6610091503116
 30
0.0
 11
2064.670886874883
 21
738.6610091503116
 31
0.0
  0
LINE
  5
6A48
330
6A46
100
AcDbEntity
  8
AM_5
100
AcDbLine
 10
2064.670886874883
 20
738.6610091503116
 30
0.0
 11
2026.5129915291
 21
692.9078471698
 31
0.0
  0
LINE
  5
6A49
330
6A46
100
AcDbEntity
  8
AM_5
100
AcDbLine
 10
2026.5129915291
 20
692.9078471698
 30
0.0
 11
2016.425366814019
 21
680.8122972605278
 31
0.0
  0
LINE
  5
6A4A
330
6A46
100
AcDbEntity
  8
AM_5
100
AcDbLine
 10
2024.920582180956
 20
694.2359081523393
 30
0.0
 11
2016.425366814019
 21
680.8122972605278
 31
0.0
  0
LINE
  5
6A4B
330
6A46
100
AcDbEntity
  8
AM_5
100
AcDbLine
 10
2016.425366814019
 20
680.8122972605278
 30
0.0
 11
2028.105400877244
 21
691.5797861872606
 31
0.0
  0
MTEXT
  5
6A4C
330
6A46
100
AcDbEntity
  8
AM_5
 62
     2
100
AcDbMText
 10
2080.420886874883
 20
746.5360091503116
 30
0.0
 40
15.75
 41
0.0
 71
     7
 72
     5
  1
化粧カバー
  7
ACJISTS
 73
     1
 44
1.0
  0
ENDBLK
  5
6A4E
330
6A46
100
AcDbEntity
  8
0
100
AcDbBlockEnd
  0
BLOCK
  5
6A57
330
6A50
100
AcDbEntity
  8
0
100
AcDbBlockBegin
  2
*S35
 70
     1
 10
0.0
 20
0.0
 30
0.0
  3
*S35
  1

  0
LINE
  5
6A51
330
6A50
100
AcDbEntity
  8
AM_5
100
AcDbLine
 10
1702.908358821487
 20
976.4937612948925
 30
0.0
 11
1835.995858821487
 21
976.4937612948925
 31
0.0
  0
LINE
  5
6A52
330
6A50
100
AcDbEntity
  8
AM_5
100
AcDbLine
 10
1835.995858821487
 20
976.4937612948925
 30
0.0
 11
1867.979469119027
 21
948.7936897510302
 31
0.0
  0
LINE
  5
6A53
330
6A50
100
AcDbEntity
  8
AM_5
100
AcDbLine
 10
1867.979469119027
 20
948.7936897510302
 30
0.0
 11
1879.885082443572
 21
938.4825854762002
 31
0.0
  0
LINE
  5
6A54
330
6A50
100
AcDbEntity
  8
AM_5
100
AcDbLine
 10
1866.621986494418
 20
947.2262860285372
 30
0.0
 11
1879.885082443572
 21
938.4825854762002
 31
0.0
  0
LINE
  5
6A55
330
6A50
100
AcDbEntity
  8
AM_5
100
AcDbLine
 10
1879.885082443572
 20
938.4825854762002
 30
0.0
 11
1869.336951743636
 21
950.3610934735229
 31
0.0
  0
MTEXT
  5
6A56
330
6A50
100
AcDbEntity
  8
AM_5
 62
     2
100
AcDbMText
 10
1820.245858821486
 20
984.3687612948924
 30
0.0
 40
15.75
 41
0.0
 71
     9
 72
     5
  1
支柱 SUS304
  7
ACJISTS
 73
     1
 44
1.0
  0
ENDBLK
  5
6A58
330
6A50
100
AcDbEntity
  8
0
100
AcDbBlockEnd
  0
BLOCK
  5
6A61
330
6A5A
100
AcDbEntity
  8
0
100
AcDbBlockBegin
  2
*S36
 70
     1
 10
0.0
 20
0.0
 30
0.0
  3
*S36
  1

  0
LINE
  5
6A5B
330
6A5A
100
AcDbEntity
  8
AM_5
100
AcDbLine
 10
1729.013420103241
 20
1122.259024590477
 30
0.0
 11
1839.263420103241
 21
1122.259024590477
 31
0.0
  0
LINE
  5
6A5C
330
6A5A
100
AcDbEntity
  8
AM_5
100
AcDbLine
 10
1839.263420103241
 20
1122.259024590477
 30
0.0
 11
1917.173947713291
 21
1219.854401134394
 31
0.0
  0
LINE
  5
6A5D
330
6A5A
100
AcDbEntity
  8
AM_5
100
AcDbLine
 10
1917.173947713291
 20
1219.854401134394
 30
0.0
 11
1927.000140877886
 21
1232.163277114437
 31
0.0
  0
LINE
  5
6A5E
330
6A5A
100
AcDbEntity
  8
AM_5
100
AcDbLine
 10
1918.794441971327
 20
1218.560758268271
 30
0.0
 11
1927.000140877886
 21
1232.163277114437
 31
0.0
  0
LINE
  5
6A5F
330
6A5A
100
AcDbEntity
  8
AM_5
100
AcDbLine
 10
1927.000140877886
 20
1232.163277114437
 30
0.0
 11
1915.553453455255
 21
1221.148044000517
 31
0.0
  0
MTEXT
  5
6A60
330
6A5A
100
AcDbEntity
  8
AM_5
 62
     2
100
AcDbMText
 10
1823.513420103241
 20
1130.134024590477
 30
0.0
 40
15.75
 41
0.0
 71
     9
 72
     5
  1
反射シール
  7
ACJISTS
 73
     1
 44
1.0
  0
ENDBLK
  5
6A62
330
6A5A
100
AcDbEntity
  8
0
100
AcDbBlockEnd
  0
BLOCK
  5
6A6B
330
6A64
100
AcDbEntity
  8
0
100
AcDbBlockBegin
  2
*S37
 70
     1
 10
0.0
 20
0.0
 30
0.0
  3
*S37
  1

  0
LINE
  5
6A65
330
6A64
100
AcDbEntity
  8
AM_5
100
AcDbLine
 10
1656.618563432473
 20
1249.201527627171
 30
0.0
 11
1783.668563432473
 21
1249.201527627171
 31
0.0
  0
LINE
  5
6A66
330
6A64
100
AcDbEntity
  8
AM_5
100
AcDbLine
 10
1783.668563432473
 20
1249.201527627171
 30
0.0
 11
1861.579091042523
 21
1346.796904171088
 31
0.0
  0
LINE
  5
6A67
330
6A64
100
AcDbEntity
  8
AM_5
100
AcDbLine
 10
1861.579091042523
 20
1346.796904171088
 30
0.0
 11
1871.405284207117
 21
1359.105780151131
 31
0.0
  0
LINE
  5
6A68
330
6A64
100
AcDbEntity
  8
AM_5
100
AcDbLine
 10
1863.199585300559
 20
1345.503261304965
 30
0.0
 11
1871.405284207117
 21
1359.105780151131
 31
0.0
  0
LINE
  5
6A69
330
6A64
100
AcDbEntity
  8
AM_5
100
AcDbLine
 10
1871.405284207117
 20
1359.105780151131
 30
0.0
 11
1859.958596784487
 21
1348.090547037211
 31
0.0
  0
MTEXT
  5
6A6A
330
6A64
100
AcDbEntity
  8
AM_5
 62
     2
100
AcDbMText
 10
1767.918563432473
 20
1257.076527627171
 30
0.0
 40
15.75
 41
0.0
 71
     9
 72
     5
  1
ゴムパッキン
  7
ACJISTS
 73
     1
 44
1.0
  0
ENDBLK
  5
6A6C
330
6A64
100
AcDbEntity
  8
0
100
AcDbBlockEnd
  0
BLOCK
  5
6A75
330
6A6E
100
AcDbEntity
  8
0
100
AcDbBlockBegin
  2
*S38
 70
     1
 10
0.0
 20
0.0
 30
0.0
  3
*S38
  1

  0
LINE
  5
6A6F
330
6A6E
100
AcDbEntity
  8
AM_5
100
AcDbLine
 10
1644.878489857102
 20
1399.099655702428
 30
0.0
 11
1813.665989857101
 21
1399.099655702428
 31
0.0
  0
LINE
  5
6A70
330
6A6E
100
AcDbEntity
  8
AM_5
100
AcDbLine
 10
1813.665989857101
 20
1399.099655702428
 30
0.0
 11
1854.361413411247
 21
1380.003053869819
 31
0.0
  0
LINE
  5
6A71
330
6A6E
100
AcDbEntity
  8
AM_5
100
AcDbLine
 10
1854.361413411247
 20
1380.003053869819
 30
0.0
 11
1868.61961371827
 21
1373.312297260528
 31
0.0
  0
LINE
  5
6A72
330
6A6E
100
AcDbEntity
  8
AM_5
100
AcDbLine
 10
1853.480558596814
 20
1378.125926196674
 30
0.0
 11
1868.61961371827
 21
1373.312297260528
 31
0.0
  0
LINE
  5
6A73
330
6A6E
100
AcDbEntity
  8
AM_5
100
AcDbLine
 10
1868.61961371827
 20
1373.312297260528
 30
0.0
 11
1855.242268225679
 21
1381.880181542965
 31
0.0
  0
MTEXT
  5
6A74
330
6A6E
100
AcDbEntity
  8
AM_5
 62
     2
100
AcDbMText
 10
1797.915989857101
 20
1406.974655702428
 30
0.0
 40
15.75
 41
0.0
 71
     9
 72
     5
  1
キャップ SUS304
  7
ACJISTS
 73
     1
 44
1.0
  0
ENDBLK
  5
6A76
330
6A6E
100
AcDbEntity
  8
0
100
AcDbBlockEnd
  0
BLOCK
  5
6A7F
330
6A78
100
AcDbEntity
  8
0
100
AcDbBlockBegin
  2
*S39
 70
     1
 10
0.0
 20
0.0
 30
0.0
  3
*S39
  1

  0
LINE
  5
6A79
330
6A78
100
AcDbEntity
  8
AM_5
100
AcDbLine
 10
2066.511299083696
 20
1475.945868282187
 30
0.0
 11
2012.961299083696
 21
1475.945868282187
 31
0.0
  0
LINE
  5
6A7A
330
6A78
100
AcDbEntity
  8
AM_5
100
AcDbLine
 10
2012.961299083696
 20
1475.945868282187
 30
0.0
 11
1951.420011411701
 21
1408.720505027445
 31
0.0
  0
LINE
  5
6A7B
330
6A78
100
AcDbEntity
  8
AM_5
100
AcDbLine
 10
1951.420011411701
 20
1408.720505027445
 30
0.0
 11
1940.785047443572
 21
1397.103274660589
 31
0.0
  0
LINE
  5
6A7C
330
6A78
100
AcDbEntity
  8
AM_5
100
AcDbLine
 10
1949.89057402568
 20
1410.120624589354
 30
0.0
 11
1940.785047443572
 21
1397.103274660589
 31
0.0
  0
LINE
  5
6A7D
330
6A78
100
AcDbEntity
  8
AM_5
100
AcDbLine
 10
1940.785047443572
 20
1397.103274660589
 30
0.0
 11
1952.949448797722
 21
1407.320385465536
 31
0.0
  0
MTEXT
  5
6A7E
330
6A78
100
AcDbEntity
  8
AM_5
 62
     2
100
AcDbMText
 10
2028.711299083696
 20
1483.820868282188
 30
0.0
 40
15.75
 41
0.0
 71
     7
 72
     5
  1
取手
  7
ACJISTS
 73
     1
 44
1.0
  0
ENDBLK
  5
6A80
330
6A78
100
AcDbEntity
  8
0
100
AcDbBlockEnd
  0
BLOCK
  5
6A89
330
6A82
100
AcDbEntity
  8
0
100
AcDbBlockBegin
  2
*S40
 70
     1
 10
0.0
 20
0.0
 30
0.0
  3
*S40
  1

  0
LINE
  5
6A83
330
6A82
100
AcDbEntity
  8
AM_5
100
AcDbLine
 10
2506.627522892209
 20
1228.180299289804
 30
0.0
 11
2398.740022892209
 21
1228.180299289804
 31
0.0
  0
LINE
  5
6A84
330
6A82
100
AcDbEntity
  8
AM_5
100
AcDbLine
 10
2398.740022892209
 20
1228.180299289804
 30
0.0
 11
2366.369606311244
 21
1195.888123483608
 31
0.0
  0
LINE
  5
6A85
330
6A82
100
AcDbEntity
  8
AM_5
100
AcDbLine
 10
2366.369606311244
 20
1195.888123483608
 30
0.0
 11
2355.219207148209
 21
1184.764675344429
 31
0.0
  0
LINE
  5
6A86
330
6A82
100
AcDbEntity
  8
AM_5
100
AcDbLine
 10
2364.905176588471
 20
1197.356101375969
 30
0.0
 11
2355.219207148209
 21
1184.764675344429
 31
0.0
  0
LINE
  5
6A87
330
6A82
100
AcDbEntity
  8
AM_5
100
AcDbLine
 10
2355.219207148209
 20
1184.764675344429
 30
0.0
 11
2367.834036034016
 21
1194.420145591248
 31
0.0
  0
MTEXT
  5
6A88
330
6A82
100
AcDbEntity
  8
AM_5
 62
     2
100
AcDbMText
 10
2414.490022892209
 20
1236.055299289805
 30
0.0
 40
15.75
 41
0.0
 71
     7
 72
     5
  1
先端リング
  7
ACJISTS
 73
     1
 44
1.0
  0
ENDBLK
  5
6A8A
330
6A82
100
AcDbEntity
  8
0
100
AcDbBlockEnd
  0
BLOCK
  5
6A93
330
6A8C
100
AcDbEntity
  8
0
100
AcDbBlockBegin
  2
*S41
 70
     1
 10
0.0
 20
0.0
 30
0.0
  3
*S41
  1

  0
LINE
  5
6A8D
330
6A8C
100
AcDbEntity
  8
AM_5
100
AcDbLine
 10
2583.339194895842
 20
1065.41028635254
 30
0.0
 11
2351.026694895841
 21
1065.41028635254
 31
0.0
  0
LINE
  5
6A8E
330
6A8C
100
AcDbEntity
  8
AM_5
100
AcDbLine
 10
2351.026694895841
 20
1065.41028635254
 30
0.0
 11
2270.483779596341
 21
1147.230376091531
 31
0.0
  0
LINE
  5
6A8F
330
6A8C
100
AcDbEntity
  8
AM_5
100
AcDbLine
 10
2270.483779596341
 20
1147.230376091531
 30
0.0
 11
2259.434794584491
 21
1158.454565603826
 31
0.0
  0
LINE
  5
6A90
330
6A8C
100
AcDbEntity
  8
AM_5
100
AcDbLine
 10
2271.961472172435
 20
1148.685002557656
 30
0.0
 11
2259.434794584491
 21
1158.454565603826
 31
0.0
  0
LINE
  5
6A91
330
6A8C
100
AcDbEntity
  8
AM_5
100
AcDbLine
 10
2259.434794584491
 20
1158.454565603826
 30
0.0
 11
2269.006087020246
 21
1145.775749625405
 31
0.0
  0
MTEXT
  5
6A92
330
6A8C
100
AcDbEntity
  8
AM_5
 62
     2
100
AcDbMText
 10
2366.776694895841
 20
1073.28528635254
 30
0.0
 40
15.75
 41
0.0
 71
     7
 72
     5
  1
クサリ %%c6.5×2mmピッチ\PSUS304
  7
ACJISTS
 73
     1
 44
1.0
  0
ENDBLK
  5
6A94
330
6A8C
100
AcDbEntity
  8
0
100
AcDbBlockEnd
  0
BLOCK
  5
6A9D
330
6A96
100
AcDbEntity
  8
0
100
AcDbBlockBegin
  2
*S42
 70
     1
 10
0.0
 20
0.0
 30
0.0
  3
*S42
  1

  0
LINE
  5
6A97
330
6A96
100
AcDbEntity
  8
AM_5
100
AcDbLine
 10
1754.032850843017
 20
179.3607231740876
 30
0.0
 11
1807.582850843017
 21
179.3607231740876
 31
0.0
  0
LINE
  5
6A98
330
6A96
100
AcDbEntity
  8
AM_5
100
AcDbLine
 10
1807.582850843017
 20
179.3607231740876
 30
0.0
 11
1841.740127246136
 21
154.8421792120166
 31
0.0
  0
LINE
  5
6A99
330
6A96
100
AcDbEntity
  8
AM_5
100
AcDbLine
 10
1841.740127246136
 20
154.8421792120166
 30
0.0
 11
1854.535047443573
 21
145.6578165699362
 31
0.0
  0
LINE
  5
6A9A
330
6A96
100
AcDbEntity
  8
AM_5
100
AcDbLine
 10
1840.530982970953
 20
153.1576960191084
 30
0.0
 11
1854.535047443573
 21
145.6578165699362
 31
0.0
  0
LINE
  5
6A9B
330
6A96
100
AcDbEntity
  8
AM_5
100
AcDbLine
 10
1854.535047443573
 20
145.6578165699362
 30
0.0
 11
1842.94927152132
 21
156.5266624049248
 31
0.0
  0
MTEXT
  5
6A9C
330
6A96
100
AcDbEntity
  8
AM_5
 62
     2
100
AcDbMText
 10
1791.832850843016
 20
187.2357231740876
 30
0.0
 40
15.75
 41
0.0
 71
     9
 72
     5
  1
外筒
  7
ACJISTS
 73
     1
 44
1.0
  0
ENDBLK
  5
6A9E
330
6A96
100
AcDbEntity
  8
0
100
AcDbBlockEnd
  0
ENDSEC
  0
SECTION
  2
ENTITIES
  0
INSERT
  5
4734
330
1F
100
AcDbEntity
  8
0
370
     0
100
AcDbBlockReference
  2
IGS_A3
 10
1327.572205548079
 20
1659.65803176596
 30
0.0
 41
5.0
 42
5.0
 43
5.0
 50
270.0
1001
GENIUS_GENOREF_13
1005
473E
1001
GENIUS_GENOBJ-N-SDF_13
1002
{
1000
OWNER
1000
GEN
1002
}
1001
GENIUS_GENODEF_13
1002
{
1000
HIER
1070
     0
1002
}
1002
{
1000
MANEDIT
1070
     0
1002
}
1002
{
1000
NOSEL
1070
     0
1002
}
1002
{
1000
BEHIND
1070
     0
1002
}
1002
{
1000
OTHER
1070
     0
1002
}
1002
{
1000
REACTOR
1002
}
1001
GENIUS_GENSCREG_15
1040
5.0
1040
1.0
1011
1327.572205548079
1021
1659.65803176596
1031
0.0
1011
2812.572205548079
1021
-440.3419682340399
1031
0.0
1070
     3
  0
INSERT
  5
4735
330
1F
100
AcDbEntity
  8
0
370
     0
100
AcDbBlockReference
 66
     1
  2
IGS2
 10
2762.572205548079
 20
-390.3419682340402
 30
0.0
 41
5.0
 42
5.0
 43
5.0
1001
GENIUS_GENOREF_13
1005
473E
  0
ATTRIB
  5
4737
330
4735
100
AcDbEntity
  8
RAHM3
100
AcDbText
 10
2026.274271982152
 20
-230.6055232431099
 30
0.0
 40
20.0
  1
1:5
100
AcDbAttribute
  2
GEN-TITLE-SCA
 70
     0
  0
ATTRIB
  5
4738
330
4735
100
AcDbEntity
  8
RAHM3
100
AcDbText
 10
2397.122205548079
 20
-241.6419682340402
 30
0.0
 40
25.0
  1
ｽﾃﾝﾚｽ製車止め（上下式）
100
AcDbAttribute
  2
ＴＩＴＬＥ
 70
     0
  0
ATTRIB
  5
4739
330
4735
100
AcDbEntity
  8
RAHM3
100
AcDbText
 10
2404.757814768877
 20
-281.320052598471
 30
0.0
 40
15.0
  1
IJ-11CN
100
AcDbAttribute
  2
ｃｏｄｅ
 70
     0
  0
ATTRIB
  5
473A
330
4735
100
AcDbEntity
  8
RAHM3
100
AcDbText
 10
2408.848173078264
 20
-316.3200525985073
 30
0.0
 40
15.0
  1

100
AcDbAttribute
  2
件名
 70
     0
  0
ATTRIB
  5
473B
330
4735
100
AcDbEntity
  8
RAHM3
100
AcDbText
 10
2397.122205548079
 20
-381.6419682340765
 30
0.0
 40
25.0
  1
Ｔ２１Ａ０８００２
100
AcDbAttribute
  2
Ｎｏ．
 70
     0
  0
ATTRIB
  5
473C
330
4735
100
AcDbEntity
  8
RAHM3
100
AcDbText
 10
2260.322205548079
 20
-303.3065216284074
 30
0.0
 40
20.0
  1

100
AcDbAttribute
  2
ＤＲ
 70
     0
  0
ATTRIB
  5
473D
330
4735
100
AcDbEntity
  8
RAHM3
100
AcDbText
 10
2243.981779028715
 20
-326.4919682340402
 30
0.0
 40
15.0
  1

 41
0.8000000000000001
100
AcDbAttribute
  2
ｄａｔｅ
 70
     0
  0
SEQEND
  5
4736
330
4735
100
AcDbEntity
  8
0
370
     0
  0
POINT
  5
473E
330
1F
100
AcDbEntity
  8
0
 60
     1
100
AcDbPoint
 10
0.0
 20
0.0
 30
0.0
1001
GENIUS_GENODEF_13
1002
{
1000
HIER
1070
     1
1002
}
1002
{
1000
MANEDIT
1070
     0
1002
}
1002
{
1000
NOSEL
1070
     0
1002
}
1002
{
1000
BEHIND
1070
     0
1002
}
1002
{
1000
OTHER
1070
     0
1002
}
1002
{
1000
REACTOR
1002
}
1001
GENIUS_GENOLIS_13
1002
{
1000
ENT
1005
4735
1005
4734
1002
}
1001
GENIUS_GENOENT_13
1002
{
1000
MYREF
1005
473E
1002
}
1002
{
1000
GRP
1005
0
1002
}
1001
GENIUS_GENOBJ-N-TIT_13
1002
{
1000
OWNER
1000
GEN
1002
}
1001
GENIUS_GENTITLE_13
1002
{
1000
BORDER
1000
C:\WINNT\Profiles\Administrator\Application Data\Autodesk\AutoCAD\Recent\format\igs_a3
1002
}
1002
{
1000
TITLE
1000
C:\WINNT\Profiles\Administrator\Application Data\Autodesk\AutoCAD\Recent\format\IGS2
1002
}
1002
{
1000
SCALE
1000
1:5
1002
}
1002
{
1000
TITLESTD
1000
IGS
1002
}
1002
{
1000
HRA
1005
4734
1002
}
1002
{
1000
HTIT
1005
4735
1002
}
1002
{
1000
UNCHG
1002
{
1000
GEN-TITLE-SIZ
1000
GEN-TITLE-SCA
1002
}
1002
}
1002
{
1000
GENIUSID
1005
473E
1002
}
  0
LINE
  5
48FA
330
1F
100
AcDbEntity
  8
0
 62
     7
100
AcDbLine
 10
2348.591747443573
 20
673.3122972605278
 30
0.0
 11
2225.119302443573
 21
673.3122972605278
 31
0.0
  0
LINE
  5
5801
330
1F
100
AcDbEntity
  8
0
 62
     7
100
AcDbLine
 10
1576.591702443572
 20
673.3122972605278
 30
0.0
 11
2358.591747443573
 21
673.3122972605278
 31
0.0
  0
LINE
  5
5802
330
1F
100
AcDbEntity
  8
AM_7
100
AcDbLine
 10
1937.035047443573
 20
1413.720772260528
 30
0.0
 11
1937.035047443573
 21
-44.44852688053197
 31
0.0
  0
LINE
  5
5803
330
1F
100
AcDbEntity
  8
0
 62
     7
 48
0.216251
100
AcDbLine
 10
1879.885082443572
 20
1358.562387260528
 30
0.0
 11
1879.885082443572
 21
1315.312267260529
 31
0.0
  0
LINE
  5
5804
330
1F
100
AcDbEntity
  8
0
 62
     7
 48
0.101249
100
AcDbLine
 10
1994.185082443572
 20
1358.562387260528
 30
0.0
 11
1994.185082443572
 21
1338.312602260528
 31
0.0
  0
LINE
  5
5805
330
1F
100
AcDbEntity
  8
0
 62
     7
100
AcDbLine
 10
1837.035047443572
 20
680.8122972605278
 30
0.0
 11
1837.035047443572
 21
515.8122972605278
 31
0.0
  0
LINE
  5
5806
330
1F
100
AcDbEntity
  8
0
 62
     7
100
AcDbLine
 10
2037.035122443572
 20
680.8122972605278
 30
0.0
 11
2037.035122443572
 21
515.8122972605278
 31
0.0
  0
LINE
  5
5807
330
1F
100
AcDbEntity
  8
0
 62
     7
100
AcDbLine
 10
1687.035047443573
 20
423.3122972605278
 30
0.0
 11
1854.535047443573
 21
423.3122972605278
 31
0.0
  0
LINE
  5
5808
330
1F
100
AcDbEntity
  8
0
 62
     7
100
AcDbLine
 10
1837.035047443572
 20
633.3122972605279
 30
0.0
 11
2037.035122443572
 21
633.3122972605279
 31
0.0
  0
LINE
  5
5809
330
1F
100
AcDbEntity
  8
0
 62
     7
100
AcDbLine
 10
2019.535122443572
 20
515.8122972605278
 30
0.0
 11
2019.535122443572
 21
240.7978907806298
 31
0.0
  0
LINE
  5
580A
330
1F
100
AcDbEntity
  8
0
 62
     7
100
AcDbLine
 10
1854.535047443573
 20
515.8122972605278
 30
0.0
 11
1854.535047443573
 21
240.7978907806299
 31
0.0
  0
LINE
  5
580B
330
1F
100
AcDbEntity
  8
0
 62
     7
100
AcDbLine
 10
2019.535122443572
 20
423.3122972605278
 30
0.0
 11
2187.035122443573
 21
423.3122972605278
 31
0.0
  0
LINE
  5
580C
330
1F
100
AcDbEntity
  8
0
 62
     7
100
AcDbLine
 10
1687.035047443573
 20
-36.54013772273993
 30
0.0
 11
2187.035122443573
 21
-36.54013772273993
 31
0.0
  0
LINE
  5
580D
330
1F
100
AcDbEntity
  8
0
 62
     7
100
AcDbLine
 10
1687.035047443572
 20
-136.5401377227399
 30
0.0
 11
2187.035122443573
 21
-136.5401377227399
 31
0.0
  0
LINE
  5
580E
330
1F
100
AcDbEntity
  8
0
 62
     7
100
AcDbLine
 10
1843.535062443572
 20
1373.312297260528
 30
0.0
 11
2030.535107443572
 21
1373.312297260528
 31
0.0
  0
LINE
  5
580F
330
1F
100
AcDbEntity
  8
0
 62
     7
100
AcDbLine
 10
1838.535062443572
 20
1362.312387260528
 30
0.0
 11
2035.535107443572
 21
1362.312387260528
 31
0.0
  0
LINE
  5
5810
330
1F
100
AcDbEntity
  8
0
 62
     7
100
AcDbLine
 10
1840.785047443572
 20
1358.562387260528
 30
0.0
 11
2033.285122443572
 21
1358.562387260528
 31
0.0
  0
LINE
  5
5811
330
1F
100
AcDbEntity
  8
0
 62
     7
100
AcDbLine
 10
1837.035047443572
 20
680.8122972605278
 30
0.0
 11
2037.035122443572
 21
680.8122972605278
 31
0.0
  0
LINE
  5
5812
330
1F
100
AcDbEntity
  8
0
 62
     7
 48
0.03
100
AcDbLine
 10
2035.535107443572
 20
1368.312297260528
 30
0.0
 11
2035.535107443572
 21
1362.312237260528
 31
0.0
  0
LINE
  5
5813
330
1F
100
AcDbEntity
  8
0
 62
     7
 48
0.03
100
AcDbLine
 10
1838.535062443572
 20
1368.312297260528
 30
0.0
 11
1838.535062443572
 21
1362.312387260528
 31
0.0
  0
LINE
  5
5814
330
1F
100
AcDbEntity
  8
0
 62
     7
 48
0.01875
100
AcDbLine
 10
1840.785047443572
 20
1362.312387260528
 30
0.0
 11
1840.785047443572
 21
1358.562387260528
 31
0.0
  0
LINE
  5
5815
330
1F
100
AcDbEntity
  8
0
 62
     7
 48
0.01875
100
AcDbLine
 10
2033.285122443572
 20
1362.312237260528
 30
0.0
 11
2033.285122443572
 21
1358.562237260528
 31
0.0
  0
LINE
  5
5816
330
1F
100
AcDbEntity
  8
0
 62
     7
 48
0.25864
100
AcDbLine
 10
1932.035047443573
 20
600.0402022605285
 30
0.0
 11
1932.035047443573
 21
548.3122972605278
 31
0.0
  0
LINE
  5
5817
330
1F
100
AcDbEntity
  8
0
 62
     7
 48
0.25864
100
AcDbLine
 10
1942.035047443573
 20
600.0402022605285
 30
0.0
 11
1942.035047443573
 21
548.3122972605278
 31
0.0
  0
LINE
  5
5818
330
1F
100
AcDbEntity
  8
0
 62
     7
100
AcDbLine
 10
1837.035047443572
 20
515.8122972605278
 30
0.0
 11
2037.035122443572
 21
515.8122972605278
 31
0.0
  0
LINE
  5
5819
330
1F
100
AcDbEntity
  8
0
 62
     7
100
AcDbLine
 10
1837.035047443572
 20
515.8122972605278
 30
0.0
 11
2037.035122443572
 21
515.8122972605278
 31
0.0
  0
LINE
  5
581A
330
1F
100
AcDbEntity
  8
0
 62
     7
100
AcDbLine
 10
1862.574367443572
 20
515.8122972605278
 30
0.0
 11
1858.824367443572
 21
633.3122972605279
 31
0.0
  0
LINE
  5
581B
330
1F
100
AcDbEntity
  8
0
 62
     7
100
AcDbLine
 10
1873.824367443572
 20
633.3122972605279
 30
0.0
 11
1870.074367443572
 21
515.8122972605278
 31
0.0
  0
LINE
  5
581C
330
1F
100
AcDbEntity
  8
0
 62
     7
100
AcDbLine
 10
1907.403162443573
 20
515.8122972605278
 30
0.0
 11
1903.653162443573
 21
633.3122972605279
 31
0.0
  0
LINE
  5
581D
330
1F
100
AcDbEntity
  8
0
 62
     7
100
AcDbLine
 10
1918.653162443573
 20
633.3122972605279
 30
0.0
 11
1914.903162443573
 21
515.8122972605278
 31
0.0
  0
LINE
  5
581E
330
1F
100
AcDbEntity
  8
0
 62
     7
100
AcDbLine
 10
1959.167002443572
 20
515.8122972605278
 30
0.0
 11
1955.417002443573
 21
633.3122972605279
 31
0.0
  0
LINE
  5
581F
330
1F
100
AcDbEntity
  8
0
 62
     7
100
AcDbLine
 10
1970.417002443572
 20
633.3122972605279
 30
0.0
 11
1966.667002443572
 21
515.8122972605278
 31
0.0
  0
LINE
  5
5820
330
1F
100
AcDbEntity
  8
0
 62
     7
100
AcDbLine
 10
2003.995797443572
 20
515.8122972605278
 30
0.0
 11
2000.245797443572
 21
633.3122972605279
 31
0.0
  0
LINE
  5
5821
330
1F
100
AcDbEntity
  8
0
 62
     7
100
AcDbLine
 10
2015.245797443572
 20
633.3122972605279
 30
0.0
 11
2011.495797443572
 21
515.8122972605278
 31
0.0
  0
LINE
  5
5822
330
1F
100
AcDbEntity
  8
0
 62
     7
 48
0.03
100
AcDbLine
 10
1831.035062443572
 20
623.3122972605278
 30
0.0
 11
1837.035047443572
 21
623.3122972605278
 31
0.0
  0
LINE
  5
5823
330
1F
100
AcDbEntity
  8
0
 62
     7
 48
0.05
100
AcDbLine
 10
1932.035047443573
 20
548.3122972605278
 30
0.0
 11
1942.035047443573
 21
548.3122972605278
 31
0.0
  0
LINE
  5
5824
330
1F
100
AcDbEntity
  8
0
 62
     7
 48
0.318198
100
AcDbLine
 10
2037.035122443572
 20
593.3122972605278
 30
0.0
 11
2082.035122443572
 21
548.3122972605278
 31
0.0
  0
LINE
  5
5825
330
1F
100
AcDbEntity
  8
0
 62
     7
 48
0.318198
100
AcDbLine
 10
1792.035047443573
 20
548.3122972605278
 30
0.0
 11
1837.035047443572
 21
593.3122972605278
 31
0.0
  0
LINE
  5
5826
330
1F
100
AcDbEntity
  8
0
 62
     7
 48
0.320772
100
AcDbLine
 10
1785.671137443572
 20
554.6761272605281
 30
0.0
 11
1831.035062443572
 21
600.0402022605285
 31
0.0
  0
LINE
  5
5827
330
1F
100
AcDbEntity
  8
0
 62
     7
 48
0.320772
100
AcDbLine
 10
2043.035027443572
 20
600.0402022605285
 30
0.0
 11
2088.399027443573
 21
554.6761272605281
 31
0.0
  0
LINE
  5
5828
330
1F
100
AcDbEntity
  8
0
 62
     7
 48
0.004057
100
AcDbLine
 10
2043.035107443572
 20
623.3122972605278
 30
0.0
 11
2043.035107443572
 21
622.5008322605281
 31
0.0
  0
LINE
  5
5829
330
1F
100
AcDbEntity
  8
0
 62
     7
 48
0.11636
100
AcDbLine
 10
1831.035062443572
 20
623.3122972605278
 30
0.0
 11
1831.035062443572
 21
600.0402022605285
 31
0.0
  0
LINE
  5
582A
330
1F
100
AcDbEntity
  8
0
 62
     7
 48
0.044999
100
AcDbLine
 10
1785.671137443572
 20
554.6761272605281
 30
0.0
 11
1792.035047443573
 21
548.3122972605278
 31
0.0
  0
LINE
  5
582B
330
1F
100
AcDbEntity
  8
0
 62
     7
 48
0.044999
100
AcDbLine
 10
2088.399027443573
 20
554.6761272605281
 30
0.0
 11
2082.035122443572
 21
548.3122972605278
 31
0.0
  0
LINE
  5
582C
330
1F
100
AcDbEntity
  8
0
 62
     7
 48
0.03
100
AcDbLine
 10
2037.035122443572
 20
623.3122972605278
 30
0.0
 11
2043.035107443572
 21
623.3122972605278
 31
0.0
  0
LINE
  5
582D
330
1F
100
AcDbEntity
  8
0
 62
     7
 48
0.085
100
AcDbLine
 10
1928.535062443572
 20
623.3122972605278
 30
0.0
 11
1945.535107443572
 21
623.3122972605278
 31
0.0
  0
LINE
  5
582E
330
1F
100
AcDbEntity
  8
AM_7
 48
0.083938
100
AcDbLine
 10
1816.953487443572
 20
611.6762472605287
 30
0.0
 11
1833.741052443573
 21
611.6762472605287
 31
0.0
  0
LINE
  5
582F
330
1F
100
AcDbEntity
  8
0
 62
     7
 48
0.0175
100
AcDbLine
 10
1928.535062443572
 20
600.0402022605285
 30
0.0
 11
1932.035047443573
 21
600.0402022605285
 31
0.0
  0
LINE
  5
5830
330
1F
100
AcDbEntity
  8
0
 62
     7
 48
0.11636
100
AcDbLine
 10
1928.535062443572
 20
623.3122972605278
 30
0.0
 11
1928.535062443572
 21
600.0402022605285
 31
0.0
  0
LINE
  5
5831
330
1F
100
AcDbEntity
  8
0
 62
     7
 48
0.11636
100
AcDbLine
 10
1945.535107443572
 20
623.3122972605278
 30
0.0
 11
1945.535107443572
 21
600.0402022605285
 31
0.0
  0
LINE
  5
5832
330
1F
100
AcDbEntity
  8
0
 62
     7
 48
0.0175
100
AcDbLine
 10
1942.035047443573
 20
600.0402022605285
 30
0.0
 11
1945.535107443572
 21
600.0402022605285
 31
0.0
  0
LINE
  5
5833
330
1F
100
AcDbEntity
  8
0
 62
     7
 48
0.037499
100
AcDbLine
 10
1929.535047443573
 20
611.6762472605287
 30
0.0
 11
1933.285047443573
 21
605.1811922605284
 31
0.0
  0
LINE
  5
5834
330
1F
100
AcDbEntity
  8
0
 62
     7
 48
0.0375
100
AcDbLine
 10
1933.285047443573
 20
605.1808872605278
 30
0.0
 11
1940.785047443572
 21
605.1808872605278
 31
0.0
  0
LINE
  5
5835
330
1F
100
AcDbEntity
  8
0
 62
     7
 48
0.037501
100
AcDbLine
 10
1944.535047443572
 20
611.6762472605287
 30
0.0
 11
1940.785047443572
 21
605.1808872605278
 31
0.0
  0
LINE
  5
5836
330
1F
100
AcDbEntity
  8
0
 62
     7
 48
0.037499
100
AcDbLine
 10
1940.785047443572
 20
618.171307260528
 30
0.0
 11
1944.535047443572
 21
611.6762472605287
 31
0.0
  0
LINE
  5
5837
330
1F
100
AcDbEntity
  8
0
 62
     7
 48
0.0375
100
AcDbLine
 10
1933.285047443573
 20
618.171307260528
 30
0.0
 11
1940.785047443572
 21
618.171307260528
 31
0.0
  0
LINE
  5
5838
330
1F
100
AcDbEntity
  8
0
 62
     7
 48
0.037499
100
AcDbLine
 10
1929.535047443573
 20
611.6762472605287
 30
0.0
 11
1933.285047443573
 21
618.171307260528
 31
0.0
  0
LINE
  5
5839
330
1F
100
AcDbEntity
  8
0
 62
     7
 48
0.075
100
AcDbLine
 10
1824.535047443573
 20
619.1762472605287
 30
0.0
 11
1824.535047443573
 21
604.1762472605287
 31
0.0
  0
LINE
  5
583A
330
1F
100
AcDbEntity
  8
0
 62
     7
 48
0.075
100
AcDbLine
 10
2049.535122443573
 20
619.1762472605287
 30
0.0
 11
2049.535122443573
 21
604.1762472605287
 31
0.0
  0
LINE
  5
583B
330
1F
100
AcDbEntity
  8
0
 62
     7
 48
0.0325
100
AcDbLine
 10
1824.535047443573
 20
604.1762472605287
 30
0.0
 11
1831.035062443572
 21
604.1762472605287
 31
0.0
  0
LINE
  5
583C
330
1F
100
AcDbEntity
  8
0
 62
     7
 48
0.0325
100
AcDbLine
 10
1824.535047443573
 20
619.1762472605287
 30
0.0
 11
1831.035062443572
 21
619.1762472605287
 31
0.0
  0
LINE
  5
583D
330
1F
100
AcDbEntity
  8
0
 62
     7
 48
0.0325
100
AcDbLine
 10
1824.535047443573
 20
615.4262472605287
 30
0.0
 11
1831.035062443572
 21
615.4262472605287
 31
0.0
  0
LINE
  5
583E
330
1F
100
AcDbEntity
  8
0
 62
     7
 48
0.0325
100
AcDbLine
 10
1824.535047443573
 20
607.9262472605287
 30
0.0
 11
1831.035062443572
 21
607.9262472605287
 31
0.0
  0
LINE
  5
583F
330
1F
100
AcDbEntity
  8
AM_7
 48
0.068
100
AcDbLine
 10
2039.441052443573
 20
611.6762472605287
 30
0.0
 11
2053.041057443573
 21
611.6762472605287
 31
0.0
  0
LINE
  5
5840
330
1F
100
AcDbEntity
  8
0
 62
     7
 48
0.0325
100
AcDbLine
 10
2043.035107443572
 20
604.1762472605287
 30
0.0
 11
2049.535122443573
 21
604.1762472605287
 31
0.0
  0
LINE
  5
5841
330
1F
100
AcDbEntity
  8
0
 62
     7
 48
0.0325
100
AcDbLine
 10
2043.035107443572
 20
615.4262472605287
 30
0.0
 11
2049.535122443573
 21
615.4262472605287
 31
0.0
  0
LINE
  5
5842
330
1F
100
AcDbEntity
  8
0
 62
     7
 48
0.0325
100
AcDbLine
 10
2043.035107443572
 20
607.9262472605287
 30
0.0
 11
2049.535122443573
 21
607.9262472605287
 31
0.0
  0
LINE
  5
5843
330
1F
100
AcDbEntity
  8
0
 62
     7
 48
0.0325
100
AcDbLine
 10
2043.035107443572
 20
619.1762472605287
 30
0.0
 11
2049.535122443573
 21
619.1762472605287
 31
0.0
  0
LINE
  5
5844
330
1F
100
AcDbEntity
  8
0
 62
     7
 48
0.11636
100
AcDbLine
 10
2043.035107443572
 20
623.3122972605278
 30
0.0
 11
2043.035107443572
 21
600.0402022605285
 31
0.0
  0
LINE
  5
5845
330
1F
100
AcDbEntity
  8
AM_7
 48
0.121125
100
AcDbLine
 10
1924.266032443573
 20
611.6762472605287
 30
0.0
 11
1948.491037443572
 21
611.6762472605287
 31
0.0
  0
LINE
  5
5846
330
1F
100
AcDbEntity
  8
0
 62
     7
 48
0.015
100
AcDbLine
 10
2049.535122443573
 20
615.6761872605284
 30
0.0
 11
2052.535152443573
 21
615.6761872605284
 31
0.0
  0
LINE
  5
5847
330
1F
100
AcDbEntity
  8
0
 62
     7
 48
0.015
100
AcDbLine
 10
2049.535122443573
 20
607.676312260528
 30
0.0
 11
2052.535152443573
 21
607.676312260528
 31
0.0
  0
LINE
  5
5848
330
1F
100
AcDbEntity
  8
0
 62
     7
 48
0.014999
100
AcDbLine
 10
1821.535167443572
 20
615.6761872605284
 30
0.0
 11
1824.535047443573
 21
615.6761872605284
 31
0.0
  0
LINE
  5
5849
330
1F
100
AcDbEntity
  8
0
 62
     7
 48
0.014999
100
AcDbLine
 10
1821.535167443572
 20
607.676312260528
 30
0.0
 11
1824.535047443573
 21
607.676312260528
 31
0.0
  0
LINE
  5
584A
330
1F
100
AcDbEntity
  8
0
 62
     7
 48
0.039999
100
AcDbLine
 10
1821.535167443572
 20
615.6761872605284
 30
0.0
 11
1821.535167443572
 21
607.676312260528
 31
0.0
  0
LINE
  5
584B
330
1F
100
AcDbEntity
  8
0
 62
     7
 48
0.039999
100
AcDbLine
 10
2052.535152443573
 20
615.6761872605284
 30
0.0
 11
2052.535152443573
 21
607.676312260528
 31
0.0
  0
LINE
  5
584C
330
1F
100
AcDbEntity
  8
0
 62
     7
 48
0.15625
100
AcDbLine
 10
1933.285047443573
 20
1404.562297260528
 30
0.0
 11
1933.285047443573
 21
1373.312297260528
 31
0.0
  0
LINE
  5
584D
330
1F
100
AcDbEntity
  8
0
 62
     7
 48
0.15625
100
AcDbLine
 10
1940.785047443572
 20
1404.562297260528
 30
0.0
 11
1940.785047443572
 21
1373.312297260528
 31
0.0
  0
LINE
  5
584E
330
1F
100
AcDbEntity
  8
0
 62
     7
100
AcDbLine
 10
2187.035122443573
 20
673.3122972605278
 30
0.0
 11
2187.035122443573
 21
423.3122972605278
 31
0.0
  0
LINE
  5
584F
330
1F
100
AcDbEntity
  8
0
 62
     7
100
AcDbLine
 10
1687.035047443573
 20
673.3122972605278
 30
0.0
 11
1687.035047443573
 21
423.3122972605278
 31
0.0
  0
LINE
  5
5850
330
1F
100
AcDbEntity
  8
0
 62
     7
100
AcDbLine
 10
1687.035047443573
 20
-36.54013772273993
 30
0.0
 11
1687.035047443572
 21
-136.5401377227399
 31
0.0
  0
LINE
  5
5851
330
1F
100
AcDbEntity
  8
0
 62
     7
100
AcDbLine
 10
2187.035122443573
 20
-36.54013772273993
 30
0.0
 11
2187.035122443573
 21
-136.5401377227399
 31
0.0
  0
LINE
  5
5853
330
1F
100
AcDbEntity
  8
AM_7
 48
0.146666
100
AcDbLine
 10
1865.182322443572
 20
693.3122972605278
 30
0.0
 11
1894.515512443572
 21
693.3122972605278
 31
0.0
  0
LINE
  5
5854
330
1F
100
AcDbEntity
  8
0
 62
     7
 48
0.031958
100
AcDbLine
 10
1872.887857443572
 20
699.3123572605282
 30
0.0
 11
1879.279462443573
 21
699.3123572605282
 31
0.0
  0
LINE
  5
5855
330
1F
100
AcDbEntity
  8
0
 62
     7
 48
0.031958
100
AcDbLine
 10
1872.887857443572
 20
687.3122372605284
 30
0.0
 11
1879.279462443573
 21
687.3122372605284
 31
0.0
  0
LINE
  5
5856
330
1F
100
AcDbEntity
  8
0
 62
     7
 48
0.0163
100
AcDbLine
 10
1881.887952443572
 20
1293.312297260528
 30
0.0
 11
1885.147912443573
 21
1293.312297260528
 31
0.0
  0
LINE
  5
5857
330
1F
100
AcDbEntity
  8
0
 62
     7
 48
0.060001
100
AcDbLine
 10
1872.887857443572
 20
699.3123572605282
 30
0.0
 11
1872.887857443572
 21
687.3122372605284
 31
0.0
  0
LINE
  5
5858
330
1F
100
AcDbEntity
  8
0
 62
     7
 48
0.06
100
AcDbLine
 10
1881.887952443572
 20
1305.312267260529
 30
0.0
 11
1881.887952443572
 21
1293.312297260528
 31
0.0
  0
LINE
  5
5859
330
1F
100
AcDbEntity
  8
0
 62
     7
 48
0.11
100
AcDbLine
 10
1885.147912443573
 20
1315.312267260529
 30
0.0
 11
1885.147912443573
 21
1293.312297260528
 31
0.0
  0
LINE
  5
585A
330
1F
100
AcDbEntity
  8
0
 62
     7
 48
0.234999
100
AcDbLine
 10
1879.885082443572
 20
1305.312267260529
 30
0.0
 11
1879.885082443572
 21
1258.312447260528
 31
0.0
  0
LINE
  5
5ABD
330
1F
100
AcDbEntity
  8
0
 62
     7
 48
0.026314
100
AcDbLine
 10
1879.885082443572
 20
1315.312267260529
 30
0.0
 11
1885.147912443573
 21
1315.312267260529
 31
0.0
  0
LINE
  5
5ABE
330
1F
100
AcDbEntity
  8
0
 62
     7
 48
0.010014
100
AcDbLine
 10
1879.885082443572
 20
1305.312267260529
 30
0.0
 11
1881.887952443572
 21
1305.312267260529
 31
0.0
  0
LINE
  5
5ABF
330
1F
100
AcDbEntity
  8
0
 62
     7
 48
0.130025
100
AcDbLine
 10
1994.185082443572
 20
1293.317482260528
 30
0.0
 11
1994.185082443572
 21
1267.312387260528
 31
0.0
  0
LINE
  5
5AC0
330
1F
100
AcDbEntity
  8
AM_4
 48
0.362917
100
AcDbLine
 10
1687.035047443573
 20
474.6364522605281
 30
0.0
 11
1738.359392443572
 21
423.3122972605278
 31
0.0
  0
LINE
  5
5AC1
330
1F
100
AcDbEntity
  8
AM_4
 48
0.2979179999999999
100
AcDbLine
 10
1687.035047443573
 20
465.4442522605277
 30
0.0
 11
1729.167002443572
 21
423.3122972605278
 31
0.0
  0
LINE
  5
5AC2
330
1F
100
AcDbEntity
  8
AM_4
 48
0.232918
100
AcDbLine
 10
1687.035047443573
 20
456.2517472605277
 30
0.0
 11
1719.974652443572
 21
423.3122972605278
 31
0.0
  0
LINE
  5
5AC3
330
1F
100
AcDbEntity
  8
AM_4
100
AcDbLine
 10
1687.035047443573
 20
519.4441922605283
 30
0.0
 11
1783.167017443572
 21
423.3122972605278
 31
0.0
  0
LINE
  5
5AC4
330
1F
100
AcDbEntity
  8
AM_4
100
AcDbLine
 10
1687.035047443573
 20
528.6366972605283
 30
0.0
 11
1792.359372443572
 21
423.3122972605278
 31
0.0
  0
LINE
  5
5AC5
330
1F
100
AcDbEntity
  8
AM_4
100
AcDbLine
 10
1687.035047443573
 20
510.2516872605283
 30
0.0
 11
1773.974667443573
 21
423.3122972605278
 31
0.0
  0
LINE
  5
5AC6
330
1F
100
AcDbEntity
  8
AM_4
100
AcDbLine
 10
1687.035047443573
 20
573.444132260528
 30
0.0
 11
1837.167032443572
 21
423.3122972605278
 31
0.0
  0
LINE
  5
5AC7
330
1F
100
AcDbEntity
  8
AM_4
100
AcDbLine
 10
1687.035047443573
 20
582.636637260528
 30
0.0
 11
1846.359387443572
 21
423.3122972605278
 31
0.0
  0
LINE
  5
5AC8
330
1F
100
AcDbEntity
  8
AM_4
100
AcDbLine
 10
1687.035047443573
 20
564.2519322605285
 30
0.0
 11
1827.974682443572
 21
423.3122972605278
 31
0.0
  0
LINE
  5
5AC9
330
1F
100
AcDbEntity
  8
AM_4
100
AcDbLine
 10
1687.035047443573
 20
627.4440722605286
 30
0.0
 11
1854.535047443573
 21
459.9440722605286
 31
0.0
  0
LINE
  5
5ACA
330
1F
100
AcDbEntity
  8
AM_4
100
AcDbLine
 10
1687.035047443573
 20
636.6365772605286
 30
0.0
 11
1854.535047443573
 21
469.1365772605286
 31
0.0
  0
LINE
  5
5ACB
330
1F
100
AcDbEntity
  8
AM_4
100
AcDbLine
 10
1687.035047443573
 20
618.2518722605282
 30
0.0
 11
1854.535047443573
 21
450.7518722605282
 31
0.0
  0
LINE
  5
5ACC
330
1F
100
AcDbEntity
  8
AM_4
100
AcDbLine
 10
1695.167027443572
 20
673.3122972605278
 30
0.0
 11
1799.737072443572
 21
568.7422872605284
 31
0.0
  0
LINE
  5
5ACD
330
1F
100
AcDbEntity
  8
AM_4
100
AcDbLine
 10
1704.359417443572
 20
673.3122972605278
 30
0.0
 11
1804.333247443573
 21
573.3385422605287
 31
0.0
  0
LINE
  5
5ACE
330
1F
100
AcDbEntity
  8
AM_4
100
AcDbLine
 10
1687.035047443573
 20
672.2518122605279
 30
0.0
 11
1795.140897443572
 21
564.1460372605279
 31
0.0
  0
LINE
  5
5ACF
330
1F
100
AcDbEntity
  8
AM_4
100
AcDbLine
 10
1749.167002443573
 20
673.3122972605278
 30
0.0
 11
1826.737117443572
 21
595.7421072605275
 31
0.0
  0
LINE
  5
5AD0
330
1F
100
AcDbEntity
  8
AM_4
 48
0.44672
100
AcDbLine
 10
1758.359432443572
 20
673.3122972605278
 30
0.0
 11
1821.535167443572
 21
610.136637260528
 31
0.0
  0
LINE
  5
5AD1
330
1F
100
AcDbEntity
  8
AM_4
100
AcDbLine
 10
1739.974652443572
 20
673.3122972605278
 30
0.0
 11
1822.140942443572
 21
591.1461572605285
 31
0.0
  0
LINE
  5
5AD2
330
1F
100
AcDbEntity
  8
AM_4
 48
0.239483
100
AcDbLine
 10
1803.167017443572
 20
673.3122972605278
 30
0.0
 11
1837.035047443572
 21
639.4441922605283
 31
0.0
  0
LINE
  5
5AD3
330
1F
100
AcDbEntity
  8
AM_4
 48
0.174483
100
AcDbLine
 10
1812.359372443572
 20
673.3122972605278
 30
0.0
 11
1837.035047443572
 21
648.6366972605282
 31
0.0
  0
LINE
  5
5AD4
330
1F
100
AcDbEntity
  8
AM_4
 48
0.304484
100
AcDbLine
 10
1793.974667443572
 20
673.3122972605278
 30
0.0
 11
1837.035047443572
 21
630.2516872605283
 31
0.0
  0
LINE
  5
5AD5
330
1F
100
AcDbEntity
  8
AM_4
100
AcDbLine
 10
2019.535122443572
 20
510.944132260528
 30
0.0
 11
2107.167032443573
 21
423.3122972605278
 31
0.0
  0
LINE
  5
5AD6
330
1F
100
AcDbEntity
  8
AM_4
100
AcDbLine
 10
2023.859462443573
 20
515.8122972605278
 30
0.0
 11
2116.359462443573
 21
423.3122972605278
 31
0.0
  0
LINE
  5
5AD7
330
1F
100
AcDbEntity
  8
AM_4
100
AcDbLine
 10
2019.535122443572
 20
501.7519322605285
 30
0.0
 11
2097.974682443572
 21
423.3122972605278
 31
0.0
  0
LINE
  5
5AD8
330
1F
100
AcDbEntity
  8
AM_4
100
AcDbLine
 10
2037.035122443572
 20
547.4440722605286
 30
0.0
 11
2161.167047443572
 21
423.3122972605278
 31
0.0
  0
LINE
  5
5AD9
330
1F
100
AcDbEntity
  8
AM_4
100
AcDbLine
 10
2037.035122443572
 20
556.6365772605286
 30
0.0
 11
2170.359477443573
 21
423.3122972605278
 31
0.0
  0
LINE
  5
5ADA
330
1F
100
AcDbEntity
  8
AM_4
100
AcDbLine
 10
2037.035122443572
 20
538.2518722605282
 30
0.0
 11
2151.974697443572
 21
423.3122972605278
 31
0.0
  0
LINE
  5
5ADB
330
1F
100
AcDbEntity
  8
AM_4
100
AcDbLine
 10
2086.101052443572
 20
552.3781522605286
 30
0.0
 11
2187.035122443573
 21
451.4440122605283
 31
0.0
  0
LINE
  5
5ADC
330
1F
100
AcDbEntity
  8
AM_4
100
AcDbLine
 10
2043.495462443572
 20
604.1762472605287
 30
0.0
 11
2187.035122443573
 21
460.6365172605283
 31
0.0
  0
LINE
  5
5ADD
330
1F
100
AcDbEntity
  8
AM_4
100
AcDbLine
 10
2037.035122443572
 20
592.2518122605278
 30
0.0
 11
2187.035122443573
 21
442.2518122605278
 31
0.0
  0
LINE
  5
5ADE
330
1F
100
AcDbEntity
  8
AM_4
100
AcDbLine
 10
2037.035122443572
 20
655.4442522605277
 30
0.0
 11
2187.035122443573
 21
505.4442522605277
 31
0.0
  0
LINE
  5
5ADF
330
1F
100
AcDbEntity
  8
AM_4
100
AcDbLine
 10
2037.035122443572
 20
664.6364522605281
 30
0.0
 11
2187.035122443573
 21
514.636452260528
 31
0.0
  0
LINE
  5
5AE0
330
1F
100
AcDbEntity
  8
AM_4
100
AcDbLine
 10
2037.035122443572
 20
646.2517472605277
 30
0.0
 11
2187.035122443573
 21
496.2517472605277
 31
0.0
  0
LINE
  5
5AE1
330
1F
100
AcDbEntity
  8
AM_4
100
AcDbLine
 10
2073.167017443572
 20
673.3122972605278
 30
0.0
 11
2187.035122443573
 21
559.4441922605283
 31
0.0
  0
LINE
  5
5AE2
330
1F
100
AcDbEntity
  8
AM_4
100
AcDbLine
 10
2082.359447443572
 20
673.3122972605278
 30
0.0
 11
2187.035122443573
 21
568.6366972605283
 31
0.0
  0
LINE
  5
5AE3
330
1F
100
AcDbEntity
  8
AM_4
100
AcDbLine
 10
2063.974667443573
 20
673.3122972605278
 30
0.0
 11
2187.035122443573
 21
550.2516872605283
 31
0.0
  0
LINE
  5
5AE4
330
1F
100
AcDbEntity
  8
AM_4
 48
0.423332
100
AcDbLine
 10
2127.167032443573
 20
673.3122972605278
 30
0.0
 11
2187.035122443573
 21
613.444132260528
 31
0.0
  0
LINE
  5
5AE5
330
1F
100
AcDbEntity
  8
AM_4
 48
0.358331
100
AcDbLine
 10
2136.359462443573
 20
673.3122972605278
 30
0.0
 11
2187.035122443573
 21
622.636637260528
 31
0.0
  0
LINE
  5
5AE6
330
1F
100
AcDbEntity
  8
AM_4
 48
0.488331
100
AcDbLine
 10
2117.974682443573
 20
673.3122972605278
 30
0.0
 11
2187.035122443573
 21
604.2519322605285
 31
0.0
  0
LINE
  5
5AE7
330
1F
100
AcDbEntity
  8
AM_4
 48
0.041494
100
AcDbLine
 10
2181.167047443572
 20
673.3122972605278
 30
0.0
 11
2187.035122443573
 21
667.4440722605286
 31
0.0
  0
LINE
  5
5AE8
330
1F
100
AcDbEntity
  8
AM_4
 48
0.106493
100
AcDbLine
 10
2171.974697443572
 20
673.3122972605278
 30
0.0
 11
2187.035122443573
 21
658.2518722605282
 31
0.0
  0
LINE
  5
5AE9
330
1F
100
AcDbEntity
  8
AM_4
 48
0.302814
100
AcDbLine
 10
2019.535122443572
 20
466.1366972605283
 30
0.0
 11
2062.359447443572
 21
423.3122972605278
 31
0.0
  0
LINE
  5
5AEA
330
1F
100
AcDbEntity
  8
AM_4
 48
0.237813
100
AcDbLine
 10
2019.535122443572
 20
456.9441922605283
 30
0.0
 11
2053.167017443572
 21
423.3122972605278
 31
0.0
  0
LINE
  5
5AEB
330
1F
100
AcDbEntity
  8
AM_4
 48
0.172813
100
AcDbLine
 10
2019.535122443572
 20
447.7516872605283
 30
0.0
 11
2043.974667443572
 21
423.3122972605278
 31
0.0
  0
LINE
  5
5AEC
330
1F
100
AcDbEntity
  8
0
 62
     7
 48
0.078209
100
AcDbLine
 10
1843.474637443572
 20
515.8122972605278
 30
0.0
 11
1854.535047443573
 21
504.7518122605278
 31
0.0
  0
LINE
  5
5AED
330
1F
100
AcDbEntity
  8
AM_4
 48
0.186237
100
AcDbLine
 10
1810.697232443573
 20
566.9744072605281
 30
0.0
 11
1837.035047443572
 21
540.6365172605283
 31
0.0
  0
LINE
  5
5AEE
330
1F
100
AcDbEntity
  8
AM_4
 48
0.218736
100
AcDbLine
 10
1806.101052443572
 20
562.3781522605286
 30
0.0
 11
1837.035047443572
 21
531.4443172605279
 31
0.0
  0
LINE
  5
5AEF
330
1F
100
AcDbEntity
  8
AM_4
 48
0.251236
100
AcDbLine
 10
1801.504877443572
 20
557.7819022605281
 30
0.0
 11
1837.035047443572
 21
522.2518122605278
 31
0.0
  0
LINE
  5
5AF0
330
1F
100
AcDbEntity
  8
AM_4
 48
0.060318
100
AcDbLine
 10
1828.504847443572
 20
584.7820222605277
 30
0.0
 11
1837.035047443572
 21
576.2517472605277
 31
0.0
  0
LINE
  5
5AF1
330
1F
100
AcDbEntity
  8
AM_4
 48
0.027818
100
AcDbLine
 10
1833.101022443572
 20
589.3782772605281
 30
0.0
 11
1837.035047443572
 21
585.4442522605276
 31
0.0
  0
LINE
  5
5AF2
330
1F
100
AcDbEntity
  8
0
 62
     7
100
AcDbLine
 10
1994.185082443572
 20
1237.312082260528
 30
0.0
 11
1994.185082443572
 21
680.8122972605278
 31
0.0
  0
LINE
  5
5AF3
330
1F
100
AcDbEntity
  8
0
 62
     7
100
AcDbLine
 10
1879.885082443572
 20
1228.312142260528
 30
0.0
 11
1879.885082443572
 21
680.8122972605278
 31
0.0
  0
LINE
  5
5AF4
330
1F
100
AcDbEntity
  8
0
 62
     7
 48
0.162462
100
AcDbLine
 10
2156.993847443573
 20
1200.628277260528
 30
0.0
 11
2186.441937443573
 21
1186.896432260528
 31
0.0
  0
LINE
  5
5AF5
330
1F
100
AcDbEntity
  8
0
 62
     7
 48
0.163351
100
AcDbLine
 10
2159.579752443572
 20
1206.594462260528
 30
0.0
 11
2189.188897443572
 21
1192.787392260528
 31
0.0
  0
LINE
  5
5AF6
330
1F
100
AcDbEntity
  8
0
 62
     7
 48
0.08
100
AcDbLine
 10
2145.495432443572
 20
1216.778942260528
 30
0.0
 11
2159.351862443573
 21
1208.778912260528
 31
0.0
  0
LINE
  5
5AF7
330
1F
100
AcDbEntity
  8
0
 62
     7
 48
0.13
100
AcDbLine
 10
2305.103437443572
 20
1167.114632260528
 30
0.0
 11
2331.004542443573
 21
1169.380717260528
 31
0.0
  0
LINE
  5
5AF8
330
1F
100
AcDbEntity
  8
0
 62
     7
 48
0.162461
100
AcDbLine
 10
2255.707072443573
 20
1164.895242260529
 30
0.0
 11
2288.199292443573
 21
1164.895242260529
 31
0.0
  0
LINE
  5
5AF9
330
1F
100
AcDbEntity
  8
0
 62
     7
 48
0.162461
100
AcDbLine
 10
2204.645212443573
 20
1178.462597260528
 30
0.0
 11
2236.030332443573
 21
1170.053017260528
 31
0.0
  0
LINE
  5
5AFA
330
1F
100
AcDbEntity
  8
0
 62
     7
 48
0.08
100
AcDbLine
 10
2191.512432443573
 20
1193.634867260528
 30
0.0
 11
2206.013392443572
 21
1186.872937260528
 31
0.0
  0
LINE
  5
5AFB
330
1F
100
AcDbEntity
  8
0
 62
     7
 48
0.16335
100
AcDbLine
 10
2206.155757443572
 20
1184.787057260528
 30
0.0
 11
2237.712612443573
 21
1176.331552260529
 31
0.0
  0
LINE
  5
5AFC
330
1F
100
AcDbEntity
  8
AM_3
 48
0.5
100
AcDbLine
 10
1973.935067443573
 20
1147.910077260529
 30
0.0
 11
1973.935067443573
 21
1173.411327260528
 31
0.0
  0
LINE
  5
5AFD
330
1F
100
AcDbEntity
  8
AM_3
 48
0.5
100
AcDbLine
 10
1980.435007443572
 20
1147.553172260528
 30
0.0
 11
1980.435007443572
 21
1173.411327260528
 31
0.0
  0
LINE
  5
5AFE
330
1F
100
AcDbEntity
  8
AM_3
 48
0.3
100
AcDbLine
 10
1973.935067443573
 20
1192.731242260528
 30
0.0
 11
1973.935067443573
 21
1225.401377260528
 31
0.0
  0
LINE
  5
5AFF
330
1F
100
AcDbEntity
  8
0
 62
     7
 48
0.025
100
AcDbLine
 10
2304.667642443573
 20
1172.095562260528
 30
0.0
 11
2305.103437443572
 21
1167.114632260528
 31
0.0
  0
LINE
  5
5B00
330
1F
100
AcDbEntity
  8
0
 62
     7
 48
0.08
100
AcDbLine
 10
2290.944957443573
 20
1156.841502260528
 30
0.0
 11
2306.884057443573
 21
1158.236002260528
 31
0.0
  0
LINE
  5
5B01
330
1F
100
AcDbEntity
  8
0
  6
DASHED
 62
     7
 48
0.025
100
AcDbLine
 10
2318.614407443572
 20
1173.315807260528
 30
0.0
 11
2319.050197443573
 21
1168.334877260528
 31
0.0
  0
LINE
  5
5B02
330
1F
100
AcDbEntity
  8
AM_3
 48
0.3
100
AcDbLine
 10
1980.435007443572
 20
1192.909007260528
 30
0.0
 11
1980.435007443572
 21
1225.401377260528
 31
0.0
  0
LINE
  5
5B03
330
1F
100
AcDbEntity
  8
AM_3
 48
0.3
100
AcDbLine
 10
1965.685022443572
 20
1175.159067260528
 30
0.0
 11
1965.685022443572
 21
1191.158977260528
 31
0.0
  0
LINE
  5
5B04
330
1F
100
AcDbEntity
  8
AM_3
 48
0.3
100
AcDbLine
 10
1988.685052443572
 20
1175.159067260528
 30
0.0
 11
1988.685052443572
 21
1191.158977260528
 31
0.0
  0
LINE
  5
5B05
330
1F
100
AcDbEntity
  8
AM_3
 48
0.3
100
AcDbLine
 10
1982.185037443572
 20
1175.159067260528
 30
0.0
 11
1982.185037443572
 21
1191.158977260528
 31
0.0
  0
LINE
  5
5B06
330
1F
100
AcDbEntity
  8
0
 62
     7
 48
0.08
100
AcDbLine
 10
2148.745402443573
 20
1222.408062260528
 30
0.0
 11
2162.601832443573
 21
1214.408032260529
 31
0.0
  0
LINE
  5
5B07
330
1F
100
AcDbEntity
  8
AM_3
 48
0.3
100
AcDbLine
 10
1972.185037443572
 20
1175.159067260528
 30
0.0
 11
1972.185037443572
 21
1191.158977260528
 31
0.0
  0
LINE
  5
5B08
330
1F
100
AcDbEntity
  8
0
 62
     7
 48
0.08
100
AcDbLine
 10
2140.495432443572
 20
1208.118662260528
 30
0.0
 11
2154.351862443573
 21
1200.118632260528
 31
0.0
  0
LINE
  5
5B09
330
1F
100
AcDbEntity
  8
0
 62
     7
 48
0.08
100
AcDbLine
 10
2241.538297443573
 20
1183.847422260528
 30
0.0
 11
2256.993082443572
 21
1179.706337260528
 31
0.0
  0
LINE
  5
5B0A
330
1F
100
AcDbEntity
  8
0
 62
     7
 48
0.13144
100
AcDbLine
 10
2304.667642443573
 20
1172.095562260528
 30
0.0
 11
2330.855542443573
 21
1174.386667260528
 31
0.0
  0
LINE
  5
5B0B
330
1F
100
AcDbEntity
  8
0
 62
     7
 48
0.08
100
AcDbLine
 10
2289.506892443573
 20
1173.278727260528
 30
0.0
 11
2305.445992443572
 21
1174.673227260528
 31
0.0
  0
LINE
  5
5B0C
330
1F
100
AcDbEntity
  8
0
  6
DASHED
 62
     7
 48
0.025
100
AcDbLine
 10
2309.648647443573
 20
1172.531352260528
 30
0.0
 11
2310.084437443573
 21
1167.550427260528
 31
0.0
  0
LINE
  5
5B0D
330
1F
100
AcDbEntity
  8
0
 62
     7
 48
0.08
100
AcDbLine
 10
2290.378397443573
 20
1163.316872260528
 30
0.0
 11
2306.317577443572
 21
1164.711222260528
 31
0.0
  0
LINE
  5
5B0E
330
1F
100
AcDbEntity
  8
0
 62
     7
 48
0.08
100
AcDbLine
 10
2288.940412443572
 20
1179.753947260528
 30
0.0
 11
2304.879512443573
 21
1181.148447260528
 31
0.0
  0
LINE
  5
5B0F
330
1F
100
AcDbEntity
  8
0
 62
     7
 48
0.025
100
AcDbLine
 10
2330.568752443573
 20
1174.361642260528
 30
0.0
 11
2331.004542443573
 21
1169.380717260528
 31
0.0
  0
LINE
  5
5B10
330
1F
100
AcDbEntity
  8
0
 62
     7
 48
0.08
100
AcDbLine
 10
2187.286282443572
 20
1184.571757260528
 30
0.0
 11
2201.787242443573
 21
1177.809822260528
 31
0.0
  0
LINE
  5
5B11
330
1F
100
AcDbEntity
  8
0
 62
     7
 48
0.08
100
AcDbLine
 10
2239.855937443573
 20
1177.568887260528
 30
0.0
 11
2255.310802443572
 21
1173.427807260528
 31
0.0
  0
LINE
  5
5B12
330
1F
100
AcDbEntity
  8
0
 62
     7
 48
0.08
100
AcDbLine
 10
2184.539242443572
 20
1178.680797260528
 30
0.0
 11
2199.040202443573
 21
1171.918862260529
 31
0.0
  0
LINE
  5
5B13
330
1F
100
AcDbEntity
  8
0
 62
     7
 48
0.08
100
AcDbLine
 10
2237.267742443572
 20
1167.909617260528
 30
0.0
 11
2252.722607443572
 21
1163.768532260528
 31
0.0
  0
LINE
  5
5B14
330
1F
100
AcDbEntity
  8
AM_3
 48
0.3
100
AcDbLine
 10
1973.935067443573
 20
1244.721292260529
 30
0.0
 11
1973.935067443573
 21
1277.391277260529
 31
0.0
  0
LINE
  5
5B15
330
1F
100
AcDbEntity
  8
AM_3
 48
0.3
100
AcDbLine
 10
1980.435007443572
 20
1244.899057260528
 30
0.0
 11
1980.435007443572
 21
1277.391277260529
 31
0.0
  0
LINE
  5
5B16
330
1F
100
AcDbEntity
  8
AM_3
 48
0.3
100
AcDbLine
 10
1965.685022443572
 20
1227.148967260528
 30
0.0
 11
1965.685022443572
 21
1243.149027260529
 31
0.0
  0
LINE
  5
5B17
330
1F
100
AcDbEntity
  8
AM_3
 48
0.3
100
AcDbLine
 10
1988.685052443572
 20
1227.148967260528
 30
0.0
 11
1988.685052443572
 21
1243.149027260529
 31
0.0
  0
LINE
  5
5B18
330
1F
100
AcDbEntity
  8
AM_3
 48
0.3
100
AcDbLine
 10
1982.185037443572
 20
1227.148967260528
 30
0.0
 11
1982.185037443572
 21
1242.704537260528
 31
0.0
  0
LINE
  5
5B19
330
1F
100
AcDbEntity
  8
AM_3
 48
0.3
100
AcDbLine
 10
1972.185037443572
 20
1227.148967260528
 30
0.0
 11
1972.185037443572
 21
1243.149027260529
 31
0.0
  0
LINE
  5
5B1A
330
1F
100
AcDbEntity
  8
AM_3
 48
0.3
100
AcDbLine
 10
1972.185037443572
 20
1279.139017260528
 30
0.0
 11
1972.185037443572
 21
1295.139077260528
 31
0.0
  0
LINE
  5
5B1B
330
1F
100
AcDbEntity
  8
0
 62
     7
 48
0.095694
100
AcDbLine
 10
1991.653072050203
 20
1299.817422260528
 30
0.0
 11
2009.758817443572
 21
1299.817422260528
 31
0.0
  0
LINE
  5
5B1C
330
1F
100
AcDbEntity
  8
AM_3
 48
0.3
100
AcDbLine
 10
1988.685052443572
 20
1279.139017260528
 30
0.0
 11
1988.685052443572
 21
1293.010937260528
 31
0.0
  0
LINE
  5
5B1D
330
1F
100
AcDbEntity
  8
0
 62
     7
 48
0.162461
100
AcDbLine
 10
2255.707072443573
 20
1171.395182260528
 30
0.0
 11
2288.199292443573
 21
1171.395182260528
 31
0.0
  0
LINE
  5
5B1E
330
1F
100
AcDbEntity
  8
0
 62
     7
 48
0.08
100
AcDbLine
 10
2235.585462443573
 20
1161.631082260528
 30
0.0
 11
2251.040247443572
 21
1157.490002260528
 31
0.0
  0
LINE
  5
5B1F
330
1F
100
AcDbEntity
  8
0
 62
     7
 48
0.08
100
AcDbLine
 10
2194.259472443572
 20
1199.525827260528
 30
0.0
 11
2208.760432443572
 21
1192.763897260528
 31
0.0
  0
LINE
  5
5B20
330
1F
100
AcDbEntity
  8
AM_3
 48
0.3
100
AcDbLine
 10
1977.088677443572
 20
1299.817422260528
 30
0.0
 11
1991.653072050203
 21
1299.817422260528
 31
0.0
  0
LINE
  5
5B21
330
1F
100
AcDbEntity
  8
AM_3
 48
0.3
100
AcDbLine
 10
1977.266442443572
 20
1293.317482260528
 30
0.0
 11
1994.18507089301
 21
1293.317489041772
 31
0.0
  0
LINE
  5
5B22
330
1F
100
AcDbEntity
  8
0
 62
     7
 48
0.08
100
AcDbLine
 10
2137.245387443572
 20
1202.489542260529
 30
0.0
 11
2151.101817443572
 21
1194.489512260528
 31
0.0
  0
LINE
  5
5B23
330
1F
100
AcDbEntity
  8
AM_3
 48
0.3
100
AcDbLine
 10
1965.685022443572
 20
1279.139017260528
 30
0.0
 11
1965.685022443572
 21
1295.139077260528
 31
0.0
  0
LINE
  5
5B24
330
1F
100
AcDbEntity
  8
AM_3
 48
0.3
100
AcDbLine
 10
1982.185037443572
 20
1279.139017260528
 30
0.0
 11
1982.185037443572
 21
1293.317482260528
 31
0.0
  0
LINE
  5
5B25
330
1F
100
AcDbEntity
  8
0
 62
     7
 48
0.099914
100
AcDbLine
 10
1994.18507089301
 20
1293.317489041772
 30
0.0
 11
2010.245877443573
 21
1293.317482260528
 31
0.0
  0
LINE
  5
5B26
330
1F
100
AcDbEntity
  8
0
 62
     7
 48
0.16335
100
AcDbLine
 10
2027.448862443573
 20
1288.148262260528
 30
0.0
 11
2054.210567443572
 21
1269.409402260528
 31
0.0
  0
LINE
  5
5B27
330
1F
100
AcDbEntity
  8
0
 62
     7
 48
0.162462
100
AcDbLine
 10
2023.866177443572
 20
1282.721782260528
 30
0.0
 11
2050.482387443572
 21
1264.085002260528
 31
0.0
  0
LINE
  5
5B28
330
1F
100
AcDbEntity
  8
0
 62
     7
 48
0.08936
100
AcDbLine
 10
2016.252957443573
 20
1306.059032260528
 30
0.0
 11
2030.892922443573
 21
1295.808022260528
 31
0.0
  0
LINE
  5
5B29
330
1F
100
AcDbEntity
  8
0
 62
     7
 48
0.075514
100
AcDbLine
 10
2005.329187443573
 20
1285.630107260528
 30
0.0
 11
2017.700707443573
 21
1276.967537260528
 31
0.0
  0
LINE
  5
5B2A
330
1F
100
AcDbEntity
  8
0
 62
     7
 48
0.08
100
AcDbLine
 10
2008.322507443573
 20
1291.469187260528
 30
0.0
 11
2021.428967443572
 21
1282.291942260528
 31
0.0
  0
LINE
  5
5B2B
330
1F
100
AcDbEntity
  8
0
 62
     7
 48
0.08
100
AcDbLine
 10
2014.058282443572
 20
1299.660717260529
 30
0.0
 11
2027.164742443572
 21
1290.483467260528
 31
0.0
  0
LINE
  5
5B2C
330
1F
100
AcDbEntity
  8
0
 62
     7
 48
0.16335
100
AcDbLine
 10
2069.789102443573
 20
1258.467327260528
 30
0.0
 11
2098.082177443572
 21
1242.132182260529
 31
0.0
  0
LINE
  5
5B2D
330
1F
100
AcDbEntity
  8
0
 62
     7
 48
0.162462
100
AcDbLine
 10
2066.693017443573
 20
1252.749247260528
 30
0.0
 11
2094.832212443573
 21
1236.503062260528
 31
0.0
  0
LINE
  5
5B2E
330
1F
100
AcDbEntity
  8
0
 62
     7
 48
0.08
100
AcDbLine
 10
2060.374277443572
 20
1275.165017260528
 30
0.0
 11
2073.480662443572
 21
1265.987772260528
 31
0.0
  0
LINE
  5
5B2F
330
1F
100
AcDbEntity
  8
0
 62
     7
 48
0.08
100
AcDbLine
 10
2047.181987443572
 20
1256.324532260528
 30
0.0
 11
2060.288372443572
 21
1247.147287260528
 31
0.0
  0
LINE
  5
5B30
330
1F
100
AcDbEntity
  8
0
 62
     7
 48
0.079999
100
AcDbLine
 10
2050.910242443572
 20
1261.648937260528
 30
0.0
 11
2064.016627443573
 21
1252.471842260528
 31
0.0
  0
LINE
  5
5B31
330
1F
100
AcDbEntity
  8
0
 62
     7
 48
0.079999
100
AcDbLine
 10
2056.646022443572
 20
1269.840462260528
 30
0.0
 11
2069.752407443572
 21
1260.663372260528
 31
0.0
  0
LINE
  5
5B32
330
1F
100
AcDbEntity
  8
0
 62
     7
 48
0.163351
100
AcDbLine
 10
2114.813747443573
 20
1232.472302260528
 30
0.0
 11
2143.106897443572
 21
1216.137157260528
 31
0.0
  0
LINE
  5
5B33
330
1F
100
AcDbEntity
  8
0
 62
     7
 48
0.162461
100
AcDbLine
 10
2111.717737443572
 20
1226.754222260528
 30
0.0
 11
2139.856852443573
 21
1210.508037260528
 31
0.0
  0
LINE
  5
5B34
330
1F
100
AcDbEntity
  8
0
 62
     7
 48
0.08
100
AcDbLine
 10
2092.220742443573
 20
1228.484417260528
 30
0.0
 11
2106.077172443573
 21
1220.484537260529
 31
0.0
  0
LINE
  5
5B35
330
1F
100
AcDbEntity
  8
0
 62
     7
 48
0.08
100
AcDbLine
 10
2103.720757443573
 20
1248.403087260528
 30
0.0
 11
2117.577192443572
 21
1240.403057260528
 31
0.0
  0
LINE
  5
5B36
330
1F
100
AcDbEntity
  8
0
 62
     7
 48
0.08
100
AcDbLine
 10
2095.470792443572
 20
1234.113687260528
 30
0.0
 11
2109.327142443572
 21
1226.113657260528
 31
0.0
  0
LINE
  5
5B37
330
1F
100
AcDbEntity
  8
0
 62
     7
 48
0.08
100
AcDbLine
 10
2100.470792443573
 20
1242.773967260528
 30
0.0
 11
2114.327142443572
 21
1234.773937260528
 31
0.0
  0
CIRCLE
  5
5B38
330
1F
100
AcDbEntity
  8
0
 62
     7
100
AcDbCircle
 10
1937.035047443573
 20
611.6762472605286
 30
0.0
 40
4.0
  0
ARC
  5
5B39
330
1F
100
AcDbEntity
  8
0
 62
     7
100
AcDbCircle
 10
1937.035047443573
 20
1404.562297260528
 30
0.0
 40
3.75
100
AcDbArc
 50
0.0000030000009406
 51
180.0000010000014
  0
CIRCLE
  5
5B3A
330
1F
100
AcDbEntity
  8
0
 62
     7
100
AcDbCircle
 10
1937.035047443573
 20
1243.312297260528
 30
0.0
 40
15.0
  0
ARC
  5
5B3B
330
1F
100
AcDbEntity
  8
0
 62
     7
100
AcDbCircle
 10
2049.331492443573
 20
1252.312237260528
 30
0.0
 40
57.15000499999999
100
AcDbArc
 50
164.7834870000017
 51
195.2165149999986
  0
ARC
  5
5B3C
330
1F
100
AcDbEntity
  8
0
 62
     7
100
AcDbCircle
 10
1824.738672443572
 20
1243.312297260528
 30
0.0
 40
57.15000499999999
100
AcDbArc
 50
344.783494999999
 51
15.21651000000136
  0
ARC
  5
5B3D
330
1F
100
AcDbEntity
  8
0
 62
     7
100
AcDbCircle
 10
2030.535107443572
 20
1368.312297260528
 30
0.0
 40
5.0
100
AcDbArc
 50
0.0000030000009406
 51
90.00000500000007
  0
ARC
  5
5B3E
330
1F
100
AcDbEntity
  8
0
 62
     7
100
AcDbCircle
 10
1843.535062443572
 20
1368.312297260528
 30
0.0
 40
5.0
100
AcDbArc
 50
89.99999099999998
 51
180.0000010000014
  0
ARC
  5
5B3F
330
1F
100
AcDbEntity
  8
0
 62
     7
100
AcDbCircle
 10
2049.331342443573
 20
1252.312237260528
 30
0.0
 40
57.15000499999999
100
AcDbArc
 50
164.7834870000017
 51
195.2165149999986
  0
ARC
  5
5B40
330
1F
100
AcDbEntity
  8
0
 62
     7
100
AcDbCircle
 10
2049.331342443573
 20
1252.312237260528
 30
0.0
 40
57.15000499999999
100
AcDbArc
 50
164.7834870000017
 51
195.2165149999986
  0
ARC
  5
5B4B
330
1F
100
AcDbEntity
  8
0
 62
     7
100
AcDbCircle
 10
2042.329847443573
 20
1315.815042260529
 30
0.0
 40
53.14188
100
AcDbArc
 50
154.9538059999985
 51
205.0461949999999
  0
ARC
  5
5B4D
330
1F
100
AcDbEntity
  8
0
 62
     7
100
AcDbCircle
 10
2049.331492443573
 20
1252.317272260528
 30
0.0
 40
57.15000499999999
100
AcDbArc
 50
164.7834870000017
 51
195.2165149999986
  0
ARC
  5
5B4E
330
1F
100
AcDbEntity
  8
0
 62
     7
100
AcDbCircle
 10
2289.942682443572
 20
1168.297802260528
 30
0.0
 40
11.5
100
AcDbArc
 50
94.9999899999999
 51
164.3746589999991
  0
ARC
  5
5B4F
330
1F
100
AcDbEntity
  8
0
 62
     7
100
AcDbCircle
 10
2305.881787443573
 20
1169.692302260529
 30
0.0
 40
11.5
100
AcDbArc
 50
274.9999999999998
 51
352.4441399999992
  0
ARC
  5
5B50
330
1F
100
AcDbEntity
  8
0
 62
     7
100
AcDbCircle
 10
2049.331342443573
 20
1252.317272260528
 30
0.0
 40
57.15000499999999
100
AcDbArc
 50
164.7834870000017
 51
195.2165149999986
  0
ARC
  5
5B51
330
1F
100
AcDbEntity
  8
0
 62
     7
100
AcDbCircle
 10
2113.342722443573
 20
1229.568707260528
 30
0.0
 40
3.25
100
AcDbArc
 50
59.99999700000011
 51
239.9999889999988
  0
ARC
  5
5B52
330
1F
100
AcDbEntity
  8
0
 62
     7
100
AcDbCircle
 10
2142.995432443572
 20
1212.448802260528
 30
0.0
 40
5.0
100
AcDbArc
 50
59.99999700000011
 51
109.4583940000005
  0
ARC
  5
5B53
330
1F
100
AcDbEntity
  8
0
 62
     7
100
AcDbCircle
 10
2305.881787443573
 20
1169.692302260529
 30
0.0
 40
5.0
100
AcDbArc
 50
274.9999999999998
 51
335.0000009999997
  0
ARC
  5
5B54
330
1F
100
AcDbEntity
  8
0
 62
     7
100
AcDbCircle
 10
2236.871472443572
 20
1173.192212260528
 30
0.0
 40
3.25
100
AcDbArc
 50
344.9999990000001
 51
74.9999939999995
  0
ARC
  5
5B55
330
1F
100
AcDbEntity
  8
0
 62
     7
100
AcDbCircle
 10
2254.016702443573
 20
1168.598247260528
 30
0.0
 40
11.5
100
AcDbArc
 50
14.0768520000014
 51
74.9999939999995
  0
ARC
  5
5B56
330
1F
100
AcDbEntity
  8
0
 62
     7
100
AcDbCircle
 10
2205.486352443573
 20
1181.601787260528
 30
0.0
 40
3.25
100
AcDbArc
 50
64.99999599999949
 51
244.9999880000003
  0
ARC
  5
5B57
330
1F
100
AcDbEntity
  8
0
 62
     7
100
AcDbCircle
 10
2203.900277443572
 20
1182.341382260529
 30
0.0
 40
5.0
100
AcDbArc
 50
244.9999880000003
 51
294.4583990000005
  0
ARC
  5
5B58
330
1F
100
AcDbEntity
  8
0
 62
     7
100
AcDbCircle
 10
2254.016702443573
 20
1168.598247260528
 30
0.0
 40
11.5
100
AcDbArc
 50
255.0000130000004
 51
341.2164289999999
  0
ARC
  5
5B59
330
1F
100
AcDbEntity
  8
0
 62
     7
100
AcDbCircle
 10
2305.881787443573
 20
1169.692302260529
 30
0.0
 40
11.5
100
AcDbArc
 50
17.55585600000097
 51
94.9999899999999
  0
ARC
  5
5B5A
330
1F
100
AcDbEntity
  8
0
 62
     7
100
AcDbCircle
 10
2254.016702443573
 20
1168.598247260528
 30
0.0
 40
5.0
100
AcDbArc
 50
34.01523899999981
 51
61.49405999999904
  0
ARC
  5
5B5B
330
1F
100
AcDbEntity
  8
0
 62
     7
100
AcDbCircle
 10
2288.199292443573
 20
1168.145212260528
 30
0.0
 40
3.25
100
AcDbArc
 50
263.1630180000002
 51
5.000001999998577
  0
ARC
  5
5B5C
330
1F
100
AcDbEntity
  8
0
 62
     7
100
AcDbCircle
 10
2254.016702443573
 20
1168.598247260528
 30
0.0
 40
5.0
100
AcDbArc
 50
62.31779499999879
 51
74.9999939999995
  0
ARC
  5
5B5D
330
1F
100
AcDbEntity
  8
AM_3
 48
0.3
100
AcDbCircle
 10
1977.185037443572
 20
1175.159067260528
 30
0.0
 40
5.0
100
AcDbArc
 50
310.5416020000001
 51
0.0000030000009406
  0
ARC
  5
5B5E
330
1F
100
AcDbEntity
  8
AM_3
 48
0.3
100
AcDbCircle
 10
1977.185037443572
 20
1173.411327260528
 30
0.0
 40
3.25
100
AcDbArc
 50
0.0000030000009406
 51
180.0000010000014
  0
ARC
  5
5B5F
330
1F
100
AcDbEntity
  8
AM_3
 48
0.3
100
AcDbCircle
 10
1977.185037443572
 20
1175.161357260528
 30
0.0
 40
5.0
100
AcDbArc
 50
354.1187319999996
 51
0.0000030000009406
  0
ARC
  5
5B60
330
1F
100
AcDbEntity
  8
AM_3
 48
0.3
100
AcDbCircle
 10
1977.185037443572
 20
1279.139017260528
 30
0.0
 40
11.5
100
AcDbArc
 50
286.4159619999998
 51
0.0000030000009406
  0
ARC
  5
5B61
330
1F
100
AcDbEntity
  8
0
 62
     7
100
AcDbCircle
 10
2156.851862443573
 20
1204.448772260528
 30
0.0
 40
5.0
100
AcDbArc
 50
10.54160000000062
 51
59.99999700000011
  0
ARC
  5
5B62
330
1F
100
AcDbEntity
  8
0
 62
     7
100
AcDbCircle
 10
2320.240382443572
 20
1177.473367260529
 30
0.0
 40
4.0
100
AcDbArc
 50
274.9999999999998
 51
347.8152050000014
  0
ARC
  5
5B63
330
1F
100
AcDbEntity
  8
0
 62
     7
100
AcDbCircle
 10
2341.744822443573
 20
1172.829812260528
 30
0.0
 40
18.0
100
AcDbArc
 50
202.1847829999988
 51
167.8152159999988
  0
ARC
  5
5B64
330
1F
100
AcDbEntity
  8
0
 62
     7
100
AcDbCircle
 10
2187.815377443572
 20
1189.841992260528
 30
0.0
 40
3.25
100
AcDbArc
 50
231.759393
 51
335.0000009999997
  0
CIRCLE
  5
5B65
330
1F
100
AcDbEntity
  8
0
 62
     7
100
AcDbCircle
 10
2341.744822443573
 20
1172.829812260528
 30
0.0
 40
11.0
  0
ARC
  5
5B66
330
1F
100
AcDbEntity
  8
AM_3
 48
0.3
100
AcDbCircle
 10
1977.185037443572
 20
1175.159067260528
 30
0.0
 40
11.5
100
AcDbArc
 50
286.4159619999998
 51
0.0000030000009406
  0
ARC
  5
5B67
330
1F
100
AcDbEntity
  8
AM_3
 48
0.3
100
AcDbCircle
 10
1977.185037443572
 20
1175.159067260528
 30
0.0
 40
5.0
100
AcDbArc
 50
180.0000010000014
 51
229.4584110000001
  0
ARC
  5
5B68
330
1F
100
AcDbEntity
  8
AM_3
 48
0.3
100
AcDbCircle
 10
1977.185037443572
 20
1175.159067260528
 30
0.0
 40
11.5
100
AcDbArc
 50
180.0000010000014
 51
253.5840330000005
  0
ARC
  5
5B69
330
1F
100
AcDbEntity
  8
0
 62
     7
100
AcDbCircle
 10
2142.995432443572
 20
1212.448802260528
 30
0.0
 40
11.5
100
AcDbArc
 50
59.99999700000011
 51
133.5840290000004
  0
ARC
  5
5B6A
330
1F
100
AcDbEntity
  8
AM_3
 48
0.3
100
AcDbCircle
 10
1977.185037443572
 20
1225.401377260528
 30
0.0
 40
3.25
100
AcDbArc
 50
90.00000500000007
 51
180.0000010000014
  0
ARC
  5
5B6B
330
1F
100
AcDbEntity
  8
AM_3
 48
0.3
100
AcDbCircle
 10
1977.185037443572
 20
1191.158977260528
 30
0.0
 40
5.0
100
AcDbArc
 50
0.0000030000009406
 51
49.45839300000038
  0
ARC
  5
5B6C
330
1F
100
AcDbEntity
  8
AM_3
 48
0.3
100
AcDbCircle
 10
1977.185037443572
 20
1227.151257260529
 30
0.0
 40
5.0
100
AcDbArc
 50
354.1187319999996
 51
0.0000030000009406
  0
ARC
  5
5B6D
330
1F
100
AcDbEntity
  8
0
 62
     7
100
AcDbCircle
 10
2049.331342443573
 20
1252.317272260528
 30
0.0
 40
57.15000499999999
100
AcDbArc
 50
164.7834870000017
 51
195.2165149999986
  0
ARC
  5
5B6E
330
1F
100
AcDbEntity
  8
0
 62
     7
100
AcDbCircle
 10
2156.851862443573
 20
1204.448772260528
 30
0.0
 40
11.5
100
AcDbArc
 50
350.6253420000001
 51
59.99999700000011
  0
ARC
  5
5B6F
330
1F
100
AcDbEntity
  8
0
 62
     7
100
AcDbCircle
 10
2187.815377443572
 20
1189.841992260528
 30
0.0
 40
3.25
100
AcDbArc
 50
335.0000009999997
 51
64.99999599999949
  0
ARC
  5
5B70
330
1F
100
AcDbEntity
  8
0
 62
     7
100
AcDbCircle
 10
2156.851862443573
 20
1204.448772260528
 30
0.0
 40
5.0
100
AcDbArc
 50
239.9999889999988
 51
289.4583979999993
  0
ARC
  5
5B71
330
1F
100
AcDbEntity
  8
0
 62
     7
100
AcDbCircle
 10
2156.851862443573
 20
1204.448772260528
 30
0.0
 40
11.5
100
AcDbArc
 50
239.9999889999988
 51
317.7901950000014
  0
ARC
  5
5B72
330
1F
100
AcDbEntity
  8
0
 62
     7
100
AcDbCircle
 10
2111.827142443573
 20
1230.443797260528
 30
0.0
 40
5.0
100
AcDbArc
 50
10.54160000000062
 51
59.99999700000011
  0
ARC
  5
5B73
330
1F
100
AcDbEntity
  8
0
 62
     7
100
AcDbCircle
 10
2189.401452443572
 20
1189.102397260528
 30
0.0
 40
5.0
100
AcDbArc
 50
239.1187300000001
 51
244.9999880000003
  0
ARC
  5
5B74
330
1F
100
AcDbEntity
  8
0
 62
     7
100
AcDbCircle
 10
2289.942682443572
 20
1168.297802260528
 30
0.0
 40
5.0
100
AcDbArc
 50
94.9999899999999
 51
144.4584009999998
  0
ARC
  5
5B75
330
1F
100
AcDbEntity
  8
0
 62
     7
100
AcDbCircle
 10
2236.871472443572
 20
1173.192212260528
 30
0.0
 40
3.25
100
AcDbArc
 50
241.7593909999999
 51
344.9999990000001
  0
ARC
  5
5B76
330
1F
100
AcDbEntity
  8
0
 62
     7
100
AcDbCircle
 10
2238.561837443572
 20
1172.739327260528
 30
0.0
 40
5.0
100
AcDbArc
 50
74.9999939999995
 51
124.4583910000008
  0
ARC
  5
5B77
330
1F
100
AcDbEntity
  8
0
 62
     7
100
AcDbCircle
 10
2189.399392443573
 20
1189.103312260528
 30
0.0
 40
11.5
100
AcDbArc
 50
64.99999599999949
 51
138.5840279999991
  0
ARC
  5
5B78
330
1F
100
AcDbEntity
  8
0
 62
     7
100
AcDbCircle
 10
2203.900277443572
 20
1182.341382260529
 30
0.0
 40
11.5
100
AcDbArc
 50
244.9999880000003
 51
318.5840369999987
  0
ARC
  5
5B79
330
1F
100
AcDbEntity
  8
0
 62
     7
100
AcDbCircle
 10
2238.561837443572
 20
1172.739327260528
 30
0.0
 40
11.5
100
AcDbArc
 50
74.9999939999995
 51
148.5840539999996
  0
ARC
  5
5B7A
330
1F
100
AcDbEntity
  8
0
 62
     7
100
AcDbCircle
 10
2238.561837443572
 20
1172.739327260528
 30
0.0
 40
5.0
100
AcDbArc
 50
206.2258780000005
 51
255.0000130000004
  0
ARC
  5
5B7B
330
1F
100
AcDbEntity
  8
0
 62
     7
100
AcDbCircle
 10
2203.900277443572
 20
1182.341382260529
 30
0.0
 40
5.0
100
AcDbArc
 50
21.10189899999833
 51
64.99999599999949
  0
ARC
  5
5B7C
330
1F
100
AcDbEntity
  8
0
 62
     7
100
AcDbCircle
 10
2189.399392443573
 20
1189.103312260528
 30
0.0
 40
5.0
100
AcDbArc
 50
64.99999599999949
 51
114.4583930000002
  0
ARC
  5
5B7D
330
1F
100
AcDbEntity
  8
0
 62
     7
100
AcDbCircle
 10
2254.016702443573
 20
1168.598247260528
 30
0.0
 40
5.0
100
AcDbArc
 50
255.0000130000004
 51
304.4583970000015
  0
ARC
  5
5B7E
330
1F
100
AcDbEntity
  8
0
 62
     7
100
AcDbCircle
 10
2203.900277443572
 20
1182.341382260529
 30
0.0
 40
11.5
100
AcDbArc
 50
359.8437549999987
 51
64.99999599999949
  0
ARC
  5
5B7F
330
1F
100
AcDbEntity
  8
0
 62
     7
100
AcDbCircle
 10
2289.942682443572
 20
1168.297802260528
 30
0.0
 40
5.0
100
AcDbArc
 50
225.541598
 51
274.9999999999998
  0
ARC
  5
5B80
330
1F
100
AcDbEntity
  8
0
 62
     7
100
AcDbCircle
 10
2255.707072443573
 20
1168.145212260528
 30
0.0
 40
3.25
100
AcDbArc
 50
74.9999939999995
 51
270.0
  0
ARC
  5
5B81
330
1F
100
AcDbEntity
  8
0
 62
     7
100
AcDbCircle
 10
2305.881787443573
 20
1169.692302260529
 30
0.0
 40
5.0
100
AcDbArc
 50
35.00000199999934
 51
94.9999899999999
  0
ARC
  5
5B82
330
1F
100
AcDbEntity
  8
0
 62
     7
100
AcDbCircle
 10
2289.942682443572
 20
1168.297802260528
 30
0.0
 40
11.5
100
AcDbArc
 50
197.2098100000006
 51
274.9999999999998
  0
ARC
  5
5B83
330
1F
100
AcDbEntity
  8
0
 62
     7
100
AcDbCircle
 10
2238.561837443572
 20
1172.739327260528
 30
0.0
 40
11.5
100
AcDbArc
 50
181.4159540000013
 51
255.0000130000004
  0
ARC
  5
5B84
330
1F
100
AcDbEntity
  8
AM_3
 48
0.3
100
AcDbCircle
 10
1977.185037443572
 20
1191.158977260528
 30
0.0
 40
11.5
100
AcDbArc
 50
106.415955
 51
180.0000010000014
  0
ARC
  5
5B85
330
1F
100
AcDbEntity
  8
AM_3
 48
0.3
100
AcDbCircle
 10
1977.185037443572
 20
1191.158977260528
 30
0.0
 40
11.5
100
AcDbArc
 50
0.0000030000009406
 51
73.58404100000047
  0
ARC
  5
5B86
330
1F
100
AcDbEntity
  8
AM_3
 48
0.3
100
AcDbCircle
 10
1977.185037443572
 20
1225.401377260528
 30
0.0
 40
3.25
100
AcDbArc
 50
346.7593870000004
 51
90.00000500000007
  0
ARC
  5
5B88
330
1F
100
AcDbEntity
  8
AM_3
 48
0.3
100
AcDbCircle
 10
1977.185037443572
 20
1192.909007260528
 30
0.0
 40
3.25
100
AcDbArc
 50
180.0000010000014
 51
0.0000030000009406
  0
ARC
  5
5B89
330
1F
100
AcDbEntity
  8
AM_3
 48
0.3
100
AcDbCircle
 10
1977.185037443572
 20
1191.158977260528
 30
0.0
 40
5.0
100
AcDbArc
 50
130.5416039999999
 51
180.0000010000014
  0
ARC
  5
5B8A
330
1F
100
AcDbEntity
  8
AM_3
 48
0.3
100
AcDbCircle
 10
1977.185037443572
 20
1227.148967260528
 30
0.0
 40
5.0
100
AcDbArc
 50
180.0000010000014
 51
229.4584110000001
  0
ARC
  5
5B8B
330
1F
100
AcDbEntity
  8
AM_3
 48
0.3
100
AcDbCircle
 10
1977.185037443572
 20
1227.148967260528
 30
0.0
 40
11.5
100
AcDbArc
 50
180.0000010000014
 51
253.5840330000005
  0
ARC
  5
5B8C
330
1F
100
AcDbEntity
  8
AM_3
 48
0.3
100
AcDbCircle
 10
1977.185037443572
 20
1243.149027260529
 30
0.0
 40
11.5
100
AcDbArc
 50
0.0000030000009406
 51
73.58404100000047
  0
ARC
  5
5B8D
330
1F
100
AcDbEntity
  8
AM_3
 48
0.3
100
AcDbCircle
 10
1977.185037443572
 20
1279.141307260528
 30
0.0
 40
5.0
100
AcDbArc
 50
354.1187319999996
 51
0.0000030000009406
  0
ARC
  5
5B8E
330
1F
100
AcDbEntity
  8
AM_3
 48
0.3
100
AcDbCircle
 10
1977.185037443572
 20
1243.149027260529
 30
0.0
 40
11.5
100
AcDbArc
 50
106.415955
 51
180.0000010000014
  0
ARC
  5
5B8F
330
1F
100
AcDbEntity
  8
AM_3
 48
0.3
100
AcDbCircle
 10
1977.185037443572
 20
1227.148967260528
 30
0.0
 40
11.5
100
AcDbArc
 50
286.4159619999998
 51
0.0000030000009406
  0
ARC
  5
5B90
330
1F
100
AcDbEntity
  8
AM_3
 48
0.3
100
AcDbCircle
 10
1977.185037443572
 20
1243.149027260529
 30
0.0
 40
5.0
100
AcDbArc
 50
0.0000030000009406
 51
49.45839300000038
  0
ARC
  5
5B91
330
1F
100
AcDbEntity
  8
AM_3
 48
0.3
100
AcDbCircle
 10
1977.185037443572
 20
1277.391277260529
 30
0.0
 40
3.25
100
AcDbArc
 50
346.7593870000004
 51
180.0000010000014
  0
ARC
  5
5B92
330
1F
100
AcDbEntity
  8
AM_3
 48
0.3
100
AcDbCircle
 10
1977.185037443572
 20
1227.148967260528
 30
0.0
 40
5.0
100
AcDbArc
 50
310.5416020000001
 51
0.0000030000009406
  0
ARC
  5
5B93
330
1F
100
AcDbEntity
  8
0
 62
     7
100
AcDbCircle
 10
2189.399392443573
 20
1189.103312260528
 30
0.0
 40
5.0
100
AcDbArc
 50
195.5416040000007
 51
244.9999880000003
  0
ARC
  5
5B94
330
1F
100
AcDbEntity
  8
0
 62
     7
100
AcDbCircle
 10
2189.399392443573
 20
1189.103312260528
 30
0.0
 40
11.5
100
AcDbArc
 50
171.4159560000001
 51
244.9999880000003
  0
ARC
  5
5B95
330
1F
100
AcDbEntity
  8
AM_3
 48
0.3
100
AcDbCircle
 10
1977.185037443572
 20
1279.139017260528
 30
0.0
 40
11.5
100
AcDbArc
 50
180.0000010000014
 51
253.5840330000005
  0
ARC
  5
5B96
330
1F
100
AcDbEntity
  8
AM_3
 48
0.3
100
AcDbCircle
 10
1977.185037443572
 20
1295.139077260528
 30
0.0
 40
11.5
100
AcDbArc
 50
24.00515999999951
 51
180.0000010000014
  0
ARC
  5
5B97
330
1F
100
AcDbEntity
  8
0
  6
DASHED
 62
     7
100
AcDbCircle
 10
2097.970792443573
 20
1238.443827260528
 30
0.0
 40
11.5
100
AcDbArc
 50
133.5840290000004
 51
166.4159570000014
  0
ARC
  5
5B98
330
1F
100
AcDbEntity
  8
AM_3
 48
0.3
100
AcDbCircle
 10
1977.266442443572
 20
1296.567452260529
 30
0.0
 40
3.25
100
AcDbArc
 50
90.00000500000007
 51
270.0
  0
ARC
  5
5B99
330
1F
100
AcDbEntity
  8
0
 62
     7
100
AcDbCircle
 10
2142.995432443572
 20
1212.448802260528
 30
0.0
 40
11.5
100
AcDbArc
 50
166.4159570000014
 51
239.9999889999988
  0
ARC
  5
5B9A
330
1F
100
AcDbEntity
  8
0
 62
     7
100
AcDbCircle
 10
2097.970792443573
 20
1238.443827260528
 30
0.0
 40
5.0
100
AcDbArc
 50
190.5416050000003
 51
239.9999889999988
  0
ARC
  5
5B9B
330
1F
100
AcDbEntity
  8
0
 62
     7
100
AcDbCircle
 10
2321.373422443572
 20
1164.522777260528
 30
0.0
 40
4.0
100
AcDbArc
 50
22.18479800000169
 51
94.9999899999999
  0
ARC
  5
5B9C
330
1F
100
AcDbEntity
  8
0
 62
     7
100
AcDbCircle
 10
2238.561837443572
 20
1172.739327260528
 30
0.0
 40
5.0
100
AcDbArc
 50
249.1187280000005
 51
255.0000130000004
  0
ARC
  5
5B9D
330
1F
100
AcDbEntity
  8
0
 62
     7
100
AcDbCircle
 10
2288.199292443573
 20
1168.145212260528
 30
0.0
 40
3.25
100
AcDbArc
 50
5.000001999998577
 51
94.9999899999999
  0
ARC
  5
5B9E
330
1F
100
AcDbEntity
  8
0
 62
     7
100
AcDbCircle
 10
2158.367367443572
 20
1203.573832260528
 30
0.0
 40
3.25
100
AcDbArc
 50
59.99999700000011
 51
239.9999889999988
  0
ARC
  5
5B9F
330
1F
100
AcDbEntity
  8
0
 62
     7
100
AcDbCircle
 10
2011.272332443573
 20
1295.693582260528
 30
0.0
 40
5.0
100
AcDbArc
 50
208.3742180000005
 51
239.9999889999988
  0
ARC
  5
5BA0
330
1F
100
AcDbEntity
  8
AM_3
 48
0.3
100
AcDbCircle
 10
1977.185037443572
 20
1243.149027260529
 30
0.0
 40
5.0
100
AcDbArc
 50
130.5416039999999
 51
180.0000010000014
  0
ARC
  5
5BA1
330
1F
100
AcDbEntity
  8
AM_3
 48
0.3
100
AcDbCircle
 10
1977.185037443572
 20
1295.139077260528
 30
0.0
 40
5.0
100
AcDbArc
 50
69.33886000000097
 51
180.0000010000014
  0
ARC
  5
5BA2
330
1F
100
AcDbEntity
  8
AM_3
 48
0.3
100
AcDbCircle
 10
1977.185037443572
 20
1244.899057260528
 30
0.0
 40
3.25
100
AcDbArc
 50
180.0000010000014
 51
0.0000030000009406
  0
ARC
  5
5BA3
330
1F
100
AcDbEntity
  8
0
 62
     7
100
AcDbCircle
 10
2097.970792443573
 20
1238.443827260528
 30
0.0
 40
11.5
100
AcDbArc
 50
59.99999700000011
 51
133.5840290000004
  0
ARC
  5
5BA4
330
1F
100
AcDbEntity
  8
0
 62
     7
100
AcDbCircle
 10
2111.827142443573
 20
1230.443797260528
 30
0.0
 40
11.5
100
AcDbArc
 50
346.4159579999996
 51
59.99999700000011
  0
ARC
  5
5BA5
330
1F
100
AcDbEntity
  8
0
 62
     7
100
AcDbCircle
 10
2009.758817443572
 20
1296.567452260529
 30
0.0
 40
3.25
100
AcDbArc
 50
330.0000020000014
 51
90.000019
  0
ARC
  5
5BA6
330
1F
100
AcDbEntity
  8
0
 62
     7
100
AcDbCircle
 10
2097.970792443573
 20
1238.443827260528
 30
0.0
 40
11.5
100
AcDbArc
 50
166.4159570000014
 51
239.9999889999988
  0
ARC
  5
5BA7
330
1F
100
AcDbEntity
  8
AM_3
 48
0.3
100
AcDbCircle
 10
1977.185037443572
 20
1279.139017260528
 30
0.0
 40
5.0
100
AcDbArc
 50
180.0000010000014
 51
229.4584110000001
  0
ARC
  5
5BA8
330
1F
100
AcDbEntity
  8
0
 62
     7
100
AcDbCircle
 10
2011.272332443573
 20
1295.693582260528
 30
0.0
 40
11.5
100
AcDbArc
 50
191.9244180000007
 51
239.9999889999988
  0
ARC
  5
5BA9
330
1F
100
AcDbEntity
  8
0
 62
     7
100
AcDbCircle
 10
2009.758817443572
 20
1296.567452260529
 30
0.0
 40
3.25
100
AcDbArc
 50
270.0
 51
330.0000020000014
  0
ARC
  5
5BAA
330
1F
100
AcDbEntity
  8
AM_3
 48
0.3
100
AcDbCircle
 10
1977.185037443572
 20
1279.139017260528
 30
0.0
 40
5.0
100
AcDbArc
 50
310.5416020000001
 51
0.0000030000009406
  0
ARC
  5
5BAB
330
1F
100
AcDbEntity
  8
0
 62
     7
100
AcDbCircle
 10
2011.274317443572
 20
1295.692517260529
 30
0.0
 40
5.0
100
AcDbArc
 50
234.1187310000014
 51
239.9999889999988
  0
ARC
  5
5BAC
330
1F
100
AcDbEntity
  8
0
 62
     7
100
AcDbCircle
 10
2011.272332443573
 20
1295.693582260528
 30
0.0
 40
5.0
100
AcDbArc
 50
59.99999700000011
 51
122.7182089999991
  0
ARC
  5
5BAD
330
1F
100
AcDbEntity
  8
0
 62
     7
100
AcDbCircle
 10
2011.272332443573
 20
1295.693582260528
 30
0.0
 40
11.5
100
AcDbArc
 50
59.99999700000011
 51
158.9859950000013
  0
ARC
  5
5BAE
330
1F
100
AcDbEntity
  8
0
 62
     7
100
AcDbCircle
 10
2052.346477443572
 20
1266.747202260529
 30
0.0
 40
3.25
100
AcDbArc
 50
324.9999990000016
 51
54.99999799999997
  0
ARC
  5
5BAF
330
1F
100
AcDbEntity
  8
0
 62
     7
100
AcDbCircle
 10
2024.296777443572
 20
1286.387707260528
 30
0.0
 40
11.5
100
AcDbArc
 50
234.9999899999989
 51
308.5840390000007
  0
ARC
  5
5BB0
330
1F
100
AcDbEntity
  8
0
 62
     7
100
AcDbCircle
 10
2024.296777443572
 20
1286.387707260528
 30
0.0
 40
5.0
100
AcDbArc
 50
234.9999899999989
 51
284.4583990000004
  0
ARC
  5
5BB1
330
1F
100
AcDbEntity
  8
0
 62
     7
100
AcDbCircle
 10
2053.779962443573
 20
1265.743477260528
 30
0.0
 40
5.0
100
AcDbArc
 50
229.1187320000007
 51
234.9999899999989
  0
ARC
  5
5BB2
330
1F
100
AcDbEntity
  8
0
 62
     7
100
AcDbCircle
 10
2024.296777443572
 20
1286.387707260528
 30
0.0
 40
11.5
100
AcDbArc
 50
341.4159590000004
 51
54.99999799999997
  0
ARC
  5
5BB3
330
1F
100
AcDbEntity
  8
0
 62
     7
100
AcDbCircle
 10
2053.778132443572
 20
1265.744702260528
 30
0.0
 40
5.0
100
AcDbArc
 50
185.541605999999
 51
234.9999899999989
  0
ARC
  5
5BB4
330
1F
100
AcDbEntity
  8
0
 62
     7
100
AcDbCircle
 10
2052.346477443572
 20
1266.747202260529
 30
0.0
 40
3.25
100
AcDbArc
 50
221.7593950000015
 51
324.9999990000016
  0
ARC
  5
5BB5
330
1F
100
AcDbEntity
  8
0
 62
     7
100
AcDbCircle
 10
2025.730342443572
 20
1285.383982260528
 30
0.0
 40
3.25
100
AcDbArc
 50
54.99999799999997
 51
234.9999899999989
  0
ARC
  5
5BB6
330
1F
100
AcDbEntity
  8
0
 62
     7
100
AcDbCircle
 10
2024.296777443572
 20
1286.387707260528
 30
0.0
 40
5.0
100
AcDbArc
 50
5.541600999998441
 51
54.99999799999997
  0
ARC
  5
5BB7
330
1F
100
AcDbEntity
  8
0
 62
     7
100
AcDbCircle
 10
2053.778132443572
 20
1265.744702260528
 30
0.0
 40
5.0
100
AcDbArc
 50
54.99999799999997
 51
104.4583950000001
  0
ARC
  5
5BB8
330
1F
100
AcDbEntity
  8
0
 62
     7
100
AcDbCircle
 10
2053.778132443572
 20
1265.744702260528
 30
0.0
 40
11.5
100
AcDbArc
 50
54.99999799999997
 51
128.5840300000002
  0
ARC
  5
5BB9
330
1F
100
AcDbEntity
  8
0
 62
     7
100
AcDbCircle
 10
2096.457192443573
 20
1239.317697260529
 30
0.0
 40
3.25
100
AcDbArc
 50
330.0000020000014
 51
59.99999700000011
  0
ARC
  5
5BBA
330
1F
100
AcDbEntity
  8
0
 62
     7
100
AcDbCircle
 10
2066.884517443573
 20
1256.567607260528
 30
0.0
 40
11.5
100
AcDbArc
 50
234.9999899999989
 51
312.7901959999998
  0
ARC
  5
5BBB
330
1F
100
AcDbEntity
  8
0
 62
     7
100
AcDbCircle
 10
2066.884517443573
 20
1256.567607260528
 30
0.0
 40
5.0
100
AcDbArc
 50
234.9999899999989
 51
284.4583990000004
  0
ARC
  5
5BBC
330
1F
100
AcDbEntity
  8
0
 62
     7
100
AcDbCircle
 10
2097.972772443573
 20
1238.442607260528
 30
0.0
 40
5.0
100
AcDbArc
 50
234.1187310000014
 51
239.9999889999988
  0
ARC
  5
5BBD
330
1F
100
AcDbEntity
  8
0
 62
     7
100
AcDbCircle
 10
2066.884517443573
 20
1256.567607260528
 30
0.0
 40
11.5
100
AcDbArc
 50
345.6253429999994
 51
54.99999799999997
  0
ARC
  5
5BBE
330
1F
100
AcDbEntity
  8
0
 62
     7
100
AcDbCircle
 10
2053.778132443572
 20
1265.744702260528
 30
0.0
 40
11.5
100
AcDbArc
 50
161.4159579999989
 51
234.9999899999989
  0
ARC
  5
5BBF
330
1F
100
AcDbEntity
  8
0
 62
     7
100
AcDbCircle
 10
2096.457192443573
 20
1239.317697260529
 30
0.0
 40
3.25
100
AcDbArc
 50
226.7593940000011
 51
330.0000020000014
  0
ARC
  5
5BC0
330
1F
100
AcDbEntity
  8
0
 62
     7
100
AcDbCircle
 10
2068.318082443572
 20
1255.563732260528
 30
0.0
 40
3.25
100
AcDbArc
 50
54.99999799999997
 51
234.9999899999989
  0
ARC
  5
5BC1
330
1F
100
AcDbEntity
  8
0
 62
     7
100
AcDbCircle
 10
2066.884517443573
 20
1256.567607260528
 30
0.0
 40
5.0
100
AcDbArc
 50
5.541600999998441
 51
54.99999799999997
  0
ARC
  5
5BC2
330
1F
100
AcDbEntity
  8
0
 62
     7
100
AcDbCircle
 10
2097.970792443573
 20
1238.443827260528
 30
0.0
 40
5.0
100
AcDbArc
 50
59.99999700000011
 51
109.4583940000005
  0
ARC
  5
5BC3
330
1F
100
AcDbEntity
  8
0
 62
     7
100
AcDbCircle
 10
2141.481837443572
 20
1213.322672260528
 30
0.0
 40
3.25
100
AcDbArc
 50
330.0000020000014
 51
59.99999700000011
  0
ARC
  5
5BC4
330
1F
100
AcDbEntity
  8
0
 62
     7
100
AcDbCircle
 10
2111.827142443573
 20
1230.443797260528
 30
0.0
 40
11.5
100
AcDbArc
 50
239.9999889999988
 51
313.5840380000001
  0
ARC
  5
5BC5
330
1F
100
AcDbEntity
  8
0
 62
     7
100
AcDbCircle
 10
2111.827142443573
 20
1230.443797260528
 30
0.0
 40
5.0
100
AcDbArc
 50
239.9999889999988
 51
289.4583979999993
  0
ARC
  5
5BC6
330
1F
100
AcDbEntity
  8
0
 62
     7
100
AcDbCircle
 10
2142.997417443573
 20
1212.447582260528
 30
0.0
 40
5.0
100
AcDbArc
 50
234.1187310000014
 51
239.9999889999988
  0
ARC
  5
5BC7
330
1F
100
AcDbEntity
  8
0
 62
     7
100
AcDbCircle
 10
2141.481837443572
 20
1213.322672260528
 30
0.0
 40
3.25
100
AcDbArc
 50
226.7593940000011
 51
330.0000020000014
  0
ARC
  5
5BC8
330
1F
100
AcDbEntity
  8
0
 62
     7
100
AcDbCircle
 10
2142.995432443572
 20
1212.448802260528
 30
0.0
 40
5.0
100
AcDbArc
 50
190.5416050000003
 51
239.9999889999988
  0
DIMENSION
  5
6532
330
1F
100
AcDbEntity
  8
AM_5
100
AcDbDimension
  2
*D19
 10
2035.535107443572
 20
1428.312297173261
 30
0.0
 11
1937.035084943572
 21
1443.312297173261
 31
0.0
 70
    32
  1
%%c<>
 71
     5
 42
197.0000449999997
  3
IGS$0
100
AcDbAlignedDimension
 13
1838.535062443572
 23
1368.312297173261
 33
0.0
 14
2035.535107443572
 24
1368.312297173261
 34
0.0
100
AcDbRotatedDimension
1001
ACAD
1000
DSTYLE
1002
{
1070
    40
1040
5.0
1070
   271
1070
     1
1070
   272
1070
     1
1002
}
  0
DIMENSION
  5
6563
330
1F
100
AcDbEntity
  8
AM_5
100
AcDbDimension
  2
*D20
 10
2303.522442273063
 20
673.3122972605278
 30
0.0
 11
2288.522442273063
 21
1023.312297260528
 31
0.0
 70
    32
 71
     5
 42
700.0
  3
IGS$0
100
AcDbAlignedDimension
 13
2030.53510700724
 23
1373.312297260528
 33
0.0
 14
2243.522442273063
 24
673.3122972605278
 34
0.0
 50
90.0
100
AcDbRotatedDimension
1001
ACAD
1000
DSTYLE
1002
{
1070
    40
1040
5.0
1070
   174
1070
     1
1002
}
  0
DIMENSION
  5
6589
330
1F
100
AcDbEntity
  8
AM_5
100
AcDbDimension
  2
*D21
 10
2303.522442273063
 20
673.3122972605278
 30
0.0
 11
2288.522442273063
 21
318.3860797688943
 31
0.0
 70
    32
  1
880
 71
     5
 42
709.8524349832678
  3
IGS$0
100
AcDbAlignedDimension
 13
2187.035122443573
 23
-36.54013772273993
 33
0.0
 14
2243.522442273063
 24
673.3122972605278
 34
0.0
 50
90.0
100
AcDbRotatedDimension
1001
ACAD
1000
DSTYLE
1002
{
1070
   174
1070
     1
1070
    40
1040
5.0
1070
   271
1070
     1
1070
   272
1070
     1
1002
}
  0
DIMENSION
  5
65A4
330
1F
100
AcDbEntity
  8
AM_5
100
AcDbDimension
  2
*D22
 10
2303.522442273063
 20
-36.54013772273997
 30
0.0
 11
2288.520965895111
 21
-86.54013772273959
 31
0.0
 70
    32
  1
150～200
 71
     5
 42
100.0
  3
IGS$0
100
AcDbAlignedDimension
 13
2187.035122443573
 23
-136.5401377227399
 33
0.0
 14
2187.035122443573
 24
-36.54013772273993
 34
0.0
 50
90.0
100
AcDbRotatedDimension
1001
ACAD
1000
DSTYLE
1002
{
1070
   174
1070
     1
1070
    40
1040
5.0
1070
   271
1070
     1
1070
   272
1070
     1
1002
}
  0
DIMENSION
  5
65F3
330
1F
100
AcDbEntity
  8
AM_5
100
AcDbDimension
  2
*D23
 10
2247.035122443573
 20
423.3122972605278
 30
0.0
 11
2232.033646065621
 21
548.3122972605283
 31
0.0
 70
    32
 71
     5
 42
250.0
  3
IGS$0
100
AcDbAlignedDimension
 13
2187.035122443573
 23
673.3122972605279
 33
0.0
 14
2187.035122443573
 24
423.3122972605278
 34
0.0
 50
90.0
100
AcDbRotatedDimension
1001
ACAD
1000
DSTYLE
1002
{
1070
    40
1040
5.0
1070
   271
1070
     1
1070
   272
1070
     1
1002
}
  0
DIMENSION
  5
661B
330
1F
100
AcDbEntity
  8
AM_5
100
AcDbDimension
  2
*D24
 10
2187.035122443572
 20
330.6257475303992
 30
0.0
 11
1937.035084943572
 21
345.6257475303992
 31
0.0
 70
    32
  1
{\Famgdt;o}<>
 71
     5
 42
500.0000749999994
  3
IGS$0
100
AcDbAlignedDimension
 13
1687.035047443573
 23
423.3122972605278
 33
0.0
 14
2187.035122443572
 24
423.3122972605277
 34
0.0
100
AcDbRotatedDimension
1001
ACAD
1000
DSTYLE
1002
{
1070
    40
1040
5.0
1070
   271
1070
     1
1070
   272
1070
     1
1002
}
  0
LINE
  5
6660
330
1F
100
AcDbEntity
  8
AM_4
100
AcDbLine
 10
2136.405278246913
 20
-136.5401377227399
 30
0.0
 11
2124.84071251311
 21
-116.509722304324
 31
0.0
  0
LINE
  5
6661
330
1F
100
AcDbEntity
  8
AM_4
100
AcDbLine
 10
1936.405278246913
 20
-136.5401377227399
 30
0.0
 11
1924.84071251311
 21
-116.509722304324
 31
0.0
  0
LINE
  5
6662
330
1F
100
AcDbEntity
  8
AM_4
100
AcDbLine
 10
2036.405278246913
 20
-136.5401377227399
 30
0.0
 11
2024.84071251311
 21
-116.509722304324
 31
0.0
  0
LINE
  5
6663
330
1F
100
AcDbEntity
  8
AM_4
100
AcDbLine
 10
1913.276146779307
 20
-136.5401377227399
 30
0.0
 11
1971.01117369827
 21
-36.54013772273993
 31
0.0
  0
LINE
  5
6664
330
1F
100
AcDbEntity
  8
AM_4
100
AcDbLine
 10
2113.276146779307
 20
-136.5401377227399
 30
0.0
 11
2171.01117369827
 21
-36.54013772273993
 31
0.0
  0
LINE
  5
6665
330
1F
100
AcDbEntity
  8
AM_4
100
AcDbLine
 10
2013.276146779307
 20
-136.5401377227399
 30
0.0
 11
2071.01117369827
 21
-36.54013772273993
 31
0.0
  0
LINE
  5
6666
330
1F
100
AcDbEntity
  8
AM_4
100
AcDbLine
 10
1736.405278246913
 20
-136.5401377227399
 30
0.0
 11
1724.84071251311
 21
-116.509722304324
 31
0.0
  0
LINE
  5
6667
330
1F
100
AcDbEntity
  8
AM_4
100
AcDbLine
 10
1836.405278246912
 20
-136.5401377227399
 30
0.0
 11
1824.84071251311
 21
-116.509722304324
 31
0.0
  0
LINE
  5
6668
330
1F
100
AcDbEntity
  8
AM_4
100
AcDbLine
 10
1713.276146779307
 20
-136.5401377227399
 30
0.0
 11
1771.01117369827
 21
-36.54013772273993
 31
0.0
  0
LINE
  5
6669
330
1F
100
AcDbEntity
  8
AM_4
100
AcDbLine
 10
1813.276146779307
 20
-136.5401377227399
 30
0.0
 11
1871.01117369827
 21
-36.54013772273993
 31
0.0
  0
LINE
  5
666A
330
1F
100
AcDbEntity
  8
AM_4
100
AcDbLine
 10
1759.167549240262
 20
-57.05389702977573
 30
0.0
 11
1747.323924782254
 21
-36.54013772273993
 31
0.0
  0
LINE
  5
666B
330
1F
100
AcDbEntity
  8
AM_4
100
AcDbLine
 10
1859.167549240262
 20
-57.05389702977573
 30
0.0
 11
1847.323924782254
 21
-36.54013772273993
 31
0.0
  0
LINE
  5
666C
330
1F
100
AcDbEntity
  8
AM_4
100
AcDbLine
 10
2059.167549240263
 20
-57.05389702977573
 30
0.0
 11
2047.323924782254
 21
-36.54013772273993
 31
0.0
  0
LINE
  5
666D
330
1F
100
AcDbEntity
  8
AM_4
100
AcDbLine
 10
1959.167549240262
 20
-57.05389702977573
 30
0.0
 11
1947.323924782254
 21
-36.54013772273993
 31
0.0
  0
LINE
  5
666E
330
1F
100
AcDbEntity
  8
AM_4
100
AcDbLine
 10
2159.167549240263
 20
-57.05389702977573
 30
0.0
 11
2147.323924782254
 21
-36.54013772273993
 31
0.0
  0
DIMENSION
  5
667E
330
1F
100
AcDbEntity
  8
AM_5
100
AcDbDimension
  2
*D25
 10
2019.535122443572
 20
87.4717873444769
 30
0.0
 11
1937.035084943573
 21
102.4717873444769
 31
0.0
 70
    32
  1
%%c<>
 71
     5
 42
165.0000749999999
  3
IGS$0
100
AcDbAlignedDimension
 13
1854.535047443573
 23
147.471787344477
 33
0.0
 14
2019.535122443572
 24
147.471787344477
 34
0.0
100
AcDbRotatedDimension
1001
ACAD
1000
DSTYLE
1002
{
1070
    40
1040
5.0
1070
   271
1070
     1
1070
   272
1070
     1
1002
}
  0
INSERT
  5
66A0
330
1F
100
AcDbEntity
  8
AM_5
100
AcDbBlockReference
  2
*S30
 10
0.0
 20
0.0
 30
0.0
  0
INSERT
  5
66A2
330
1F
100
AcDbEntity
  8
AM_5
100
AcDbBlockReference
  2
*S31
 10
0.0
 20
0.0
 30
0.0
  0
INSERT
  5
66A7
330
1F
100
AcDbEntity
  8
AM_5
100
AcDbBlockReference
  2
*S32
 10
0.0
 20
0.0
 30
0.0
  0
INSERT
  5
66AB
330
1F
100
AcDbEntity
  8
AM_5
100
AcDbBlockReference
  2
*S33
 10
0.0
 20
0.0
 30
0.0
  0
DIMENSION
  5
66C1
330
1F
100
AcDbEntity
  8
AM_5
100
AcDbDimension
  2
*D26
 10
2037.035122443572
 20
740.812297260528
 30
0.0
 11
1937.035084943573
 21
755.8137736384807
 31
0.0
 70
    32
  1
%%c<>
 71
     5
 42
200.0000749999999
  3
IGS$0
100
AcDbAlignedDimension
 13
1837.035047443572
 23
680.8122972605278
 33
0.0
 14
2037.035122443572
 24
680.8122972605278
 34
0.0
100
AcDbRotatedDimension
1001
ACAD
1000
DSTYLE
1002
{
1070
    40
1040
5.0
1070
   271
1070
     1
1070
   272
1070
     1
1002
}
  0
INSERT
  5
66E4
330
1F
100
AcDbEntity
  8
AM_5
100
AcDbBlockReference
  2
*S34
 10
0.0
 20
0.0
 30
0.0
  0
DIMENSION
  5
66F9
330
1F
100
AcDbEntity
  8
AM_5
100
AcDbDimension
  2
*D27
 10
1994.185082443572
 20
1020.434059993226
 30
0.0
 11
1937.035082443572
 21
1035.435536371178
 31
0.0
 70
    32
  1
%%c<>×2.5
 71
     5
 42
114.3000000000002
  3
IGS$0
100
AcDbAlignedDimension
 13
1879.885082443572
 23
997.3759967807
 33
0.0
 14
1994.185082443572
 24
997.3759967807
 34
0.0
100
AcDbRotatedDimension
1001
ACAD
1000
DSTYLE
1002
{
1070
    40
1040
5.0
1070
   271
1070
     1
1070
   272
1070
     1
1002
}
  0
INSERT
  5
671C
330
1F
100
AcDbEntity
  8
AM_5
100
AcDbBlockReference
  2
*S35
 10
0.0
 20
0.0
 30
0.0
  0
INSERT
  5
6728
330
1F
100
AcDbEntity
  8
AM_5
100
AcDbBlockReference
  2
*S36
 10
0.0
 20
0.0
 30
0.0
  0
INSERT
  5
672A
330
1F
100
AcDbEntity
  8
AM_5
100
AcDbBlockReference
  2
*S37
 10
0.0
 20
0.0
 30
0.0
  0
INSERT
  5
672D
330
1F
100
AcDbEntity
  8
AM_5
100
AcDbBlockReference
  2
*S38
 10
0.0
 20
0.0
 30
0.0
  0
INSERT
  5
6730
330
1F
100
AcDbEntity
  8
AM_5
100
AcDbBlockReference
  2
*S39
 10
0.0
 20
0.0
 30
0.0
  0
INSERT
  5
6733
330
1F
100
AcDbEntity
  8
AM_5
100
AcDbBlockReference
  2
*S40
 10
0.0
 20
0.0
 30
0.0
  0
INSERT
  5
6735
330
1F
100
AcDbEntity
  8
AM_5
100
AcDbBlockReference
  2
*S41
 10
0.0
 20
0.0
 30
0.0
  0
LWPOLYLINE
  5
6807
330
1F
100
AcDbEntity
  8
AM_0
100
AcDbPolyline
 90
        4
 70
     0
 43
0.0
 10
1937.035084942372
 20
240.7978907817733
 42
0.3999999999951828
 10
2019.535122442372
 20
240.7978907817733
 42
0.4000000000192688
 10
1937.035084942372
 20
240.7978907817733
 42
-0.3999999999951828
 10
1854.535047442372
 20
240.7978907817733
  0
LWPOLYLINE
  5
6808
330
1F
100
AcDbEntity
  8
AM_0
100
AcDbPolyline
 90
        4
 70
     0
 43
0.0
 10
1937.035009944773
 20
197.5273661453257
 42
0.3999999999951828
 10
1854.534972444773
 20
197.5273661453257
 42
0.4000000000192688
 10
1937.035009944773
 20
197.5273661453257
 42
-0.3999999999951828
 10
2019.535047444773
 20
197.5273661453257
  0
LINE
  5
6809
330
1F
100
AcDbEntity
  8
0
 62
     7
100
AcDbLine
 10
1854.535047443573
 20
197.5274375726298
 30
0.0
 11
1854.535047443573
 21
-36.54013772273993
 31
0.0
  0
LINE
  5
680A
330
1F
100
AcDbEntity
  8
0
 62
     7
100
AcDbLine
 10
2019.535047444773
 20
197.5273661453257
 30
0.0
 11
2019.535122443572
 21
-36.54013772273993
 31
0.0
  0
INSERT
  5
6932
330
1F
100
AcDbEntity
  8
AM_5
100
AcDbBlockReference
  2
*S42
 10
0.0
 20
0.0
 30
0.0
  0
TEXT
  5
6937
330
1F
100
AcDbEntity
  8
AM_0
100
AcDbText
 10
2314.677809785544
 20
683.9040804253927
 30
0.0
 40
25.0
  1
G.L
 11
2314.677809785544
 21
683.9040804253927
 31
0.0
100
AcDbText
 73
     1
  0
TEXT
  5
694A
330
1F
100
AcDbEntity
  8
TEXT
100
AcDbText
 10
2273.331621149858
 20
-307.2737257908884
 30
0.0
 40
13.043478258
  1
08.03.11
 41
0.7629803921568524
 72
     5
 11
2315.627273314465
 21
-307.2737257908884
 31
0.0
100
AcDbText
  0
INSERT
  5
694B
330
1F
100
AcDbEntity
  8
0
100
AcDbBlockReference
  2
NAKAMURA
 10
2295.170937633005
 20
-300.7519866618882
 30
0.0
 41
4.347826086000168
 42
4.347826086000168
 43
4.347826086
  0
INSERT
  5
6950
330
1F
100
AcDbEntity
  8
0
100
AcDbBlockReference
  2
NAKAMURA
 10
2170.170937632995
 20
-300.7519866618882
 30
0.0
 41
4.347826086000168
 42
4.347826086000168
 43
4.347826086
  0
TEXT
  5
6951
330
1F
100
AcDbEntity
  8
TEXT
100
AcDbText
 10
2148.331621149849
 20
-307.2737257908884
 30
0.0
 40
13.043478258
  1
08.03.11
 41
0.7629803921568524
 72
     5
 11
2190.627273314456
 21
-307.2737257908884
 31
0.0
100
AcDbText
  0
CIRCLE
  5
695F
330
1F
100
AcDbEntity
  8
0
100
AcDbCircle
 10
2168.31218269997
 20
-232.0704130704926
 30
0.0
 40
24.99999999450056
  0
LINE
  5
6960
330
1F
100
AcDbEntity
  8
0
100
AcDbLine
 10
2191.751159491387
 20
-223.3747608984924
 30
0.0
 11
2144.873205908553
 21
-223.3747608984924
 31
0.0
  0
TEXT
  5
6961
330
1F
100
AcDbEntity
  8
0
100
AcDbText
 10
2162.183625199231
 20
-222.189053212315
 30
0.0
 40
12.50000000000027
  1
梅
 72
     4
 11
2168.016958532565
 21
-215.9390532123148
 31
0.0
100
AcDbText
  0
TEXT
  5
6962
330
1F
100
AcDbEntity
  8
0
100
AcDbText
 10
2162.975616098981
 20
-255.3505423769392
 30
0.0
 40
12.50000000000027
  1
村
 72
     4
 11
2168.808949432314
 21
-249.1005423769391
 31
0.0
100
AcDbText
  0
LINE
  5
6963
330
1F
100
AcDbEntity
  8
0
100
AcDbLine
 10
2191.751159491387
 20
-240.7660652424928
 30
0.0
 11
2144.873205908553
 21
-240.7660652424928
 31
0.0
  0
LINE
  5
6970
330
1F
100
AcDbEntity
  8
0
100
AcDbLine
 10
2317.3107770392
 20
-239.4476388338331
 30
0.0
 11
2270.432823456363
 21
-239.4476388338333
 31
0.0
  0
LINE
  5
6971
330
1F
100
AcDbEntity
  8
0
100
AcDbLine
 10
2317.3107770392
 20
-222.0563344898328
 30
0.0
 11
2270.432823456363
 21
-222.0563344898328
 31
0.0
  0
CIRCLE
  5
6972
330
1F
100
AcDbEntity
  8
0
100
AcDbCircle
 10
2293.87180024778
 20
-230.751986661833
 30
0.0
 40
24.99999999450056
  0
TEXT
  5
6974
330
1F
100
AcDbEntity
  8
0
100
AcDbText
 10
2288.535233646793
 20
-254.0321159682798
 30
0.0
 40
12.50000000000027
  1
本
 72
     4
 11
2294.368566980127
 21
-247.7821159682796
 31
0.0
100
AcDbText
  0
TEXT
  5
6975
330
1F
100
AcDbEntity
  8
0
100
AcDbText
 10
2287.743242747042
 20
-220.8706268036554
 30
0.0
 40
12.50000000000027
  1
松
 72
     4
 11
2293.576576080375
 21
-214.6206268036553
 31
0.0
100
AcDbText
  0
TEXT
  5
6976
330
1F
100
AcDbEntity
  8
TEXT
100
AcDbText
 10
2147.032483764625
 20
-237.2737257908332
 30
0.0
 40
13.043478258
  1
08.03.11
 41
0.7629803921568524
 72
     5
 11
2189.328135929232
 21
-237.2737257908332
 31
0.0
100
AcDbText
  0
TEXT
  5
6977
330
1F
100
AcDbEntity
  8
TEXT
100
AcDbText
 10
2272.032483764633
 20
-237.2737257908332
 30
0.0
 40
13.043478258
  1
08.03.11
 41
0.7629803921568524
 72
     5
 11
2314.328135929241
 21
-237.2737257908332
 31
0.0
100
AcDbText
  0
ENDSEC
  0
SECTION
  2
OBJECTS
  0
DICTIONARY
  5
C
330
0
100
AcDbDictionary
281
     1
  3
ACAD_COLOR
350
985
  3
ACAD_GROUP
350
D
  3
ACAD_LAYOUT
350
1A
  3
ACAD_MATERIAL
350
984
  3
ACAD_MLINESTYLE
350
17
  3
ACAD_PLOTSETTINGS
350
19
  3
ACAD_PLOTSTYLENAME
350
E
  3
AcDbVariableDictionary
350
43
  3
AcmDictionary
350
55
  3
AMG
350
2B
  3
AMGSNAPSETTINGS
350
A8
  3
ASE_INDEX_DICTIONARY
350
6518
  0
DICTIONARY
  5
664A
330
2
100
AcDbDictionary
280
     1
281
     1
  3
ACAD_LAYERSTATES
360
664B
  0
DICTIONARY
  5
B1
330
1F
100
AcDbDictionary
280
     1
281
     1
  3
ACAD_INDEX
360
B2
  0
DICTIONARY
  5
985
102
{ACAD_REACTORS
330
C
102
}
330
C
100
AcDbDictionary
281
     1
  0
DICTIONARY
  5
D
102
{ACAD_REACTORS
330
C
102
}
330
C
100
AcDbDictionary
281
     1
  0
DICTIONARY
  5
1A
102
{ACAD_REACTORS
330
C
102
}
330
C
100
AcDbDictionary
281
     1
  3
Model
350
22
  3
ﾚｲｱｳﾄ1
350
1E
  3
ﾚｲｱｳﾄ2
350
26
  0
DICTIONARY
  5
984
102
{ACAD_REACTORS
330
C
102
}
330
C
100
AcDbDictionary
281
     1
  0
DICTIONARY
  5
17
102
{ACAD_REACTORS
330
C
102
}
330
C
100
AcDbDictionary
281
     1
  3
Standard
350
18
  0
DICTIONARY
  5
19
102
{ACAD_REACTORS
330
C
102
}
330
C
100
AcDbDictionary
281
     1
  0
ACDBDICTIONARYWDFLT
  5
E
102
{ACAD_REACTORS
330
C
102
}
330
C
100
AcDbDictionary
281
     1
  3
Normal
350
F
100
AcDbDictionaryWithDefault
340
F
  0
DICTIONARY
  5
43
102
{ACAD_REACTORS
330
C
102
}
330
C
100
AcDbDictionary
281
     1
  3
INDEXCTL
350
44
  3
SORTENTS
350
774
  0
DICTIONARY
  5
55
102
{ACAD_REACTORS
330
C
102
}
330
C
100
AcDbDictionary
281
     1
  3
AcmBOM
350
3D1
  3
AcmStdDictionary
350
59
  3
AMDTSECTSYM_ARROWCOLOR
350
98E
  0
DICTIONARY
  5
2B
102
{ACAD_REACTORS
330
C
102
}
330
C
100
AcDbDictionary
281
     1
  0
DICTIONARY
  5
A8
102
{ACAD_REACTORS
330
C
102
}
330
C
100
AcDbDictionary
281
     1
  0
DICTIONARY
  5
6518
102
{ACAD_REACTORS
330
C
102
}
330
C
100
AcDbDictionary
281
     1
  3
ASEBlockHierarchyIndexRecord
350
6519
1001
DCO15
1040
1618666841.831
  0
DICTIONARY
  5
664B
102
{ACAD_REACTORS
330
664A
102
}
330
664A
100
AcDbDictionary
281
     1
  0
DICTIONARY
  5
B2
102
{ACAD_REACTORS
330
B1
102
}
330
B1
100
AcDbDictionary
281
     1
  3
*A1
350
B3
  0
LAYOUT
  5
22
102
{ACAD_REACTORS
330
1A
102
}
330
1A
100
AcDbPlotSettings
  1

  2
KM-C3232E
  4
A3
  6
AM_VIEW1
 40
4.984749794006347
 41
5.111746788024902
 42
5.154083251953125
 43
4.9847412109375
 44
297.0106506347656
 45
419.9889831542968
 46
4.94
 47
12.45
 48
0.0
 49
0.0
140
0.0
141
0.0
142
1.0
143
5.0
 70
 11940
 72
     1
 73
     0
 74
     2
  7
KY-monochrome.ctb
 75
     0
147
0.2
 76
     0
 77
     2
 78
   300
148
-1377.572205548079
149
390.3419682340398
100
AcDbLayout
  1
Model
 70
     1
 71
     0
 10
0.0
 20
0.0
 11
12.0
 21
9.0
 12
0.0
 22
0.0
 32
0.0
 14
0.0
 24
0.0
 34
0.0
 15
0.0
 25
0.0
 35
0.0
146
0.0
 13
0.0
 23
0.0
 33
0.0
 16
1.0
 26
0.0
 36
0.0
 17
0.0
 27
1.0
 37
0.0
 76
     0
330
1F
  0
LAYOUT
  5
1E
102
{ACAD_REACTORS
330
1A
102
}
330
1A
100
AcDbPlotSettings
  1

  2
MUTOH RL-803C(ﾌﾟﾛｯﾀﾓｰﾄﾞ)
  4

  6

 40
0.0
 41
0.0
 42
0.0
 43
0.0
 44
0.0
 45
0.0
 46
0.0
 47
0.0
 48
0.0
 49
0.0
140
0.0
141
0.0
142
1.0
143
1.0
 70
   688
 72
     0
 73
     0
 74
     5
  7
monochrome.ctb
 75
    16
147
1.0
 76
     0
 77
     2
 78
   300
148
0.0
149
0.0
100
AcDbLayout
  1
ﾚｲｱｳﾄ1
 70
     1
 71
     1
 10
0.0
 20
0.0
 11
420.0
 21
297.0
 12
0.0
 22
0.0
 32
0.0
 14
1.000000000000000E+20
 24
1.000000000000000E+20
 34
1.000000000000000E+20
 15
-1.000000000000000E+20
 25
-1.000000000000000E+20
 35
-1.000000000000000E+20
146
0.0
 13
0.0
 23
0.0
 33
0.0
 16
1.0
 26
0.0
 36
0.0
 17
0.0
 27
1.0
 37
0.0
 76
     0
330
1B
  0
LAYOUT
  5
26
102
{ACAD_REACTORS
330
1A
102
}
330
1A
100
AcDbPlotSettings
  1

  2
MUTOH RL-803C(ﾌﾟﾛｯﾀﾓｰﾄﾞ)
  4

  6

 40
0.0
 41
0.0
 42
0.0
 43
0.0
 44
0.0
 45
0.0
 46
0.0
 47
0.0
 48
0.0
 49
0.0
140
0.0
141
0.0
142
1.0
143
1.0
 70
   688
 72
     0
 73
     0
 74
     5
  7
monochrome.ctb
 75
    16
147
1.0
 76
     0
 77
     2
 78
   300
148
0.0
149
0.0
100
AcDbLayout
  1
ﾚｲｱｳﾄ2
 70
     1
 71
     2
 10
0.0
 20
0.0
 11
12.0
 21
9.0
 12
0.0
 22
0.0
 32
0.0
 14
0.0
 24
0.0
 34
0.0
 15
0.0
 25
0.0
 35
0.0
146
0.0
 13
0.0
 23
0.0
 33
0.0
 16
1.0
 26
0.0
 36
0.0
 17
0.0
 27
1.0
 37
0.0
 76
     0
330
23
  0
MLINESTYLE
  5
18
102
{ACAD_REACTORS
330
17
102
}
330
17
100
AcDbMlineStyle
  2
STANDARD
 70
     0
  3

 62
   256
 51
90.0
 52
90.0
 71
     2
 49
0.5
 62
   256
  6
BYLAYER
 49
-0.5
 62
   256
  6
BYLAYER
  0
ACDBPLACEHOLDER
  5
F
102
{ACAD_REACTORS
330
E
102
}
330
E
  0
DICTIONARYVAR
  5
44
102
{ACAD_REACTORS
330
43
102
}
330
43
100
DictionaryVariables
280
     0
  1
1
  0
DICTIONARYVAR
  5
774
102
{ACAD_REACTORS
330
43
102
}
330
43
100
DictionaryVariables
280
     0
  1
96
  0
DICTIONARY
  5
3D1
102
{ACAD_REACTORS
330
55
102
}
330
55
100
AcDbDictionary
281
     1
  0
DICTIONARY
  5
59
102
{ACAD_REACTORS
330
55
102
}
330
55
100
AcDbDictionary
281
     1
  0
XRECORD
  5
98E
102
{ACAD_REACTORS
330
55
102
}
330
55
100
AcDbXrecord
280
     1
 90
-1023410169
  0
XRECORD
  5
6519
102
{ACAD_REACTORS
330
6518
102
}
330
6518
100
AcDbXrecord
280
     1
330
4734
330
4735
330
694B
330
6950
330
52F
330
537
330
5FB
330
603
330
692B
330
692C
330
6922
330
6923
330
6919
330
691A
330
6910
330
6911
330
6907
330
6908
330
69CD
330
69CE
330
68F5
330
68F6
330
68EC
330
68ED
330
68E3
330
68E4
  0
LAYER_INDEX
  5
B3
102
{ACAD_REACTORS
330
B2
102
}
330
B2
100
AcDbIndex
 40
2454714.741256505
100
AcDbLayerIndex
  8
0
360
B4
 90
      257
  8
RAHM2
360
156
 90
        0
  8
AM_BOR
360
4B6
 90
        0
  8
RAHM3
360
4B7
 90
        0
  8
RAHM5
360
4B8
 90
        0
  8
1
360
4B9
 90
        0
  8
DEFPOINTS
360
4BA
 90
        0
  8
7A
360
4BD
 90
        0
  8
AM_5
360
A3D
 90
       22
  8
AM_7
360
6521
 90
        5
  8
AM_0
360
66A4
 90
        3
  8
AM_3
360
67F8
 90
       52
  8
TEXT
360
694D
 90
        4
  8
AM_4
360
69BF
 90
       64
  0
IDBUFFER
  5
B4
330
0
100
AcDbIdBuffer
330
4734
330
4735
330
473E
330
48FA
330
5801
330
5803
330
5804
330
5805
330
5806
330
5807
330
5808
330
5809
330
580A
330
580B
330
580C
330
580D
330
580E
330
580F
330
5810
330
5811
330
5812
330
5813
330
5814
330
5815
330
5816
330
5817
330
5818
330
5819
330
581A
330
581B
330
581C
330
581D
330
581E
330
581F
330
5820
330
5821
330
5822
330
5823
330
5824
330
5825
330
5826
330
5827
330
5828
330
5829
330
582A
330
582B
330
582C
330
582D
330
582F
330
5830
330
5831
330
5832
330
5833
330
5834
330
5835
330
5836
330
5837
330
5838
330
5839
330
583A
330
583B
330
583C
330
583D
330
583E
330
5840
330
5841
330
5842
330
5843
330
5844
330
5846
330
5847
330
5848
330
5849
330
584A
330
584B
330
584C
330
584D
330
584E
330
584F
330
5850
330
5851
330
5854
330
5855
330
5856
330
5857
330
5858
330
5859
330
585A
330
5ABD
330
5ABE
330
5ABF
330
5AEC
330
5AF2
330
5AF3
330
5AF4
330
5AF5
330
5AF6
330
5AF7
330
5AF8
330
5AF9
330
5AFA
330
5AFB
330
5AFF
330
5B00
330
5B01
330
5B06
330
5B08
330
5B09
330
5B0A
330
5B0B
330
5B0C
330
5B0D
330
5B0E
330
5B0F
330
5B10
330
5B11
330
5B12
330
5B13
330
5B1B
330
5B1D
330
5B1E
330
5B1F
330
5B22
330
5B25
330
5B26
330
5B27
330
5B28
330
5B29
330
5B2A
330
5B2B
330
5B2C
330
5B2D
330
5B2E
330
5B2F
330
5B30
330
5B31
330
5B32
330
5B33
330
5B34
330
5B35
330
5B36
330
5B37
330
5B38
330
5B39
330
5B3A
330
5B3B
330
5B3C
330
5B3D
330
5B3E
330
5B3F
330
5B40
330
5B4B
330
5B4D
330
5B4E
330
5B4F
330
5B50
330
5B51
330
5B52
330
5B53
330
5B54
330
5B55
330
5B56
330
5B57
330
5B58
330
5B59
330
5B5A
330
5B5B
330
5B5C
330
5B61
330
5B62
330
5B63
330
5B64
330
5B65
330
5B69
330
5B6D
330
5B6E
330
5B6F
330
5B70
330
5B71
330
5B72
330
5B73
330
5B74
330
5B75
330
5B76
330
5B77
330
5B78
330
5B79
330
5B7A
330
5B7B
330
5B7C
330
5B7D
330
5B7E
330
5B7F
330
5B80
330
5B81
330
5B82
330
5B83
330
5B93
330
5B94
330
5B97
330
5B99
330
5B9A
330
5B9B
330
5B9C
330
5B9D
330
5B9E
330
5B9F
330
5BA3
330
5BA4
330
5BA5
330
5BA6
330
5BA8
330
5BA9
330
5BAB
330
5BAC
330
5BAD
330
5BAE
330
5BAF
330
5BB0
330
5BB1
330
5BB2
330
5BB3
330
5BB4
330
5BB5
330
5BB6
330
5BB7
330
5BB8
330
5BB9
330
5BBA
330
5BBB
330
5BBC
330
5BBD
330
5BBE
330
5BBF
330
5BC0
330
5BC1
330
5BC2
330
5BC3
330
5BC4
330
5BC5
330
5BC6
330
5BC7
330
5BC8
330
6809
330
680A
330
694B
330
6950
330
695F
330
6960
330
6961
330
6962
330
6963
330
6970
330
6971
330
6972
330
6974
330
6975
  0
IDBUFFER
  5
156
330
0
100
AcDbIdBuffer
  0
IDBUFFER
  5
4B6
330
0
100
AcDbIdBuffer
  0
IDBUFFER
  5
4B7
330
0
100
AcDbIdBuffer
  0
IDBUFFER
  5
4B8
330
0
100
AcDbIdBuffer
  0
IDBUFFER
  5
4B9
330
0
100
AcDbIdBuffer
  0
IDBUFFER
  5
4BA
330
0
100
AcDbIdBuffer
  0
IDBUFFER
  5
4BD
330
0
100
AcDbIdBuffer
  0
IDBUFFER
  5
A3D
330
0
100
AcDbIdBuffer
330
6532
330
6563
330
6589
330
65A4
330
65F3
330
661B
330
667E
330
66A0
330
66A2
330
66A7
330
66AB
330
66C1
330
66E4
330
66F9
330
671C
330
6728
330
672A
330
672D
330
6730
330
6733
330
6735
330
6932
  0
IDBUFFER
  5
6521
330
0
100
AcDbIdBuffer
330
5802
330
582E
330
583F
330
5845
330
5853
  0
IDBUFFER
  5
66A4
330
0
100
AcDbIdBuffer
330
6807
330
6808
330
6937
  0
IDBUFFER
  5
67F8
330
0
100
AcDbIdBuffer
330
5AFC
330
5AFD
330
5AFE
330
5B02
330
5B03
330
5B04
330
5B05
330
5B07
330
5B14
330
5B15
330
5B16
330
5B17
330
5B18
330
5B19
330
5B1A
330
5B1C
330
5B20
330
5B21
330
5B23
330
5B24
330
5B5D
330
5B5E
330
5B5F
330
5B60
330
5B66
330
5B67
330
5B68
330
5B6A
330
5B6B
330
5B6C
330
5B84
330
5B85
330
5B86
330
5B88
330
5B89
330
5B8A
330
5B8B
330
5B8C
330
5B8D
330
5B8E
330
5B8F
330
5B90
330
5B91
330
5B92
330
5B95
330
5B96
330
5B98
330
5BA0
330
5BA1
330
5BA2
330
5BA7
330
5BAA
  0
IDBUFFER
  5
694D
330
0
100
AcDbIdBuffer
330
694A
330
6951
330
6976
330
6977
  0
IDBUFFER
  5
69BF
330
0
100
AcDbIdBuffer
330
5AC0
330
5AC1
330
5AC2
330
5AC3
330
5AC4
330
5AC5
330
5AC6
330
5AC7
330
5AC8
330
5AC9
330
5ACA
330
5ACB
330
5ACC
330
5ACD
330
5ACE
330
5ACF
330
5AD0
330
5AD1
330
5AD2
330
5AD3
330
5AD4
330
5AD5
330
5AD6
330
5AD7
330
5AD8
330
5AD9
330
5ADA
330
5ADB
330
5ADC
330
5ADD
330
5ADE
330
5ADF
330
5AE0
330
5AE1
330
5AE2
330
5AE3
330
5AE4
330
5AE5
330
5AE6
330
5AE7
330
5AE8
330
5AE9
330
5AEA
330
5AEB
330
5AED
330
5AEE
330
5AEF
330
5AF0
330
5AF1
330
6660
330
6661
330
6662
330
6663
330
6664
330
6665
330
6666
330
6667
330
6668
330
6669
330
666A
330
666B
330
666C
330
666D
330
666E
  0
ENDSEC
  0
EOF
