  0
SECTION
  2
HEADER
  9
$ACADVER
  1
AC1015
  9
$ACADMAINTVER
 70
    20
  9
$DWGCODEPAGE
  3
ANSI_932
  9
$INSBASE
 10
0.0
 20
0.0
 30
0.0
  9
$EXTMIN
 10
404.0304790318514
 20
338.5411322153268
 30
-5.672798507067909
  9
$EXTMAX
 10
6345.057287041804
 20
8739.442850796429
 30
1040.015958866109
  9
$LIMMIN
 10
6325.653048175718
 20
5288.389638432145
  9
$LIMMAX
 10
14725.65304817572
 20
11228.38963843214
  9
$ORTHOMODE
 70
     0
  9
$REGENMODE
 70
     1
  9
$FILLMODE
 70
     1
  9
$QTEXTMODE
 70
     0
  9
$MIRRTEXT
 70
     1
  9
$LTSCALE
 40
20.0
  9
$ATTMODE
 70
     1
  9
$TEXTSIZE
 40
2.5
  9
$TRACEWID
 40
1.0
  9
$TEXTSTYLE
  7
STANDARD
  9
$CLAYER
  8
0
  9
$CELTYPE
  6
ByLayer
  9
$CECOLOR
 62
   256
  9
$CELTSCALE
 40
1.0
  9
$DISPSILH
 70
     0
  9
$DIMSCALE
 40
20.0
  9
$DIMASZ
 40
2.5
  9
$DIMEXO
 40
1.0
  9
$DIMDLI
 40
10.0
  9
$DIMRND
 40
0.0
  9
$DIMDLE
 40
0.0
  9
$DIMEXE
 40
1.0
  9
$DIMTP
 40
0.1
  9
$DIMTM
 40
0.1
  9
$DIMTXT
 40
3.5
  9
$DIMCEN
 40
0.0
  9
$DIMTSZ
 40
0.0
  9
$DIMTOL
 70
     0
  9
$DIMLIM
 70
     0
  9
$DIMTIH
 70
     0
  9
$DIMTOH
 70
     0
  9
$DIMSE1
 70
     0
  9
$DIMSE2
 70
     0
  9
$DIMTAD
 70
     3
  9
$DIMZIN
 70
     8
  9
$DIMBLK
  1
Open30
  9
$DIMASO
 70
     1
  9
$DIMSHO
 70
     1
  9
$DIMPOST
  1

  9
$DIMAPOST
  1
"
  9
$DIMALT
 70
     0
  9
$DIMALTD
 70
     2
  9
$DIMALTF
 40
0.0393701
  9
$DIMLFAC
 40
1.0
  9
$DIMTOFL
 70
     1
  9
$DIMTVP
 40
0.0
  9
$DIMTIX
 70
     0
  9
$DIMSOXD
 70
     0
  9
$DIMSAH
 70
     0
  9
$DIMBLK1
  1
Open30
  9
$DIMBLK2
  1
Open30
  9
$DIMSTYLE
  2
IGS
  9
$DIMCLRD
 70
   256
  9
$DIMCLRE
 70
   256
  9
$DIMCLRT
 70
     2
  9
$DIMTFAC
 40
0.71
  9
$DIMGAP
 40
1.5
  9
$DIMJUST
 70
     0
  9
$DIMSD1
 70
     0
  9
$DIMSD2
 70
     0
  9
$DIMTOLJ
 70
     0
  9
$DIMTZIN
 70
     8
  9
$DIMALTZ
 70
     0
  9
$DIMALTTZ
 70
     0
  9
$DIMUPT
 70
     0
  9
$DIMDEC
 70
     2
  9
$DIMTDEC
 70
     3
  9
$DIMALTU
 70
     2
  9
$DIMALTTD
 70
     4
  9
$DIMTXSTY
  7
STANDARD
  9
$DIMAUNIT
 70
     0
  9
$DIMADEC
 70
     0
  9
$DIMALTRND
 40
0.0
  9
$DIMAZIN
 70
     2
  9
$DIMDSEP
 70
    46
  9
$DIMATFIT
 70
     3
  9
$DIMFRAC
 70
     0
  9
$DIMLDRBLK
  1
Open30
  9
$DIMLUNIT
 70
     2
  9
$DIMLWD
 70
    -1
  9
$DIMLWE
 70
    -1
  9
$DIMTMOVE
 70
     0
  9
$LUNITS
 70
     2
  9
$LUPREC
 70
     2
  9
$SKETCHINC
 40
1.0
  9
$FILLETRAD
 40
50.0
  9
$AUNITS
 70
     0
  9
$AUPREC
 70
     0
  9
$MENU
  1
.
  9
$ELEVATION
 40
0.0
  9
$PELEVATION
 40
0.0
  9
$THICKNESS
 40
0.0
  9
$LIMCHECK
 70
     0
  9
$CHAMFERA
 40
50.0
  9
$CHAMFERB
 40
50.0
  9
$CHAMFERC
 40
20.0
  9
$CHAMFERD
 40
0.0
  9
$SKPOLY
 70
     0
  9
$TDCREATE
 40
2452587.451982419
  9
$TDUCREATE
 40
2452587.076982419
  9
$TDUPDATE
 40
2454719.548795382
  9
$TDUUPDATE
 40
2454719.173795382
  9
$TDINDWG
 40
0.0766210880
  9
$TDUSRTIMER
 40
0.0766210880
  9
$USRTIMER
 70
     1
  9
$ANGBASE
 50
0.0
  9
$ANGDIR
 70
     0
  9
$PDMODE
 70
     0
  9
$PDSIZE
 40
0.0
  9
$PLINEWID
 40
0.0
  9
$SPLFRAME
 70
     0
  9
$SPLINETYPE
 70
     6
  9
$SPLINESEGS
 70
     8
  9
$HANDSEED
  5
196B
  9
$SURFTAB1
 70
     6
  9
$SURFTAB2
 70
     6
  9
$SURFTYPE
 70
     6
  9
$SURFU
 70
     6
  9
$SURFV
 70
     6
  9
$UCSBASE
  2

  9
$UCSNAME
  2

  9
$UCSORG
 10
0.0
 20
0.0
 30
0.0
  9
$UCSXDIR
 10
1.0
 20
0.0
 30
0.0
  9
$UCSYDIR
 10
0.0
 20
1.0
 30
0.0
  9
$UCSORTHOREF
  2

  9
$UCSORTHOVIEW
 70
     0
  9
$UCSORGTOP
 10
0.0
 20
0.0
 30
0.0
  9
$UCSORGBOTTOM
 10
0.0
 20
0.0
 30
0.0
  9
$UCSORGLEFT
 10
0.0
 20
0.0
 30
0.0
  9
$UCSORGRIGHT
 10
0.0
 20
0.0
 30
0.0
  9
$UCSORGFRONT
 10
0.0
 20
0.0
 30
0.0
  9
$UCSORGBACK
 10
0.0
 20
0.0
 30
0.0
  9
$PUCSBASE
  2

  9
$PUCSNAME
  2

  9
$PUCSORG
 10
0.0
 20
0.0
 30
0.0
  9
$PUCSXDIR
 10
1.0
 20
0.0
 30
0.0
  9
$PUCSYDIR
 10
0.0
 20
1.0
 30
0.0
  9
$PUCSORTHOREF
  2

  9
$PUCSORTHOVIEW
 70
     0
  9
$PUCSORGTOP
 10
0.0
 20
0.0
 30
0.0
  9
$PUCSORGBOTTOM
 10
0.0
 20
0.0
 30
0.0
  9
$PUCSORGLEFT
 10
0.0
 20
0.0
 30
0.0
  9
$PUCSORGRIGHT
 10
0.0
 20
0.0
 30
0.0
  9
$PUCSORGFRONT
 10
0.0
 20
0.0
 30
0.0
  9
$PUCSORGBACK
 10
0.0
 20
0.0
 30
0.0
  9
$USERI1
 70
     0
  9
$USERI2
 70
     0
  9
$USERI3
 70
     0
  9
$USERI4
 70
     0
  9
$USERI5
 70
     0
  9
$USERR1
 40
0.0
  9
$USERR2
 40
0.0
  9
$USERR3
 40
0.0
  9
$USERR4
 40
0.0
  9
$USERR5
 40
0.0
  9
$WORLDVIEW
 70
     1
  9
$SHADEDGE
 70
     3
  9
$SHADEDIF
 70
    70
  9
$TILEMODE
 70
     1
  9
$MAXACTVP
 70
    64
  9
$PINSBASE
 10
0.0
 20
0.0
 30
0.0
  9
$PLIMCHECK
 70
     0
  9
$PEXTMIN
 10
1.000000000000000E+20
 20
1.000000000000000E+20
 30
1.000000000000000E+20
  9
$PEXTMAX
 10
-1.000000000000000E+20
 20
-1.000000000000000E+20
 30
-1.000000000000000E+20
  9
$PLIMMIN
 10
0.0
 20
0.0
  9
$PLIMMAX
 10
420.0
 20
297.0
  9
$UNITMODE
 70
     0
  9
$VISRETAIN
 70
     1
  9
$PLINEGEN
 70
     0
  9
$PSLTSCALE
 70
     1
  9
$TREEDEPTH
 70
  3020
  9
$CMLSTYLE
  2
Standard
  9
$CMLJUST
 70
     0
  9
$CMLSCALE
 40
20.0
  9
$PROXYGRAPHICS
 70
     1
  9
$MEASUREMENT
 70
     1
  9
$CELWEIGHT
370
    -1
  9
$ENDCAPS
280
     0
  9
$JOINSTYLE
280
     0
  9
$LWDISPLAY
290
     0
  9
$INSUNITS
 70
     4
  9
$HYPERLINKBASE
  1

  9
$STYLESHEET
  1
monochrome.ctb
  9
$XEDIT
290
     1
  9
$CEPSNTYPE
380
     0
  9
$PSTYLEMODE
290
     1
  9
$FINGERPRINTGUID
  2
{A179640A-E7AE-11D4-BDB4-00B0D0A1239A}
  9
$VERSIONGUID
  2
{7CC5F771-FA62-4ABA-9BF9-3C41D9645864}
  9
$EXTNAMES
290
     1
  9
$PSVPSCALE
 40
0.0
  9
$OLESTARTUP
290
     0
  0
ENDSEC
  0
SECTION
  2
CLASSES
  0
CLASS
  1
ACDBDICTIONARYWDFLT
  2
AcDbDictionaryWithDefault
  3
ObjectDBX Classes
 90
        0
280
     0
281
     0
  0
CLASS
  1
ACDBPLACEHOLDER
  2
AcDbPlaceHolder
  3
ObjectDBX Classes
 90
        0
280
     0
281
     0
  0
CLASS
  1
LAYOUT
  2
AcDbLayout
  3
ObjectDBX Classes
 90
        0
280
     0
281
     0
  0
CLASS
  1
AMGSETTINGSOBJ
  2
AmgSettingsObj
  3
"AcadM|Product Description: AutoCAD Mechanical 2000|Company: Autodesk"
 90
        0
280
     0
281
     0
  0
CLASS
  1
AMGOBJPROPCFG
  2
AmgObjPropCfg
  3
"AmgLay|Product Description: AutoCAD Mechanical 2000|Company: Autodesk"
 90
        1
280
     0
281
     0
  0
CLASS
  1
ACME_DOCUMENT
  2
AcMeDbDoc
  3
AcMeServices
 90
        0
280
     0
281
     0
  0
CLASS
  1
ACMESCOPE
  2
AcMeScope
  3
AcMeServices
 90
        0
280
     0
281
     0
  0
CLASS
  1
ACMECOMMANDHISTORY
  2
AcMeCommandHistory
  3
AcMeServices
 90
        0
280
     0
281
     0
  0
CLASS
  1
DICTIONARYVAR
  2
AcDbDictionaryVar
  3
ObjectDBX Classes
 90
        0
280
     0
281
     0
  0
CLASS
  1
ACIMSYSVARMAN
  2
AcImSysVarManager
  3
AcMeServices
 90
        0
280
     0
281
     0
  0
CLASS
  1
ACIMREALSYSVAR
  2
AcImRealSysVar
  3
AcMeServices
 90
        0
280
     0
281
     0
  0
CLASS
  1
ACIMINTSYSVAR
  2
AcImIntSysVar
  3
AcMeServices
 90
        0
280
     0
281
     0
  0
CLASS
  1
ACMEDRAWINGMAN
  2
AcMeDrawingMan
  3
AcMeServices
 90
        0
280
     0
281
     0
  0
CLASS
  1
ACMEVIEW
  2
AcMeView
  3
AcMeServices
 90
        0
280
     0
281
     0
  0
CLASS
  1
ACDBENTITYCACHE
  2
AcMeEntityCache
  3
AcMeServices
 90
        0
280
     0
281
     0
  0
CLASS
  1
GSMANAGER
  2
AcMeGSManager
  3
AcMeServices
 90
        0
280
     0
281
     0
  0
CLASS
  1
AMDTINTERNALREACTOR
  2
AmdtInternalReactor
  3
AcMeServices
 90
        0
280
     0
281
     0
  0
CLASS
  1
ACMESTATEMGR
  2
AcMeStateMgr
  3
AcMeServices
 90
        0
280
     0
281
     0
  0
CLASS
  1
ACGREFMASTER
  2
AcGrefMaster
  3
AcAttribServices
 90
        0
280
     0
281
     0
  0
CLASS
  1
ACME_DATABASE
  2
AcMeDbDatabase
  3
AcMeServices
 90
        0
280
     0
281
     0
  0
CLASS
  1
ACRFINSADJUSTERMGR
  2
AcRfInsAdjusterMgr
  3
AcMeServices
 90
        0
280
     0
281
     0
  0
CLASS
  1
ACGREFACADMASTER
  2
AcGrefacadMaster
  3
AcGrefServices
 90
        0
280
     0
281
     0
  0
CLASS
  1
AMIMASTER
  2
AmiMaster
  3
AmiServices
 90
        0
280
     0
281
     0
  0
CLASS
  1
ACMDATADICTIONARY
  2
AcmDataDictionary
  3
"AcmSymBB|Product Description: AutoCAD Mechanical 2004 DX|Company: Autodesk"
 90
        0
280
     0
281
     0
  0
CLASS
  1
ACMDATAENTRYBLOCK
  2
AcmDataEntryBlock
  3
"AcmSymBB|Product Description: AutoCAD Mechanical 2004 DX|Company: Autodesk"
 90
    32768
280
     0
281
     0
  0
CLASS
  1
ACMSTANDARDJIS
  2
AcmStandardJIS
  3
"Amdt_StdImp|Product Description: AutoCAD Mechanical 2004 DX|Company: Autodesk"
 90
        0
280
     0
281
     0
  0
CLASS
  1
ACMSURFSTANDARDJIS
  2
AcmSurfTextStdJIS
  3
"Amdt_StdImp|Product Description: AutoCAD Mechanical 2004 DX|Company: Autodesk"
 90
        0
280
     0
281
     0
  0
CLASS
  1
ACMFCFSTANDARDJIS
  2
AcmFCFStdJIS
  3
"Amdt_StdImp|Product Description: AutoCAD Mechanical 2004 DX|Company: Autodesk"
 90
        0
280
     0
281
     0
  0
CLASS
  1
ACMWELDSTANDARDJIS
  2
AcmWeldingStdJIS
  3
"Amdt_StdImp|Product Description: AutoCAD Mechanical 2004 DX|Company: Autodesk"
 90
        0
280
     0
281
     0
  0
CLASS
  1
ACMIDSTANDARDJIS
  2
AcmIdStdJIS
  3
"Amdt_StdImp|Product Description: AutoCAD Mechanical 2004 DX|Company: Autodesk"
 90
        0
280
     0
281
     0
  0
CLASS
  1
ACMDATUMSTANDARDJIS
  2
AcmDatumStdJIS
  3
"Amdt_StdImp|Product Description: AutoCAD Mechanical 2004 DX|Company: Autodesk"
 90
        0
280
     0
281
     0
  0
CLASS
  1
ACMBOMSTANDARDJIS
  2
AcmBOMStdJIS
  3
"Amdt_StdImp|Product Description: AutoCAD Mechanical 2004 DX|Company: Autodesk"
 90
        0
280
     0
281
     0
  0
CLASS
  1
ACMDETAILSTANDARDJIS
  2
AmdtDetailSymStdJIS
  3
"Amdt_StdImp|Product Description: AutoCAD Mechanical 2004 DX|Company: Autodesk"
 90
        0
280
     0
281
     0
  0
CLASS
  1
ACMSECTIONSTANDARDJIS
  2
AmdtSectionSymStdJIS
  3
"Amdt_StdImp|Product Description: AutoCAD Mechanical 2004 DX|Company: Autodesk"
 90
        0
280
     0
281
     0
  0
CLASS
  1
ACMCENTERLINESTANDARDJIS
  2
AmdtCenterLineStdJIS
  3
"Amdt_StdImp|Product Description: AutoCAD Mechanical 2004 DX|Company: Autodesk"
 90
        0
280
     0
281
     0
  0
CLASS
  1
ACAMGLAYSTD
  2
AcAmgLayStd
  3
"AcAmgLayStd|Product Description: AutoCAD Mechanical 2000|Company: Autodesk"
 90
        0
280
     0
281
     0
  0
CLASS
  1
ACAMGDIMSTD
  2
AcAmgDimStd
  3
"AcAmgDimStd|Product Description: AutoCAD Mechanical 2000|Company: Autodesk"
 90
        0
280
     0
281
     0
  0
CLASS
  1
ACAMGTITLESTD
  2
AcAmgTitleStd
  3
"TITLEAPP"
 90
        0
280
     0
281
     0
  0
CLASS
  1
ACMSTANDARDISO
  2
AcmStandardISO
  3
"Amdt_StdImp|Product Description: AutoCAD Mechanical 2004 DX|Company: Autodesk"
 90
        0
280
     0
281
     0
  0
CLASS
  1
AMDTEDGESTANDARDISO
  2
AmdtEdgeStdISO
  3
"Amdt_StdImp|Product Description: AutoCAD Mechanical 2004 DX|Company: Autodesk"
 90
        0
280
     0
281
     0
  0
CLASS
  1
ACMSURFSTANDARDISO
  2
AcmSurfTextStdISO
  3
"Amdt_StdImp|Product Description: AutoCAD Mechanical 2004 DX|Company: Autodesk"
 90
        0
280
     0
281
     0
  0
CLASS
  1
ACMFCFSTANDARDISO
  2
AcmFCFStdISO
  3
"Amdt_StdImp|Product Description: AutoCAD Mechanical 2004 DX|Company: Autodesk"
 90
        0
280
     0
281
     0
  0
CLASS
  1
ACMWELDSTANDARDISO
  2
AcmWeldingStdISO
  3
"Amdt_StdImp|Product Description: AutoCAD Mechanical 2004 DX|Company: Autodesk"
 90
        0
280
     0
281
     0
  0
CLASS
  1
ACMIDSTANDARDISO
  2
AcmIdStdISO
  3
"Amdt_StdImp|Product Description: AutoCAD Mechanical 2004 DX|Company: Autodesk"
 90
        0
280
     0
281
     0
  0
CLASS
  1
ACMDATUMSTANDARDISO
  2
AcmDatumStdISO
  3
"Amdt_StdImp|Product Description: AutoCAD Mechanical 2004 DX|Company: Autodesk"
 90
        0
280
     0
281
     0
  0
CLASS
  1
ACMBOMSTANDARDISO
  2
AcmBOMStdISO
  3
"Amdt_StdImp|Product Description: AutoCAD Mechanical 2004 DX|Company: Autodesk"
 90
        0
280
     0
281
     0
  0
CLASS
  1
ACMDETAILSTANDARDISO
  2
AmdtDetailSymStdISO
  3
"Amdt_StdImp|Product Description: AutoCAD Mechanical 2004 DX|Company: Autodesk"
 90
        0
280
     0
281
     0
  0
CLASS
  1
ACMSECTIONSTANDARDISO
  2
AmdtSectionSymStdISO
  3
"Amdt_StdImp|Product Description: AutoCAD Mechanical 2004 DX|Company: Autodesk"
 90
        0
280
     0
281
     0
  0
CLASS
  1
ACMCENTERLINESTANDARDISO
  2
AmdtCenterLineStdISO
  3
"Amdt_StdImp|Product Description: AutoCAD Mechanical 2004 DX|Company: Autodesk"
 90
        0
280
     0
281
     0
  0
CLASS
  1
ACIMSTRSYSVAR
  2
AcImStrSysVar
  3
AcMeServices
 90
        0
280
     0
281
     0
  0
CLASS
  1
ACAMGFILTERDAT
  2
AcAmgFilterDat
  3
"AcadM|Product Description: AutoCAD Mechanical 2000|Company: Autodesk"
 90
    32768
280
     0
281
     0
  0
CLASS
  1
LAYER_INDEX
  2
AcDbLayerIndex
  3
ObjectDBX Classes
 90
        0
280
     0
281
     0
  0
CLASS
  1
IDBUFFER
  2
AcDbIdBuffer
  3
ObjectDBX Classes
 90
        0
280
     0
281
     0
  0
CLASS
  1
AMDTFORMULAUPDATEDISPATCHER
  2
AmdtFormulaUpdateDispatcher
  3
AcMeServices
 90
    32768
280
     0
281
     0
  0
CLASS
  1
ACMDATAENTRYPART
  2
AcmDataEntryPart
  3
"AcmSymBB|Product Description: AutoCAD Mechanical 2004 DX|Company: Autodesk"
 90
    32768
280
     0
281
     0
  0
CLASS
  1
ACMPARTREF
  2
AcmPartRef
  3
"AcmSymBB|Product Description: AutoCAD Mechanical 2004 DX|Company: Autodesk"
 90
    33791
280
     0
281
     1
  0
CLASS
  1
ACMDATAENTRY
  2
AcmDataEntry
  3
"AcmSymBB|Product Description: AutoCAD Mechanical 2004 DX|Company: Autodesk"
 90
    32768
280
     0
281
     0
  0
CLASS
  1
ACMBOM
  2
AcmBom
  3
"AcmSymBB|Product Description: AutoCAD Mechanical 2004 DX|Company: Autodesk"
 90
    32768
280
     0
281
     0
  0
CLASS
  1
ACMBOMROW
  2
AcmBomRow
  3
"AcmSymBB|Product Description: AutoCAD Mechanical 2004 DX|Company: Autodesk"
 90
    32768
280
     0
281
     0
  0
CLASS
  1
ACMBALLOON
  2
AcmBalloon
  3
"AcmSymBB|Product Description: AutoCAD Mechanical 2004 DX|Company: Autodesk"
 90
    33791
280
     0
281
     1
  0
CLASS
  1
ACMPARTLIST
  2
AcmPartList
  3
"AcmSymBB|Product Description: AutoCAD Mechanical 2004 DX|Company: Autodesk"
 90
    33791
280
     0
281
     1
  0
CLASS
  1
ACDBLINERES
  2
AcDbLineRes
  3
AcGrefServices
 90
    32768
280
     0
281
     0
  0
CLASS
  1
ACRFINSADJ
  2
AcRfInsAdjuster
  3
AcMeServices
 90
    32768
280
     0
281
     0
  0
CLASS
  1
STDPART2D
  2
AmgStdPart
  3
"AmgStdPart|Product Description: AutoCAD Mechanical 2000|Company: Autodesk"
 90
    33791
280
     0
281
     1
  0
CLASS
  1
ACDBSTDPARTRES_ARC
  2
AcDbStdPartRes_Arc
  3
"AcDbStdPartRes_Arc|Product Description: AutoCAD Mechanical 2000|Company: Autodesk"
 90
    32768
280
     0
281
     0
  0
CLASS
  1
ACMPICKOBJ
  2
AcmPickEnt
  3
"AcmSymBB|Product Description: AutoCAD Mechanical 2004 DX|Company: Autodesk"
 90
    32768
280
     0
281
     1
  0
CLASS
  1
ACDBSTDPARTRES_LINE
  2
AcDbStdPartRes_Line
  3
"AcDbStdPartRes_Line|Product Description: AutoCAD Mechanical 2000|Company: Autodesk"
 90
    32768
280
     0
281
     0
  0
CLASS
  1
ACDBPOLYLINERES
  2
AcDbPolylineRes
  3
AcGrefServices
 90
    32768
280
     0
281
     0
  0
CLASS
  1
ACDBOPPOLYLINERES
  2
AcDbOpPolylineRes
  3
AcGrefServices
 90
    32768
280
     0
281
     0
  0
CLASS
  1
ACDBCIRCARCRES
  2
AcDbCircArcRes
  3
AcGrefServices
 90
    32768
280
     0
281
     0
  0
CLASS
  1
AM_DRAWING_MGR
  2
AcDmDwgMgr
  3
AcMechDwgViewMgmt
 90
        0
280
     0
281
     0
  0
CLASS
  1
AM_DWG_DOCUMENT
  2
AcDmDwgDocument
  3
AcMechDwgViewMgmt
 90
        0
280
     0
281
     0
  0
CLASS
  1
AM_DWG_SHEET
  2
AcDmSheet
  3
AcMechDwgViewMgmt
 90
        0
280
     0
281
     0
  0
CLASS
  1
AM_VIEWDIMPARMAP
  2
AcDmViewDimParMap
  3
AcMechDwgViewMgmt
 90
        0
280
     0
281
     0
  0
CLASS
  1
AM_DWGMGR_NAME
  2
AcDmDwgMgrName
  3
AcMechDwgViewMgmt
 90
        0
280
     0
281
     0
  0
CLASS
  1
AMDTMENUSTATEMGR
  2
AmdtMenuStateMgr
  3
McadcomServices
 90
        0
280
     0
281
     0
  0
CLASS
  1
AMDTMCOMMENUSTATE
  2
AmdtMcomMenuState
  3
McadcomServices
 90
        0
280
     0
281
     0
  0
CLASS
  1
MAPIAMMOUDLE
  2
MApiAmModule
  3
MApiAmServices
 90
        0
280
     0
281
     0
  0
CLASS
  1
AMDTADMENUSTATE
  2
AmdtAdMenuState
  3
DesignerServices
 90
        0
280
     0
281
     0
  0
CLASS
  1
ADAPPL
  2
AcAdAppl
  3
DesignerServices
 90
        0
280
     0
281
     0
  0
CLASS
  1
DEPMGR
  2
AcAdDepMgr
  3
DesignerServices
 90
        0
280
     0
281
     0
  0
CLASS
  1
PARAMMGR
  2
AcAdParamMgr
  3
DesignerServices
 90
        0
280
     0
281
     0
  0
CLASS
  1
PARAMSCOPE
  2
AcAdParamScope
  3
DesignerServices
 90
        0
280
     0
281
     0
  0
CLASS
  1
NAMEDAPPL
  2
AcAdNamedAppl
  3
DesignerServices
 90
        0
280
     0
281
     0
  0
CLASS
  1
AMDTDMMENUSTATE
  2
AmdtDmMenuState
  3
AcMechDwgViewMgmt
 90
        0
280
     0
281
     0
  0
CLASS
  1
AMDTAMMENUSTATE
  2
AmdtAmMenuState
  3
DesignerAssemblies
 90
        0
280
     0
281
     0
  0
CLASS
  1
ACAMPROJECT
  2
AcAmProject
  3
DesignerAssemblies
 90
        0
280
     0
281
     0
  0
CLASS
  1
ACAMGRCOMPDEF
  2
AcAmGrCompDef
  3
DesignerAssemblies
 90
        0
280
     0
281
     0
  0
CLASS
  1
ACCMCONTEXT
  2
AcCmContext
  3
DesignerAssemblies
 90
        0
280
     0
281
     0
  0
CLASS
  1
ACAMCOMPDEF
  2
AcAmCompDef
  3
DesignerAssemblies
 90
        0
280
     0
281
     0
  0
CLASS
  1
ACAMCOMPDEFMGR
  2
AcAmCompDefMgr
  3
DesignerAssemblies
 90
        0
280
     0
281
     0
  0
CLASS
  1
AMCONTEXTMGR
  2
AcAmContextMgr
  3
DesignerAssemblies
 90
        0
280
     0
281
     0
  0
CLASS
  1
ACAMCONTEXTMODELER
  2
AcAmContextModeler
  3
DesignerAssemblies
 90
        0
280
     0
281
     0
  0
CLASS
  1
ACMTHREADLINESTANDARDJIS
  2
AmdtThreadLineStdJIS
  3
"Amdt_StdImp|Product Description: AutoCAD Mechanical 2004 DX|Company: Autodesk"
 90
        0
280
     0
281
     0
  0
CLASS
  1
ACMNOTESTANDARDJIS
  2
AmdtNoteStdJIS
  3
"Amdt_StdImp|Product Description: AutoCAD Mechanical 2004 DX|Company: Autodesk"
 90
        0
280
     0
281
     0
  0
CLASS
  1
AMDTNOTETEMPLATEDB
  2
AmdtNoteTemplateDB
  3
AMDT_STDIMP_MODULE_NAME
 90
        0
280
     0
281
     0
  0
CLASS
  1
ACMTHREADLINESTANDARDISO
  2
AmdtThreadLineStdISO
  3
"Amdt_StdImp|Product Description: AutoCAD Mechanical 2004 DX|Company: Autodesk"
 90
        0
280
     0
281
     0
  0
CLASS
  1
ACMNOTESTANDARDISO
  2
AmdtNoteStdISO
  3
"Amdt_StdImp|Product Description: AutoCAD Mechanical 2004 DX|Company: Autodesk"
 90
        0
280
     0
281
     0
  0
CLASS
  1
CATALOGSTATE
  2
AcAmCatalogState
  3
DesignerAssemblies
 90
        0
280
     0
281
     0
  0
CLASS
  1
ACAMGRCOMPDEFSET
  2
AcAmGrCompDefSet
  3
DesignerAssemblies
 90
        0
280
     0
281
     0
  0
CLASS
  1
AMDTBROWSERDBTAB
  2
AmdtBrowserDbTab
  3
McadcomServices
 90
        0
280
     0
281
     0
  0
CLASS
  1
CBROWSERAPPOBJECT
  2
CBrowserAppObject
  3
McadcomServices
 90
        0
280
     0
281
     0
  0
CLASS
  1
DM_PLACEHOLDER
  2
AcDmSelsetPlaceholder
  3
AcMechDwgViewMgmt
 90
        0
280
     0
281
     0
  0
ENDSEC
  0
SECTION
  2
TABLES
  0
TABLE
  2
VPORT
  5
8
330
0
100
AcDbSymbolTable
 70
     3
  0
VPORT
  5
1960
330
8
100
AcDbSymbolTableRecord
100
AcDbViewportTableRecord
  2
*Active
 70
     0
 10
0.0
 20
0.0
 11
1.0
 21
1.0
 12
4550.685989780156
 22
4538.780692822582
 13
0.0
 23
0.0
 14
50.0
 24
50.0
 15
200.0
 25
200.0
 16
0.0
 26
0.0
 36
1.0
 17
0.0
 27
0.0
 37
0.0
 40
8465.365765929124
 41
1.498730964467005
 42
50.0
 43
0.0
 44
0.0
 50
0.0
 51
0.0
 71
     0
 72
   100
 73
     1
 74
     3
 75
     0
 76
     0
 77
     0
 78
     0
281
     0
 65
     1
110
0.0
120
0.0
130
0.0
111
1.0
121
0.0
131
0.0
112
0.0
122
1.0
132
0.0
 79
     0
146
0.0
  0
ENDTAB
  0
TABLE
  2
LTYPE
  5
5
330
0
100
AcDbSymbolTable
 70
    19
  0
LTYPE
  5
14
330
5
100
AcDbSymbolTableRecord
100
AcDbLinetypeTableRecord
  2
ByBlock
 70
     0
  3

 72
    65
 73
     0
 40
0.0
  0
LTYPE
  5
15
330
5
100
AcDbSymbolTableRecord
100
AcDbLinetypeTableRecord
  2
ByLayer
 70
     0
  3

 72
    65
 73
     0
 40
0.0
  0
LTYPE
  5
16
330
5
100
AcDbSymbolTableRecord
100
AcDbLinetypeTableRecord
  2
Continuous
 70
     0
  3
Solid line
 72
    65
 73
     0
 40
0.0
  0
LTYPE
  5
35
330
5
100
AcDbSymbolTableRecord
100
AcDbLinetypeTableRecord
  2
AM_ISO02W050
 70
     0
  3
__ __ __ __ __ __ __ __ __ __ __ __ __ __ __
 72
    65
 73
     2
 40
7.5
 49
6.0
 74
     0
 49
-1.5
 74
     0
  0
LTYPE
  5
36
330
5
100
AcDbSymbolTableRecord
100
AcDbLinetypeTableRecord
  2
AM_ISO08W050
 70
     0
  3
____ . ____ . ____ . ____ . ____ . ____ . ____
 72
    65
 73
     4
 40
18.0
 49
12.0
 74
     0
 49
-1.5
 74
     0
 49
3.0
 74
     0
 49
-1.5
 74
     0
  0
LTYPE
  5
37
330
5
100
AcDbSymbolTableRecord
100
AcDbLinetypeTableRecord
  2
AM_ISO09W050
 70
     0
  3
_____ . . _____ . . _____ . . ____ .. ____
 72
    65
 73
     6
 40
22.5
 49
12.0
 74
     0
 49
-1.5
 74
     0
 49
3.0
 74
     0
 49
-1.5
 74
     0
 49
3.0
 74
     0
 49
-1.5
 74
     0
  0
LTYPE
  5
38
330
5
100
AcDbSymbolTableRecord
100
AcDbLinetypeTableRecord
  2
Amconstr
 70
     0
  3
_______________________
 72
    65
 73
     2
 40
9999.0
 49
9999.0
 74
     0
 49
0.0
 74
     0
  0
LTYPE
  5
39
330
5
100
AcDbSymbolTableRecord
100
AcDbLinetypeTableRecord
  2
AM_ISO08W050x2
 70
     0
  3
__ . __ . __ . __ . __ . __
 72
    65
 73
     4
 40
9.0
 49
6.0
 74
     0
 49
-0.75
 74
     0
 49
1.5
 74
     0
 49
-0.75
 74
     0
  0
LTYPE
  5
3A
330
5
100
AcDbSymbolTableRecord
100
AcDbLinetypeTableRecord
  2
AM_ISO02W050x2
 70
     0
  3
 _ _ _ _ _ _ _ _ _ _ _ _
 72
    65
 73
     2
 40
3.75
 49
3.0
 74
     0
 49
-0.75
 74
     0
  0
LTYPE
  5
3B
330
5
100
AcDbSymbolTableRecord
100
AcDbLinetypeTableRecord
  2
Amzigzag
 70
     0
  3
/\/-/\/-/\/-/\/-/\/-/\/
 72
    65
 73
     2
 40
11.0001
 49
0.0001
 74
     4
 75
   135
340
3C
 46
0.04
 50
0.0
 44
0.0
 45
0.0
 49
-11.0
 74
     0
  0
LTYPE
  5
64
330
5
100
AcDbSymbolTableRecord
100
AcDbLinetypeTableRecord
  2
ACJISTGB
 70
     0
  3
__ . . __ . .
 72
    65
 73
     6
 40
9.0
 49
4.0
 74
     0
 49
-1.0
 74
     0
 49
1.0
 74
     0
 49
-1.0
 74
     0
 49
1.0
 74
     0
 49
-1.0
 74
     0
  0
LTYPE
  5
65
330
5
100
AcDbSymbolTableRecord
100
AcDbLinetypeTableRecord
  2
ACJISTGL
 70
     0
  3
_ _ _ _ _
 72
    65
 73
     2
 40
3.0
 49
2.0
 74
     0
 49
-1.0
 74
     0
  0
LTYPE
  5
69
330
5
100
AcDbSymbolTableRecord
100
AcDbLinetypeTableRecord
  2
CENTER
 70
     0
  3
__ . __
 72
    65
 73
     4
 40
7.0
 49
4.0
 74
     0
 49
-1.0
 74
     0
 49
1.0
 74
     0
 49
-1.0
 74
     0
  0
LTYPE
  5
8F
330
5
100
AcDbSymbolTableRecord
100
AcDbLinetypeTableRecord
  2
ACISOWELD
 70
     0
  3
_ _ _ _ _
 72
    65
 73
     2
 40
2.0
 49
2.0
 74
     0
 49
-1.0
 74
     0
  0
LTYPE
  5
92
330
5
100
AcDbSymbolTableRecord
100
AcDbLinetypeTableRecord
  2
ACISOTGB
 70
     0
  3
__ . . __ . .
 72
    65
 73
     6
 40
9.0
 49
4.0
 74
     0
 49
-1.0
 74
     0
 49
1.0
 74
     0
 49
-1.0
 74
     0
 49
1.0
 74
     0
 49
-1.0
 74
     0
  0
LTYPE
  5
93
330
5
100
AcDbSymbolTableRecord
100
AcDbLinetypeTableRecord
  2
ACISOTGL
 70
     0
  3
_ _ _ _ _
 72
    65
 73
     2
 40
3.0
 49
2.0
 74
     0
 49
-1.0
 74
     0
  0
LTYPE
  5
309
330
5
100
AcDbSymbolTableRecord
100
AcDbLinetypeTableRecord
  2
HIDDEN
 70
     0
  3
_ _ _ _ _ _ _ _ _ _ _ _ _ _ _ _ _ _ _ _ _ _ _
 72
    65
 73
     2
 40
1.5
 49
1.0
 74
     0
 49
-0.5
 74
     0
  0
LTYPE
  5
30F
330
5
100
AcDbSymbolTableRecord
100
AcDbLinetypeTableRecord
  2
GEN7A
 70
     0
  3
__ . __ . __
 72
    65
 73
     4
 40
6.875
 49
5.0
 74
     0
 49
-0.625
 74
     0
 49
0.625
 74
     0
 49
-0.625
 74
     0
  0
LTYPE
  5
77D
330
5
100
AcDbSymbolTableRecord
100
AcDbLinetypeTableRecord
  2
GEN7
 70
     0
  3
____ . ____ . ____ . ____ . ____ . ____ . ____
 72
    65
 73
     4
 40
13.75
 49
10.0
 74
     0
 49
-1.25
 74
     0
 49
1.25
 74
     0
 49
-1.25
 74
     0
  0
LTYPE
  5
BDF
330
5
100
AcDbSymbolTableRecord
100
AcDbLinetypeTableRecord
  2
GEN4A
 70
     0
  3
_____ . . _____ . . _____ . . ____ .. ____
 72
    65
 73
     6
 40
16.25
 49
10.0
 74
     0
 49
-1.25
 74
     0
 49
1.25
 74
     0
 49
-1.25
 74
     0
 49
1.25
 74
     0
 49
-1.25
 74
     0
  0
LTYPE
  5
1778
330
5
100
AcDbSymbolTableRecord
100
AcDbLinetypeTableRecord
  2
PHANTOM2
 70
     0
  3
Phantom (.5x) ___ _ _ ___ _ _ ___ _ _ ___ _ _
 72
    65
 73
     6
 40
31.75
 49
15.875
 74
     0
 49
-3.174999999999999
 74
     0
 49
3.174999999999999
 74
     0
 49
-3.174999999999999
 74
     0
 49
3.174999999999999
 74
     0
 49
-3.174999999999999
 74
     0
  0
ENDTAB
  0
TABLE
  2
LAYER
  5
2
102
{ACAD_XDICTIONARY
360
F7D
102
}
330
0
100
AcDbSymbolTable
 70
    16
  0
LAYER
  5
10
330
2
100
AcDbSymbolTableRecord
100
AcDbLayerTableRecord
  2
0
 70
     0
 62
     7
  6
Continuous
370
    -3
390
F
  0
LAYER
  5
F5
330
2
100
AcDbSymbolTableRecord
100
AcDbLayerTableRecord
  2
RAHM2
 70
     0
 62
     1
  6
Continuous
370
    -3
390
F
  0
LAYER
  5
1EF
330
2
100
AcDbSymbolTableRecord
100
AcDbLayerTableRecord
  2
AM_BOR
 70
     0
 62
     7
  6
Continuous
370
    50
390
F
  0
LAYER
  5
310
330
2
100
AcDbSymbolTableRecord
100
AcDbLayerTableRecord
  2
RAHM3
 70
     0
 62
     2
  6
Continuous
370
    -3
390
F
  0
LAYER
  5
312
330
2
100
AcDbSymbolTableRecord
100
AcDbLayerTableRecord
  2
1
 70
     0
 62
     7
  6
Continuous
370
    -3
390
F
  0
LAYER
  5
313
330
2
100
AcDbSymbolTableRecord
100
AcDbLayerTableRecord
  2
DEFPOINTS
 70
     0
 62
    -7
  6
Continuous
290
     0
370
    -3
390
F
  0
LAYER
  5
316
330
2
100
AcDbSymbolTableRecord
100
AcDbLayerTableRecord
  2
7A
 70
     0
 62
     4
  6
GEN7A
370
    -3
390
F
  0
LAYER
  5
3CC
330
2
100
AcDbSymbolTableRecord
100
AcDbLayerTableRecord
  2
AM_5
 70
     0
 62
     3
  6
Continuous
370
    25
390
F
  0
LAYER
  5
3CE
330
2
100
AcDbSymbolTableRecord
100
AcDbLayerTableRecord
  2
AM_12
 70
     0
 62
     7
  6
Continuous
290
     0
370
    50
390
F
  0
LAYER
  5
3CF
330
2
100
AcDbSymbolTableRecord
100
AcDbLayerTableRecord
  2
AM_PAREF
 70
     0
 62
     4
  6
Continuous
290
     0
370
    25
390
F
  0
LAYER
  5
44C
330
2
100
AcDbSymbolTableRecord
100
AcDbLayerTableRecord
  2
AM_7
 70
     0
 62
     4
  6
AM_ISO08W050
370
    25
390
F
  0
LAYER
  5
44D
330
2
100
AcDbSymbolTableRecord
100
AcDbLayerTableRecord
  2
AM_8
 70
     0
 62
     1
  6
Continuous
370
    25
390
F
  0
LAYER
  5
77E
330
2
100
AcDbSymbolTableRecord
100
AcDbLayerTableRecord
  2
7
 70
     0
 62
     4
  6
GEN7
370
    -3
390
F
  0
LAYER
  5
77F
330
2
100
AcDbSymbolTableRecord
100
AcDbLayerTableRecord
  2
0N
 70
     0
 62
     7
  6
Continuous
370
    -3
390
F
  0
LAYER
  5
BE3
330
2
100
AcDbSymbolTableRecord
100
AcDbLayerTableRecord
  2
4A
 70
     0
 62
     3
  6
GEN4A
370
    -3
390
F
  0
LAYER
  5
1728
330
2
100
AcDbSymbolTableRecord
100
AcDbLayerTableRecord
  2
TEXT
 70
     0
 62
     7
  6
Continuous
370
    -3
390
F
  0
ENDTAB
  0
TABLE
  2
STYLE
  5
3
330
0
100
AcDbSymbolTable
 70
     6
  0
STYLE
  5
11
330
3
100
AcDbSymbolTableRecord
100
AcDbTextStyleTableRecord
  2
STANDARD
 70
     0
 40
0.0
 41
1.0
 50
0.0
 71
     0
 42
2.5
  3
ISOCP.SHX
  4
EXTFONT.SHX
  0
STYLE
  5
3C
330
3
100
AcDbSymbolTableRecord
100
AcDbTextStyleTableRecord
  2

 70
     1
 40
0.0
 41
1.0
 50
0.0
 71
     0
 42
2.5
  3
ltypeshp.shx
  4

  0
STYLE
  5
5D
330
3
100
AcDbSymbolTableRecord
100
AcDbTextStyleTableRecord
  2
ACJISTS
 70
     0
 40
1.0
 41
1.0
 50
0.0
 71
     0
 42
2.5
  3
isocp.shx
  4
extfont.shx
  0
STYLE
  5
60
330
3
100
AcDbSymbolTableRecord
100
AcDbTextStyleTableRecord
  2
ACJISGDT
 70
     0
 40
0.0
 41
1.0
 50
0.0
 71
     0
 42
2.5
  3
amgdt.shx
  4

  0
STYLE
  5
89
330
3
100
AcDbSymbolTableRecord
100
AcDbTextStyleTableRecord
  2
ACISOTS
 70
     0
 40
1.0
 41
1.0
 50
0.0
 71
     0
 42
2.5
  3
isocp.shx
  4
extfont.shx
  0
STYLE
  5
8D
330
3
100
AcDbSymbolTableRecord
100
AcDbTextStyleTableRecord
  2
ACISOGDT
 70
     0
 40
0.0
 41
1.0
 50
0.0
 71
     0
 42
2.5
  3
amgdt.shx
  4

  0
ENDTAB
  0
TABLE
  2
VIEW
  5
6
330
0
100
AcDbSymbolTable
 70
     6
  0
VIEW
  5
3C5
330
6
100
AcDbSymbolTableRecord
100
AcDbViewTableRecord
  2
AM_VIEW1
 70
     0
 40
148.5
 10
429.1367360741245
 20
487.1694819216072
 41
225.7081673306773
 11
0.0
 21
0.0
 31
1.0
 12
0.0
 22
0.0
 32
0.0
 42
50.0
 43
0.0
 44
0.0
 50
0.0
 71
     0
281
     0
 72
     0
  0
VIEW
  5
3C6
330
6
100
AcDbSymbolTableRecord
100
AcDbViewTableRecord
  2
AM_VIEW2
 70
     0
 40
148.5
 10
623.4285687434472
 20
487.1694819216072
 41
225.7081673306773
 11
0.0
 21
0.0
 31
1.0
 12
0.0
 22
0.0
 32
0.0
 42
50.0
 43
0.0
 44
0.0
 50
0.0
 71
     0
281
     0
 72
     0
  0
VIEW
  5
3C7
330
6
100
AcDbSymbolTableRecord
100
AcDbViewTableRecord
  2
AM_VIEW3
 70
     0
 40
148.5
 10
429.1367360741245
 20
338.6694819216073
 41
225.7081673306773
 11
0.0
 21
0.0
 31
1.0
 12
0.0
 22
0.0
 32
0.0
 42
50.0
 43
0.0
 44
0.0
 50
0.0
 71
     0
281
     0
 72
     0
  0
VIEW
  5
3C8
330
6
100
AcDbSymbolTableRecord
100
AcDbViewTableRecord
  2
AM_VIEW4
 70
     0
 40
148.5
 10
623.4285687434472
 20
338.6694819216073
 41
225.7081673306773
 11
0.0
 21
0.0
 31
1.0
 12
0.0
 22
0.0
 32
0.0
 42
50.0
 43
0.0
 44
0.0
 50
0.0
 71
     0
281
     0
 72
     0
  0
VIEW
  5
3C9
330
6
100
AcDbSymbolTableRecord
100
AcDbViewTableRecord
  2
AM_VIEW5
 70
     0
 40
148.5
 10
526.2826524087858
 20
412.9194819216072
 41
225.7081673306773
 11
0.0
 21
0.0
 31
1.0
 12
0.0
 22
0.0
 32
0.0
 42
50.0
 43
0.0
 44
0.0
 50
0.0
 71
     0
281
     0
 72
     0
  0
VIEW
  5
3CA
330
6
100
AcDbSymbolTableRecord
100
AcDbViewTableRecord
  2
AM_VIEW6
 70
     0
 40
296.99703
 10
526.2826524087858
 20
412.9194819216072
 41
451.4118204980079
 11
0.0
 21
0.0
 31
1.0
 12
0.0
 22
0.0
 32
0.0
 42
50.0
 43
0.0
 44
0.0
 50
0.0
 71
     0
281
     0
 72
     0
  0
ENDTAB
  0
TABLE
  2
UCS
  5
7
330
0
100
AcDbSymbolTable
 70
     0
  0
ENDTAB
  0
TABLE
  2
APPID
  5
9
330
0
100
AcDbSymbolTable
 70
    56
  0
APPID
  5
12
330
9
100
AcDbSymbolTableRecord
100
AcDbRegAppTableRecord
  2
ACAD
 70
     0
  0
APPID
  5
2D
330
9
100
AcDbSymbolTableRecord
100
AcDbRegAppTableRecord
  2
MCAD_NO_VIS
 70
     0
  0
APPID
  5
2E
330
9
100
AcDbSymbolTableRecord
100
AcDbRegAppTableRecord
  2
ACAD_TEMP_GRAPHIC
 70
     0
  0
APPID
  5
2F
330
9
100
AcDbSymbolTableRecord
100
AcDbRegAppTableRecord
  2
ACATTRIBSERVICES
 70
     0
  0
APPID
  5
1F0
330
9
100
AcDbSymbolTableRecord
100
AcDbRegAppTableRecord
  2
GENIUS_GENBLLY_14
 70
     0
  0
APPID
  5
321
330
9
100
AcDbSymbolTableRecord
100
AcDbRegAppTableRecord
  2
GENIUS_GENCFG_13
 70
     0
1001
GENIUS_GENCFG0_13
1000
GEN
  0
APPID
  5
322
330
9
100
AcDbSymbolTableRecord
100
AcDbRegAppTableRecord
  2
GENIUS_GENOBJ_13
 70
     0
  0
APPID
  5
323
330
9
100
AcDbSymbolTableRecord
100
AcDbRegAppTableRecord
  2
GENIUS_GENODEF_13
 70
     0
  0
APPID
  5
324
330
9
100
AcDbSymbolTableRecord
100
AcDbRegAppTableRecord
  2
GENIUS_GENOENT_13
 70
     0
  0
APPID
  5
325
330
9
100
AcDbSymbolTableRecord
100
AcDbRegAppTableRecord
  2
GENIUS_GENOLIS_13
 70
     0
  0
APPID
  5
326
330
9
100
AcDbSymbolTableRecord
100
AcDbRegAppTableRecord
  2
GENIUS_GENOREF_13
 70
     0
  0
APPID
  5
327
330
9
100
AcDbSymbolTableRecord
100
AcDbRegAppTableRecord
  2
GENIUS_GENOBJ-N-TIT_13
 70
     0
  0
APPID
  5
328
330
9
100
AcDbSymbolTableRecord
100
AcDbRegAppTableRecord
  2
GENIUS_GENTITLE_13
 70
     0
  0
APPID
  5
329
330
9
100
AcDbSymbolTableRecord
100
AcDbRegAppTableRecord
  2
GENIUS_GENZVEED_13
 70
     0
  0
APPID
  5
32A
330
9
100
AcDbSymbolTableRecord
100
AcDbRegAppTableRecord
  2
GENIUS_GENOBJ-N-SDF_13
 70
     0
  0
APPID
  5
32B
330
9
100
AcDbSymbolTableRecord
100
AcDbRegAppTableRecord
  2
GENIUS_GENSCREG_13
 70
     0
  0
APPID
  5
32C
330
9
100
AcDbSymbolTableRecord
100
AcDbRegAppTableRecord
  2
GENIUS_GENCFG0_13
 70
     0
1001
GENIUS_GENCFG_13
1071
1220933368
1000
32C
1000
GEN
1070
     0
  0
APPID
  5
32D
330
9
100
AcDbSymbolTableRecord
100
AcDbRegAppTableRecord
  2
GENIUS_GENCFG1_13
 70
     0
  0
APPID
  5
32E
330
9
100
AcDbSymbolTableRecord
100
AcDbRegAppTableRecord
  2
GENIUS_GENCFG2_13
 70
     0
  0
APPID
  5
32F
330
9
100
AcDbSymbolTableRecord
100
AcDbRegAppTableRecord
  2
GENIUS_GENCFG3_13
 70
     0
  0
APPID
  5
330
330
9
100
AcDbSymbolTableRecord
100
AcDbRegAppTableRecord
  2
GENIUS_GENCFG4_13
 70
     0
  0
APPID
  5
331
330
9
100
AcDbSymbolTableRecord
100
AcDbRegAppTableRecord
  2
GENIUS_GEVCFG0_13
 70
     0
  0
APPID
  5
332
330
9
100
AcDbSymbolTableRecord
100
AcDbRegAppTableRecord
  2
GENIUS_GENOBJ-N-CRS_13
 70
     0
  0
APPID
  5
333
330
9
100
AcDbSymbolTableRecord
100
AcDbRegAppTableRecord
  2
GENIUS_GENOBJ-N-CEN_13
 70
     0
  0
APPID
  5
334
330
9
100
AcDbSymbolTableRecord
100
AcDbRegAppTableRecord
  2
GENIUS_GEFCFG0_13
 70
     0
  0
APPID
  5
3BA
330
9
100
AcDbSymbolTableRecord
100
AcDbRegAppTableRecord
  2
GENIUS_GENTRA_14
 70
     0
  0
APPID
  5
3CB
330
9
100
AcDbSymbolTableRecord
100
AcDbRegAppTableRecord
  2
GENIUS_GENSCREG_15
 70
     0
  0
APPID
  5
436
330
9
100
AcDbSymbolTableRecord
100
AcDbRegAppTableRecord
  2
GEVID984623613
 70
     0
  0
APPID
  5
437
330
9
100
AcDbSymbolTableRecord
100
AcDbRegAppTableRecord
  2
GEVDC
 70
     0
  0
APPID
  5
438
330
9
100
AcDbSymbolTableRecord
100
AcDbRegAppTableRecord
  2
GEVCON
 70
     0
  0
APPID
  5
43C
330
9
100
AcDbSymbolTableRecord
100
AcDbRegAppTableRecord
  2
GENIUS_GENBH_13
 70
     0
  0
APPID
  5
43E
330
9
100
AcDbSymbolTableRecord
100
AcDbRegAppTableRecord
  2
GENIUS_GENOBJ-NBEHI-BHF_13
 70
     0
  0
APPID
  5
440
330
9
100
AcDbSymbolTableRecord
100
AcDbRegAppTableRecord
  2
GENIUS_GENOBJ-NBEHI-BHB_13
 70
     0
  0
APPID
  5
455
330
9
100
AcDbSymbolTableRecord
100
AcDbRegAppTableRecord
  2
GENIUS_GENOBJ-F-SCPASSM_13
 70
     0
  0
APPID
  5
47B
330
9
100
AcDbSymbolTableRecord
100
AcDbRegAppTableRecord
  2
GEVID984623614
 70
     0
  0
APPID
  5
48B
330
9
100
AcDbSymbolTableRecord
100
AcDbRegAppTableRecord
  2
GEVID984623615
 70
     0
  0
APPID
  5
54A
330
9
100
AcDbSymbolTableRecord
100
AcDbRegAppTableRecord
  2
GENIUS_GENOBJ-N-REV_13
 70
     0
  0
APPID
  5
54B
330
9
100
AcDbSymbolTableRecord
100
AcDbRegAppTableRecord
  2
GENIUS_GENOBJ-N-RSSYM_13
 70
     0
  0
APPID
  5
54C
330
9
100
AcDbSymbolTableRecord
100
AcDbRegAppTableRecord
  2
GENIUS_GENSYMENT_13
 70
     0
  0
APPID
  5
54D
330
9
100
AcDbSymbolTableRecord
100
AcDbRegAppTableRecord
  2
GENIUS_GENSCSYM_13
 70
     0
  0
APPID
  5
789
330
9
100
AcDbSymbolTableRecord
100
AcDbRegAppTableRecord
  2
GENIUS_GENDTOL_13
 70
     0
  0
APPID
  5
78A
330
9
100
AcDbSymbolTableRecord
100
AcDbRegAppTableRecord
  2
GENIUS_GENDREL_13
 70
     0
  0
APPID
  5
78B
330
9
100
AcDbSymbolTableRecord
100
AcDbRegAppTableRecord
  2
GENIUS_GENOBJ-N-FIL_13
 70
     0
  0
APPID
  5
78C
330
9
100
AcDbSymbolTableRecord
100
AcDbRegAppTableRecord
  2
GENIUS_GENHINW_13
 70
     0
  0
APPID
  5
78D
330
9
100
AcDbSymbolTableRecord
100
AcDbRegAppTableRecord
  2
GENIUS_GENOBJ-N-LEADER_13
 70
     0
  0
APPID
  5
F76
330
9
100
AcDbSymbolTableRecord
100
AcDbRegAppTableRecord
  2
GENIUS_GENREC_14
 70
     0
  0
APPID
  5
F77
330
9
100
AcDbSymbolTableRecord
100
AcDbRegAppTableRecord
  2
GENIUS_GENOBJ-N-REC_13
 70
     0
  0
APPID
  5
10A8
330
9
100
AcDbSymbolTableRecord
100
AcDbRegAppTableRecord
  2
GENIUS_GENOBJ-N-HTC_13
 70
     0
  0
APPID
  5
10A9
330
9
100
AcDbSymbolTableRecord
100
AcDbRegAppTableRecord
  2
GENIUS_GENHATCH_13
 70
     0
  0
APPID
  5
119C
330
9
100
AcDbSymbolTableRecord
100
AcDbRegAppTableRecord
  2
GENIUS_GENREC_13
 70
     0
  0
APPID
  5
13DE
330
9
100
AcDbSymbolTableRecord
100
AcDbRegAppTableRecord
  2
GENIUS_GENDIMSH_14
 70
     0
  0
APPID
  5
177A
330
9
100
AcDbSymbolTableRecord
100
AcDbRegAppTableRecord
  2
AD_DRAW
 70
     0
  0
APPID
  5
1798
330
9
100
AcDbSymbolTableRecord
100
AcDbRegAppTableRecord
  2
DESIGNERASSEMBLIES
 70
     0
  0
APPID
  5
17B6
330
9
100
AcDbSymbolTableRecord
100
AcDbRegAppTableRecord
  2
ACADM_DIM_EDIT
 70
     0
  0
APPID
  5
17B7
330
9
100
AcDbSymbolTableRecord
100
AcDbRegAppTableRecord
  2
AMDT_DM_ADJ
 70
     0
  0
APPID
  5
18AF
330
9
100
AcDbSymbolTableRecord
100
AcDbRegAppTableRecord
  2
DCO15
 70
     0
  0
ENDTAB
  0
TABLE
  2
DIMSTYLE
  5
A
330
0
100
AcDbSymbolTable
 70
    22
100
AcDbDimStyleTable
 71
     1
340
76
  0
DIMSTYLE
105
76
102
{ACAD_REACTORS
330
FFD
330
1056
330
138E
330
13B6
330
13E5
330
1401
330
142D
330
145E
330
147A
330
14C3
330
14E7
330
1511
330
154B
102
}
330
A
100
AcDbSymbolTableRecord
100
AcDbDimStyleTableRecord
  2
IGS
 70
     0
  4
"
 41
2.5
 42
1.0
 43
10.0
 44
1.0
 47
0.1
 48
0.1
 73
     0
 74
     0
 77
     3
 78
     8
 79
     2
140
3.0
141
0.0
143
0.0393701
146
0.71
147
1.5
172
     1
176
   256
177
   256
178
     2
271
     2
272
     2
283
     0
284
     8
340
11
341
77
342
77
371
    -1
372
    -1
  0
DIMSTYLE
105
7D
102
{ACAD_REACTORS
330
102D
330
1332
102
}
330
A
100
AcDbSymbolTableRecord
100
AcDbDimStyleTableRecord
  2
IGS$3
 70
     0
  4
"
 41
2.5
 42
1.0
 43
10.0
 44
1.0
 47
0.1
 48
0.1
 73
     0
 77
     3
 78
     8
 79
     2
140
4.0
141
0.0
143
0.0393701
146
0.71
147
1.5
176
   256
177
   256
178
     2
271
     2
272
     2
283
     0
284
     8
288
     1
289
     0
340
11
341
77
342
77
371
    -1
372
    -1
  0
DIMSTYLE
105
7E
330
A
100
AcDbSymbolTableRecord
100
AcDbDimStyleTableRecord
  2
IGS$4
 70
     0
  4
"
 41
2.5
 42
1.0
 43
10.0
 44
1.0
 47
0.1
 48
0.1
 73
     0
 77
     3
 78
     8
 79
     2
140
4.0
141
0.0
143
0.0393701
146
0.71
147
1.5
176
   256
177
   256
178
     2
271
     2
272
     2
283
     0
284
     8
288
     1
289
     0
340
11
341
77
342
77
371
    -1
372
    -1
  0
DIMSTYLE
105
7F
330
A
100
AcDbSymbolTableRecord
100
AcDbDimStyleTableRecord
  2
IGS$6
 70
     0
  4
"
 41
2.5
 42
1.0
 43
10.0
 44
1.0
 47
0.1
 48
0.1
 73
     0
 74
     0
 78
     8
 79
     2
140
4.0
141
0.0
143
0.0393701
146
0.71
147
1.5
172
     1
176
   256
177
   256
178
     2
271
     2
272
     2
283
     0
284
     8
340
11
341
77
342
77
371
    -1
372
    -1
  0
DIMSTYLE
105
80
330
A
100
AcDbSymbolTableRecord
100
AcDbDimStyleTableRecord
  2
IGS$7
 70
     0
  4
"
 41
2.5
 42
1.0
 43
10.0
 44
1.0
 47
0.1
 48
0.1
 73
     0
 74
     0
 77
     3
 78
     8
 79
     2
140
5.0
141
0.0
143
0.0393701
146
0.71
147
1.5
172
     1
176
   256
177
   256
178
     2
271
     2
272
     2
283
     0
284
     8
340
11
341
77
342
77
371
    -1
372
    -1
  0
DIMSTYLE
105
81
330
A
100
AcDbSymbolTableRecord
100
AcDbDimStyleTableRecord
  2
IGS$SF
 70
     0
  4
"
 41
2.5
 42
1.0
 43
10.0
 44
1.0
 47
0.1
 48
0.1
 73
     0
 74
     0
 75
     1
 76
     1
 77
     3
 78
     8
 79
     2
140
3.5
141
0.0
143
0.0393701
146
0.71
147
1.5
172
     1
176
   256
177
   256
178
     2
271
     2
272
     3
274
     4
283
     0
284
     8
340
11
341
77
342
77
343
77
344
77
371
    -1
372
    -1
  0
DIMSTYLE
105
82
330
A
100
AcDbSymbolTableRecord
100
AcDbDimStyleTableRecord
  2
IGS$SH
 70
     0
  4
"
 41
2.5
 42
1.0
 43
10.0
 44
1.0
 47
0.1
 48
0.1
 73
     0
 74
     0
 75
     1
 76
     1
 77
     3
 78
     8
 79
     2
140
3.5
141
0.0
143
0.0393701
144
2.0
146
0.71
147
1.5
172
     1
173
     1
176
   256
177
   256
178
     2
271
     2
272
     3
274
     4
283
     0
284
     8
340
11
341
77
342
77
343
83
344
77
371
    -1
372
    -1
  0
DIMSTYLE
105
9A
330
A
100
AcDbSymbolTableRecord
100
AcDbDimStyleTableRecord
  2
AM_ISO
 70
     0
  4
"
 41
2.5
 42
1.0
 43
10.0
 44
1.0
 47
0.1
 48
0.1
 73
     0
 74
     0
 77
     1
 78
     8
 79
     2
140
3.5
141
0.0
143
0.0393701
146
0.71
147
1.5
172
     1
176
   256
177
   256
178
     2
271
     2
272
     3
274
     4
283
     0
284
     8
340
11
371
    -1
372
    -1
  0
DIMSTYLE
105
9B
330
A
100
AcDbSymbolTableRecord
100
AcDbDimStyleTableRecord
  2
AM_ISO$3
 70
     0
  4
"
 41
2.5
 42
1.0
 43
10.0
 44
1.0
 47
0.1
 48
0.1
 73
     0
 77
     1
 78
     8
 79
     2
140
3.5
141
0.0
143
0.0393701
146
0.71
147
1.5
176
   256
177
   256
178
     2
271
     2
272
     3
274
     4
283
     0
284
     8
288
     1
289
     0
340
11
371
    -1
372
    -1
  0
DIMSTYLE
105
9C
330
A
100
AcDbSymbolTableRecord
100
AcDbDimStyleTableRecord
  2
AM_ISO$4
 70
     0
  4
"
 41
2.5
 42
1.0
 43
10.0
 44
1.0
 47
0.1
 48
0.1
 73
     0
 77
     1
 78
     8
 79
     2
140
3.5
141
0.0
143
0.0393701
146
0.71
147
1.5
176
   256
177
   256
178
     2
271
     2
272
     3
274
     4
283
     0
284
     8
288
     1
289
     0
340
11
371
    -1
372
    -1
  0
DIMSTYLE
105
9D
330
A
100
AcDbSymbolTableRecord
100
AcDbDimStyleTableRecord
  2
AM_ISO$6
 70
     0
  4
"
 41
2.5
 42
1.0
 43
10.0
 44
1.0
 47
0.1
 48
0.1
 73
     0
 74
     0
 78
     8
 79
     2
140
3.5
141
0.0
143
0.0393701
146
0.71
147
1.5
172
     1
176
   256
177
   256
178
     2
271
     2
272
     3
274
     4
283
     0
284
     8
340
11
371
    -1
372
    -1
  0
DIMSTYLE
105
9E
330
A
100
AcDbSymbolTableRecord
100
AcDbDimStyleTableRecord
  2
AM_ISO$7
 70
     0
  4
"
 41
2.5
 42
1.0
 43
10.0
 44
1.0
 47
0.1
 48
0.1
 73
     0
 74
     0
 77
     1
 78
     8
 79
     2
140
5.0
141
0.0
143
0.0393701
146
0.71
147
1.5
172
     1
176
   256
177
   256
178
     2
271
     2
272
     3
274
     4
283
     0
284
     8
340
11
371
    -1
372
    -1
  0
DIMSTYLE
105
9F
330
A
100
AcDbSymbolTableRecord
100
AcDbDimStyleTableRecord
  2
AM_ISO$SF
 70
     0
  4
"
 41
2.5
 42
1.0
 43
10.0
 44
1.0
 47
0.1
 48
0.1
 73
     0
 74
     0
 75
     1
 76
     1
 77
     1
 78
     8
 79
     2
140
3.5
141
0.0
143
0.0393701
146
0.71
147
1.5
172
     1
176
   256
177
   256
178
     2
271
     2
272
     3
274
     4
283
     0
284
     8
340
11
371
    -1
372
    -1
  0
DIMSTYLE
105
A0
330
A
100
AcDbSymbolTableRecord
100
AcDbDimStyleTableRecord
  2
AM_ISO$SH
 70
     0
  4
"
 41
2.5
 42
1.0
 43
10.0
 44
1.0
 47
0.1
 48
0.1
 73
     0
 74
     0
 75
     1
 76
     1
 77
     1
 78
     8
 79
     2
140
3.5
141
0.0
143
0.0393701
144
2.0
146
0.71
147
1.5
172
     1
173
     1
176
   256
177
   256
178
     2
271
     2
272
     3
274
     4
283
     0
284
     8
340
11
343
83
371
    -1
372
    -1
  0
DIMSTYLE
105
317
330
A
100
AcDbSymbolTableRecord
100
AcDbDimStyleTableRecord
  2
STANDARD
 70
     0
340
11
  0
DIMSTYLE
105
782
330
A
100
AcDbSymbolTableRecord
100
AcDbDimStyleTableRecord
  2
AM_JIS
 70
     0
  4
"
 40
20.0
 41
2.5
 42
1.0
 43
10.0
 44
1.0
 47
0.1
 48
0.1
 73
     0
 74
     0
 77
     3
 78
     8
 79
     2
140
3.5
141
0.0
143
0.0393701
146
0.71
147
1.5
172
     1
176
   256
177
   256
178
     2
271
     2
272
     3
274
     4
283
     0
284
     8
340
11
341
77
342
77
343
77
344
77
371
    -1
372
    -1
  0
DIMSTYLE
105
783
330
A
100
AcDbSymbolTableRecord
100
AcDbDimStyleTableRecord
  2
AM_JIS$3
 70
     0
  4
"
 40
20.0
 41
2.5
 42
1.0
 43
10.0
 44
1.0
 47
0.1
 48
0.1
 73
     0
 77
     3
 78
     8
 79
     2
140
3.5
141
0.0
143
0.0393701
146
0.71
147
1.5
176
   256
177
   256
178
     2
271
     2
272
     3
274
     4
283
     0
284
     8
288
     1
289
     0
340
11
341
77
342
77
343
77
344
77
371
    -1
372
    -1
  0
DIMSTYLE
105
784
330
A
100
AcDbSymbolTableRecord
100
AcDbDimStyleTableRecord
  2
AM_JIS$4
 70
     0
  4
"
 40
20.0
 41
2.5
 42
1.0
 43
10.0
 44
1.0
 47
0.1
 48
0.1
 73
     0
 77
     3
 78
     8
 79
     2
140
3.5
141
0.0
143
0.0393701
146
0.71
147
1.5
176
   256
177
   256
178
     2
271
     2
272
     3
274
     4
283
     0
284
     8
288
     1
289
     0
340
11
341
77
342
77
343
77
344
77
371
    -1
372
    -1
  0
DIMSTYLE
105
785
330
A
100
AcDbSymbolTableRecord
100
AcDbDimStyleTableRecord
  2
AM_JIS$6
 70
     0
  4
"
 40
20.0
 41
2.5
 42
1.0
 43
10.0
 44
1.0
 47
0.1
 48
0.1
 73
     0
 74
     0
 78
     8
 79
     2
140
3.5
141
0.0
143
0.0393701
146
0.71
147
1.5
172
     1
176
   256
177
   256
178
     2
271
     2
272
     3
274
     4
283
     0
284
     8
340
11
341
77
342
77
343
77
344
77
371
    -1
372
    -1
  0
DIMSTYLE
105
786
330
A
100
AcDbSymbolTableRecord
100
AcDbDimStyleTableRecord
  2
AM_JIS$7
 70
     0
  4
"
 40
20.0
 41
2.5
 42
1.0
 43
10.0
 44
1.0
 47
0.1
 48
0.1
 73
     0
 74
     0
 77
     3
 78
     8
 79
     2
140
5.0
141
0.0
143
0.0393701
146
0.71
147
1.5
172
     1
176
   256
177
   256
178
     2
271
     2
272
     3
274
     4
283
     0
284
     8
340
11
341
77
342
77
343
77
344
77
371
    -1
372
    -1
  0
DIMSTYLE
105
787
330
A
100
AcDbSymbolTableRecord
100
AcDbDimStyleTableRecord
  2
AM_JIS$SF
 70
     0
  4
"
 40
20.0
 41
2.5
 42
1.0
 43
10.0
 44
1.0
 47
0.1
 48
0.1
 73
     0
 74
     0
 75
     1
 76
     1
 77
     3
 78
     8
 79
     2
140
3.5
141
0.0
143
0.0393701
146
0.71
147
1.5
172
     1
176
   256
177
   256
178
     2
271
     2
272
     3
274
     4
283
     0
284
     8
340
11
341
77
342
77
343
77
344
77
371
    -1
372
    -1
  0
DIMSTYLE
105
788
330
A
100
AcDbSymbolTableRecord
100
AcDbDimStyleTableRecord
  2
AM_JIS$SH
 70
     0
  4
"
 40
20.0
 41
2.5
 42
1.0
 43
10.0
 44
1.0
 47
0.1
 48
0.1
 73
     0
 74
     0
 75
     1
 76
     1
 77
     3
 78
     8
 79
     2
140
3.5
141
0.0
143
0.0393701
144
2.0
146
0.71
147
1.5
172
     1
173
     1
176
   256
177
   256
178
     2
271
     2
272
     3
274
     4
283
     0
284
     8
340
11
341
77
342
77
343
83
344
77
371
    -1
372
    -1
  0
ENDTAB
  0
TABLE
  2
BLOCK_RECORD
  5
1
330
0
100
AcDbSymbolTable
 70
    38
  0
BLOCK_RECORD
  5
1F
102
{ACAD_XDICTIONARY
360
B1
102
}
330
1
100
AcDbSymbolTableRecord
100
AcDbBlockTableRecord
  2
*Model_Space
340
22
  0
BLOCK_RECORD
  5
1B
330
1
100
AcDbSymbolTableRecord
100
AcDbBlockTableRecord
  2
*Paper_Space
340
1E
  0
BLOCK_RECORD
  5
23
330
1
100
AcDbSymbolTableRecord
100
AcDbBlockTableRecord
  2
*Paper_Space0
340
26
  0
BLOCK_RECORD
  5
77
330
1
100
AcDbSymbolTableRecord
100
AcDbBlockTableRecord
  2
_Open30
340
0
310
2800000020000000200000000100080000000000000400000000000000000000000000000000000000000000000080000080000000808000800000008000800080800000C0C0C000C0DCC000F0CAA6000020400000206000002080000020A0000020C0000020E00000400000004020000040400000406000004080000040A0
310
000040C0000040E00000600000006020000060400000606000006080000060A0000060C0000060E00000800000008020000080400000806000008080000080A0000080C0000080E00000A0000000A0200000A0400000A0600000A0800000A0A00000A0C00000A0E00000C0000000C0200000C0400000C0600000C0800000C0
310
A00000C0C00000C0E00000E0000000E0200000E0400000E0600000E0800000E0A00000E0C00000E0E00040000000400020004000400040006000400080004000A0004000C0004000E00040200000402020004020400040206000402080004020A0004020C0004020E000404000004040200040404000404060004040800040
310
40A0004040C0004040E00040600000406020004060400040606000406080004060A0004060C0004060E00040800000408020004080400040806000408080004080A0004080C0004080E00040A0000040A0200040A0400040A0600040A0800040A0A00040A0C00040A0E00040C0000040C0200040C0400040C0600040C08000
310
40C0A00040C0C00040C0E00040E0000040E0200040E0400040E0600040E0800040E0A00040E0C00040E0E00080000000800020008000400080006000800080008000A0008000C0008000E00080200000802020008020400080206000802080008020A0008020C0008020E00080400000804020008040400080406000804080
310
008040A0008040C0008040E00080600000806020008060400080606000806080008060A0008060C0008060E00080800000808020008080400080806000808080008080A0008080C0008080E00080A0000080A0200080A0400080A0600080A0800080A0A00080A0C00080A0E00080C0000080C0200080C0400080C0600080C0
310
800080C0A00080C0C00080C0E00080E0000080E0200080E0400080E0600080E0800080E0A00080E0C00080E0E000C0000000C0002000C0004000C0006000C0008000C000A000C000C000C000E000C0200000C0202000C0204000C0206000C0208000C020A000C020C000C020E000C0400000C0402000C0404000C0406000C0
310
408000C040A000C040C000C040E000C0600000C0602000C0604000C0606000C0608000C060A000C060C000C060E000C0800000C0802000C0804000C0806000C0808000C080A000C080C000C080E000C0A00000C0A02000C0A04000C0A06000C0A08000C0A0A000C0A0C000C0A0E000C0C00000C0C02000C0C04000C0C06000
310
C0C08000C0C0A000F0FBFF00A4A0A000808080000000FF0000FF000000FFFF00FF000000FF00FF00FFFF0000FFFFFF0000000000000000000000000000000000000000000000000000000000000000000000000000000000000000000000000000000000000000000000000000000000000000000000000000000000000000
310
00000000000000000000000000000000000000000000000000000000000000000000000000000000000000000000000000000000000000000000000000000000000000000000000000000000000000000000000000000000000000000000000000000000000000000000000000000000000000000000000000000000000000
310
000000000000000000000000000000000000000000000000000000000000000000000000000000000000000000000000000000FFFF0000000000000000000000000000000000000000000000000000000000000000FFFFFFFF0000000000000000000000000000000000000000000000000000000000000000FFFFFFFF0000
310
000000000000000000000000000000000000000000000000000000000000FFFFFF0000000000000000000000000000000000000000000000000000000000000000FFFFFFFF0000000000000000000000000000000000000000000000000000000000000000FFFFFF0000000000000000000000000000000000000000000000
310
000000000000000000FFFFFFFF0000000000000000000000000000000000000000000000000000000000000000FFFFFFFF00000000FFFFFFFFFFFFFFFFFFFFFFFFFFFFFFFFFFFFFFFFFFFFFFFFFFFFFFFFFFFF00000000000000000000000000000000000000000000000000FFFFFFFF000000000000000000000000000000
310
000000000000000000FFFFFFFF000000000000000000000000000000000000000000000000FFFFFFFF000000000000000000000000000000000000000000000000FFFFFFFF000000000000000000000000000000000000000000000000FFFFFFFF000000000000000000000000000000000000000000000000FFFFFFFF0000
310
0000000000000000000000000000000000000000000000FFFFFF0000000000000000000000000000000000000000000000000000000000000000000000000000000000000000000000000000000000000000000000000000000000000000000000000000000000000000000000000000000000000000000000000000000000
310
00000000000000000000000000000000000000000000000000000000000000000000000000000000000000000000000000000000000000000000000000000000000000000000000000000000000000000000000000000000000000000000000000000000000000000000000000000000000000000000000000000000000000
310
0000000000000000000000000000000000000000000000000000000000000000000000000000000000000000000000000000000000000000
  0
BLOCK_RECORD
  5
83
330
1
100
AcDbSymbolTableRecord
100
AcDbBlockTableRecord
  2
GENAXEH
340
0
310
2800000020000000200000000100080000000000000400000000000000000000000000000000000000000000000080000080000000808000800000008000800080800000C0C0C000C0DCC000F0CAA6000020400000206000002080000020A0000020C0000020E00000400000004020000040400000406000004080000040A0
310
000040C0000040E00000600000006020000060400000606000006080000060A0000060C0000060E00000800000008020000080400000806000008080000080A0000080C0000080E00000A0000000A0200000A0400000A0600000A0800000A0A00000A0C00000A0E00000C0000000C0200000C0400000C0600000C0800000C0
310
A00000C0C00000C0E00000E0000000E0200000E0400000E0600000E0800000E0A00000E0C00000E0E00040000000400020004000400040006000400080004000A0004000C0004000E00040200000402020004020400040206000402080004020A0004020C0004020E000404000004040200040404000404060004040800040
310
40A0004040C0004040E00040600000406020004060400040606000406080004060A0004060C0004060E00040800000408020004080400040806000408080004080A0004080C0004080E00040A0000040A0200040A0400040A0600040A0800040A0A00040A0C00040A0E00040C0000040C0200040C0400040C0600040C08000
310
40C0A00040C0C00040C0E00040E0000040E0200040E0400040E0600040E0800040E0A00040E0C00040E0E00080000000800020008000400080006000800080008000A0008000C0008000E00080200000802020008020400080206000802080008020A0008020C0008020E00080400000804020008040400080406000804080
310
008040A0008040C0008040E00080600000806020008060400080606000806080008060A0008060C0008060E00080800000808020008080400080806000808080008080A0008080C0008080E00080A0000080A0200080A0400080A0600080A0800080A0A00080A0C00080A0E00080C0000080C0200080C0400080C0600080C0
310
800080C0A00080C0C00080C0E00080E0000080E0200080E0400080E0600080E0800080E0A00080E0C00080E0E000C0000000C0002000C0004000C0006000C0008000C000A000C000C000C000E000C0200000C0202000C0204000C0206000C0208000C020A000C020C000C020E000C0400000C0402000C0404000C0406000C0
310
408000C040A000C040C000C040E000C0600000C0602000C0604000C0606000C0608000C060A000C060C000C060E000C0800000C0802000C0804000C0806000C0808000C080A000C080C000C080E000C0A00000C0A02000C0A04000C0A06000C0A08000C0A0A000C0A0C000C0A0E000C0C00000C0C02000C0C04000C0C06000
310
C0C08000C0C0A000F0FBFF00A4A0A000808080000000FF0000FF000000FFFF00FF000000FF00FF00FFFF0000FFFFFF0000000000000000000000000000000000000000000000000000000000000000000000000000000000000000000000000000000000000000000000000000000000000000000000000000000000000000
310
00000000000000000000000000000000000000000000000000000000000000000000000000000000000000000000000000000000000000000000000000000000000000000000000000000000000000000000000000000000000000000000000000000000000000000000000000000000000000000000000000000000000000
310
00000000000000000000000000000000000000000000000000000000000000000000000000000000000000000000000000000000000000000000000000000000000000000000000000000000000000000000000000000000000000000000000000000000000000000000000000000000000000000000000000000000000000
310
00000000000000000000000000000000000000000000000000000000000000000000000000000000000000000000000000000000000000000000000000000000000000000000000000000000000000000000000000000000000000000000000000000000000000000000000000000000000000000000000000000000000000
310
0000000000000000000000000000000000000000000000000000000000000000000000000000000000000000000000000000000000FFFFFFFFFFFFFFFFFFFFFFFFFFFFFFFFFFFFFFFFFFFFFFFFFFFFFFFFFFFF0000000000000000000000000000000000000000000000000000000000000000000000000000000000000000
310
00000000000000000000000000000000000000000000000000000000000000000000000000000000000000000000000000000000000000000000000000000000000000000000000000000000000000000000000000000000000000000000000000000000000000000000000000000000000000000000000000000000000000
310
00000000000000000000000000000000000000000000000000000000000000000000000000000000000000000000000000000000000000000000000000000000000000000000000000000000000000000000000000000000000000000000000000000000000000000000000000000000000000000000000000000000000000
310
00000000000000000000000000000000000000000000000000000000000000000000000000000000000000000000000000000000000000000000000000000000000000000000000000000000000000000000000000000000000000000000000000000000000000000000000000000000000000000000000000000000000000
310
0000000000000000000000000000000000000000000000000000000000000000000000000000000000000000000000000000000000000000
  0
BLOCK_RECORD
  5
335
330
1
100
AcDbSymbolTableRecord
100
AcDbBlockTableRecord
  2
IGS2
340
0
102
{BLKREFS
331
8F7
102
}
  0
BLOCK_RECORD
  5
71E
330
1
100
AcDbSymbolTableRecord
100
AcDbBlockTableRecord
  2
IGS_A3T
340
0
102
{BLKREFS
331
900
102
}
  0
BLOCK_RECORD
  5
FFE
330
1
100
AcDbSymbolTableRecord
100
AcDbBlockTableRecord
  2
*D5
340
0
  0
BLOCK_RECORD
  5
102E
330
1
100
AcDbSymbolTableRecord
100
AcDbBlockTableRecord
  2
*D6
340
0
  0
BLOCK_RECORD
  5
1057
330
1
100
AcDbSymbolTableRecord
100
AcDbBlockTableRecord
  2
*D7
340
0
  0
BLOCK_RECORD
  5
1333
330
1
100
AcDbSymbolTableRecord
100
AcDbBlockTableRecord
  2
*D8
340
0
  0
BLOCK_RECORD
  5
138F
330
1
100
AcDbSymbolTableRecord
100
AcDbBlockTableRecord
  2
*D9
340
0
  0
BLOCK_RECORD
  5
13B7
330
1
100
AcDbSymbolTableRecord
100
AcDbBlockTableRecord
  2
*D10
340
0
  0
BLOCK_RECORD
  5
13E6
330
1
100
AcDbSymbolTableRecord
100
AcDbBlockTableRecord
  2
*D11
340
0
  0
BLOCK_RECORD
  5
1402
330
1
100
AcDbSymbolTableRecord
100
AcDbBlockTableRecord
  2
*D12
340
0
  0
BLOCK_RECORD
  5
142E
330
1
100
AcDbSymbolTableRecord
100
AcDbBlockTableRecord
  2
*D13
340
0
  0
BLOCK_RECORD
  5
145F
330
1
100
AcDbSymbolTableRecord
100
AcDbBlockTableRecord
  2
*D14
340
0
  0
BLOCK_RECORD
  5
147B
330
1
100
AcDbSymbolTableRecord
100
AcDbBlockTableRecord
  2
*D15
340
0
  0
BLOCK_RECORD
  5
14C4
330
1
100
AcDbSymbolTableRecord
100
AcDbBlockTableRecord
  2
*D16
340
0
  0
BLOCK_RECORD
  5
14E8
330
1
100
AcDbSymbolTableRecord
100
AcDbBlockTableRecord
  2
*D17
340
0
  0
BLOCK_RECORD
  5
1512
330
1
100
AcDbSymbolTableRecord
100
AcDbBlockTableRecord
  2
*D18
340
0
  0
BLOCK_RECORD
  5
154C
330
1
100
AcDbSymbolTableRecord
100
AcDbBlockTableRecord
  2
*D19
340
0
  0
BLOCK_RECORD
  5
17C2
330
1
100
AcDbSymbolTableRecord
100
AcDbBlockTableRecord
  2
*S20
340
0
102
{BLKREFS
331
15EF
102
}
  0
BLOCK_RECORD
  5
17C9
330
1
100
AcDbSymbolTableRecord
100
AcDbBlockTableRecord
  2
*S21
340
0
102
{BLKREFS
331
15F6
102
}
  0
BLOCK_RECORD
  5
17D1
330
1
100
AcDbSymbolTableRecord
100
AcDbBlockTableRecord
  2
*S22
340
0
102
{BLKREFS
331
15F8
102
}
  0
BLOCK_RECORD
  5
17D8
330
1
100
AcDbSymbolTableRecord
100
AcDbBlockTableRecord
  2
*S23
340
0
102
{BLKREFS
331
15FD
102
}
  0
BLOCK_RECORD
  5
17E0
330
1
100
AcDbSymbolTableRecord
100
AcDbBlockTableRecord
  2
*S24
340
0
102
{BLKREFS
331
15FF
102
}
  0
BLOCK_RECORD
  5
17E7
330
1
100
AcDbSymbolTableRecord
100
AcDbBlockTableRecord
  2
*S25
340
0
102
{BLKREFS
331
1604
102
}
  0
BLOCK_RECORD
  5
17EF
330
1
100
AcDbSymbolTableRecord
100
AcDbBlockTableRecord
  2
*S26
340
0
102
{BLKREFS
331
1606
102
}
  0
BLOCK_RECORD
  5
17F6
330
1
100
AcDbSymbolTableRecord
100
AcDbBlockTableRecord
  2
*S27
340
0
102
{BLKREFS
331
160B
102
}
  0
BLOCK_RECORD
  5
17FE
330
1
100
AcDbSymbolTableRecord
100
AcDbBlockTableRecord
  2
*S28
340
0
102
{BLKREFS
331
160D
102
}
  0
BLOCK_RECORD
  5
1805
330
1
100
AcDbSymbolTableRecord
100
AcDbBlockTableRecord
  2
*S29
340
0
102
{BLKREFS
331
1612
102
}
  0
BLOCK_RECORD
  5
180D
330
1
100
AcDbSymbolTableRecord
100
AcDbBlockTableRecord
  2
*S30
340
0
102
{BLKREFS
331
1614
102
}
  0
BLOCK_RECORD
  5
1814
330
1
100
AcDbSymbolTableRecord
100
AcDbBlockTableRecord
  2
*S31
340
0
102
{BLKREFS
331
1619
102
}
  0
BLOCK_RECORD
  5
181C
330
1
100
AcDbSymbolTableRecord
100
AcDbBlockTableRecord
  2
*S32
340
0
102
{BLKREFS
331
161B
102
}
  0
BLOCK_RECORD
  5
1823
330
1
100
AcDbSymbolTableRecord
100
AcDbBlockTableRecord
  2
*S33
340
0
102
{BLKREFS
331
1620
102
}
  0
BLOCK_RECORD
  5
182B
330
1
100
AcDbSymbolTableRecord
100
AcDbBlockTableRecord
  2
*S34
340
0
102
{BLKREFS
331
1629
102
}
  0
BLOCK_RECORD
  5
188B
330
1
100
AcDbSymbolTableRecord
100
AcDbBlockTableRecord
  2
*S35
340
0
102
{BLKREFS
331
16B9
102
}
  0
BLOCK_RECORD
  5
1892
330
1
100
AcDbSymbolTableRecord
100
AcDbBlockTableRecord
  2
*S36
340
0
102
{BLKREFS
331
16BE
102
}
  0
ENDTAB
  0
ENDSEC
  0
SECTION
  2
BLOCKS
  0
BLOCK
  5
20
330
1F
100
AcDbEntity
  8
0
100
AcDbBlockBegin
  2
*Model_Space
 70
     0
 10
0.0
 20
0.0
 30
0.0
  3
*Model_Space
  1

  0
ENDBLK
  5
21
330
1F
100
AcDbEntity
  8
0
100
AcDbBlockEnd
  0
BLOCK
  5
1C
330
1B
100
AcDbEntity
 67
     1
  8
0
100
AcDbBlockBegin
  2
*Paper_Space
 70
     0
 10
0.0
 20
0.0
 30
0.0
  3
*Paper_Space
  1

  0
ENDBLK
  5
1D
330
1B
100
AcDbEntity
 67
     1
  8
0
100
AcDbBlockEnd
  0
BLOCK
  5
24
330
23
100
AcDbEntity
  8
0
100
AcDbBlockBegin
  2
*Paper_Space0
 70
     0
 10
0.0
 20
0.0
 30
0.0
  3
*Paper_Space0
  1

  0
ENDBLK
  5
25
330
23
100
AcDbEntity
  8
0
100
AcDbBlockEnd
  0
BLOCK
  5
1928
330
77
100
AcDbEntity
  8
0
100
AcDbBlockBegin
  2
_Open30
 70
     0
 10
0.0
 20
0.0
 30
0.0
  3
_Open30
  1

  0
LINE
  5
1929
330
77
100
AcDbEntity
  8
0
  6
ByBlock
 62
     0
370
    -2
100
AcDbLine
 10
-1.0
 20
0.26794919
 30
0.0
 11
0.0
 21
0.0
 31
0.0
  0
LINE
  5
192A
330
77
100
AcDbEntity
  8
0
  6
ByBlock
 62
     0
370
    -2
100
AcDbLine
 10
0.0
 20
0.0
 30
0.0
 11
-1.0
 21
-0.26794919
 31
0.0
  0
LINE
  5
192B
330
77
100
AcDbEntity
  8
0
  6
ByBlock
 62
     0
370
    -2
100
AcDbLine
 10
0.0
 20
0.0
 30
0.0
 11
-1.0
 21
0.0
 31
0.0
  0
ENDBLK
  5
192C
330
77
100
AcDbEntity
  8
0
100
AcDbBlockEnd
  0
BLOCK
  5
1934
330
83
100
AcDbEntity
  8
0
100
AcDbBlockBegin
  2
GENAXEH
 70
     0
 10
0.0
 20
0.0
 30
0.0
  3
GENAXEH
  1

  0
LINE
  5
1935
330
83
100
AcDbEntity
  8
0
100
AcDbLine
 10
-1.0
 20
0.0
 30
0.0
 11
1.0
 21
0.0
 31
0.0
  0
ENDBLK
  5
1936
330
83
100
AcDbEntity
  8
0
100
AcDbBlockEnd
  0
BLOCK
  5
3B8
330
335
100
AcDbEntity
  8
0
100
AcDbBlockBegin
  2
IGS2
 70
     2
 10
0.0
 20
0.0
 30
0.0
  3
IGS2
  1

  0
POINT
  5
336
330
335
100
AcDbEntity
  8
0
 60
     1
100
AcDbPoint
 10
0.0
 20
0.0
 30
0.0
1001
GENIUS_GENODEF_13
1002
{
1000
HIER
1070
     1
1002
}
1002
{
1000
MANEDIT
1070
     0
1002
}
1002
{
1000
NOSEL
1070
     0
1002
}
1002
{
1000
BEHIND
1070
     0
1002
}
1002
{
1000
REACTOR
1002
}
1001
GENIUS_GENTITLE_13
1002
{
1000
SCALE
1000
1:1
1002
}
1002
{
1000
BORDER
1000
IGS-A4
1002
}
1002
{
1000
TITLE
1000
IGS-TITLE
1002
}
1002
{
1000
UNCHG
1002
{
1000
GEN-TITLE-SCA
1000
GEN-TITLE-SIZ
1002
}
1002
}
1002
{
1000
HRA
1005
0
1002
}
1002
{
1000
HTIT
1005
0
1002
}
1002
{
1000
GENIUSID
1005
336
1002
}
1001
GENIUS_GENOBJ-N-TIT_13
1002
{
1000
OWNER
1000
GEN
1002
}
1001
GENIUS_GENOENT_13
1002
{
1000
MYREF
1005
336
1002
}
1002
{
1000
GRP
1005
0
1002
}
1001
GENIUS_GENOLIS_13
1002
{
1000
ENT
1005
0
1005
0
1002
}
  0
LINE
  5
337
330
335
100
AcDbEntity
  8
RAHM3
100
AcDbLine
 10
-148.4080564410193
 20
8.825237325416161
 30
52.0
 11
-145.4319868410194
 21
8.825237325416161
 31
52.0
  0
ARC
  5
338
330
335
100
AcDbEntity
  8
RAHM3
100
AcDbCircle
 10
-141.4638940410194
 20
7.833214125416168
 30
52.0
 40
0.9920232
100
AcDbArc
 50
90.0
 51
180.0
  0
LINE
  5
339
330
335
100
AcDbEntity
  8
RAHM3
100
AcDbLine
 10
-137.6611384410193
 20
8.825237325416161
 30
52.0
 11
-141.4638940410194
 21
8.825237325416161
 31
52.0
  0
ARC
  5
33A
330
335
100
AcDbEntity
  8
RAHM3
100
AcDbCircle
 10
-137.6611384410193
 20
7.833214125416168
 30
52.0
 40
0.9920232
100
AcDbArc
 50
0.0
 51
90.0
  0
ARC
  5
33B
330
335
100
AcDbEntity
  8
RAHM3
100
AcDbCircle
 10
-129.0636040410194
 20
7.833214125416168
 30
52.0
 40
0.9920232
100
AcDbArc
 50
0.0
 51
90.0
  0
LINE
  5
33C
330
335
100
AcDbEntity
  8
RAHM3
100
AcDbLine
 10
-132.7010224410193
 20
8.825237325416161
 30
52.0
 11
-129.0636040410194
 21
8.825237325416161
 31
52.0
  0
ARC
  5
33D
330
335
100
AcDbEntity
  8
RAHM3
100
AcDbCircle
 10
-132.7010224410193
 20
7.833214125416168
 30
52.0
 40
0.9920232
100
AcDbArc
 50
90.0
 51
180.0
  0
LINE
  5
33E
330
335
100
AcDbEntity
  8
RAHM3
100
AcDbLine
 10
-148.4080564410193
 20
8.163888525416165
 30
52.0
 11
-147.5813704410193
 21
8.163888525416165
 31
52.0
  0
LINE
  5
33F
330
335
100
AcDbEntity
  8
RAHM3
100
AcDbLine
 10
-147.5813704410193
 20
8.163888525416165
 30
52.0
 11
-147.5813704410193
 21
3.865121325416145
 31
52.0
  0
LINE
  5
340
330
335
100
AcDbEntity
  8
RAHM3
100
AcDbLine
 10
-146.2586728410194
 20
3.865121325416145
 30
52.0
 11
-146.2586728410194
 21
8.163888525416165
 31
52.0
  0
LINE
  5
341
330
335
100
AcDbEntity
  8
RAHM3
100
AcDbLine
 10
-146.2586728410194
 20
8.163888525416165
 30
52.0
 11
-145.4319868410194
 21
8.163888525416165
 31
52.0
  0
LINE
  5
342
330
335
100
AcDbEntity
  8
RAHM3
100
AcDbLine
 10
-145.4319868410194
 20
8.825237325416161
 30
52.0
 11
-145.4319868410194
 21
8.163888525416165
 31
52.0
  0
LINE
  5
343
330
335
100
AcDbEntity
  8
RAHM3
100
AcDbLine
 10
-148.4080564410193
 20
8.163888525416165
 30
52.0
 11
-148.4080564410193
 21
8.825237325416161
 31
52.0
  0
LINE
  5
344
330
335
100
AcDbEntity
  8
RAHM3
100
AcDbLine
 10
-145.4319868410194
 20
3.203772525416149
 30
52.0
 11
-148.4080564410193
 21
3.203772525416149
 31
52.0
  0
CIRCLE
  5
345
330
335
100
AcDbEntity
  8
RAHM3
100
AcDbCircle
 10
-144.1092892410194
 20
3.865121325416145
 30
52.0
 40
0.6613488000000001
  0
LINE
  5
346
330
335
100
AcDbEntity
  8
RAHM3
100
AcDbLine
 10
-137.9918128410194
 20
3.865121325416145
 30
52.0
 11
-137.9918128410194
 21
3.203772525416149
 31
52.0
  0
LINE
  5
347
330
335
100
AcDbEntity
  8
RAHM3
100
AcDbLine
 10
-137.9918128410194
 20
3.203772525416149
 30
52.0
 11
-136.6691152410193
 21
3.203772525416149
 31
52.0
  0
ARC
  5
348
330
335
100
AcDbEntity
  8
RAHM3
100
AcDbCircle
 10
-141.4638940410194
 20
4.195795725416166
 30
52.0
 40
0.9920232
100
AcDbArc
 50
180.0
 51
270.0
  0
LINE
  5
349
330
335
100
AcDbEntity
  8
RAHM3
100
AcDbLine
 10
-141.4638940410194
 20
3.203772525416149
 30
52.0
 11
-141.1332196410193
 21
3.203772525416149
 31
52.0
  0
LINE
  5
34A
330
335
100
AcDbEntity
  8
RAHM3
100
AcDbLine
 10
-142.4559172410194
 20
4.195795725416166
 30
52.0
 11
-142.4559172410194
 21
7.833214125416168
 31
52.0
  0
CIRCLE
  5
34B
330
335
100
AcDbEntity
  8
RAHM3
100
AcDbCircle
 10
-135.5117548410193
 20
3.865121325416145
 30
52.0
 40
0.6613488000000001
  0
ARC
  5
34C
330
335
100
AcDbEntity
  8
RAHM3
100
AcDbCircle
 10
-132.7010224410193
 20
4.195795725416166
 30
52.0
 40
0.9920232
100
AcDbArc
 50
180.0
 51
270.0
  0
LINE
  5
34D
330
335
100
AcDbEntity
  8
RAHM3
100
AcDbLine
 10
-129.0636040410194
 20
3.203772525416149
 30
52.0
 11
-132.7010224410193
 21
3.203772525416149
 31
52.0
  0
ARC
  5
34E
330
335
100
AcDbEntity
  8
RAHM3
100
AcDbCircle
 10
-129.0636040410194
 20
4.195795725416166
 30
52.0
 40
0.9920232
100
AcDbArc
 50
270.0
 51
0.0
  0
LINE
  5
34F
330
335
100
AcDbEntity
  8
RAHM3
100
AcDbLine
 10
-133.6930456410194
 20
4.195795725416166
 30
52.0
 11
-133.6930456410194
 21
5.022481725416161
 31
52.0
  0
LINE
  5
350
330
335
100
AcDbEntity
  8
RAHM3
100
AcDbLine
 10
-128.0715808410194
 20
7.833214125416168
 30
52.0
 11
-128.0715808410194
 21
7.00652812541615
 31
52.0
  0
CIRCLE
  5
351
330
335
100
AcDbEntity
  8
RAHM3
100
AcDbCircle
 10
-126.9142204410194
 20
3.865121325416145
 30
52.0
 40
0.6613488000000001
  0
LINE
  5
352
330
335
100
AcDbEntity
  8
RAHM3
100
AcDbLine
 10
-136.6691152410193
 20
7.171865325416149
 30
52.0
 11
-137.8264756410194
 21
7.171865325416149
 31
52.0
  0
LINE
  5
353
330
335
100
AcDbEntity
  8
RAHM3
100
AcDbLine
 10
-137.8264756410194
 20
7.171865325416149
 30
52.0
 11
-137.8264756410194
 21
7.667876925416146
 31
52.0
  0
LINE
  5
354
330
335
100
AcDbEntity
  8
RAHM3
100
AcDbLine
 10
-137.8264756410194
 20
7.667876925416146
 30
52.0
 11
-141.2985568410193
 21
7.667876925416146
 31
52.0
  0
LINE
  5
355
330
335
100
AcDbEntity
  8
RAHM3
100
AcDbLine
 10
-141.2985568410193
 20
7.667876925416146
 30
52.0
 11
-141.2985568410193
 21
4.361132925416165
 31
52.0
  0
LINE
  5
356
330
335
100
AcDbEntity
  8
RAHM3
100
AcDbLine
 10
-137.8264756410194
 20
5.518493325416158
 30
52.0
 11
-139.4798476410193
 21
5.518493325416158
 31
52.0
  0
LINE
  5
357
330
335
100
AcDbEntity
  8
RAHM3
100
AcDbLine
 10
-139.4798476410193
 20
5.518493325416158
 30
52.0
 11
-139.4798476410193
 21
6.510516525416153
 31
52.0
  0
LINE
  5
358
330
335
100
AcDbEntity
  8
RAHM3
100
AcDbLine
 10
-136.6691152410193
 20
7.171865325416149
 30
52.0
 11
-136.6691152410193
 21
7.833214125416168
 31
52.0
  0
LINE
  5
359
330
335
100
AcDbEntity
  8
RAHM3
100
AcDbLine
 10
-137.8264756410194
 20
5.022481725416161
 30
52.0
 11
-137.8264756410194
 21
5.518493325416158
 31
52.0
  0
LINE
  5
35A
330
335
100
AcDbEntity
  8
RAHM3
100
AcDbLine
 10
-137.6611384410193
 20
6.510516525416153
 30
52.0
 11
-139.4798476410193
 21
6.510516525416153
 31
52.0
  0
LINE
  5
35B
330
335
100
AcDbEntity
  8
RAHM3
100
AcDbLine
 10
-136.6691152410193
 20
5.518493325416158
 30
52.0
 11
-136.6691152410193
 21
3.203772525416149
 31
52.0
  0
ARC
  5
35C
330
335
100
AcDbEntity
  8
RAHM3
100
AcDbCircle
 10
-137.6611384410193
 20
5.518493325416158
 30
52.0
 40
0.9920232
100
AcDbArc
 50
0.0
 51
90.0
  0
LINE
  5
35D
330
335
100
AcDbEntity
  8
RAHM3
100
AcDbLine
 10
-139.1930809214994
 20
5.022481725416161
 30
52.0
 11
-137.8264756410194
 21
5.022481725416161
 31
52.0
  0
ARC
  5
35E
330
335
100
AcDbEntity
  8
RAHM3
100
AcDbCircle
 10
-139.1930809214994
 20
4.030458525416167
 30
52.0
 40
0.9920232
100
AcDbArc
 50
90.0
 51
119.7448812969
  0
LINE
  5
35F
330
335
100
AcDbEntity
  8
RAHM3
100
AcDbLine
 10
-140.8773334868594
 20
4.361132925416165
 30
52.0
 11
-141.2985568410193
 21
4.361132925416165
 31
52.0
  0
LINE
  5
360
330
335
100
AcDbEntity
  8
RAHM3
100
AcDbLine
 10
-140.3851521495794
 20
4.491838785176161
 30
52.0
 11
-139.6852622587794
 21
4.891775865576152
 31
52.0
  0
ARC
  5
361
330
335
100
AcDbEntity
  8
RAHM3
100
AcDbCircle
 10
-140.8773334868594
 20
5.35315612541616
 30
52.0
 40
0.9920232
100
AcDbArc
 50
270.0
 51
299.7448812969
  0
ARC
  5
362
330
335
100
AcDbEntity
  8
RAHM3
100
AcDbCircle
 10
-138.8857271583794
 20
2.873098125416151
 30
52.0
 40
0.9920232
100
AcDbArc
 50
90.0
 51
119.7448812969
  0
LINE
  5
363
330
335
100
AcDbEntity
  8
RAHM3
100
AcDbLine
 10
-140.5699797237394
 20
3.203772525416149
 30
52.0
 11
-141.4638940410194
 21
3.203772525416149
 31
52.0
  0
ARC
  5
364
330
335
100
AcDbEntity
  8
RAHM3
100
AcDbCircle
 10
-140.5699797237394
 20
4.195795725416166
 30
52.0
 40
0.9920232
100
AcDbArc
 50
270.0
 51
299.7448812969
  0
LINE
  5
365
330
335
100
AcDbEntity
  8
RAHM3
100
AcDbLine
 10
-139.3779084956594
 20
3.734415465576159
 30
52.0
 11
-140.0777983864594
 21
3.334478385176168
 31
52.0
  0
LINE
  5
366
330
335
100
AcDbEntity
  8
RAHM3
100
AcDbLine
 10
-138.8857271583794
 20
3.865121325416145
 30
52.0
 11
-137.9918128410194
 21
3.865121325416145
 31
52.0
  0
LINE
  5
367
330
335
100
AcDbEntity
  8
RAHM3
100
AcDbLine
 10
-147.5813704410193
 20
3.865121325416145
 30
52.0
 11
-148.4080564410193
 21
3.865121325416145
 31
52.0
  0
LINE
  5
368
330
335
100
AcDbEntity
  8
RAHM3
100
AcDbLine
 10
-146.2586728410194
 20
3.865121325416145
 30
52.0
 11
-145.4319868410194
 21
3.865121325416145
 31
52.0
  0
LINE
  5
369
330
335
100
AcDbEntity
  8
RAHM3
100
AcDbLine
 10
-148.4080564410193
 20
3.203772525416149
 30
52.0
 11
-148.4080564410193
 21
3.865121325416145
 31
52.0
  0
LINE
  5
36A
330
335
100
AcDbEntity
  8
RAHM3
100
AcDbLine
 10
-145.4319868410194
 20
3.865121325416145
 30
52.0
 11
-145.4319868410194
 21
3.203772525416149
 31
52.0
  0
LINE
  5
36B
330
335
100
AcDbEntity
  8
RAHM3
100
AcDbLine
 10
-132.5356852410194
 20
7.667876925416146
 30
52.0
 11
-129.2289412410193
 21
7.667876925416146
 31
52.0
  0
LINE
  5
36C
330
335
100
AcDbEntity
  8
RAHM3
100
AcDbLine
 10
-129.2289412410193
 20
7.667876925416146
 30
52.0
 11
-129.2289412410193
 21
7.00652812541615
 31
52.0
  0
LINE
  5
36D
330
335
100
AcDbEntity
  8
RAHM3
100
AcDbLine
 10
-132.5356852410194
 20
5.022481725416161
 30
52.0
 11
-132.5356852410194
 21
4.361132925416165
 31
52.0
  0
LINE
  5
36E
330
335
100
AcDbEntity
  8
RAHM3
100
AcDbLine
 10
-132.5356852410194
 20
4.361132925416165
 30
52.0
 11
-129.2289412410193
 21
4.361132925416165
 31
52.0
  0
LINE
  5
36F
330
335
100
AcDbEntity
  8
RAHM3
100
AcDbLine
 10
-132.5356852410194
 20
5.022481725416161
 30
52.0
 11
-133.6930456410194
 21
5.022481725416161
 31
52.0
  0
LINE
  5
370
330
335
100
AcDbEntity
  8
RAHM3
100
AcDbLine
 10
-128.0715808410194
 20
7.00652812541615
 30
52.0
 11
-129.2289412410193
 21
7.00652812541615
 31
52.0
  0
LINE
  5
371
330
335
100
AcDbEntity
  8
RAHM3
100
AcDbLine
 10
-129.2289412410193
 20
4.361132925416165
 30
52.0
 11
-129.2289412410193
 21
5.518493325416158
 31
52.0
  0
LINE
  5
372
330
335
100
AcDbEntity
  8
RAHM3
100
AcDbLine
 10
-132.5356852410194
 20
6.510516525416153
 30
52.0
 11
-132.5356852410194
 21
7.667876925416146
 31
52.0
  0
LINE
  5
373
330
335
100
AcDbEntity
  8
RAHM3
100
AcDbLine
 10
-128.0715808410194
 20
5.518493325416158
 30
52.0
 11
-128.0715808410194
 21
4.195795725416166
 31
52.0
  0
LINE
  5
374
330
335
100
AcDbEntity
  8
RAHM3
100
AcDbLine
 10
-129.0636040410194
 20
6.510516525416153
 30
52.0
 11
-132.5356852410194
 21
6.510516525416153
 31
52.0
  0
ARC
  5
375
330
335
100
AcDbEntity
  8
RAHM3
100
AcDbCircle
 10
-129.0636040410194
 20
5.518493325416158
 30
52.0
 40
0.9920232
100
AcDbArc
 50
0.0
 51
90.0
  0
LINE
  5
376
330
335
100
AcDbEntity
  8
RAHM3
100
AcDbLine
 10
-132.7010224411794
 20
5.518493325416158
 30
52.0
 11
-129.2289412410193
 21
5.518493325416158
 31
52.0
  0
LINE
  5
377
330
335
100
AcDbEntity
  8
RAHM3
100
AcDbLine
 10
-133.6930456410194
 20
6.510516525416153
 30
52.0
 11
-133.6930456410194
 21
7.833214125416168
 31
52.0
  0
ARC
  5
378
330
335
100
AcDbEntity
  8
RAHM3
100
AcDbCircle
 10
-132.7010224411794
 20
6.510516525416153
 30
52.0
 40
0.9920232
100
AcDbArc
 50
180.0
 51
270.0
  0
POINT
  5
379
330
335
100
AcDbEntity
  8
0
 60
     1
100
AcDbPoint
 10
0.0
 20
0.0
 30
0.0
1001
GENIUS_GENODEF_13
1002
{
1000
HIER
1070
     1
1002
}
1002
{
1000
MANEDIT
1070
     0
1002
}
1002
{
1000
NOSEL
1070
     0
1002
}
1002
{
1000
BEHIND
1070
     0
1002
}
1002
{
1000
REACTOR
1002
}
1001
GENIUS_GENTITLE_13
1002
{
1000
SCALE
1000
1:1
1002
}
1002
{
1000
BORDER
1000
GEN_A4
1002
}
1002
{
1000
TITLE
1000
GENTITUS
1002
}
1002
{
1000
UNCHG
1002
{
1000
GEN-TITLE-SCA
1000
GEN-TITLE-SIZ
1002
}
1002
}
1002
{
1000
HRA
1005
0
1002
}
1002
{
1000
HTIT
1005
0
1002
}
1002
{
1000
GENIUSID
1005
379
1002
}
1001
GENIUS_GENOBJ-N-TIT_13
1002
{
1000
OWNER
1000
GEN
1002
}
1001
GENIUS_GENOENT_13
1002
{
1000
MYREF
1005
379
1002
}
1002
{
1000
GRP
1005
0
1002
}
1001
GENIUS_GENOLIS_13
1002
{
1000
ENT
1005
0
1005
0
1002
}
  0
TEXT
  5
37A
330
335
100
AcDbEntity
  8
0
 60
     1
100
AcDbText
 10
210.0
 20
297.0
 30
0.0
 40
3.5
  1
!GENTITLE-MAX
100
AcDbText
  0
TEXT
  5
37B
330
335
100
AcDbEntity
  8
0
 60
     1
100
AcDbText
 10
205.0
 20
287.0
 30
0.0
 40
3.5
  1
!GENTITLE-RU
100
AcDbText
  0
TEXT
  5
37C
330
335
100
AcDbEntity
  8
0
 60
     1
100
AcDbText
 10
15.0
 20
59.99
 30
0.0
 40
3.5
  1
!GENTITLE-LL
100
AcDbText
  0
TEXT
  5
37D
330
335
100
AcDbEntity
  8
0
 60
     1
100
AcDbText
 10
205.0
 20
5.0
 30
0.0
 40
3.5
  1
!GENTITLE-INSERT
100
AcDbText
  0
LINE
  5
37E
330
335
100
AcDbEntity
  8
RAHM2
100
AcDbLine
 10
-155.0
 20
12.0
 30
0.0
 11
0.0
 21
12.0
 31
0.0
  0
LINE
  5
37F
330
335
100
AcDbEntity
  8
RAHM2
100
AcDbLine
 10
-12.0
 20
12.0
 30
0.0
 11
-12.00000000000727
 21
0.0
 31
0.0
  0
LINE
  5
380
330
335
100
AcDbEntity
  8
RAHM2
100
AcDbLine
 10
-80.0
 20
19.99999999999272
 30
0.0
 11
0.0
 21
20.0
 31
0.0
  0
LINE
  5
381
330
335
100
AcDbEntity
  8
RAHM2
100
AcDbLine
 10
0.0
 20
27.0
 30
0.0
 11
-80.0
 21
27.0
 31
0.0
  0
MTEXT
  5
382
330
335
100
AcDbEntity
  8
RAHM2
100
AcDbMText
 10
-78.39748281353763
 20
37.79972226353243
 30
0.0
 40
2.5
 41
2.458156240282278
 71
     1
 72
     5
  1

 73
     1
 44
1.0
1001
ACAD
1000
MTEXTBEGIN
1070
    73
1070
     1
1070
    44
1040
1.0
1070
    74
1070
     0
1000
MTEXTEND
  0
TEXT
  5
383
330
335
100
AcDbEntity
  8
RAHM3
100
AcDbText
 10
-79.00900277736832
 20
36.89804600214973
 30
0.0
 40
2.299999999999999
  1
名称 ＴＩＴＬＥ
 41
0.8
100
AcDbText
  0
LINE
  5
384
330
335
100
AcDbEntity
  8
RAHM2
100
AcDbLine
 10
-80.0
 20
40.00000000000727
 30
0.0
 11
-80.0
 21
0.0
 31
0.0
  0
TEXT
  5
385
330
335
100
AcDbEntity
  8
RAHM3
100
AcDbText
 10
-79.00900277736832
 20
23.89804600216055
 30
0.0
 40
2.299999999999999
  1
符号 
 41
0.8
100
AcDbText
  0
TEXT
  5
386
330
335
100
AcDbEntity
  8
RAHM3
100
AcDbText
 10
-79.00900277736832
 20
16.89804600215146
 30
0.0
 40
2.299999999999999
  1
件名
 41
0.8
100
AcDbText
  0
TEXT
  5
387
330
335
100
AcDbEntity
  8
RAHM3
100
AcDbText
 10
-79.00900277736832
 20
8.898046002160548
 30
0.0
 40
2.299999999999999
  1
図番 ＤＲＡＷＩＮＧ ＮＯ．
 41
0.8
100
AcDbText
  0
CIRCLE
  5
388
330
335
100
AcDbEntity
  8
RAHM2
100
AcDbCircle
 10
-5.0
 20
5.0
 30
0.0
 40
4.5
  0
LINE
  5
389
330
335
100
AcDbEntity
  8
RAHM2
100
AcDbLine
 10
-130.0000000000018
 20
40.00000000000916
 30
0.0
 11
-130.0000000000018
 21
12.0
 31
0.0
  0
LINE
  5
38A
330
335
100
AcDbEntity
  8
RAHM2
100
AcDbLine
 10
-130.0000000000018
 20
26.00000000000458
 30
0.0
 11
-80.0
 21
25.99999999999818
 31
0.0
  0
LINE
  5
38B
330
335
100
AcDbEntity
  8
RAHM2
100
AcDbLine
 10
-105.0000000000018
 20
40.00000000000916
 30
0.0
 11
-105.0000000000018
 21
12.0
 31
0.0
  0
TEXT
  5
38C
330
335
100
AcDbEntity
  8
RAHM3
100
AcDbText
 10
-129.0090027773683
 20
36.89804600215881
 30
0.0
 40
2.299999999999999
  1
承認 ＡＰＰＤ
 41
0.8
100
AcDbText
  0
TEXT
  5
38D
330
335
100
AcDbEntity
  8
RAHM3
100
AcDbText
 10
-104.0090027773683
 20
36.8980460021551
 30
0.0
 40
2.299999999999999
  1
検図 ＣＨＫ
 41
0.8
100
AcDbText
  0
TEXT
  5
38E
330
335
100
AcDbEntity
  8
RAHM3
100
AcDbText
 10
-129.0090027773683
 20
22.89804600215422
 30
0.0
 40
2.299999999999999
  1
設計 ＥＮＧＲ
 41
0.8
100
AcDbText
  0
TEXT
  5
38F
330
335
100
AcDbEntity
  8
RAHM3
100
AcDbText
 10
-104.0090027773683
 20
22.89804600214964
 30
0.0
 40
2.299999999999999
  1
製図 ＤＲ ＤＡＴＥ
 41
0.8
100
AcDbText
  0
LINE
  5
390
330
335
100
AcDbEntity
  8
RAHM2
100
AcDbLine
 10
-155.0
 20
30.60000000000036
 30
0.0
 11
-130.0000000000018
 21
30.60000000000036
 31
0.0
  0
LINE
  5
391
330
335
100
AcDbEntity
  8
RAHM2
100
AcDbLine
 10
-155.0
 20
21.29999999999927
 30
0.0
 11
-130.0000000000018
 21
21.30000000000109
 31
0.0
  0
TEXT
  5
392
330
335
100
AcDbEntity
  8
RAHM3
100
AcDbText
 10
-121.7843516157921
 20
6.885079184961092
 30
0.0
 40
4.0
  1
伊藤鉄工株式会社
100
AcDbText
  0
TEXT
  5
393
330
335
100
AcDbEntity
  8
RAHM3
100
AcDbText
 10
-120.6675998914835
 20
3.578884653066273
 30
0.0
 40
2.0
  1
ITO TEKKO  CO.,LTD.
100
AcDbText
1001
GENIUS_GENTRA_14
1002
{
1070
     1
1000
/
1000
ITO TEKKO  CO.,LTD.
1000
JPN
1070
     0
1040
1.0
1070
     0
1002
}
  0
TEXT
  5
394
330
335
100
AcDbEntity
  8
RAHM3
100
AcDbText
 10
-120.6675998914835
 20
0.9279960228792472
 30
0.0
 40
2.0
  1
KAWAGUCHI  JAPAN
100
AcDbText
  0
TEXT
  5
395
330
335
100
AcDbEntity
  8
RAHM3
100
AcDbText
 10
-11.85206060358336
 20
9.69362381988742
 30
0.0
 40
1.8
  1
ＲＥＶ．ＭＡＲＫ
 41
0.6800000000000001
100
AcDbText
  0
TEXT
  5
396
330
335
100
AcDbEntity
  8
RAHM3
100
AcDbText
 10
-11.57052530051805
 20
7.425435269030799
 30
0.0
 40
1.8
  1
変
100
AcDbText
  0
TEXT
  5
397
330
335
100
AcDbEntity
  8
RAHM3
100
AcDbText
 10
-11.59004395148213
 20
4.996441785248862
 30
0.0
 40
1.8
  1
更
100
AcDbText
  0
TEXT
  5
398
330
335
100
AcDbEntity
  8
RAHM3
100
AcDbText
 10
-11.62938531906752
 20
2.617267270587205
 30
0.0
 40
1.8
  1
回
100
AcDbText
  0
TEXT
  5
399
330
335
100
AcDbEntity
  8
RAHM3
100
AcDbText
 10
-11.56556962136267
 20
0.3551115072955326
 30
0.0
 40
1.8
  1
数
100
AcDbText
  0
TEXT
  5
39A
330
335
100
AcDbEntity
  8
RAHM3
100
AcDbText
 10
-154.0090027773665
 20
36.89804600217056
 30
0.0
 40
2.299999999999999
  1
尺度 ＳＣＡＬＥ
 41
0.8
100
AcDbText
  0
TEXT
  5
39B
330
335
100
AcDbEntity
  8
RAHM3
100
AcDbText
 10
-154.0090027773665
 20
27.49804600215
 30
0.0
 40
2.299999999999999
  1
図面枚数 ＮＯ．  
 41
0.8
100
AcDbText
  0
LINE
  5
39C
330
335
100
AcDbEntity
  8
7A
100
AcDbLine
 10
-151.7551228444401
 20
16.64999999999988
 30
0.0
 11
-149.2551228444401
 21
16.64999999999988
 31
0.0
1001
GENIUS_GENOREF_13
1005
3A0
  0
LINE
  5
39D
330
335
100
AcDbEntity
  8
7A
100
AcDbLine
 10
-151.7551228444401
 20
16.64999999999988
 30
0.0
 11
-151.7551228444401
 21
19.14999999999988
 31
0.0
1001
GENIUS_GENOREF_13
1005
3A0
  0
LINE
  5
39E
330
335
100
AcDbEntity
  8
7A
100
AcDbLine
 10
-151.7551228444401
 20
16.64999999999988
 30
0.0
 11
-154.2551228444401
 21
16.64999999999988
 31
0.0
1001
GENIUS_GENOREF_13
1005
3A0
  0
LINE
  5
39F
330
335
100
AcDbEntity
  8
7A
100
AcDbLine
 10
-151.7551228444401
 20
16.64999999999988
 30
0.0
 11
-151.7551228444401
 21
14.14999999999988
 31
0.0
1001
GENIUS_GENOREF_13
1005
3A0
  0
POINT
  5
3A0
330
335
100
AcDbEntity
  8
0
 60
     1
100
AcDbPoint
 10
0.0
 20
0.0
 30
0.0
1001
GENIUS_GENODEF_13
1002
{
1000
HIER
1070
    10
1002
}
1002
{
1000
MANEDIT
1070
     0
1002
}
1002
{
1000
NOSEL
1070
     0
1002
}
1002
{
1000
BEHIND
1070
     0
1002
}
1002
{
1000
REACTOR
1002
}
1001
GENIUS_GENOBJ-N-CRS_13
1002
{
1000
OWNER
1000
GEN
1002
}
1001
GENIUS_GENOENT_13
1002
{
1000
MYREF
1005
3A0
1002
}
1002
{
1000
GRP
1005
0
1002
}
1001
GENIUS_GENOLIS_13
1002
{
1000
ENT
1005
39F
1005
39E
1005
39D
1005
39C
1002
}
  0
CIRCLE
  5
3A1
330
335
100
AcDbEntity
  8
RAHM3
100
AcDbCircle
 10
-151.7551228444401
 20
16.64999999999988
 30
0.0
 40
2.0
  0
CIRCLE
  5
3A2
330
335
100
AcDbEntity
  8
RAHM3
100
AcDbCircle
 10
-151.7551228444401
 20
16.64999999999952
 30
0.0
 40
1.0
  0
LINE
  5
3A3
330
335
100
AcDbEntity
  8
RAHM3
100
AcDbLine
 10
-147.7659442035316
 20
17.64999999999929
 30
0.0
 11
-147.7659442035316
 21
15.64999999999929
 31
0.0
  0
LINE
  5
3A4
330
335
100
AcDbEntity
  8
RAHM3
100
AcDbLine
 10
-147.7659442035316
 20
15.64999999999929
 30
0.0
 11
-143.7659442035316
 21
14.64999999999928
 31
0.0
  0
LINE
  5
3A5
330
335
100
AcDbEntity
  8
RAHM3
100
AcDbLine
 10
-143.7659442035316
 20
14.64999999999928
 30
0.0
 11
-143.7659442035316
 21
18.64999999999929
 31
0.0
  0
LINE
  5
3A6
330
335
100
AcDbEntity
  8
RAHM3
100
AcDbLine
 10
-143.7659442035316
 20
18.64999999999929
 30
0.0
 11
-147.7659442035316
 21
17.64999999999929
 31
0.0
  0
LINE
  5
3A7
330
335
100
AcDbEntity
  8
7A
100
AcDbLine
 10
-148.6350563849704
 20
16.64999999999929
 30
0.0
 11
-142.8462596443259
 21
16.64999999999929
 31
0.0
1001
GENIUS_GENODEF_13
1002
{
1000
HIER
1070
     0
1002
}
1002
{
1000
MANEDIT
1070
     0
1002
}
1002
{
1000
NOSEL
1070
     0
1002
}
1002
{
1000
BEHIND
1070
     0
1002
}
1002
{
1000
REACTOR
1002
}
1001
GENIUS_GENOBJ-N-CEN_13
1002
{
1000
OWNER
1000
GEN
1002
}
  0
TEXT
  5
3A8
330
335
100
AcDbEntity
  8
RAHM3
100
AcDbText
 10
-141.8454810851357
 20
18.28209750892168
 30
0.0
 40
2.1
  1
単位 ＵＮＩＴ
 41
0.7
100
AcDbText
  0
LINE
  5
3A9
330
335
100
AcDbEntity
  8
RAHM2
100
AcDbLine
 10
-142.5000000000009
 20
21.29999999999927
 30
0.0
 11
-142.5000000000009
 21
12.0
 31
0.0
  0
TEXT
  5
3AA
330
335
100
AcDbEntity
  8
RAHM3
100
AcDbText
 10
-139.6782849929894
 20
13.82826889824218
 30
0.0
 40
4.0
  1
ｍｍ
 41
0.8
100
AcDbText
  0
POLYLINE
  5
3AB
330
335
100
AcDbEntity
  8
RAHM2
100
AcDb2dPolyline
 66
     1
 10
0.0
 20
0.0
 30
0.0
 70
     1
  0
VERTEX
  5
3AC
330
3AB
100
AcDbEntity
  8
RAHM2
100
AcDbVertex
100
AcDb2dVertex
 10
-155.0
 20
-0.000000000001819
 30
0.0
  0
VERTEX
  5
3AD
330
3AB
100
AcDbEntity
  8
RAHM2
100
AcDbVertex
100
AcDb2dVertex
 10
-155.0
 20
40.00000000002091
 30
0.0
  0
VERTEX
  5
3AE
330
3AB
100
AcDbEntity
  8
RAHM2
100
AcDbVertex
100
AcDb2dVertex
 10
0.0
 20
39.99999999999273
 30
0.0
  0
VERTEX
  5
3AF
330
3AB
100
AcDbEntity
  8
RAHM2
100
AcDbVertex
100
AcDb2dVertex
 10
0.0
 20
0.0
 30
0.0
  0
SEQEND
  5
3B0
330
3AB
100
AcDbEntity
  8
RAHM2
  0
ATTDEF
  5
3B1
330
335
100
AcDbEntity
  8
RAHM3
100
AcDbText
 10
-147.2595867131855
 20
31.94728899818607
 30
0.0
 40
4.0
  1

100
AcDbAttributeDefinition
  3
尺度
  2
GEN-TITLE-SCA
 70
     0
  0
ATTDEF
  5
3B2
330
335
100
AcDbEntity
  8
RAHM3
100
AcDbText
 10
-73.09000000000001
 20
29.74
 30
0.0
 40
5.0
  1

100
AcDbAttributeDefinition
  3
名称
  2
ＴＩＴＬＥ
 70
     0
  0
ATTDEF
  5
3B3
330
335
100
AcDbEntity
  8
RAHM3
100
AcDbText
 10
-71.56287815584043
 20
21.80438312711384
 30
0.0
 40
3.0
  1

100
AcDbAttributeDefinition
  3
符号
  2
ｃｏｄｅ
 70
     0
  0
ATTDEF
  5
3B4
330
335
100
AcDbEntity
  8
RAHM3
100
AcDbText
 10
-70.74480649396313
 20
14.80438312710657
 30
0.0
 40
3.0
  1

100
AcDbAttributeDefinition
  3
件名
  2
件名
 70
     0
  0
ATTDEF
  5
3B5
330
335
100
AcDbEntity
  8
RAHM3
100
AcDbText
 10
-73.09000000000001
 20
1.739999999992722
 30
0.0
 40
5.0
  1

100
AcDbAttributeDefinition
  3
図面番号
  2
Ｎｏ．
 70
     0
  0
ATTDEF
  5
3B6
330
335
100
AcDbEntity
  8
RAHM3
100
AcDbText
 10
-100.45
 20
17.40708932112655
 30
0.0
 40
4.0
  1

100
AcDbAttributeDefinition
  3
製図者
  2
ＤＲ
 70
     0
  0
ATTDEF
  5
3B7
330
335
100
AcDbEntity
  8
RAHM3
100
AcDbText
 10
-103.7180853038729
 20
12.76999999999999
 30
0.0
 40
3.0
  1

 41
0.8
100
AcDbAttributeDefinition
  3
日付
  2
ｄａｔｅ
 70
     0
  0
ENDBLK
  5
3B9
330
335
100
AcDbEntity
  8
0
100
AcDbBlockEnd
  0
BLOCK
  5
733
330
71E
100
AcDbEntity
  8
0
 62
     7
100
AcDbBlockBegin
  2
IGS_A3T
 70
     0
 10
0.0
 20
0.0
 30
0.0
  3
IGS_A3T
  1

  0
LINE
  5
71F
330
71E
100
AcDbEntity
  8
0
100
AcDbLine
 10
287.0
 20
395.0
 30
0.0
 11
287.0
 21
9.999999999999886
 31
0.0
  0
LINE
  5
720
330
71E
100
AcDbEntity
  8
AM_BOR
 62
     1
370
    25
100
AcDbLine
 10
297.0
 20
419.9999999999999
 30
0.0
 11
297.0
 21
-0.0000000000001137
 31
0.0
  0
LINE
  5
721
330
71E
100
AcDbEntity
  8
0
100
AcDbLine
 10
10.00000000000005
 20
395.0
 30
0.0
 11
287.0
 21
395.0
 31
0.0
  0
LINE
  5
722
330
71E
100
AcDbEntity
  8
AM_BOR
 62
     1
370
    25
100
AcDbLine
 10
0.0000000000000568
 20
420.0
 30
0.0
 11
297.0
 21
419.9999999999999
 31
0.0
  0
LINE
  5
723
330
71E
100
AcDbEntity
  8
AM_BOR
100
AcDbLine
 10
287.0
 20
419.9999999999999
 30
0.0
 11
297.0
 21
419.9999999999999
 31
0.0
  0
LINE
  5
724
330
71E
100
AcDbEntity
  8
AM_BOR
100
AcDbLine
 10
297.0
 20
419.9999999999999
 30
0.0
 11
297.0
 21
409.9999999999999
 31
0.0
  0
LINE
  5
725
330
71E
100
AcDbEntity
  8
0
100
AcDbLine
 10
287.0
 20
9.999999999999886
 30
0.0
 11
10.0
 21
10.0
 31
0.0
  0
LINE
  5
726
330
71E
100
AcDbEntity
  8
AM_BOR
 62
     1
370
    25
100
AcDbLine
 10
297.0
 20
-0.0000000000001137
 30
0.0
 11
0.0
 21
0.0
 31
0.0
  0
LINE
  5
727
330
71E
100
AcDbEntity
  8
AM_BOR
100
AcDbLine
 10
297.0
 20
-0.0000000000001137
 30
0.0
 11
287.0
 21
-0.0000000000001137
 31
0.0
  0
LINE
  5
728
330
71E
100
AcDbEntity
  8
AM_BOR
100
AcDbLine
 10
297.0
 20
9.999999999999886
 30
0.0
 11
297.0
 21
-0.0000000000001137
 31
0.0
  0
LINE
  5
729
330
71E
100
AcDbEntity
  8
AM_BOR
100
AcDbLine
 10
10.0
 20
0.0
 30
0.0
 11
0.0
 21
0.0
 31
0.0
  0
LINE
  5
72A
330
71E
100
AcDbEntity
  8
AM_BOR
100
AcDbLine
 10
0.0
 20
0.0
 30
0.0
 11
0.0
 21
10.0
 31
0.0
  0
LINE
  5
72B
330
71E
100
AcDbEntity
  8
0
100
AcDbLine
 10
10.0
 20
10.0
 30
0.0
 11
10.00000000000005
 21
395.0
 31
0.0
  0
LINE
  5
72C
330
71E
100
AcDbEntity
  8
AM_BOR
 62
     1
370
    25
100
AcDbLine
 10
0.0
 20
0.0
 30
0.0
 11
0.0000000000000568
 21
420.0
 31
0.0
  0
LINE
  5
72D
330
71E
100
AcDbEntity
  8
AM_BOR
100
AcDbLine
 10
0.0000000000000568
 20
420.0
 30
0.0
 11
10.00000000000005
 21
420.0
 31
0.0
  0
LINE
  5
72E
330
71E
100
AcDbEntity
  8
AM_BOR
100
AcDbLine
 10
0.0000000000000568
 20
410.0
 30
0.0
 11
0.0000000000000568
 21
420.0
 31
0.0
  0
TEXT
  5
72F
330
71E
100
AcDbEntity
  8
0
 60
     1
100
AcDbText
 10
285.8208593895405
 20
395.0
 30
0.0
 40
3.5
  1
!GENTITLE-RU
  7
ACJISTS
100
AcDbText
  0
TEXT
  5
730
330
71E
100
AcDbEntity
  8
0
 60
     1
100
AcDbText
 10
297.0
 20
419.9999999999999
 30
0.0
 40
3.5
  1
!GENTITLE-MAX
  7
ACJISTS
100
AcDbText
  0
TEXT
  5
731
330
71E
100
AcDbEntity
  8
0
 60
     1
100
AcDbText
 10
287.0
 20
9.999999999999886
 30
0.0
 40
3.5
  1
!GENTITLE-INSERT
  7
ACJISTS
100
AcDbText
  0
TEXT
  5
732
330
71E
100
AcDbEntity
  8
0
 60
     1
100
AcDbText
 10
10.0
 20
10.0
 30
0.0
 40
3.5
  1
!GENTITLE-LL
  7
ACJISTS
100
AcDbText
  0
ENDBLK
  5
734
330
71E
100
AcDbEntity
  8
0
 62
     7
100
AcDbBlockEnd
  0
BLOCK
  5
1008
330
FFE
100
AcDbEntity
  8
0
100
AcDbBlockBegin
  2
*D5
 70
     1
 10
0.0
 20
0.0
 30
0.0
  3
*D5
  1

  0
LINE
  5
166A
330
FFE
100
AcDbEntity
  8
AM_5
100
AcDbLine
 10
2627.887454914552
 20
6993.604350697113
 30
0.0
 11
2627.887454914552
 21
7533.604351697114
 31
0.0
  0
LINE
  5
166B
330
FFE
100
AcDbEntity
  8
AM_5
100
AcDbLine
 10
1827.887454914551
 20
6993.604350697113
 30
0.0
 11
1827.887454914551
 21
7533.604351697114
 31
0.0
  0
LINE
  5
166C
330
FFE
100
AcDbEntity
  8
AM_5
100
AcDbLine
 10
2577.887454914551
 20
7513.604351697114
 30
0.0
 11
1877.887454914551
 21
7513.604351697114
 31
0.0
  0
INSERT
  5
166D
330
FFE
100
AcDbEntity
  8
AM_5
100
AcDbBlockReference
  2
_Open30
 10
2627.887454914552
 20
7513.604351697114
 30
0.0
 41
50.0
 42
50.0
 43
50.0
  0
INSERT
  5
166E
330
FFE
100
AcDbEntity
  8
AM_5
100
AcDbBlockReference
  2
_Open30
 10
1827.887454914551
 20
7513.604351697114
 30
0.0
 41
50.0
 42
50.0
 43
50.0
 50
180.0
  0
MTEXT
  5
166F
330
FFE
100
AcDbEntity
  8
AM_5
 62
     2
100
AcDbMText
 10
2227.887454914551
 20
7578.604351697115
 30
0.0
 40
70.0
 41
0.0
 71
     5
 72
     1
  1
800
 73
     1
 44
1.0
1001
ACAD
1000
MTEXTBEGIN
1070
    73
1070
     1
1070
    44
1040
1.0
1070
    74
1070
     0
1000
MTEXTEND
  0
POINT
  5
1670
330
FFE
100
AcDbEntity
  8
DEFPOINTS
 62
     0
100
AcDbPoint
 10
2627.887454914552
 20
6973.604350697114
 30
0.0
  0
POINT
  5
1671
330
FFE
100
AcDbEntity
  8
DEFPOINTS
 62
     0
100
AcDbPoint
 10
1827.887454914551
 20
6973.604350697114
 30
0.0
  0
POINT
  5
1672
330
FFE
100
AcDbEntity
  8
DEFPOINTS
 62
     0
100
AcDbPoint
 10
1827.887454914551
 20
7513.604351697114
 30
0.0
  0
ENDBLK
  5
1009
330
FFE
100
AcDbEntity
  8
0
100
AcDbBlockEnd
  0
BLOCK
  5
1037
330
102E
100
AcDbEntity
  8
0
100
AcDbBlockBegin
  2
*D6
 70
     1
 10
0.0
 20
0.0
 30
0.0
  3
*D6
  1

  0
LINE
  5
16AF
330
102E
100
AcDbEntity
  8
AM_5
100
AcDbLine
 10
2025.864809715082
 20
6714.549563702195
 30
0.0
 11
1753.124134151132
 21
6580.820646846551
 31
0.0
  0
LINE
  5
16B0
330
102E
100
AcDbEntity
  8
AM_5
100
AcDbLine
 10
1753.124134151132
 20
6580.820646846551
 30
0.0
 11
1534.069016040897
 21
6580.82064684655
 31
0.0
  0
INSERT
  5
16B1
330
102E
100
AcDbEntity
  8
AM_5
100
AcDbBlockReference
  2
_Open30
 10
2070.758730870521
 20
6736.561738589955
 30
0.0
 41
50.0
 42
50.0
 43
50.0
 50
26.11941828142546
  0
MTEXT
  5
16B2
330
102E
100
AcDbEntity
  8
AM_5
 62
     2
100
AcDbMText
 10
1628.596575096014
 20
6645.820646846551
 30
0.0
 40
70.0
 41
0.0
 71
     5
 72
     1
  1
\U+2205350
 73
     1
 44
1.0
1001
ACAD
1000
MTEXTBEGIN
1070
    73
1070
     1
1070
    44
1040
1.0
1070
    74
1070
     0
1000
MTEXTEND
  0
POINT
  5
16B3
330
102E
100
AcDbEntity
  8
DEFPOINTS
 62
     0
100
AcDbPoint
 10
2070.758730870521
 20
6736.561738589955
 30
0.0
  0
POINT
  5
16B4
330
102E
100
AcDbEntity
  8
DEFPOINTS
 62
     0
100
AcDbPoint
 10
2385.016178958585
 20
6890.646962804273
 30
0.0
  0
ENDBLK
  5
1038
330
102E
100
AcDbEntity
  8
0
100
AcDbBlockEnd
  0
BLOCK
  5
1063
330
1057
100
AcDbEntity
  8
0
100
AcDbBlockBegin
  2
*D7
 70
     1
 10
0.0
 20
0.0
 30
0.0
  3
*D7
  1

  0
LINE
  5
16A4
330
1057
100
AcDbEntity
  8
AM_5
100
AcDbLine
 10
2274.387454914551
 20
5957.426488966208
 30
0.0
 11
2274.387454914551
 21
5985.939895733969
 31
0.0
  0
LINE
  5
16A5
330
1057
100
AcDbEntity
  8
AM_5
100
AcDbLine
 10
2181.387454914551
 20
5957.426488966208
 30
0.0
 11
2181.387454914551
 21
5985.939895733969
 31
0.0
  0
LINE
  5
16A6
330
1057
100
AcDbEntity
  8
AM_5
100
AcDbLine
 10
2324.387454914552
 20
5965.939895733969
 30
0.0
 11
2374.387454914551
 21
5965.939895733969
 31
0.0
  0
LINE
  5
16A7
330
1057
100
AcDbEntity
  8
AM_5
100
AcDbLine
 10
2131.387454914551
 20
5965.939895733969
 30
0.0
 11
1878.24335684334
 21
5965.939895733969
 31
0.0
  0
LINE
  5
16A8
330
1057
100
AcDbEntity
  8
AM_5
100
AcDbLine
 10
2274.387454914551
 20
5965.939895733969
 30
0.0
 11
2181.387454914551
 21
5965.939895733969
 31
0.0
  0
INSERT
  5
16A9
330
1057
100
AcDbEntity
  8
AM_5
100
AcDbBlockReference
  2
_Open30
 10
2274.387454914551
 20
5965.939895733969
 30
0.0
 41
50.0
 42
50.0
 43
50.0
 50
180.0
  0
INSERT
  5
16AA
330
1057
100
AcDbEntity
  8
AM_5
100
AcDbBlockReference
  2
_Open30
 10
2181.387454914551
 20
5965.939895733969
 30
0.0
 41
50.0
 42
50.0
 43
50.0
  0
MTEXT
  5
16AB
330
1057
100
AcDbEntity
  8
AM_5
 62
     2
100
AcDbMText
 10
1979.815405878946
 20
6030.939895733968
 30
0.0
 40
70.0
 41
0.0
 71
     5
 72
     1
  1
%%c93
 73
     1
 44
1.0
1001
ACAD
1000
MTEXTBEGIN
1070
    73
1070
     1
1070
    44
1040
1.0
1070
    74
1070
     0
1000
MTEXTEND
  0
POINT
  5
16AC
330
1057
100
AcDbEntity
  8
DEFPOINTS
 62
     0
100
AcDbPoint
 10
2274.387454914551
 20
5937.426488966208
 30
0.0
  0
POINT
  5
16AD
330
1057
100
AcDbEntity
  8
DEFPOINTS
 62
     0
100
AcDbPoint
 10
2181.387454914551
 20
5937.426488966208
 30
0.0
  0
POINT
  5
16AE
330
1057
100
AcDbEntity
  8
DEFPOINTS
 62
     0
100
AcDbPoint
 10
2181.387454914551
 20
5965.939895733969
 30
0.0
  0
ENDBLK
  5
1064
330
1057
100
AcDbEntity
  8
0
100
AcDbBlockEnd
  0
BLOCK
  5
133C
330
1333
100
AcDbEntity
  8
0
100
AcDbBlockBegin
  2
*D8
 70
     1
 10
0.0
 20
0.0
 30
0.0
  3
*D8
  1

  0
LINE
  5
173D
330
1333
100
AcDbEntity
  8
AM_5
100
AcDbLine
 10
4352.415334065164
 20
2870.125368273037
 30
0.0
 11
4376.763112274878
 21
2913.79670551213
 31
0.0
  0
LINE
  5
173E
330
1333
100
AcDbEntity
  8
AM_5
100
AcDbLine
 10
4133.285330177749
 20
2477.083333121196
 30
0.0
 11
3977.96471431974
 21
2198.492862282555
 31
0.0
  0
LINE
  5
173F
330
1333
100
AcDbEntity
  8
AM_5
100
AcDbLine
 10
3977.96471431974
 20
2198.492862282555
 30
0.0
 11
3555.909596209505
 21
2198.492862282556
 31
0.0
  0
LINE
  5
1740
330
1333
100
AcDbEntity
  8
AM_5
100
AcDbLine
 10
4328.067555855452
 20
2826.454031033943
 30
0.0
 11
4157.633108387461
 21
2520.75467036029
 31
0.0
  0
INSERT
  5
1741
330
1333
100
AcDbEntity
  8
AM_5
100
AcDbBlockReference
  2
_Open30
 10
4328.067555855452
 20
2826.454031033943
 30
0.0
 41
50.0
 42
50.0
 43
50.0
 50
240.8593247114384
  0
INSERT
  5
1742
330
1333
100
AcDbEntity
  8
AM_5
100
AcDbBlockReference
  2
_Open30
 10
4157.633108387461
 20
2520.75467036029
 30
0.0
 41
50.0
 42
50.0
 43
50.0
 50
60.85932471143843
  0
MTEXT
  5
1743
330
1333
100
AcDbEntity
  8
AM_5
 62
     2
100
AcDbMText
 10
3751.937155264622
 20
2263.979667820396
 30
0.0
 40
70.0
 41
0.0
 71
     5
 72
     1
  1
P.C.D\U+2205350
 73
     1
 44
1.0
1001
ACAD
1000
MTEXTBEGIN
1070
    73
1070
     1
1070
    44
1040
1.0
1070
    74
1070
     0
1000
MTEXTEND
  0
POINT
  5
1744
330
1333
100
AcDbEntity
  8
DEFPOINTS
 62
     0
100
AcDbPoint
 10
4157.633108387461
 20
2520.75467036029
 30
0.0
  0
POINT
  5
1745
330
1333
100
AcDbEntity
  8
DEFPOINTS
 62
     0
100
AcDbPoint
 10
4328.067555855452
 20
2826.454031033943
 30
0.0
  0
ENDBLK
  5
133D
330
1333
100
AcDbEntity
  8
0
100
AcDbBlockEnd
  0
BLOCK
  5
1399
330
138F
100
AcDbEntity
  8
0
100
AcDbBlockBegin
  2
*D9
 70
     1
 10
0.0
 20
0.0
 30
0.0
  3
*D9
  1

  0
LINE
  5
164F
330
138F
100
AcDbEntity
  8
AM_5
100
AcDbLine
 10
1557.88745491455
 20
2673.604350697114
 30
0.0
 11
1117.887454914547
 21
2673.604350697114
 31
0.0
  0
LINE
  5
1650
330
138F
100
AcDbEntity
  8
AM_5
100
AcDbLine
 10
2207.887454914551
 20
3973.604350697114
 30
0.0
 11
1117.887454914547
 21
3973.604350697114
 31
0.0
  0
LINE
  5
1651
330
138F
100
AcDbEntity
  8
AM_5
100
AcDbLine
 10
1137.887454914547
 20
2723.604350697114
 30
0.0
 11
1137.887454914547
 21
3923.604350697114
 31
0.0
  0
INSERT
  5
1652
330
138F
100
AcDbEntity
  8
AM_5
100
AcDbBlockReference
  2
_Open30
 10
1137.887454914547
 20
2673.604350697114
 30
0.0
 41
50.0
 42
50.0
 43
50.0
 50
270.0
  0
INSERT
  5
1653
330
138F
100
AcDbEntity
  8
AM_5
100
AcDbBlockReference
  2
_Open30
 10
1137.887454914547
 20
3973.604350697114
 30
0.0
 41
50.0
 42
50.0
 43
50.0
 50
90.0
  0
MTEXT
  5
1654
330
138F
100
AcDbEntity
  8
AM_5
 62
     2
100
AcDbMText
 10
1072.887454914547
 20
3323.604350697114
 30
0.0
 40
70.0
 41
0.0
 71
     5
 72
     1
  1
1300
 11
0.0000000000000001
 21
1.0
 31
0.0
 73
     1
 44
1.0
1001
ACAD
1000
MTEXTBEGIN
1070
    73
1070
     1
1070
    44
1040
1.0
1070
    74
1070
     0
1000
MTEXTEND
  0
POINT
  5
1655
330
138F
100
AcDbEntity
  8
DEFPOINTS
 62
     0
100
AcDbPoint
 10
1577.88745491455
 20
2673.604350697114
 30
0.0
  0
POINT
  5
1656
330
138F
100
AcDbEntity
  8
DEFPOINTS
 62
     0
100
AcDbPoint
 10
2227.887454914551
 20
3973.604350697114
 30
0.0
  0
POINT
  5
1657
330
138F
100
AcDbEntity
  8
DEFPOINTS
 62
     0
100
AcDbPoint
 10
1137.887454914547
 20
3973.604350697114
 30
0.0
  0
ENDBLK
  5
139A
330
138F
100
AcDbEntity
  8
0
100
AcDbBlockEnd
  0
BLOCK
  5
13C1
330
13B7
100
AcDbEntity
  8
0
100
AcDbBlockBegin
  2
*D10
 70
     1
 10
0.0
 20
0.0
 30
0.0
  3
*D10
  1

  0
LINE
  5
162B
330
13B7
100
AcDbEntity
  8
AM_5
100
AcDbLine
 10
2157.087454914551
 20
6373.604350697113
 30
0.0
 11
1117.887454914548
 21
6373.604350697114
 31
0.0
  0
LINE
  5
162C
330
13B7
100
AcDbEntity
  8
AM_5
100
AcDbLine
 10
2207.887454914551
 20
3973.604350697114
 30
0.0
 11
1117.887454914547
 21
3973.604350697114
 31
0.0
  0
LINE
  5
162D
330
13B7
100
AcDbEntity
  8
AM_5
100
AcDbLine
 10
1137.887454914548
 20
6323.604350697113
 30
0.0
 11
1137.887454914547
 21
4023.604350697113
 31
0.0
  0
INSERT
  5
162E
330
13B7
100
AcDbEntity
  8
AM_5
100
AcDbBlockReference
  2
_Open30
 10
1137.887454914548
 20
6373.604350697114
 30
0.0
 41
50.0
 42
50.0
 43
50.0
 50
90.0
  0
INSERT
  5
162F
330
13B7
100
AcDbEntity
  8
AM_5
100
AcDbBlockReference
  2
_Open30
 10
1137.887454914547
 20
3973.604350697114
 30
0.0
 41
50.0
 42
50.0
 43
50.0
 50
270.0
  0
MTEXT
  5
1630
330
13B7
100
AcDbEntity
  8
AM_5
 62
     2
100
AcDbMText
 10
1072.880565150767
 20
5173.604350697114
 30
0.0
 40
70.0
 41
0.0
 71
     5
 72
     1
  1
2400
 11
0.0000000000000001
 21
1.0
 31
0.0
 73
     1
 44
1.0
1001
ACAD
1000
MTEXTBEGIN
1070
    73
1070
     1
1070
    44
1040
1.0
1070
    74
1070
     0
1000
MTEXTEND
  0
POINT
  5
1631
330
13B7
100
AcDbEntity
  8
DEFPOINTS
 62
     0
100
AcDbPoint
 10
2177.087454914551
 20
6373.604350697113
 30
0.0
  0
POINT
  5
1632
330
13B7
100
AcDbEntity
  8
DEFPOINTS
 62
     0
100
AcDbPoint
 10
2227.887454914551
 20
3973.604350697114
 30
0.0
  0
POINT
  5
1633
330
13B7
100
AcDbEntity
  8
DEFPOINTS
 62
     0
100
AcDbPoint
 10
1137.887454914547
 20
3973.604350697114
 30
0.0
  0
ENDBLK
  5
13C2
330
13B7
100
AcDbEntity
  8
0
100
AcDbBlockEnd
  0
BLOCK
  5
13F0
330
13E6
100
AcDbEntity
  8
0
100
AcDbBlockBegin
  2
*D11
 70
     1
 10
0.0
 20
0.0
 30
0.0
  3
*D11
  1

  0
LINE
  5
169B
330
13E6
100
AcDbEntity
  8
AM_5
100
AcDbLine
 10
2207.887454914551
 20
7173.604350697114
 30
0.0
 11
1117.887454914548
 21
7173.604350697114
 31
0.0
  0
LINE
  5
169C
330
13E6
100
AcDbEntity
  8
AM_5
100
AcDbLine
 10
2157.087454914551
 20
6373.604350697113
 30
0.0
 11
1117.887454914547
 21
6373.604350697114
 31
0.0
  0
LINE
  5
169D
330
13E6
100
AcDbEntity
  8
AM_5
100
AcDbLine
 10
1137.887454914547
 20
7123.604350697114
 30
0.0
 11
1137.887454914547
 21
6423.604350697114
 31
0.0
  0
INSERT
  5
169E
330
13E6
100
AcDbEntity
  8
AM_5
100
AcDbBlockReference
  2
_Open30
 10
1137.887454914547
 20
7173.604350697114
 30
0.0
 41
50.0
 42
50.0
 43
50.0
 50
90.0
  0
INSERT
  5
169F
330
13E6
100
AcDbEntity
  8
AM_5
100
AcDbBlockReference
  2
_Open30
 10
1137.887454914547
 20
6373.604350697114
 30
0.0
 41
50.0
 42
50.0
 43
50.0
 50
270.0
  0
MTEXT
  5
16A0
330
13E6
100
AcDbEntity
  8
AM_5
 62
     2
100
AcDbMText
 10
1072.887454914546
 20
6773.604350697114
 30
0.0
 40
70.0
 41
0.0
 71
     5
 72
     1
  1
800
 11
0.0000000000000001
 21
1.0
 31
0.0
 73
     1
 44
1.0
1001
ACAD
1000
MTEXTBEGIN
1070
    73
1070
     1
1070
    44
1040
1.0
1070
    74
1070
     0
1000
MTEXTEND
  0
POINT
  5
16A1
330
13E6
100
AcDbEntity
  8
DEFPOINTS
 62
     0
100
AcDbPoint
 10
2227.887454914551
 20
7173.604350697114
 30
0.0
  0
POINT
  5
16A2
330
13E6
100
AcDbEntity
  8
DEFPOINTS
 62
     0
100
AcDbPoint
 10
2177.087454914551
 20
6373.604350697113
 30
0.0
  0
POINT
  5
16A3
330
13E6
100
AcDbEntity
  8
DEFPOINTS
 62
     0
100
AcDbPoint
 10
1137.887454914547
 20
6373.604350697114
 30
0.0
  0
ENDBLK
  5
13F1
330
13E6
100
AcDbEntity
  8
0
100
AcDbBlockEnd
  0
BLOCK
  5
140E
330
1402
100
AcDbEntity
  8
0
100
AcDbBlockBegin
  2
*D12
 70
     1
 10
0.0
 20
0.0
 30
0.0
  3
*D12
  1

  0
LINE
  5
1673
330
1402
100
AcDbEntity
  8
AM_5
100
AcDbLine
 10
2192.887454914551
 20
7273.604350697114
 30
0.0
 11
1117.887454914547
 21
7273.604350697116
 31
0.0
  0
LINE
  5
1674
330
1402
100
AcDbEntity
  8
AM_5
100
AcDbLine
 10
2207.887454914551
 20
7173.604350697114
 30
0.0
 11
1117.887454914547
 21
7173.604350697114
 31
0.0
  0
LINE
  5
1675
330
1402
100
AcDbEntity
  8
AM_5
100
AcDbLine
 10
1137.887454914547
 20
7323.604350697116
 30
0.0
 11
1137.887454914547
 21
7373.604350697116
 31
0.0
  0
LINE
  5
1676
330
1402
100
AcDbEntity
  8
AM_5
100
AcDbLine
 10
1137.887454914547
 20
7123.604350697114
 30
0.0
 11
1137.887454914547
 21
7073.604350697114
 31
0.0
  0
LINE
  5
1677
330
1402
100
AcDbEntity
  8
AM_5
100
AcDbLine
 10
1137.887454914547
 20
7273.604350697116
 30
0.0
 11
1137.887454914547
 21
7173.604350697114
 31
0.0
  0
INSERT
  5
1678
330
1402
100
AcDbEntity
  8
AM_5
100
AcDbBlockReference
  2
_Open30
 10
1137.887454914547
 20
7273.604350697116
 30
0.0
 41
50.0
 42
50.0
 43
50.0
 50
270.0
  0
INSERT
  5
1679
330
1402
100
AcDbEntity
  8
AM_5
100
AcDbBlockReference
  2
_Open30
 10
1137.887454914547
 20
7173.604350697114
 30
0.0
 41
50.0
 42
50.0
 43
50.0
 50
90.0
  0
MTEXT
  5
167A
330
1402
100
AcDbEntity
  8
AM_5
 62
     2
100
AcDbMText
 10
1072.887454914546
 20
7223.604350697114
 30
0.0
 40
70.0
 41
0.0
 71
     5
 72
     1
  1
100
 11
0.0000000000000001
 21
1.0
 31
0.0
 73
     1
 44
1.0
1001
ACAD
1000
MTEXTBEGIN
1070
    73
1070
     1
1070
    44
1040
1.0
1070
    74
1070
     0
1000
MTEXTEND
  0
POINT
  5
167B
330
1402
100
AcDbEntity
  8
DEFPOINTS
 62
     0
100
AcDbPoint
 10
2212.887454914551
 20
7273.604350697114
 30
0.0
  0
POINT
  5
167C
330
1402
100
AcDbEntity
  8
DEFPOINTS
 62
     0
100
AcDbPoint
 10
2227.887454914551
 20
7173.604350697114
 30
0.0
  0
POINT
  5
167D
330
1402
100
AcDbEntity
  8
DEFPOINTS
 62
     0
100
AcDbPoint
 10
1137.887454914547
 20
7173.604350697114
 30
0.0
  0
ENDBLK
  5
140F
330
1402
100
AcDbEntity
  8
0
100
AcDbBlockEnd
  0
BLOCK
  5
1438
330
142E
100
AcDbEntity
  8
0
100
AcDbBlockBegin
  2
*D13
 70
     1
 10
0.0
 20
0.0
 30
0.0
  3
*D13
  1

  0
LINE
  5
167E
330
142E
100
AcDbEntity
  8
AM_5
100
AcDbLine
 10
2207.887454914551
 20
7173.604350697114
 30
0.0
 11
1317.887454914547
 21
7173.604350697114
 31
0.0
  0
LINE
  5
167F
330
142E
100
AcDbEntity
  8
AM_5
100
AcDbLine
 10
1807.887454914551
 20
6973.604350697114
 30
0.0
 11
1317.887454914547
 21
6973.604350697114
 31
0.0
  0
LINE
  5
1680
330
142E
100
AcDbEntity
  8
AM_5
100
AcDbLine
 10
1337.887454914547
 20
7123.604350697114
 30
0.0
 11
1337.887454914547
 21
7023.604350697114
 31
0.0
  0
INSERT
  5
1681
330
142E
100
AcDbEntity
  8
AM_5
100
AcDbBlockReference
  2
_Open30
 10
1337.887454914547
 20
7173.604350697114
 30
0.0
 41
50.0
 42
50.0
 43
50.0
 50
90.0
  0
INSERT
  5
1682
330
142E
100
AcDbEntity
  8
AM_5
100
AcDbBlockReference
  2
_Open30
 10
1337.887454914547
 20
6973.604350697114
 30
0.0
 41
50.0
 42
50.0
 43
50.0
 50
270.0
  0
MTEXT
  5
1683
330
142E
100
AcDbEntity
  8
AM_5
 62
     2
100
AcDbMText
 10
1272.880565150767
 20
7073.604350697114
 30
0.0
 40
70.0
 41
0.0
 71
     5
 72
     1
  1
200
 11
0.0000000000000001
 21
1.0
 31
0.0
 73
     1
 44
1.0
1001
ACAD
1000
MTEXTBEGIN
1070
    73
1070
     1
1070
    44
1040
1.0
1070
    74
1070
     0
1000
MTEXTEND
  0
POINT
  5
1684
330
142E
100
AcDbEntity
  8
DEFPOINTS
 62
     0
100
AcDbPoint
 10
2227.887454914551
 20
7173.604350697114
 30
0.0
  0
POINT
  5
1685
330
142E
100
AcDbEntity
  8
DEFPOINTS
 62
     0
100
AcDbPoint
 10
1827.887454914551
 20
6973.604350697114
 30
0.0
  0
POINT
  5
1686
330
142E
100
AcDbEntity
  8
DEFPOINTS
 62
     0
100
AcDbPoint
 10
1337.887454914547
 20
6973.604350697114
 30
0.0
  0
ENDBLK
  5
1439
330
142E
100
AcDbEntity
  8
0
100
AcDbBlockEnd
  0
BLOCK
  5
1469
330
145F
100
AcDbEntity
  8
0
100
AcDbBlockBegin
  2
*D14
 70
     1
 10
0.0
 20
0.0
 30
0.0
  3
*D14
  1

  0
LINE
  5
1687
330
145F
100
AcDbEntity
  8
AM_5
100
AcDbLine
 10
1807.887454914551
 20
6973.604350697114
 30
0.0
 11
1317.887454914548
 21
6973.604350697114
 31
0.0
  0
LINE
  5
1688
330
145F
100
AcDbEntity
  8
AM_5
100
AcDbLine
 10
1982.887454914551
 20
6513.604350697113
 30
0.0
 11
1317.887454914547
 21
6513.604350697113
 31
0.0
  0
LINE
  5
1689
330
145F
100
AcDbEntity
  8
AM_5
100
AcDbLine
 10
1337.887454914548
 20
6923.604350697114
 30
0.0
 11
1337.887454914547
 21
6563.604350697113
 31
0.0
  0
INSERT
  5
168A
330
145F
100
AcDbEntity
  8
AM_5
100
AcDbBlockReference
  2
_Open30
 10
1337.887454914548
 20
6973.604350697114
 30
0.0
 41
50.0
 42
50.0
 43
50.0
 50
90.0
  0
INSERT
  5
168B
330
145F
100
AcDbEntity
  8
AM_5
100
AcDbBlockReference
  2
_Open30
 10
1337.887454914547
 20
6513.604350697113
 30
0.0
 41
50.0
 42
50.0
 43
50.0
 50
270.0
  0
MTEXT
  5
168C
330
145F
100
AcDbEntity
  8
AM_5
 62
     2
100
AcDbMText
 10
1272.887454914547
 20
6743.604350697113
 30
0.0
 40
70.0
 41
0.0
 71
     5
 72
     1
  1
460
 11
0.0000000000000001
 21
1.0
 31
0.0
 73
     1
 44
1.0
1001
ACAD
1000
MTEXTBEGIN
1070
    73
1070
     1
1070
    44
1040
1.0
1070
    74
1070
     0
1000
MTEXTEND
  0
POINT
  5
168D
330
145F
100
AcDbEntity
  8
DEFPOINTS
 62
     0
100
AcDbPoint
 10
1827.887454914551
 20
6973.604350697114
 30
0.0
  0
POINT
  5
168E
330
145F
100
AcDbEntity
  8
DEFPOINTS
 62
     0
100
AcDbPoint
 10
2002.887454914551
 20
6513.604350697113
 30
0.0
  0
POINT
  5
168F
330
145F
100
AcDbEntity
  8
DEFPOINTS
 62
     0
100
AcDbPoint
 10
1337.887454914547
 20
6513.604350697113
 30
0.0
  0
ENDBLK
  5
146A
330
145F
100
AcDbEntity
  8
0
100
AcDbBlockEnd
  0
BLOCK
  5
1487
330
147B
100
AcDbEntity
  8
0
100
AcDbBlockBegin
  2
*D15
 70
     1
 10
0.0
 20
0.0
 30
0.0
  3
*D15
  1

  0
LINE
  5
1690
330
147B
100
AcDbEntity
  8
AM_5
100
AcDbLine
 10
1982.887454914551
 20
6513.604350697113
 30
0.0
 11
1317.887454914547
 21
6513.604350697113
 31
0.0
  0
LINE
  5
1691
330
147B
100
AcDbEntity
  8
AM_5
100
AcDbLine
 10
2157.087454914552
 20
6373.604350697113
 30
0.0
 11
1317.887454914547
 21
6373.604350697114
 31
0.0
  0
LINE
  5
1692
330
147B
100
AcDbEntity
  8
AM_5
100
AcDbLine
 10
1337.887454914547
 20
6563.604350697113
 30
0.0
 11
1337.887454914547
 21
6613.604350697113
 31
0.0
  0
LINE
  5
1693
330
147B
100
AcDbEntity
  8
AM_5
100
AcDbLine
 10
1337.887454914547
 20
6323.604350697113
 30
0.0
 11
1337.887454914547
 21
6273.604350697113
 31
0.0
  0
LINE
  5
1694
330
147B
100
AcDbEntity
  8
AM_5
100
AcDbLine
 10
1337.887454914547
 20
6513.604350697113
 30
0.0
 11
1337.887454914547
 21
6373.604350697114
 31
0.0
  0
INSERT
  5
1695
330
147B
100
AcDbEntity
  8
AM_5
100
AcDbBlockReference
  2
_Open30
 10
1337.887454914547
 20
6513.604350697113
 30
0.0
 41
50.0
 42
50.0
 43
50.0
 50
270.0
  0
INSERT
  5
1696
330
147B
100
AcDbEntity
  8
AM_5
100
AcDbBlockReference
  2
_Open30
 10
1337.887454914547
 20
6373.604350697114
 30
0.0
 41
50.0
 42
50.0
 43
50.0
 50
90.0
  0
MTEXT
  5
1697
330
147B
100
AcDbEntity
  8
AM_5
 62
     2
100
AcDbMText
 10
1272.887454914547
 20
6443.604350697113
 30
0.0
 40
70.0
 41
0.0
 71
     5
 72
     1
  1
140
 11
0.0000000000000001
 21
1.0
 31
0.0
 73
     1
 44
1.0
1001
ACAD
1000
MTEXTBEGIN
1070
    73
1070
     1
1070
    44
1040
1.0
1070
    74
1070
     0
1000
MTEXTEND
  0
POINT
  5
1698
330
147B
100
AcDbEntity
  8
DEFPOINTS
 62
     0
100
AcDbPoint
 10
2002.887454914551
 20
6513.604350697113
 30
0.0
  0
POINT
  5
1699
330
147B
100
AcDbEntity
  8
DEFPOINTS
 62
     0
100
AcDbPoint
 10
2177.087454914552
 20
6373.604350697113
 30
0.0
  0
POINT
  5
169A
330
147B
100
AcDbEntity
  8
DEFPOINTS
 62
     0
100
AcDbPoint
 10
1337.887454914547
 20
6373.604350697114
 30
0.0
  0
ENDBLK
  5
1488
330
147B
100
AcDbEntity
  8
0
100
AcDbBlockEnd
  0
BLOCK
  5
14CE
330
14C4
100
AcDbEntity
  8
0
100
AcDbBlockBegin
  2
*D16
 70
     1
 10
0.0
 20
0.0
 30
0.0
  3
*D16
  1

  0
LINE
  5
1634
330
14C4
100
AcDbEntity
  8
AM_5
100
AcDbLine
 10
1557.88745491455
 20
2673.604350697114
 30
0.0
 11
917.8874549145451
 21
2673.604350697114
 31
0.0
  0
LINE
  5
1635
330
14C4
100
AcDbEntity
  8
AM_5
100
AcDbLine
 10
2192.887454914551
 20
7273.604350697114
 30
0.0
 11
917.8874549145461
 21
7273.604350697114
 31
0.0
  0
LINE
  5
1636
330
14C4
100
AcDbEntity
  8
AM_5
100
AcDbLine
 10
937.8874549145452
 20
2723.604350697114
 30
0.0
 11
937.8874549145463
 21
7223.604350697114
 31
0.0
  0
INSERT
  5
1637
330
14C4
100
AcDbEntity
  8
AM_5
100
AcDbBlockReference
  2
_Open30
 10
937.8874549145452
 20
2673.604350697114
 30
0.0
 41
50.0
 42
50.0
 43
50.0
 50
270.0
  0
INSERT
  5
1638
330
14C4
100
AcDbEntity
  8
AM_5
100
AcDbBlockReference
  2
_Open30
 10
937.8874549145463
 20
7273.604350697114
 30
0.0
 41
50.0
 42
50.0
 43
50.0
 50
90.0
  0
MTEXT
  5
1639
330
14C4
100
AcDbEntity
  8
AM_5
 62
     2
100
AcDbMText
 10
872.887454914545
 20
4973.604350697115
 30
0.0
 40
70.0
 41
0.0
 71
     5
 72
     1
  1
4600
 11
0.0000000000000001
 21
1.0
 31
0.0
 73
     1
 44
1.0
1001
ACAD
1000
MTEXTBEGIN
1070
    73
1070
     1
1070
    44
1040
1.0
1070
    74
1070
     0
1000
MTEXTEND
  0
POINT
  5
163A
330
14C4
100
AcDbEntity
  8
DEFPOINTS
 62
     0
100
AcDbPoint
 10
1577.88745491455
 20
2673.604350697114
 30
0.0
  0
POINT
  5
163B
330
14C4
100
AcDbEntity
  8
DEFPOINTS
 62
     0
100
AcDbPoint
 10
2212.887454914551
 20
7273.604350697114
 30
0.0
  0
POINT
  5
163C
330
14C4
100
AcDbEntity
  8
DEFPOINTS
 62
     0
100
AcDbPoint
 10
937.8874549145463
 20
7273.604350697114
 30
0.0
  0
ENDBLK
  5
14CF
330
14C4
100
AcDbEntity
  8
0
100
AcDbBlockEnd
  0
BLOCK
  5
14F2
330
14E8
100
AcDbEntity
  8
0
100
AcDbBlockBegin
  2
*D17
 70
     1
 10
0.0
 20
0.0
 30
0.0
  3
*D17
  1

  0
LINE
  5
163D
330
14E8
100
AcDbEntity
  8
AM_5
100
AcDbLine
 10
1557.88745491455
 20
2673.604350697114
 30
0.0
 11
1117.887454914549
 21
2673.604350697114
 31
0.0
  0
LINE
  5
163E
330
14E8
100
AcDbEntity
  8
AM_5
100
AcDbLine
 10
1907.88745491455
 20
1573.604350697114
 30
0.0
 11
1117.887454914549
 21
1573.604350697114
 31
0.0
  0
LINE
  5
163F
330
14E8
100
AcDbEntity
  8
AM_5
100
AcDbLine
 10
1137.887454914549
 20
2623.604350697114
 30
0.0
 11
1137.887454914549
 21
1623.604350697114
 31
0.0
  0
INSERT
  5
1640
330
14E8
100
AcDbEntity
  8
AM_5
100
AcDbBlockReference
  2
_Open30
 10
1137.887454914549
 20
2673.604350697114
 30
0.0
 41
50.0
 42
50.0
 43
50.0
 50
90.0
  0
INSERT
  5
1641
330
14E8
100
AcDbEntity
  8
AM_5
100
AcDbBlockReference
  2
_Open30
 10
1137.887454914549
 20
1573.604350697114
 30
0.0
 41
50.0
 42
50.0
 43
50.0
 50
270.0
  0
MTEXT
  5
1642
330
14E8
100
AcDbEntity
  8
AM_5
 62
     2
100
AcDbMText
 10
1072.887454914549
 20
2123.604350697114
 30
0.0
 40
70.0
 41
0.0
 71
     5
 72
     1
  1
1100
 11
0.0000000000000001
 21
1.0
 31
0.0
 73
     1
 44
1.0
1001
ACAD
1000
MTEXTBEGIN
1070
    73
1070
     1
1070
    44
1040
1.0
1070
    74
1070
     0
1000
MTEXTEND
  0
POINT
  5
1643
330
14E8
100
AcDbEntity
  8
DEFPOINTS
 62
     0
100
AcDbPoint
 10
1577.88745491455
 20
2673.604350697114
 30
0.0
  0
POINT
  5
1644
330
14E8
100
AcDbEntity
  8
DEFPOINTS
 62
     0
100
AcDbPoint
 10
1927.88745491455
 20
1573.604350697114
 30
0.0
  0
POINT
  5
1645
330
14E8
100
AcDbEntity
  8
DEFPOINTS
 62
     0
100
AcDbPoint
 10
1137.887454914549
 20
1573.604350697114
 30
0.0
  0
ENDBLK
  5
14F3
330
14E8
100
AcDbEntity
  8
0
100
AcDbBlockEnd
  0
BLOCK
  5
151C
330
1512
100
AcDbEntity
  8
0
100
AcDbBlockBegin
  2
*D18
 70
     1
 10
0.0
 20
0.0
 30
0.0
  3
*D18
  1

  0
LINE
  5
1646
330
1512
100
AcDbEntity
  8
AM_5
100
AcDbLine
 10
1927.88745491455
 20
1553.604350697114
 30
0.0
 11
1927.88745491455
 21
1313.604349697113
 31
0.0
  0
LINE
  5
1647
330
1512
100
AcDbEntity
  8
AM_5
100
AcDbLine
 10
2527.88745491455
 20
1553.604350697114
 30
0.0
 11
2527.88745491455
 21
1313.604349697113
 31
0.0
  0
LINE
  5
1648
330
1512
100
AcDbEntity
  8
AM_5
100
AcDbLine
 10
1977.88745491455
 20
1333.604349697113
 30
0.0
 11
2477.88745491455
 21
1333.604349697113
 31
0.0
  0
INSERT
  5
1649
330
1512
100
AcDbEntity
  8
AM_5
100
AcDbBlockReference
  2
_Open30
 10
1927.88745491455
 20
1333.604349697113
 30
0.0
 41
50.0
 42
50.0
 43
50.0
 50
180.0
  0
INSERT
  5
164A
330
1512
100
AcDbEntity
  8
AM_5
100
AcDbBlockReference
  2
_Open30
 10
2527.88745491455
 20
1333.604349697113
 30
0.0
 41
50.0
 42
50.0
 43
50.0
  0
MTEXT
  5
164B
330
1512
100
AcDbEntity
  8
AM_5
 62
     2
100
AcDbMText
 10
2227.88745491455
 20
1398.604349697113
 30
0.0
 40
70.0
 41
0.0
 71
     5
 72
     1
  1
{\Famgdt|c128;o}600x600
 73
     1
 44
1.0
1001
ACAD
1000
MTEXTBEGIN
1070
    73
1070
     1
1070
    44
1040
1.0
1070
    74
1070
     0
1000
MTEXTEND
  0
POINT
  5
164C
330
1512
100
AcDbEntity
  8
DEFPOINTS
 62
     0
100
AcDbPoint
 10
1927.88745491455
 20
1573.604350697114
 30
0.0
  0
POINT
  5
164D
330
1512
100
AcDbEntity
  8
DEFPOINTS
 62
     0
100
AcDbPoint
 10
2527.88745491455
 20
1573.604350697114
 30
0.0
  0
POINT
  5
164E
330
1512
100
AcDbEntity
  8
DEFPOINTS
 62
     0
100
AcDbPoint
 10
2527.88745491455
 20
1333.604349697113
 30
0.0
  0
ENDBLK
  5
151D
330
1512
100
AcDbEntity
  8
0
100
AcDbBlockEnd
  0
BLOCK
  5
1556
330
154C
100
AcDbEntity
  8
0
100
AcDbBlockBegin
  2
*D19
 70
     1
 10
0.0
 20
0.0
 30
0.0
  3
*D19
  1

  0
LINE
  5
1658
330
154C
100
AcDbEntity
  8
AM_5
100
AcDbLine
 10
1557.88745491455
 20
2673.604350697114
 30
0.0
 11
1317.887454914546
 21
2673.604350697114
 31
0.0
  0
LINE
  5
1659
330
154C
100
AcDbEntity
  8
AM_5
100
AcDbLine
 10
1962.567454914551
 20
5173.604350697119
 30
0.0
 11
1317.887454914546
 21
5173.604350697119
 31
0.0
  0
LINE
  5
165A
330
154C
100
AcDbEntity
  8
AM_5
100
AcDbLine
 10
1337.887454914546
 20
2723.604350697114
 30
0.0
 11
1337.887454914546
 21
5123.604350697119
 31
0.0
  0
INSERT
  5
165B
330
154C
100
AcDbEntity
  8
AM_5
100
AcDbBlockReference
  2
_Open30
 10
1337.887454914546
 20
2673.604350697114
 30
0.0
 41
50.0
 42
50.0
 43
50.0
 50
270.0
  0
INSERT
  5
165C
330
154C
100
AcDbEntity
  8
AM_5
100
AcDbBlockReference
  2
_Open30
 10
1337.887454914546
 20
5173.604350697119
 30
0.0
 41
50.0
 42
50.0
 43
50.0
 50
90.0
  0
MTEXT
  5
165D
330
154C
100
AcDbEntity
  8
AM_5
 62
     2
100
AcDbMText
 10
1272.880565150766
 20
3923.604350697117
 30
0.0
 40
70.0
 41
0.0
 71
     5
 72
     1
  1
2500
 11
0.0000000000000001
 21
1.0
 31
0.0
 73
     1
 44
1.0
1001
ACAD
1000
MTEXTBEGIN
1070
    73
1070
     1
1070
    44
1040
1.0
1070
    74
1070
     0
1000
MTEXTEND
  0
POINT
  5
165E
330
154C
100
AcDbEntity
  8
DEFPOINTS
 62
     0
100
AcDbPoint
 10
1577.88745491455
 20
2673.604350697114
 30
0.0
  0
POINT
  5
165F
330
154C
100
AcDbEntity
  8
DEFPOINTS
 62
     0
100
AcDbPoint
 10
1982.567454914551
 20
5173.604350697119
 30
0.0
  0
POINT
  5
1660
330
154C
100
AcDbEntity
  8
DEFPOINTS
 62
     0
100
AcDbPoint
 10
1337.887454914546
 20
5173.604350697119
 30
0.0
  0
ENDBLK
  5
1557
330
154C
100
AcDbEntity
  8
0
100
AcDbBlockEnd
  0
BLOCK
  5
17C6
330
17C2
100
AcDbEntity
  8
0
100
AcDbBlockBegin
  2
*S20
 70
     1
 10
0.0
 20
0.0
 30
0.0
  3
*S20
  1

  0
CIRCLE
  5
17C3
330
17C2
100
AcDbEntity
  8
AM_12
 62
     4
100
AcDbCircle
 10
2335.802891965592
 20
3813.711173406962
 30
0.0
 40
31.5
  0
LINE
  5
17C4
330
17C2
100
AcDbEntity
  8
AM_12
 62
     4
100
AcDbLine
 10
2304.302891965592
 20
3782.211173406962
 30
0.0
 11
2367.302891965592
 21
3845.211173406962
 31
0.0
  0
LINE
  5
17C5
330
17C2
100
AcDbEntity
  8
AM_12
 62
     4
100
AcDbLine
 10
2304.302891965592
 20
3845.211173406962
 30
0.0
 11
2367.302891965592
 21
3782.211173406962
 31
0.0
  0
ENDBLK
  5
17C7
330
17C2
100
AcDbEntity
  8
0
100
AcDbBlockEnd
  0
BLOCK
  5
17CE
330
17C9
100
AcDbEntity
  8
0
100
AcDbBlockBegin
  2
*S21
 70
     1
 10
0.0
 20
0.0
 30
0.0
  3
*S21
  1

  0
LINE
  5
17CA
330
17C9
100
AcDbEntity
  8
AM_5
100
AcDbLine
 10
2763.868286977172
 20
4081.038976357014
 30
0.0
 11
2389.238735678018
 21
3847.08197811319
 31
0.0
  0
TRACE
  5
17CB
330
17C9
100
AcDbEntity
  8
AM_5
100
AcDbTrace
 10
2384.845385911544
 20
3854.116940367232
 30
0.0
 11
2393.632085444492
 21
3840.047015859147
 31
0.0
 12
2335.802891965592
 22
3813.711173406962
 32
0.0
 13
2335.802891965592
 23
3813.711173406962
 33
0.0
  0
MTEXT
  5
17CC
330
17C9
100
AcDbEntity
  8
AM_5
 62
     2
100
AcDbMText
 10
2848.475039521847
 20
4133.87608380854
 30
0.0
 40
70.0
 41
0.0
 71
     5
 72
     5
  1
1
  7
ACJISTS
 73
     1
 44
1.0
1001
ACAD
1000
MTEXTBEGIN
1070
    73
1070
     1
1070
    44
1040
1.0
1070
    74
1070
     0
1000
MTEXTEND
  0
CIRCLE
  5
17CD
330
17C9
100
AcDbEntity
  8
AM_5
 62
     3
100
AcDbCircle
 10
2848.475039521847
 20
4133.87608380854
 30
0.0
 40
99.75000000000001
  0
ENDBLK
  5
17CF
330
17C9
100
AcDbEntity
  8
0
100
AcDbBlockEnd
  0
BLOCK
  5
17D5
330
17D1
100
AcDbEntity
  8
0
100
AcDbBlockBegin
  2
*S22
 70
     1
 10
0.0
 20
0.0
 30
0.0
  3
*S22
  1

  0
CIRCLE
  5
17D2
330
17D1
100
AcDbEntity
  8
AM_12
 62
     4
100
AcDbCircle
 10
2277.420756096821
 20
5542.530464686875
 30
0.0
 40
31.5
  0
LINE
  5
17D3
330
17D1
100
AcDbEntity
  8
AM_12
 62
     4
100
AcDbLine
 10
2245.920756096821
 20
5511.030464686875
 30
0.0
 11
2308.920756096821
 21
5574.030464686876
 31
0.0
  0
LINE
  5
17D4
330
17D1
100
AcDbEntity
  8
AM_12
 62
     4
100
AcDbLine
 10
2245.920756096821
 20
5574.030464686876
 30
0.0
 11
2308.920756096821
 21
5511.030464686875
 31
0.0
  0
ENDBLK
  5
17D6
330
17D1
100
AcDbEntity
  8
0
100
AcDbBlockEnd
  0
BLOCK
  5
17DD
330
17D8
100
AcDbEntity
  8
0
100
AcDbBlockBegin
  2
*S23
 70
     1
 10
0.0
 20
0.0
 30
0.0
  3
*S23
  1

  0
LINE
  5
17D9
330
17D8
100
AcDbEntity
  8
AM_5
100
AcDbLine
 10
2731.849555548755
 20
5904.064083473917
 30
0.0
 11
2326.721653790576
 21
5581.753181148002
 31
0.0
  0
TRACE
  5
17DA
330
17D8
100
AcDbEntity
  8
AM_5
100
AcDbTrace
 10
2321.557885229346
 20
5588.243767433725
 30
0.0
 11
2331.885422351806
 21
5575.262594862277
 31
0.0
 12
2277.420756096821
 22
5542.530464686875
 32
0.0
 13
2277.420756096821
 23
5542.530464686875
 33
0.0
  0
MTEXT
  5
17DB
330
17D8
100
AcDbEntity
  8
AM_5
 62
     2
100
AcDbMText
 10
2809.909310230534
 20
5966.166717870699
 30
0.0
 40
70.0
 41
0.0
 71
     5
 72
     5
  1
2
  7
ACJISTS
 73
     1
 44
1.0
1001
ACAD
1000
MTEXTBEGIN
1070
    73
1070
     1
1070
    44
1040
1.0
1070
    74
1070
     0
1000
MTEXTEND
  0
CIRCLE
  5
17DC
330
17D8
100
AcDbEntity
  8
AM_5
 62
     3
100
AcDbCircle
 10
2809.909310230534
 20
5966.166717870699
 30
0.0
 40
99.75000000000001
  0
ENDBLK
  5
17DE
330
17D8
100
AcDbEntity
  8
0
100
AcDbBlockEnd
  0
BLOCK
  5
17E4
330
17E0
100
AcDbEntity
  8
0
100
AcDbBlockBegin
  2
*S24
 70
     1
 10
0.0
 20
0.0
 30
0.0
  3
*S24
  1

  0
CIRCLE
  5
17E1
330
17E0
100
AcDbEntity
  8
AM_12
 62
     4
100
AcDbCircle
 10
2599.457480372839
 20
6879.124018979975
 30
0.0
 40
31.5
  0
LINE
  5
17E2
330
17E0
100
AcDbEntity
  8
AM_12
 62
     4
100
AcDbLine
 10
2567.957480372839
 20
6847.624018979975
 30
0.0
 11
2630.957480372839
 21
6910.624018979977
 31
0.0
  0
LINE
  5
17E3
330
17E0
100
AcDbEntity
  8
AM_12
 62
     4
100
AcDbLine
 10
2567.957480372839
 20
6910.624018979977
 30
0.0
 11
2630.957480372839
 21
6847.624018979975
 31
0.0
  0
ENDBLK
  5
17E5
330
17E0
100
AcDbEntity
  8
0
100
AcDbBlockEnd
  0
BLOCK
  5
17EC
330
17E7
100
AcDbEntity
  8
0
100
AcDbBlockBegin
  2
*S25
 70
     1
 10
0.0
 20
0.0
 30
0.0
  3
*S25
  1

  0
LINE
  5
17E8
330
17E7
100
AcDbEntity
  8
AM_5
100
AcDbLine
 10
3021.329286428355
 20
7184.041938704995
 30
0.0
 11
2650.516899064138
 21
6916.028432847515
 31
0.0
  0
TRACE
  5
17E9
330
17E7
100
AcDbEntity
  8
AM_5
100
AcDbTrace
 10
2645.658340828155
 20
6922.750532813594
 30
0.0
 11
2655.375457300121
 21
6909.306332881438
 31
0.0
 12
2599.457480372839
 22
6879.124018979975
 32
0.0
 13
2599.457480372839
 23
6879.124018979975
 33
0.0
  0
MTEXT
  5
17EA
330
17E7
100
AcDbEntity
  8
AM_5
 62
     2
100
AcDbMText
 10
3102.173366022911
 20
7242.4739273286
 30
0.0
 40
70.0
 41
0.0
 71
     5
 72
     5
  1
3
  7
ACJISTS
 73
     1
 44
1.0
1001
ACAD
1000
MTEXTBEGIN
1070
    73
1070
     1
1070
    44
1040
1.0
1070
    74
1070
     0
1000
MTEXTEND
  0
CIRCLE
  5
17EB
330
17E7
100
AcDbEntity
  8
AM_5
 62
     3
100
AcDbCircle
 10
3102.173366022911
 20
7242.4739273286
 30
0.0
 40
99.75000000000001
  0
ENDBLK
  5
17ED
330
17E7
100
AcDbEntity
  8
0
100
AcDbBlockEnd
  0
BLOCK
  5
17F3
330
17EF
100
AcDbEntity
  8
0
100
AcDbBlockBegin
  2
*S26
 70
     1
 10
0.0
 20
0.0
 30
0.0
  3
*S26
  1

  0
CIRCLE
  5
17F0
330
17EF
100
AcDbEntity
  8
AM_12
 62
     4
100
AcDbCircle
 10
2265.584311258121
 20
6782.38330690734
 30
0.0
 40
31.5
  0
LINE
  5
17F1
330
17EF
100
AcDbEntity
  8
AM_12
 62
     4
100
AcDbLine
 10
2234.084311258121
 20
6750.88330690734
 30
0.0
 11
2297.084311258121
 21
6813.883306907341
 31
0.0
  0
LINE
  5
17F2
330
17EF
100
AcDbEntity
  8
AM_12
 62
     4
100
AcDbLine
 10
2234.084311258121
 20
6813.883306907341
 30
0.0
 11
2297.084311258121
 21
6750.88330690734
 31
0.0
  0
ENDBLK
  5
17F4
330
17EF
100
AcDbEntity
  8
0
100
AcDbBlockEnd
  0
BLOCK
  5
17FB
330
17F6
100
AcDbEntity
  8
0
100
AcDbBlockBegin
  2
*S27
 70
     1
 10
0.0
 20
0.0
 30
0.0
  3
*S27
  1

  0
LINE
  5
17F7
330
17F6
100
AcDbEntity
  8
AM_5
100
AcDbLine
 10
2714.639894598163
 20
6559.151268772748
 30
0.0
 11
2321.998186888831
 21
6754.339151788622
 31
0.0
  0
TRACE
  5
17F8
330
17F6
100
AcDbEntity
  8
AM_5
100
AcDbTrace
 10
2325.690269936465
 20
6761.766179380853
 30
0.0
 11
2318.306103841196
 21
6746.912124196391
 31
0.0
 12
2265.584311258121
 22
6782.38330690734
 32
0.0
 13
2265.584311258121
 23
6782.38330690734
 33
0.0
  0
MTEXT
  5
17F9
330
17F6
100
AcDbEntity
  8
AM_5
 62
     2
100
AcDbMText
 10
2803.961864346788
 20
6514.748023168111
 30
0.0
 40
70.0
 41
0.0
 71
     5
 72
     5
  1
4
  7
ACJISTS
 73
     1
 44
1.0
1001
ACAD
1000
MTEXTBEGIN
1070
    73
1070
     1
1070
    44
1040
1.0
1070
    74
1070
     0
1000
MTEXTEND
  0
CIRCLE
  5
17FA
330
17F6
100
AcDbEntity
  8
AM_5
 62
     3
100
AcDbCircle
 10
2803.961864346788
 20
6514.748023168111
 30
0.0
 40
99.75000000000001
  0
ENDBLK
  5
17FC
330
17F6
100
AcDbEntity
  8
0
100
AcDbBlockEnd
  0
BLOCK
  5
1802
330
17FE
100
AcDbEntity
  8
0
100
AcDbBlockBegin
  2
*S28
 70
     1
 10
0.0
 20
0.0
 30
0.0
  3
*S28
  1

  0
CIRCLE
  5
17FF
330
17FE
100
AcDbEntity
  8
AM_12
 62
     4
100
AcDbCircle
 10
2277.338605852332
 20
3473.689900029695
 30
0.0
 40
31.5
  0
LINE
  5
1800
330
17FE
100
AcDbEntity
  8
AM_12
 62
     4
100
AcDbLine
 10
2245.838605852332
 20
3442.189900029695
 30
0.0
 11
2308.838605852332
 21
3505.189900029694
 31
0.0
  0
LINE
  5
1801
330
17FE
100
AcDbEntity
  8
AM_12
 62
     4
100
AcDbLine
 10
2245.838605852332
 20
3505.189900029694
 30
0.0
 11
2308.838605852332
 21
3442.189900029695
 31
0.0
  0
ENDBLK
  5
1803
330
17FE
100
AcDbEntity
  8
0
100
AcDbBlockEnd
  0
BLOCK
  5
180A
330
1805
100
AcDbEntity
  8
0
100
AcDbBlockBegin
  2
*S29
 70
     1
 10
0.0
 20
0.0
 30
0.0
  3
*S29
  1

  0
LINE
  5
1806
330
1805
100
AcDbEntity
  8
AM_5
100
AcDbLine
 10
2761.52025445679
 20
3745.069098123899
 30
0.0
 11
2332.294990171213
 21
3504.492429513414
 31
0.0
  0
TRACE
  5
1807
330
1805
100
AcDbEntity
  8
AM_5
100
AcDbTrace
 10
2328.239760250765
 20
3511.727574735087
 30
0.0
 11
2336.350220091661
 21
3497.257284291741
 31
0.0
 12
2277.338605852332
 22
3473.689900029695
 32
0.0
 13
2277.338605852332
 23
3473.689900029695
 33
0.0
  0
MTEXT
  5
1808
330
1805
100
AcDbEntity
  8
AM_5
 62
     2
100
AcDbMText
 10
2848.534529628352
 20
3793.839769806455
 30
0.0
 40
70.0
 41
0.0
 71
     5
 72
     5
  1
6
  7
ACJISTS
 73
     1
 44
1.0
1001
ACAD
1000
MTEXTBEGIN
1070
    73
1070
     1
1070
    44
1040
1.0
1070
    74
1070
     0
1000
MTEXTEND
  0
CIRCLE
  5
1809
330
1805
100
AcDbEntity
  8
AM_5
 62
     3
100
AcDbCircle
 10
2848.534529628352
 20
3793.839769806455
 30
0.0
 40
99.75000000000001
  0
ENDBLK
  5
180B
330
1805
100
AcDbEntity
  8
0
100
AcDbBlockEnd
  0
BLOCK
  5
1811
330
180D
100
AcDbEntity
  8
0
100
AcDbBlockBegin
  2
*S30
 70
     1
 10
0.0
 20
0.0
 30
0.0
  3
*S30
  1

  0
CIRCLE
  5
180E
330
180D
100
AcDbEntity
  8
AM_12
 62
     4
100
AcDbCircle
 10
2073.424631483838
 20
5223.027498246753
 30
0.0
 40
31.5
  0
LINE
  5
180F
330
180D
100
AcDbEntity
  8
AM_12
 62
     4
100
AcDbLine
 10
2041.924631483838
 20
5191.527498246752
 30
0.0
 11
2104.924631483839
 21
5254.527498246752
 31
0.0
  0
LINE
  5
1810
330
180D
100
AcDbEntity
  8
AM_12
 62
     4
100
AcDbLine
 10
2041.924631483838
 20
5254.527498246752
 30
0.0
 11
2104.924631483839
 21
5191.527498246752
 31
0.0
  0
ENDBLK
  5
1812
330
180D
100
AcDbEntity
  8
0
100
AcDbBlockEnd
  0
BLOCK
  5
1819
330
1814
100
AcDbEntity
  8
0
100
AcDbBlockBegin
  2
*S31
 70
     1
 10
0.0
 20
0.0
 30
0.0
  3
*S31
  1

  0
LINE
  5
1815
330
1814
100
AcDbEntity
  8
AM_5
100
AcDbLine
 10
1597.735660215178
 20
5546.555261168801
 30
0.0
 11
2021.331279781115
 21
5258.457467317814
 31
0.0
  0
TRACE
  5
1816
330
1814
100
AcDbEntity
  8
AM_5
100
AcDbTrace
 10
2016.666835884277
 20
5251.599247489051
 30
0.0
 11
2025.995723677953
 21
5265.315687146578
 31
0.0
 12
2073.424631483838
 22
5223.027498246753
 32
0.0
 13
2073.424631483838
 23
5223.027498246753
 33
0.0
  0
MTEXT
  5
1817
330
1814
100
AcDbEntity
  8
AM_5
 62
     2
100
AcDbMText
 10
1515.254520019199
 20
5602.652712197982
 30
0.0
 40
70.0
 41
0.0
 71
     5
 72
     5
  1
7
  7
ACJISTS
 73
     1
 44
1.0
1001
ACAD
1000
MTEXTBEGIN
1070
    73
1070
     1
1070
    44
1040
1.0
1070
    74
1070
     0
1000
MTEXTEND
  0
CIRCLE
  5
1818
330
1814
100
AcDbEntity
  8
AM_5
 62
     3
100
AcDbCircle
 10
1515.254520019199
 20
5602.652712197982
 30
0.0
 40
99.75000000000001
  0
ENDBLK
  5
181A
330
1814
100
AcDbEntity
  8
0
100
AcDbBlockEnd
  0
BLOCK
  5
1820
330
181C
100
AcDbEntity
  8
0
100
AcDbBlockBegin
  2
*S32
 70
     1
 10
0.0
 20
0.0
 30
0.0
  3
*S32
  1

  0
CIRCLE
  5
181D
330
181C
100
AcDbEntity
  8
AM_12
 62
     4
100
AcDbCircle
 10
2359.170681140618
 20
2241.498583887162
 30
0.0
 40
31.5
  0
LINE
  5
181E
330
181C
100
AcDbEntity
  8
AM_12
 62
     4
100
AcDbLine
 10
2327.670681140618
 20
2209.998583887162
 30
0.0
 11
2390.670681140619
 21
2272.998583887162
 31
0.0
  0
LINE
  5
181F
330
181C
100
AcDbEntity
  8
AM_12
 62
     4
100
AcDbLine
 10
2327.670681140618
 20
2272.998583887162
 30
0.0
 11
2390.670681140619
 21
2209.998583887162
 31
0.0
  0
ENDBLK
  5
1821
330
181C
100
AcDbEntity
  8
0
100
AcDbBlockEnd
  0
BLOCK
  5
1828
330
1823
100
AcDbEntity
  8
0
100
AcDbBlockBegin
  2
*S33
 70
     1
 10
0.0
 20
0.0
 30
0.0
  3
*S33
  1

  0
LINE
  5
1824
330
1823
100
AcDbEntity
  8
AM_5
100
AcDbLine
 10
2741.152836145815
 20
2087.835408099681
 30
0.0
 11
2417.618679741913
 21
2217.986215663115
 31
0.0
  0
TRACE
  5
1825
330
1823
100
AcDbEntity
  8
AM_5
100
AcDbTrace
 10
2420.714141728991
 20
2225.681040623628
 30
0.0
 11
2414.523217754834
 21
2210.291390702602
 31
0.0
 12
2359.170681140618
 22
2241.498583887162
 32
0.0
 13
2359.170681140618
 23
2241.498583887162
 33
0.0
  0
MTEXT
  5
1826
330
1823
100
AcDbEntity
  8
AM_5
 62
     2
100
AcDbMText
 10
2833.695500597864
 20
2050.607491744941
 30
0.0
 40
70.0
 41
0.0
 71
     5
 72
     5
  1
8
  7
ACJISTS
 73
     1
 44
1.0
1001
ACAD
1000
MTEXTBEGIN
1070
    73
1070
     1
1070
    44
1040
1.0
1070
    74
1070
     0
1000
MTEXTEND
  0
CIRCLE
  5
1827
330
1823
100
AcDbEntity
  8
AM_5
 62
     3
100
AcDbCircle
 10
2833.695500597864
 20
2050.607491744941
 30
0.0
 40
99.75000000000001
  0
ENDBLK
  5
1829
330
1823
100
AcDbEntity
  8
0
100
AcDbBlockEnd
  0
BLOCK
  5
1888
330
182B
100
AcDbEntity
  8
0
100
AcDbBlockBegin
  2
*S34
 70
     1
 10
0.0
 20
0.0
 30
0.0
  3
*S34
  1

  0
LINE
  5
182C
330
182B
100
AcDbEntity
  8
0
 62
     1
100
AcDbLine
 10
3313.265216226195
 20
7941.707199234416
 30
0.0
 11
6144.248879606212
 21
7941.707199234416
 31
0.0
  0
LINE
  5
182D
330
182B
100
AcDbEntity
  8
0
 62
     1
100
AcDbLine
 10
3313.265216226195
 20
7793.207199234415
 30
0.0
 11
6144.248879606212
 21
7793.207199234415
 31
0.0
  0
LINE
  5
182E
330
182B
100
AcDbEntity
  8
0
 62
     1
100
AcDbLine
 10
3313.265216226195
 20
7644.707199234415
 30
0.0
 11
6144.248879606212
 21
7644.707199234415
 31
0.0
  0
LINE
  5
182F
330
182B
100
AcDbEntity
  8
0
 62
     1
100
AcDbLine
 10
3313.265216226195
 20
7496.207199234415
 30
0.0
 11
6144.248879606212
 21
7496.207199234415
 31
0.0
  0
LINE
  5
1830
330
182B
100
AcDbEntity
  8
0
 62
     1
100
AcDbLine
 10
3313.265216226195
 20
7347.707199234415
 30
0.0
 11
6144.248879606212
 21
7347.707199234415
 31
0.0
  0
LINE
  5
1831
330
182B
100
AcDbEntity
  8
0
 62
     1
100
AcDbLine
 10
3313.265216226195
 20
7199.207199234415
 30
0.0
 11
6144.248879606212
 21
7199.207199234415
 31
0.0
  0
LINE
  5
1832
330
182B
100
AcDbEntity
  8
0
 62
     1
100
AcDbLine
 10
3313.265216226195
 20
7050.707199234415
 30
0.0
 11
6144.248879606212
 21
7050.707199234415
 31
0.0
  0
MTEXT
  5
1833
330
182B
100
AcDbEntity
  8
0
 62
     7
100
AcDbMText
 10
3430.265216226195
 20
8063.207199234415
 30
0.0
 40
90.0
 41
197.9999999999999
 71
     2
 72
     5
  1
1
  7
ACJISTS
 73
     1
 44
1.0
1001
ACAD
1000
MTEXTBEGIN
1070
    73
1070
     1
1070
    44
1040
1.0
1070
    74
1070
     0
1000
MTEXTEND
  0
LINE
  5
1834
330
182B
100
AcDbEntity
  8
0
 62
     1
100
AcDbLine
 10
3547.265216226195
 20
8090.207199234416
 30
0.0
 11
3547.265216226195
 21
7941.707199234416
 31
0.0
  0
MTEXT
  5
1835
330
182B
100
AcDbEntity
  8
0
 62
     7
100
AcDbMText
 10
3966.108552303751
 20
8063.207199234415
 30
0.0
 40
90.0
 41
801.6866721551123
 71
     2
 72
     5
  1
ハカマ
  7
ACJISTS
 73
     1
 44
1.0
1001
ACAD
1000
MTEXTBEGIN
1070
    73
1070
     1
1070
    44
1040
1.0
1070
    74
1070
     0
1000
MTEXTEND
  0
LINE
  5
1836
330
182B
100
AcDbEntity
  8
0
 62
     1
100
AcDbLine
 10
4384.951888381307
 20
8090.207199234416
 30
0.0
 11
4384.951888381307
 21
7941.707199234416
 31
0.0
  0
MTEXT
  5
1837
330
182B
100
AcDbEntity
  8
0
 62
     7
100
AcDbMText
 10
4614.951888381307
 20
8063.207199234415
 30
0.0
 40
90.0
 41
424.0
 71
     2
 72
     5
  1
FCD
  7
ACJISTS
 73
     1
 44
1.0
1001
ACAD
1000
MTEXTBEGIN
1070
    73
1070
     1
1070
    44
1040
1.0
1070
    74
1070
     0
1000
MTEXTEND
  0
LINE
  5
1838
330
182B
100
AcDbEntity
  8
0
 62
     1
100
AcDbLine
 10
4844.951888381307
 20
8090.207199234416
 30
0.0
 11
4844.951888381307
 21
7941.707199234416
 31
0.0
  0
MTEXT
  5
1839
330
182B
100
AcDbEntity
  8
0
 62
     7
100
AcDbMText
 10
4961.951888381307
 20
8063.207199234415
 30
0.0
 40
90.0
 41
198.0
 71
     2
 72
     5
  1
1
  7
ACJISTS
 73
     1
 44
1.0
1001
ACAD
1000
MTEXTBEGIN
1070
    73
1070
     1
1070
    44
1040
1.0
1070
    74
1070
     0
1000
MTEXTEND
  0
LINE
  5
183A
330
182B
100
AcDbEntity
  8
0
 62
     1
100
AcDbLine
 10
5078.951888381308
 20
8090.207199234416
 30
0.0
 11
5078.951888381308
 21
7941.707199234416
 31
0.0
  0
MTEXT
  5
183B
330
182B
100
AcDbEntity
  8
0
 62
     7
100
AcDbMText
 10
5611.60038399376
 20
8063.207199234415
 30
0.0
 40
90.0
 41
1029.296991224904
 71
     2
 72
     5
  1
樹脂系塗料塗装
  7
ACJISTS
 73
     1
 44
1.0
1001
ACAD
1000
MTEXTBEGIN
1070
    73
1070
     1
1070
    44
1040
1.0
1070
    74
1070
     0
1000
MTEXTEND
  0
MTEXT
  5
183C
330
182B
100
AcDbEntity
  8
0
 62
     7
100
AcDbMText
 10
3430.265216226195
 20
7914.707199234415
 30
0.0
 40
90.0
 41
197.9999999999999
 71
     2
 72
     5
  1
2
  7
ACJISTS
 73
     1
 44
1.0
1001
ACAD
1000
MTEXTBEGIN
1070
    73
1070
     1
1070
    44
1040
1.0
1070
    74
1070
     0
1000
MTEXTEND
  0
LINE
  5
183D
330
182B
100
AcDbEntity
  8
0
 62
     1
100
AcDbLine
 10
3547.265216226195
 20
7941.707199234416
 30
0.0
 11
3547.265216226195
 21
7793.207199234415
 31
0.0
  0
MTEXT
  5
183E
330
182B
100
AcDbEntity
  8
0
 62
     7
100
AcDbMText
 10
3966.108552303751
 20
7914.707199234415
 30
0.0
 40
90.0
 41
801.6866721551123
 71
     2
 72
     5
  1
ポール
  7
ACJISTS
 73
     1
 44
1.0
1001
ACAD
1000
MTEXTBEGIN
1070
    73
1070
     1
1070
    44
1040
1.0
1070
    74
1070
     0
1000
MTEXTEND
  0
LINE
  5
183F
330
182B
100
AcDbEntity
  8
0
 62
     1
100
AcDbLine
 10
4384.951888381307
 20
7941.707199234416
 30
0.0
 11
4384.951888381307
 21
7793.207199234415
 31
0.0
  0
MTEXT
  5
1840
330
182B
100
AcDbEntity
  8
0
 62
     7
100
AcDbMText
 10
4614.951888381307
 20
7914.707199234415
 30
0.0
 40
90.0
 41
424.0
 71
     2
 72
     5
  1
FCD
  7
ACJISTS
 73
     1
 44
1.0
1001
ACAD
1000
MTEXTBEGIN
1070
    73
1070
     1
1070
    44
1040
1.0
1070
    74
1070
     0
1000
MTEXTEND
  0
LINE
  5
1841
330
182B
100
AcDbEntity
  8
0
 62
     1
100
AcDbLine
 10
4844.951888381307
 20
7941.707199234416
 30
0.0
 11
4844.951888381307
 21
7793.207199234415
 31
0.0
  0
MTEXT
  5
1842
330
182B
100
AcDbEntity
  8
0
 62
     7
100
AcDbMText
 10
4961.951888381307
 20
7914.707199234415
 30
0.0
 40
90.0
 41
198.0
 71
     2
 72
     5
  1
1
  7
ACJISTS
 73
     1
 44
1.0
1001
ACAD
1000
MTEXTBEGIN
1070
    73
1070
     1
1070
    44
1040
1.0
1070
    74
1070
     0
1000
MTEXTEND
  0
LINE
  5
1843
330
182B
100
AcDbEntity
  8
0
 62
     1
100
AcDbLine
 10
5078.951888381308
 20
7941.707199234416
 30
0.0
 11
5078.951888381308
 21
7793.207199234415
 31
0.0
  0
MTEXT
  5
1844
330
182B
100
AcDbEntity
  8
0
 62
     7
100
AcDbMText
 10
5611.60038399376
 20
7914.707199234415
 30
0.0
 40
90.0
 41
1029.296991224904
 71
     2
 72
     5
  1
樹脂系塗料塗装
  7
ACJISTS
 73
     1
 44
1.0
1001
ACAD
1000
MTEXTBEGIN
1070
    73
1070
     1
1070
    44
1040
1.0
1070
    74
1070
     0
1000
MTEXTEND
  0
MTEXT
  5
1845
330
182B
100
AcDbEntity
  8
0
 62
     7
100
AcDbMText
 10
3430.265216226195
 20
7766.207199234415
 30
0.0
 40
90.0
 41
197.9999999999999
 71
     2
 72
     5
  1
3
  7
ACJISTS
 73
     1
 44
1.0
1001
ACAD
1000
MTEXTBEGIN
1070
    73
1070
     1
1070
    44
1040
1.0
1070
    74
1070
     0
1000
MTEXTEND
  0
LINE
  5
1846
330
182B
100
AcDbEntity
  8
0
 62
     1
100
AcDbLine
 10
3547.265216226195
 20
7793.207199234415
 30
0.0
 11
3547.265216226195
 21
7644.707199234415
 31
0.0
  0
MTEXT
  5
1847
330
182B
100
AcDbEntity
  8
0
 62
     7
100
AcDbMText
 10
3966.108552303751
 20
7766.207199234415
 30
0.0
 40
90.0
 41
801.6866721551123
 71
     2
 72
     5
  1
灯具飾り
  7
ACJISTS
 73
     1
 44
1.0
1001
ACAD
1000
MTEXTBEGIN
1070
    73
1070
     1
1070
    44
1040
1.0
1070
    74
1070
     0
1000
MTEXTEND
  0
LINE
  5
1848
330
182B
100
AcDbEntity
  8
0
 62
     1
100
AcDbLine
 10
4384.951888381307
 20
7793.207199234415
 30
0.0
 11
4384.951888381307
 21
7644.707199234415
 31
0.0
  0
MTEXT
  5
1849
330
182B
100
AcDbEntity
  8
0
 62
     7
100
AcDbMText
 10
4614.951888381307
 20
7766.207199234415
 30
0.0
 40
90.0
 41
424.0
 71
     2
 72
     5
  1
SS
  7
ACJISTS
 73
     1
 44
1.0
1001
ACAD
1000
MTEXTBEGIN
1070
    73
1070
     1
1070
    44
1040
1.0
1070
    74
1070
     0
1000
MTEXTEND
  0
LINE
  5
184A
330
182B
100
AcDbEntity
  8
0
 62
     1
100
AcDbLine
 10
4844.951888381307
 20
7793.207199234415
 30
0.0
 11
4844.951888381307
 21
7644.707199234415
 31
0.0
  0
MTEXT
  5
184B
330
182B
100
AcDbEntity
  8
0
 62
     7
100
AcDbMText
 10
4961.951888381307
 20
7766.207199234415
 30
0.0
 40
90.0
 41
198.0
 71
     2
 72
     5
  1
1
  7
ACJISTS
 73
     1
 44
1.0
1001
ACAD
1000
MTEXTBEGIN
1070
    73
1070
     1
1070
    44
1040
1.0
1070
    74
1070
     0
1000
MTEXTEND
  0
LINE
  5
184C
330
182B
100
AcDbEntity
  8
0
 62
     1
100
AcDbLine
 10
5078.951888381308
 20
7793.207199234415
 30
0.0
 11
5078.951888381308
 21
7644.707199234415
 31
0.0
  0
MTEXT
  5
184D
330
182B
100
AcDbEntity
  8
0
 62
     7
100
AcDbMText
 10
5611.60038399376
 20
7766.207199234415
 30
0.0
 40
90.0
 41
1029.296991224904
 71
     2
 72
     5
  1
樹脂系塗料塗装
  7
ACJISTS
 73
     1
 44
1.0
1001
ACAD
1000
MTEXTBEGIN
1070
    73
1070
     1
1070
    44
1040
1.0
1070
    74
1070
     0
1000
MTEXTEND
  0
MTEXT
  5
184E
330
182B
100
AcDbEntity
  8
0
 62
     7
100
AcDbMText
 10
3430.265216226195
 20
7617.707199234415
 30
0.0
 40
90.0
 41
197.9999999999999
 71
     2
 72
     5
  1
4
  7
ACJISTS
 73
     1
 44
1.0
1001
ACAD
1000
MTEXTBEGIN
1070
    73
1070
     1
1070
    44
1040
1.0
1070
    74
1070
     0
1000
MTEXTEND
  0
LINE
  5
184F
330
182B
100
AcDbEntity
  8
0
 62
     1
100
AcDbLine
 10
3547.265216226195
 20
7644.707199234415
 30
0.0
 11
3547.265216226195
 21
7496.207199234415
 31
0.0
  0
MTEXT
  5
1850
330
182B
100
AcDbEntity
  8
0
 62
     7
100
AcDbMText
 10
3966.108552303751
 20
7617.707199234415
 30
0.0
 40
90.0
 41
801.6866721551123
 71
     2
 72
     5
  1
ランプ
  7
ACJISTS
 73
     1
 44
1.0
1001
ACAD
1000
MTEXTBEGIN
1070
    73
1070
     1
1070
    44
1040
1.0
1070
    74
1070
     0
1000
MTEXTEND
  0
LINE
  5
1851
330
182B
100
AcDbEntity
  8
0
 62
     1
100
AcDbLine
 10
4384.951888381307
 20
7644.707199234415
 30
0.0
 11
4384.951888381307
 21
7496.207199234415
 31
0.0
  0
MTEXT
  5
1852
330
182B
100
AcDbEntity
  8
0
 62
     7
100
AcDbMText
 10
4614.951888381307
 20
7617.707199234415
 30
0.0
 40
90.0
 41
424.0
 71
     2
 72
     5
  1
-
  7
ACJISTS
 73
     1
 44
1.0
1001
ACAD
1000
MTEXTBEGIN
1070
    73
1070
     1
1070
    44
1040
1.0
1070
    74
1070
     0
1000
MTEXTEND
  0
LINE
  5
1853
330
182B
100
AcDbEntity
  8
0
 62
     1
100
AcDbLine
 10
4844.951888381307
 20
7644.707199234415
 30
0.0
 11
4844.951888381307
 21
7496.207199234415
 31
0.0
  0
MTEXT
  5
1854
330
182B
100
AcDbEntity
  8
0
 62
     7
100
AcDbMText
 10
4961.951888381307
 20
7617.707199234415
 30
0.0
 40
90.0
 41
198.0
 71
     2
 72
     5
  1
1
  7
ACJISTS
 73
     1
 44
1.0
1001
ACAD
1000
MTEXTBEGIN
1070
    73
1070
     1
1070
    44
1040
1.0
1070
    74
1070
     0
1000
MTEXTEND
  0
LINE
  5
1855
330
182B
100
AcDbEntity
  8
0
 62
     1
100
AcDbLine
 10
5078.951888381308
 20
7644.707199234415
 30
0.0
 11
5078.951888381308
 21
7496.207199234415
 31
0.0
  0
MTEXT
  5
1856
330
182B
100
AcDbEntity
  8
0
 62
     7
100
AcDbMText
 10
5611.60038399376
 20
7617.707199234415
 30
0.0
 40
90.0
 41
1029.296991224904
 71
     2
 72
     5
  1
高圧ナトリウム70W
  7
ACJISTS
 73
     1
 44
1.0
1001
ACAD
1000
MTEXTBEGIN
1070
    73
1070
     1
1070
    44
1040
1.0
1070
    74
1070
     0
1000
MTEXTEND
  0
MTEXT
  5
1857
330
182B
100
AcDbEntity
  8
0
 62
     7
100
AcDbMText
 10
3430.265216226195
 20
7469.207199234415
 30
0.0
 40
90.0
 41
197.9999999999999
 71
     2
 72
     5
  1
5
  7
ACJISTS
 73
     1
 44
1.0
1001
ACAD
1000
MTEXTBEGIN
1070
    73
1070
     1
1070
    44
1040
1.0
1070
    74
1070
     0
1000
MTEXTEND
  0
LINE
  5
1858
330
182B
100
AcDbEntity
  8
0
 62
     1
100
AcDbLine
 10
3547.265216226195
 20
7496.207199234415
 30
0.0
 11
3547.265216226195
 21
7347.707199234415
 31
0.0
  0
MTEXT
  5
1859
330
182B
100
AcDbEntity
  8
0
 62
     7
100
AcDbMText
 10
3966.108552303751
 20
7469.207199234415
 30
0.0
 40
90.0
 41
801.6866721551123
 71
     2
 72
     5
  1
グローブ
  7
ACJISTS
 73
     1
 44
1.0
1001
ACAD
1000
MTEXTBEGIN
1070
    73
1070
     1
1070
    44
1040
1.0
1070
    74
1070
     0
1000
MTEXTEND
  0
LINE
  5
185A
330
182B
100
AcDbEntity
  8
0
 62
     1
100
AcDbLine
 10
4384.951888381307
 20
7496.207199234415
 30
0.0
 11
4384.951888381307
 21
7347.707199234415
 31
0.0
  0
MTEXT
  5
185B
330
182B
100
AcDbEntity
  8
0
 62
     7
100
AcDbMText
 10
4614.951888381307
 20
7469.207199234415
 30
0.0
 40
90.0
 41
424.0
 71
     2
 72
     5
  1
-
  7
ACJISTS
 73
     1
 44
1.0
1001
ACAD
1000
MTEXTBEGIN
1070
    73
1070
     1
1070
    44
1040
1.0
1070
    74
1070
     0
1000
MTEXTEND
  0
LINE
  5
185C
330
182B
100
AcDbEntity
  8
0
 62
     1
100
AcDbLine
 10
4844.951888381307
 20
7496.207199234415
 30
0.0
 11
4844.951888381307
 21
7347.707199234415
 31
0.0
  0
MTEXT
  5
185D
330
182B
100
AcDbEntity
  8
0
 62
     7
100
AcDbMText
 10
4961.951888381307
 20
7469.207199234415
 30
0.0
 40
90.0
 41
198.0
 71
     2
 72
     5
  1
1
  7
ACJISTS
 73
     1
 44
1.0
1001
ACAD
1000
MTEXTBEGIN
1070
    73
1070
     1
1070
    44
1040
1.0
1070
    74
1070
     0
1000
MTEXTEND
  0
LINE
  5
185E
330
182B
100
AcDbEntity
  8
0
 62
     1
100
AcDbLine
 10
5078.951888381308
 20
7496.207199234415
 30
0.0
 11
5078.951888381308
 21
7347.707199234415
 31
0.0
  0
MTEXT
  5
185F
330
182B
100
AcDbEntity
  8
0
 62
     7
100
AcDbMText
 10
5611.60038399376
 20
7469.207199234415
 30
0.0
 40
90.0
 41
1029.296991224904
 71
     2
 72
     5
  1
乳白色
  7
ACJISTS
 73
     1
 44
1.0
1001
ACAD
1000
MTEXTBEGIN
1070
    73
1070
     1
1070
    44
1040
1.0
1070
    74
1070
     0
1000
MTEXTEND
  0
MTEXT
  5
1860
330
182B
100
AcDbEntity
  8
0
 62
     7
100
AcDbMText
 10
3430.265216226195
 20
7320.707199234416
 30
0.0
 40
90.0
 41
197.9999999999999
 71
     2
 72
     5
  1
6
  7
ACJISTS
 73
     1
 44
1.0
1001
ACAD
1000
MTEXTBEGIN
1070
    73
1070
     1
1070
    44
1040
1.0
1070
    74
1070
     0
1000
MTEXTEND
  0
LINE
  5
1861
330
182B
100
AcDbEntity
  8
0
 62
     1
100
AcDbLine
 10
3547.265216226195
 20
7347.707199234415
 30
0.0
 11
3547.265216226195
 21
7199.207199234415
 31
0.0
  0
MTEXT
  5
1862
330
182B
100
AcDbEntity
  8
0
 62
     7
100
AcDbMText
 10
3966.108552303751
 20
7320.707199234416
 30
0.0
 40
90.0
 41
801.6866721551123
 71
     2
 72
     5
  1
安定器
  7
ACJISTS
 73
     1
 44
1.0
1001
ACAD
1000
MTEXTBEGIN
1070
    73
1070
     1
1070
    44
1040
1.0
1070
    74
1070
     0
1000
MTEXTEND
  0
LINE
  5
1863
330
182B
100
AcDbEntity
  8
0
 62
     1
100
AcDbLine
 10
4384.951888381307
 20
7347.707199234415
 30
0.0
 11
4384.951888381307
 21
7199.207199234415
 31
0.0
  0
MTEXT
  5
1864
330
182B
100
AcDbEntity
  8
0
 62
     7
100
AcDbMText
 10
4614.951888381307
 20
7320.707199234416
 30
0.0
 40
90.0
 41
424.0
 71
     2
 72
     5
  1
-
  7
ACJISTS
 73
     1
 44
1.0
1001
ACAD
1000
MTEXTBEGIN
1070
    73
1070
     1
1070
    44
1040
1.0
1070
    74
1070
     0
1000
MTEXTEND
  0
LINE
  5
1865
330
182B
100
AcDbEntity
  8
0
 62
     1
100
AcDbLine
 10
4844.951888381307
 20
7347.707199234415
 30
0.0
 11
4844.951888381307
 21
7199.207199234415
 31
0.0
  0
MTEXT
  5
1866
330
182B
100
AcDbEntity
  8
0
 62
     7
100
AcDbMText
 10
4961.951888381307
 20
7320.707199234416
 30
0.0
 40
90.0
 41
198.0
 71
     2
 72
     5
  1
1
  7
ACJISTS
 73
     1
 44
1.0
1001
ACAD
1000
MTEXTBEGIN
1070
    73
1070
     1
1070
    44
1040
1.0
1070
    74
1070
     0
1000
MTEXTEND
  0
LINE
  5
1867
330
182B
100
AcDbEntity
  8
0
 62
     1
100
AcDbLine
 10
5078.951888381308
 20
7347.707199234415
 30
0.0
 11
5078.951888381308
 21
7199.207199234415
 31
0.0
  0
MTEXT
  5
1868
330
182B
100
AcDbEntity
  8
0
 62
     7
100
AcDbMText
 10
5611.60038399376
 20
7320.707199234416
 30
0.0
 40
90.0
 41
1029.296991224904
 71
     2
 72
     5
  1
高力率 100V
  7
ACJISTS
 73
     1
 44
1.0
1001
ACAD
1000
MTEXTBEGIN
1070
    73
1070
     1
1070
    44
1040
1.0
1070
    74
1070
     0
1000
MTEXTEND
  0
MTEXT
  5
1869
330
182B
100
AcDbEntity
  8
0
 62
     7
100
AcDbMText
 10
3430.265216226195
 20
7172.207199234415
 30
0.0
 40
90.0
 41
197.9999999999999
 71
     2
 72
     5
  1
7
  7
ACJISTS
 73
     1
 44
1.0
1001
ACAD
1000
MTEXTBEGIN
1070
    73
1070
     1
1070
    44
1040
1.0
1070
    74
1070
     0
1000
MTEXTEND
  0
LINE
  5
186A
330
182B
100
AcDbEntity
  8
0
 62
     1
100
AcDbLine
 10
3547.265216226195
 20
7199.207199234415
 30
0.0
 11
3547.265216226195
 21
7050.707199234415
 31
0.0
  0
MTEXT
  5
186B
330
182B
100
AcDbEntity
  8
0
 62
     7
100
AcDbMText
 10
3966.108552303751
 20
7172.207199234415
 30
0.0
 40
90.0
 41
801.6866721551123
 71
     2
 72
     5
  1
自動点滅器
  7
ACJISTS
 73
     1
 44
1.0
1001
ACAD
1000
MTEXTBEGIN
1070
    73
1070
     1
1070
    44
1040
1.0
1070
    74
1070
     0
1000
MTEXTEND
  0
LINE
  5
186C
330
182B
100
AcDbEntity
  8
0
 62
     1
100
AcDbLine
 10
4384.951888381307
 20
7199.207199234415
 30
0.0
 11
4384.951888381307
 21
7050.707199234415
 31
0.0
  0
MTEXT
  5
186D
330
182B
100
AcDbEntity
  8
0
 62
     7
100
AcDbMText
 10
4614.951888381307
 20
7172.207199234415
 30
0.0
 40
90.0
 41
424.0
 71
     2
 72
     5
  1
-
  7
ACJISTS
 73
     1
 44
1.0
1001
ACAD
1000
MTEXTBEGIN
1070
    73
1070
     1
1070
    44
1040
1.0
1070
    74
1070
     0
1000
MTEXTEND
  0
LINE
  5
186E
330
182B
100
AcDbEntity
  8
0
 62
     1
100
AcDbLine
 10
4844.951888381307
 20
7199.207199234415
 30
0.0
 11
4844.951888381307
 21
7050.707199234415
 31
0.0
  0
MTEXT
  5
186F
330
182B
100
AcDbEntity
  8
0
 62
     7
100
AcDbMText
 10
4961.951888381307
 20
7172.207199234415
 30
0.0
 40
90.0
 41
198.0
 71
     2
 72
     5
  1
1
  7
ACJISTS
 73
     1
 44
1.0
1001
ACAD
1000
MTEXTBEGIN
1070
    73
1070
     1
1070
    44
1040
1.0
1070
    74
1070
     0
1000
MTEXTEND
  0
LINE
  5
1870
330
182B
100
AcDbEntity
  8
0
 62
     1
100
AcDbLine
 10
5078.951888381308
 20
7199.207199234415
 30
0.0
 11
5078.951888381308
 21
7050.707199234415
 31
0.0
  0
MTEXT
  5
1871
330
182B
100
AcDbEntity
  8
0
 62
     7
100
AcDbMText
 10
3430.265216226195
 20
7023.707199234415
 30
0.0
 40
90.0
 41
197.9999999999999
 71
     2
 72
     5
  1
8
  7
ACJISTS
 73
     1
 44
1.0
1001
ACAD
1000
MTEXTBEGIN
1070
    73
1070
     1
1070
    44
1040
1.0
1070
    74
1070
     0
1000
MTEXTEND
  0
LINE
  5
1872
330
182B
100
AcDbEntity
  8
0
 62
     1
100
AcDbLine
 10
3547.265216226195
 20
7050.707199234415
 30
0.0
 11
3547.265216226195
 21
6902.207199234415
 31
0.0
  0
MTEXT
  5
1873
330
182B
100
AcDbEntity
  8
0
 62
     7
100
AcDbMText
 10
3966.108552303751
 20
7023.707199234415
 30
0.0
 40
90.0
 41
801.6866721551123
 71
     2
 72
     5
  1
組みアンカー
  7
ACJISTS
 73
     1
 44
1.0
1001
ACAD
1000
MTEXTBEGIN
1070
    73
1070
     1
1070
    44
1040
1.0
1070
    74
1070
     0
1000
MTEXTEND
  0
LINE
  5
1874
330
182B
100
AcDbEntity
  8
0
 62
     1
100
AcDbLine
 10
4384.951888381307
 20
7050.707199234415
 30
0.0
 11
4384.951888381307
 21
6902.207199234415
 31
0.0
  0
MTEXT
  5
1875
330
182B
100
AcDbEntity
  8
0
 62
     7
100
AcDbMText
 10
4614.951888381307
 20
7023.707199234415
 30
0.0
 40
90.0
 41
424.0
 71
     2
 72
     5
  1
SS
  7
ACJISTS
 73
     1
 44
1.0
1001
ACAD
1000
MTEXTBEGIN
1070
    73
1070
     1
1070
    44
1040
1.0
1070
    74
1070
     0
1000
MTEXTEND
  0
LINE
  5
1876
330
182B
100
AcDbEntity
  8
0
 62
     1
100
AcDbLine
 10
4844.951888381307
 20
7050.707199234415
 30
0.0
 11
4844.951888381307
 21
6902.207199234415
 31
0.0
  0
MTEXT
  5
1877
330
182B
100
AcDbEntity
  8
0
 62
     7
100
AcDbMText
 10
4961.951888381307
 20
7023.707199234415
 30
0.0
 40
90.0
 41
198.0
 71
     2
 72
     5
  1
1
  7
ACJISTS
 73
     1
 44
1.0
1001
ACAD
1000
MTEXTBEGIN
1070
    73
1070
     1
1070
    44
1040
1.0
1070
    74
1070
     0
1000
MTEXTEND
  0
LINE
  5
1878
330
182B
100
AcDbEntity
  8
0
 62
     1
100
AcDbLine
 10
5078.951888381308
 20
7050.707199234415
 30
0.0
 11
5078.951888381308
 21
6902.207199234415
 31
0.0
  0
MTEXT
  5
1879
330
182B
100
AcDbEntity
  8
0
 62
     7
100
AcDbMText
 10
5611.60038399376
 20
7023.707199234415
 30
0.0
 40
90.0
 41
1029.296991224904
 71
     2
 72
     5
  1
M16x600
  7
ACJISTS
 73
     1
 44
1.0
1001
ACAD
1000
MTEXTBEGIN
1070
    73
1070
     1
1070
    44
1040
1.0
1070
    74
1070
     0
1000
MTEXTEND
  0
LINE
  5
187A
330
182B
100
AcDbEntity
  8
0
 62
     1
100
AcDbLine
 10
3313.265216226195
 20
8090.207199234416
 30
0.0
 11
6144.248879606212
 21
8090.207199234416
 31
0.0
  0
MTEXT
  5
187B
330
182B
100
AcDbEntity
  8
0
 62
     7
100
AcDbMText
 10
3430.265216226195
 20
8211.707199234416
 30
0.0
 40
90.0
 41
197.9999999999999
 71
     2
 72
     5
  1
部番
  7
ACJISTS
 73
     1
 44
1.0
1001
ACAD
1000
MTEXTBEGIN
1070
    73
1070
     1
1070
    44
1040
1.0
1070
    74
1070
     0
1000
MTEXTEND
  0
LINE
  5
187C
330
182B
100
AcDbEntity
  8
0
 62
     1
100
AcDbLine
 10
3547.265216226195
 20
8238.707199234417
 30
0.0
 11
3547.265216226195
 21
8090.207199234416
 31
0.0
  0
MTEXT
  5
187D
330
182B
100
AcDbEntity
  8
0
 62
     7
100
AcDbMText
 10
3966.108552303751
 20
8211.707199234416
 30
0.0
 40
90.0
 41
801.6866721551123
 71
     2
 72
     5
  1
部  品  名
  7
ACJISTS
 73
     1
 44
1.0
1001
ACAD
1000
MTEXTBEGIN
1070
    73
1070
     1
1070
    44
1040
1.0
1070
    74
1070
     0
1000
MTEXTEND
  0
LINE
  5
187E
330
182B
100
AcDbEntity
  8
0
 62
     1
100
AcDbLine
 10
4384.951888381307
 20
8238.707199234417
 30
0.0
 11
4384.951888381307
 21
8090.207199234416
 31
0.0
  0
MTEXT
  5
187F
330
182B
100
AcDbEntity
  8
0
 62
     7
100
AcDbMText
 10
4614.951888381307
 20
8211.707199234416
 30
0.0
 40
90.0
 41
424.0
 71
     2
 72
     5
  1
材  質
  7
ACJISTS
 73
     1
 44
1.0
1001
ACAD
1000
MTEXTBEGIN
1070
    73
1070
     1
1070
    44
1040
1.0
1070
    74
1070
     0
1000
MTEXTEND
  0
LINE
  5
1880
330
182B
100
AcDbEntity
  8
0
 62
     1
100
AcDbLine
 10
4844.951888381307
 20
8238.707199234417
 30
0.0
 11
4844.951888381307
 21
8090.207199234416
 31
0.0
  0
MTEXT
  5
1881
330
182B
100
AcDbEntity
  8
0
 62
     7
100
AcDbMText
 10
4961.951888381307
 20
8211.707199234416
 30
0.0
 40
90.0
 41
198.0
 71
     2
 72
     5
  1
数量
  7
ACJISTS
 73
     1
 44
1.0
1001
ACAD
1000
MTEXTBEGIN
1070
    73
1070
     1
1070
    44
1040
1.0
1070
    74
1070
     0
1000
MTEXTEND
  0
LINE
  5
1882
330
182B
100
AcDbEntity
  8
0
 62
     1
100
AcDbLine
 10
5078.951888381308
 20
8238.707199234417
 30
0.0
 11
5078.951888381308
 21
8090.207199234416
 31
0.0
  0
MTEXT
  5
1883
330
182B
100
AcDbEntity
  8
0
 62
     7
100
AcDbMText
 10
5611.60038399376
 20
8211.707199234416
 30
0.0
 40
90.0
 41
1029.296991224904
 71
     2
 72
     5
  1
備　　考
  7
ACJISTS
 73
     1
 44
1.0
1001
ACAD
1000
MTEXTBEGIN
1070
    73
1070
     1
1070
    44
1040
1.0
1070
    74
1070
     0
1000
MTEXTEND
  0
LINE
  5
1884
330
182B
100
AcDbEntity
  8
0
 62
     7
100
AcDbLine
 10
3313.265216226195
 20
8238.707199234417
 30
0.0
 11
6144.248879606212
 21
8238.707199234417
 31
0.0
  0
LINE
  5
1885
330
182B
100
AcDbEntity
  8
0
 62
     7
100
AcDbLine
 10
6144.248879606212
 20
8238.707199234417
 30
0.0
 11
6144.248879606212
 21
6902.207199234415
 31
0.0
  0
LINE
  5
1886
330
182B
100
AcDbEntity
  8
0
 62
     7
100
AcDbLine
 10
6144.248879606212
 20
6902.207199234415
 30
0.0
 11
3313.265216226195
 21
6902.207199234415
 31
0.0
  0
LINE
  5
1887
330
182B
100
AcDbEntity
  8
0
 62
     7
100
AcDbLine
 10
3313.265216226195
 20
6902.207199234415
 30
0.0
 11
3313.265216226195
 21
8238.707199234417
 31
0.0
  0
ENDBLK
  5
1889
330
182B
100
AcDbEntity
  8
0
100
AcDbBlockEnd
  0
BLOCK
  5
188F
330
188B
100
AcDbEntity
  8
0
100
AcDbBlockBegin
  2
*S35
 70
     1
 10
0.0
 20
0.0
 30
0.0
  3
*S35
  1

  0
CIRCLE
  5
188C
330
188B
100
AcDbEntity
  8
AM_12
 62
     4
100
AcDbCircle
 10
2336.424075313429
 20
6932.007423043778
 30
0.0
 40
31.5
  0
LINE
  5
188D
330
188B
100
AcDbEntity
  8
AM_12
 62
     4
100
AcDbLine
 10
2304.924075313429
 20
6900.507423043778
 30
0.0
 11
2367.924075313429
 21
6963.507423043778
 31
0.0
  0
LINE
  5
188E
330
188B
100
AcDbEntity
  8
AM_12
 62
     4
100
AcDbLine
 10
2304.924075313429
 20
6963.507423043778
 30
0.0
 11
2367.924075313429
 21
6900.507423043778
 31
0.0
  0
ENDBLK
  5
1890
330
188B
100
AcDbEntity
  8
0
100
AcDbBlockEnd
  0
BLOCK
  5
1897
330
1892
100
AcDbEntity
  8
0
100
AcDbBlockBegin
  2
*S36
 70
     1
 10
0.0
 20
0.0
 30
0.0
  3
*S36
  1

  0
LINE
  5
1893
330
1892
100
AcDbEntity
  8
AM_5
100
AcDbLine
 10
2872.319880586686
 20
7532.035911174048
 30
0.0
 11
2378.389869418988
 21
6978.995422842555
 31
0.0
  0
TRACE
  5
1894
330
1892
100
AcDbEntity
  8
AM_5
100
AcDbTrace
 10
2372.203781916444
 20
6984.520324425139
 30
0.0
 11
2384.575956921533
 21
6973.470521259971
 31
0.0
 12
2336.424075313429
 22
6932.007423043778
 32
0.0
 13
2336.424075313429
 23
6932.007423043778
 33
0.0
  0
MTEXT
  5
1895
330
1892
100
AcDbEntity
  8
AM_5
 62
     2
100
AcDbMText
 10
2938.765721253822
 20
7606.433577522112
 30
0.0
 40
70.0
 41
0.0
 71
     5
 72
     5
  1
5
  7
ACJISTS
 73
     1
 44
1.0
1001
ACAD
1000
MTEXTBEGIN
1070
    73
1070
     1
1070
    44
1040
1.0
1070
    74
1070
     0
1000
MTEXTEND
  0
CIRCLE
  5
1896
330
1892
100
AcDbEntity
  8
AM_5
 62
     3
100
AcDbCircle
 10
2938.765721253822
 20
7606.433577522112
 30
0.0
 40
99.75000000000001
  0
ENDBLK
  5
1898
330
1892
100
AcDbEntity
  8
0
100
AcDbBlockEnd
  0
ENDSEC
  0
SECTION
  2
ENTITIES
  0
INSERT
  5
8F7
330
1F
100
AcDbEntity
  8
1
370
     0
100
AcDbBlockReference
 66
     1
  2
IGS2
 10
6144.248879606212
 20
538.7071992344142
 30
0.0
 41
20.0
 42
20.0
 43
20.0
1001
GENIUS_GENOREF_13
1005
A48
  0
ATTRIB
  5
8F8
330
8F7
100
AcDbEntity
  8
RAHM3
100
AcDbText
 10
3199.057145342502
 20
1177.652979198136
 30
0.0
 40
80.0
  1
1:20
100
AcDbAttribute
  2
GEN-TITLE-SCA
 70
     0
  0
ATTRIB
  5
8F9
330
8F7
100
AcDbEntity
  8
RAHM3
100
AcDbText
 10
4682.448879606211
 20
1133.507199234414
 30
0.0
 40
100.0
  1
街路灯
100
AcDbAttribute
  2
ＴＩＴＬＥ
 70
     0
  0
ATTRIB
  5
8FA
330
8F7
100
AcDbEntity
  8
RAHM3
100
AcDbText
 10
4712.991316489403
 20
974.7948617766912
 30
0.0
 40
60.0
  1
ITT-2
100
AcDbAttribute
  2
ｃｏｄｅ
 70
     0
  0
ATTRIB
  5
8FB
330
8F7
100
AcDbEntity
  8
RAHM3
100
AcDbText
 10
4729.352749726948
 20
834.7948617765457
 30
0.0
 40
60.0
  1

100
AcDbAttribute
  2
件名
 70
     0
  0
ATTRIB
  5
8FC
330
8F7
100
AcDbEntity
  8
RAHM3
100
AcDbText
 10
4682.448879606211
 20
573.5071992342686
 30
0.0
 40
100.0
  1
Ｔ２５Ａ０８００３
100
AcDbAttribute
  2
Ｎｏ．
 70
     0
  0
ATTRIB
  5
8FD
330
8F7
100
AcDbEntity
  8
RAHM3
100
AcDbText
 10
4135.248879606211
 20
886.8489856569453
 30
0.0
 40
80.0
  1

100
AcDbAttribute
  2
ＤＲ
 70
     0
  0
ATTRIB
  5
8FE
330
8F7
100
AcDbEntity
  8
RAHM3
100
AcDbText
 10
4069.887173528754
 20
794.1071992344141
 30
0.0
 40
60.0
  1

 41
0.8000000000000001
100
AcDbAttribute
  2
ｄａｔｅ
 70
     0
  0
SEQEND
  5
8FF
330
8F7
100
AcDbEntity
  8
1
370
     0
  0
INSERT
  5
900
330
1F
100
AcDbEntity
  8
1
370
     0
100
AcDbBlockReference
  2
IGS_A3T
 10
404.2488796062118
 20
338.7071992344165
 30
0.0
 41
20.0
 42
20.0
 43
20.0
1001
GENIUS_GENOREF_13
1005
A48
1001
GENIUS_GENODEF_13
1002
{
1000
HIER
1070
     0
1002
}
1002
{
1000
MANEDIT
1070
     0
1002
}
1002
{
1000
NOSEL
1070
     0
1002
}
1002
{
1000
BEHIND
1070
     0
1002
}
1002
{
1000
OTHER
1070
     0
1002
}
1002
{
1000
REACTOR
1002
}
1001
GENIUS_GENOBJ-N-SDF_13
1002
{
1000
OWNER
1000
GEN
1002
}
1001
GENIUS_GENSCREG_15
1040
20.0
1040
1.0
1011
404.2488796062118
1021
338.7071992344165
1031
0.0
1011
6344.248879606212
1021
8738.707199234418
1031
0.0
1070
     3
  0
LINE
  5
901
330
1F
100
AcDbEntity
  8
1
  6
Continuous
 62
     7
100
AcDbLine
 10
2274.387454914551
 20
3969.978691691714
 30
0.0
 11
2274.387454914551
 21
6373.604350697113
 31
0.0
  0
LINE
  5
902
330
1F
100
AcDbEntity
  8
1
  6
Continuous
 62
     7
100
AcDbLine
 10
2181.387454914551
 20
6373.604350697113
 30
0.0
 11
2181.387454914551
 21
3969.978691691714
 31
0.0
  0
LINE
  5
903
330
1F
100
AcDbEntity
  8
AM_7
100
AcDbLine
 10
2227.887454914551
 20
7229.484350697113
 30
0.0
 11
2227.887454914551
 21
2617.724350697114
 31
0.0
1001
GENIUS_GENODEF_13
1002
{
1000
HIER
1070
     0
1002
}
1002
{
1000
MANEDIT
1070
     0
1002
}
1002
{
1000
NOSEL
1070
     0
1002
}
1002
{
1000
BEHIND
1070
     0
1002
}
1002
{
1000
OTHER
1070
     0
1002
}
1002
{
1000
REACTOR
1002
}
1001
GENIUS_GENOBJ-N-CEN_13
1002
{
1000
OWNER
1000
GEN
1002
}
  0
LINE
  5
904
330
1F
100
AcDbEntity
  8
1
  6
Continuous
 62
     7
100
AcDbLine
 10
2127.07626578625
 20
3952.805461448214
 30
0.0
 11
2090.83597285525
 21
3023.604350697114
 31
0.0
  0
LINE
  5
905
330
1F
100
AcDbEntity
  8
1
  6
Continuous
 62
     7
100
AcDbLine
 10
2328.69864404285
 20
3952.805461448214
 30
0.0
 11
2364.938936973851
 21
3023.604350697114
 31
0.0
  0
LINE
  5
906
330
1F
100
AcDbEntity
  8
1
  6
Continuous
 62
     7
100
AcDbLine
 10
2351.68260309905
 20
2963.604350697114
 30
0.0
 11
2104.09230673005
 21
2963.604350697114
 31
0.0
  0
LINE
  5
907
330
1F
100
AcDbEntity
  8
1
  6
Continuous
 62
     7
100
AcDbLine
 10
2351.68260309905
 20
2993.604350697114
 30
0.0
 11
2104.09230673005
 21
2993.604350697114
 31
0.0
  0
LINE
  5
908
330
1F
100
AcDbEntity
  8
1
  6
Continuous
 62
     7
100
AcDbLine
 10
2084.985738845951
 20
2873.604350697114
 30
0.0
 11
2370.78917098325
 21
2873.604350697114
 31
0.0
  0
LINE
  5
909
330
1F
100
AcDbEntity
  8
1
  6
Continuous
 62
     7
100
AcDbLine
 10
2354.02269670285
 20
2903.604350697114
 30
0.0
 11
2101.75221312625
 21
2903.604350697114
 31
0.0
  0
LINE
  5
90A
330
1F
100
AcDbEntity
  8
1
  6
Continuous
 62
     7
100
AcDbLine
 10
2101.75221312625
 20
2933.604350697114
 30
0.0
 11
2354.02269670285
 21
2933.604350697114
 31
0.0
  0
LINE
  5
90B
330
1F
100
AcDbEntity
  8
1
  6
Continuous
 62
     7
100
AcDbLine
 10
2090.83597285525
 20
3023.604350697114
 30
0.0
 11
2364.938936973851
 21
3023.604350697114
 31
0.0
  0
LINE
  5
90C
330
1F
100
AcDbEntity
  8
1
  6
Continuous
 62
     7
100
AcDbLine
 10
2027.88745491455
 20
2691.604350697114
 30
0.0
 11
2427.887454914551
 21
2691.604350697114
 31
0.0
  0
LINE
  5
90D
330
1F
100
AcDbEntity
  8
1
  6
Continuous
 62
     7
100
AcDbLine
 10
2427.887454914551
 20
2673.604350697114
 30
0.0
 11
2027.88745491455
 21
2673.604350697114
 31
0.0
  0
LINE
  5
90E
330
1F
100
AcDbEntity
  8
1
  6
Continuous
 62
     7
100
AcDbLine
 10
2077.88745491455
 20
2691.604350697114
 30
0.0
 11
2084.985738845951
 21
2873.604350697114
 31
0.0
  0
LINE
  5
90F
330
1F
100
AcDbEntity
  8
1
  6
Continuous
 62
     7
100
AcDbLine
 10
2027.88745491455
 20
2673.604350697114
 30
0.0
 11
2027.88745491455
 21
2691.604350697114
 31
0.0
  0
ARC
  5
911
330
1F
100
AcDbEntity
  8
1
  6
Continuous
 62
     7
100
AcDbCircle
 10
2104.09230673005
 20
2978.604350697114
 30
0.0
 40
15.0
100
AcDbArc
 50
90.0
 51
270.0
  0
LINE
  5
912
330
1F
100
AcDbEntity
  8
1
  6
Continuous
 62
     7
100
AcDbLine
 10
2105.37576022225
 20
2883.214631389114
 30
0.0
 11
2106.17099108455
 21
2903.604350697114
 31
0.0
  0
LINE
  5
913
330
1F
100
AcDbEntity
  8
1
  6
Continuous
 62
     7
100
AcDbLine
 10
2107.34103788645
 20
2933.604350697114
 30
0.0
 11
2108.511084688251
 21
2963.604350697114
 31
0.0
  0
ARC
  5
914
330
1F
100
AcDbEntity
  8
1
  6
Continuous
 62
     7
100
AcDbCircle
 10
2101.75221312625
 20
2918.604350697114
 30
0.0
 40
15.0
100
AcDbArc
 50
90.0
 51
270.0
  0
ARC
  5
915
330
1F
100
AcDbEntity
  8
1
  6
Continuous
 62
     7
100
AcDbCircle
 10
2095.38335716495
 20
2883.604350697114
 30
0.0
 40
10.0
100
AcDbArc
 50
270.0
 51
357.7665072263994
  0
LINE
  5
916
330
1F
100
AcDbEntity
  8
1
  6
Continuous
 62
     7
100
AcDbLine
 10
2110.44596303035
 20
3013.214631389113
 30
0.0
 11
2109.681131490151
 21
2993.604350697114
 31
0.0
  0
ARC
  5
917
330
1F
100
AcDbEntity
  8
1
  6
Continuous
 62
     7
100
AcDbCircle
 10
2100.45355997305
 20
3013.604350697114
 30
0.0
 40
10.0
100
AcDbArc
 50
357.7665072263994
 51
90.0
  0
LINE
  5
918
330
1F
100
AcDbEntity
  8
1
  6
Continuous
 62
     7
100
AcDbLine
 10
2370.78917098325
 20
2873.604350697114
 30
0.0
 11
2377.88745491455
 21
2691.604350697114
 31
0.0
  0
LINE
  5
919
330
1F
100
AcDbEntity
  8
1
  6
Continuous
 62
     7
100
AcDbLine
 10
2427.887454914551
 20
2691.604350697114
 30
0.0
 11
2427.887454914551
 21
2673.604350697114
 31
0.0
  0
ARC
  5
91B
330
1F
100
AcDbEntity
  8
1
  6
Continuous
 62
     7
100
AcDbCircle
 10
2351.68260309905
 20
2978.604350697114
 30
0.0
 40
15.0
100
AcDbArc
 50
270.0
 51
90.0
  0
ARC
  5
91C
330
1F
100
AcDbEntity
  8
1
  6
Continuous
 62
     7
100
AcDbCircle
 10
2354.02269670285
 20
2918.604350697114
 30
0.0
 40
15.0
100
AcDbArc
 50
270.0
 51
90.0
  0
LINE
  5
91D
330
1F
100
AcDbEntity
  8
1
  6
Continuous
 62
     7
100
AcDbLine
 10
2350.39914960685
 20
2883.214631389114
 30
0.0
 11
2349.60391874455
 21
2903.604350697114
 31
0.0
  0
ARC
  5
91E
330
1F
100
AcDbEntity
  8
1
  6
Continuous
 62
     7
100
AcDbCircle
 10
2360.391552664251
 20
2883.604350697114
 30
0.0
 40
10.0
100
AcDbArc
 50
182.2334927736006
 51
270.0
  0
LINE
  5
91F
330
1F
100
AcDbEntity
  8
1
  6
Continuous
 62
     7
100
AcDbLine
 10
2348.43387194275
 20
2933.604350697114
 30
0.0
 11
2347.26382514085
 21
2963.604350697114
 31
0.0
  0
LINE
  5
920
330
1F
100
AcDbEntity
  8
1
  6
Continuous
 62
     7
100
AcDbLine
 10
2345.328946798751
 20
3013.214631389113
 30
0.0
 11
2346.093778338951
 21
2993.604350697114
 31
0.0
  0
ARC
  5
921
330
1F
100
AcDbEntity
  8
1
  6
Continuous
 62
     7
100
AcDbCircle
 10
2355.321349856051
 20
3013.604350697114
 30
0.0
 40
10.0
100
AcDbArc
 50
90.0
 51
182.2334927736006
  0
LINE
  5
922
330
1F
100
AcDbEntity
  8
1
  6
Continuous
 62
     7
100
AcDbLine
 10
2346.093778338951
 20
2993.604350697114
 30
0.0
 11
2351.68260309905
 21
2993.604350697114
 31
0.0
  0
LINE
  5
923
330
1F
100
AcDbEntity
  8
1
  6
CENTER
 62
     7
100
AcDbLine
 10
2161.261156989551
 20
3757.604350697114
 30
0.0
 11
2138.12786590085
 21
3757.604350697114
 31
0.0
  0
ARC
  5
924
330
1F
100
AcDbEntity
  8
1
  6
Continuous
 62
     7
100
AcDbCircle
 10
2227.887454914551
 20
3673.604350697114
 30
0.0
 40
300.0
100
AcDbArc
 50
71.04674940991289
 51
108.9532505900871
  0
LINE
  5
925
330
1F
100
AcDbEntity
  8
1
  6
Continuous
 62
     7
100
AcDbLine
 10
2320.887454914551
 20
3767.604350697114
 30
0.0
 11
2134.887454914551
 21
3767.604350697114
 31
0.0
  0
LINE
  5
926
330
1F
100
AcDbEntity
  8
1
  6
Continuous
 62
     7
100
AcDbLine
 10
2132.887454914552
 20
3769.604350697114
 30
0.0
 11
2322.887454914551
 21
3769.604350697114
 31
0.0
  0
LINE
  5
927
330
1F
100
AcDbEntity
  8
1
  6
CENTER
 62
     7
100
AcDbLine
 10
2161.261156989551
 20
3227.604350697113
 30
0.0
 11
2138.12786590085
 21
3227.604350697113
 31
0.0
  0
LINE
  5
928
330
1F
100
AcDbEntity
  8
1
  6
Continuous
 62
     7
100
AcDbLine
 10
2134.88745491455
 20
3217.604350697114
 30
0.0
 11
2320.88745491455
 21
3217.604350697114
 31
0.0
  0
LINE
  5
929
330
1F
100
AcDbEntity
  8
1
  6
Continuous
 62
     7
100
AcDbLine
 10
2322.88745491455
 20
3215.604350697114
 30
0.0
 11
2132.88745491455
 21
3215.604350697114
 31
0.0
  0
LINE
  5
92A
330
1F
100
AcDbEntity
  8
1
  6
Continuous
 62
     7
100
AcDbLine
 10
2134.887454914551
 20
3767.604350697114
 30
0.0
 11
2134.88745491455
 21
3217.604350697114
 31
0.0
  0
LINE
  5
92B
330
1F
100
AcDbEntity
  8
1
  6
Continuous
 62
     7
100
AcDbLine
 10
2132.88745491455
 20
3215.604350697114
 30
0.0
 11
2132.887454914552
 21
3769.604350697114
 31
0.0
  0
LINE
  5
92C
330
1F
100
AcDbEntity
  8
1
  6
Continuous
 62
     7
100
AcDbLine
 10
2144.887454914551
 20
3230.491102043014
 30
0.0
 11
2149.887454914551
 21
3233.377853389014
 31
0.0
  0
LINE
  5
92D
330
1F
100
AcDbEntity
  8
1
  6
Continuous
 62
     7
100
AcDbLine
 10
2149.887454914551
 20
3233.377853389014
 30
0.0
 11
2154.88745491455
 21
3230.491102043014
 31
0.0
  0
LINE
  5
92E
330
1F
100
AcDbEntity
  8
1
  6
Continuous
 62
     7
100
AcDbLine
 10
2154.88745491455
 20
3230.491102043014
 30
0.0
 11
2154.88745491455
 21
3224.717599351114
 31
0.0
  0
LINE
  5
92F
330
1F
100
AcDbEntity
  8
1
  6
Continuous
 62
     7
100
AcDbLine
 10
2154.88745491455
 20
3224.717599351114
 30
0.0
 11
2149.887454914551
 21
3221.830848005214
 31
0.0
  0
LINE
  5
930
330
1F
100
AcDbEntity
  8
1
  6
Continuous
 62
     7
100
AcDbLine
 10
2149.887454914551
 20
3221.830848005214
 30
0.0
 11
2144.887454914551
 21
3224.717599351114
 31
0.0
  0
LINE
  5
931
330
1F
100
AcDbEntity
  8
1
  6
Continuous
 62
     7
100
AcDbLine
 10
2144.887454914551
 20
3224.717599351114
 30
0.0
 11
2144.887454914551
 21
3230.491102043014
 31
0.0
  0
CIRCLE
  5
932
330
1F
100
AcDbEntity
  8
1
  6
Continuous
 62
     7
100
AcDbCircle
 10
2149.887454914551
 20
3227.604350697113
 30
0.0
 40
5.0
  0
LINE
  5
933
330
1F
100
AcDbEntity
  8
1
  6
CENTER
 62
     7
100
AcDbLine
 10
2149.887454914551
 20
3217.783859503014
 30
0.0
 11
2149.887454914551
 21
3235.776419238613
 31
0.0
  0
LINE
  5
934
330
1F
100
AcDbEntity
  8
1
  6
Continuous
 62
     7
100
AcDbLine
 10
2144.887454914551
 20
3760.491102043014
 30
0.0
 11
2149.887454914551
 21
3763.377853389014
 31
0.0
  0
LINE
  5
935
330
1F
100
AcDbEntity
  8
1
  6
Continuous
 62
     7
100
AcDbLine
 10
2149.887454914551
 20
3763.377853389014
 30
0.0
 11
2154.887454914551
 21
3760.491102043014
 31
0.0
  0
LINE
  5
936
330
1F
100
AcDbEntity
  8
1
  6
Continuous
 62
     7
100
AcDbLine
 10
2154.887454914551
 20
3760.491102043014
 30
0.0
 11
2154.887454914551
 21
3754.717599351114
 31
0.0
  0
LINE
  5
937
330
1F
100
AcDbEntity
  8
1
  6
Continuous
 62
     7
100
AcDbLine
 10
2154.887454914551
 20
3754.717599351114
 30
0.0
 11
2149.887454914551
 21
3751.830848005214
 31
0.0
  0
LINE
  5
938
330
1F
100
AcDbEntity
  8
1
  6
Continuous
 62
     7
100
AcDbLine
 10
2149.887454914551
 20
3751.830848005214
 30
0.0
 11
2144.887454914551
 21
3754.717599351114
 31
0.0
  0
LINE
  5
939
330
1F
100
AcDbEntity
  8
1
  6
Continuous
 62
     7
100
AcDbLine
 10
2144.887454914551
 20
3754.717599351114
 30
0.0
 11
2144.887454914551
 21
3760.491102043014
 31
0.0
  0
CIRCLE
  5
93A
330
1F
100
AcDbEntity
  8
1
  6
Continuous
 62
     7
100
AcDbCircle
 10
2149.887454914551
 20
3757.604350697114
 30
0.0
 40
5.0
  0
LINE
  5
93B
330
1F
100
AcDbEntity
  8
1
  6
CENTER
 62
     7
100
AcDbLine
 10
2149.887454914551
 20
3747.783859503014
 30
0.0
 11
2149.887454914551
 21
3765.776419238613
 31
0.0
  0
ARC
  5
93C
330
1F
100
AcDbEntity
  8
1
  6
Continuous
 62
     7
100
AcDbCircle
 10
2132.072467314951
 20
3952.610601794214
 30
0.0
 40
5.0
100
AcDbArc
 50
108.9532505900871
 51
177.7665072264026
  0
LINE
  5
93D
330
1F
100
AcDbEntity
  8
1
  6
Continuous
 62
     7
100
AcDbLine
 10
2320.88745491455
 20
3217.604350697114
 30
0.0
 11
2320.887454914551
 21
3767.604350697114
 31
0.0
  0
LINE
  5
93E
330
1F
100
AcDbEntity
  8
1
  6
Continuous
 62
     7
100
AcDbLine
 10
2322.887454914551
 20
3769.604350697114
 30
0.0
 11
2322.88745491455
 21
3215.604350697114
 31
0.0
  0
LINE
  5
93F
330
1F
100
AcDbEntity
  8
1
  6
HIDDEN
 62
     7
100
AcDbLine
 10
2177.88745491455
 20
3630.060164789514
 30
0.0
 11
2177.88745491455
 21
3330.060164789514
 31
0.0
  0
LINE
  5
940
330
1F
100
AcDbEntity
  8
1
  6
HIDDEN
 62
     7
100
AcDbLine
 10
2277.88745491455
 20
3330.060164789514
 30
0.0
 11
2277.887454914552
 21
3630.060164789514
 31
0.0
  0
LINE
  5
941
330
1F
100
AcDbEntity
  8
1
  6
Continuous
 62
     7
100
AcDbLine
 10
2305.88745491455
 20
3233.377853389014
 30
0.0
 11
2300.88745491455
 21
3230.491102043014
 31
0.0
  0
LINE
  5
942
330
1F
100
AcDbEntity
  8
1
  6
Continuous
 62
     7
100
AcDbLine
 10
2300.88745491455
 20
3224.717599351114
 30
0.0
 11
2305.88745491455
 21
3221.830848005214
 31
0.0
  0
CIRCLE
  5
943
330
1F
100
AcDbEntity
  8
1
  6
Continuous
 62
     7
100
AcDbCircle
 10
2305.887454914551
 20
3227.604350697113
 30
0.0
 40
5.0
  0
LINE
  5
944
330
1F
100
AcDbEntity
  8
1
  6
CENTER
 62
     7
100
AcDbLine
 10
2294.51375283965
 20
3227.604350697113
 30
0.0
 11
2317.64704392835
 21
3227.604350697113
 31
0.0
  0
LINE
  5
945
330
1F
100
AcDbEntity
  8
1
  6
HIDDEN
 62
     7
100
AcDbLine
 10
2177.88745491455
 20
3330.060164789514
 30
0.0
 11
2277.88745491455
 21
3330.060164789514
 31
0.0
  0
LINE
  5
946
330
1F
100
AcDbEntity
  8
1
  6
Continuous
 62
     7
100
AcDbLine
 10
2300.88745491455
 20
3230.491102043014
 30
0.0
 11
2300.88745491455
 21
3224.717599351114
 31
0.0
  0
LINE
  5
947
330
1F
100
AcDbEntity
  8
1
  6
Continuous
 62
     7
100
AcDbLine
 10
2310.887454914551
 20
3230.491102043014
 30
0.0
 11
2305.88745491455
 21
3233.377853389014
 31
0.0
  0
LINE
  5
948
330
1F
100
AcDbEntity
  8
1
  6
Continuous
 62
     7
100
AcDbLine
 10
2305.88745491455
 20
3221.830848005214
 30
0.0
 11
2310.887454914551
 21
3224.717599351114
 31
0.0
  0
LINE
  5
949
330
1F
100
AcDbEntity
  8
1
  6
Continuous
 62
     7
100
AcDbLine
 10
2310.887454914551
 20
3224.717599351114
 30
0.0
 11
2310.887454914551
 21
3230.491102043014
 31
0.0
  0
LINE
  5
94A
330
1F
100
AcDbEntity
  8
1
  6
CENTER
 62
     7
100
AcDbLine
 10
2305.88745491455
 20
3217.783859503014
 30
0.0
 11
2305.88745491455
 21
3235.776419238613
 31
0.0
  0
LINE
  5
94B
330
1F
100
AcDbEntity
  8
1
  6
Continuous
 62
     7
100
AcDbLine
 10
2305.887454914551
 20
3763.377853389014
 30
0.0
 11
2300.887454914551
 21
3760.491102043014
 31
0.0
  0
LINE
  5
94C
330
1F
100
AcDbEntity
  8
1
  6
Continuous
 62
     7
100
AcDbLine
 10
2300.887454914551
 20
3754.717599351114
 30
0.0
 11
2305.887454914551
 21
3751.830848005214
 31
0.0
  0
CIRCLE
  5
94D
330
1F
100
AcDbEntity
  8
1
  6
Continuous
 62
     7
100
AcDbCircle
 10
2305.887454914551
 20
3757.604350697114
 30
0.0
 40
5.0
  0
LINE
  5
94E
330
1F
100
AcDbEntity
  8
1
  6
CENTER
 62
     7
100
AcDbLine
 10
2294.513752839651
 20
3757.604350697114
 30
0.0
 11
2317.647043928351
 21
3757.604350697114
 31
0.0
  0
LINE
  5
94F
330
1F
100
AcDbEntity
  8
1
  6
HIDDEN
 62
     7
100
AcDbLine
 10
2277.887454914552
 20
3630.060164789514
 30
0.0
 11
2177.88745491455
 21
3630.060164789514
 31
0.0
  0
LINE
  5
950
330
1F
100
AcDbEntity
  8
1
  6
Continuous
 62
     7
100
AcDbLine
 10
2300.887454914551
 20
3760.491102043014
 30
0.0
 11
2300.887454914551
 21
3754.717599351114
 31
0.0
  0
LINE
  5
951
330
1F
100
AcDbEntity
  8
1
  6
Continuous
 62
     7
100
AcDbLine
 10
2310.887454914551
 20
3760.491102043014
 30
0.0
 11
2305.887454914551
 21
3763.377853389014
 31
0.0
  0
LINE
  5
952
330
1F
100
AcDbEntity
  8
1
  6
Continuous
 62
     7
100
AcDbLine
 10
2305.887454914551
 20
3751.830848005214
 30
0.0
 11
2310.887454914551
 21
3754.717599351114
 31
0.0
  0
LINE
  5
953
330
1F
100
AcDbEntity
  8
1
  6
Continuous
 62
     7
100
AcDbLine
 10
2310.887454914551
 20
3754.717599351114
 30
0.0
 11
2310.887454914551
 21
3760.491102043014
 31
0.0
  0
LINE
  5
954
330
1F
100
AcDbEntity
  8
1
  6
CENTER
 62
     7
100
AcDbLine
 10
2305.887454914551
 20
3747.783859503014
 30
0.0
 11
2305.887454914551
 21
3765.776419238613
 31
0.0
  0
ARC
  5
955
330
1F
100
AcDbEntity
  8
1
  6
Continuous
 62
     7
100
AcDbCircle
 10
2323.702442514151
 20
3952.610601794214
 30
0.0
 40
5.0
100
AcDbArc
 50
2.233492773600604
 51
71.04674940991289
  0
LINE
  5
956
330
1F
100
AcDbEntity
  8
1
  6
Continuous
 62
     7
100
AcDbLine
 10
1827.887454914551
 20
6973.604350697114
 30
0.0
 11
1897.887454914551
 21
6973.604350697114
 31
0.0
  0
LINE
  5
957
330
1F
100
AcDbEntity
  8
1
  6
Continuous
 62
     7
100
AcDbLine
 10
1901.530500800551
 20
7031.831963820813
 30
0.0
 11
1859.937792106051
 21
7020.802576172013
 31
0.0
  0
ARC
  5
958
330
1F
100
AcDbEntity
  8
1
  6
Continuous
 62
     7
100
AcDbCircle
 10
1866.089404481351
 20
6997.604350697113
 30
0.0
 40
24.0
100
AcDbArc
 50
104.8516484109914
 51
12.21238789890032
  0
LINE
  5
959
330
1F
100
AcDbEntity
  8
1
  6
Continuous
 62
     7
100
AcDbLine
 10
1827.887454914551
 20
6973.604350697114
 30
0.0
 11
2002.887454914551
 21
6513.604350697113
 31
0.0
  0
LINE
  5
95A
330
1F
100
AcDbEntity
  8
1
  6
Continuous
 62
     7
100
AcDbLine
 10
2425.308012245951
 20
6553.604350697113
 30
0.0
 11
2569.873229637251
 21
6933.604350697113
 31
0.0
  0
ARC
  5
95B
330
1F
100
AcDbEntity
  8
1
  6
Continuous
 62
     7
100
AcDbCircle
 10
2227.887454914551
 20
6801.354350697113
 30
0.0
 40
372.25
100
AcDbArc
 50
27.5631944712949
 51
152.4368055287051
  0
ARC
  5
95C
330
1F
100
AcDbEntity
  8
1
  6
Continuous
 62
     7
100
AcDbCircle
 10
2227.887454914551
 20
6801.354350697113
 30
0.0
 40
332.25
100
AcDbArc
 50
23.45593392070413
 51
156.5440660792988
  0
LINE
  5
95D
330
1F
100
AcDbEntity
  8
1
  6
Continuous
 62
     7
100
AcDbLine
 10
2452.887454914551
 20
7045.823290442014
 30
0.0
 11
2247.887454914551
 21
7045.823290442014
 31
0.0
  0
LINE
  5
95E
330
1F
100
AcDbEntity
  8
1
  6
Continuous
 62
     7
100
AcDbLine
 10
2278.687454914551
 20
6513.604350697113
 30
0.0
 11
2452.887454914551
 21
6513.604350697113
 31
0.0
  0
LINE
  5
95F
330
1F
100
AcDbEntity
  8
AM_7
100
AcDbLine
 10
1997.007454914551
 20
6813.604350697113
 30
0.0
 11
2458.767454914552
 21
6813.604350697113
 31
0.0
1001
GENIUS_GENOBJ-N-CEN_13
1002
{
1000
OWNER
1000
GEN
1002
}
1001
GENIUS_GENODEF_13
1002
{
1000
HIER
1070
     0
1002
}
1002
{
1000
MANEDIT
1070
     0
1002
}
1002
{
1000
NOSEL
1070
     0
1002
}
1002
{
1000
BEHIND
1070
     0
1002
}
1002
{
1000
OTHER
1070
     0
1002
}
1002
{
1000
REACTOR
1002
}
  0
LINE
  5
960
330
1F
100
AcDbEntity
  8
1
  6
Continuous
 62
     7
100
AcDbLine
 10
2207.887454914551
 20
7172.943700734814
 30
0.0
 11
2207.887454914551
 21
6513.604350697113
 31
0.0
  0
LINE
  5
961
330
1F
100
AcDbEntity
  8
1
  6
Continuous
 62
     7
100
AcDbLine
 10
2247.887454914551
 20
6513.604350697113
 30
0.0
 11
2247.887454914551
 21
7172.943700734814
 31
0.0
  0
LINE
  5
962
330
1F
100
AcDbEntity
  8
1
  6
Continuous
 62
     7
100
AcDbLine
 10
2177.087454914551
 20
6593.604350697113
 30
0.0
 11
2177.087454914551
 21
6373.604350697113
 31
0.0
  0
LINE
  5
963
330
1F
100
AcDbEntity
  8
1
  6
Continuous
 62
     7
100
AcDbLine
 10
2278.687454914551
 20
6373.604350697113
 30
0.0
 11
2278.687454914551
 21
6593.604350697113
 31
0.0
  0
LINE
  5
964
330
1F
100
AcDbEntity
  8
1
  6
Continuous
 62
     7
100
AcDbLine
 10
2002.887454914551
 20
6513.604350697113
 30
0.0
 11
2177.087454914551
 21
6513.604350697113
 31
0.0
  0
ARC
  5
965
330
1F
100
AcDbEntity
  8
1
  6
Continuous
 62
     7
100
AcDbCircle
 10
2147.087454914552
 20
6403.604350697114
 30
0.0
 40
30.0
100
AcDbArc
 50
197.0607585312986
 51
107.9165167420129
  0
ARC
  5
966
330
1F
100
AcDbEntity
  8
1
  6
Continuous
 62
     7
100
AcDbCircle
 10
2056.078612854151
 20
6478.604350697114
 30
0.0
 40
35.0
100
AcDbArc
 50
17.06075853129859
 51
243.4510869494117
  0
LINE
  5
967
330
1F
100
AcDbEntity
  8
1
  6
Continuous
 62
     7
100
AcDbLine
 10
2089.538409039451
 20
6488.872848115814
 30
0.0
 11
2118.407629612852
 21
6394.802781481013
 31
0.0
  0
ARC
  5
968
330
1F
100
AcDbEntity
  8
1
  6
Continuous
 62
     7
100
AcDbCircle
 10
2308.687454914551
 20
6403.604350697114
 30
0.0
 40
30.0
100
AcDbArc
 50
72.08348325798707
 51
342.9392414687014
  0
LINE
  5
969
330
1F
100
AcDbEntity
  8
1
  6
Continuous
 62
     7
100
AcDbLine
 10
2207.887454914551
 20
6513.604350697113
 30
0.0
 11
2247.887454914551
 21
6513.604350697113
 31
0.0
  0
LINE
  5
96A
330
1F
100
AcDbEntity
  8
1
  6
Continuous
 62
     7
100
AcDbLine
 10
2177.087454914551
 20
6373.604350697113
 30
0.0
 11
2278.687454914551
 21
6373.604350697113
 31
0.0
  0
ARC
  5
96B
330
1F
100
AcDbEntity
  8
1
  6
Continuous
 62
     7
100
AcDbCircle
 10
2399.696296975051
 20
6478.604350697112
 30
0.0
 40
35.0
100
AcDbArc
 50
296.5489130506115
 51
162.9392414687014
  0
LINE
  5
96C
330
1F
100
AcDbEntity
  8
1
  6
Continuous
 62
     7
100
AcDbLine
 10
2366.236500789652
 20
6488.872848115814
 30
0.0
 11
2337.367280216251
 21
6394.802781481013
 31
0.0
  0
ARC
  5
96D
330
1F
100
AcDbEntity
  8
1
  6
Continuous
 62
     7
100
AcDbCircle
 10
2227.887454914551
 20
6813.604350697113
 30
0.0
 40
180.0
100
AcDbArc
 50
231.0575587309925
 51
263.4375721314091
  0
LINE
  5
96E
330
1F
100
AcDbEntity
  8
1
  6
Continuous
 62
     7
100
AcDbLine
 10
2207.887454914551
 20
6673.604350697113
 30
0.0
 11
2114.750369924751
 21
6673.604350697113
 31
0.0
  0
ARC
  5
96F
330
1F
100
AcDbEntity
  8
1
  6
Continuous
 62
     7
100
AcDbCircle
 10
2227.887454914551
 20
6813.604350697113
 30
0.0
 40
175.0
100
AcDbArc
 50
96.56242786859088
 51
233.130102354195
  0
LINE
  5
970
330
1F
100
AcDbEntity
  8
1
  6
Continuous
 62
     7
100
AcDbLine
 10
2002.887454914551
 20
7045.823290442014
 30
0.0
 11
2207.887454914551
 21
7045.823290442014
 31
0.0
  0
LINE
  5
971
330
1F
100
AcDbEntity
  8
1
  6
Continuous
 62
     7
100
AcDbLine
 10
2030.466897583151
 20
6553.604350697113
 30
0.0
 11
2177.087454914551
 21
6553.604350697113
 31
0.0
  0
LINE
  5
972
330
1F
100
AcDbEntity
  8
1
  6
Continuous
 62
     7
100
AcDbLine
 10
2030.466897583151
 20
6553.604350697113
 30
0.0
 11
1885.901680191851
 21
6933.604350697113
 31
0.0
  0
LINE
  5
973
330
1F
100
AcDbEntity
  8
1
  6
Continuous
 62
     7
100
AcDbLine
 10
1923.092441831951
 20
6933.604350697113
 30
0.0
 11
1885.901680191851
 21
6933.604350697113
 31
0.0
  0
ARC
  5
974
330
1F
100
AcDbEntity
  8
1
  6
Continuous
 62
     7
100
AcDbCircle
 10
1895.378888425252
 20
7055.030189295713
 30
0.0
 40
24.0
100
AcDbArc
 50
284.8516484109914
 51
196.2234121868016
  0
ARC
  5
975
330
1F
100
AcDbEntity
  8
1
  6
Continuous
 62
     7
100
AcDbCircle
 10
2227.887454914551
 20
6813.604350697113
 30
0.0
 40
175.0
100
AcDbArc
 50
306.8698976458049
 51
83.43757213140913
  0
ARC
  5
976
330
1F
100
AcDbEntity
  8
1
  6
Continuous
 62
     7
100
AcDbCircle
 10
2227.887454914551
 20
6813.604350697113
 30
0.0
 40
180.0
100
AcDbArc
 50
276.5624278685909
 51
308.9424412690075
  0
LINE
  5
977
330
1F
100
AcDbEntity
  8
1
  6
Continuous
 62
     7
100
AcDbLine
 10
2247.887454914551
 20
6673.604350697113
 30
0.0
 11
2341.02453990445
 21
6673.604350697113
 31
0.0
  0
LINE
  5
978
330
1F
100
AcDbEntity
  8
1
  6
Continuous
 62
     7
100
AcDbLine
 10
2278.687454914551
 20
6553.604350697113
 30
0.0
 11
2425.308012245951
 21
6553.604350697113
 31
0.0
  0
LINE
  5
979
330
1F
100
AcDbEntity
  8
1
  6
Continuous
 62
     7
100
AcDbLine
 10
2202.887454914551
 20
6635.348915997314
 30
0.0
 11
2202.887454914551
 21
6593.604350697113
 31
0.0
  0
LINE
  5
97A
330
1F
100
AcDbEntity
  8
1
  6
Continuous
 62
     7
100
AcDbLine
 10
2177.087454914551
 20
6593.604350697113
 30
0.0
 11
2207.887454914551
 21
6593.604350697113
 31
0.0
  0
LINE
  5
97B
330
1F
100
AcDbEntity
  8
1
  6
Continuous
 62
     7
100
AcDbLine
 10
2252.887454914551
 20
6635.348915997314
 30
0.0
 11
2252.887454914551
 21
6593.604350697113
 31
0.0
  0
LINE
  5
97C
330
1F
100
AcDbEntity
  8
1
  6
Continuous
 62
     7
100
AcDbLine
 10
2247.887454914551
 20
6593.604350697113
 30
0.0
 11
2278.687454914551
 21
6593.604350697113
 31
0.0
  0
POLYLINE
  5
97D
330
1F
100
AcDbEntity
  8
1
  6
HIDDEN
 62
     7
100
AcDb2dPolyline
 66
     1
 10
0.0
 20
0.0
 30
0.0
 70
     1
  0
VERTEX
  5
97E
330
97D
100
AcDbEntity
  8
1
  6
HIDDEN
 62
     7
100
AcDbVertex
100
AcDb2dVertex
 10
2227.887454914551
 20
6883.604350697114
 30
0.0
 42
0.1770956581
  0
VERTEX
  5
97F
330
97D
100
AcDbEntity
  8
1
  6
HIDDEN
 62
     7
100
AcDbVertex
100
AcDb2dVertex
 10
2209.104483902751
 20
6876.214254069913
 30
0.0
 42
0.0834152553
  0
VERTEX
  5
980
330
97D
100
AcDbEntity
  8
1
  6
HIDDEN
 62
     7
100
AcDbVertex
100
AcDb2dVertex
 10
2198.188970103152
 20
6863.101825382713
 30
0.0
 42
0.0618539634
  0
VERTEX
  5
981
330
97D
100
AcDbEntity
  8
1
  6
HIDDEN
 62
     7
100
AcDbVertex
100
AcDb2dVertex
 10
2190.321512890851
 20
6844.909302383515
 30
0.0
 42
0.0722817213
  0
VERTEX
  5
982
330
97D
100
AcDbEntity
  8
1
  6
HIDDEN
 62
     7
100
AcDbVertex
100
AcDb2dVertex
 10
2185.887454914551
 20
6813.604350697113
 30
0.0
 42
0.0722817213
  0
VERTEX
  5
983
330
97D
100
AcDbEntity
  8
1
  6
HIDDEN
 62
     7
100
AcDbVertex
100
AcDb2dVertex
 10
2190.321512890851
 20
6782.299399010714
 30
0.0
 42
0.0618539634
  0
VERTEX
  5
984
330
97D
100
AcDbEntity
  8
1
  6
HIDDEN
 62
     7
100
AcDbVertex
100
AcDb2dVertex
 10
2198.188970103152
 20
6764.106876011514
 30
0.0
 42
0.0834152553
  0
VERTEX
  5
985
330
97D
100
AcDbEntity
  8
1
  6
HIDDEN
 62
     7
100
AcDbVertex
100
AcDb2dVertex
 10
2209.104483902751
 20
6750.994447324313
 30
0.0
 42
0.1770956581
  0
VERTEX
  5
986
330
97D
100
AcDbEntity
  8
1
  6
HIDDEN
 62
     7
100
AcDbVertex
100
AcDb2dVertex
 10
2227.887454914551
 20
6743.604350697113
 30
0.0
 42
0.1770956581
  0
VERTEX
  5
987
330
97D
100
AcDbEntity
  8
1
  6
HIDDEN
 62
     7
100
AcDbVertex
100
AcDb2dVertex
 10
2246.670425926351
 20
6750.994447324313
 30
0.0
 42
0.0834152553
  0
VERTEX
  5
988
330
97D
100
AcDbEntity
  8
1
  6
HIDDEN
 62
     7
100
AcDbVertex
100
AcDb2dVertex
 10
2257.585939725952
 20
6764.106876011514
 30
0.0
 42
0.0618539634
  0
VERTEX
  5
989
330
97D
100
AcDbEntity
  8
1
  6
HIDDEN
 62
     7
100
AcDbVertex
100
AcDb2dVertex
 10
2265.453396938252
 20
6782.299399010714
 30
0.0
 42
0.0722817213
  0
VERTEX
  5
98A
330
97D
100
AcDbEntity
  8
1
  6
HIDDEN
 62
     7
100
AcDbVertex
100
AcDb2dVertex
 10
2269.887454914551
 20
6813.604350697113
 30
0.0
 42
0.0722817213
  0
VERTEX
  5
98B
330
97D
100
AcDbEntity
  8
1
  6
HIDDEN
 62
     7
100
AcDbVertex
100
AcDb2dVertex
 10
2265.453396938252
 20
6844.909302383515
 30
0.0
 42
0.0618539634
  0
VERTEX
  5
98C
330
97D
100
AcDbEntity
  8
1
  6
HIDDEN
 62
     7
100
AcDbVertex
100
AcDb2dVertex
 10
2257.585939725952
 20
6863.101825382713
 30
0.0
 42
0.0834152553
  0
VERTEX
  5
98D
330
97D
100
AcDbEntity
  8
1
  6
HIDDEN
 62
     7
100
AcDbVertex
100
AcDb2dVertex
 10
2246.670425926351
 20
6876.214254069913
 30
0.0
 42
0.1770956581
  0
SEQEND
  5
98E
330
97D
100
AcDbEntity
  8
1
  6
HIDDEN
 62
     7
  0
LINE
  5
98F
330
1F
100
AcDbEntity
  8
1
  6
Continuous
 62
     7
100
AcDbLine
 10
2212.887454914551
 20
7273.604350697114
 30
0.0
 11
2242.887454914551
 21
7273.604350697114
 31
0.0
  0
LINE
  5
990
330
1F
100
AcDbEntity
  8
1
  6
Continuous
 62
     7
100
AcDbLine
 10
2177.980335064451
 20
7240.271017363913
 30
0.0
 11
2207.794574764652
 21
7206.937684030314
 31
0.0
  0
LINE
  5
991
330
1F
100
AcDbEntity
  8
1
  6
Continuous
 62
     7
100
AcDbLine
 10
2212.887454914551
 20
7173.302011665713
 30
0.0
 11
2212.887454914551
 21
7273.604350697114
 31
0.0
  0
ARC
  5
992
330
1F
100
AcDbEntity
  8
1
  6
Continuous
 62
     7
100
AcDbCircle
 10
2192.887454914551
 20
7253.604350697114
 30
0.0
 40
20.0
100
AcDbArc
 50
346.8816407037985
 51
221.8103148957981
  0
ARC
  5
993
330
1F
100
AcDbEntity
  8
1
  6
Continuous
 62
     7
100
AcDbCircle
 10
2192.887454914551
 20
7193.604350697113
 30
0.0
 40
20.0
100
AcDbArc
 50
150.7446174288021
 51
41.8103148954913
  0
LINE
  5
994
330
1F
100
AcDbEntity
  8
1
  6
Continuous
 62
     7
100
AcDbLine
 10
2242.887454914551
 20
7273.604350697114
 30
0.0
 11
2242.887454914551
 21
7173.302011665713
 31
0.0
  0
LINE
  5
995
330
1F
100
AcDbEntity
  8
1
  6
Continuous
 62
     7
100
AcDbLine
 10
2277.794574764752
 20
7240.271017363913
 30
0.0
 11
2247.98033506445
 21
7206.937684030314
 31
0.0
  0
ARC
  5
996
330
1F
100
AcDbEntity
  8
1
  6
Continuous
 62
     7
100
AcDbCircle
 10
2262.887454914551
 20
7253.604350697114
 30
0.0
 40
20.0
100
AcDbArc
 50
318.189685104202
 51
193.1183592962014
  0
ARC
  5
997
330
1F
100
AcDbEntity
  8
1
  6
Continuous
 62
     7
100
AcDbCircle
 10
2262.887454914551
 20
7193.604350697113
 30
0.0
 40
20.0
100
AcDbArc
 50
138.1896851045086
 51
29.25538257119784
  0
LINE
  5
998
330
1F
100
AcDbEntity
  8
1
  6
Continuous
 62
     7
100
AcDbLine
 10
2452.887454914551
 20
6513.604350697113
 30
0.0
 11
2627.887454914552
 21
6973.604350697114
 31
0.0
  0
LINE
  5
999
330
1F
100
AcDbEntity
  8
1
  6
Continuous
 62
     7
100
AcDbLine
 10
2532.682467997151
 20
6933.604350697113
 30
0.0
 11
2569.873229637251
 21
6933.604350697113
 31
0.0
  0
LINE
  5
99A
330
1F
100
AcDbEntity
  8
1
  6
Continuous
 62
     7
100
AcDbLine
 10
2554.244409028552
 20
7031.831963820813
 30
0.0
 11
2595.837117723051
 21
7020.802576172013
 31
0.0
  0
LINE
  5
99B
330
1F
100
AcDbEntity
  8
1
  6
Continuous
 62
     7
100
AcDbLine
 10
2557.887454914551
 20
6973.604350697114
 30
0.0
 11
2627.887454914552
 21
6973.604350697114
 31
0.0
  0
ARC
  5
99C
330
1F
100
AcDbEntity
  8
1
  6
Continuous
 62
     7
100
AcDbCircle
 10
2589.685505347751
 20
6997.604350697113
 30
0.0
 40
24.0
100
AcDbArc
 50
167.7876121010997
 51
75.14835158900855
  0
ARC
  5
99D
330
1F
100
AcDbEntity
  8
1
  6
Continuous
 62
     7
100
AcDbCircle
 10
2560.396021403851
 20
7055.030189295712
 30
0.0
 40
24.0
100
AcDbArc
 50
343.7765878131984
 51
255.1483515890086
  0
POINT
  5
A48
330
1F
100
AcDbEntity
  8
0
 62
     7
 60
     1
100
AcDbPoint
 10
-2257.74223822696
 20
175.1010822939617
 30
0.0
1001
GENIUS_GENODEF_13
1002
{
1000
HIER
1070
     1
1002
}
1002
{
1000
MANEDIT
1070
     0
1002
}
1002
{
1000
NOSEL
1070
     0
1002
}
1002
{
1000
BEHIND
1070
     0
1002
}
1002
{
1000
OTHER
1070
     0
1002
}
1002
{
1000
REACTOR
1002
}
1001
GENIUS_GENOLIS_13
1002
{
1000
ENT
1005
8F7
1005
900
1002
}
1001
GENIUS_GENOENT_13
1002
{
1000
MYREF
1005
A48
1002
}
1002
{
1000
GRP
1005
0
1002
}
1001
GENIUS_GENOBJ-N-TIT_13
1002
{
1000
OWNER
1000
GEN
1002
}
1001
GENIUS_GENTITLE_13
1002
{
1000
BORDER
1000
D:\Program Files\Acadm 2000i\acadm\Gen\Dwg\Format\igs_a3t
1002
}
1002
{
1000
TITLE
1000
D:\Program Files\Acadm 2000i\acadm\Gen\Dwg\Title\IGS2
1002
}
1002
{
1000
SCALE
1000
1:20
1002
}
1002
{
1000
TITLESTD
1000
JIS
1002
}
1002
{
1000
HRA
1005
900
1002
}
1002
{
1000
HTIT
1005
8F7
1002
}
1002
{
1000
UNCHG
1002
{
1000
GEN-TITLE-SIZ
1000
GEN-TITLE-SCA
1002
}
1002
}
1002
{
1000
GENIUSID
1005
A48
1002
}
  0
LINE
  5
ECD
330
1F
100
AcDbEntity
  8
7
100
AcDbLine
 10
2104.143768206703
 20
2750.370135438133
 30
0.0
 11
2104.143768206477
 21
2145.604350697183
 31
0.0
  0
LINE
  5
ECE
330
1F
100
AcDbEntity
  8
0
100
AcDbLine
 10
2096.143768206637
 20
2575.404350697159
 30
0.0
 11
2096.143768206526
 21
2278.604350697159
 31
0.0
  0
LINE
  5
ECF
330
1F
100
AcDbEntity
  8
0
100
AcDbLine
 10
2112.143768206637
 20
2575.404350697153
 30
0.0
 11
2112.143768206526
 21
2278.604350697154
 31
0.0
  0
LINE
  5
ED0
330
1F
100
AcDbEntity
  8
0
100
AcDbLine
 10
2112.143768206526
 20
2275.404350697177
 30
0.0
 11
2112.143768206477
 21
2145.604350697181
 31
0.0
  0
LINE
  5
ED1
330
1F
100
AcDbEntity
  8
0
100
AcDbLine
 10
2096.143768206526
 20
2275.404350697182
 30
0.0
 11
2096.143768206477
 21
2145.604350697186
 31
0.0
  0
LINE
  5
ED2
330
1F
100
AcDbEntity
  8
0
100
AcDbLine
 10
2112.143768206526
 20
2275.404350697153
 30
0.0
 11
2112.143768206506
 21
2223.604350697181
 31
0.0
  0
LINE
  5
ED3
330
1F
100
AcDbEntity
  8
0
100
AcDbLine
 10
2096.143768206526
 20
2275.404350697158
 30
0.0
 11
2096.143768206506
 21
2223.604350697186
 31
0.0
  0
CIRCLE
  5
ED4
330
1F
100
AcDbEntity
  8
0
100
AcDbCircle
 10
2128.604350697971
 20
-1463.080204418082
 30
1463.080204418059
 40
7.999999999996362
210
0.7071067811865476
220
-0.0000000000002656
230
0.7071067811865476
  0
ARC
  5
ED5
330
1F
100
AcDbEntity
  8
7
100
AcDbCircle
 10
2087.143768206477
 20
2145.604350697189
 30
0.0
 40
17.0
100
AcDbArc
 50
269.999999999987
 51
0.0
1001
GENIUS_GENODEF_13
1002
{
1000
HIER
1070
     0
1002
}
1002
{
1000
MANEDIT
1070
     0
1002
}
1002
{
1000
NOSEL
1070
     0
1002
}
1002
{
1000
BEHIND
1070
     0
1002
}
1002
{
1000
REACTOR
1002
}
1001
GENIUS_GENOBJ-N-FIL_13
1002
{
1000
OWNER
1000
GEN
1002
}
  0
ARC
  5
ED6
330
1F
100
AcDbEntity
  8
0
100
AcDbCircle
 10
2087.143768206477
 20
2145.604350697189
 30
0.0
 40
25.0
100
AcDbArc
 50
269.999999999987
 51
0.0
1001
GENIUS_GENODEF_13
1002
{
1000
HIER
1070
     0
1002
}
1002
{
1000
MANEDIT
1070
     0
1002
}
1002
{
1000
NOSEL
1070
     0
1002
}
1002
{
1000
BEHIND
1070
     0
1002
}
1002
{
1000
REACTOR
1002
}
1001
GENIUS_GENOBJ-N-FIL_13
1002
{
1000
OWNER
1000
GEN
1002
}
  0
LINE
  5
ED7
330
1F
100
AcDbEntity
  8
0
100
AcDbLine
 10
2069.107867928422
 20
2136.604350697192
 30
0.0
 11
2087.143768206475
 21
2136.60435069719
 31
0.0
  0
ARC
  5
ED8
330
1F
100
AcDbEntity
  8
0
100
AcDbCircle
 10
2087.143768206477
 20
2145.604350697189
 30
0.0
 40
9.0
100
AcDbArc
 50
269.999999999987
 51
0.0
1001
GENIUS_GENODEF_13
1002
{
1000
HIER
1070
     0
1002
}
1002
{
1000
MANEDIT
1070
     0
1002
}
1002
{
1000
NOSEL
1070
     0
1002
}
1002
{
1000
BEHIND
1070
     0
1002
}
1002
{
1000
REACTOR
1002
}
1001
GENIUS_GENOBJ-N-FIL_13
1002
{
1000
OWNER
1000
GEN
1002
}
  0
LINE
  5
ED9
330
1F
100
AcDbEntity
  8
7
100
AcDbLine
 10
2059.107867928418
 20
2128.604350697201
 30
0.0
 11
2087.14376820647
 21
2128.60435069719
 31
0.0
  0
LINE
  5
EDA
330
1F
100
AcDbEntity
  8
0
100
AcDbLine
 10
2069.107867928415
 20
2120.604350697192
 30
0.0
 11
2087.14376820647
 21
2120.60435069719
 31
0.0
  0
LINE
  5
EDB
330
1F
100
AcDbEntity
  8
0
100
AcDbLine
 10
2085.143768206526
 20
2278.604350697163
 30
0.0
 11
2227.387454914453
 21
2278.604350697109
 31
0.0
  0
LINE
  5
EDC
330
1F
100
AcDbEntity
  8
0
100
AcDbLine
 10
2085.143768206526
 20
2275.404350697164
 30
0.0
 11
2227.387454914451
 21
2275.40435069711
 31
0.0
  0
LINE
  5
EDD
330
1F
100
AcDbEntity
  8
0
100
AcDbLine
 10
2085.143768206526
 20
2278.604350697186
 30
0.0
 11
2085.143768206526
 21
2275.404350697188
 31
0.0
  0
LINE
  5
EDE
330
1F
100
AcDbEntity
  8
0
100
AcDbLine
 10
2085.143768206639
 20
2578.604350697163
 30
0.0
 11
2227.387454914566
 21
2578.60435069711
 31
0.0
  0
LINE
  5
EDF
330
1F
100
AcDbEntity
  8
0
100
AcDbLine
 10
2085.143768206637
 20
2575.404350697164
 30
0.0
 11
2227.387454914564
 21
2575.404350697109
 31
0.0
  0
LINE
  5
EE0
330
1F
100
AcDbEntity
  8
0
100
AcDbLine
 10
2096.143768206668
 20
2658.804350697149
 30
0.0
 11
2096.143768206639
 21
2578.604350697159
 31
0.0
  0
LINE
  5
EE1
330
1F
100
AcDbEntity
  8
0
100
AcDbLine
 10
2112.143768206668
 20
2658.804350697144
 30
0.0
 11
2112.143768206639
 21
2578.604350697154
 31
0.0
  0
LINE
  5
EE2
330
1F
100
AcDbEntity
  8
0
100
AcDbLine
 10
2085.143768206639
 20
2578.604350697187
 30
0.0
 11
2085.143768206637
 21
2575.404350697187
 31
0.0
  0
LINE
  5
EE3
330
1F
100
AcDbEntity
  8
7
100
AcDbLine
 10
2351.6311416225
 20
2750.370135438133
 30
0.0
 11
2351.631141622498
 21
2145.604350697137
 31
0.0
  0
LINE
  5
EE4
330
1F
100
AcDbEntity
  8
0
100
AcDbLine
 10
2343.6311416225
 20
2575.404350697109
 30
0.0
 11
2343.631141622498
 21
2278.60435069711
 31
0.0
  0
LINE
  5
EE5
330
1F
100
AcDbEntity
  8
0
100
AcDbLine
 10
2359.6311416225
 20
2575.404350697109
 30
0.0
 11
2359.631141622498
 21
2278.60435069711
 31
0.0
  0
LINE
  5
EE6
330
1F
100
AcDbEntity
  8
0
100
AcDbLine
 10
2370.631141622498
 20
2275.40435069711
 30
0.0
 11
2227.887454914551
 21
2275.40435069711
 31
0.0
  0
LINE
  5
EE7
330
1F
100
AcDbEntity
  8
0
100
AcDbLine
 10
2370.631141622498
 20
2278.60435069711
 30
0.0
 11
2227.887454914551
 21
2278.60435069711
 31
0.0
  0
LINE
  5
EE8
330
1F
100
AcDbEntity
  8
0
100
AcDbLine
 10
2343.631141622498
 20
2275.404350697133
 30
0.0
 11
2343.631141622498
 21
2145.604350697137
 31
0.0
  0
LINE
  5
EE9
330
1F
100
AcDbEntity
  8
0
100
AcDbLine
 10
2359.631141622498
 20
2275.404350697133
 30
0.0
 11
2359.631141622498
 21
2145.604350697137
 31
0.0
  0
LINE
  5
EEA
330
1F
100
AcDbEntity
  8
0
100
AcDbLine
 10
2359.631141622498
 20
2275.40435069711
 30
0.0
 11
2359.631141622498
 21
2223.604350697137
 31
0.0
  0
LINE
  5
EEB
330
1F
100
AcDbEntity
  8
0
100
AcDbLine
 10
2343.631141622498
 20
2275.40435069711
 30
0.0
 11
2343.631141622498
 21
2223.604350697137
 31
0.0
  0
LINE
  5
EEC
330
1F
100
AcDbEntity
  8
0
100
AcDbLine
 10
2386.667041900549
 20
2120.604350697134
 30
0.0
 11
2368.631141622496
 21
2120.604350697137
 31
0.0
  0
LINE
  5
EED
330
1F
100
AcDbEntity
  8
0
100
AcDbLine
 10
2386.667041900549
 20
2136.604350697134
 30
0.0
 11
2368.631141622498
 21
2136.604350697137
 31
0.0
  0
ARC
  5
EEE
330
1F
100
AcDbEntity
  8
7
100
AcDbCircle
 10
2368.6311416225
 20
2145.604350697137
 30
0.0
 40
17.0
100
AcDbArc
 50
180.0
 51
269.999999999987
1001
GENIUS_GENODEF_13
1002
{
1000
HIER
1070
     0
1002
}
1002
{
1000
MANEDIT
1070
     0
1002
}
1002
{
1000
NOSEL
1070
     0
1002
}
1002
{
1000
BEHIND
1070
     0
1002
}
1002
{
1000
REACTOR
1002
}
1001
GENIUS_GENOBJ-N-FIL_13
1002
{
1000
OWNER
1000
GEN
1002
}
  0
ARC
  5
EEF
330
1F
100
AcDbEntity
  8
0
100
AcDbCircle
 10
2368.6311416225
 20
2145.604350697137
 30
0.0
 40
25.0
100
AcDbArc
 50
180.0
 51
269.999999999987
1001
GENIUS_GENODEF_13
1002
{
1000
HIER
1070
     0
1002
}
1002
{
1000
MANEDIT
1070
     0
1002
}
1002
{
1000
NOSEL
1070
     0
1002
}
1002
{
1000
BEHIND
1070
     0
1002
}
1002
{
1000
REACTOR
1002
}
1001
GENIUS_GENOBJ-N-FIL_13
1002
{
1000
OWNER
1000
GEN
1002
}
  0
ARC
  5
EF0
330
1F
100
AcDbEntity
  8
0
100
AcDbCircle
 10
2368.6311416225
 20
2145.604350697137
 30
0.0
 40
9.0
100
AcDbArc
 50
180.0
 51
269.999999999987
1001
GENIUS_GENODEF_13
1002
{
1000
HIER
1070
     0
1002
}
1002
{
1000
MANEDIT
1070
     0
1002
}
1002
{
1000
NOSEL
1070
     0
1002
}
1002
{
1000
BEHIND
1070
     0
1002
}
1002
{
1000
REACTOR
1002
}
1001
GENIUS_GENOBJ-N-FIL_13
1002
{
1000
OWNER
1000
GEN
1002
}
  0
CIRCLE
  5
EF1
330
1F
100
AcDbEntity
  8
0
100
AcDbCircle
 10
-2128.604350697137
 20
1687.628449762294
 30
-1687.628449762315
 40
7.999999999996362
210
-0.7071067811865476
220
0.0000000000000001
230
0.7071067811865476
  0
LINE
  5
EF2
330
1F
100
AcDbEntity
  8
7
100
AcDbLine
 10
2396.66704190055
 20
2128.604350697138
 30
0.0
 11
2368.631141622498
 21
2128.604350697138
 31
0.0
  0
LINE
  5
EF3
330
1F
100
AcDbEntity
  8
0
100
AcDbLine
 10
2370.631141622498
 20
2278.604350697134
 30
0.0
 11
2370.631141622498
 21
2275.404350697133
 31
0.0
  0
LINE
  5
EF4
330
1F
100
AcDbEntity
  8
0
100
AcDbLine
 10
2370.6311416225
 20
2575.404350697109
 30
0.0
 11
2227.887454914551
 21
2575.404350697109
 31
0.0
  0
LINE
  5
EF5
330
1F
100
AcDbEntity
  8
0
100
AcDbLine
 10
2370.6311416225
 20
2578.60435069711
 30
0.0
 11
2227.887454914551
 21
2578.60435069711
 31
0.0
  0
LINE
  5
EF6
330
1F
100
AcDbEntity
  8
0
100
AcDbLine
 10
2343.6311416225
 20
2658.8043506971
 30
0.0
 11
2343.6311416225
 21
2578.60435069711
 31
0.0
  0
LINE
  5
EF7
330
1F
100
AcDbEntity
  8
0
100
AcDbLine
 10
2359.6311416225
 20
2658.8043506971
 30
0.0
 11
2359.6311416225
 21
2578.60435069711
 31
0.0
  0
LINE
  5
EF8
330
1F
100
AcDbEntity
  8
0
100
AcDbLine
 10
2370.6311416225
 20
2578.604350697134
 30
0.0
 11
2370.6311416225
 21
2575.404350697133
 31
0.0
  0
LINE
  5
EF9
330
1F
100
AcDbEntity
  8
0N
100
AcDbLine
 10
2341.236140668943
 20
2658.8043506971
 30
0.0
 11
2362.026140668942
 21
2658.8043506971
 31
0.0
  0
LINE
  5
EFA
330
1F
100
AcDbEntity
  8
0N
100
AcDbLine
 10
2344.701140668943
 20
2672.415350671591
 30
0.0
 11
2344.701140668943
 21
2659.993350722608
 31
0.0
  0
LINE
  5
EFB
330
1F
100
AcDbEntity
  8
0N
100
AcDbLine
 10
2337.771140668943
 20
2672.415350671591
 30
0.0
 11
2337.771140668943
 21
2659.993350722608
 31
0.0
  0
LINE
  5
EFC
330
1F
100
AcDbEntity
  8
0N
100
AcDbLine
 10
2358.561140668943
 20
2672.415350671591
 30
0.0
 11
2358.561140668943
 21
2659.993350722608
 31
0.0
  0
LINE
  5
EFD
330
1F
100
AcDbEntity
  8
0N
100
AcDbLine
 10
2365.491140668943
 20
2672.415350671591
 30
0.0
 11
2365.491140668943
 21
2659.993350722608
 31
0.0
  0
LINE
  5
EFE
330
1F
100
AcDbEntity
  8
0N
100
AcDbLine
 10
2341.236142576292
 20
2673.604350697099
 30
0.0
 11
2362.026142576291
 21
2673.604350697099
 31
0.0
  0
LINE
  5
EFF
330
1F
100
AcDbEntity
  8
0N
100
AcDbLine
 10
2341.236140668943
 20
2673.604350697099
 30
0.0
 11
2362.026140668942
 21
2673.604350697099
 31
0.0
  0
ARC
  5
F00
330
1F
100
AcDbEntity
  8
0N
100
AcDbCircle
 10
2362.026140668945
 20
2667.960975687533
 30
0.0
 40
5.643375009565676
100
AcDbArc
 50
89.99999999999998
 51
127.8788794917024
  0
ARC
  5
F01
330
1F
100
AcDbEntity
  8
0N
100
AcDbCircle
 10
2341.236140668943
 20
2667.960975687533
 30
0.0
 40
5.643375009565676
100
AcDbArc
 50
52.12112050829755
 51
89.99999999999998
  0
ARC
  5
F02
330
1F
100
AcDbEntity
  8
0N
100
AcDbCircle
 10
2351.631140668944
 20
2652.814350697099
 30
0.0
 40
20.79
100
AcDbArc
 50
70.52877936551642
 51
109.4712206344835
  0
ARC
  5
F03
330
1F
100
AcDbEntity
  8
0N
100
AcDbCircle
 10
2362.026140668945
 20
2667.960975687533
 30
0.0
 40
5.643375009565676
100
AcDbArc
 50
52.12112050829755
 51
89.99999999999998
  0
ARC
  5
F04
330
1F
100
AcDbEntity
  8
0N
100
AcDbCircle
 10
2341.236140668943
 20
2667.960975687533
 30
0.0
 40
5.643375009565676
100
AcDbArc
 50
89.99999999999998
 51
127.8788794917024
  0
ARC
  5
F05
330
1F
100
AcDbEntity
  8
0N
100
AcDbCircle
 10
2341.236140668943
 20
2664.447725706665
 30
0.0
 40
5.643375009565689
100
AcDbArc
 50
270.0
 51
307.8788794917024
  0
ARC
  5
F06
330
1F
100
AcDbEntity
  8
0N
100
AcDbCircle
 10
2341.236140668943
 20
2664.447725706665
 30
0.0
 40
5.643375009565689
100
AcDbArc
 50
232.1211205082975
 51
270.0
  0
ARC
  5
F07
330
1F
100
AcDbEntity
  8
0N
100
AcDbCircle
 10
2362.026140668945
 20
2664.447725706665
 30
0.0
 40
5.643375009565689
100
AcDbArc
 50
232.1211205082975
 51
270.0
  0
ARC
  5
F08
330
1F
100
AcDbEntity
  8
0N
100
AcDbCircle
 10
2362.026140668945
 20
2664.447725706665
 30
0.0
 40
5.643375009565689
100
AcDbArc
 50
270.0
 51
307.8788794917024
  0
ARC
  5
F09
330
1F
100
AcDbEntity
  8
0N
100
AcDbCircle
 10
2351.631140668944
 20
2679.594350697098
 30
0.0
 40
20.79
100
AcDbArc
 50
250.5287793655164
 51
289.4712206344836
  0
LINE
  5
F0A
330
1F
100
AcDbEntity
  8
1
100
AcDbLine
 10
2339.480138823816
 20
2706.684505375522
 30
0.0
 11
2339.480138823816
 21
2706.1241966432
 31
0.0
  0
LINE
  5
F0B
330
1F
100
AcDbEntity
  8
1
100
AcDbLine
 10
2339.480138823816
 20
2691.884504751027
 30
0.0
 11
2339.480138823816
 21
2691.60435069709
 31
0.0
  0
LINE
  5
F0C
330
1F
100
AcDbEntity
  8
0
100
AcDbLine
 10
2359.6311416225
 20
2731.604350697114
 30
0.0
 11
2343.6311416225
 21
2731.604350697114
 31
0.0
  0
ARC
  5
F0D
330
1F
100
AcDbEntity
  8
0N
100
AcDbCircle
 10
2341.236142576105
 20
2715.560975687548
 30
0.0
 40
5.643375009565676
100
AcDbArc
 50
89.99999999999998
 51
127.8788794917024
  0
ARC
  5
F0E
330
1F
100
AcDbEntity
  8
0N
100
AcDbCircle
 10
2362.026142576105
 20
2715.560975687548
 30
0.0
 40
5.643375009565676
100
AcDbArc
 50
52.12112050829755
 51
89.99999999999998
  0
ARC
  5
F0F
330
1F
100
AcDbEntity
  8
0N
100
AcDbCircle
 10
2351.631142576105
 20
2700.414350697112
 30
0.0
 40
20.79
100
AcDbArc
 50
70.52877936551642
 51
109.4712206344835
  0
ARC
  5
F10
330
1F
100
AcDbEntity
  8
0N
100
AcDbCircle
 10
2341.236142576105
 20
2715.560975687548
 30
0.0
 40
5.643375009565676
100
AcDbArc
 50
52.12112050829755
 51
89.99999999999998
  0
ARC
  5
F11
330
1F
100
AcDbEntity
  8
0N
100
AcDbCircle
 10
2362.026142576105
 20
2715.560975687548
 30
0.0
 40
5.643375009565676
100
AcDbArc
 50
89.99999999999998
 51
127.8788794917024
  0
LINE
  5
F12
330
1F
100
AcDbEntity
  8
0N
100
AcDbLine
 10
2341.236142576105
 20
2706.404350697113
 30
0.0
 11
2362.026142576103
 21
2706.404350697113
 31
0.0
  0
ARC
  5
F13
330
1F
100
AcDbEntity
  8
0N
100
AcDbCircle
 10
2351.631142576105
 20
2727.194350697113
 30
0.0
 40
20.79
100
AcDbArc
 50
250.5287793655164
 51
289.4712206344836
  0
ARC
  5
F14
330
1F
100
AcDbEntity
  8
0N
100
AcDbCircle
 10
2362.026142576105
 20
2712.047725706678
 30
0.0
 40
5.643375009565689
100
AcDbArc
 50
270.0
 51
307.8788794917024
  0
LINE
  5
F15
330
1F
100
AcDbEntity
  8
0N
100
AcDbLine
 10
2365.491142576104
 20
2720.015350671604
 30
0.0
 11
2365.491142576104
 21
2707.593350722623
 31
0.0
  0
ARC
  5
F16
330
1F
100
AcDbEntity
  8
0N
100
AcDbCircle
 10
2362.026142576105
 20
2712.047725706678
 30
0.0
 40
5.643375009565689
100
AcDbArc
 50
232.1211205082975
 51
270.0
  0
LINE
  5
F17
330
1F
100
AcDbEntity
  8
0N
100
AcDbLine
 10
2358.561142576105
 20
2720.015350671604
 30
0.0
 11
2358.561142576105
 21
2707.593350722623
 31
0.0
  0
ARC
  5
F18
330
1F
100
AcDbEntity
  8
0N
100
AcDbCircle
 10
2341.236142576105
 20
2712.047725706678
 30
0.0
 40
5.643375009565689
100
AcDbArc
 50
232.1211205082975
 51
270.0
  0
LINE
  5
F19
330
1F
100
AcDbEntity
  8
0N
100
AcDbLine
 10
2337.771142576105
 20
2720.015350671604
 30
0.0
 11
2337.771142576105
 21
2707.593350722623
 31
0.0
  0
ARC
  5
F1A
330
1F
100
AcDbEntity
  8
0N
100
AcDbCircle
 10
2341.236142576105
 20
2712.047725706678
 30
0.0
 40
5.643375009565689
100
AcDbArc
 50
270.0
 51
307.8788794917024
  0
LINE
  5
F1B
330
1F
100
AcDbEntity
  8
0N
100
AcDbLine
 10
2344.701142576105
 20
2720.015350671604
 30
0.0
 11
2344.701142576105
 21
2707.593350722623
 31
0.0
  0
LINE
  5
F1C
330
1F
100
AcDbEntity
  8
0N
100
AcDbLine
 10
2341.236142576105
 20
2721.204350697114
 30
0.0
 11
2362.026142576103
 21
2721.204350697114
 31
0.0
  0
LINE
  5
F1D
330
1F
100
AcDbEntity
  8
0N
100
AcDbLine
 10
2341.236140668756
 20
2706.404350697113
 30
0.0
 11
2362.026140668755
 21
2706.404350697113
 31
0.0
  0
LINE
  5
F1E
330
1F
100
AcDbEntity
  8
0N
100
AcDbLine
 10
2344.701140668756
 20
2705.215350671605
 30
0.0
 11
2344.701140668756
 21
2692.793350722622
 31
0.0
  0
ARC
  5
F1F
330
1F
100
AcDbEntity
  8
0N
100
AcDbCircle
 10
2341.236140668756
 20
2697.247725706679
 30
0.0
 40
5.643375009565689
100
AcDbArc
 50
270.0
 51
307.8788794917024
  0
LINE
  5
F20
330
1F
100
AcDbEntity
  8
0N
100
AcDbLine
 10
2337.771140668756
 20
2705.215350671605
 30
0.0
 11
2337.771140668756
 21
2692.793350722622
 31
0.0
  0
ARC
  5
F21
330
1F
100
AcDbEntity
  8
0N
100
AcDbCircle
 10
2341.236140668756
 20
2697.247725706679
 30
0.0
 40
5.643375009565689
100
AcDbArc
 50
232.1211205082975
 51
270.0
  0
LINE
  5
F22
330
1F
100
AcDbEntity
  8
0N
100
AcDbLine
 10
2358.561140668757
 20
2705.215350671605
 30
0.0
 11
2358.561140668757
 21
2692.793350722622
 31
0.0
  0
ARC
  5
F23
330
1F
100
AcDbEntity
  8
0N
100
AcDbCircle
 10
2362.026140668757
 20
2697.247725706679
 30
0.0
 40
5.643375009565689
100
AcDbArc
 50
232.1211205082975
 51
270.0
  0
LINE
  5
F24
330
1F
100
AcDbEntity
  8
0N
100
AcDbLine
 10
2365.491140668755
 20
2705.215350671605
 30
0.0
 11
2365.491140668755
 21
2692.793350722622
 31
0.0
  0
ARC
  5
F25
330
1F
100
AcDbEntity
  8
0N
100
AcDbCircle
 10
2362.026140668757
 20
2697.247725706679
 30
0.0
 40
5.643375009565689
100
AcDbArc
 50
270.0
 51
307.8788794917024
  0
ARC
  5
F26
330
1F
100
AcDbEntity
  8
0N
100
AcDbCircle
 10
2351.631140668756
 20
2712.394350697112
 30
0.0
 40
20.79
100
AcDbArc
 50
250.5287793655164
 51
289.4712206344836
  0
LINE
  5
F27
330
1F
100
AcDbEntity
  8
0N
100
AcDbLine
 10
2341.236140668756
 20
2691.604350697114
 30
0.0
 11
2362.026140668755
 21
2691.604350697114
 31
0.0
  0
ARC
  5
F28
330
1F
100
AcDbEntity
  8
0N
100
AcDbCircle
 10
2362.026140668757
 20
2700.760975687547
 30
0.0
 40
5.643375009565676
100
AcDbArc
 50
89.99999999999998
 51
127.8788794917024
  0
ARC
  5
F29
330
1F
100
AcDbEntity
  8
0N
100
AcDbCircle
 10
2341.236140668756
 20
2700.760975687547
 30
0.0
 40
5.643375009565676
100
AcDbArc
 50
52.12112050829755
 51
89.99999999999998
  0
ARC
  5
F2A
330
1F
100
AcDbEntity
  8
0N
100
AcDbCircle
 10
2351.631140668756
 20
2685.614350697113
 30
0.0
 40
20.79
100
AcDbArc
 50
70.52877936551642
 51
109.4712206344835
  0
ARC
  5
F2B
330
1F
100
AcDbEntity
  8
0N
100
AcDbCircle
 10
2362.026140668757
 20
2700.760975687547
 30
0.0
 40
5.643375009565676
100
AcDbArc
 50
52.12112050829755
 51
89.99999999999998
  0
ARC
  5
F2C
330
1F
100
AcDbEntity
  8
0N
100
AcDbCircle
 10
2341.236140668756
 20
2700.760975687547
 30
0.0
 40
5.643375009565676
100
AcDbArc
 50
89.99999999999998
 51
127.8788794917024
  0
LINE
  5
F2D
330
1F
100
AcDbEntity
  8
0
100
AcDbLine
 10
2359.6311416225
 20
2731.604350697114
 30
0.0
 11
2359.6311416225
 21
2721.204350697114
 31
0.0
  0
LINE
  5
F2E
330
1F
100
AcDbEntity
  8
0
100
AcDbLine
 10
2343.6311416225
 20
2731.604350697114
 30
0.0
 11
2343.6311416225
 21
2721.204350697114
 31
0.0
  0
LINE
  5
F2F
330
1F
100
AcDbEntity
  8
0N
100
AcDbLine
 10
2114.538769160224
 20
2658.804350697142
 30
0.0
 11
2093.748769160225
 21
2658.804350697149
 31
0.0
  0
LINE
  5
F30
330
1F
100
AcDbEntity
  8
0N
100
AcDbLine
 10
2090.283769160229
 20
2672.415350671642
 30
0.0
 11
2090.283769160226
 21
2659.993350722661
 31
0.0
  0
LINE
  5
F31
330
1F
100
AcDbEntity
  8
0N
100
AcDbLine
 10
2097.213769160229
 20
2672.41535067164
 30
0.0
 11
2097.213769160226
 21
2659.993350722657
 31
0.0
  0
LINE
  5
F32
330
1F
100
AcDbEntity
  8
0N
100
AcDbLine
 10
2118.00376916023
 20
2672.415350671631
 30
0.0
 11
2118.003769160225
 21
2659.99335072265
 31
0.0
  0
LINE
  5
F33
330
1F
100
AcDbEntity
  8
0N
100
AcDbLine
 10
2111.07376916023
 20
2672.415350671635
 30
0.0
 11
2111.073769160226
 21
2659.993350722652
 31
0.0
  0
ARC
  5
F34
330
1F
100
AcDbEntity
  8
0N
100
AcDbCircle
 10
2114.53876916023
 20
2667.960975687576
 30
0.0
 40
5.643375009565676
100
AcDbArc
 50
52.12112050827697
 51
89.99999999997394
  0
ARC
  5
F35
330
1F
100
AcDbEntity
  8
0N
100
AcDbCircle
 10
2104.143769160224
 20
2652.814350697145
 30
0.0
 40
20.79
100
AcDbArc
 50
70.52877936549187
 51
109.4712206344712
  0
ARC
  5
F36
330
1F
100
AcDbEntity
  8
0N
100
AcDbCircle
 10
2114.53876916023
 20
2667.960975687576
 30
0.0
 40
5.643375009565676
100
AcDbArc
 50
89.99999999997394
 51
127.8788794916921
  0
ARC
  5
F37
330
1F
100
AcDbEntity
  8
0N
100
AcDbCircle
 10
2093.748769160229
 20
2667.960975687583
 30
0.0
 40
5.643375009565676
100
AcDbArc
 50
52.12112050827697
 51
89.99999999997394
  0
LINE
  5
F38
330
1F
100
AcDbEntity
  8
0N
100
AcDbLine
 10
2114.53876916023
 20
2673.604350697143
 30
0.0
 11
2093.748769160231
 21
2673.60435069715
 31
0.0
  0
LINE
  5
F39
330
1F
100
AcDbEntity
  8
0N
100
AcDbLine
 10
2114.538767252881
 20
2673.604350697143
 30
0.0
 11
2093.748767252883
 21
2673.60435069715
 31
0.0
  0
ARC
  5
F3A
330
1F
100
AcDbEntity
  8
0N
100
AcDbCircle
 10
2093.748769160229
 20
2667.960975687583
 30
0.0
 40
5.643375009565676
100
AcDbArc
 50
89.99999999997394
 51
127.8788794916921
  0
ARC
  5
F3B
330
1F
100
AcDbEntity
  8
0N
100
AcDbCircle
 10
2104.143769160233
 20
2679.594350697146
 30
0.0
 40
20.79
100
AcDbArc
 50
250.5287793654919
 51
289.4712206344713
  0
ARC
  5
F3C
330
1F
100
AcDbEntity
  8
0N
100
AcDbCircle
 10
2093.748769160229
 20
2664.447725706714
 30
0.0
 40
5.643375009565689
100
AcDbArc
 50
269.9999999999739
 51
307.8788794916921
  0
ARC
  5
F3D
330
1F
100
AcDbEntity
  8
0N
100
AcDbCircle
 10
2114.538769160228
 20
2664.447725706707
 30
0.0
 40
5.643375009565689
100
AcDbArc
 50
269.9999999999739
 51
307.8788794916921
  0
ARC
  5
F3E
330
1F
100
AcDbEntity
  8
0N
100
AcDbCircle
 10
2114.538769160228
 20
2664.447725706707
 30
0.0
 40
5.643375009565689
100
AcDbArc
 50
232.121120508277
 51
269.9999999999739
  0
ARC
  5
F3F
330
1F
100
AcDbEntity
  8
0N
100
AcDbCircle
 10
2093.748769160229
 20
2664.447725706714
 30
0.0
 40
5.643375009565689
100
AcDbArc
 50
232.121120508277
 51
269.9999999999739
  0
LINE
  5
F40
330
1F
100
AcDbEntity
  8
1
100
AcDbLine
 10
2116.29477100511
 20
2706.684505375434
 30
0.0
 11
2116.294771005116
 21
2706.12419664328
 31
0.0
  0
LINE
  5
F41
330
1F
100
AcDbEntity
  8
1
100
AcDbLine
 10
2116.294771005232
 20
2691.88450475098
 30
0.0
 11
2116.294771005236
 21
2691.604350696121
 31
0.0
  0
LINE
  5
F42
330
1F
100
AcDbEntity
  8
0N
100
AcDbLine
 10
2090.283769160429
 20
2705.215350671611
 30
0.0
 11
2090.283769160424
 21
2692.793350722629
 31
0.0
  0
LINE
  5
F43
330
1F
100
AcDbEntity
  8
0N
100
AcDbLine
 10
2090.283767253086
 20
2720.015350671612
 30
0.0
 11
2090.28376725308
 21
2707.593350722628
 31
0.0
  0
ARC
  5
F44
330
1F
100
AcDbEntity
  8
0N
100
AcDbCircle
 10
2114.538769160429
 20
2700.760975687545
 30
0.0
 40
5.643375009565676
100
AcDbArc
 50
52.12112050827697
 51
89.99999999997394
  0
ARC
  5
F45
330
1F
100
AcDbEntity
  8
0N
100
AcDbCircle
 10
2104.143769160423
 20
2685.614350697113
 30
0.0
 40
20.79
100
AcDbArc
 50
70.52877936549187
 51
109.4712206344712
  0
ARC
  5
F46
330
1F
100
AcDbEntity
  8
0N
100
AcDbCircle
 10
2114.538769160429
 20
2700.760975687545
 30
0.0
 40
5.643375009565676
100
AcDbArc
 50
89.99999999997394
 51
127.8788794916921
  0
ARC
  5
F47
330
1F
100
AcDbEntity
  8
0N
100
AcDbCircle
 10
2093.748769160427
 20
2700.760975687552
 30
0.0
 40
5.643375009565676
100
AcDbArc
 50
52.12112050827697
 51
89.99999999997394
  0
LINE
  5
F48
330
1F
100
AcDbEntity
  8
0N
100
AcDbLine
 10
2114.538769160423
 20
2691.60435069711
 30
0.0
 11
2093.748769160424
 21
2691.604350697117
 31
0.0
  0
ARC
  5
F49
330
1F
100
AcDbEntity
  8
0N
100
AcDbCircle
 10
2104.143769160433
 20
2712.394350697114
 30
0.0
 40
20.79
100
AcDbArc
 50
250.5287793654919
 51
289.4712206344713
  0
ARC
  5
F4A
330
1F
100
AcDbEntity
  8
0N
100
AcDbCircle
 10
2093.748769160426
 20
2697.247725706682
 30
0.0
 40
5.643375009565689
100
AcDbArc
 50
269.9999999999739
 51
307.8788794916921
  0
LINE
  5
F4B
330
1F
100
AcDbEntity
  8
0N
100
AcDbLine
 10
2097.21376916043
 20
2705.215350671609
 30
0.0
 11
2097.213769160424
 21
2692.793350722626
 31
0.0
  0
ARC
  5
F4C
330
1F
100
AcDbEntity
  8
0N
100
AcDbCircle
 10
2114.538769160427
 20
2697.247725706675
 30
0.0
 40
5.643375009565689
100
AcDbArc
 50
269.9999999999739
 51
307.8788794916921
  0
LINE
  5
F4D
330
1F
100
AcDbEntity
  8
0N
100
AcDbLine
 10
2118.003769160428
 20
2705.2153506716
 30
0.0
 11
2118.003769160423
 21
2692.793350722618
 31
0.0
  0
ARC
  5
F4E
330
1F
100
AcDbEntity
  8
0N
100
AcDbCircle
 10
2114.538769160427
 20
2697.247725706675
 30
0.0
 40
5.643375009565689
100
AcDbArc
 50
232.121120508277
 51
269.9999999999739
  0
LINE
  5
F4F
330
1F
100
AcDbEntity
  8
0N
100
AcDbLine
 10
2111.073769160428
 20
2705.215350671603
 30
0.0
 11
2111.073769160425
 21
2692.79335072262
 31
0.0
  0
LINE
  5
F50
330
1F
100
AcDbEntity
  8
0N
100
AcDbLine
 10
2114.53876916043
 20
2706.404350697111
 30
0.0
 11
2093.748769160429
 21
2706.404350697118
 31
0.0
  0
LINE
  5
F51
330
1F
100
AcDbEntity
  8
0N
100
AcDbLine
 10
2114.538767253085
 20
2721.204350697111
 30
0.0
 11
2093.748767253086
 21
2721.204350697118
 31
0.0
  0
LINE
  5
F52
330
1F
100
AcDbEntity
  8
0N
100
AcDbLine
 10
2111.073767253085
 20
2720.015350671602
 30
0.0
 11
2111.073767253081
 21
2707.593350722621
 31
0.0
  0
ARC
  5
F53
330
1F
100
AcDbEntity
  8
0N
100
AcDbCircle
 10
2114.538767253083
 20
2712.047725706676
 30
0.0
 40
5.643375009565689
100
AcDbArc
 50
232.121120508277
 51
269.9999999999739
  0
LINE
  5
F54
330
1F
100
AcDbEntity
  8
0N
100
AcDbLine
 10
2118.003767253085
 20
2720.015350671601
 30
0.0
 11
2118.003767253082
 21
2707.593350722618
 31
0.0
  0
ARC
  5
F55
330
1F
100
AcDbEntity
  8
0N
100
AcDbCircle
 10
2114.538767253083
 20
2712.047725706676
 30
0.0
 40
5.643375009565689
100
AcDbArc
 50
269.9999999999739
 51
307.8788794916921
  0
LINE
  5
F56
330
1F
100
AcDbEntity
  8
0N
100
AcDbLine
 10
2097.213767253085
 20
2720.015350671608
 30
0.0
 11
2097.213767253081
 21
2707.593350722627
 31
0.0
  0
ARC
  5
F57
330
1F
100
AcDbEntity
  8
0N
100
AcDbCircle
 10
2093.748767253084
 20
2712.047725706683
 30
0.0
 40
5.643375009565689
100
AcDbArc
 50
269.9999999999739
 51
307.8788794916921
  0
ARC
  5
F58
330
1F
100
AcDbEntity
  8
0N
100
AcDbCircle
 10
2104.143767253088
 20
2727.194350697113
 30
0.0
 40
20.79
100
AcDbArc
 50
250.5287793654919
 51
289.4712206344713
  0
LINE
  5
F59
330
1F
100
AcDbEntity
  8
0N
100
AcDbLine
 10
2114.538767253081
 20
2706.404350697111
 30
0.0
 11
2093.748767253081
 21
2706.404350697118
 31
0.0
  0
ARC
  5
F5A
330
1F
100
AcDbEntity
  8
0N
100
AcDbCircle
 10
2093.748767253084
 20
2715.560975687551
 30
0.0
 40
5.643375009565676
100
AcDbArc
 50
52.12112050827697
 51
89.99999999997394
  0
ARC
  5
F5B
330
1F
100
AcDbEntity
  8
0N
100
AcDbCircle
 10
2114.538767253085
 20
2715.560975687544
 30
0.0
 40
5.643375009565676
100
AcDbArc
 50
89.99999999997394
 51
127.8788794916921
  0
ARC
  5
F5C
330
1F
100
AcDbEntity
  8
0N
100
AcDbCircle
 10
2104.143767253079
 20
2700.414350697114
 30
0.0
 40
20.79
100
AcDbArc
 50
70.52877936549187
 51
109.4712206344712
  0
ARC
  5
F5D
330
1F
100
AcDbEntity
  8
0N
100
AcDbCircle
 10
2114.538767253085
 20
2715.560975687544
 30
0.0
 40
5.643375009565676
100
AcDbArc
 50
52.12112050827697
 51
89.99999999997394
  0
LINE
  5
F5E
330
1F
100
AcDbEntity
  8
0
100
AcDbLine
 10
2096.143768206696
 20
2731.604350697117
 30
0.0
 11
2096.143768206692
 21
2721.204350697118
 31
0.0
  0
LINE
  5
F5F
330
1F
100
AcDbEntity
  8
0
100
AcDbLine
 10
2112.143768206696
 20
2731.604350697112
 30
0.0
 11
2112.143768206692
 21
2721.204350697112
 31
0.0
  0
LINE
  5
F60
330
1F
100
AcDbEntity
  8
0
100
AcDbLine
 10
2096.143768206696
 20
2731.604350697117
 30
0.0
 11
2112.143768206696
 21
2731.604350697112
 31
0.0
  0
ARC
  5
F61
330
1F
100
AcDbEntity
  8
0N
100
AcDbCircle
 10
2093.748769160427
 20
2700.760975687552
 30
0.0
 40
5.643375009565676
100
AcDbArc
 50
89.99999999997394
 51
127.8788794916921
  0
ARC
  5
F62
330
1F
100
AcDbEntity
  8
0N
100
AcDbCircle
 10
2093.748769160426
 20
2697.247725706682
 30
0.0
 40
5.643375009565689
100
AcDbArc
 50
232.121120508277
 51
269.9999999999739
  0
ARC
  5
F63
330
1F
100
AcDbEntity
  8
0N
100
AcDbCircle
 10
2093.748767253084
 20
2712.047725706683
 30
0.0
 40
5.643375009565689
100
AcDbArc
 50
232.121120508277
 51
269.9999999999739
  0
ARC
  5
F64
330
1F
100
AcDbEntity
  8
0N
100
AcDbCircle
 10
2093.748767253084
 20
2715.560975687551
 30
0.0
 40
5.643375009565676
100
AcDbArc
 50
89.99999999997394
 51
127.8788794916921
  0
LWPOLYLINE
  5
F75
330
1F
100
AcDbEntity
  8
0
100
AcDbPolyline
 90
        4
 70
     1
 43
0.0
 10
1927.88745491455
 20
2673.604350697114
 10
2527.88745491455
 20
2673.604350697114
 10
2527.88745491455
 20
1573.604350697114
 10
1927.88745491455
 20
1573.604350697114
1001
GENIUS_GENREC_14
1002
{
1000
PYDIR
1011
1927.88745491455
1021
1573.604350697114
1031
0.0
1002
}
1002
{
1000
PXDIR
1011
2527.88745491455
1021
2673.604350697114
1031
0.0
1002
}
1002
{
1000
PORI
1011
1927.88745491455
1021
2673.604350697114
1031
0.0
1002
}
1002
{
1000
PINS
1011
2227.88745491455
1021
2673.604350697114
1031
0.0
1002
}
1002
{
1000
HVAL
1000
-1100
1002
}
1002
{
1000
H
1070
     2
1002
}
1002
{
1000
WVAL
1000
600
1002
}
1002
{
1000
W
1070
     2
1002
}
1002
{
1000
C
1070
     2
1002
}
1001
GENIUS_GENOBJ-N-REC_13
1002
{
1000
OWNER
1000
GEN
1002
}
1001
GENIUS_GENODEF_13
1002
{
1000
HIER
1070
     0
1002
}
1002
{
1000
MANEDIT
1070
     0
1002
}
1002
{
1000
NOSEL
1070
     0
1002
}
1002
{
1000
BEHIND
1070
     0
1002
}
1002
{
1000
OTHER
1070
     0
1002
}
1002
{
1000
REACTOR
1002
}
  0
LINE
  5
F7C
330
1F
100
AcDbEntity
  8
0
100
AcDbLine
 10
1577.88745491455
 20
2673.604350697114
 30
0.0
 11
2877.88745491455
 21
2673.604350697114
 31
0.0
  0
TEXT
  5
FD4
330
1F
100
AcDbEntity
  8
0
100
AcDbText
 10
1567.770134344151
 20
2673.604350697114
 30
0.0
 40
80.0
  1
Ｇ，Ｌ
 72
     1
 11
1701.103467677484
 21
2673.604350697114
 31
0.0
100
AcDbText
  0
LINE
  5
FD5
330
1F
100
AcDbEntity
  8
0
100
AcDbLine
 10
1671.220788247886
 20
2606.937684030448
 30
0.0
 11
1657.88745491455
 21
2620.271017363781
 31
0.0
  0
LINE
  5
FD6
330
1F
100
AcDbEntity
  8
0
100
AcDbLine
 10
1644.554121581218
 20
2606.937684030448
 30
0.0
 11
1711.220788247886
 21
2673.604350697114
 31
0.0
  0
LINE
  5
FD7
330
1F
100
AcDbEntity
  8
0
100
AcDbLine
 10
1631.220788247886
 20
2620.271017363781
 30
0.0
 11
1684.554121581218
 21
2673.604350697114
 31
0.0
  0
LINE
  5
FD8
330
1F
100
AcDbEntity
  8
0
100
AcDbLine
 10
1591.220788247886
 20
2606.937684030448
 30
0.0
 11
1577.88745491455
 21
2620.271017363781
 31
0.0
  0
LINE
  5
FD9
330
1F
100
AcDbEntity
  8
0
100
AcDbLine
 10
1617.88745491455
 20
2606.937684030448
 30
0.0
 11
1577.88745491455
 21
2646.937684030448
 31
0.0
  0
LINE
  5
FDA
330
1F
100
AcDbEntity
  8
0
100
AcDbLine
 10
1617.88745491455
 20
2633.604350697114
 30
0.0
 11
1657.88745491455
 21
2673.604350697114
 31
0.0
  0
LINE
  5
FDB
330
1F
100
AcDbEntity
  8
0
100
AcDbLine
 10
1604.554121581218
 20
2646.937684030448
 30
0.0
 11
1631.220788247886
 21
2673.604350697114
 31
0.0
  0
LINE
  5
FDC
330
1F
100
AcDbEntity
  8
0
100
AcDbLine
 10
1644.554121581218
 20
2606.937684030448
 30
0.0
 11
1577.88745491455
 21
2673.604350697114
 31
0.0
  0
LINE
  5
FDD
330
1F
100
AcDbEntity
  8
0
100
AcDbLine
 10
1831.220788247886
 20
2606.937684030448
 30
0.0
 11
1804.554121581218
 21
2633.604350697114
 31
0.0
  0
LINE
  5
FDE
330
1F
100
AcDbEntity
  8
0
100
AcDbLine
 10
1764.554121581218
 20
2620.271017363781
 30
0.0
 11
1817.88745491455
 21
2673.604350697114
 31
0.0
  0
LINE
  5
FDF
330
1F
100
AcDbEntity
  8
0
100
AcDbLine
 10
1777.88745491455
 20
2606.937684030448
 30
0.0
 11
1844.554121581218
 21
2673.604350697114
 31
0.0
  0
LINE
  5
FE0
330
1F
100
AcDbEntity
  8
0
100
AcDbLine
 10
1751.220788247886
 20
2606.937684030448
 30
0.0
 11
1711.220788247886
 21
2646.937684030448
 31
0.0
  0
LINE
  5
FE1
330
1F
100
AcDbEntity
  8
0
100
AcDbLine
 10
1697.88745491455
 20
2606.937684030448
 30
0.0
 11
1671.220788247886
 21
2633.604350697114
 31
0.0
  0
LINE
  5
FE2
330
1F
100
AcDbEntity
  8
0
100
AcDbLine
 10
1711.220788247886
 20
2620.271017363781
 30
0.0
 11
1684.554121581218
 21
2646.937684030448
 31
0.0
  0
LINE
  5
FE3
330
1F
100
AcDbEntity
  8
0
100
AcDbLine
 10
1711.220788247886
 20
2646.937684030448
 30
0.0
 11
1697.88745491455
 21
2660.271017363781
 31
0.0
  0
LINE
  5
FE4
330
1F
100
AcDbEntity
  8
0
100
AcDbLine
 10
1724.554121581218
 20
2606.937684030448
 30
0.0
 11
1711.220788247886
 21
2620.271017363781
 31
0.0
  0
LINE
  5
FE5
330
1F
100
AcDbEntity
  8
0
100
AcDbLine
 10
1804.554121581218
 20
2606.937684030448
 30
0.0
 11
1791.220788247886
 21
2620.271017363781
 31
0.0
  0
LINE
  5
FE6
330
1F
100
AcDbEntity
  8
0
100
AcDbLine
 10
1777.88745491455
 20
2606.937684030448
 30
0.0
 11
1711.220788247886
 21
2673.604350697114
 31
0.0
  0
LINE
  5
FE7
330
1F
100
AcDbEntity
  8
0
100
AcDbLine
 10
1737.88745491455
 20
2646.937684030448
 30
0.0
 11
1764.554121581218
 21
2673.604350697114
 31
0.0
  0
LINE
  5
FE8
330
1F
100
AcDbEntity
  8
0
100
AcDbLine
 10
1751.220788247886
 20
2633.604350697114
 30
0.0
 11
1791.220788247886
 21
2673.604350697114
 31
0.0
  0
LINE
  5
FE9
330
1F
100
AcDbEntity
  8
0
100
AcDbLine
 10
1844.554121581218
 20
2620.271017363781
 30
0.0
 11
1817.88745491455
 21
2646.937684030448
 31
0.0
  0
LINE
  5
FEA
330
1F
100
AcDbEntity
  8
0
100
AcDbLine
 10
1844.554121581218
 20
2646.937684030448
 30
0.0
 11
1831.220788247886
 21
2660.271017363781
 31
0.0
  0
DIMENSION
  5
FFD
330
1F
100
AcDbEntity
  8
AM_5
100
AcDbDimension
  2
*D5
 10
1827.887454914551
 20
7513.604351697114
 30
0.0
 11
2227.887454914551
 21
7578.604351697115
 31
0.0
 70
    32
 71
     5
 42
800.0
  3
IGS
100
AcDbAlignedDimension
 13
2627.887454914552
 23
6973.604350697114
 33
0.0
 14
1827.887454914551
 24
6973.604350697114
 34
0.0
100
AcDbRotatedDimension
  0
DIMENSION
  5
102D
330
1F
100
AcDbEntity
  8
AM_5
100
AcDbDimension
  2
*D6
 10
2385.016178958585
 20
6890.646962804273
 30
0.0
 11
1628.596575096014
 21
6580.820646846551
 31
0.0
 70
   163
 71
     5
 42
349.9999999999982
  3
IGS$3
100
AcDbDiametricDimension
 15
2070.758730870521
 25
6736.561738589955
 35
0.0
 40
0.0
  0
DIMENSION
  5
1056
330
1F
100
AcDbEntity
  8
AM_5
100
AcDbDimension
  2
*D7
 10
2181.387454914551
 20
5965.939895733969
 30
0.0
 11
1979.815405878946
 21
6030.939895733968
 31
0.0
 70
    32
  1
%%c<>
 71
     5
 42
93.0
  3
IGS
100
AcDbAlignedDimension
 13
2274.387454914551
 23
5937.426488966208
 33
0.0
 14
2181.387454914551
 24
5937.426488966208
 34
0.0
100
AcDbRotatedDimension
  0
HATCH
  5
115E
330
1F
100
AcDbEntity
  8
AM_8
100
AcDbHatch
 10
0.0
 20
0.0
 30
0.0
210
0.0
220
0.0
230
1.0
  2
PLAST
 70
     0
 71
     0
 91
        1
 92
        1
 93
       55
 72
     1
 10
2104.143768206526
 20
2275.404350697157
 11
2085.143768206526
 21
2275.404350697164
 72
     1
 10
2085.143768206526
 20
2275.404350697164
 11
2085.143768206526
 21
2278.604350697186
 72
     1
 10
2085.143768206526
 20
2278.604350697186
 11
2096.143768206526
 21
2278.604350697159
 72
     1
 10
2096.143768206526
 20
2278.604350697159
 11
2096.143768206637
 21
2575.404350697159
 72
     1
 10
2096.143768206637
 20
2575.404350697159
 11
2085.143768206637
 21
2575.404350697164
 72
     1
 10
2085.143768206637
 20
2575.404350697164
 11
2085.143768206639
 21
2578.604350697187
 72
     1
 10
2085.143768206639
 20
2578.604350697187
 11
2096.143768206639
 21
2578.604350697159
 72
     1
 10
2096.143768206639
 20
2578.604350697159
 11
2096.143768206668
 21
2658.804350697149
 72
     1
 10
2096.143768206668
 20
2658.804350697149
 11
2093.748769160225
 21
2658.804350697149
 72
     2
 10
2093.748769160228
 20
2664.447725706714
 40
5.643375009564806
 50
90.00000000002769
 51
127.8788794917163
 73
     0
 72
     1
 10
2090.283769160229
 20
2659.993350722658
 11
2090.283769160229
 21
2672.415350671642
 72
     2
 10
2093.748769160227
 20
2667.960975687583
 40
5.643375009566588
 50
232.1211205083145
 51
270.0000000000508
 73
     0
 72
     1
 10
2093.748769160232
 20
2673.604350697149
 11
2093.748767252883
 21
2673.60435069715
 72
     1
 10
2093.748767252883
 20
2673.60435069715
 11
1927.88745491455
 21
2673.604350697114
 72
     1
 10
1927.88745491455
 20
2673.604350697114
 11
1927.88745491455
 21
1573.604350697114
 72
     1
 10
1927.88745491455
 20
1573.604350697114
 11
2527.88745491455
 21
1573.604350697114
 72
     1
 10
2527.88745491455
 20
1573.604350697114
 11
2527.88745491455
 21
2673.604350697114
 72
     1
 10
2527.88745491455
 20
2673.604350697114
 11
2362.026142576291
 21
2673.604350697099
 72
     1
 10
2362.026142576291
 20
2673.604350697099
 11
2362.026140668945
 21
2673.604350697099
 72
     2
 10
2362.026140668944
 20
2667.960975687533
 40
5.643375009565716
 50
270.0000000000046
 51
307.8788794917078
 73
     0
 72
     1
 10
2365.491140668943
 20
2672.41535067159
 11
2365.491140668943
 21
2659.993350722608
 72
     2
 10
2362.026140668943
 20
2664.447725706664
 40
5.643375009565192
 50
52.12112050828003
 51
89.99999999998616
 73
     0
 72
     1
 10
2362.026140668945
 20
2658.804350697099
 11
2359.6311416225
 21
2658.8043506971
 72
     1
 10
2359.6311416225
 20
2658.8043506971
 11
2359.6311416225
 21
2578.60435069711
 72
     1
 10
2359.6311416225
 20
2578.60435069711
 11
2370.6311416225
 21
2578.60435069711
 72
     1
 10
2370.6311416225
 20
2578.60435069711
 11
2370.6311416225
 21
2575.404350697133
 72
     1
 10
2370.6311416225
 20
2575.404350697133
 11
2359.6311416225
 21
2575.404350697109
 72
     1
 10
2359.6311416225
 20
2575.404350697109
 11
2359.631141622498
 21
2278.60435069711
 72
     1
 10
2359.631141622498
 20
2278.60435069711
 11
2370.631141622498
 21
2278.60435069711
 72
     1
 10
2370.631141622498
 20
2278.60435069711
 11
2370.631141622498
 21
2275.404350697133
 72
     1
 10
2370.631141622498
 20
2275.404350697133
 11
2359.631141622498
 21
2275.40435069711
 72
     1
 10
2359.631141622498
 20
2275.40435069711
 11
2351.631141622499
 21
2275.40435069711
 72
     1
 10
2351.631141622499
 20
2275.40435069711
 11
2351.631141622499
 21
2278.60435069711
 72
     1
 10
2351.631141622499
 20
2278.60435069711
 11
2343.631141622498
 21
2278.60435069711
 72
     1
 10
2343.631141622498
 20
2278.60435069711
 11
2343.6311416225
 21
2575.404350697109
 72
     1
 10
2343.6311416225
 20
2575.404350697109
 11
2351.631141622499
 21
2575.404350697109
 72
     1
 10
2351.631141622499
 20
2575.404350697109
 11
2351.631141622499
 21
2578.60435069711
 72
     1
 10
2351.631141622499
 20
2578.60435069711
 11
2343.6311416225
 21
2578.60435069711
 72
     1
 10
2343.6311416225
 20
2578.60435069711
 11
2343.6311416225
 21
2658.8043506971
 72
     1
 10
2343.6311416225
 20
2658.8043506971
 11
2341.236140668943
 21
2658.8043506971
 72
     2
 10
2341.236140668943
 20
2664.447725706665
 40
5.643375009565261
 50
89.99999999999074
 51
127.878879491694
 73
     0
 72
     1
 10
2337.771140668944
 20
2659.993350722607
 11
2337.771140668943
 21
2672.415350671591
 72
     2
 10
2341.236140668941
 20
2667.960975687531
 40
5.643375009566588
 50
232.1211205083145
 51
270.0000000000231
 73
     0
 72
     1
 10
2341.236140668943
 20
2673.604350697099
 11
2114.53876916023
 21
2673.604350697143
 72
     2
 10
2114.538769160228
 20
2667.960975687577
 40
5.643375009565716
 50
270.0000000000185
 51
307.8788794917438
 73
     0
 72
     1
 10
2118.00376916023
 20
2672.415350671633
 11
2118.003769160225
 21
2659.99335072265
 72
     2
 10
2114.538769160226
 20
2664.447725706706
 40
5.643375009563995
 50
52.12112050828812
 51
90.00000000001847
 73
     0
 72
     1
 10
2114.538769160224
 20
2658.804350697142
 11
2112.143768206668
 21
2658.804350697143
 72
     1
 10
2112.143768206668
 20
2658.804350697143
 11
2112.143768206639
 21
2578.604350697154
 72
     1
 10
2112.143768206639
 20
2578.604350697154
 11
2104.143768206638
 21
2578.604350697156
 72
     1
 10
2104.143768206638
 20
2578.604350697156
 11
2104.143768206638
 21
2575.404350697157
 72
     1
 10
2104.143768206638
 20
2575.404350697157
 11
2112.143768206637
 21
2575.404350697153
 72
     1
 10
2112.143768206637
 20
2575.404350697153
 11
2112.143768206526
 21
2278.604350697154
 72
     1
 10
2112.143768206526
 20
2278.604350697154
 11
2104.143768206526
 21
2278.604350697156
 72
     1
 10
2104.143768206526
 20
2278.604350697156
 11
2104.143768206526
 21
2275.404350697157
 97
        0
 75
     0
 76
     1
 52
45.0
 41
40.0
 77
     0
 78
     3
 53
45.0
 43
-748.8348448881479
 44
-25.37883459746808
 45
-179.605122421383
 46
179.605122421383
 79
     0
 53
45.0
 43
-771.2854851908207
 44
-2.92819429479519
 45
-179.605122421383
 46
179.605122421383
 79
     0
 53
45.0
 43
-793.7361254934936
 44
19.5224460078777
 45
-179.605122421383
 46
179.605122421383
 79
     0
 98
        1
 10
-748.8348448881479
 20
-25.37883459746808
1001
GENIUS_GENOBJ-N-HTC_13
1002
{
1000
OWNER
1000
GEN
1002
}
1001
GENIUS_GENODEF_13
1002
{
1000
HIER
1070
     0
1002
}
1002
{
1000
MANEDIT
1070
     0
1002
}
1002
{
1000
NOSEL
1070
     0
1002
}
1002
{
1000
BEHIND
1070
     0
1002
}
1002
{
1000
OTHER
1070
     0
1002
}
1002
{
1000
REACTOR
1002
}
1001
GENIUS_GENHATCH_13
1002
{
1000
DATA
1040
45.0
1042
2.0
1000
PLAST
1070
     0
1011
2166.594411499042
1021
2011.341701060926
1031
0.0
1002
}
1002
{
1000
UCS
1010
0.0
1020
0.0
1030
0.0
1010
1.0
1020
0.0
1030
0.0
1010
0.0
1020
1.0
1030
0.0
1002
}
  0
LINE
  5
117F
330
1F
100
AcDbEntity
  8
AM_7
  6
AM_ISO08W050x2
100
AcDbLine
 10
1982.567454914551
 20
5173.604350697119
 30
0.0
 11
2265.207454914551
 21
5173.604350697112
 31
0.0
1001
GENIUS_GENODEF_13
1002
{
1000
HIER
1070
     0
1002
}
1002
{
1000
MANEDIT
1070
     0
1002
}
1002
{
1000
NOSEL
1070
     0
1002
}
1002
{
1000
BEHIND
1070
     0
1002
}
1002
{
1000
OTHER
1070
     0
1002
}
1002
{
1000
REACTOR
1002
}
1001
GENIUS_GENOBJ-N-CEN_13
1002
{
1000
OWNER
1000
GEN
1002
}
  0
LWPOLYLINE
  5
1180
330
1F
100
AcDbEntity
  8
0
100
AcDbPolyline
 90
        4
 70
     1
 43
0.0
 10
2131.387454914551
 20
5162.604350697119
 10
2181.387454914551
 20
5162.604350697119
 10
2181.387454914551
 20
5184.604350697119
 10
2131.387454914551
 20
5184.604350697119
1001
GENIUS_GENREC_14
1002
{
1000
PYDIR
1011
2131.387454914551
1021
5184.604350697119
1031
0.0
1002
}
1002
{
1000
PXDIR
1011
2181.387454914551
1021
5162.604350697119
1031
0.0
1002
}
1002
{
1000
PORI
1011
2131.387454914551
1021
5162.604350697119
1031
0.0
1002
}
1002
{
1000
PINS
1011
2131.387454914551
1021
5173.604350697119
1031
0.0
1002
}
1002
{
1000
HVAL
1000
22
1002
}
1002
{
1000
H
1070
     2
1002
}
1002
{
1000
WVAL
1000
50
1002
}
1002
{
1000
W
1070
     2
1002
}
1002
{
1000
C
1070
     3
1002
}
1001
GENIUS_GENODEF_13
1002
{
1000
HIER
1070
     0
1002
}
1002
{
1000
MANEDIT
1070
     0
1002
}
1002
{
1000
NOSEL
1070
     0
1002
}
1002
{
1000
BEHIND
1070
     0
1002
}
1002
{
1000
OTHER
1070
     0
1002
}
1002
{
1000
REACTOR
1002
}
1001
GENIUS_GENOBJ-N-REC_13
1002
{
1000
OWNER
1000
GEN
1002
}
  0
LWPOLYLINE
  5
1181
330
1F
100
AcDbEntity
  8
0
100
AcDbPolyline
 90
        4
 70
     1
 43
0.0
 10
2066.387454914551
 20
5143.60435069712
 10
2131.387454914551
 20
5143.60435069712
 10
2131.387454914551
 20
5225.604350697119
 10
2066.387454914551
 20
5225.604350697119
1001
GENIUS_GENREC_14
1002
{
1000
PYDIR
1011
2066.387454914551
1021
5225.604350697119
1031
0.0
1002
}
1002
{
1000
PXDIR
1011
2131.387454914551
1021
5143.60435069712
1031
0.0
1002
}
1002
{
1000
PORI
1011
2066.387454914551
1021
5143.60435069712
1031
0.0
1002
}
1002
{
1000
PINS
1011
2098.887454914551
1021
5143.60435069712
1031
0.0
1002
}
1002
{
1000
HVAL
1000
82
1002
}
1002
{
1000
H
1070
     2
1002
}
1002
{
1000
WVAL
1000
65
1002
}
1002
{
1000
W
1070
     2
1002
}
1002
{
1000
C
1070
     2
1002
}
1001
GENIUS_GENOBJ-N-REC_13
1002
{
1000
OWNER
1000
GEN
1002
}
1001
GENIUS_GENODEF_13
1002
{
1000
HIER
1070
     0
1002
}
1002
{
1000
MANEDIT
1070
     0
1002
}
1002
{
1000
NOSEL
1070
     0
1002
}
1002
{
1000
BEHIND
1070
     0
1002
}
1002
{
1000
OTHER
1070
     0
1002
}
1002
{
1000
REACTOR
1002
}
  0
LINE
  5
12B5
330
1F
100
AcDbEntity
  8
0N
100
AcDbLine
 10
4352.737612368653
 20
2797.348037404807
 30
0.0
 11
4359.665815598929
 21
2809.348037404807
 31
0.0
  0
CIRCLE
  5
12B6
330
1F
100
AcDbEntity
  8
0N
100
AcDbCircle
 10
4366.594018829204
 20
2797.348037404807
 30
0.0
 40
12.0
  0
LINE
  5
12B7
330
1F
100
AcDbEntity
  8
0N
100
AcDbLine
 10
4359.665815598929
 20
2785.348037404807
 30
0.0
 11
4352.737612368653
 21
2797.348037404807
 31
0.0
  0
LINE
  5
12B8
330
1F
100
AcDbEntity
  8
7
100
AcDbLine
 10
4345.380815393549
 20
2776.13483396912
 30
0.0
 11
4387.807222264743
 21
2818.561240840312
 31
0.0
  0
LINE
  5
12B9
330
1F
100
AcDbEntity
  8
7
100
AcDbLine
 10
4345.380815393549
 20
2571.07386742511
 30
0.0
 11
4387.807222264743
 21
2528.647460553916
 31
0.0
  0
LINE
  5
12BA
330
1F
100
AcDbEntity
  8
0N
100
AcDbLine
 10
4359.665815598929
 20
2561.860663989423
 30
0.0
 11
4352.737612368653
 21
2549.860663989422
 31
0.0
  0
CIRCLE
  5
12BB
330
1F
100
AcDbEntity
  8
0N
100
AcDbCircle
 10
4366.594018829204
 20
2549.860663989422
 30
0.0
 40
12.0
  0
LINE
  5
12BC
330
1F
100
AcDbEntity
  8
0N
100
AcDbLine
 10
4352.737612368653
 20
2549.860663989422
 30
0.0
 11
4359.665815598929
 21
2537.860663989423
 31
0.0
  0
ARC
  5
12BD
330
1F
100
AcDbEntity
  8
4A
100
AcDbCircle
 10
4242.850332121455
 20
2673.604350697115
 30
0.0
 40
127.0
100
AcDbArc
 50
306.1961314450017
 51
233.8038685550396
  0
CIRCLE
  5
12BE
330
1F
100
AcDbEntity
  8
0
100
AcDbCircle
 10
4242.850332121455
 20
2673.604350697115
 30
0.0
 40
225.0
  0
CIRCLE
  5
12BF
330
1F
100
AcDbEntity
  8
7
100
AcDbCircle
 10
4242.850332121455
 20
2673.604350697115
 30
0.0
 40
175.0
  0
POLYLINE
  5
12C1
330
1F
100
AcDbEntity
  8
0
100
AcDb2dPolyline
 66
     1
 10
0.0
 20
0.0
 30
0.0
 70
     1
1001
GENIUS_GENODEF_13
1002
{
1000
HIER
1070
     0
1002
}
1002
{
1000
MANEDIT
1070
     0
1002
}
1002
{
1000
NOSEL
1070
     0
1002
}
1002
{
1000
BEHIND
1070
     0
1002
}
1002
{
1000
REACTOR
1002
}
1001
GENIUS_GENOBJ-N-REC_13
1002
{
1000
OWNER
1000
GEN
1002
}
1001
GENIUS_GENREC_13
1070
     2
1070
     2
1070
     4
  0
VERTEX
  5
12C2
330
12C1
100
AcDbEntity
  8
0
100
AcDbVertex
100
AcDb2dVertex
 10
3942.850332121468
 20
2973.604350697115
 30
0.0
  0
VERTEX
  5
12C3
330
12C1
100
AcDbEntity
  8
0
100
AcDbVertex
100
AcDb2dVertex
 10
3942.850332121467
 20
2373.604350697115
 30
0.0
  0
VERTEX
  5
12C4
330
12C1
100
AcDbEntity
  8
0
100
AcDbVertex
100
AcDb2dVertex
 10
4542.850332121466
 20
2373.604350697115
 30
0.0
  0
VERTEX
  5
12C5
330
12C1
100
AcDbEntity
  8
0
100
AcDbVertex
100
AcDb2dVertex
 10
4542.850332121467
 20
2973.604350697115
 30
0.0
  0
SEQEND
  5
12C6
330
12C1
100
AcDbEntity
  8
0
  0
LINE
  5
12C8
330
1F
100
AcDbEntity
  8
7
100
AcDbLine
 10
4140.319848849383
 20
2776.13483396912
 30
0.0
 11
4097.89344197819
 21
2818.561240840312
 31
0.0
  0
LINE
  5
12C9
330
1F
100
AcDbEntity
  8
0N
100
AcDbLine
 10
4112.178442183454
 20
2809.348037404807
 30
0.0
 11
4105.250238953177
 21
2797.348037404807
 31
0.0
  0
LINE
  5
12CA
330
1F
100
AcDbEntity
  8
0N
100
AcDbLine
 10
4105.250238953177
 20
2797.348037404807
 30
0.0
 11
4112.178442183454
 21
2785.348037404807
 31
0.0
  0
LINE
  5
12CB
330
1F
100
AcDbEntity
  8
0N
100
AcDbLine
 10
4112.178442183454
 20
2785.348037404807
 30
0.0
 11
4126.034848644004
 21
2785.348037404807
 31
0.0
  0
LINE
  5
12CC
330
1F
100
AcDbEntity
  8
0N
100
AcDbLine
 10
4126.034848644004
 20
2809.348037404807
 30
0.0
 11
4112.178442183454
 21
2809.348037404807
 31
0.0
  0
LINE
  5
12CD
330
1F
100
AcDbEntity
  8
0N
100
AcDbLine
 10
4132.96305187428
 20
2797.348037404807
 30
0.0
 11
4126.034848644004
 21
2809.348037404807
 31
0.0
  0
CIRCLE
  5
12CE
330
1F
100
AcDbEntity
  8
0N
100
AcDbCircle
 10
4119.106645413729
 20
2797.348037404807
 30
0.0
 40
6.9175
  0
LINE
  5
12CF
330
1F
100
AcDbEntity
  8
0N
100
AcDbLine
 10
4126.034848644004
 20
2785.348037404807
 30
0.0
 11
4132.96305187428
 21
2797.348037404807
 31
0.0
  0
CIRCLE
  5
12D0
330
1F
100
AcDbEntity
  8
0N
100
AcDbCircle
 10
4119.106645413729
 20
2797.348037404807
 30
0.0
 40
12.0
  0
LINE
  5
12D1
330
1F
100
AcDbEntity
  8
0N
100
AcDbLine
 10
4112.178442183454
 20
2537.860663989423
 30
0.0
 11
4105.250238953177
 21
2549.860663989422
 31
0.0
  0
LINE
  5
12D2
330
1F
100
AcDbEntity
  8
0N
100
AcDbLine
 10
4105.250238953177
 20
2549.860663989422
 30
0.0
 11
4112.178442183454
 21
2561.860663989423
 31
0.0
  0
LINE
  5
12D3
330
1F
100
AcDbEntity
  8
7
100
AcDbLine
 10
4140.319848849383
 20
2571.07386742511
 30
0.0
 11
4097.89344197819
 21
2528.647460553917
 31
0.0
  0
LINE
  5
12D4
330
1F
100
AcDbEntity
  8
0N
100
AcDbLine
 10
4132.96305187428
 20
2549.860663989422
 30
0.0
 11
4126.034848644004
 21
2537.860663989423
 31
0.0
  0
LINE
  5
12D5
330
1F
100
AcDbEntity
  8
0N
100
AcDbLine
 10
4126.034848644004
 20
2537.860663989423
 30
0.0
 11
4112.178442183454
 21
2537.860663989423
 31
0.0
  0
LINE
  5
12D6
330
1F
100
AcDbEntity
  8
0N
100
AcDbLine
 10
4112.178442183454
 20
2561.860663989423
 30
0.0
 11
4126.034848644004
 21
2561.860663989423
 31
0.0
  0
CIRCLE
  5
12D7
330
1F
100
AcDbEntity
  8
0N
100
AcDbCircle
 10
4119.106645413729
 20
2549.860663989422
 30
0.0
 40
12.0
  0
LINE
  5
12D8
330
1F
100
AcDbEntity
  8
0N
100
AcDbLine
 10
4126.034848644004
 20
2561.860663989423
 30
0.0
 11
4132.96305187428
 21
2549.860663989422
 31
0.0
  0
CIRCLE
  5
12D9
330
1F
100
AcDbEntity
  8
0N
100
AcDbCircle
 10
4119.106645413729
 20
2549.860663989422
 30
0.0
 40
6.9175
  0
LINE
  5
12DA
330
1F
100
AcDbEntity
  8
0N
100
AcDbLine
 10
4373.52222205948
 20
2809.348037404807
 30
0.0
 11
4380.450425289755
 21
2797.348037404806
 31
0.0
  0
LINE
  5
12DB
330
1F
100
AcDbEntity
  8
0N
100
AcDbLine
 10
4359.665815598929
 20
2809.348037404807
 30
0.0
 11
4373.52222205948
 21
2809.348037404807
 31
0.0
  0
LINE
  5
12DC
330
1F
100
AcDbEntity
  8
0N
100
AcDbLine
 10
4373.52222205948
 20
2785.348037404807
 30
0.0
 11
4359.665815598929
 21
2785.348037404807
 31
0.0
  0
CIRCLE
  5
12DD
330
1F
100
AcDbEntity
  8
0N
100
AcDbCircle
 10
4366.594018829204
 20
2797.348037404807
 30
0.0
 40
6.9175
  0
LINE
  5
12DE
330
1F
100
AcDbEntity
  8
0N
100
AcDbLine
 10
4380.450425289755
 20
2797.348037404806
 30
0.0
 11
4373.52222205948
 21
2785.348037404807
 31
0.0
  0
LINE
  5
12DF
330
1F
100
AcDbEntity
  8
0N
100
AcDbLine
 10
4380.450425289755
 20
2549.860663989422
 30
0.0
 11
4373.52222205948
 21
2561.860663989423
 31
0.0
  0
LINE
  5
12E0
330
1F
100
AcDbEntity
  8
0N
100
AcDbLine
 10
4373.52222205948
 20
2561.860663989423
 30
0.0
 11
4359.665815598929
 21
2561.860663989423
 31
0.0
  0
LINE
  5
12E1
330
1F
100
AcDbEntity
  8
0N
100
AcDbLine
 10
4359.665815598929
 20
2537.860663989423
 30
0.0
 11
4373.52222205948
 21
2537.860663989423
 31
0.0
  0
CIRCLE
  5
12E2
330
1F
100
AcDbEntity
  8
0N
100
AcDbCircle
 10
4366.594018829204
 20
2549.860663989422
 30
0.0
 40
6.9175
  0
LINE
  5
12E3
330
1F
100
AcDbEntity
  8
0N
100
AcDbLine
 10
4373.52222205948
 20
2537.860663989423
 30
0.0
 11
4380.450425289755
 21
2549.860663989422
 31
0.0
  0
TEXT
  5
12E4
330
1F
100
AcDbEntity
  8
0
100
AcDbText
 10
4154.759495771854
 20
2110.55936950939
 30
0.0
 40
52.5
  1
点検口
100
AcDbText
  0
DIMENSION
  5
1332
330
1F
100
AcDbEntity
  8
AM_5
100
AcDbDimension
  2
*D8
 10
4328.067555855452
 20
2826.454031033943
 30
0.0
 11
3751.937155264622
 21
2198.492862282555
 31
0.0
 70
   163
  1
P.C.D<>
 71
     5
 42
350.0
  3
IGS$3
100
AcDbDiametricDimension
 15
4157.633108387461
 25
2520.75467036029
 35
0.0
 40
0.0
1001
ACAD
1000
DSTYLE
1002
{
1070
   172
1070
     1
1002
}
  0
DIMENSION
  5
138E
330
1F
100
AcDbEntity
  8
AM_5
100
AcDbDimension
  2
*D9
 10
1137.887454914547
 20
3973.604350697114
 30
0.0
 11
1072.887454914547
 21
3323.604350697114
 31
0.0
 70
    32
 71
     5
 42
1300.0
  3
IGS
100
AcDbAlignedDimension
 13
1577.88745491455
 23
2673.604350697114
 33
0.0
 14
2227.887454914551
 24
3973.604350697114
 34
0.0
 50
90.0
100
AcDbRotatedDimension
1001
ACAD
1000
DSTYLE
1002
{
1070
   174
1070
     1
1002
}
  0
DIMENSION
  5
13B6
330
1F
100
AcDbEntity
  8
AM_5
100
AcDbDimension
  2
*D10
 10
1137.887454914547
 20
3973.604350697114
 30
0.0
 11
1072.880565150767
 21
5173.604350697114
 31
0.0
 70
    32
 71
     5
 42
2400.0
  3
IGS
100
AcDbAlignedDimension
 13
2177.087454914551
 23
6373.604350697113
 33
0.0
 14
2227.887454914551
 24
3973.604350697114
 34
0.0
 50
90.0
100
AcDbRotatedDimension
1001
ACAD
1000
DSTYLE
1002
{
1070
   174
1070
     1
1002
}
  0
DIMENSION
  5
13E5
330
1F
100
AcDbEntity
  8
AM_5
100
AcDbDimension
  2
*D11
 10
1137.887454914547
 20
6373.604350697114
 30
0.0
 11
1072.887454914546
 21
6773.604350697114
 31
0.0
 70
    32
 71
     5
 42
800.0000000000008
  3
IGS
100
AcDbAlignedDimension
 13
2227.887454914551
 23
7173.604350697114
 33
0.0
 14
2177.087454914551
 24
6373.604350697113
 34
0.0
 50
90.0
100
AcDbRotatedDimension
1001
ACAD
1000
DSTYLE
1002
{
1070
   174
1070
     1
1002
}
  0
DIMENSION
  5
1401
330
1F
100
AcDbEntity
  8
AM_5
100
AcDbDimension
  2
*D12
 10
1137.887454914547
 20
7173.604350697114
 30
0.0
 11
1072.887454914546
 21
7223.604350697114
 31
0.0
 70
    32
 71
     5
 42
100.0000000000009
  3
IGS
100
AcDbAlignedDimension
 13
2212.887454914551
 23
7273.604350697114
 33
0.0
 14
2227.887454914551
 24
7173.604350697114
 34
0.0
 50
90.0
100
AcDbRotatedDimension
1001
ACAD
1000
DSTYLE
1002
{
1070
   174
1070
     1
1002
}
  0
DIMENSION
  5
142D
330
1F
100
AcDbEntity
  8
AM_5
100
AcDbDimension
  2
*D13
 10
1337.887454914547
 20
6973.604350697114
 30
0.0
 11
1272.880565150767
 21
7073.604350697114
 31
0.0
 70
    32
 71
     5
 42
200.0000000000009
  3
IGS
100
AcDbAlignedDimension
 13
2227.887454914551
 23
7173.604350697114
 33
0.0
 14
1827.887454914551
 24
6973.604350697114
 34
0.0
 50
90.0
100
AcDbRotatedDimension
1001
ACAD
1000
DSTYLE
1002
{
1070
   174
1070
     1
1002
}
  0
DIMENSION
  5
145E
330
1F
100
AcDbEntity
  8
AM_5
100
AcDbDimension
  2
*D14
 10
1337.887454914547
 20
6513.604350697113
 30
0.0
 11
1272.887454914547
 21
6743.604350697113
 31
0.0
 70
    32
 71
     5
 42
460.0000000000009
  3
IGS
100
AcDbAlignedDimension
 13
1827.887454914551
 23
6973.604350697114
 33
0.0
 14
2002.887454914551
 24
6513.604350697113
 34
0.0
 50
90.0
100
AcDbRotatedDimension
1001
ACAD
1000
DSTYLE
1002
{
1070
   174
1070
     1
1002
}
  0
DIMENSION
  5
147A
330
1F
100
AcDbEntity
  8
AM_5
100
AcDbDimension
  2
*D15
 10
1337.887454914547
 20
6373.604350697114
 30
0.0
 11
1272.887454914547
 21
6443.604350697113
 31
0.0
 70
    32
 71
     5
 42
139.9999999999991
  3
IGS
100
AcDbAlignedDimension
 13
2002.887454914551
 23
6513.604350697113
 33
0.0
 14
2177.087454914552
 24
6373.604350697113
 34
0.0
 50
90.0
100
AcDbRotatedDimension
1001
ACAD
1000
DSTYLE
1002
{
1070
   174
1070
     1
1002
}
  0
DIMENSION
  5
14C3
330
1F
100
AcDbEntity
  8
AM_5
100
AcDbDimension
  2
*D16
 10
937.8874549145463
 20
7273.604350697114
 30
0.0
 11
872.887454914545
 21
4973.604350697115
 31
0.0
 70
    32
 71
     5
 42
4600.0
  3
IGS
100
AcDbAlignedDimension
 13
1577.88745491455
 23
2673.604350697114
 33
0.0
 14
2212.887454914551
 24
7273.604350697114
 34
0.0
 50
90.0
100
AcDbRotatedDimension
  0
DIMENSION
  5
14E7
330
1F
100
AcDbEntity
  8
AM_5
100
AcDbDimension
  2
*D17
 10
1137.887454914549
 20
1573.604350697114
 30
0.0
 11
1072.887454914549
 21
2123.604350697114
 31
0.0
 70
    32
 71
     5
 42
1100.0
  3
IGS
100
AcDbAlignedDimension
 13
1577.88745491455
 23
2673.604350697114
 33
0.0
 14
1927.88745491455
 24
1573.604350697114
 34
0.0
 50
90.0
100
AcDbRotatedDimension
  0
DIMENSION
  5
1511
330
1F
100
AcDbEntity
  8
AM_5
100
AcDbDimension
  2
*D18
 10
2527.88745491455
 20
1333.604349697113
 30
0.0
 11
2227.88745491455
 21
1398.604349697113
 31
0.0
 70
    32
  1
{\Famgdt;o}<>x600
 71
     5
 42
600.0
  3
IGS
100
AcDbAlignedDimension
 13
1927.88745491455
 23
1573.604350697114
 33
0.0
 14
2527.88745491455
 24
1573.604350697114
 34
0.0
100
AcDbRotatedDimension
  0
DIMENSION
  5
154B
330
1F
100
AcDbEntity
  8
AM_5
100
AcDbDimension
  2
*D19
 10
1337.887454914546
 20
5173.604350697119
 30
0.0
 11
1272.880565150766
 21
3923.604350697117
 31
0.0
 70
    32
 71
     5
 42
2500.000000000005
  3
IGS
100
AcDbAlignedDimension
 13
1577.88745491455
 23
2673.604350697114
 33
0.0
 14
1982.567454914551
 24
5173.604350697119
 34
0.0
 50
90.0
100
AcDbRotatedDimension
  0
INSERT
  5
15EF
330
1F
100
AcDbEntity
  8
AM_12
100
AcDbBlockReference
  2
*S20
 10
0.0
 20
0.0
 30
0.0
  0
INSERT
  5
15F6
330
1F
100
AcDbEntity
  8
AM_5
100
AcDbBlockReference
  2
*S21
 10
0.0
 20
0.0
 30
0.0
  0
INSERT
  5
15F8
330
1F
100
AcDbEntity
  8
AM_12
100
AcDbBlockReference
  2
*S22
 10
0.0
 20
0.0
 30
0.0
  0
INSERT
  5
15FD
330
1F
100
AcDbEntity
  8
AM_5
100
AcDbBlockReference
  2
*S23
 10
0.0
 20
0.0
 30
0.0
  0
INSERT
  5
15FF
330
1F
100
AcDbEntity
  8
AM_12
100
AcDbBlockReference
  2
*S24
 10
0.0
 20
0.0
 30
0.0
  0
INSERT
  5
1604
330
1F
100
AcDbEntity
  8
AM_5
100
AcDbBlockReference
  2
*S25
 10
0.0
 20
0.0
 30
0.0
  0
INSERT
  5
1606
330
1F
100
AcDbEntity
  8
AM_12
100
AcDbBlockReference
  2
*S26
 10
0.0
 20
0.0
 30
0.0
  0
INSERT
  5
160B
330
1F
100
AcDbEntity
  8
AM_5
100
AcDbBlockReference
  2
*S27
 10
0.0
 20
0.0
 30
0.0
  0
INSERT
  5
160D
330
1F
100
AcDbEntity
  8
AM_12
100
AcDbBlockReference
  2
*S28
 10
0.0
 20
0.0
 30
0.0
  0
INSERT
  5
1612
330
1F
100
AcDbEntity
  8
AM_5
100
AcDbBlockReference
  2
*S29
 10
0.0
 20
0.0
 30
0.0
  0
INSERT
  5
1614
330
1F
100
AcDbEntity
  8
AM_12
100
AcDbBlockReference
  2
*S30
 10
0.0
 20
0.0
 30
0.0
  0
INSERT
  5
1619
330
1F
100
AcDbEntity
  8
AM_5
100
AcDbBlockReference
  2
*S31
 10
0.0
 20
0.0
 30
0.0
  0
INSERT
  5
161B
330
1F
100
AcDbEntity
  8
AM_12
100
AcDbBlockReference
  2
*S32
 10
0.0
 20
0.0
 30
0.0
  0
INSERT
  5
1620
330
1F
100
AcDbEntity
  8
AM_5
100
AcDbBlockReference
  2
*S33
 10
0.0
 20
0.0
 30
0.0
  0
INSERT
  5
1629
330
1F
100
AcDbEntity
  8
0
100
AcDbBlockReference
  2
*S34
 10
0.0
 20
0.0
 30
0.0
  0
INSERT
  5
16B9
330
1F
100
AcDbEntity
  8
AM_12
100
AcDbBlockReference
  2
*S35
 10
0.0
 20
0.0
 30
0.0
  0
INSERT
  5
16BE
330
1F
100
AcDbEntity
  8
AM_5
100
AcDbBlockReference
  2
*S36
 10
0.0
 20
0.0
 30
0.0
  0
LINE
  5
16E3
330
1F
100
AcDbEntity
  8
AM_7
100
AcDbLine
 10
4242.850332121467
 20
3029.484350697115
 30
0.0
 11
4242.850332121467
 21
2317.724350697115
 31
0.0
1001
GENIUS_GENOBJ-N-CEN_13
1002
{
1000
OWNER
1000
GEN
1002
}
1001
GENIUS_GENODEF_13
1002
{
1000
HIER
1070
     0
1002
}
1002
{
1000
MANEDIT
1070
     0
1002
}
1002
{
1000
NOSEL
1070
     0
1002
}
1002
{
1000
BEHIND
1070
     0
1002
}
1002
{
1000
OTHER
1070
     0
1002
}
1002
{
1000
REACTOR
1002
}
  0
LINE
  5
16F0
330
1F
100
AcDbEntity
  8
AM_7
100
AcDbLine
 10
3886.970332121467
 20
2673.604350697115
 30
0.0
 11
4598.730332121466
 21
2673.604350697115
 31
0.0
1001
GENIUS_GENOBJ-N-CEN_13
1002
{
1000
OWNER
1000
GEN
1002
}
1001
GENIUS_GENODEF_13
1002
{
1000
HIER
1070
     0
1002
}
1002
{
1000
MANEDIT
1070
     0
1002
}
1002
{
1000
NOSEL
1070
     0
1002
}
1002
{
1000
BEHIND
1070
     0
1002
}
1002
{
1000
OTHER
1070
     0
1002
}
1002
{
1000
REACTOR
1002
}
  0
HATCH
  5
1720
330
1F
100
AcDbEntity
  8
AM_8
100
AcDbHatch
 10
0.0
 20
0.0
 30
0.0
210
0.0
220
0.0
230
1.0
  2
PLAST
 70
     0
 71
     0
 91
        2
 92
        1
 93
        4
 72
     1
 10
4542.850332121466
 20
2373.604350697115
 11
4542.850332121467
 21
2973.604350697115
 72
     1
 10
4542.850332121467
 20
2973.604350697115
 11
3942.850332121468
 21
2973.604350697115
 72
     1
 10
3942.850332121468
 20
2973.604350697115
 11
3942.850332121467
 21
2373.604350697115
 72
     1
 10
3942.850332121467
 20
2373.604350697115
 11
4542.850332121466
 21
2373.604350697115
 97
        0
 92
       16
 93
        2
 72
     2
 10
4242.850332121454
 20
2673.604350697117
 40
224.9999999999992
 50
168.5408440973828
 51
523.741521495872
 73
     0
 72
     2
 10
4242.850332121455
 20
2673.604350697118
 40
224.9999999999997
 50
163.7415214958718
 51
168.5408440973827
 73
     0
 97
        0
 75
     0
 76
     1
 52
45.0
 41
40.0
 77
     0
 78
     3
 53
45.0
 43
482.1361048077705
 44
0.0
 45
-179.605122421383
 46
179.605122421383
 79
     0
 53
45.0
 43
459.6854645050977
 44
22.45064030267288
 45
-179.605122421383
 46
179.605122421383
 79
     0
 53
45.0
 43
437.2348242024249
 44
44.90128060534576
 45
-179.605122421383
 46
179.605122421383
 79
     0
 98
        1
 10
482.1361048077705
 20
0.0
1001
GENIUS_GENOBJ-N-HTC_13
1002
{
1000
OWNER
1000
GEN
1002
}
1001
GENIUS_GENODEF_13
1002
{
1000
HIER
1070
     0
1002
}
1002
{
1000
MANEDIT
1070
     0
1002
}
1002
{
1000
NOSEL
1070
     0
1002
}
1002
{
1000
BEHIND
1070
     0
1002
}
1002
{
1000
OTHER
1070
     0
1002
}
1002
{
1000
REACTOR
1002
}
1001
GENIUS_GENHATCH_13
1002
{
1000
DATA
1040
45.0
1042
2.0
1000
PLAST
1070
     0
1011
3975.472481822628
1021
2595.627885109531
1031
0.0
1002
}
1002
{
1000
UCS
1010
0.0
1020
0.0
1030
0.0
1010
1.0
1020
0.0
1030
0.0
1010
0.0
1020
1.0
1030
0.0
1002
}
  0
TEXT
  5
1734
330
1F
100
AcDbEntity
  8
0
100
AcDbText
 10
4244.933028402026
 20
936.5925649556698
 30
0.0
 40
50.00000000000111
  1
松
 72
     4
 11
4268.266361735359
 21
961.5925649556704
 31
0.0
100
AcDbText
  0
CIRCLE
  5
1735
330
1F
100
AcDbEntity
  8
0
100
AcDbCircle
 10
4269.447258404979
 20
897.0671255229587
 30
0.0
 40
99.99999997800223
  0
TEXT
  5
1736
330
1F
100
AcDbEntity
  8
0
100
AcDbText
 10
4248.100992001033
 20
803.9466082971717
 30
0.0
 40
50.00000000000111
  1
本
 72
     4
 11
4271.434325334367
 21
828.9466082971724
 31
0.0
100
AcDbText
  0
TEXT
  5
1737
330
1F
100
AcDbEntity
  8
TEXT
100
AcDbText
 10
4182.089992472392
 20
870.9801690069578
 30
0.0
 40
52.173913032
  1
02.11.8
 41
0.9134272300469358
 72
     5
 11
4351.272601130822
 21
870.9801690069578
 31
0.0
100
AcDbText
  0
LINE
  5
1738
330
1F
100
AcDbEntity
  8
0
100
AcDbLine
 10
4363.203165570658
 20
931.8497342109601
 30
0.0
 11
4175.691351239311
 21
931.8497342109601
 31
0.0
  0
LINE
  5
1739
330
1F
100
AcDbEntity
  8
0
100
AcDbLine
 10
4363.203165570658
 20
862.2845168349574
 30
0.0
 11
4175.691351239311
 21
862.2845168349574
 31
0.0
  0
ENDSEC
  0
SECTION
  2
OBJECTS
  0
DICTIONARY
  5
C
330
0
100
AcDbDictionary
281
     1
  3
ACAD_COLOR
350
174A
  3
ACAD_GROUP
350
D
  3
ACAD_LAYOUT
350
1A
  3
ACAD_MATERIAL
350
1749
  3
ACAD_MLINESTYLE
350
17
  3
ACAD_PLOTSETTINGS
350
19
  3
ACAD_PLOTSTYLENAME
350
E
  3
ACDBHEADERROUNDTRIPXREC
350
1962
  3
AcDbVariableDictionary
350
43
  3
AcmDictionary
350
55
  3
AMG
350
2B
  3
AMGSNAPSETTINGS
350
A8
  3
DWGPROPS
350
1961
  0
DICTIONARY
  5
F7D
330
2
100
AcDbDictionary
280
     1
281
     1
  3
ACAD_LAYERFILTERS
360
F7E
  3
ACAD_LAYERSTATES
360
FB7
  0
DICTIONARY
  5
B1
330
1F
100
AcDbDictionary
280
     1
281
     1
  3
ACAD_INDEX
360
B2
  0
DICTIONARY
  5
174A
102
{ACAD_REACTORS
330
C
102
}
330
C
100
AcDbDictionary
281
     1
  0
DICTIONARY
  5
D
102
{ACAD_REACTORS
330
C
102
}
330
C
100
AcDbDictionary
281
     1
  0
DICTIONARY
  5
1A
102
{ACAD_REACTORS
330
C
102
}
330
C
100
AcDbDictionary
281
     1
  3
Model
350
22
  3
ﾚｲｱｳﾄ1
350
1E
  3
ﾚｲｱｳﾄ2
350
26
  0
DICTIONARY
  5
1749
102
{ACAD_REACTORS
330
C
102
}
330
C
100
AcDbDictionary
281
     1
  0
DICTIONARY
  5
17
102
{ACAD_REACTORS
330
C
102
}
330
C
100
AcDbDictionary
281
     1
  3
Standard
350
18
  0
DICTIONARY
  5
19
102
{ACAD_REACTORS
330
C
102
}
330
C
100
AcDbDictionary
281
     1
  0
ACDBDICTIONARYWDFLT
  5
E
102
{ACAD_REACTORS
330
C
102
}
330
C
100
AcDbDictionary
281
     1
  3
Normal
350
F
100
AcDbDictionaryWithDefault
340
F
  0
DICTIONARY
  5
1962
102
{ACAD_REACTORS
330
C
102
}
330
C
100
AcDbDictionary
281
     1
  3
COLORDICT
350
1964
  3
MATERIALDICT
350
1963
  0
DICTIONARY
  5
43
102
{ACAD_REACTORS
330
C
102
}
330
C
100
AcDbDictionary
281
     1
  3
DIMASSOC
350
18A6
  3
INDEXCTL
350
44
  3
PROJECTNAME
350
18A7
  3
SORTENTS
350
18A5
  0
DICTIONARY
  5
55
102
{ACAD_REACTORS
330
C
102
}
330
C
100
AcDbDictionary
281
     1
  3
AcmBOM
350
3D1
  3
AcmStdDictionary
350
59
  3
AMDTSECTSYM_ARROWCOLOR
350
1751
  0
DICTIONARY
  5
2B
102
{ACAD_REACTORS
330
C
102
}
330
C
100
AcDbDictionary
281
     1
  0
DICTIONARY
  5
A8
102
{ACAD_REACTORS
330
C
102
}
330
C
100
AcDbDictionary
281
     1
  0
XRECORD
  5
1961
102
{ACAD_REACTORS
330
C
102
}
330
C
100
AcDbXrecord
280
     1
  1
DWGPROPS COOKIE
  2

  3

  4

  6

  7

  8

  9

300
AmdtFileType=84
301
=
302
=
303
=
304
=
305
=
306
=
307
=
308
=
309
=
 40
0.0766203587962963
 41
2452587.451982419
 42
2454719.548795382
  1

 90
        1
  0
DICTIONARY
  5
F7E
102
{ACAD_REACTORS
330
F7D
102
}
330
F7D
100
AcDbDictionary
280
     1
281
     1
  3
-H
360
F7F
  3
-T
360
F80
  3
8
360
F81
  3
A3
360
F82
  3
BAL
360
F83
  3
C打計画図
360
F84
  3
DASHED
360
F85
  3
DASHED2
360
F86
  3
FUKI
360
F87
  3
H
360
F88
  3
HAISEN
360
F89
  3
HARI
360
F8A
  3
HASIRA
360
F8B
  3
KABE
360
F8C
  3
key
360
F8D
  3
KIJUN
360
F8E
  3
MAJIKIRI
360
F8F
  3
MB
360
F90
  3
MOJI
360
F91
  3
PC
360
F92
  3
plot
360
F93
  3
S
360
F94
  3
SETUBI
360
F95
  3
SHITU
360
F96
  3
SHITUMEI
360
F97
  3
T
360
F98
  3
TATEGU
360
F99
  3
test
360
F9A
  3
ZATU
360
F9B
  3
ﾌﾘｰｽﾞ画層非表示
360
F9C
  3
ﾌﾘｰｽﾞ画面非表示
360
F9D
  3
衛生設備図
360
F9E
  3
基礎伏図
360
F9F
  3
躯体図
360
FA0
  3
空調設備図
360
FA1
  3
型枠計画図
360
FA2
  3
杭伏図
360
FA3
  3
山止根切計画図
360
FA4
  3
上階躯体図
360
FA5
  3
色番号8
360
FA6
  3
芯関係
360
FA7
  3
総合仮設図
360
FA8
  3
足場計画図
360
FA9
  3
鉄骨建方計画図
360
FAA
  3
天井インサート図
360
FAB
  3
天井総合図
360
FAC
  3
天井伏図
360
FAD
  3
天伏
360
FAE
  3
電気設備図
360
FAF
  3
道路関係図
360
FB0
  3
平詳
360
FB1
  3
平面詳細図
360
FB2
  3
平面総合図
360
FB3
  3
面積
360
FB4
  0
DICTIONARY
  5
FB7
102
{ACAD_REACTORS
330
F7D
102
}
330
F7D
100
AcDbDictionary
281
     1
  0
DICTIONARY
  5
B2
102
{ACAD_REACTORS
330
B1
102
}
330
B1
100
AcDbDictionary
281
     1
  3
*A1
350
B3
  0
LAYOUT
  5
22
102
{ACAD_XDICTIONARY
360
1967
102
}
102
{ACAD_REACTORS
330
1A
102
}
330
1A
100
AcDbPlotSettings
  1

  2
RICOH IPSiO NX410
  4
A3
  6
AM_VIEW1
 40
5.831416606903076
 41
4.307413101196289
 42
8.244415283203125
 43
5.789093017578125
 44
296.9683227539062
 45
419.9889831542968
 46
-7.049999999999999
 47
-5.049999999999999
 48
404.2488796062129
 49
338.7071992344143
140
6344.248879606212
141
8738.707199234417
142
1.0
143
20.0
 70
 11956
 72
     1
 73
     0
 74
     4
  7
monochrome.ctb
 75
    22
147
0.05
148
-404.2488796062129
149
-338.7071992344143
100
AcDbLayout
  1
Model
 70
     1
 71
     0
 10
0.0
 20
0.0
 11
12.0
 21
9.0
 12
0.0
 22
0.0
 32
0.0
 14
0.0
 24
0.0
 34
0.0
 15
0.0
 25
0.0
 35
0.0
146
0.0
 13
0.0
 23
0.0
 33
0.0
 16
1.0
 26
0.0
 36
0.0
 17
0.0
 27
1.0
 37
0.0
 76
     0
330
1F
  0
LAYOUT
  5
1E
102
{ACAD_XDICTIONARY
360
1965
102
}
102
{ACAD_REACTORS
330
1A
102
}
330
1A
100
AcDbPlotSettings
  1

  2
MUTOH RL-803C(ﾌﾟﾛｯﾀﾓｰﾄﾞ)
  4

  6

 40
0.0
 41
0.0
 42
0.0
 43
0.0
 44
0.0
 45
0.0
 46
0.0
 47
0.0
 48
0.0
 49
0.0
140
0.0
141
0.0
142
1.0
143
1.0
 70
   688
 72
     0
 73
     0
 74
     5
  7
monochrome.ctb
 75
    16
147
1.0
148
0.0
149
0.0
100
AcDbLayout
  1
ﾚｲｱｳﾄ1
 70
     1
 71
     1
 10
0.0
 20
0.0
 11
420.0
 21
297.0
 12
0.0
 22
0.0
 32
0.0
 14
1.000000000000000E+20
 24
1.000000000000000E+20
 34
1.000000000000000E+20
 15
-1.000000000000000E+20
 25
-1.000000000000000E+20
 35
-1.000000000000000E+20
146
0.0
 13
0.0
 23
0.0
 33
0.0
 16
1.0
 26
0.0
 36
0.0
 17
0.0
 27
1.0
 37
0.0
 76
     0
330
1B
  0
LAYOUT
  5
26
102
{ACAD_XDICTIONARY
360
1969
102
}
102
{ACAD_REACTORS
330
1A
102
}
330
1A
100
AcDbPlotSettings
  1

  2
MUTOH RL-803C(ﾌﾟﾛｯﾀﾓｰﾄﾞ)
  4

  6

 40
0.0
 41
0.0
 42
0.0
 43
0.0
 44
0.0
 45
0.0
 46
0.0
 47
0.0
 48
0.0
 49
0.0
140
0.0
141
0.0
142
1.0
143
1.0
 70
   688
 72
     0
 73
     0
 74
     5
  7
monochrome.ctb
 75
    16
147
1.0
148
0.0
149
0.0
100
AcDbLayout
  1
ﾚｲｱｳﾄ2
 70
     1
 71
     2
 10
0.0
 20
0.0
 11
12.0
 21
9.0
 12
0.0
 22
0.0
 32
0.0
 14
0.0
 24
0.0
 34
0.0
 15
0.0
 25
0.0
 35
0.0
146
0.0
 13
0.0
 23
0.0
 33
0.0
 16
1.0
 26
0.0
 36
0.0
 17
0.0
 27
1.0
 37
0.0
 76
     0
330
23
  0
MLINESTYLE
  5
18
102
{ACAD_REACTORS
330
17
102
}
330
17
100
AcDbMlineStyle
  2
STANDARD
 70
     0
  3

 62
   256
 51
90.0
 52
90.0
 71
     2
 49
0.5
 62
   256
  6
BYLAYER
 49
-0.5
 62
   256
  6
BYLAYER
  0
ACDBPLACEHOLDER
  5
F
102
{ACAD_REACTORS
330
E
102
}
330
E
  0
XRECORD
  5
1964
102
{ACAD_REACTORS
330
1962
102
}
330
1962
100
AcDbXrecord
280
     1
340
174A
  0
XRECORD
  5
1963
102
{ACAD_REACTORS
330
1962
102
}
330
1962
100
AcDbXrecord
280
     1
340
1749
  0
DICTIONARYVAR
  5
18A6
102
{ACAD_REACTORS
330
43
102
}
330
43
100
DictionaryVariables
280
     0
  1
1
  0
DICTIONARYVAR
  5
44
102
{ACAD_REACTORS
330
43
102
}
330
43
100
DictionaryVariables
280
     0
  1
1
  0
DICTIONARYVAR
  5
18A7
102
{ACAD_REACTORS
330
43
102
}
330
43
100
DictionaryVariables
280
     0
  1

  0
DICTIONARYVAR
  5
18A5
102
{ACAD_REACTORS
330
43
102
}
330
43
100
DictionaryVariables
280
     0
  1
103
  0
DICTIONARY
  5
3D1
102
{ACAD_REACTORS
330
55
102
}
330
55
100
AcDbDictionary
281
     1
  0
DICTIONARY
  5
59
102
{ACAD_REACTORS
330
55
102
}
330
55
100
AcDbDictionary
281
     1
  0
XRECORD
  5
1751
102
{ACAD_REACTORS
330
55
102
}
330
55
100
AcDbXrecord
280
     1
 90
-1023410169
  0
XRECORD
  5
F7F
102
{ACAD_REACTORS
330
F7E
102
}
330
F7E
100
AcDbXrecord
280
     1
  1
-H
  1
00*,01*,02*,05*,1*,2*,3*,4*,5*,6*,8*
  1
*
  1
*
 70
     0
  1
*
  1
*
  0
XRECORD
  5
F80
102
{ACAD_REACTORS
330
F7E
102
}
330
F7E
100
AcDbXrecord
280
     1
  1
-T
  1
00*,01*,03*,05*,1*,20*,21*,22*,23*,24*,25*,26*,27*,29*,2a*,3*,4*,7*,9*
  1
*
  1
*
 70
     0
  1
*
  1
*
  0
XRECORD
  5
F81
102
{ACAD_REACTORS
330
F7E
102
}
330
F7E
100
AcDbXrecord
280
     1
  1
8
  1
*
  1
8
  1
*
 70
     0
  1
*
  1
*
  0
XRECORD
  5
F82
102
{ACAD_REACTORS
330
F7E
102
}
330
F7E
100
AcDbXrecord
280
     1
  1
A3
  1
*A3
  1
*
  1
*
 70
     0
  1
*
  1
*
  0
XRECORD
  5
F83
102
{ACAD_REACTORS
330
F7E
102
}
330
F7E
100
AcDbXrecord
280
     1
  1
BAL
  1
*BAL
  1
*
  1
*
 70
     0
  1
*
  1
*
  0
XRECORD
  5
F84
102
{ACAD_REACTORS
330
F7E
102
}
330
F7E
100
AcDbXrecord
280
     1
  1
C打計画図
  1
001*,002*,003*,004*,005*,007*,012*,015*,016*,017*,018*,019*,020*,021*,049*,050*,051*,052*,053*,054*,055*,056*,057*,058*,059*,060*,061*,062*,063*,064*,065*,066*,067*,068*,069*,070*,071*,072*,073*,074*,075*
  1
*
  1
*
 70
     0
  1
*
  1
*
  0
XRECORD
  5
F85
102
{ACAD_REACTORS
330
F7E
102
}
330
F7E
100
AcDbXrecord
280
     1
  1
DASHED
  1
*
  1
*
  1
DASHED
 70
     0
  1
*
  1
*
  0
XRECORD
  5
F86
102
{ACAD_REACTORS
330
F7E
102
}
330
F7E
100
AcDbXrecord
280
     1
  1
DASHED2
  1
*
  1
*
  1
DASHED
 70
     0
  1
*
  1
*
  0
XRECORD
  5
F87
102
{ACAD_REACTORS
330
F7E
102
}
330
F7E
100
AcDbXrecord
280
     1
  1
FUKI
  1
*FUKI
  1
*
  1
*
 70
     0
  1
*
  1
*
  0
XRECORD
  5
F88
102
{ACAD_REACTORS
330
F7E
102
}
330
F7E
100
AcDbXrecord
280
     1
  1
H
  1
00*,01*,02*,03*,05*,06*,1*,2*,3*,4*,5*,6*,8*,D*,
  1
*
  1
*
 70
     0
  1
*
  1
*
  0
XRECORD
  5
F89
102
{ACAD_REACTORS
330
F7E
102
}
330
F7E
100
AcDbXrecord
280
     1
  1
HAISEN
  1
*1,HAISEN
  1
*
  1
*
 70
     0
  1
*
  1
*
  0
XRECORD
  5
F8A
102
{ACAD_REACTORS
330
F7E
102
}
330
F7E
100
AcDbXrecord
280
     1
  1
HARI
  1
*HARI
  1
*
  1
*
 70
     0
  1
*
  1
*
  0
XRECORD
  5
F8B
102
{ACAD_REACTORS
330
F7E
102
}
330
F7E
100
AcDbXrecord
280
     1
  1
HASIRA
  1
*HASIRA
  1
*
  1
*
 70
     0
  1
*
  1
*
  0
XRECORD
  5
F8C
102
{ACAD_REACTORS
330
F7E
102
}
330
F7E
100
AcDbXrecord
280
     1
  1
KABE
  1
*KABE
  1
*
  1
*
 70
     0
  1
*
  1
*
  0
XRECORD
  5
F8D
102
{ACAD_REACTORS
330
F7E
102
}
330
F7E
100
AcDbXrecord
280
     1
  1
key
  1
keyplan
  1
*
  1
*
 70
     0
  1
*
  1
*
  0
XRECORD
  5
F8E
102
{ACAD_REACTORS
330
F7E
102
}
330
F7E
100
AcDbXrecord
280
     1
  1
KIJUN
  1
*KIJUN
  1
*
  1
*
 70
     0
  1
*
  1
*
  0
XRECORD
  5
F8F
102
{ACAD_REACTORS
330
F7E
102
}
330
F7E
100
AcDbXrecord
280
     1
  1
MAJIKIRI
  1
*MAJIKIRI
  1
*
  1
*
 70
     0
  1
*
  1
*
  0
XRECORD
  5
F90
102
{ACAD_REACTORS
330
F7E
102
}
330
F7E
100
AcDbXrecord
280
     1
  1
MB
  1
*MB
  1
*
  1
*
 70
     0
  1
*
  1
*
  0
XRECORD
  5
F91
102
{ACAD_REACTORS
330
F7E
102
}
330
F7E
100
AcDbXrecord
280
     1
  1
MOJI
  1
*MOJI
  1
*
  1
*
 70
     0
  1
*
  1
*
  0
XRECORD
  5
F92
102
{ACAD_REACTORS
330
F7E
102
}
330
F7E
100
AcDbXrecord
280
     1
  1
PC
  1
0,11*,12*,13*,14*,15*,18*,23*,25*,30*,31*,32*,51*,52*,54*,59*,60*,66*,67*,69*,76*
  1
*
  1
*
 70
     0
  1
*
  1
*
  0
XRECORD
  5
F93
102
{ACAD_REACTORS
330
F7E
102
}
330
F7E
100
AcDbXrecord
280
     1
  1
plot
  1
*
  1
*
  1
*
 70
     1
  1
*
  1
*
  0
XRECORD
  5
F94
102
{ACAD_REACTORS
330
F7E
102
}
330
F7E
100
AcDbXrecord
280
     1
  1
S
  1
0,05*,11*,12*,13*,14*,20*,21*,22*,55*,56*,
  1
*
  1
*
 70
     0
  1
*
  1
*
  0
XRECORD
  5
F95
102
{ACAD_REACTORS
330
F7E
102
}
330
F7E
100
AcDbXrecord
280
     1
  1
SETUBI
  1
*SETUBI
  1
*
  1
*
 70
     0
  1
*
  1
*
  0
XRECORD
  5
F96
102
{ACAD_REACTORS
330
F7E
102
}
330
F7E
100
AcDbXrecord
280
     1
  1
SHITU
  1
*SHITUMEI*
  1
*
  1
*
 70
     0
  1
*
  1
*
  0
XRECORD
  5
F97
102
{ACAD_REACTORS
330
F7E
102
}
330
F7E
100
AcDbXrecord
280
     1
  1
SHITUMEI
  1
*SHITUMEI2
  1
*
  1
*
 70
     0
  1
*
  1
*
  0
XRECORD
  5
F98
102
{ACAD_REACTORS
330
F7E
102
}
330
F7E
100
AcDbXrecord
280
     1
  1
T
  1
00*,01*,02*,04*,05*,06*,1*,2*,3*,4*,7*,9*,D*,
  1
*
  1
*
 70
     0
  1
*
  1
*
  0
XRECORD
  5
F99
102
{ACAD_REACTORS
330
F7E
102
}
330
F7E
100
AcDbXrecord
280
     1
  1
TATEGU
  1
*TATEGU
  1
*
  1
*
 70
     0
  1
*
  1
*
  0
XRECORD
  5
F9A
102
{ACAD_REACTORS
330
F7E
102
}
330
F7E
100
AcDbXrecord
280
     1
  1
test
  1
keyplan
  1
*
  1
*
 70
     0
  1
*
  1
*
  0
XRECORD
  5
F9B
102
{ACAD_REACTORS
330
F7E
102
}
330
F7E
100
AcDbXrecord
280
     1
  1
ZATU
  1
*ZATU
  1
*
  1
*
 70
     0
  1
*
  1
*
  0
XRECORD
  5
F9C
102
{ACAD_REACTORS
330
F7E
102
}
330
F7E
100
AcDbXrecord
280
     1
  1
ﾌﾘｰｽﾞ画層非表示
  1
*
  1
*
  1
*
 70
    12
  1
*
  1
*
  0
XRECORD
  5
F9D
102
{ACAD_REACTORS
330
F7E
102
}
330
F7E
100
AcDbXrecord
280
     1
  1
ﾌﾘｰｽﾞ画面非表示
  1
*
  1
*
  1
*
 70
    12
  1
*
  1
*
  0
XRECORD
  5
F9E
102
{ACAD_REACTORS
330
F7E
102
}
330
F7E
100
AcDbXrecord
280
     1
  1
衛生設備図
  1
001*,002*,004*,005*,007*,010*,039*,040*,041*,042*,043*
  1
*
  1
*
 70
     0
  1
*
  1
*
  0
XRECORD
  5
F9F
102
{ACAD_REACTORS
330
F7E
102
}
330
F7E
100
AcDbXrecord
280
     1
  1
基礎伏図
  1
SIZE,HOJO,ZATU,HATCH,GL-HARI,GL-HASIRA,KISO,KUI,MOJI-K1,GL-FUGO,SUNPO-K1,SUNPO,SUNPO2,SUNPO1,KIJUN3,KIJUN
  1
*
  1
*
 70
     0
  1
*
  1
*
  0
XRECORD
  5
FA0
102
{ACAD_REACTORS
330
F7E
102
}
330
F7E
100
AcDbXrecord
280
     1
  1
躯体図
  1
000*,001*,010*,020*,080*,081*,090*,110*,111*,112*,113*,114*,115*,115*,116*,120*,140*,150*,160*,161*,162*,163*,164*,165*,167*,168*,170*,191*,265*,266*,900*,901*,902*,903*,HOJO,ZATU
  1
*
  1
*
 70
     0
  1
*
  1
*
  0
XRECORD
  5
FA1
102
{ACAD_REACTORS
330
F7E
102
}
330
F7E
100
AcDbXrecord
280
     1
  1
空調設備図
  1
001*,002*,004*,005*,007*,010*,033*,034*,035*,036*,037*,038*
  1
*
  1
*
 70
     0
  1
*
  1
*
  0
XRECORD
  5
FA2
102
{ACAD_REACTORS
330
F7E
102
}
330
F7E
100
AcDbXrecord
280
     1
  1
型枠計画図
  1
001*,002*,003*,004*,005*,006*,007*,010*,012*,050*,051*,055*,056*,057*,058*,059*,060*,061*,062*,063*,064*,065*,066*,067*,068*,069*,070*,071*,072*,073*,074*,075*
  1
*
  1
*
 70
     0
  1
*
  1
*
  0
XRECORD
  5
FA3
102
{ACAD_REACTORS
330
F7E
102
}
330
F7E
100
AcDbXrecord
280
     1
  1
杭伏図
  1
SIZE,HOJO,KUI,SUNPO,KIJUN,KUI-SUNPO,KUI-MOJI
  1
*
  1
*
 70
     0
  1
*
  1
*
  0
XRECORD
  5
FA4
102
{ACAD_REACTORS
330
F7E
102
}
330
F7E
100
AcDbXrecord
280
     1
  1
山止根切計画図
  1
001*,002*,003*,004*,005*,007*,012*,049*,050*,051*,052*,053*,054*,055*,056*,057*,058*,059*,060*,061*,062*,064*,065*,066*,067*,068*,069*,070*,071*,072*,073*,074*,075*
  1
*
  1
*
 70
     0
  1
*
  1
*
  0
XRECORD
  5
FA5
102
{ACAD_REACTORS
330
F7E
102
}
330
F7E
100
AcDbXrecord
280
     1
  1
上階躯体図
  1
FUGOT,KUTAI-Z,SIZE,HOJO,ZATU,HATCH,BR-S,KABE2,KABE,MAJIKIRI,KOBARI-S,KOBARI-R,HARI-S,HARI-R,HASIRA-S,HASIRA-R,MOJI-K2,FL-FUGO,FUGO-W,SUNPO-K2,SUNPO,SUNPO2,SUNPO1,KIJUN2,KIJUN1,KIJUN,
  1
*
  1
*
 70
     0
  1
*
  1
*
  0
XRECORD
  5
FA6
102
{ACAD_REACTORS
330
F7E
102
}
330
F7E
100
AcDbXrecord
280
     1
  1
色番号8
  1
*
  1
8
  1
*
 70
     0
  1
*
  1
*
  0
XRECORD
  5
FA7
102
{ACAD_REACTORS
330
F7E
102
}
330
F7E
100
AcDbXrecord
280
     1
  1
芯関係
  1
001*,002*,032*
  1
*
  1
*
 70
     0
  1
*
  1
*
  0
XRECORD
  5
FA8
102
{ACAD_REACTORS
330
F7E
102
}
330
F7E
100
AcDbXrecord
280
     1
  1
総合仮設図
  1
001*,002*,003*,004*,005*,007*,012*,015*,016*,017*,018*,019*,020*,021*,049*,050*,051*,052*,053*,054*,055*,056*,057*,058*,059*,060*,061*,062*,063*,064*,065*,066*,067*,068*,069*,070*,071*,072*,073*,074*,075*
  1
*
  1
*
 70
     0
  1
*
  1
*
  0
XRECORD
  5
FA9
102
{ACAD_REACTORS
330
F7E
102
}
330
F7E
100
AcDbXrecord
280
     1
  1
足場計画図
  1
001*,002*,003*,004*,005*,007*,012*,015*,049*,050*,051*,055*,056*,057*,058*,059*,060*,061*,062*,064*,065*,066*,067*,068*,069*,070*,071*,072*,073*,074*,075*
  1
*
  1
*
 70
     0
  1
*
  1
*
  0
XRECORD
  5
FAA
102
{ACAD_REACTORS
330
F7E
102
}
330
F7E
100
AcDbXrecord
280
     1
  1
鉄骨建方計画図
  1
001*,002*,003*,004*,005*,007*,012*,013*,049*,050*,051*,052*,053*,054*,055*,056*,057*,058*,059*,060*,061*,062*,063*,064*,065*,066*,067*,068*,069*,070*,071*,072*,073*,074*,075*
  1
*
  1
*
 70
     0
  1
*
  1
*
  0
XRECORD
  5
FAB
102
{ACAD_REACTORS
330
F7E
102
}
330
F7E
100
AcDbXrecord
280
     1
  1
天井インサート図
  1
001*,002*,004*,010*,022*,023*,024*,025*,026*,027*,028*,029*,037*,042*
  1
*
  1
*
 70
     0
  1
*
  1
*
  0
XRECORD
  5
FAC
102
{ACAD_REACTORS
330
F7E
102
}
330
F7E
100
AcDbXrecord
280
     1
  1
天井総合図
  1
001*,002*,004*,005*,007*,010*,022*,023*,024*,025*,026*,027*,028*,029*,030*,031*,033*,035*,036*,037*,039*,041*,042*,044*,046*,047*
  1
*
  1
*
 70
     0
  1
*
  1
*
  0
XRECORD
  5
FAD
102
{ACAD_REACTORS
330
F7E
102
}
330
F7E
100
AcDbXrecord
280
     1
  1
天井伏図
  1
090*,040*,300*,301*,371*,310*,320*,330*,340*,350*,360*,370*,380*,HOJO,ZATU,000*,001*,080*,081*,090*902*
  1
*
  1
*
 70
     0
  1
*
  1
*
  0
XRECORD
  5
FAE
102
{ACAD_REACTORS
330
F7E
102
}
330
F7E
100
AcDbXrecord
280
     1
  1
天伏
  1
*-H
  1
*
  1
*
 70
     0
  1
*
  1
*
  0
XRECORD
  5
FAF
102
{ACAD_REACTORS
330
F7E
102
}
330
F7E
100
AcDbXrecord
280
     1
  1
電気設備図
  1
001*,002*,004*,005*,007*,010*,030*,031*,044*,045*,046*,047*,048*
  1
*
  1
*
 70
     0
  1
*
  1
*
  0
XRECORD
  5
FB0
102
{ACAD_REACTORS
330
F7E
102
}
330
F7E
100
AcDbXrecord
280
     1
  1
道路関係図
  1
001*,002*,003*,004*,007*,012*,015*,016*,017*,018*,019*,020*,021*,049*,050*,051*,052*,053*,054*,055*,056*,057*,058*,059*,060*,061*,062*,063*,064*,065*,066*,067*,068*,069*,070*,071*,072*,073*,074*,075*
  1
*
  1
*
 70
     0
  1
*
  1
*
  0
XRECORD
  5
FB1
102
{ACAD_REACTORS
330
F7E
102
}
330
F7E
100
AcDbXrecord
280
     1
  1
平詳
  1
*-T
  1
*
  1
*
 70
     0
  1
*
  1
*
  0
XRECORD
  5
FB2
102
{ACAD_REACTORS
330
F7E
102
}
330
F7E
100
AcDbXrecord
280
     1
  1
平面詳細図
  1
SUNPO-S,SIZE,HOJO,ZATU,HATCH,HWAKU,HMOJI,WARITUKE-T,WARITUKE-Y,WARITUKE-K,TATEGU1,TATEGU,BR-S,MAJIKIRI,KABE2,SIAGE,KABE1,KABE,KOBARI-S,KOBARI-R,HARI-S,HARI-R,HASIRA-S,HASIRA-R,MOJI,SHITUMEI,LABEL,FL-FUGO,FUGO-W,SUNPO,SUNPO2,SUNPO1,KIJUN2,KIJUN1,KIJUN
  1
*
  1
*
 70
     0
  1
*
  1
*
  0
XRECORD
  5
FB3
102
{ACAD_REACTORS
330
F7E
102
}
330
F7E
100
AcDbXrecord
280
     1
  1
平面総合図
  1
001*,002*,004*,010*,013*,014*,015*,016*,017*,018*,019*,020*,021*,030*,031*,034*,040*,045*
  1
*
  1
*
 70
     0
  1
*
  1
*
  0
XRECORD
  5
FB4
102
{ACAD_REACTORS
330
F7E
102
}
330
F7E
100
AcDbXrecord
280
     1
  1
面積
  1
*面積
  1
*
  1
*
 70
     0
  1
*
  1
*
  0
LAYER_INDEX
  5
B3
102
{ACAD_REACTORS
330
B2
102
}
330
B2
100
AcDbIndex
 40
2454719.548795382
100
AcDbLayerIndex
  8
0
360
B4
 90
       81
  8
RAHM2
360
156
 90
        0
  8
AM_BOR
360
4B6
 90
        0
  8
RAHM3
360
4B7
 90
        0
  8
1
360
4B9
 90
      142
  8
DEFPOINTS
360
4BA
 90
        0
  8
7A
360
4BD
 90
        0
  8
AM_5
360
4BE
 90
       23
  8
AM_12
360
4BF
 90
        8
  8
AM_PAREF
360
4C0
 90
        0
  8
AM_7
360
4C8
 90
        5
  8
AM_8
360
4C9
 90
        2
  8
7
360
AC7
 90
       11
  8
0N
360
AC8
 90
      130
  8
4A
360
FEB
 90
        1
  8
TEXT
360
173B
 90
        1
  0
DICTIONARY
  5
1967
330
22
100
AcDbDictionary
280
     1
281
     1
  3
ACAD_XREC_ROUNDTRIP
360
1968
  0
DICTIONARY
  5
1965
330
1E
100
AcDbDictionary
280
     1
281
     1
  3
ACAD_XREC_ROUNDTRIP
360
1966
  0
DICTIONARY
  5
1969
330
26
100
AcDbDictionary
280
     1
281
     1
  3
ACAD_XREC_ROUNDTRIP
360
196A
  0
IDBUFFER
  5
B4
330
0
100
AcDbIdBuffer
330
A48
330
ECE
330
ECF
330
ED0
330
ED1
330
ED2
330
ED3
330
ED4
330
ED6
330
ED7
330
ED8
330
EDA
330
EDB
330
EDC
330
EDD
330
EDE
330
EDF
330
EE0
330
EE1
330
EE2
330
EE4
330
EE5
330
EE6
330
EE7
330
EE8
330
EE9
330
EEA
330
EEB
330
EEC
330
EED
330
EEF
330
EF0
330
EF1
330
EF3
330
EF4
330
EF5
330
EF6
330
EF7
330
EF8
330
F0C
330
F2D
330
F2E
330
F5E
330
F5F
330
F60
330
F75
330
F7C
330
FD4
330
FD5
330
FD6
330
FD7
330
FD8
330
FD9
330
FDA
330
FDB
330
FDC
330
FDD
330
FDE
330
FDF
330
FE0
330
FE1
330
FE2
330
FE3
330
FE4
330
FE5
330
FE6
330
FE7
330
FE8
330
FE9
330
FEA
330
1180
330
1181
330
12BE
330
12C1
330
12E4
330
1629
330
1734
330
1735
330
1736
330
1738
330
1739
  0
IDBUFFER
  5
156
330
0
100
AcDbIdBuffer
  0
IDBUFFER
  5
4B6
330
0
100
AcDbIdBuffer
  0
IDBUFFER
  5
4B7
330
0
100
AcDbIdBuffer
  0
IDBUFFER
  5
4B9
330
0
100
AcDbIdBuffer
330
8F7
330
900
330
901
330
902
330
904
330
905
330
906
330
907
330
908
330
909
330
90A
330
90B
330
90C
330
90D
330
90E
330
90F
330
911
330
912
330
913
330
914
330
915
330
916
330
917
330
918
330
919
330
91B
330
91C
330
91D
330
91E
330
91F
330
920
330
921
330
922
330
923
330
924
330
925
330
926
330
927
330
928
330
929
330
92A
330
92B
330
92C
330
92D
330
92E
330
92F
330
930
330
931
330
932
330
933
330
934
330
935
330
936
330
937
330
938
330
939
330
93A
330
93B
330
93C
330
93D
330
93E
330
93F
330
940
330
941
330
942
330
943
330
944
330
945
330
946
330
947
330
948
330
949
330
94A
330
94B
330
94C
330
94D
330
94E
330
94F
330
950
330
951
330
952
330
953
330
954
330
955
330
956
330
957
330
958
330
959
330
95A
330
95B
330
95C
330
95D
330
95E
330
960
330
961
330
962
330
963
330
964
330
965
330
966
330
967
330
968
330
969
330
96A
330
96B
330
96C
330
96D
330
96E
330
96F
330
970
330
971
330
972
330
973
330
974
330
975
330
976
330
977
330
978
330
979
330
97A
330
97B
330
97C
330
97D
330
98F
330
990
330
991
330
992
330
993
330
994
330
995
330
996
330
997
330
998
330
999
330
99A
330
99B
330
99C
330
99D
330
F0A
330
F0B
330
F40
330
F41
  0
IDBUFFER
  5
4BA
330
0
100
AcDbIdBuffer
  0
IDBUFFER
  5
4BD
330
0
100
AcDbIdBuffer
  0
IDBUFFER
  5
4BE
330
0
100
AcDbIdBuffer
330
FFD
330
102D
330
1056
330
1332
330
138E
330
13B6
330
13E5
330
1401
330
142D
330
145E
330
147A
330
14C3
330
14E7
330
1511
330
154B
330
15F6
330
15FD
330
1604
330
160B
330
1612
330
1619
330
1620
330
16BE
  0
IDBUFFER
  5
4BF
330
0
100
AcDbIdBuffer
330
15EF
330
15F8
330
15FF
330
1606
330
160D
330
1614
330
161B
330
16B9
  0
IDBUFFER
  5
4C0
330
0
100
AcDbIdBuffer
  0
IDBUFFER
  5
4C8
330
0
100
AcDbIdBuffer
330
903
330
95F
330
117F
330
16E3
330
16F0
  0
IDBUFFER
  5
4C9
330
0
100
AcDbIdBuffer
330
115E
330
1720
  0
IDBUFFER
  5
AC7
330
0
100
AcDbIdBuffer
330
ECD
330
ED5
330
ED9
330
EE3
330
EEE
330
EF2
330
12B8
330
12B9
330
12BF
330
12C8
330
12D3
  0
IDBUFFER
  5
AC8
330
0
100
AcDbIdBuffer
330
EF9
330
EFA
330
EFB
330
EFC
330
EFD
330
EFE
330
EFF
330
F00
330
F01
330
F02
330
F03
330
F04
330
F05
330
F06
330
F07
330
F08
330
F09
330
F0D
330
F0E
330
F0F
330
F10
330
F11
330
F12
330
F13
330
F14
330
F15
330
F16
330
F17
330
F18
330
F19
330
F1A
330
F1B
330
F1C
330
F1D
330
F1E
330
F1F
330
F20
330
F21
330
F22
330
F23
330
F24
330
F25
330
F26
330
F27
330
F28
330
F29
330
F2A
330
F2B
330
F2C
330
F2F
330
F30
330
F31
330
F32
330
F33
330
F34
330
F35
330
F36
330
F37
330
F38
330
F39
330
F3A
330
F3B
330
F3C
330
F3D
330
F3E
330
F3F
330
F42
330
F43
330
F44
330
F45
330
F46
330
F47
330
F48
330
F49
330
F4A
330
F4B
330
F4C
330
F4D
330
F4E
330
F4F
330
F50
330
F51
330
F52
330
F53
330
F54
330
F55
330
F56
330
F57
330
F58
330
F59
330
F5A
330
F5B
330
F5C
330
F5D
330
F61
330
F62
330
F63
330
F64
330
12B5
330
12B6
330
12B7
330
12BA
330
12BB
330
12BC
330
12C9
330
12CA
330
12CB
330
12CC
330
12CD
330
12CE
330
12CF
330
12D0
330
12D1
330
12D2
330
12D4
330
12D5
330
12D6
330
12D7
330
12D8
330
12D9
330
12DA
330
12DB
330
12DC
330
12DD
330
12DE
330
12DF
330
12E0
330
12E1
330
12E2
330
12E3
  0
IDBUFFER
  5
FEB
330
0
100
AcDbIdBuffer
330
12BD
  0
IDBUFFER
  5
173B
330
0
100
AcDbIdBuffer
330
1737
  0
XRECORD
  5
1968
102
{ACAD_REACTORS
330
1967
102
}
330
1967
100
AcDbXrecord
280
     1
102
SHADEPLOT
 70
     0
102
SHADEPLOTRESLEVEL
 70
     2
102
SHADEPLOTCUSTOMDPI
 70
   300
  0
XRECORD
  5
1966
102
{ACAD_REACTORS
330
1965
102
}
330
1965
100
AcDbXrecord
280
     1
102
SHADEPLOT
 70
     0
102
SHADEPLOTRESLEVEL
 70
     2
102
SHADEPLOTCUSTOMDPI
 70
   300
  0
XRECORD
  5
196A
102
{ACAD_REACTORS
330
1969
102
}
330
1969
100
AcDbXrecord
280
     1
102
SHADEPLOT
 70
     0
102
SHADEPLOTRESLEVEL
 70
     2
102
SHADEPLOTCUSTOMDPI
 70
   300
  0
ENDSEC
  0
EOF
