  0
SECTION
  2
HEADER
  9
$ACADVER
  1
AC1015
  9
$ACADMAINTVER
 70
     6
  9
$DWGCODEPAGE
  3
ANSI_932
  9
$INSBASE
 10
26.00231889422965
 20
707.4180984005017
 30
0.0
  9
$EXTMIN
 10
26.00231889422965
 20
-32.58190159949845
 30
0.0
  9
$EXTMAX
 10
1194.00231889423
 20
707.4180984005017
 30
0.0
  9
$LIMMIN
 10
26.00231889422965
 20
-32.58190159949845
  9
$LIMMAX
 10
1194.00231889423
 20
707.4180984005017
  9
$ORTHOMODE
 70
     0
  9
$REGENMODE
 70
     0
  9
$FILLMODE
 70
     1
  9
$QTEXTMODE
 70
     0
  9
$MIRRTEXT
 70
     1
  9
$LTSCALE
 40
2.0
  9
$ATTMODE
 70
     1
  9
$TEXTSIZE
 40
10.0
  9
$TRACEWID
 40
0.05
  9
$TEXTSTYLE
  7
Standard
  9
$CLAYER
  8
1
  9
$CELTYPE
  6
Continuous
  9
$CECOLOR
 62
     7
  9
$CELTSCALE
 40
1.0
  9
$DISPSILH
 70
     0
  9
$DIMSCALE
 40
2.0
  9
$DIMASZ
 40
3.0
  9
$DIMEXO
 40
1.0
  9
$DIMDLI
 40
10.0
  9
$DIMRND
 40
0.0
  9
$DIMDLE
 40
1.0
  9
$DIMEXE
 40
1.0
  9
$DIMTP
 40
0.0
  9
$DIMTM
 40
0.0
  9
$DIMTXT
 40
5.0
  9
$DIMCEN
 40
0.09
  9
$DIMTSZ
 40
0.0
  9
$DIMTOL
 70
     0
  9
$DIMLIM
 70
     0
  9
$DIMTIH
 70
     0
  9
$DIMTOH
 70
     0
  9
$DIMSE1
 70
     0
  9
$DIMSE2
 70
     0
  9
$DIMTAD
 70
     1
  9
$DIMZIN
 70
     8
  9
$DIMBLK
  1
OPEN30
  9
$DIMASO
 70
     1
  9
$DIMSHO
 70
     0
  9
$DIMPOST
  1

  9
$DIMAPOST
  1

  9
$DIMALT
 70
     0
  9
$DIMALTD
 70
     3
  9
$DIMALTF
 40
25.4
  9
$DIMLFAC
 40
1.0
  9
$DIMTOFL
 70
     0
  9
$DIMTVP
 40
0.0
  9
$DIMTIX
 70
     0
  9
$DIMSOXD
 70
     0
  9
$DIMSAH
 70
     0
  9
$DIMBLK1
  1

  9
$DIMBLK2
  1

  9
$DIMSTYLE
  2
Standard
  9
$DIMCLRD
 70
     1
  9
$DIMCLRE
 70
     1
  9
$DIMCLRT
 70
     7
  9
$DIMTFAC
 40
0.5
  9
$DIMGAP
 40
1.0
  9
$DIMJUST
 70
     0
  9
$DIMSD1
 70
     0
  9
$DIMSD2
 70
     0
  9
$DIMTOLJ
 70
     1
  9
$DIMTZIN
 70
     0
  9
$DIMALTZ
 70
     0
  9
$DIMALTTZ
 70
     0
  9
$DIMUPT
 70
     0
  9
$DIMDEC
 70
     3
  9
$DIMTDEC
 70
     4
  9
$DIMALTU
 70
     2
  9
$DIMALTTD
 70
     2
  9
$DIMTXSTY
  7
Standard
  9
$DIMAUNIT
 70
     0
  9
$DIMADEC
 70
     3
  9
$DIMALTRND
 40
0.0
  9
$DIMAZIN
 70
     2
  9
$DIMDSEP
 70
    46
  9
$DIMATFIT
 70
     3
  9
$DIMFRAC
 70
     0
  9
$DIMLDRBLK
  1
OPEN30
  9
$DIMLUNIT
 70
     2
  9
$DIMLWD
 70
    -1
  9
$DIMLWE
 70
    -1
  9
$DIMTMOVE
 70
     0
  9
$LUNITS
 70
     2
  9
$LUPREC
 70
     4
  9
$SKETCHINC
 40
0.1
  9
$FILLETRAD
 40
0.0
  9
$AUNITS
 70
     0
  9
$AUPREC
 70
     0
  9
$MENU
  1
ACAD
  9
$ELEVATION
 40
0.0
  9
$PELEVATION
 40
0.0
  9
$THICKNESS
 40
0.0
  9
$LIMCHECK
 70
     0
  9
$CHAMFERA
 40
0.0
  9
$CHAMFERB
 40
0.0
  9
$CHAMFERC
 40
0.0
  9
$CHAMFERD
 40
0.0
  9
$SKPOLY
 70
     0
  9
$TDCREATE
 40
2305814.375
  9
$TDUCREATE
 40
23216778.0
  9
$TDUPDATE
 40
2457912.687688588
  9
$TDUUPDATE
 40
2457912.312688588
  9
$TDINDWG
 40
0.0
  9
$TDUSRTIMER
 40
0.0
  9
$USRTIMER
 70
     1
  9
$ANGBASE
 50
0.0
  9
$ANGDIR
 70
     0
  9
$PDMODE
 70
    65
  9
$PDSIZE
 40
0.2
  9
$PLINEWID
 40
0.0
  9
$SPLFRAME
 70
     0
  9
$SPLINETYPE
 70
     6
  9
$SPLINESEGS
 70
     8
  9
$HANDSEED
  5
3EA
  9
$SURFTAB1
 70
     6
  9
$SURFTAB2
 70
     6
  9
$SURFTYPE
 70
     6
  9
$SURFU
 70
     6
  9
$SURFV
 70
     6
  9
$UCSBASE
  2

  9
$UCSNAME
  2

  9
$UCSORG
 10
0.0
 20
0.0
 30
0.0
  9
$UCSXDIR
 10
1.0
 20
0.0
 30
0.0
  9
$UCSYDIR
 10
0.0
 20
1.0
 30
0.0
  9
$UCSORTHOREF
  2

  9
$UCSORTHOVIEW
 70
     0
  9
$UCSORGTOP
 10
0.0
 20
0.0
 30
0.0
  9
$UCSORGBOTTOM
 10
0.0
 20
0.0
 30
0.0
  9
$UCSORGLEFT
 10
0.0
 20
0.0
 30
0.0
  9
$UCSORGRIGHT
 10
0.0
 20
0.0
 30
0.0
  9
$UCSORGFRONT
 10
0.0
 20
0.0
 30
0.0
  9
$UCSORGBACK
 10
0.0
 20
0.0
 30
0.0
  9
$PUCSBASE
  2

  9
$PUCSNAME
  2

  9
$PUCSORG
 10
0.0
 20
0.0
 30
0.0
  9
$PUCSXDIR
 10
1.0
 20
0.0
 30
0.0
  9
$PUCSYDIR
 10
0.0
 20
1.0
 30
0.0
  9
$PUCSORTHOREF
  2

  9
$PUCSORTHOVIEW
 70
     0
  9
$PUCSORGTOP
 10
0.0
 20
0.0
 30
0.0
  9
$PUCSORGBOTTOM
 10
0.0
 20
0.0
 30
0.0
  9
$PUCSORGLEFT
 10
0.0
 20
0.0
 30
0.0
  9
$PUCSORGRIGHT
 10
0.0
 20
0.0
 30
0.0
  9
$PUCSORGFRONT
 10
0.0
 20
0.0
 30
0.0
  9
$PUCSORGBACK
 10
0.0
 20
0.0
 30
0.0
  9
$USERI1
 70
     0
  9
$USERI2
 70
     0
  9
$USERI3
 70
     0
  9
$USERI4
 70
     0
  9
$USERI5
 70
     0
  9
$USERR1
 40
0.0
  9
$USERR2
 40
0.0
  9
$USERR3
 40
0.0
  9
$USERR4
 40
0.0
  9
$USERR5
 40
0.0
  9
$WORLDVIEW
 70
     1
  9
$SHADEDGE
 70
     3
  9
$SHADEDIF
 70
    70
  9
$TILEMODE
 70
     1
  9
$MAXACTVP
 70
    64
  9
$PINSBASE
 10
0.0
 20
0.0
 30
0.0
  9
$PLIMCHECK
 70
     0
  9
$PEXTMIN
 10
1.000000000000000E+20
 20
1.000000000000000E+20
 30
1.000000000000000E+20
  9
$PEXTMAX
 10
-1.000000000000000E+20
 20
-1.000000000000000E+20
 30
-1.000000000000000E+20
  9
$PLIMMIN
 10
0.0
 20
0.0
  9
$PLIMMAX
 10
12.0
 20
9.0
  9
$UNITMODE
 70
     0
  9
$VISRETAIN
 70
     1
  9
$PLINEGEN
 70
     0
  9
$PSLTSCALE
 70
     1
  9
$TREEDEPTH
 70
  3020
  9
$CMLSTYLE
  2
Standard
  9
$CMLJUST
 70
     0
  9
$CMLSCALE
 40
1.0
  9
$PROXYGRAPHICS
 70
     1
  9
$MEASUREMENT
 70
     0
  9
$CELWEIGHT
370
    -1
  9
$ENDCAPS
280
     0
  9
$JOINSTYLE
280
     0
  9
$LWDISPLAY
290
     0
  9
$INSUNITS
 70
     1
  9
$HYPERLINKBASE
  1

  9
$STYLESHEET
  1

  9
$XEDIT
290
     1
  9
$CEPSNTYPE
380
     0
  9
$PSTYLEMODE
290
     1
  9
$FINGERPRINTGUID
  2
{4D07DFEF-F185-4D74-AE57-C59BD599FDDF}
  9
$VERSIONGUID
  2
{FAEB1C32-E019-11D5-929B-00C0DF256EC4}
  9
$EXTNAMES
290
     1
  9
$PSVPSCALE
 40
0.0
  9
$OLESTARTUP
290
     0
  0
ENDSEC
  0
SECTION
  2
CLASSES
  0
CLASS
  1
ACDBDICTIONARYWDFLT
  2
AcDbDictionaryWithDefault
  3
ObjectDBX Classes
 90
        0
280
     0
281
     0
  0
CLASS
  1
VISUALSTYLE
  2
AcDbVisualStyle
  3
ObjectDBX Classes
 90
     4095
280
     0
281
     0
  0
CLASS
  1
MATERIAL
  2
AcDbMaterial
  3
ObjectDBX Classes
 90
     1153
280
     0
281
     0
  0
CLASS
  1
SCALE
  2
AcDbScale
  3
ObjectDBX Classes
 90
     1153
280
     0
281
     0
  0
CLASS
  1
TABLESTYLE
  2
AcDbTableStyle
  3
ObjectDBX Classes
 90
     4095
280
     0
281
     0
  0
CLASS
  1
MLEADERSTYLE
  2
AcDbMLeaderStyle
  3
ACDB_MLEADERSTYLE_CLASS
 90
     4095
280
     0
281
     0
  0
CLASS
  1
SUN
  2
AcDbSun
  3
SCENEOE
 90
     1153
280
     0
281
     0
  0
CLASS
  1
DICTIONARYVAR
  2
AcDbDictionaryVar
  3
ObjectDBX Classes
 90
        0
280
     0
281
     0
  0
CLASS
  1
ACDBPLACEHOLDER
  2
AcDbPlaceHolder
  3
ObjectDBX Classes
 90
        0
280
     0
281
     0
  0
CLASS
  1
LAYOUT
  2
AcDbLayout
  3
ObjectDBX Classes
 90
        0
280
     0
281
     0
  0
ENDSEC
  0
SECTION
  2
TABLES
  0
TABLE
  2
VPORT
  5
8
102
{ACAD_XDICTIONARY
360
3AD
102
}
330
0
100
AcDbSymbolTable
 70
     1
  0
VPORT
  5
29
330
8
100
AcDbSymbolTableRecord
100
AcDbViewportTableRecord
  2
*Active
 70
     0
 10
0.0
 20
0.0
 11
1.0
 21
1.0
 12
584.0000000000002
 22
370.0000000000001
 13
0.0
 23
0.0
 14
0.5
 24
0.5
 15
0.5
 25
0.5
 16
0.0
 26
0.0
 36
1.0
 17
0.0
 27
0.0
 37
0.0
 40
740.0000000000001
 41
1.578378378378379
 42
50.0
 43
0.0
 44
0.0
 50
0.0
 51
0.0
 71
     0
 72
   100
 73
     1
 74
     3
 75
     0
 76
     0
 77
     0
 78
     0
281
     0
 65
     1
110
0.0
120
0.0
130
0.0
111
1.0
121
0.0
131
0.0
112
0.0
122
1.0
132
0.0
 79
     0
146
0.0
  0
ENDTAB
  0
TABLE
  2
LTYPE
  5
5
330
0
100
AcDbSymbolTable
 70
    17
  0
LTYPE
  5
14
330
5
100
AcDbSymbolTableRecord
100
AcDbLinetypeTableRecord
  2
ByBlock
 70
     0
  3

 72
    65
 73
     0
 40
0.0
  0
LTYPE
  5
15
330
5
100
AcDbSymbolTableRecord
100
AcDbLinetypeTableRecord
  2
ByLayer
 70
     0
  3

 72
    65
 73
     0
 40
0.0
  0
LTYPE
  5
16
330
5
100
AcDbSymbolTableRecord
100
AcDbLinetypeTableRecord
  2
Continuous
 70
     0
  3
Solid line
 72
    65
 73
     0
 40
0.0
  0
LTYPE
  5
6E
330
5
100
AcDbSymbolTableRecord
100
AcDbLinetypeTableRecord
  2
DIVIDE
 70
     0
  3
Divide ____ . . ____ . . ____ . . ____ . . ____
 72
    65
 73
     6
 40
1.25
 49
0.5
 74
     0
 49
-0.25
 74
     0
 49
0.0
 74
     0
 49
-0.25
 74
     0
 49
0.0
 74
     0
 49
-0.25
 74
     0
  0
LTYPE
  5
6F
330
5
100
AcDbSymbolTableRecord
100
AcDbLinetypeTableRecord
  2
HIDDEN
 70
     0
  3
Hidden __ __ __ __ __ __ __ __ __ __ __ __ __ _
 72
    65
 73
     2
 40
9.525
 49
6.35
 74
     0
 49
-3.175
 74
     0
  0
LTYPE
  5
70
330
5
100
AcDbSymbolTableRecord
100
AcDbLinetypeTableRecord
  2
HIDDEN2
 70
     0
  3
Hidden (.5x) _ _ _ _ _ _ _ _ _ _ _ _ _ _ _ _ _
 72
    65
 73
     2
 40
4.7625
 49
3.175
 74
     0
 49
-1.5875
 74
     0
  0
LTYPE
  5
71
330
5
100
AcDbSymbolTableRecord
100
AcDbLinetypeTableRecord
  2
CENTER2
 70
     0
  3
Center (.5x) ___ _ ___ _ ___ _ ___ _ ___ _ ___
 72
    65
 73
     4
 40
28.575
 49
19.05
 74
     0
 49
-3.175
 74
     0
 49
3.175
 74
     0
 49
-3.175
 74
     0
  0
LTYPE
  5
72
330
5
100
AcDbSymbolTableRecord
100
AcDbLinetypeTableRecord
  2
PHANTOM2
 70
     0
  3
Phantom (.5x) ___ _ _ ___ _ _ ___ _ _ ___ _ _
 72
    65
 73
     6
 40
31.75
 49
15.875
 74
     0
 49
-3.175
 74
     0
 49
3.175
 74
     0
 49
-3.175
 74
     0
 49
3.175
 74
     0
 49
-3.175
 74
     0
  0
LTYPE
  5
73
330
5
100
AcDbSymbolTableRecord
100
AcDbLinetypeTableRecord
  2
DASHED
 70
     0
  3
Dashed __ __ __ __ __ __ __ __ __ __ __ __ __ _
 72
    65
 73
     2
 40
19.05
 49
12.7
 74
     0
 49
-6.35
 74
     0
  0
LTYPE
  5
74
330
5
100
AcDbSymbolTableRecord
100
AcDbLinetypeTableRecord
  2
CENTER
 70
     0
  3
Center ____ _ ____ _ ____ _ ____ _ ____ _ ____
 72
    65
 73
     4
 40
50.8
 49
31.75
 74
     0
 49
-6.35
 74
     0
 49
6.35
 74
     0
 49
-6.35
 74
     0
  0
LTYPE
  5
75
330
5
100
AcDbSymbolTableRecord
100
AcDbLinetypeTableRecord
  2
PHANTOM
 70
     0
  3
Phantom ______  __  __  ______  __  __  ______
 72
    65
 73
     6
 40
63.5
 49
31.75
 74
     0
 49
-6.35
 74
     0
 49
6.35
 74
     0
 49
-6.35
 74
     0
 49
6.35
 74
     0
 49
-6.35
 74
     0
  0
LTYPE
  5
76
330
5
100
AcDbSymbolTableRecord
100
AcDbLinetypeTableRecord
  2
BORDER2
 70
     0
  3
Border (.5x) __.__.__.__.__.__.__.__.__.__.__.
 72
    65
 73
     6
 40
22.225
 49
6.35
 74
     0
 49
-3.175
 74
     0
 49
6.35
 74
     0
 49
-3.175
 74
     0
 49
0.0
 74
     0
 49
-3.175
 74
     0
  0
LTYPE
  5
77
330
5
100
AcDbSymbolTableRecord
100
AcDbLinetypeTableRecord
  2
HIDDENX2
 70
     0
  3
Hidden (2x) ____ ____ ____ ____ ____ ____ ____
 72
    65
 73
     2
 40
19.05
 49
12.7
 74
     0
 49
-6.35
 74
     0
  0
LTYPE
  5
78
330
5
100
AcDbSymbolTableRecord
100
AcDbLinetypeTableRecord
  2
DOTX2
 70
     0
  3
Dot (2x) .  .  .  .  .  .  .  .  .  .  .  .  . 
 72
    65
 73
     2
 40
12.7
 49
0.0
 74
     0
 49
-12.7
 74
     0
  0
LTYPE
  5
79
330
5
100
AcDbSymbolTableRecord
100
AcDbLinetypeTableRecord
  2
DASHDOTX2
 70
     0
  3
Dash dot (2x) ____  .  ____  .  ____  .  ___
 72
    65
 73
     4
 40
50.8
 49
25.4
 74
     0
 49
-12.7
 74
     0
 49
0.0
 74
     0
 49
-12.7
 74
     0
  0
LTYPE
  5
7A
330
5
100
AcDbSymbolTableRecord
100
AcDbLinetypeTableRecord
  2
DIVIDEX2
 70
     0
  3
Divide (2x) ________  .  .  ________  .  .  _
 72
    65
 73
     6
 40
63.5
 49
25.4
 74
     0
 49
-12.7
 74
     0
 49
0.0
 74
     0
 49
-12.7
 74
     0
 49
0.0
 74
     0
 49
-12.7
 74
     0
  0
LTYPE
  5
7B
330
5
100
AcDbSymbolTableRecord
100
AcDbLinetypeTableRecord
  2
DASHEDX2
 70
     0
  3
Dashed (2x) ____  ____  ____  ____  ____  ___
 72
    65
 73
     2
 40
38.1
 49
25.4
 74
     0
 49
-12.7
 74
     0
  0
LTYPE
  5
7C
330
5
100
AcDbSymbolTableRecord
100
AcDbLinetypeTableRecord
  2
CENTERX2
 70
     0
  3
Center (2x) ________  __  ________  __  _____
 72
    65
 73
     4
 40
101.6
 49
63.5
 74
     0
 49
-12.7
 74
     0
 49
12.7
 74
     0
 49
-12.7
 74
     0
  0
LTYPE
  5
7D
330
5
100
AcDbSymbolTableRecord
100
AcDbLinetypeTableRecord
  2
PHANTOMX2
 70
     0
  3
Phantom (2x) ____________    ____    ____   _
 72
    65
 73
     6
 40
127.0
 49
63.5
 74
     0
 49
-12.7
 74
     0
 49
12.7
 74
     0
 49
-12.7
 74
     0
 49
12.7
 74
     0
 49
-12.7
 74
     0
  0
ENDTAB
  0
TABLE
  2
LAYER
  5
2
330
0
100
AcDbSymbolTable
 70
     6
  0
LAYER
  5
10
330
2
100
AcDbSymbolTableRecord
100
AcDbLayerTableRecord
  2
0
 70
     0
 62
     7
  6
Continuous
370
    -3
390
F
  0
LAYER
  5
7E
330
2
100
AcDbSymbolTableRecord
100
AcDbLayerTableRecord
  2
1
 70
     0
 62
     7
  6
Continuous
370
     0
390
F
  0
LAYER
  5
7F
330
2
100
AcDbSymbolTableRecord
100
AcDbLayerTableRecord
  2
2
 70
     0
 62
     7
  6
Continuous
370
     0
390
F
  0
LAYER
  5
80
330
2
100
AcDbSymbolTableRecord
100
AcDbLayerTableRecord
  2
3
 70
     0
 62
     7
  6
Continuous
370
     0
390
F
  0
LAYER
  5
81
330
2
100
AcDbSymbolTableRecord
100
AcDbLayerTableRecord
  2
4
 70
     0
 62
     7
  6
Continuous
370
     0
390
F
  0
LAYER
  5
82
330
2
100
AcDbSymbolTableRecord
100
AcDbLayerTableRecord
  2
DEFPOINTS
 70
     0
 62
     3
  6
DIVIDE
290
     0
370
     0
390
F
  0
ENDTAB
  0
TABLE
  2
STYLE
  5
3
330
0
100
AcDbSymbolTable
 70
    11
  0
STYLE
  5
11
330
3
100
AcDbSymbolTableRecord
100
AcDbTextStyleTableRecord
  2
Standard
 70
     0
 40
0.0
 41
0.8
 50
0.0
 71
     0
 42
10.0
  3
MONOTXT.shx
  4
EXTFONT.shx
  0
STYLE
  5
83
330
3
100
AcDbSymbolTableRecord
100
AcDbTextStyleTableRecord
  2
DIMSTANDARD
 70
     0
 40
0.0
 41
1.0
 50
0.0
 71
     0
 42
10.0
  3
MONOTXT.shx
  4
EXTFONT.shx
  0
STYLE
  5
B5
330
3
100
AcDbSymbolTableRecord
100
AcDbTextStyleTableRecord
  2
MTSTANDARD
 70
     0
 40
0.0
 41
1.0
 50
0.0
 71
     0
 42
10.0
  3
MONOTXT.shx
  4
EXTFONT.shx
  0
STYLE
  5
10E
330
3
100
AcDbSymbolTableRecord
100
AcDbTextStyleTableRecord
  2
MTSTANDARD1
 70
     0
 40
0.0
 41
1.0
 50
0.0
 71
     0
 42
10.0
  3
MONOTXT.shx
  4
EXTFONT.shx
  0
STYLE
  5
11A
330
3
100
AcDbSymbolTableRecord
100
AcDbTextStyleTableRecord
  2
MTSTANDARD2
 70
     0
 40
0.0
 41
0.75
 50
0.0
 71
     0
 42
10.0
  3
MONOTXT.shx
  4
EXTFONT.shx
  0
STYLE
  5
198
330
3
100
AcDbSymbolTableRecord
100
AcDbTextStyleTableRecord
  2
MTSTANDARD3
 70
     0
 40
0.0
 41
1.0
 50
0.0
 71
     0
 42
10.0
  3
MONOTXT.shx
  4
EXTFONT.shx
  0
STYLE
  5
1DA
330
3
100
AcDbSymbolTableRecord
100
AcDbTextStyleTableRecord
  2
MTSTANDARD4
 70
     0
 40
0.0
 41
1.0
 50
0.0
 71
     0
 42
10.0
  3
MONOTXT.shx
  4
EXTFONT.shx
  0
STYLE
  5
1E1
330
3
100
AcDbSymbolTableRecord
100
AcDbTextStyleTableRecord
  2
MTSTANDARD5
 70
     0
 40
0.0
 41
1.0
 50
0.0
 71
     0
 42
10.0
  3
MONOTXT.shx
  4
EXTFONT.shx
  0
STYLE
  5
30D
330
3
100
AcDbSymbolTableRecord
100
AcDbTextStyleTableRecord
  2
MTSTANDARD6
 70
     0
 40
0.0
 41
1.0
 50
0.0
 71
     0
 42
10.0
  3
MONOTXT.shx
  4
EXTFONT.shx
  0
STYLE
  5
341
330
3
100
AcDbSymbolTableRecord
100
AcDbTextStyleTableRecord
  2
MTSTANDARD7
 70
     0
 40
0.0
 41
1.0
 50
0.0
 71
     0
 42
10.0
  3
MONOTXT.shx
  4
EXTFONT.shx
  0
STYLE
  5
343
330
3
100
AcDbSymbolTableRecord
100
AcDbTextStyleTableRecord
  2
MTSTANDARD8
 70
     0
 40
0.0
 41
1.0
 50
0.0
 71
     0
 42
10.0
  3
MONOTXT.shx
  4
EXTFONT.shx
  0
ENDTAB
  0
TABLE
  2
VIEW
  5
6
330
0
100
AcDbSymbolTable
 70
     0
  0
ENDTAB
  0
TABLE
  2
UCS
  5
7
330
0
100
AcDbSymbolTable
 70
     0
  0
ENDTAB
  0
TABLE
  2
APPID
  5
9
330
0
100
AcDbSymbolTable
 70
     2
  0
APPID
  5
12
330
9
100
AcDbSymbolTableRecord
100
AcDbRegAppTableRecord
  2
ACAD
 70
     0
  0
APPID
  5
3E7
330
9
100
AcDbSymbolTableRecord
100
AcDbRegAppTableRecord
  2
ACAD_MLEADERVER
 70
     0
  0
ENDTAB
  0
TABLE
  2
DIMSTYLE
  5
A
330
0
100
AcDbSymbolTable
 70
    13
100
AcDbDimStyleTable
  0
DIMSTYLE
105
27
330
A
100
AcDbSymbolTableRecord
100
AcDbDimStyleTableRecord
  2
Standard
 70
     0
 40
2.0
 41
3.0
 42
1.0
 43
10.0
 44
1.0
 73
     0
 74
     0
 77
     3
 78
     8
 79
     2
140
5.0
141
0.0
146
0.5
147
1.0
176
     1
177
     1
271
     3
178
     7
179
     3
271
     3
340
11
342
88
371
    -1
372
    -1
  0
DIMSTYLE
105
11F
102
{ACAD_REACTORS
330
120
330
141
330
15A
330
167
330
174
330
193
330
247
330
267
330
27F
330
28C
330
299
330
2A6
330
2DA
102
}
330
A
100
AcDbSymbolTableRecord
100
AcDbDimStyleTableRecord
  2
DIMSTYEX_1
 70
     0
 40
2.0
 41
2.0
 42
1.0
 43
7.0
 44
1.0
 73
     0
 74
     0
 77
     3
 78
     8
 79
     2
140
3.584
141
0.0
146
0.5
147
1.0
173
     1
176
     3
177
     3
271
     3
178
     2
179
     3
271
     3
272
     3
340
83
342
88
343
88
344
88
371
    -1
372
    -1
  0
DIMSTYLE
105
133
102
{ACAD_REACTORS
330
134
330
1C7
330
25A
102
}
330
A
100
AcDbSymbolTableRecord
100
AcDbDimStyleTableRecord
  2
DIMSTYEX_2
 70
     0
 40
2.0
 41
2.0
 42
1.0
 43
7.0
 44
1.0
 73
     0
 74
     0
 77
     3
 78
     8
 79
     2
140
3.584
141
0.0
146
0.5
147
2.0
173
     1
176
     3
177
     3
271
     3
178
     2
179
     3
271
     3
272
     3
279
     1
340
83
342
88
343
88
344
88
371
    -1
372
    -1
  0
DIMSTYLE
105
14C
102
{ACAD_REACTORS
330
14D
330
272
102
}
330
A
100
AcDbSymbolTableRecord
100
AcDbDimStyleTableRecord
  2
DIMSTYEX_3
 70
     0
 40
2.0
 41
2.0
 42
1.0
 43
7.0
 44
1.0
 73
     0
 74
     0
 75
     1
 77
     1
 78
     8
 79
     2
140
3.584
141
0.0
146
0.5
147
1.0
173
     1
176
     3
177
     3
271
     3
178
     2
179
     3
271
     3
272
     3
281
     1
340
83
342
88
343
AE
344
88
371
    -1
372
    -1
  0
DIMSTYLE
105
185
102
{ACAD_REACTORS
330
186
102
}
330
A
100
AcDbSymbolTableRecord
100
AcDbDimStyleTableRecord
  2
DIMSTYEX_4
 70
     0
 40
2.0
 41
2.0
 42
1.0
 43
7.0
 44
1.0
 73
     0
 74
     0
 77
     3
 78
     8
 79
     2
140
3.584
141
0.0
146
0.5
147
2.0
173
     1
176
     3
177
     3
271
     3
178
     2
179
     3
271
     3
272
     3
340
83
342
88
343
88
344
88
371
    -1
372
    -1
  0
DIMSTYLE
105
19A
330
A
100
AcDbSymbolTableRecord
100
AcDbDimStyleTableRecord
  2
DIMSTYEX_5
 70
     0
 40
2.0
 41
2.0
 42
1.0
 43
10.0
 44
1.0
 73
     0
 74
     0
 77
     3
 78
     8
 79
     2
140
5.0
141
0.0
146
0.5
147
1.0
176
     3
177
     3
271
     3
178
     2
179
     3
271
     3
340
11
341
88
342
88
371
    -1
372
    -1
  0
DIMSTYLE
105
1A2
330
A
100
AcDbSymbolTableRecord
100
AcDbDimStyleTableRecord
  2
DIMSTYEX_6
 70
     0
 40
2.0
 41
2.0
 42
1.0
 43
10.0
 44
1.0
 73
     0
 74
     0
 77
     3
 78
     8
 79
     2
140
5.0
141
0.0
146
0.5
147
1.0
176
     3
177
     3
271
     3
178
     2
179
     3
271
     3
340
11
341
88
342
88
371
    -1
372
    -1
  0
DIMSTYLE
105
1B3
330
A
100
AcDbSymbolTableRecord
100
AcDbDimStyleTableRecord
  2
DIMSTYEX_7
 70
     0
 40
2.0
 41
2.0
 42
1.0
 43
10.0
 44
1.0
 73
     0
 74
     0
 77
     3
 78
     8
 79
     2
140
5.0
141
0.0
146
0.5
147
1.0
176
     3
177
     3
271
     3
178
     2
179
     3
271
     3
340
11
341
88
342
88
371
    -1
372
    -1
  0
DIMSTYLE
105
1D4
102
{ACAD_REACTORS
330
1D5
102
}
330
A
100
AcDbSymbolTableRecord
100
AcDbDimStyleTableRecord
  2
DIMSTYEX_8
 70
     0
 40
2.0
 41
2.0
 42
1.0
 43
7.0
 44
1.0
 73
     0
 74
     0
 77
     3
 78
     8
 79
     2
140
3.584
141
0.0
146
0.5
147
1.0
173
     1
176
     3
177
     3
271
     3
178
     2
179
     3
271
     3
272
     3
340
83
342
88
343
88
344
88
371
    -1
372
    -1
  0
DIMSTYLE
105
2AC
330
A
100
AcDbSymbolTableRecord
100
AcDbDimStyleTableRecord
  2
DIMSTYEX_9
 70
     0
 40
2.0
 41
2.0
 42
1.0
 43
10.0
 44
1.0
 73
     0
 74
     0
 77
     3
 78
     8
 79
     2
140
5.0
141
0.0
146
0.5
147
1.0
176
     3
177
     3
271
     3
178
     2
179
     3
271
     3
340
11
341
88
342
88
371
    -1
372
    -1
  0
DIMSTYLE
105
2B4
330
A
100
AcDbSymbolTableRecord
100
AcDbDimStyleTableRecord
  2
DIMSTYEX_10
 70
     0
 40
2.0
 41
2.0
 42
1.0
 43
10.0
 44
1.0
 73
     0
 74
     0
 77
     3
 78
     8
 79
     2
140
5.0
141
0.0
146
0.5
147
1.0
176
     3
177
     3
271
     3
178
     2
179
     3
271
     3
340
11
341
88
342
88
371
    -1
372
    -1
  0
DIMSTYLE
105
2CC
102
{ACAD_REACTORS
330
2CD
102
}
330
A
100
AcDbSymbolTableRecord
100
AcDbDimStyleTableRecord
  2
DIMSTYEX_11
 70
     0
 40
2.0
 41
2.0
 42
1.0
 43
27.39104170329495
 44
1.0
 73
     0
 74
     0
 77
     3
 78
     8
 79
     2
140
3.584
141
0.0
146
0.5
147
2.0
173
     1
176
     3
177
     3
271
     3
178
     2
179
     3
271
     3
272
     3
279
     1
340
83
342
88
343
88
344
88
371
    -1
372
    -1
  0
DIMSTYLE
105
303
330
A
100
AcDbSymbolTableRecord
100
AcDbDimStyleTableRecord
  2
DIMSTYEX_12
 70
     0
 40
2.0
 41
2.0
 42
1.0
 43
10.0
 44
1.0
 73
     0
 74
     0
 77
     3
 78
     8
 79
     2
140
5.0
141
0.0
146
0.5
147
1.0
176
     3
177
     3
271
     3
178
     2
179
     3
271
     3
340
11
341
88
342
88
371
    -1
372
    -1
  0
ENDTAB
  0
TABLE
  2
BLOCK_RECORD
  5
1
330
0
100
AcDbSymbolTable
 70
    39
  0
BLOCK_RECORD
  5
1F
330
1
100
AcDbSymbolTableRecord
100
AcDbBlockTableRecord
  2
*Model_Space
340
22
  0
BLOCK_RECORD
  5
1B
330
1
100
AcDbSymbolTableRecord
100
AcDbBlockTableRecord
  2
*Paper_Space
340
1E
  0
BLOCK_RECORD
  5
84
330
1
100
AcDbSymbolTableRecord
100
AcDbBlockTableRecord
  2
_SMALL
340
0
  0
BLOCK_RECORD
  5
88
330
1
100
AcDbSymbolTableRecord
100
AcDbBlockTableRecord
  2
_OPEN30
340
0
102
{BLKREFS
331
118
331
119
331
12D
331
12E
331
13B
331
13C
331
147
331
154
331
155
331
161
331
162
331
16E
331
16F
331
17F
331
180
331
18D
331
18E
331
1C1
331
1C2
331
1CE
331
1CF
331
241
331
242
331
254
331
255
331
261
331
262
331
26D
331
279
331
27A
331
286
331
287
331
293
331
294
331
2A0
331
2A1
331
2C6
331
2C7
331
2D4
331
2D5
102
}
  0
BLOCK_RECORD
  5
8E
330
1
100
AcDbSymbolTableRecord
100
AcDbBlockTableRecord
  2
_OBLIQUE
340
0
  0
BLOCK_RECORD
  5
92
330
1
100
AcDbSymbolTableRecord
100
AcDbBlockTableRecord
  2
_DOT
340
0
  0
BLOCK_RECORD
  5
96
330
1
100
AcDbSymbolTableRecord
100
AcDbBlockTableRecord
  2
_DOTSMALL
340
0
  0
BLOCK_RECORD
  5
9A
330
1
100
AcDbSymbolTableRecord
100
AcDbBlockTableRecord
  2
_DATUMFILLED
340
0
  0
BLOCK_RECORD
  5
9E
330
1
100
AcDbSymbolTableRecord
100
AcDbBlockTableRecord
  2
DATUMFILLED2
340
0
  0
BLOCK_RECORD
  5
A2
330
1
100
AcDbSymbolTableRecord
100
AcDbBlockTableRecord
  2
_DATUMBLANK
340
0
  0
BLOCK_RECORD
  5
A8
330
1
100
AcDbSymbolTableRecord
100
AcDbBlockTableRecord
  2
DATUMBLANK2
340
0
  0
BLOCK_RECORD
  5
AE
330
1
100
AcDbSymbolTableRecord
100
AcDbBlockTableRecord
  2
_NONE
340
0
  0
BLOCK_RECORD
  5
E3
330
1
100
AcDbSymbolTableRecord
100
AcDbBlockTableRecord
  2
HOLE0
340
0
102
{BLKREFS
331
E9
102
}
  0
BLOCK_RECORD
  5
112
330
1
100
AcDbSymbolTableRecord
100
AcDbBlockTableRecord
  2
_D1
340
0
  0
BLOCK_RECORD
  5
121
330
1
100
AcDbSymbolTableRecord
100
AcDbBlockTableRecord
  2
_D2
340
0
  0
BLOCK_RECORD
  5
135
330
1
100
AcDbSymbolTableRecord
100
AcDbBlockTableRecord
  2
_D3
340
0
  0
BLOCK_RECORD
  5
142
330
1
100
AcDbSymbolTableRecord
100
AcDbBlockTableRecord
  2
_D4
340
0
  0
BLOCK_RECORD
  5
14E
330
1
100
AcDbSymbolTableRecord
100
AcDbBlockTableRecord
  2
_D5
340
0
  0
BLOCK_RECORD
  5
15B
330
1
100
AcDbSymbolTableRecord
100
AcDbBlockTableRecord
  2
_D6
340
0
  0
BLOCK_RECORD
  5
168
330
1
100
AcDbSymbolTableRecord
100
AcDbBlockTableRecord
  2
_D7
340
0
  0
BLOCK_RECORD
  5
175
330
1
100
AcDbSymbolTableRecord
100
AcDbBlockTableRecord
  2
_D8
340
0
  0
BLOCK_RECORD
  5
187
330
1
100
AcDbSymbolTableRecord
100
AcDbBlockTableRecord
  2
_D9
340
0
  0
BLOCK_RECORD
  5
194
330
1
100
AcDbSymbolTableRecord
100
AcDbBlockTableRecord
  2
BALN0
340
0
102
{BLKREFS
331
19C
102
}
  0
BLOCK_RECORD
  5
19D
330
1
100
AcDbSymbolTableRecord
100
AcDbBlockTableRecord
  2
BALN1
340
0
102
{BLKREFS
331
1A4
102
}
  0
BLOCK_RECORD
  5
1B5
330
1
100
AcDbSymbolTableRecord
100
AcDbBlockTableRecord
  2
_D10
340
0
  0
BLOCK_RECORD
  5
1C8
330
1
100
AcDbSymbolTableRecord
100
AcDbBlockTableRecord
  2
_D11
340
0
  0
BLOCK_RECORD
  5
211
330
1
100
AcDbSymbolTableRecord
100
AcDbBlockTableRecord
  2
HOLE1
340
0
102
{BLKREFS
331
217
102
}
  0
BLOCK_RECORD
  5
23B
330
1
100
AcDbSymbolTableRecord
100
AcDbBlockTableRecord
  2
_D12
340
0
  0
BLOCK_RECORD
  5
248
330
1
100
AcDbSymbolTableRecord
100
AcDbBlockTableRecord
  2
_D13
340
0
  0
BLOCK_RECORD
  5
25B
330
1
100
AcDbSymbolTableRecord
100
AcDbBlockTableRecord
  2
_D14
340
0
  0
BLOCK_RECORD
  5
268
330
1
100
AcDbSymbolTableRecord
100
AcDbBlockTableRecord
  2
_D15
340
0
  0
BLOCK_RECORD
  5
273
330
1
100
AcDbSymbolTableRecord
100
AcDbBlockTableRecord
  2
_D16
340
0
  0
BLOCK_RECORD
  5
280
330
1
100
AcDbSymbolTableRecord
100
AcDbBlockTableRecord
  2
_D17
340
0
  0
BLOCK_RECORD
  5
28D
330
1
100
AcDbSymbolTableRecord
100
AcDbBlockTableRecord
  2
_D18
340
0
  0
BLOCK_RECORD
  5
29A
330
1
100
AcDbSymbolTableRecord
100
AcDbBlockTableRecord
  2
_D19
340
0
  0
BLOCK_RECORD
  5
2A7
330
1
100
AcDbSymbolTableRecord
100
AcDbBlockTableRecord
  2
BALN2
340
0
102
{BLKREFS
331
2AE
102
}
  0
BLOCK_RECORD
  5
2AF
330
1
100
AcDbSymbolTableRecord
100
AcDbBlockTableRecord
  2
BALN3
340
0
102
{BLKREFS
331
2B6
102
}
  0
BLOCK_RECORD
  5
2BA
330
1
100
AcDbSymbolTableRecord
100
AcDbBlockTableRecord
  2
_D20
340
0
  0
BLOCK_RECORD
  5
2CE
330
1
100
AcDbSymbolTableRecord
100
AcDbBlockTableRecord
  2
_D21
340
0
  0
BLOCK_RECORD
  5
2FE
330
1
100
AcDbSymbolTableRecord
100
AcDbBlockTableRecord
  2
BALN4
340
0
102
{BLKREFS
331
305
102
}
  0
ENDTAB
  0
ENDSEC
  0
SECTION
  2
BLOCKS
  0
BLOCK
  5
20
330
1F
100
AcDbEntity
  8
0
100
AcDbBlockBegin
  2
*Model_Space
 70
     0
 10
0.0
 20
0.0
 30
0.0
  3
*Model_Space
  1

  0
ENDBLK
  5
21
330
1F
100
AcDbEntity
  8
0
100
AcDbBlockEnd
  0
BLOCK
  5
1C
330
1B
100
AcDbEntity
 67
     1
  8
0
100
AcDbBlockBegin
  2
*Paper_Space
 70
     0
 10
0.0
 20
0.0
 30
0.0
  3
*Paper_Space
  1

  0
ENDBLK
  5
1D
330
1B
100
AcDbEntity
 67
     1
  8
0
100
AcDbBlockEnd
  0
BLOCK
  5
85
330
84
100
AcDbEntity
  8
0
100
AcDbBlockBegin
  2
_SMALL
 70
     0
 10
0.0
 20
0.0
 30
0.0
  3
_SMALL
  1

  0
CIRCLE
  5
87
330
84
100
AcDbEntity
  8
0
  6
ByBlock
 62
     0
370
    -2
100
AcDbCircle
 10
0.0
 20
0.0
 30
0.0
 40
0.1666666666
  0
CIRCLE
  5
397
330
84
100
AcDbEntity
  8
0
  6
ByBlock
 62
     0
370
    -2
100
AcDbCircle
 10
0.0
 20
0.0
 30
0.0
 40
0.1666666666
  0
ENDBLK
  5
86
330
84
100
AcDbEntity
  8
0
100
AcDbBlockEnd
  0
BLOCK
  5
89
330
88
100
AcDbEntity
  8
0
100
AcDbBlockBegin
  2
_OPEN30
 70
     0
 10
0.0
 20
0.0
 30
0.0
  3
_OPEN30
  1

  0
LINE
  5
8B
330
88
100
AcDbEntity
  8
0
  6
ByBlock
 62
     0
370
    -2
100
AcDbLine
 10
-1.0
 20
0.26794919
 30
0.0
 11
0.0
 21
0.0
 31
0.0
  0
LINE
  5
8C
330
88
100
AcDbEntity
  8
0
  6
ByBlock
 62
     0
370
    -2
100
AcDbLine
 10
0.0
 20
0.0
 30
0.0
 11
-1.0
 21
-0.26794919
 31
0.0
  0
LINE
  5
8D
330
88
100
AcDbEntity
  8
0
  6
ByBlock
 62
     0
370
    -2
100
AcDbLine
 10
0.0
 20
0.0
 30
0.0
 11
-1.0
 21
0.0
 31
0.0
  0
LINE
  5
398
330
88
100
AcDbEntity
  8
0
  6
ByBlock
 62
     0
370
    -2
100
AcDbLine
 10
-1.0
 20
0.26794919
 30
0.0
 11
0.0
 21
0.0
 31
0.0
  0
LINE
  5
399
330
88
100
AcDbEntity
  8
0
  6
ByBlock
 62
     0
370
    -2
100
AcDbLine
 10
0.0
 20
0.0
 30
0.0
 11
-1.0
 21
-0.26794919
 31
0.0
  0
LINE
  5
39A
330
88
100
AcDbEntity
  8
0
  6
ByBlock
 62
     0
370
    -2
100
AcDbLine
 10
0.0
 20
0.0
 30
0.0
 11
-1.0
 21
0.0
 31
0.0
  0
ENDBLK
  5
8A
330
88
100
AcDbEntity
  8
0
100
AcDbBlockEnd
  0
BLOCK
  5
8F
330
8E
100
AcDbEntity
  8
0
100
AcDbBlockBegin
  2
_OBLIQUE
 70
     0
 10
0.0
 20
0.0
 30
0.0
  3
_OBLIQUE
  1

  0
LINE
  5
91
330
8E
100
AcDbEntity
  8
0
  6
ByBlock
 62
     0
370
    -2
100
AcDbLine
 10
-0.5
 20
-0.5
 30
0.0
 11
0.5
 21
0.5
 31
0.0
  0
LINE
  5
39B
330
8E
100
AcDbEntity
  8
0
  6
ByBlock
 62
     0
370
    -2
100
AcDbLine
 10
-0.5
 20
-0.5
 30
0.0
 11
0.5
 21
0.5
 31
0.0
  0
ENDBLK
  5
90
330
8E
100
AcDbEntity
  8
0
100
AcDbBlockEnd
  0
BLOCK
  5
93
330
92
100
AcDbEntity
  8
0
100
AcDbBlockBegin
  2
_DOT
 70
     0
 10
0.0
 20
0.0
 30
0.0
  3
_DOT
  1

  0
LWPOLYLINE
  5
95
330
92
100
AcDbEntity
  8
0
  6
ByBlock
 62
     0
370
    -2
100
AcDbPolyline
 90
        2
 70
     1
 43
0.5
 10
-0.25
 20
0.0
 42
1.0
 10
0.25
 20
0.0
 42
1.0
  0
LWPOLYLINE
  5
39C
330
92
100
AcDbEntity
  8
0
  6
ByBlock
 62
     0
370
    -2
100
AcDbPolyline
 90
        2
 70
     1
 43
0.5
 10
-0.25
 20
0.0
 42
1.0
 10
0.25
 20
0.0
 42
1.0
  0
ENDBLK
  5
94
330
92
100
AcDbEntity
  8
0
100
AcDbBlockEnd
  0
BLOCK
  5
97
330
96
100
AcDbEntity
  8
0
100
AcDbBlockBegin
  2
_DOTSMALL
 70
     0
 10
0.0
 20
0.0
 30
0.0
  3
_DOTSMALL
  1

  0
LWPOLYLINE
  5
99
330
96
100
AcDbEntity
  8
0
  6
ByBlock
 62
     0
370
    -2
100
AcDbPolyline
 90
        2
 70
     1
 43
0.5
 10
-0.0625
 20
0.0
 42
1.0
 10
0.0625
 20
0.0
 42
1.0
  0
LWPOLYLINE
  5
39D
330
96
100
AcDbEntity
  8
0
  6
ByBlock
 62
     0
370
    -2
100
AcDbPolyline
 90
        2
 70
     1
 43
0.5
 10
-0.0625
 20
0.0
 42
1.0
 10
0.0625
 20
0.0
 42
1.0
  0
ENDBLK
  5
98
330
96
100
AcDbEntity
  8
0
100
AcDbBlockEnd
  0
BLOCK
  5
9B
330
9A
100
AcDbEntity
  8
0
100
AcDbBlockBegin
  2
_DATUMFILLED
 70
     0
 10
0.0
 20
0.0
 30
0.0
  3
_DATUMFILLED
  1

  0
SOLID
  5
9D
330
9A
100
AcDbEntity
  8
0
  6
ByBlock
 62
     0
370
    -2
100
AcDbTrace
 10
0.0
 20
0.57735027
 30
0.0
 11
-1.0
 21
0.0
 31
0.0
 12
0.0
 22
-0.57735027
 32
0.0
 13
0.0
 23
-0.57735027
 33
0.0
  0
SOLID
  5
39E
330
9A
100
AcDbEntity
  8
0
  6
ByBlock
 62
     0
370
    -2
100
AcDbTrace
 10
0.0
 20
0.57735027
 30
0.0
 11
-1.0
 21
0.0
 31
0.0
 12
0.0
 22
-0.57735027
 32
0.0
 13
0.0
 23
-0.57735027
 33
0.0
  0
ENDBLK
  5
9C
330
9A
100
AcDbEntity
  8
0
100
AcDbBlockEnd
  0
BLOCK
  5
9F
330
9E
100
AcDbEntity
  8
0
100
AcDbBlockBegin
  2
DATUMFILLED2
 70
     0
 10
0.0
 20
0.0
 30
0.0
  3
DATUMFILLED2
  1

  0
SOLID
  5
A1
330
9E
100
AcDbEntity
  8
0
  6
ByBlock
 62
     0
370
    -2
100
AcDbTrace
 10
0.0
 20
1.0
 30
0.0
 11
-1.0
 21
0.0
 31
0.0
 12
0.0
 22
-1.0
 32
0.0
 13
0.0
 23
-1.0
 33
0.0
  0
SOLID
  5
39F
330
9E
100
AcDbEntity
  8
0
  6
ByBlock
 62
     0
370
    -2
100
AcDbTrace
 10
0.0
 20
1.0
 30
0.0
 11
-1.0
 21
0.0
 31
0.0
 12
0.0
 22
-1.0
 32
0.0
 13
0.0
 23
-1.0
 33
0.0
  0
ENDBLK
  5
A0
330
9E
100
AcDbEntity
  8
0
100
AcDbBlockEnd
  0
BLOCK
  5
A3
330
A2
100
AcDbEntity
  8
0
100
AcDbBlockBegin
  2
_DATUMBLANK
 70
     0
 10
0.0
 20
0.0
 30
0.0
  3
_DATUMBLANK
  1

  0
LINE
  5
A5
330
A2
100
AcDbEntity
  8
0
  6
ByBlock
 62
     0
370
    -2
100
AcDbLine
 10
0.0
 20
0.57735027
 30
0.0
 11
-1.0
 21
0.0
 31
0.0
  0
LINE
  5
A6
330
A2
100
AcDbEntity
  8
0
  6
ByBlock
 62
     0
370
    -2
100
AcDbLine
 10
-1.0
 20
0.0
 30
0.0
 11
0.0
 21
-0.57735027
 31
0.0
  0
LINE
  5
A7
330
A2
100
AcDbEntity
  8
0
  6
ByBlock
 62
     0
370
    -2
100
AcDbLine
 10
0.0
 20
-0.57735027
 30
0.0
 11
0.0
 21
0.57735027
 31
0.0
  0
LINE
  5
3A0
330
A2
100
AcDbEntity
  8
0
  6
ByBlock
 62
     0
370
    -2
100
AcDbLine
 10
0.0
 20
0.57735027
 30
0.0
 11
-1.0
 21
0.0
 31
0.0
  0
LINE
  5
3A1
330
A2
100
AcDbEntity
  8
0
  6
ByBlock
 62
     0
370
    -2
100
AcDbLine
 10
-1.0
 20
0.0
 30
0.0
 11
0.0
 21
-0.57735027
 31
0.0
  0
LINE
  5
3A2
330
A2
100
AcDbEntity
  8
0
  6
ByBlock
 62
     0
370
    -2
100
AcDbLine
 10
0.0
 20
-0.57735027
 30
0.0
 11
0.0
 21
0.57735027
 31
0.0
  0
ENDBLK
  5
A4
330
A2
100
AcDbEntity
  8
0
100
AcDbBlockEnd
  0
BLOCK
  5
A9
330
A8
100
AcDbEntity
  8
0
100
AcDbBlockBegin
  2
DATUMBLANK2
 70
     0
 10
0.0
 20
0.0
 30
0.0
  3
DATUMBLANK2
  1

  0
LINE
  5
AB
330
A8
100
AcDbEntity
  8
0
  6
ByBlock
 62
     0
370
    -2
100
AcDbLine
 10
0.0
 20
1.0
 30
0.0
 11
-1.0
 21
0.0
 31
0.0
  0
LINE
  5
AC
330
A8
100
AcDbEntity
  8
0
  6
ByBlock
 62
     0
370
    -2
100
AcDbLine
 10
-1.0
 20
0.0
 30
0.0
 11
0.0
 21
-1.0
 31
0.0
  0
LINE
  5
AD
330
A8
100
AcDbEntity
  8
0
  6
ByBlock
 62
     0
370
    -2
100
AcDbLine
 10
0.0
 20
-1.0
 30
0.0
 11
0.0
 21
1.0
 31
0.0
  0
LINE
  5
3A3
330
A8
100
AcDbEntity
  8
0
  6
ByBlock
 62
     0
370
    -2
100
AcDbLine
 10
0.0
 20
1.0
 30
0.0
 11
-1.0
 21
0.0
 31
0.0
  0
LINE
  5
3A4
330
A8
100
AcDbEntity
  8
0
  6
ByBlock
 62
     0
370
    -2
100
AcDbLine
 10
-1.0
 20
0.0
 30
0.0
 11
0.0
 21
-1.0
 31
0.0
  0
LINE
  5
3A5
330
A8
100
AcDbEntity
  8
0
  6
ByBlock
 62
     0
370
    -2
100
AcDbLine
 10
0.0
 20
-1.0
 30
0.0
 11
0.0
 21
1.0
 31
0.0
  0
ENDBLK
  5
AA
330
A8
100
AcDbEntity
  8
0
100
AcDbBlockEnd
  0
BLOCK
  5
AF
330
AE
100
AcDbEntity
  8
0
100
AcDbBlockBegin
  2
_NONE
 70
     0
 10
0.0
 20
0.0
 30
0.0
  3
_NONE
  1

  0
ENDBLK
  5
B0
330
AE
100
AcDbEntity
  8
0
100
AcDbBlockEnd
  0
BLOCK
  5
E4
330
E3
100
AcDbEntity
  8
0
100
AcDbBlockBegin
  2
HOLE0
 70
     0
 10
388.2096245979176
 20
322.1762457836853
 30
0.0
  3
HOLE0
  1

  0
CIRCLE
  5
E6
330
E3
100
AcDbEntity
  8
1
  6
Continuous
 62
     7
100
AcDbCircle
 10
388.2096245979176
 20
322.1762457836853
 30
0.0
 40
3.0
  0
LINE
  5
E7
330
E3
100
AcDbEntity
  8
1
  6
CENTER2
 62
     7
100
AcDbLine
 10
384.9096245979176
 20
322.1762457836853
 30
0.0
 11
391.5096245979176
 21
322.1762457836853
 31
0.0
  0
LINE
  5
E8
330
E3
100
AcDbEntity
  8
1
  6
CENTER2
 62
     7
100
AcDbLine
 10
388.2096245979176
 20
318.8762457836853
 30
0.0
 11
388.2096245979176
 21
325.4762457836853
 31
0.0
  0
ENDBLK
  5
E5
330
E3
100
AcDbEntity
  8
0
100
AcDbBlockEnd
  0
BLOCK
  5
113
330
112
100
AcDbEntity
  8
0
100
AcDbBlockBegin
  2
_D1
 70
     0
 10
0.0
 20
0.0
 30
0.0
  3
_D1
  1

  0
LINE
  5
115
330
112
100
AcDbEntity
  8
1
  6
ByBlock
 62
     3
100
AcDbLine
 10
218.2096245979177
 20
178.6762457836853
 30
0.0
 11
218.2096245979177
 21
148.1681134935431
 31
0.0
  0
LINE
  5
116
330
112
100
AcDbEntity
  8
1
  6
ByBlock
 62
     3
100
AcDbLine
 10
218.2096245979177
 20
150.1681134935431
 30
0.0
 11
403.2096245979177
 21
150.1681134935431
 31
0.0
  0
LINE
  5
117
330
112
100
AcDbEntity
  8
1
  6
ByBlock
 62
     3
100
AcDbLine
 10
403.2096245979177
 20
178.6762457836853
 30
0.0
 11
403.2096245979177
 21
148.1681134935431
 31
0.0
  0
INSERT
  5
118
330
112
100
AcDbEntity
  8
1
  6
ByBlock
 62
     3
100
AcDbBlockReference
  2
_OPEN30
 10
218.2096245979177
 20
150.1681134935431
 30
0.0
 41
3.939231012048822
 42
3.939231012048822
 43
3.939231012048822
 50
180.0
  0
INSERT
  5
119
330
112
100
AcDbEntity
  8
1
  6
ByBlock
 62
     3
100
AcDbBlockReference
  2
_OPEN30
 10
403.2096245979177
 20
150.1681134935431
 30
0.0
 41
3.939231012048822
 42
3.939231012048822
 43
3.939231012048822
  0
MTEXT
  5
11B
330
112
100
AcDbEntity
  8
1
  6
Continuous
 62
     2
100
AcDbMText
 10
300.5096245979177
 20
152.1681134935431
 30
0.0
 40
8.0
 41
0.0
 71
     7
 72
     5
  1
１８５
  7
MTSTANDARD2
 73
     1
 44
0.8125
  0
POINT
  5
11C
330
112
100
AcDbEntity
  8
DEFPOINTS
  6
ByBlock
 62
     3
100
AcDbPoint
 10
218.2096245979177
 20
180.6762457836853
 30
0.0
  0
POINT
  5
11D
330
112
100
AcDbEntity
  8
DEFPOINTS
  6
ByBlock
 62
     3
100
AcDbPoint
 10
403.2096245979177
 20
180.6762457836853
 30
0.0
  0
POINT
  5
11E
330
112
100
AcDbEntity
  8
DEFPOINTS
  6
ByBlock
 62
     3
100
AcDbPoint
 10
403.2096245979177
 20
150.1681134935431
 30
0.0
  0
ENDBLK
  5
114
330
112
100
AcDbEntity
  8
0
100
AcDbBlockEnd
  0
BLOCK
  5
122
330
121
100
AcDbEntity
  8
0
100
AcDbBlockBegin
  2
_D2
 70
     0
 10
0.0
 20
0.0
 30
0.0
  3
_D2
  1

  0
LINE
  5
124
330
121
100
AcDbEntity
  8
1
  6
ByBlock
 62
     3
100
AcDbLine
 10
218.2096245979176
 20
270.6615775110006
 30
0.0
 11
218.2096245979176
 21
281.8971198672009
 31
0.0
  0
LINE
  5
125
330
121
100
AcDbEntity
  8
1
  6
ByBlock
 62
     3
100
AcDbLine
 10
218.2096245979176
 20
279.8971198672009
 30
0.0
 11
219.7096245979175
 21
279.8971198672009
 31
0.0
  0
LINE
  5
126
330
121
100
AcDbEntity
  8
1
  6
ByBlock
 62
     3
100
AcDbLine
 10
218.2096245979176
 20
279.8971198672009
 30
0.0
 11
212.2096245979178
 21
279.8971198672008
 31
0.0
  0
LINE
  5
127
330
121
100
AcDbEntity
  8
1
  6
ByBlock
 62
     3
100
AcDbLine
 10
219.7096245979175
 20
279.8971198672009
 30
0.0
 11
225.7096245979174
 21
279.8971198672008
 31
0.0
  0
LINE
  5
128
330
121
100
AcDbEntity
  8
1
  6
ByBlock
 62
     3
100
AcDbLine
 10
218.2096245979176
 20
279.8971198672009
 30
0.0
 11
218.9596245979176
 21
279.8971198672009
 31
0.0
  0
LINE
  5
129
330
121
100
AcDbEntity
  8
1
  6
ByBlock
 62
     3
100
AcDbLine
 10
219.7096245979175
 20
279.8971198672009
 30
0.0
 11
218.9596245979176
 21
279.8971198672009
 31
0.0
  0
LINE
  5
12A
330
121
100
AcDbEntity
  8
1
  6
ByBlock
 62
     3
100
AcDbLine
 10
219.7096245979175
 20
270.6615775110006
 30
0.0
 11
219.7096245979175
 21
281.8971198672009
 31
0.0
  0
LINE
  5
12B
330
121
100
AcDbEntity
  8
1
  6
ByBlock
 62
     3
100
AcDbLine
 10
218.9596245979176
 20
279.8971198672009
 30
0.0
 11
209.2027653041416
 21
289.653979160977
 31
0.0
  0
LINE
  5
12C
330
121
100
AcDbEntity
  8
1
  6
ByBlock
 62
     3
100
AcDbLine
 10
209.2027653041416
 20
289.653979160977
 30
0.0
 11
193.0027653041416
 21
289.653979160977
 31
0.0
  0
INSERT
  5
12D
330
121
100
AcDbEntity
  8
1
  6
ByBlock
 62
     3
100
AcDbBlockReference
  2
_OPEN30
 10
218.2096245979176
 20
279.8971198672009
 30
0.0
 41
3.939231012048822
 42
3.939231012048822
 43
3.939231012048822
  0
INSERT
  5
12E
330
121
100
AcDbEntity
  8
1
  6
ByBlock
 62
     3
100
AcDbBlockReference
  2
_OPEN30
 10
219.7096245979175
 20
279.8971198672009
 30
0.0
 41
3.939231012048822
 42
3.939231012048822
 43
3.939231012048822
 50
180.0
  0
MTEXT
  5
12F
330
121
100
AcDbEntity
  8
1
  6
Continuous
 62
     2
100
AcDbMText
 10
193.0027653041416
 20
291.6539791609769
 30
0.0
 40
8.0
 41
0.0
 71
     7
 72
     5
  1
１．５
  7
MTSTANDARD2
 73
     1
 44
0.8125
  0
POINT
  5
130
330
121
100
AcDbEntity
  8
DEFPOINTS
  6
ByBlock
 62
     3
100
AcDbPoint
 10
218.2096245979176
 20
268.6615775110006
 30
0.0
  0
POINT
  5
131
330
121
100
AcDbEntity
  8
DEFPOINTS
  6
ByBlock
 62
     3
100
AcDbPoint
 10
219.7096245979175
 20
268.6615775110006
 30
0.0
  0
POINT
  5
132
330
121
100
AcDbEntity
  8
DEFPOINTS
  6
ByBlock
 62
     3
100
AcDbPoint
 10
219.7096245979175
 20
279.8971198672009
 30
0.0
  0
ENDBLK
  5
123
330
121
100
AcDbEntity
  8
0
100
AcDbBlockEnd
  0
BLOCK
  5
136
330
135
100
AcDbEntity
  8
0
100
AcDbBlockBegin
  2
_D3
 70
     0
 10
0.0
 20
0.0
 30
0.0
  3
_D3
  1

  0
LINE
  5
138
330
135
100
AcDbEntity
  8
1
  6
ByBlock
 62
     3
100
AcDbLine
 10
214.7096245979176
 20
180.6762457836853
 30
0.0
 11
175.810222317772
 21
180.6762457836853
 31
0.0
  0
LINE
  5
139
330
135
100
AcDbEntity
  8
1
  6
ByBlock
 62
     3
100
AcDbLine
 10
177.810222317772
 20
180.6762457836853
 30
0.0
 11
177.810222317772
 21
330.6762457836842
 31
0.0
  0
LINE
  5
13A
330
135
100
AcDbEntity
  8
1
  6
ByBlock
 62
     3
100
AcDbLine
 10
207.813582099604
 20
330.6762457836842
 30
0.0
 11
175.810222317772
 21
330.6762457836842
 31
0.0
  0
INSERT
  5
13B
330
135
100
AcDbEntity
  8
1
  6
ByBlock
 62
     3
100
AcDbBlockReference
  2
_OPEN30
 10
177.810222317772
 20
180.6762457836853
 30
0.0
 41
3.939231012048822
 42
3.939231012048822
 43
3.939231012048822
 50
270.0
  0
INSERT
  5
13C
330
135
100
AcDbEntity
  8
1
  6
ByBlock
 62
     3
100
AcDbBlockReference
  2
_OPEN30
 10
177.810222317772
 20
330.6762457836842
 30
0.0
 41
3.939231012048822
 42
3.939231012048822
 43
3.939231012048822
 50
90.0
  0
MTEXT
  5
13D
330
135
100
AcDbEntity
  8
1
  6
Continuous
 62
     2
100
AcDbMText
 10
175.810222317772
 20
245.4762457836847
 30
0.0
 40
8.0
 41
0.0
 71
     7
 72
     5
  1
１５０
  7
MTSTANDARD2
 11
0.0
 21
1.0
 31
0.0
 73
     1
 44
0.8125
  0
POINT
  5
13E
330
135
100
AcDbEntity
  8
DEFPOINTS
  6
ByBlock
 62
     3
100
AcDbPoint
 10
216.7096245979176
 20
180.6762457836853
 30
0.0
  0
POINT
  5
13F
330
135
100
AcDbEntity
  8
DEFPOINTS
  6
ByBlock
 62
     3
100
AcDbPoint
 10
209.813582099604
 20
330.6762457836842
 30
0.0
  0
POINT
  5
140
330
135
100
AcDbEntity
  8
DEFPOINTS
  6
ByBlock
 62
     3
100
AcDbPoint
 10
177.810222317772
 20
330.6762457836842
 30
0.0
  0
ENDBLK
  5
137
330
135
100
AcDbEntity
  8
0
100
AcDbBlockEnd
  0
BLOCK
  5
143
330
142
100
AcDbEntity
  8
0
100
AcDbBlockBegin
  2
_D4
 70
     0
 10
0.0
 20
0.0
 30
0.0
  3
_D4
  1

  0
LINE
  5
145
330
142
100
AcDbEntity
  8
1
  6
ByBlock
 62
     3
100
AcDbLine
 10
221.7096245979177
 20
332.4581090307664
 30
0.0
 11
221.7096245979177
 21
365.3504874829658
 31
0.0
  0
LINE
  5
146
330
142
100
AcDbEntity
  8
1
  6
ByBlock
 62
     3
100
AcDbLine
 10
221.7096245979177
 20
363.3504874829658
 30
0.0
 11
328.1096245979177
 21
363.3504874829658
 31
0.0
  0
INSERT
  5
147
330
142
100
AcDbEntity
  8
1
  6
ByBlock
 62
     3
100
AcDbBlockReference
  2
_OPEN30
 10
221.7096245979177
 20
363.3504874829658
 30
0.0
 41
3.939231012048822
 42
3.939231012048822
 43
3.939231012048822
 50
180.0
  0
MTEXT
  5
148
330
142
100
AcDbEntity
  8
1
  6
Continuous
 62
     2
100
AcDbMText
 10
300.5096245979177
 20
365.3504874829658
 30
0.0
 40
8.0
 41
0.0
 71
     7
 72
     5
  1
１７８
  7
MTSTANDARD2
 73
     1
 44
0.8125
  0
POINT
  5
149
330
142
100
AcDbEntity
  8
DEFPOINTS
  6
ByBlock
 62
     3
100
AcDbPoint
 10
221.7096245979177
 20
363.3504874829658
 30
0.0
  0
POINT
  5
14A
330
142
100
AcDbEntity
  8
DEFPOINTS
  6
ByBlock
 62
     3
100
AcDbPoint
 10
221.7096245979177
 20
330.6762457836842
 30
0.0
  0
POINT
  5
14B
330
142
100
AcDbEntity
  8
DEFPOINTS
  6
ByBlock
 62
     3
100
AcDbPoint
 10
399.7096245979177
 20
330.6762457836842
 30
0.0
  0
ENDBLK
  5
144
330
142
100
AcDbEntity
  8
0
100
AcDbBlockEnd
  0
BLOCK
  5
14F
330
14E
100
AcDbEntity
  8
0
100
AcDbBlockBegin
  2
_D5
 70
     0
 10
0.0
 20
0.0
 30
0.0
  3
_D5
  1

  0
LINE
  5
151
330
14E
100
AcDbEntity
  8
1
  6
ByBlock
 62
     3
100
AcDbLine
 10
210.7096245979177
 20
332.6762457836852
 30
0.0
 11
210.7096245979177
 21
379.3504874829658
 31
0.0
  0
LINE
  5
152
330
14E
100
AcDbEntity
  8
1
  6
ByBlock
 62
     3
100
AcDbLine
 10
210.7096245979177
 20
377.3504874829658
 30
0.0
 11
410.7096245979177
 21
377.3504874829658
 31
0.0
  0
LINE
  5
153
330
14E
100
AcDbEntity
  8
1
  6
ByBlock
 62
     3
100
AcDbLine
 10
410.7096245979177
 20
332.6762457836852
 30
0.0
 11
410.7096245979177
 21
379.3504874829658
 31
0.0
  0
INSERT
  5
154
330
14E
100
AcDbEntity
  8
1
  6
ByBlock
 62
     3
100
AcDbBlockReference
  2
_OPEN30
 10
210.7096245979177
 20
377.3504874829658
 30
0.0
 41
3.939231012048822
 42
3.939231012048822
 43
3.939231012048822
 50
180.0
  0
INSERT
  5
155
330
14E
100
AcDbEntity
  8
1
  6
ByBlock
 62
     3
100
AcDbBlockReference
  2
_OPEN30
 10
410.7096245979177
 20
377.3504874829658
 30
0.0
 41
3.939231012048822
 42
3.939231012048822
 43
3.939231012048822
  0
MTEXT
  5
156
330
14E
100
AcDbEntity
  8
1
  6
Continuous
 62
     2
100
AcDbMText
 10
300.5096245979177
 20
379.3504874829658
 30
0.0
 40
8.0
 41
0.0
 71
     7
 72
     5
  1
２００
  7
MTSTANDARD2
 73
     1
 44
0.8125
  0
POINT
  5
157
330
14E
100
AcDbEntity
  8
DEFPOINTS
  6
ByBlock
 62
     3
100
AcDbPoint
 10
210.7096245979177
 20
330.6762457836852
 30
0.0
  0
POINT
  5
158
330
14E
100
AcDbEntity
  8
DEFPOINTS
  6
ByBlock
 62
     3
100
AcDbPoint
 10
410.7096245979177
 20
330.6762457836852
 30
0.0
  0
POINT
  5
159
330
14E
100
AcDbEntity
  8
DEFPOINTS
  6
ByBlock
 62
     3
100
AcDbPoint
 10
410.7096245979177
 20
377.3504874829658
 30
0.0
  0
ENDBLK
  5
150
330
14E
100
AcDbEntity
  8
0
100
AcDbBlockEnd
  0
BLOCK
  5
15C
330
15B
100
AcDbEntity
  8
0
100
AcDbBlockBegin
  2
_D6
 70
     0
 10
0.0
 20
0.0
 30
0.0
  3
_D6
  1

  0
LINE
  5
15E
330
15B
100
AcDbEntity
  8
1
  6
ByBlock
 62
     3
100
AcDbLine
 10
219.7096245979178
 20
594.8720420794281
 30
0.0
 11
187.7096245979177
 21
594.872042079428
 31
0.0
  0
LINE
  5
15F
330
15B
100
AcDbEntity
  8
1
  6
ByBlock
 62
     3
100
AcDbLine
 10
189.7096245979177
 20
594.8720420794281
 30
0.0
 11
189.7096245979177
 21
463.8720420794282
 31
0.0
  0
LINE
  5
160
330
15B
100
AcDbEntity
  8
1
  6
ByBlock
 62
     3
100
AcDbLine
 10
219.7096245979178
 20
463.8720420794282
 30
0.0
 11
187.7096245979177
 21
463.8720420794282
 31
0.0
  0
INSERT
  5
161
330
15B
100
AcDbEntity
  8
1
  6
ByBlock
 62
     3
100
AcDbBlockReference
  2
_OPEN30
 10
189.7096245979177
 20
594.8720420794281
 30
0.0
 41
3.939231012048822
 42
3.939231012048822
 43
3.939231012048822
 50
90.0
  0
INSERT
  5
162
330
15B
100
AcDbEntity
  8
1
  6
ByBlock
 62
     3
100
AcDbBlockReference
  2
_OPEN30
 10
189.7096245979177
 20
463.8720420794282
 30
0.0
 41
3.939231012048822
 42
3.939231012048822
 43
3.939231012048822
 50
270.0
  0
MTEXT
  5
163
330
15B
100
AcDbEntity
  8
1
  6
Continuous
 62
     2
100
AcDbMText
 10
187.7096245979177
 20
519.1720420794281
 30
0.0
 40
8.0
 41
0.0
 71
     7
 72
     5
  1
１３０
  7
MTSTANDARD2
 11
0.0
 21
1.0
 31
0.0
 73
     1
 44
0.8125
  0
POINT
  5
164
330
15B
100
AcDbEntity
  8
DEFPOINTS
  6
ByBlock
 62
     3
100
AcDbPoint
 10
221.7096245979178
 20
594.8720420794281
 30
0.0
  0
POINT
  5
165
330
15B
100
AcDbEntity
  8
DEFPOINTS
  6
ByBlock
 62
     3
100
AcDbPoint
 10
221.7096245979178
 20
463.8720420794282
 30
0.0
  0
POINT
  5
166
330
15B
100
AcDbEntity
  8
DEFPOINTS
  6
ByBlock
 62
     3
100
AcDbPoint
 10
189.7096245979177
 20
463.8720420794282
 30
0.0
  0
ENDBLK
  5
15D
330
15B
100
AcDbEntity
  8
0
100
AcDbBlockEnd
  0
BLOCK
  5
169
330
168
100
AcDbEntity
  8
0
100
AcDbBlockBegin
  2
_D7
 70
     0
 10
0.0
 20
0.0
 30
0.0
  3
_D7
  1

  0
LINE
  5
16B
330
168
100
AcDbEntity
  8
1
  6
ByBlock
 62
     3
100
AcDbLine
 10
208.7096245979178
 20
604.3720420794281
 30
0.0
 11
173.7096245979177
 21
604.3720420794281
 31
0.0
  0
LINE
  5
16C
330
168
100
AcDbEntity
  8
1
  6
ByBlock
 62
     3
100
AcDbLine
 10
175.7096245979177
 20
604.3720420794281
 30
0.0
 11
175.7096245979177
 21
454.3720420794281
 31
0.0
  0
LINE
  5
16D
330
168
100
AcDbEntity
  8
1
  6
ByBlock
 62
     3
100
AcDbLine
 10
208.7096245979177
 20
454.3720420794281
 30
0.0
 11
173.7096245979177
 21
454.3720420794281
 31
0.0
  0
INSERT
  5
16E
330
168
100
AcDbEntity
  8
1
  6
ByBlock
 62
     3
100
AcDbBlockReference
  2
_OPEN30
 10
175.7096245979177
 20
604.3720420794281
 30
0.0
 41
3.939231012048822
 42
3.939231012048822
 43
3.939231012048822
 50
90.0
  0
INSERT
  5
16F
330
168
100
AcDbEntity
  8
1
  6
ByBlock
 62
     3
100
AcDbBlockReference
  2
_OPEN30
 10
175.7096245979177
 20
454.3720420794281
 30
0.0
 41
3.939231012048822
 42
3.939231012048822
 43
3.939231012048822
 50
270.0
  0
MTEXT
  5
170
330
168
100
AcDbEntity
  8
1
  6
Continuous
 62
     2
100
AcDbMText
 10
173.7096245979177
 20
519.172042079428
 30
0.0
 40
8.0
 41
0.0
 71
     7
 72
     5
  1
１５０
  7
MTSTANDARD2
 11
0.0
 21
1.0
 31
0.0
 73
     1
 44
0.8125
  0
POINT
  5
171
330
168
100
AcDbEntity
  8
DEFPOINTS
  6
ByBlock
 62
     3
100
AcDbPoint
 10
210.7096245979178
 20
604.3720420794281
 30
0.0
  0
POINT
  5
172
330
168
100
AcDbEntity
  8
DEFPOINTS
  6
ByBlock
 62
     3
100
AcDbPoint
 10
210.7096245979177
 20
454.3720420794281
 30
0.0
  0
POINT
  5
173
330
168
100
AcDbEntity
  8
DEFPOINTS
  6
ByBlock
 62
     3
100
AcDbPoint
 10
175.7096245979177
 20
454.3720420794281
 30
0.0
  0
ENDBLK
  5
16A
330
168
100
AcDbEntity
  8
0
100
AcDbBlockEnd
  0
BLOCK
  5
176
330
175
100
AcDbEntity
  8
0
100
AcDbBlockBegin
  2
_D8
 70
     0
 10
0.0
 20
0.0
 30
0.0
  3
_D8
  1

  0
LINE
  5
178
330
175
100
AcDbEntity
  8
1
  6
ByBlock
 62
     3
100
AcDbLine
 10
246.0971385177587
 20
539.1220420794291
 30
0.0
 11
201.7096245979177
 21
539.1220420794291
 31
0.0
  0
LINE
  5
179
330
175
100
AcDbEntity
  8
1
  6
ByBlock
 62
     3
100
AcDbLine
 10
203.7096245979177
 20
539.1220420794291
 30
0.0
 11
203.7096245979177
 21
545.1220420794292
 31
0.0
  0
LINE
  5
17A
330
175
100
AcDbEntity
  8
1
  6
ByBlock
 62
     3
100
AcDbLine
 10
203.7096245979177
 20
519.6220420794268
 30
0.0
 11
203.7096245979177
 21
513.6220420794268
 31
0.0
  0
LINE
  5
17B
330
175
100
AcDbEntity
  8
1
  6
ByBlock
 62
     3
100
AcDbLine
 10
203.7096245979177
 20
539.1220420794291
 30
0.0
 11
203.7096245979177
 21
529.372042079428
 31
0.0
  0
LINE
  5
17C
330
175
100
AcDbEntity
  8
1
  6
ByBlock
 62
     3
100
AcDbLine
 10
203.7096245979177
 20
519.6220420794268
 30
0.0
 11
203.7096245979177
 21
529.372042079428
 31
0.0
  0
LINE
  5
17D
330
175
100
AcDbEntity
  8
1
  6
ByBlock
 62
     3
100
AcDbLine
 10
246.0971385177588
 20
519.6220420794268
 30
0.0
 11
201.7096245979177
 21
519.6220420794268
 31
0.0
  0
LINE
  5
17E
330
175
100
AcDbEntity
  8
1
  6
ByBlock
 62
     3
100
AcDbLine
 10
203.7096245979177
 20
539.1220420794291
 30
0.0
 11
203.7096245979177
 21
519.6220420794268
 31
0.0
  0
INSERT
  5
17F
330
175
100
AcDbEntity
  8
1
  6
ByBlock
 62
     3
100
AcDbBlockReference
  2
_OPEN30
 10
203.7096245979177
 20
539.1220420794291
 30
0.0
 41
3.939231012048822
 42
3.939231012048822
 43
3.939231012048822
 50
270.0
  0
INSERT
  5
180
330
175
100
AcDbEntity
  8
1
  6
ByBlock
 62
     3
100
AcDbBlockReference
  2
_OPEN30
 10
203.7096245979177
 20
519.6220420794268
 30
0.0
 41
3.939231012048822
 42
3.939231012048822
 43
3.939231012048822
 50
90.0
  0
MTEXT
  5
181
330
175
100
AcDbEntity
  8
1
  6
Continuous
 62
     2
100
AcDbMText
 10
199.7096245979177
 20
517.6720420794279
 30
0.0
 40
8.0
 41
0.0
 71
     7
 72
     5
  1
１９．５
  7
MTSTANDARD2
 11
0.0
 21
1.0
 31
0.0
 73
     1
 44
0.8125
  0
POINT
  5
182
330
175
100
AcDbEntity
  8
DEFPOINTS
  6
ByBlock
 62
     3
100
AcDbPoint
 10
248.0971385177587
 20
539.1220420794291
 30
0.0
  0
POINT
  5
183
330
175
100
AcDbEntity
  8
DEFPOINTS
  6
ByBlock
 62
     3
100
AcDbPoint
 10
248.0971385177588
 20
519.6220420794268
 30
0.0
  0
POINT
  5
184
330
175
100
AcDbEntity
  8
DEFPOINTS
  6
ByBlock
 62
     3
100
AcDbPoint
 10
203.7096245979177
 20
519.6220420794268
 30
0.0
  0
ENDBLK
  5
177
330
175
100
AcDbEntity
  8
0
100
AcDbBlockEnd
  0
BLOCK
  5
188
330
187
100
AcDbEntity
  8
0
100
AcDbBlockBegin
  2
_D9
 70
     0
 10
0.0
 20
0.0
 30
0.0
  3
_D9
  1

  0
LINE
  5
18A
330
187
100
AcDbEntity
  8
1
  6
ByBlock
 62
     3
100
AcDbLine
 10
221.7103686227526
 20
541.1339463392173
 30
0.0
 11
221.7155760198665
 21
555.1318574560946
 31
0.0
  0
LINE
  5
18B
330
187
100
AcDbEntity
  8
1
  6
ByBlock
 62
     3
100
AcDbLine
 10
221.7148319950317
 20
553.1318575944879
 30
0.0
 11
253.7148319950317
 21
553.1199531963064
 31
0.0
  0
LINE
  5
18C
330
187
100
AcDbEntity
  8
1
  6
ByBlock
 62
     3
100
AcDbLine
 10
253.7103686227526
 20
541.1220419410358
 30
0.0
 11
253.7155760198665
 21
555.1199530579131
 31
0.0
  0
INSERT
  5
18D
330
187
100
AcDbEntity
  8
1
  6
ByBlock
 62
     3
100
AcDbBlockReference
  2
_OPEN30
 10
221.7148319950317
 20
553.1318575944879
 30
0.0
 41
3.939231012048827
 42
3.939231012048827
 43
3.939231012048827
 50
179.9786852580623
  0
INSERT
  5
18E
330
187
100
AcDbEntity
  8
1
  6
ByBlock
 62
     3
100
AcDbBlockReference
  2
_OPEN30
 10
253.7148319950317
 20
553.1199531963064
 30
0.0
 41
3.939231012048827
 42
3.939231012048827
 43
3.939231012048827
 50
359.9786852580623
  0
MTEXT
  5
18F
330
187
100
AcDbEntity
  8
1
  6
Continuous
 62
     2
100
AcDbMText
 10
231.1155764765642
 20
555.1283605389589
 30
0.0
 40
8.0
 41
0.0
 71
     7
 72
     5
  1
３２
  7
MTSTANDARD2
 11
0.9999999308033781
 21
-0.000372012417430305
 31
0.0
 73
     1
 44
0.8125
  0
POINT
  5
190
330
187
100
AcDbEntity
  8
DEFPOINTS
  6
ByBlock
 62
     3
100
AcDbPoint
 10
221.7096245979178
 20
539.1339464776106
 30
0.0
  0
POINT
  5
191
330
187
100
AcDbEntity
  8
DEFPOINTS
  6
ByBlock
 62
     3
100
AcDbPoint
 10
253.7096245979178
 20
539.1220420794291
 30
0.0
  0
POINT
  5
192
330
187
100
AcDbEntity
  8
DEFPOINTS
  6
ByBlock
 62
     3
100
AcDbPoint
 10
253.7148319950317
 20
553.1199531963064
 30
0.0
  0
ENDBLK
  5
189
330
187
100
AcDbEntity
  8
0
100
AcDbBlockEnd
  0
BLOCK
  5
195
330
194
100
AcDbEntity
  8
0
100
AcDbBlockBegin
  2
BALN0
 70
     0
 10
0.0
 20
0.0
 30
0.0
  3
BALN0
  1

  0
CIRCLE
  5
197
330
194
100
AcDbEntity
  8
1
  6
ByBlock
 62
     3
100
AcDbCircle
 10
-90.42569339400794
 20
51.04527355798939
 30
0.0
 40
10.0
  0
MTEXT
  5
199
330
194
100
AcDbEntity
  8
1
  6
Continuous
 62
     2
100
AcDbMText
 10
-93.42569339400794
 20
45.04527355798939
 30
0.0
 40
12.0
 41
0.0
 71
     7
 72
     5
  1
{\fＭＳ ゴシック|b0|i0|c128|p49;\W1.0;1}
  7
MTSTANDARD3
 73
     1
 44
0.75
  0
LEADER
  5
19B
330
194
100
AcDbEntity
  8
1
  6
ByBlock
 62
     3
100
AcDbLeader
  3
DIMSTYEX_5
 76
     2
 10
0.0
 20
0.0
 30
0.0
 10
-81.71738892359849
 20
46.1294386084974
 30
0.0
1001
ACAD
1000
DSTYLE
1002
{
1070
   176
1070
     0
1002
}
  0
ENDBLK
  5
196
330
194
100
AcDbEntity
  8
0
100
AcDbBlockEnd
  0
BLOCK
  5
19E
330
19D
100
AcDbEntity
  8
0
100
AcDbBlockBegin
  2
BALN1
 70
     0
 10
0.0
 20
0.0
 30
0.0
  3
BALN1
  1

  0
CIRCLE
  5
1A0
330
19D
100
AcDbEntity
  8
1
  6
ByBlock
 62
     3
100
AcDbCircle
 10
-72.92031799192563
 20
12.23740695239508
 30
0.0
 40
10.0
  0
MTEXT
  5
1A1
330
19D
100
AcDbEntity
  8
1
  6
Continuous
 62
     2
100
AcDbMText
 10
-75.92031799192563
 20
6.237406952395077
 30
0.0
 40
12.0
 41
0.0
 71
     7
 72
     5
  1
{\fＭＳ ゴシック|b0|i0|c128|p49;\W1.0;2}
  7
MTSTANDARD3
 73
     1
 44
0.75
  0
LEADER
  5
1A3
330
19D
100
AcDbEntity
  8
1
  6
ByBlock
 62
     3
100
AcDbLeader
  3
DIMSTYEX_6
 76
     2
 10
0.0
 20
0.0
 30
0.0
 10
-63.05822765500422
 20
10.58236188158842
 30
0.0
1001
ACAD
1000
DSTYLE
1002
{
1070
   176
1070
     0
1002
}
  0
ENDBLK
  5
19F
330
19D
100
AcDbEntity
  8
0
100
AcDbBlockEnd
  0
BLOCK
  5
1B6
330
1B5
100
AcDbEntity
  8
0
100
AcDbBlockBegin
  2
_D10
 70
     0
 10
0.0
 20
0.0
 30
0.0
  3
_D10
  1

  0
LINE
  5
1B8
330
1B5
100
AcDbEntity
  8
1
  6
ByBlock
 62
     3
100
AcDbLine
 10
244.4596245979177
 20
327.6762457836841
 30
0.0
 11
255.8586824194405
 21
327.6762457836841
 31
0.0
  0
LINE
  5
1B9
330
1B5
100
AcDbEntity
  8
1
  6
ByBlock
 62
     3
100
AcDbLine
 10
253.8586824194405
 20
327.6762457836841
 30
0.0
 11
253.8586824194405
 21
330.6762457836842
 31
0.0
  0
LINE
  5
1BA
330
1B5
100
AcDbEntity
  8
1
  6
ByBlock
 62
     3
100
AcDbLine
 10
253.8586824194405
 20
327.6762457836841
 30
0.0
 11
253.8586824194405
 21
321.6762457836841
 31
0.0
  0
LINE
  5
1BB
330
1B5
100
AcDbEntity
  8
1
  6
ByBlock
 62
     3
100
AcDbLine
 10
253.8586824194405
 20
330.6762457836842
 30
0.0
 11
253.8586824194405
 21
336.6762457836842
 31
0.0
  0
LINE
  5
1BC
330
1B5
100
AcDbEntity
  8
1
  6
ByBlock
 62
     3
100
AcDbLine
 10
253.8586824194405
 20
327.6762457836841
 30
0.0
 11
253.8586824194405
 21
329.1762457836841
 31
0.0
  0
LINE
  5
1BD
330
1B5
100
AcDbEntity
  8
1
  6
ByBlock
 62
     3
100
AcDbLine
 10
253.8586824194405
 20
330.6762457836842
 30
0.0
 11
253.8586824194405
 21
329.1762457836841
 31
0.0
  0
LINE
  5
1BE
330
1B5
100
AcDbEntity
  8
1
  6
ByBlock
 62
     3
100
AcDbLine
 10
244.4596245979178
 20
330.6762457836842
 30
0.0
 11
255.8586824194405
 21
330.6762457836842
 31
0.0
  0
LINE
  5
1BF
330
1B5
100
AcDbEntity
  8
1
  6
ByBlock
 62
     3
100
AcDbLine
 10
253.8586824194405
 20
329.1762457836841
 30
0.0
 11
260.7096245979177
 21
345.5312055614681
 31
0.0
  0
LINE
  5
1C0
330
1B5
100
AcDbEntity
  8
1
  6
ByBlock
 62
     3
100
AcDbLine
 10
260.7096245979177
 20
345.5312055614681
 30
0.0
 11
266.7096245979177
 21
345.5312055614681
 31
0.0
  0
INSERT
  5
1C1
330
1B5
100
AcDbEntity
  8
1
  6
ByBlock
 62
     3
100
AcDbBlockReference
  2
_OPEN30
 10
253.8586824194405
 20
327.6762457836841
 30
0.0
 41
3.939231012048822
 42
3.939231012048822
 43
3.939231012048822
 50
90.0
  0
INSERT
  5
1C2
330
1B5
100
AcDbEntity
  8
1
  6
ByBlock
 62
     3
100
AcDbBlockReference
  2
_OPEN30
 10
253.8586824194405
 20
330.6762457836842
 30
0.0
 41
3.939231012048822
 42
3.939231012048822
 43
3.939231012048822
 50
270.0
  0
MTEXT
  5
1C3
330
1B5
100
AcDbEntity
  8
1
  6
Continuous
 62
     2
100
AcDbMText
 10
260.7096245979177
 20
347.5312055614681
 30
0.0
 40
8.0
 41
0.0
 71
     7
 72
     5
  1
３
  7
MTSTANDARD2
 73
     1
 44
0.8125
  0
POINT
  5
1C4
330
1B5
100
AcDbEntity
  8
DEFPOINTS
  6
ByBlock
 62
     3
100
AcDbPoint
 10
242.4596245979177
 20
327.6762457836841
 30
0.0
  0
POINT
  5
1C5
330
1B5
100
AcDbEntity
  8
DEFPOINTS
  6
ByBlock
 62
     3
100
AcDbPoint
 10
242.4596245979178
 20
330.6762457836842
 30
0.0
  0
POINT
  5
1C6
330
1B5
100
AcDbEntity
  8
DEFPOINTS
  6
ByBlock
 62
     3
100
AcDbPoint
 10
253.8586824194405
 20
330.6762457836842
 30
0.0
  0
ENDBLK
  5
1B7
330
1B5
100
AcDbEntity
  8
0
100
AcDbBlockEnd
  0
BLOCK
  5
1C9
330
1C8
100
AcDbEntity
  8
0
100
AcDbBlockBegin
  2
_D11
 70
     0
 10
0.0
 20
0.0
 30
0.0
  3
_D11
  1

  0
LINE
  5
1CB
330
1C8
100
AcDbEntity
  8
1
  6
ByBlock
 62
     3
100
AcDbLine
 10
230.772237903057
 20
448.8720420794281
 30
0.0
 11
159.7096245979177
 21
448.872042079428
 31
0.0
  0
LINE
  5
1CC
330
1C8
100
AcDbEntity
  8
1
  6
ByBlock
 62
     3
100
AcDbLine
 10
161.7096245979177
 20
448.8720420794281
 30
0.0
 11
161.7096245979177
 21
609.8720420794281
 31
0.0
  0
LINE
  5
1CD
330
1C8
100
AcDbEntity
  8
1
  6
ByBlock
 62
     3
100
AcDbLine
 10
231.125555726578
 20
609.8720420794281
 30
0.0
 11
159.7096245979178
 21
609.8720420794281
 31
0.0
  0
INSERT
  5
1CE
330
1C8
100
AcDbEntity
  8
1
  6
ByBlock
 62
     3
100
AcDbBlockReference
  2
_OPEN30
 10
161.7096245979177
 20
448.8720420794281
 30
0.0
 41
3.939231012048822
 42
3.939231012048822
 43
3.939231012048822
 50
270.0
  0
INSERT
  5
1CF
330
1C8
100
AcDbEntity
  8
1
  6
ByBlock
 62
     3
100
AcDbBlockReference
  2
_OPEN30
 10
161.7096245979177
 20
609.8720420794281
 30
0.0
 41
3.939231012048822
 42
3.939231012048822
 43
3.939231012048822
 50
90.0
  0
MTEXT
  5
1D0
330
1C8
100
AcDbEntity
  8
1
  6
Continuous
 62
     2
100
AcDbMText
 10
159.7096245979177
 20
519.172042079428
 30
0.0
 40
8.0
 41
0.0
 71
     7
 72
     5
  1
１６１
  7
MTSTANDARD2
 11
0.0
 21
1.0
 31
0.0
 73
     1
 44
0.8125
  0
POINT
  5
1D1
330
1C8
100
AcDbEntity
  8
DEFPOINTS
  6
ByBlock
 62
     3
100
AcDbPoint
 10
232.772237903057
 20
448.8720420794281
 30
0.0
  0
POINT
  5
1D2
330
1C8
100
AcDbEntity
  8
DEFPOINTS
  6
ByBlock
 62
     3
100
AcDbPoint
 10
233.1255557265779
 20
609.8720420794281
 30
0.0
  0
POINT
  5
1D3
330
1C8
100
AcDbEntity
  8
DEFPOINTS
  6
ByBlock
 62
     3
100
AcDbPoint
 10
161.7096245979177
 20
609.8720420794281
 30
0.0
  0
ENDBLK
  5
1CA
330
1C8
100
AcDbEntity
  8
0
100
AcDbBlockEnd
  0
BLOCK
  5
212
330
211
100
AcDbEntity
  8
0
100
AcDbBlockBegin
  2
HOLE1
 70
     0
 10
1022.209624597918
 20
322.1762457836847
 30
0.0
  3
HOLE1
  1

  0
CIRCLE
  5
214
330
211
100
AcDbEntity
  8
1
  6
Continuous
 62
     7
100
AcDbCircle
 10
1022.209624597918
 20
322.1762457836847
 30
0.0
 40
3.0
  0
LINE
  5
215
330
211
100
AcDbEntity
  8
1
  6
CENTER2
 62
     7
100
AcDbLine
 10
1018.909624597918
 20
322.1762457836847
 30
0.0
 11
1025.509624597918
 21
322.1762457836847
 31
0.0
  0
LINE
  5
216
330
211
100
AcDbEntity
  8
1
  6
CENTER2
 62
     7
100
AcDbLine
 10
1022.209624597918
 20
318.8762457836848
 30
0.0
 11
1022.209624597918
 21
325.4762457836848
 31
0.0
  0
ENDBLK
  5
213
330
211
100
AcDbEntity
  8
0
100
AcDbBlockEnd
  0
BLOCK
  5
23C
330
23B
100
AcDbEntity
  8
0
100
AcDbBlockBegin
  2
_D12
 70
     0
 10
0.0
 20
0.0
 30
0.0
  3
_D12
  1

  0
LINE
  5
23E
330
23B
100
AcDbEntity
  8
1
  6
ByBlock
 62
     3
100
AcDbLine
 10
852.2096245979177
 20
178.6762457836847
 30
0.0
 11
852.2096245979178
 21
148.1681134935426
 31
0.0
  0
LINE
  5
23F
330
23B
100
AcDbEntity
  8
1
  6
ByBlock
 62
     3
100
AcDbLine
 10
852.2096245979178
 20
150.1681134935426
 30
0.0
 11
1037.209624597918
 21
150.1681134935426
 31
0.0
  0
LINE
  5
240
330
23B
100
AcDbEntity
  8
1
  6
ByBlock
 62
     3
100
AcDbLine
 10
1037.209624597918
 20
178.6762457836848
 30
0.0
 11
1037.209624597918
 21
148.1681134935426
 31
0.0
  0
INSERT
  5
241
330
23B
100
AcDbEntity
  8
1
  6
ByBlock
 62
     3
100
AcDbBlockReference
  2
_OPEN30
 10
852.2096245979178
 20
150.1681134935426
 30
0.0
 41
3.939231012048822
 42
3.939231012048822
 43
3.939231012048822
 50
180.0
  0
INSERT
  5
242
330
23B
100
AcDbEntity
  8
1
  6
ByBlock
 62
     3
100
AcDbBlockReference
  2
_OPEN30
 10
1037.209624597918
 20
150.1681134935426
 30
0.0
 41
3.939231012048822
 42
3.939231012048822
 43
3.939231012048822
  0
MTEXT
  5
243
330
23B
100
AcDbEntity
  8
1
  6
Continuous
 62
     2
100
AcDbMText
 10
934.5096245979178
 20
152.1681134935426
 30
0.0
 40
8.0
 41
0.0
 71
     7
 72
     5
  1
１８５
  7
MTSTANDARD2
 73
     1
 44
0.8125
  0
POINT
  5
244
330
23B
100
AcDbEntity
  8
DEFPOINTS
  6
ByBlock
 62
     3
100
AcDbPoint
 10
852.2096245979178
 20
180.6762457836847
 30
0.0
  0
POINT
  5
245
330
23B
100
AcDbEntity
  8
DEFPOINTS
  6
ByBlock
 62
     3
100
AcDbPoint
 10
1037.209624597918
 20
180.6762457836848
 30
0.0
  0
POINT
  5
246
330
23B
100
AcDbEntity
  8
DEFPOINTS
  6
ByBlock
 62
     3
100
AcDbPoint
 10
1037.209624597918
 20
150.1681134935426
 30
0.0
  0
ENDBLK
  5
23D
330
23B
100
AcDbEntity
  8
0
100
AcDbBlockEnd
  0
BLOCK
  5
249
330
248
100
AcDbEntity
  8
0
100
AcDbBlockBegin
  2
_D13
 70
     0
 10
0.0
 20
0.0
 30
0.0
  3
_D13
  1

  0
LINE
  5
24B
330
248
100
AcDbEntity
  8
1
  6
ByBlock
 62
     3
100
AcDbLine
 10
852.2096245979177
 20
270.661577511
 30
0.0
 11
852.2096245979177
 21
281.8971198672003
 31
0.0
  0
LINE
  5
24C
330
248
100
AcDbEntity
  8
1
  6
ByBlock
 62
     3
100
AcDbLine
 10
852.2096245979177
 20
279.8971198672003
 30
0.0
 11
853.7096245979176
 21
279.8971198672003
 31
0.0
  0
LINE
  5
24D
330
248
100
AcDbEntity
  8
1
  6
ByBlock
 62
     3
100
AcDbLine
 10
852.2096245979177
 20
279.8971198672003
 30
0.0
 11
846.2096245979172
 21
279.8971198672002
 31
0.0
  0
LINE
  5
24E
330
248
100
AcDbEntity
  8
1
  6
ByBlock
 62
     3
100
AcDbLine
 10
853.7096245979176
 20
279.8971198672003
 30
0.0
 11
859.7096245979176
 21
279.8971198672002
 31
0.0
  0
LINE
  5
24F
330
248
100
AcDbEntity
  8
1
  6
ByBlock
 62
     3
100
AcDbLine
 10
852.2096245979177
 20
279.8971198672003
 30
0.0
 11
852.9596245979176
 21
279.8971198672003
 31
0.0
  0
LINE
  5
250
330
248
100
AcDbEntity
  8
1
  6
ByBlock
 62
     3
100
AcDbLine
 10
853.7096245979176
 20
279.8971198672003
 30
0.0
 11
852.9596245979176
 21
279.8971198672003
 31
0.0
  0
LINE
  5
251
330
248
100
AcDbEntity
  8
1
  6
ByBlock
 62
     3
100
AcDbLine
 10
853.7096245979176
 20
270.661577511
 30
0.0
 11
853.7096245979176
 21
281.8971198672003
 31
0.0
  0
LINE
  5
252
330
248
100
AcDbEntity
  8
1
  6
ByBlock
 62
     3
100
AcDbLine
 10
852.9596245979176
 20
279.8971198672003
 30
0.0
 11
843.2027653041416
 21
289.6539791609764
 31
0.0
  0
LINE
  5
253
330
248
100
AcDbEntity
  8
1
  6
ByBlock
 62
     3
100
AcDbLine
 10
843.2027653041416
 20
289.6539791609764
 30
0.0
 11
827.0027653041416
 21
289.6539791609764
 31
0.0
  0
INSERT
  5
254
330
248
100
AcDbEntity
  8
1
  6
ByBlock
 62
     3
100
AcDbBlockReference
  2
_OPEN30
 10
852.2096245979177
 20
279.8971198672003
 30
0.0
 41
3.939231012048822
 42
3.939231012048822
 43
3.939231012048822
  0
INSERT
  5
255
330
248
100
AcDbEntity
  8
1
  6
ByBlock
 62
     3
100
AcDbBlockReference
  2
_OPEN30
 10
853.7096245979176
 20
279.8971198672003
 30
0.0
 41
3.939231012048822
 42
3.939231012048822
 43
3.939231012048822
 50
180.0
  0
MTEXT
  5
256
330
248
100
AcDbEntity
  8
1
  6
Continuous
 62
     2
100
AcDbMText
 10
827.0027653041416
 20
291.6539791609764
 30
0.0
 40
8.0
 41
0.0
 71
     7
 72
     5
  1
１．５
  7
MTSTANDARD2
 73
     1
 44
0.8125
  0
POINT
  5
257
330
248
100
AcDbEntity
  8
DEFPOINTS
  6
ByBlock
 62
     3
100
AcDbPoint
 10
852.2096245979177
 20
268.661577511
 30
0.0
  0
POINT
  5
258
330
248
100
AcDbEntity
  8
DEFPOINTS
  6
ByBlock
 62
     3
100
AcDbPoint
 10
853.7096245979176
 20
268.661577511
 30
0.0
  0
POINT
  5
259
330
248
100
AcDbEntity
  8
DEFPOINTS
  6
ByBlock
 62
     3
100
AcDbPoint
 10
853.7096245979176
 20
279.8971198672003
 30
0.0
  0
ENDBLK
  5
24A
330
248
100
AcDbEntity
  8
0
100
AcDbBlockEnd
  0
BLOCK
  5
25C
330
25B
100
AcDbEntity
  8
0
100
AcDbBlockBegin
  2
_D14
 70
     0
 10
0.0
 20
0.0
 30
0.0
  3
_D14
  1

  0
LINE
  5
25E
330
25B
100
AcDbEntity
  8
1
  6
ByBlock
 62
     3
100
AcDbLine
 10
848.7096245979177
 20
180.6762457836848
 30
0.0
 11
809.8102223177721
 21
180.6762457836847
 31
0.0
  0
LINE
  5
25F
330
25B
100
AcDbEntity
  8
1
  6
ByBlock
 62
     3
100
AcDbLine
 10
811.8102223177721
 20
180.6762457836847
 30
0.0
 11
811.8102223177721
 21
330.6762457836836
 31
0.0
  0
LINE
  5
260
330
25B
100
AcDbEntity
  8
1
  6
ByBlock
 62
     3
100
AcDbLine
 10
841.813582099604
 20
330.6762457836836
 30
0.0
 11
809.8102223177722
 21
330.6762457836836
 31
0.0
  0
INSERT
  5
261
330
25B
100
AcDbEntity
  8
1
  6
ByBlock
 62
     3
100
AcDbBlockReference
  2
_OPEN30
 10
811.8102223177721
 20
180.6762457836847
 30
0.0
 41
3.939231012048822
 42
3.939231012048822
 43
3.939231012048822
 50
270.0
  0
INSERT
  5
262
330
25B
100
AcDbEntity
  8
1
  6
ByBlock
 62
     3
100
AcDbBlockReference
  2
_OPEN30
 10
811.8102223177721
 20
330.6762457836836
 30
0.0
 41
3.939231012048822
 42
3.939231012048822
 43
3.939231012048822
 50
90.0
  0
MTEXT
  5
263
330
25B
100
AcDbEntity
  8
1
  6
Continuous
 62
     2
100
AcDbMText
 10
809.8102223177721
 20
245.4762457836842
 30
0.0
 40
8.0
 41
0.0
 71
     7
 72
     5
  1
１５０
  7
MTSTANDARD2
 11
0.0
 21
1.0
 31
0.0
 73
     1
 44
0.8125
  0
POINT
  5
264
330
25B
100
AcDbEntity
  8
DEFPOINTS
  6
ByBlock
 62
     3
100
AcDbPoint
 10
850.7096245979177
 20
180.6762457836847
 30
0.0
  0
POINT
  5
265
330
25B
100
AcDbEntity
  8
DEFPOINTS
  6
ByBlock
 62
     3
100
AcDbPoint
 10
843.813582099604
 20
330.6762457836836
 30
0.0
  0
POINT
  5
266
330
25B
100
AcDbEntity
  8
DEFPOINTS
  6
ByBlock
 62
     3
100
AcDbPoint
 10
811.8102223177721
 20
330.6762457836836
 30
0.0
  0
ENDBLK
  5
25D
330
25B
100
AcDbEntity
  8
0
100
AcDbBlockEnd
  0
BLOCK
  5
269
330
268
100
AcDbEntity
  8
0
100
AcDbBlockBegin
  2
_D15
 70
     0
 10
0.0
 20
0.0
 30
0.0
  3
_D15
  1

  0
LINE
  5
26B
330
268
100
AcDbEntity
  8
1
  6
ByBlock
 62
     3
100
AcDbLine
 10
855.7096245979178
 20
332.6762457836836
 30
0.0
 11
855.7096245979178
 21
365.3504874829652
 31
0.0
  0
LINE
  5
26C
330
268
100
AcDbEntity
  8
1
  6
ByBlock
 62
     3
100
AcDbLine
 10
855.7096245979178
 20
363.3504874829653
 30
0.0
 11
962.1096245979178
 21
363.3504874829653
 31
0.0
  0
INSERT
  5
26D
330
268
100
AcDbEntity
  8
1
  6
ByBlock
 62
     3
100
AcDbBlockReference
  2
_OPEN30
 10
855.7096245979178
 20
363.3504874829653
 30
0.0
 41
3.939231012048822
 42
3.939231012048822
 43
3.939231012048822
 50
180.0
  0
MTEXT
  5
26E
330
268
100
AcDbEntity
  8
1
  6
Continuous
 62
     2
100
AcDbMText
 10
934.5096245979178
 20
365.3504874829653
 30
0.0
 40
8.0
 41
0.0
 71
     7
 72
     5
  1
１７８
  7
MTSTANDARD2
 73
     1
 44
0.8125
  0
POINT
  5
26F
330
268
100
AcDbEntity
  8
DEFPOINTS
  6
ByBlock
 62
     3
100
AcDbPoint
 10
855.7096245979178
 20
363.3504874829653
 30
0.0
  0
POINT
  5
270
330
268
100
AcDbEntity
  8
DEFPOINTS
  6
ByBlock
 62
     3
100
AcDbPoint
 10
855.7096245979178
 20
330.6762457836836
 30
0.0
  0
POINT
  5
271
330
268
100
AcDbEntity
  8
DEFPOINTS
  6
ByBlock
 62
     3
100
AcDbPoint
 10
1033.709624597918
 20
330.6762457836836
 30
0.0
  0
ENDBLK
  5
26A
330
268
100
AcDbEntity
  8
0
100
AcDbBlockEnd
  0
BLOCK
  5
274
330
273
100
AcDbEntity
  8
0
100
AcDbBlockBegin
  2
_D16
 70
     0
 10
0.0
 20
0.0
 30
0.0
  3
_D16
  1

  0
LINE
  5
276
330
273
100
AcDbEntity
  8
1
  6
ByBlock
 62
     3
100
AcDbLine
 10
844.7096245979179
 20
332.6762457836846
 30
0.0
 11
844.7096245979177
 21
379.3504874829653
 31
0.0
  0
LINE
  5
277
330
273
100
AcDbEntity
  8
1
  6
ByBlock
 62
     3
100
AcDbLine
 10
844.7096245979178
 20
377.3504874829653
 30
0.0
 11
1044.709624597918
 21
377.3504874829653
 31
0.0
  0
LINE
  5
278
330
273
100
AcDbEntity
  8
1
  6
ByBlock
 62
     3
100
AcDbLine
 10
1044.709624597918
 20
332.6762457836846
 30
0.0
 11
1044.709624597918
 21
379.3504874829653
 31
0.0
  0
INSERT
  5
279
330
273
100
AcDbEntity
  8
1
  6
ByBlock
 62
     3
100
AcDbBlockReference
  2
_OPEN30
 10
844.7096245979178
 20
377.3504874829653
 30
0.0
 41
3.939231012048822
 42
3.939231012048822
 43
3.939231012048822
 50
180.0
  0
INSERT
  5
27A
330
273
100
AcDbEntity
  8
1
  6
ByBlock
 62
     3
100
AcDbBlockReference
  2
_OPEN30
 10
1044.709624597918
 20
377.3504874829653
 30
0.0
 41
3.939231012048822
 42
3.939231012048822
 43
3.939231012048822
  0
MTEXT
  5
27B
330
273
100
AcDbEntity
  8
1
  6
Continuous
 62
     2
100
AcDbMText
 10
934.5096245979178
 20
379.3504874829653
 30
0.0
 40
8.0
 41
0.0
 71
     7
 72
     5
  1
２００
  7
MTSTANDARD2
 73
     1
 44
0.8125
  0
POINT
  5
27C
330
273
100
AcDbEntity
  8
DEFPOINTS
  6
ByBlock
 62
     3
100
AcDbPoint
 10
844.7096245979178
 20
330.6762457836846
 30
0.0
  0
POINT
  5
27D
330
273
100
AcDbEntity
  8
DEFPOINTS
  6
ByBlock
 62
     3
100
AcDbPoint
 10
1044.709624597918
 20
330.6762457836846
 30
0.0
  0
POINT
  5
27E
330
273
100
AcDbEntity
  8
DEFPOINTS
  6
ByBlock
 62
     3
100
AcDbPoint
 10
1044.709624597918
 20
377.3504874829653
 30
0.0
  0
ENDBLK
  5
275
330
273
100
AcDbEntity
  8
0
100
AcDbBlockEnd
  0
BLOCK
  5
281
330
280
100
AcDbEntity
  8
0
100
AcDbBlockBegin
  2
_D17
 70
     0
 10
0.0
 20
0.0
 30
0.0
  3
_D17
  1

  0
LINE
  5
283
330
280
100
AcDbEntity
  8
1
  6
ByBlock
 62
     3
100
AcDbLine
 10
853.7096245979178
 20
594.8720420794275
 30
0.0
 11
821.7096245979178
 21
594.8720420794275
 31
0.0
  0
LINE
  5
284
330
280
100
AcDbEntity
  8
1
  6
ByBlock
 62
     3
100
AcDbLine
 10
823.7096245979178
 20
594.8720420794275
 30
0.0
 11
823.7096245979178
 21
463.8720420794276
 31
0.0
  0
LINE
  5
285
330
280
100
AcDbEntity
  8
1
  6
ByBlock
 62
     3
100
AcDbLine
 10
853.7096245979178
 20
463.8720420794276
 30
0.0
 11
821.7096245979178
 21
463.8720420794276
 31
0.0
  0
INSERT
  5
286
330
280
100
AcDbEntity
  8
1
  6
ByBlock
 62
     3
100
AcDbBlockReference
  2
_OPEN30
 10
823.7096245979178
 20
594.8720420794275
 30
0.0
 41
3.939231012048822
 42
3.939231012048822
 43
3.939231012048822
 50
90.0
  0
INSERT
  5
287
330
280
100
AcDbEntity
  8
1
  6
ByBlock
 62
     3
100
AcDbBlockReference
  2
_OPEN30
 10
823.7096245979178
 20
463.8720420794276
 30
0.0
 41
3.939231012048822
 42
3.939231012048822
 43
3.939231012048822
 50
270.0
  0
MTEXT
  5
288
330
280
100
AcDbEntity
  8
1
  6
Continuous
 62
     2
100
AcDbMText
 10
821.7096245979178
 20
519.1720420794275
 30
0.0
 40
8.0
 41
0.0
 71
     7
 72
     5
  1
１３０
  7
MTSTANDARD2
 11
0.0
 21
1.0
 31
0.0
 73
     1
 44
0.8125
  0
POINT
  5
289
330
280
100
AcDbEntity
  8
DEFPOINTS
  6
ByBlock
 62
     3
100
AcDbPoint
 10
855.7096245979178
 20
594.8720420794275
 30
0.0
  0
POINT
  5
28A
330
280
100
AcDbEntity
  8
DEFPOINTS
  6
ByBlock
 62
     3
100
AcDbPoint
 10
855.7096245979178
 20
463.8720420794276
 30
0.0
  0
POINT
  5
28B
330
280
100
AcDbEntity
  8
DEFPOINTS
  6
ByBlock
 62
     3
100
AcDbPoint
 10
823.7096245979178
 20
463.8720420794276
 30
0.0
  0
ENDBLK
  5
282
330
280
100
AcDbEntity
  8
0
100
AcDbBlockEnd
  0
BLOCK
  5
28E
330
28D
100
AcDbEntity
  8
0
100
AcDbBlockBegin
  2
_D18
 70
     0
 10
0.0
 20
0.0
 30
0.0
  3
_D18
  1

  0
LINE
  5
290
330
28D
100
AcDbEntity
  8
1
  6
ByBlock
 62
     3
100
AcDbLine
 10
842.7096245979178
 20
604.3720420794275
 30
0.0
 11
807.7096245979178
 21
604.3720420794276
 31
0.0
  0
LINE
  5
291
330
28D
100
AcDbEntity
  8
1
  6
ByBlock
 62
     3
100
AcDbLine
 10
809.7096245979178
 20
604.3720420794275
 30
0.0
 11
809.7096245979178
 21
454.3720420794275
 31
0.0
  0
LINE
  5
292
330
28D
100
AcDbEntity
  8
1
  6
ByBlock
 62
     3
100
AcDbLine
 10
842.7096245979178
 20
454.3720420794274
 30
0.0
 11
807.7096245979178
 21
454.3720420794276
 31
0.0
  0
INSERT
  5
293
330
28D
100
AcDbEntity
  8
1
  6
ByBlock
 62
     3
100
AcDbBlockReference
  2
_OPEN30
 10
809.7096245979178
 20
604.3720420794275
 30
0.0
 41
3.939231012048822
 42
3.939231012048822
 43
3.939231012048822
 50
90.0
  0
INSERT
  5
294
330
28D
100
AcDbEntity
  8
1
  6
ByBlock
 62
     3
100
AcDbBlockReference
  2
_OPEN30
 10
809.7096245979178
 20
454.3720420794275
 30
0.0
 41
3.939231012048822
 42
3.939231012048822
 43
3.939231012048822
 50
270.0
  0
MTEXT
  5
295
330
28D
100
AcDbEntity
  8
1
  6
Continuous
 62
     2
100
AcDbMText
 10
807.7096245979178
 20
519.1720420794275
 30
0.0
 40
8.0
 41
0.0
 71
     7
 72
     5
  1
１５０
  7
MTSTANDARD2
 11
0.0
 21
1.0
 31
0.0
 73
     1
 44
0.8125
  0
POINT
  5
296
330
28D
100
AcDbEntity
  8
DEFPOINTS
  6
ByBlock
 62
     3
100
AcDbPoint
 10
844.7096245979178
 20
604.3720420794275
 30
0.0
  0
POINT
  5
297
330
28D
100
AcDbEntity
  8
DEFPOINTS
  6
ByBlock
 62
     3
100
AcDbPoint
 10
844.7096245979178
 20
454.3720420794275
 30
0.0
  0
POINT
  5
298
330
28D
100
AcDbEntity
  8
DEFPOINTS
  6
ByBlock
 62
     3
100
AcDbPoint
 10
809.7096245979178
 20
454.3720420794275
 30
0.0
  0
ENDBLK
  5
28F
330
28D
100
AcDbEntity
  8
0
100
AcDbBlockEnd
  0
BLOCK
  5
29B
330
29A
100
AcDbEntity
  8
0
100
AcDbBlockBegin
  2
_D19
 70
     0
 10
0.0
 20
0.0
 30
0.0
  3
_D19
  1

  0
LINE
  5
29D
330
29A
100
AcDbEntity
  8
1
  6
ByBlock
 62
     3
100
AcDbLine
 10
855.7103686227526
 20
541.1339463392169
 30
0.0
 11
855.7155760198667
 21
555.131857456094
 31
0.0
  0
LINE
  5
29E
330
29A
100
AcDbEntity
  8
1
  6
ByBlock
 62
     3
100
AcDbLine
 10
855.7148319950318
 20
553.1318575944873
 30
0.0
 11
887.7148319950318
 21
553.1199531963058
 31
0.0
  0
LINE
  5
29F
330
29A
100
AcDbEntity
  8
1
  6
ByBlock
 62
     3
100
AcDbLine
 10
887.7103686227526
 20
541.1220419410353
 30
0.0
 11
887.7155760198666
 21
555.1199530579125
 31
0.0
  0
INSERT
  5
2A0
330
29A
100
AcDbEntity
  8
1
  6
ByBlock
 62
     3
100
AcDbBlockReference
  2
_OPEN30
 10
855.7148319950318
 20
553.1318575944873
 30
0.0
 41
3.939231012048827
 42
3.939231012048827
 43
3.939231012048827
 50
179.978685258064
  0
INSERT
  5
2A1
330
29A
100
AcDbEntity
  8
1
  6
ByBlock
 62
     3
100
AcDbBlockReference
  2
_OPEN30
 10
887.7148319950318
 20
553.1199531963058
 30
0.0
 41
3.939231012048827
 42
3.939231012048827
 43
3.939231012048827
 50
359.978685258064
  0
MTEXT
  5
2A2
330
29A
100
AcDbEntity
  8
1
  6
Continuous
 62
     2
100
AcDbMText
 10
865.1155764765643
 20
555.1283605389583
 30
0.0
 40
8.0
 41
0.0
 71
     7
 72
     5
  1
３２
  7
MTSTANDARD2
 11
0.9999999308033781
 21
-0.000372012417430305
 31
0.0
 73
     1
 44
0.8125
  0
POINT
  5
2A3
330
29A
100
AcDbEntity
  8
DEFPOINTS
  6
ByBlock
 62
     3
100
AcDbPoint
 10
855.7096245979178
 20
539.13394647761
 30
0.0
  0
POINT
  5
2A4
330
29A
100
AcDbEntity
  8
DEFPOINTS
  6
ByBlock
 62
     3
100
AcDbPoint
 10
887.7096245979178
 20
539.1220420794285
 30
0.0
  0
POINT
  5
2A5
330
29A
100
AcDbEntity
  8
DEFPOINTS
  6
ByBlock
 62
     3
100
AcDbPoint
 10
887.7148319950318
 20
553.1199531963058
 30
0.0
  0
ENDBLK
  5
29C
330
29A
100
AcDbEntity
  8
0
100
AcDbBlockEnd
  0
BLOCK
  5
2A8
330
2A7
100
AcDbEntity
  8
0
100
AcDbBlockBegin
  2
BALN2
 70
     0
 10
0.0
 20
0.0
 30
0.0
  3
BALN2
  1

  0
CIRCLE
  5
2AA
330
2A7
100
AcDbEntity
  8
1
  6
ByBlock
 62
     3
100
AcDbCircle
 10
-90.42569339400802
 20
51.04527355798939
 30
0.0
 40
10.0
  0
MTEXT
  5
2AB
330
2A7
100
AcDbEntity
  8
1
  6
Continuous
 62
     2
100
AcDbMText
 10
-93.42569339400802
 20
45.04527355798939
 30
0.0
 40
12.0
 41
0.0
 71
     7
 72
     5
  1
{\fＭＳ ゴシック|b0|i0|c128|p49;\W1.0;1}
  7
MTSTANDARD3
 73
     1
 44
0.75
  0
LEADER
  5
2AD
330
2A7
100
AcDbEntity
  8
1
  6
ByBlock
 62
     3
100
AcDbLeader
  3
DIMSTYEX_9
 76
     2
 10
0.0
 20
0.0
 30
0.0
 10
-81.71738892359858
 20
46.1294386084974
 30
0.0
1001
ACAD
1000
DSTYLE
1002
{
1070
   176
1070
     0
1002
}
  0
ENDBLK
  5
2A9
330
2A7
100
AcDbEntity
  8
0
100
AcDbBlockEnd
  0
BLOCK
  5
2B0
330
2AF
100
AcDbEntity
  8
0
100
AcDbBlockBegin
  2
BALN3
 70
     0
 10
0.0
 20
0.0
 30
0.0
  3
BALN3
  1

  0
CIRCLE
  5
2B2
330
2AF
100
AcDbEntity
  8
1
  6
ByBlock
 62
     3
100
AcDbCircle
 10
-72.92031799192569
 20
12.23740695239508
 30
0.0
 40
10.0
  0
MTEXT
  5
2B3
330
2AF
100
AcDbEntity
  8
1
  6
Continuous
 62
     2
100
AcDbMText
 10
-75.92031799192569
 20
6.237406952395077
 30
0.0
 40
12.0
 41
0.0
 71
     7
 72
     5
  1
{\fＭＳ ゴシック|b0|i0|c128|p49;\W1.0;2}
  7
MTSTANDARD3
 73
     1
 44
0.75
  0
LEADER
  5
2B5
330
2AF
100
AcDbEntity
  8
1
  6
ByBlock
 62
     3
100
AcDbLeader
  3
DIMSTYEX_10
 76
     2
 10
0.0
 20
0.0
 30
0.0
 10
-63.05822765500428
 20
10.58236188158842
 30
0.0
1001
ACAD
1000
DSTYLE
1002
{
1070
   176
1070
     0
1002
}
  0
ENDBLK
  5
2B1
330
2AF
100
AcDbEntity
  8
0
100
AcDbBlockEnd
  0
BLOCK
  5
2BB
330
2BA
100
AcDbEntity
  8
0
100
AcDbBlockBegin
  2
_D20
 70
     0
 10
0.0
 20
0.0
 30
0.0
  3
_D20
  1

  0
LINE
  5
2BD
330
2BA
100
AcDbEntity
  8
1
  6
ByBlock
 62
     3
100
AcDbLine
 10
878.4596245979177
 20
327.6762457836835
 30
0.0
 11
930.6407658260304
 21
327.6762457836836
 31
0.0
  0
LINE
  5
2BE
330
2BA
100
AcDbEntity
  8
1
  6
ByBlock
 62
     3
100
AcDbLine
 10
928.6407658260305
 20
327.6762457836835
 30
0.0
 11
928.6407658260305
 21
330.6762457836836
 31
0.0
  0
LINE
  5
2BF
330
2BA
100
AcDbEntity
  8
1
  6
ByBlock
 62
     3
100
AcDbLine
 10
928.6407658260305
 20
327.6762457836835
 30
0.0
 11
928.6407658260305
 21
321.6762457836835
 31
0.0
  0
LINE
  5
2C0
330
2BA
100
AcDbEntity
  8
1
  6
ByBlock
 62
     3
100
AcDbLine
 10
928.6407658260305
 20
330.6762457836836
 30
0.0
 11
928.6407658260305
 21
336.6762457836836
 31
0.0
  0
LINE
  5
2C1
330
2BA
100
AcDbEntity
  8
1
  6
ByBlock
 62
     3
100
AcDbLine
 10
928.6407658260305
 20
327.6762457836835
 30
0.0
 11
928.6407658260305
 21
329.1762457836836
 31
0.0
  0
LINE
  5
2C2
330
2BA
100
AcDbEntity
  8
1
  6
ByBlock
 62
     3
100
AcDbLine
 10
928.6407658260305
 20
330.6762457836836
 30
0.0
 11
928.6407658260305
 21
329.1762457836836
 31
0.0
  0
LINE
  5
2C3
330
2BA
100
AcDbEntity
  8
1
  6
ByBlock
 62
     3
100
AcDbLine
 10
878.4596245979177
 20
330.6762457836836
 30
0.0
 11
930.6407658260304
 21
330.6762457836837
 31
0.0
  0
LINE
  5
2C4
330
2BA
100
AcDbEntity
  8
1
  6
ByBlock
 62
     3
100
AcDbLine
 10
928.6407658260305
 20
329.1762457836836
 30
0.0
 11
935.4917080045077
 21
345.5312055614675
 31
0.0
  0
LINE
  5
2C5
330
2BA
100
AcDbEntity
  8
1
  6
ByBlock
 62
     3
100
AcDbLine
 10
935.4917080045077
 20
345.5312055614675
 30
0.0
 11
941.4917080045077
 21
345.5312055614675
 31
0.0
  0
INSERT
  5
2C6
330
2BA
100
AcDbEntity
  8
1
  6
ByBlock
 62
     3
100
AcDbBlockReference
  2
_OPEN30
 10
928.6407658260305
 20
327.6762457836835
 30
0.0
 41
3.939231012048822
 42
3.939231012048822
 43
3.939231012048822
 50
90.0
  0
INSERT
  5
2C7
330
2BA
100
AcDbEntity
  8
1
  6
ByBlock
 62
     3
100
AcDbBlockReference
  2
_OPEN30
 10
928.6407658260305
 20
330.6762457836836
 30
0.0
 41
3.939231012048822
 42
3.939231012048822
 43
3.939231012048822
 50
270.0
  0
MTEXT
  5
2C8
330
2BA
100
AcDbEntity
  8
1
  6
Continuous
 62
     2
100
AcDbMText
 10
935.4917080045077
 20
347.5312055614675
 30
0.0
 40
8.0
 41
0.0
 71
     7
 72
     5
  1
３
  7
MTSTANDARD2
 73
     1
 44
0.8125
  0
POINT
  5
2C9
330
2BA
100
AcDbEntity
  8
DEFPOINTS
  6
ByBlock
 62
     3
100
AcDbPoint
 10
876.4596245979178
 20
327.6762457836835
 30
0.0
  0
POINT
  5
2CA
330
2BA
100
AcDbEntity
  8
DEFPOINTS
  6
ByBlock
 62
     3
100
AcDbPoint
 10
876.4596245979178
 20
330.6762457836836
 30
0.0
  0
POINT
  5
2CB
330
2BA
100
AcDbEntity
  8
DEFPOINTS
  6
ByBlock
 62
     3
100
AcDbPoint
 10
928.6407658260305
 20
330.6762457836836
 30
0.0
  0
ENDBLK
  5
2BC
330
2BA
100
AcDbEntity
  8
0
100
AcDbBlockEnd
  0
BLOCK
  5
2CF
330
2CE
100
AcDbEntity
  8
0
100
AcDbBlockBegin
  2
_D21
 70
     0
 10
0.0
 20
0.0
 30
0.0
  3
_D21
  1

  0
LINE
  5
2D1
330
2CE
100
AcDbEntity
  8
1
  6
ByBlock
 62
     3
100
AcDbLine
 10
864.7722379030571
 20
448.3720420794275
 30
0.0
 11
793.7096245979178
 21
448.3720420794275
 31
0.0
  0
LINE
  5
2D2
330
2CE
100
AcDbEntity
  8
1
  6
ByBlock
 62
     3
100
AcDbLine
 10
795.7096245979178
 20
448.3720420794275
 30
0.0
 11
795.7096245979178
 21
610.3720420794275
 31
0.0
  0
LINE
  5
2D3
330
2CE
100
AcDbEntity
  8
1
  6
ByBlock
 62
     3
100
AcDbLine
 10
865.1255557265781
 20
610.3720420794275
 30
0.0
 11
793.7096245979178
 21
610.3720420794275
 31
0.0
  0
INSERT
  5
2D4
330
2CE
100
AcDbEntity
  8
1
  6
ByBlock
 62
     3
100
AcDbBlockReference
  2
_OPEN30
 10
795.7096245979178
 20
448.3720420794275
 30
0.0
 41
3.939231012048822
 42
3.939231012048822
 43
3.939231012048822
 50
270.0
  0
INSERT
  5
2D5
330
2CE
100
AcDbEntity
  8
1
  6
ByBlock
 62
     3
100
AcDbBlockReference
  2
_OPEN30
 10
795.7096245979178
 20
610.3720420794275
 30
0.0
 41
3.939231012048822
 42
3.939231012048822
 43
3.939231012048822
 50
90.0
  0
MTEXT
  5
2D6
330
2CE
100
AcDbEntity
  8
1
  6
Continuous
 62
     2
100
AcDbMText
 10
793.7096245979178
 20
519.1720420794275
 30
0.0
 40
8.0
 41
0.0
 71
     7
 72
     5
  1
１６２
  7
MTSTANDARD2
 11
0.0
 21
1.0
 31
0.0
 73
     1
 44
0.8125
  0
POINT
  5
2D7
330
2CE
100
AcDbEntity
  8
DEFPOINTS
  6
ByBlock
 62
     3
100
AcDbPoint
 10
866.7722379030571
 20
448.3720420794275
 30
0.0
  0
POINT
  5
2D8
330
2CE
100
AcDbEntity
  8
DEFPOINTS
  6
ByBlock
 62
     3
100
AcDbPoint
 10
867.1255557265781
 20
610.3720420794275
 30
0.0
  0
POINT
  5
2D9
330
2CE
100
AcDbEntity
  8
DEFPOINTS
  6
ByBlock
 62
     3
100
AcDbPoint
 10
795.7096245979178
 20
610.3720420794275
 30
0.0
  0
ENDBLK
  5
2D0
330
2CE
100
AcDbEntity
  8
0
100
AcDbBlockEnd
  0
BLOCK
  5
2FF
330
2FE
100
AcDbEntity
  8
0
100
AcDbBlockBegin
  2
BALN4
 70
     0
 10
0.0
 20
0.0
 30
0.0
  3
BALN4
  1

  0
CIRCLE
  5
301
330
2FE
100
AcDbEntity
  8
1
  6
ByBlock
 62
     3
100
AcDbCircle
 10
-76.45967527703374
 20
76.32607572111635
 30
0.0
 40
10.0
  0
MTEXT
  5
302
330
2FE
100
AcDbEntity
  8
1
  6
Continuous
 62
     2
100
AcDbMText
 10
-79.45967527703374
 20
70.32607572111635
 30
0.0
 40
12.0
 41
0.0
 71
     7
 72
     5
  1
{\fＭＳ ゴシック|b0|i0|c128|p49;\W1.0;3}
  7
MTSTANDARD3
 73
     1
 44
0.75
  0
LEADER
  5
304
330
2FE
100
AcDbEntity
  8
1
  6
ByBlock
 62
     3
100
AcDbLeader
  3
DIMSTYEX_12
 76
     2
 10
0.0
 20
0.0
 30
0.0
 10
-69.38242705814814
 20
69.2611937229312
 30
0.0
1001
ACAD
1000
DSTYLE
1002
{
1070
   176
1070
     0
1002
}
  0
ENDBLK
  5
300
330
2FE
100
AcDbEntity
  8
0
100
AcDbBlockEnd
  0
ENDSEC
  0
SECTION
  2
ENTITIES
  0
LINE
  5
B1
330
1F
100
AcDbEntity
  8
1
  6
Continuous
 62
     7
100
AcDbLine
 10
26.00231889422965
 20
707.4180984005017
 30
0.0
 11
560.0023188942298
 21
707.4180984005017
 31
0.0
  0
LINE
  5
B2
330
1F
100
AcDbEntity
  8
1
  6
Continuous
 62
     7
100
AcDbLine
 10
560.0023188942298
 20
707.4180984005017
 30
0.0
 11
560.0023188942298
 21
-32.58190159949791
 31
0.0
  0
LINE
  5
B3
330
1F
100
AcDbEntity
  8
1
  6
Continuous
 62
     7
100
AcDbLine
 10
26.00231889422965
 20
-32.58190159949791
 30
0.0
 11
26.00231889422965
 21
707.4180984005017
 31
0.0
  0
LINE
  5
B4
330
1F
100
AcDbEntity
  8
1
  6
Continuous
 62
     7
100
AcDbLine
 10
26.00231889422965
 20
-32.58190159949791
 30
0.0
 11
560.0023188942298
 21
-32.58190159949791
 31
0.0
  0
MTEXT
  5
B6
330
1F
100
AcDbEntity
  8
1
  6
Continuous
 62
     7
100
AcDbMText
 10
337.8327242730481
 20
71.68983250166465
 30
0.0
 40
10.0
 41
0.0
 71
     7
 72
     5
  1
{\fＭＳ 明朝|b0|i0|c128|p17;\W1.0;・呼び径１３～２０に適用}
  7
MTSTANDARD
 73
     1
 44
0.875
  0
LINE
  5
B7
330
1F
100
AcDbEntity
  8
1
  6
Continuous
 62
     7
100
AcDbLine
 10
310.7096245979177
 20
311.6762457836853
 30
0.0
 11
210.7096245979177
 21
311.6762457836853
 31
0.0
  0
LINE
  5
B8
330
1F
100
AcDbEntity
  8
1
  6
Continuous
 62
     7
100
AcDbLine
 10
210.7096245979177
 20
311.6762457836853
 30
0.0
 11
210.7096245979177
 21
330.6762457836852
 31
0.0
  0
LINE
  5
B9
330
1F
100
AcDbEntity
  8
1
  6
Continuous
 62
     7
100
AcDbLine
 10
219.7096245979177
 20
330.6762457836852
 30
0.0
 11
219.7096245979177
 21
311.6762457836853
 31
0.0
  0
LINE
  5
BA
330
1F
100
AcDbEntity
  8
1
  6
CENTER2
 62
     7
100
AcDbLine
 10
310.7096245979177
 20
335.4212841959763
 30
0.0
 11
310.7096245979177
 21
175.9091203035315
 31
0.0
  0
HATCH
  5
BB
330
1F
100
AcDbEntity
  8
1
  6
Continuous
 62
     7
100
AcDbHatch
 10
0.0
 20
0.0
 30
0.0
210
0.0
220
0.0
230
1.0
  2
_U
 70
     0
 71
     0
 91
        1
 92
        0
 93
        4
 72
     1
 10
210.7096245979177
 20
330.6762457836852
 11
210.7096245979177
 21
311.6762457836853
 72
     1
 10
210.7096245979177
 20
311.6762457836853
 11
219.7096245979177
 21
311.6762457836853
 72
     1
 10
219.7096245979177
 20
311.6762457836853
 11
219.7096245979177
 21
330.6762457836852
 72
     1
 10
219.7096245979177
 20
330.6762457836852
 11
210.7096245979177
 21
330.6762457836852
 97
        0
 75
     0
 76
     0
 52
45.0
 41
3.0
 77
     0
 78
     1
 53
45.0
 43
0.0
 44
0.0
 45
-2.121320343559642
 46
2.121320343559643
 79
     0
 98
        1
 10
0.0
 20
0.0
  0
LINE
  5
BC
330
1F
100
AcDbEntity
  8
1
  6
Continuous
 62
     7
100
AcDbLine
 10
229.7096245979178
 20
327.6762457836828
 30
0.0
 11
219.7096245979177
 21
327.6762457836829
 31
0.0
  0
LINE
  5
BD
330
1F
100
AcDbEntity
  8
1
  6
Continuous
 62
     7
100
AcDbLine
 10
221.7096245979176
 20
312.6762457836829
 30
0.0
 11
219.7096245979177
 21
312.6762457836829
 31
0.0
  0
LINE
  5
BE
330
1F
100
AcDbEntity
  8
1
  6
Continuous
 62
     7
100
AcDbLine
 10
229.7096245979177
 20
327.6762457836829
 30
0.0
 11
229.7096245979177
 21
325.6762457836829
 31
0.0
  0
LINE
  5
BF
330
1F
100
AcDbEntity
  8
1
  6
Continuous
 62
     7
100
AcDbLine
 10
229.7096245979177
 20
325.6762457836829
 30
0.0
 11
221.7096245979176
 21
325.6762457836829
 31
0.0
  0
LINE
  5
C0
330
1F
100
AcDbEntity
  8
1
  6
Continuous
 62
     7
100
AcDbLine
 10
221.7096245979176
 20
325.6762457836829
 30
0.0
 11
221.7096245979176
 21
312.6762457836829
 31
0.0
  0
HATCH
  5
C1
330
1F
100
AcDbEntity
  8
1
  6
Continuous
 62
     7
100
AcDbHatch
 10
0.0
 20
0.0
 30
0.0
210
0.0
220
0.0
230
1.0
  2
_U
 70
     0
 71
     0
 91
        1
 92
        0
 93
        6
 72
     1
 10
221.7096245979176
 20
312.6762457836829
 11
221.7096245979176
 21
325.6762457836829
 72
     1
 10
221.7096245979176
 20
325.6762457836829
 11
229.7096245979177
 21
325.6762457836829
 72
     1
 10
229.7096245979177
 20
325.6762457836829
 11
229.7096245979177
 21
327.6762457836829
 72
     1
 10
229.7096245979177
 20
327.6762457836829
 11
219.7096245979177
 21
327.6762457836841
 72
     1
 10
219.7096245979177
 20
327.6762457836841
 11
219.7096245979177
 21
312.6762457836829
 72
     1
 10
219.7096245979177
 20
312.6762457836829
 11
221.7096245979177
 21
312.6762457836829
 97
        0
 75
     0
 76
     0
 52
-45.0
 41
3.0
 77
     0
 78
     1
 53
-45.0
 43
0.0
 44
0.0
 45
2.121320343559642
 46
2.121320343559643
 79
     0
 98
        1
 10
0.0
 20
0.0
  0
LINE
  5
C2
330
1F
100
AcDbEntity
  8
1
  6
Continuous
 62
     7
100
AcDbLine
 10
310.7096245979178
 20
317.1762457836852
 30
0.0
 11
260.7096245979176
 21
317.1762457836852
 31
0.0
  0
LINE
  5
C3
330
1F
100
AcDbEntity
  8
1
  6
Continuous
 62
     7
100
AcDbLine
 10
260.7096245979176
 20
317.1762457836852
 30
0.0
 11
260.7096245979176
 21
327.1762457836851
 31
0.0
  0
LINE
  5
C4
330
1F
100
AcDbEntity
  8
1
  6
Continuous
 62
     7
100
AcDbLine
 10
260.7096245979176
 20
327.1762457836851
 30
0.0
 11
310.7096245979178
 21
327.1762457836851
 31
0.0
  0
CIRCLE
  5
C5
330
1F
100
AcDbEntity
  8
1
  6
Continuous
 62
     7
100
AcDbCircle
 10
260.7096245979176
 20
322.1762457836852
 30
0.0
 40
1.0
  0
LINE
  5
C6
330
1F
100
AcDbEntity
  8
1
  6
Continuous
 62
     7
100
AcDbLine
 10
219.7096245979175
 20
311.6762457836853
 30
0.0
 11
219.7096245979175
 21
180.6762457836853
 31
0.0
  0
LINE
  5
C7
330
1F
100
AcDbEntity
  8
1
  6
Continuous
 62
     7
100
AcDbLine
 10
216.7096245979176
 20
202.1762457836855
 30
0.0
 11
218.2096245979176
 21
202.1762457836855
 31
0.0
  0
LINE
  5
C8
330
1F
100
AcDbEntity
  8
1
  6
Continuous
 62
     7
100
AcDbLine
 10
218.2096245979175
 20
310.6762457836853
 30
0.0
 11
217.2096245979175
 21
311.6762457836853
 31
0.0
  0
LINE
  5
C9
330
1F
100
AcDbEntity
  8
1
  6
Continuous
 62
     7
100
AcDbLine
 10
218.0969336387996
 20
310.9542012568802
 30
0.0
 11
218.1165519305358
 21
311.5682537882236
 31
0.0
  0
LINE
  5
CA
330
1F
100
AcDbEntity
  8
1
  6
Continuous
 62
     7
100
AcDbLine
 10
218.1165519305358
 20
311.5682537882236
 30
0.0
 11
217.3887133071224
 21
311.5859102507861
 31
0.0
  0
LINE
  5
CB
330
1F
100
AcDbEntity
  8
1
  6
Continuous
 62
     7
100
AcDbLine
 10
217.3887133071224
 20
311.5859102507861
 30
0.0
 11
217.9439109632572
 21
311.0974147865545
 31
0.0
  0
LINE
  5
CC
330
1F
100
AcDbEntity
  8
1
  6
Continuous
 62
     7
100
AcDbLine
 10
217.9439109632572
 20
311.0974147865545
 30
0.0
 11
218.0400405927646
 21
311.478009646237
 31
0.0
  0
LINE
  5
CD
330
1F
100
AcDbEntity
  8
1
  6
Continuous
 62
     7
100
AcDbLine
 10
218.0400405927646
 20
311.478009646237
 30
0.0
 11
217.6947586582073
 21
311.4603531836744
 31
0.0
  0
LINE
  5
CE
330
1F
100
AcDbEntity
  8
1
  6
Continuous
 62
     7
100
AcDbLine
 10
217.6947586582073
 20
311.4603531836744
 30
0.0
 11
217.8870179172221
 21
311.2779030705276
 31
0.0
  0
LINE
  5
CF
330
1F
100
AcDbEntity
  8
1
  6
Continuous
 62
     7
100
AcDbLine
 10
218.2096245979176
 20
230.6762457836853
 30
0.0
 11
219.7096245979175
 21
230.6762457836853
 31
0.0
  0
HATCH
  5
D0
330
1F
100
AcDbEntity
  8
1
  6
Continuous
 62
     7
100
AcDbHatch
 10
0.0
 20
0.0
 30
0.0
210
0.0
220
0.0
230
1.0
  2
_U
 70
     0
 71
     0
 91
        1
 92
        0
 93
        4
 72
     1
 10
218.2096245979176
 20
230.6762457836853
 11
219.7096245979175
 21
230.6762457836853
 72
     1
 10
219.7096245979175
 20
230.6762457836853
 11
219.7096245979175
 21
311.6762457836853
 72
     1
 10
219.7096245979175
 20
311.6762457836853
 11
218.2096245979176
 21
311.6762457836853
 72
     1
 10
218.2096245979176
 20
311.6762457836853
 11
218.2096245979177
 21
230.6762457836853
 97
        0
 75
     0
 76
     0
 52
45.0
 41
3.0
 77
     0
 78
     1
 53
45.0
 43
0.0
 44
0.0
 45
-2.121320343559642
 46
2.121320343559643
 79
     0
 98
        1
 10
0.0
 20
0.0
  0
LINE
  5
D1
330
1F
100
AcDbEntity
  8
1
  6
Continuous
 62
     7
100
AcDbLine
 10
216.7096245979176
 20
311.6762457836853
 30
0.0
 11
216.7096245979176
 21
180.6762457836853
 31
0.0
  0
LINE
  5
D2
330
1F
100
AcDbEntity
  8
1
  6
Continuous
 62
     7
100
AcDbLine
 10
218.2096245979176
 20
311.6762457836853
 30
0.0
 11
218.2096245979176
 21
180.6762457836853
 31
0.0
  0
HATCH
  5
D3
330
1F
100
AcDbEntity
  8
1
  6
Continuous
 62
     7
100
AcDbHatch
 10
0.0
 20
0.0
 30
0.0
210
0.0
220
0.0
230
1.0
  2
_U
 70
     0
 71
     0
 91
        1
 92
        0
 93
        1
 72
     2
 10
260.7096245979176
 20
322.1762457836852
 40
1.0
 50
0.0
 51
360.0
 73
     1
 97
        0
 75
     0
 76
     0
 52
45.0
 41
1.0
 77
     0
 78
     1
 53
45.0
 43
0.0
 44
0.0
 45
-0.7071067811865475
 46
0.7071067811865476
 79
     0
 98
        1
 10
0.0
 20
0.0
  0
HATCH
  5
D4
330
1F
100
AcDbEntity
  8
1
  6
Continuous
 62
     7
100
AcDbHatch
 10
0.0
 20
0.0
 30
0.0
210
0.0
220
0.0
230
1.0
  2
_U
 70
     0
 71
     0
 91
        1
 92
        0
 93
        1
 72
     2
 10
260.7096245979176
 20
322.1762457836852
 40
1.0
 50
0.0
 51
360.0
 73
     1
 97
        0
 75
     0
 76
     0
 52
45.0
 41
1.0
 77
     0
 78
     1
 53
45.0
 43
0.0
 44
0.0
 45
-0.7071067811865475
 46
0.7071067811865476
 79
     0
 98
        1
 10
0.0
 20
0.0
  0
LINE
  5
D5
330
1F
100
AcDbEntity
  8
1
  6
Continuous
 62
     7
100
AcDbLine
 10
228.2096245979175
 20
180.6762457836853
 30
0.0
 11
228.2096245979175
 21
182.1762457836853
 31
0.0
  0
LINE
  5
D6
330
1F
100
AcDbEntity
  8
1
  6
Continuous
 62
     7
100
AcDbLine
 10
228.2096245979175
 20
182.1762457836853
 30
0.0
 11
224.2096245979176
 21
182.1762457836853
 31
0.0
  0
LINE
  5
D7
330
1F
100
AcDbEntity
  8
1
  6
Continuous
 62
     7
100
AcDbLine
 10
224.2096245979176
 20
182.1762457836853
 30
0.0
 11
224.2096245979176
 21
180.6762457836853
 31
0.0
  0
LINE
  5
D8
330
1F
100
AcDbEntity
  8
1
  6
Continuous
 62
     7
100
AcDbLine
 10
216.7096245979176
 20
180.6762457836853
 30
0.0
 11
224.2096245979176
 21
180.6762457836853
 31
0.0
  0
LINE
  5
D9
330
1F
100
AcDbEntity
  8
1
  6
Continuous
 62
     7
100
AcDbLine
 10
228.2096245979175
 20
180.6762457836853
 30
0.0
 11
310.7096245979177
 21
180.6762457836853
 31
0.0
  0
LINE
  5
DA
330
1F
100
AcDbEntity
  8
1
  6
HIDDEN
 62
     7
100
AcDbLine
 10
228.2096245979175
 20
182.1762457836853
 30
0.0
 11
310.7096245979177
 21
182.1762457836853
 31
0.0
  0
LINE
  5
DB
330
1F
100
AcDbEntity
  8
1
  6
Continuous
 62
     7
100
AcDbLine
 10
410.7096245979177
 20
330.6762457836852
 30
0.0
 11
310.7096245979177
 21
330.6762457836852
 31
0.0
  0
LINE
  5
DC
330
1F
100
AcDbEntity
  8
1
  6
Continuous
 62
     7
100
AcDbLine
 10
310.7096245979177
 20
311.6762457836853
 30
0.0
 11
410.7096245979177
 21
311.6762457836853
 31
0.0
  0
LINE
  5
DD
330
1F
100
AcDbEntity
  8
1
  6
Continuous
 62
     7
100
AcDbLine
 10
410.7096245979177
 20
311.6762457836853
 30
0.0
 11
410.7096245979177
 21
330.6762457836852
 31
0.0
  0
LINE
  5
DE
330
1F
100
AcDbEntity
  8
1
  6
Continuous
 62
     7
100
AcDbLine
 10
403.2096245979177
 20
311.6762457836853
 30
0.0
 11
403.2096245979177
 21
180.6762457836853
 31
0.0
  0
LINE
  5
DF
330
1F
100
AcDbEntity
  8
1
  6
Continuous
 62
     7
100
AcDbLine
 10
310.7096245979177
 20
182.1762457836853
 30
0.0
 11
397.8619717598518
 21
182.1762457836853
 31
0.0
  0
LINE
  5
E0
330
1F
100
AcDbEntity
  8
1
  6
Continuous
 62
     7
100
AcDbLine
 10
397.8619717598518
 20
182.1762457836853
 30
0.0
 11
397.8619717598518
 21
180.6762457836853
 31
0.0
  0
LINE
  5
E1
330
1F
100
AcDbEntity
  8
1
  6
Continuous
 62
     7
100
AcDbLine
 10
403.2096245979177
 20
180.6762457836853
 30
0.0
 11
310.7096245979177
 21
180.6762457836853
 31
0.0
  0
CIRCLE
  5
E2
330
1F
100
AcDbEntity
  8
1
  6
Continuous
 62
     7
100
AcDbCircle
 10
388.2096245979176
 20
322.1762457836853
 30
0.0
 40
4.0
  0
INSERT
  5
E9
330
1F
100
AcDbEntity
  8
1
  6
Continuous
 62
     7
100
AcDbBlockReference
  2
HOLE0
 10
388.2096245979176
 20
322.1762457836853
 30
0.0
  0
LINE
  5
EA
330
1F
100
AcDbEntity
  8
2
  6
Continuous
 62
     7
100
AcDbLine
 10
221.7096245979177
 20
327.6762457836842
 30
0.0
 11
221.7096245979177
 21
330.6762457836842
 31
0.0
  0
LINE
  5
EB
330
1F
100
AcDbEntity
  8
2
  6
Continuous
 62
     7
100
AcDbLine
 10
310.7096245979177
 20
327.6762457836842
 30
0.0
 11
221.7096245979177
 21
327.6762457836842
 31
0.0
  0
LINE
  5
EC
330
1F
100
AcDbEntity
  8
2
  6
Continuous
 62
     7
100
AcDbLine
 10
210.7096245979177
 20
330.6762457836842
 30
0.0
 11
310.7096245979177
 21
330.6762457836842
 31
0.0
  0
LINE
  5
ED
330
1F
100
AcDbEntity
  8
1
  6
Continuous
 62
     7
100
AcDbLine
 10
410.7096245979178
 20
604.3720420794281
 30
0.0
 11
210.7096245979178
 21
604.3720420794281
 31
0.0
  0
LINE
  5
EE
330
1F
100
AcDbEntity
  8
1
  6
Continuous
 62
     7
100
AcDbLine
 10
210.7096245979178
 20
604.3720420794281
 30
0.0
 11
210.7096245979178
 21
454.3720420794281
 31
0.0
  0
LINE
  5
EF
330
1F
100
AcDbEntity
  8
1
  6
Continuous
 62
     7
100
AcDbLine
 10
210.7096245979178
 20
454.3720420794281
 30
0.0
 11
410.7096245979178
 21
454.3720420794281
 31
0.0
  0
LINE
  5
F0
330
1F
100
AcDbEntity
  8
1
  6
Continuous
 62
     7
100
AcDbLine
 10
410.7096245979178
 20
454.3720420794281
 30
0.0
 11
410.7096245979178
 21
604.3720420794281
 31
0.0
  0
LINE
  5
F1
330
1F
100
AcDbEntity
  8
1
  6
Continuous
 62
     7
100
AcDbLine
 10
401.7096245979178
 20
595.3720420794281
 30
0.0
 11
401.7096245979178
 21
463.3720420794281
 31
0.0
  0
LINE
  5
F2
330
1F
100
AcDbEntity
  8
1
  6
Continuous
 62
     7
100
AcDbLine
 10
401.7096245979178
 20
463.3720420794281
 30
0.0
 11
219.7096245979178
 21
463.3720420794281
 31
0.0
  0
LINE
  5
F3
330
1F
100
AcDbEntity
  8
1
  6
Continuous
 62
     7
100
AcDbLine
 10
219.7096245979178
 20
463.3720420794281
 30
0.0
 11
219.7096245979178
 21
595.3720420794281
 31
0.0
  0
LINE
  5
F4
330
1F
100
AcDbEntity
  8
1
  6
Continuous
 62
     7
100
AcDbLine
 10
219.7096245979178
 20
595.3720420794281
 30
0.0
 11
401.7096245979178
 21
595.3720420794281
 31
0.0
  0
LINE
  5
F5
330
1F
100
AcDbEntity
  8
1
  6
CENTER2
 62
     7
100
AcDbLine
 10
207.1348989174783
 20
529.3720420794281
 30
0.0
 11
417.0649013497413
 21
529.3720420794281
 31
0.0
  0
LINE
  5
F6
330
1F
100
AcDbEntity
  8
1
  6
CENTER2
 62
     7
100
AcDbLine
 10
310.7096245979178
 20
622.735219266786
 30
0.0
 11
310.7096245979178
 21
433.533772824868
 31
0.0
  0
LINE
  5
F7
330
1F
100
AcDbEntity
  8
1
  6
Continuous
 62
     7
100
AcDbLine
 10
223.1255557265781
 20
604.3720420794281
 30
0.0
 11
233.1255557265779
 21
609.8720420794281
 31
0.0
  0
LINE
  5
F8
330
1F
100
AcDbEntity
  8
1
  6
Continuous
 62
     7
100
AcDbLine
 10
233.1255557265779
 20
609.8720420794281
 30
0.0
 11
388.7742933013839
 21
609.8720420794281
 31
0.0
  0
LINE
  5
F9
330
1F
100
AcDbEntity
  8
1
  6
Continuous
 62
     7
100
AcDbLine
 10
388.7742933013839
 20
609.8720420794281
 30
0.0
 11
398.7742933013838
 21
604.3720420794282
 31
0.0
  0
LINE
  5
FA
330
1F
100
AcDbEntity
  8
1
  6
Continuous
 62
     7
100
AcDbLine
 10
397.8619717598518
 20
454.3720420794281
 30
0.0
 11
387.8619717598519
 21
448.8720420794281
 31
0.0
  0
LINE
  5
FB
330
1F
100
AcDbEntity
  8
1
  6
Continuous
 62
     7
100
AcDbLine
 10
387.8619717598519
 20
448.8720420794281
 30
0.0
 11
232.772237903057
 21
448.8720420794281
 31
0.0
  0
LINE
  5
FC
330
1F
100
AcDbEntity
  8
1
  6
Continuous
 62
     7
100
AcDbLine
 10
232.772237903057
 20
448.8720420794281
 30
0.0
 11
222.772237903057
 21
454.3720420794281
 31
0.0
  0
LINE
  5
FD
330
1F
100
AcDbEntity
  8
2
  6
Continuous
 62
     7
100
AcDbLine
 10
399.7096245979178
 20
594.8720420794281
 30
0.0
 11
221.7096245979178
 21
594.8720420794281
 31
0.0
  0
LINE
  5
FE
330
1F
100
AcDbEntity
  8
2
  6
HIDDEN
 62
     7
100
AcDbLine
 10
381.2096245979178
 20
592.372042079428
 30
0.0
 11
394.2096245979176
 21
592.372042079428
 31
0.0
  0
LINE
  5
FF
330
1F
100
AcDbEntity
  8
2
  6
HIDDEN
 62
     7
100
AcDbLine
 10
394.2096245979176
 20
592.372042079428
 30
0.0
 11
394.2096245979178
 21
577.372042079428
 31
0.0
  0
LINE
  5
100
330
1F
100
AcDbEntity
  8
2
  6
HIDDEN
 62
     7
100
AcDbLine
 10
394.2096245979178
 20
577.372042079428
 30
0.0
 11
381.2096245979178
 21
577.372042079428
 31
0.0
  0
LINE
  5
101
330
1F
100
AcDbEntity
  8
2
  6
HIDDEN
 62
     7
100
AcDbLine
 10
381.2096245979178
 20
577.372042079428
 30
0.0
 11
381.2096245979178
 21
592.372042079428
 31
0.0
  0
LINE
  5
102
330
1F
100
AcDbEntity
  8
2
  6
Continuous
 62
     7
100
AcDbLine
 10
221.7096245979178
 20
463.8720420794281
 30
0.0
 11
399.7096245979178
 21
463.8720420794281
 31
0.0
  0
LINE
  5
103
330
1F
100
AcDbEntity
  8
2
  6
HIDDEN
 62
     7
100
AcDbLine
 10
381.2096245979178
 20
481.372042079428
 30
0.0
 11
381.2096245979178
 21
466.372042079428
 31
0.0
  0
LINE
  5
104
330
1F
100
AcDbEntity
  8
2
  6
HIDDEN
 62
     7
100
AcDbLine
 10
381.2096245979178
 20
466.372042079428
 30
0.0
 11
394.2096245979176
 21
466.372042079428
 31
0.0
  0
LINE
  5
105
330
1F
100
AcDbEntity
  8
2
  6
HIDDEN
 62
     7
100
AcDbLine
 10
394.2096245979176
 20
466.372042079428
 30
0.0
 11
394.2096245979176
 21
481.372042079428
 31
0.0
  0
LINE
  5
106
330
1F
100
AcDbEntity
  8
2
  6
HIDDEN
 62
     7
100
AcDbLine
 10
394.2096245979176
 20
481.372042079428
 30
0.0
 11
381.2096245979178
 21
481.372042079428
 31
0.0
  0
LINE
  5
107
330
1F
100
AcDbEntity
  8
2
  6
Continuous
 62
     7
100
AcDbLine
 10
221.7096245979178
 20
594.8720420794281
 30
0.0
 11
221.7096245979178
 21
463.8720420794281
 31
0.0
  0
LINE
  5
108
330
1F
100
AcDbEntity
  8
2
  6
Continuous
 62
     7
100
AcDbLine
 10
399.7096245979178
 20
463.8720420794281
 30
0.0
 11
399.7096245979178
 21
594.8720420794281
 31
0.0
  0
LINE
  5
109
330
1F
100
AcDbEntity
  8
2
  6
CENTER2
 62
     7
100
AcDbLine
 10
253.7096245979178
 20
541.372042079428
 30
0.0
 11
253.7096245979178
 21
517.6220420794268
 31
0.0
  0
ARC
  5
10A
330
1F
100
AcDbEntity
  8
2
  6
Continuous
 62
     7
100
AcDbCircle
 10
253.7096245979178
 20
529.372042079428
 30
0.0
 40
11.25
100
AcDbArc
 50
119.9264348666031
 51
240.0735651333974
  0
ARC
  5
10B
330
1F
100
AcDbEntity
  8
2
  6
Continuous
 62
     7
100
AcDbCircle
 10
253.7096245979178
 20
529.372042079428
 30
0.0
 40
11.25
100
AcDbArc
 50
299.9264348666026
 51
60.07356513339739
  0
LINE
  5
10C
330
1F
100
AcDbEntity
  8
2
  6
Continuous
 62
     7
100
AcDbLine
 10
259.3221106780767
 20
539.1220420794291
 30
0.0
 11
248.0971385177587
 21
539.1220420794291
 31
0.0
  0
LINE
  5
10D
330
1F
100
AcDbEntity
  8
2
  6
Continuous
 62
     7
100
AcDbLine
 10
248.0971385177588
 20
519.6220420794268
 30
0.0
 11
259.3221106780767
 21
519.6220420794268
 31
0.0
  0
MTEXT
  5
10F
330
1F
100
AcDbEntity
  8
4
  6
Continuous
 62
     7
100
AcDbMText
 10
281.5096245979178
 20
517.372042079428
 30
0.0
 40
24.0
 41
0.0
 71
     7
 72
     5
  1
{\fHG丸ｺﾞｼｯｸM-PRO|b1|i0|c128|p50;\W1.0;散}
  7
MTSTANDARD1
 73
     1
 44
0.6875
  0
MTEXT
  5
110
330
1F
100
AcDbEntity
  8
4
  6
Continuous
 62
     7
100
AcDbMText
 10
316.5096245979179
 20
517.372042079428
 30
0.0
 40
24.0
 41
0.0
 71
     7
 72
     5
  1
{\fHG丸ｺﾞｼｯｸM-PRO|b1|i0|c128|p50;\W1.0;水}
  7
MTSTANDARD1
 73
     1
 44
0.6875
  0
MTEXT
  5
111
330
1F
100
AcDbEntity
  8
4
  6
Continuous
 62
     7
100
AcDbMText
 10
351.5096245979178
 20
517.372042079428
 30
0.0
 40
24.0
 41
0.0
 71
     7
 72
     5
  1
{\fHG丸ｺﾞｼｯｸM-PRO|b1|i0|c128|p50;\W1.0;栓}
  7
MTSTANDARD1
 73
     1
 44
0.6875
  0
DIMENSION
  5
120
330
1F
100
AcDbEntity
  8
1
  6
ByBlock
 62
     3
100
AcDbDimension
  2
_D1
 10
403.2096245979177
 20
150.1681134935431
 30
0.0
 11
310.7096245979177
 21
156.1681134935431
 31
0.0
 70
   160
 71
     5
 42
-1.0
 52
90.0
  3
DIMSTYEX_1
100
AcDbAlignedDimension
 13
218.2096245979177
 23
180.6762457836853
 33
0.0
 14
403.2096245979177
 24
180.6762457836853
 34
0.0
100
AcDbRotatedDimension
1001
ACAD
1000
DSTYLE
1002
{
1070
    41
1040
2.0
1070
   343
1005
88
1070
   344
1005
88
1070
   176
1070
     3
1070
   177
1070
     3
1070
   178
1070
     2
1070
    43
1040
7.0
1070
   173
1070
     1
1070
   272
1070
     3
1070
   340
1005
83
1070
   140
1040
3.584
1002
}
  0
DIMENSION
  5
134
330
1F
100
AcDbEntity
  8
1
  6
ByBlock
 62
     3
100
AcDbDimension
  2
_D2
 10
219.7096245979175
 20
279.8971198672009
 30
0.0
 11
209.2027653041416
 21
291.6539791609769
 31
0.0
 70
   160
 71
     5
 42
-1.0
 52
90.0
  3
DIMSTYEX_2
100
AcDbAlignedDimension
 13
218.2096245979176
 23
268.6615775110006
 33
0.0
 14
219.7096245979175
 24
268.6615775110006
 34
0.0
100
AcDbRotatedDimension
1001
ACAD
1000
DSTYLE
1002
{
1070
    41
1040
2.0
1070
   343
1005
88
1070
   344
1005
88
1070
   176
1070
     3
1070
   177
1070
     3
1070
   178
1070
     2
1070
    43
1040
7.0
1070
   147
1040
2.0
1070
   173
1070
     1
1070
   272
1070
     3
1070
   279
1070
     1
1070
   340
1005
83
1070
   140
1040
3.584
1002
}
  0
DIMENSION
  5
141
330
1F
100
AcDbEntity
  8
1
  6
ByBlock
 62
     3
100
AcDbDimension
  2
_D3
 10
177.810222317772
 20
330.6762457836842
 30
0.0
 11
171.810222317772
 21
255.6762457836847
 31
0.0
 70
   160
 71
     5
 42
-1.0
 52
90.0
  3
DIMSTYEX_1
100
AcDbAlignedDimension
 13
216.7096245979176
 23
180.6762457836853
 33
0.0
 14
209.813582099604
 24
330.6762457836842
 34
0.0
 50
90.0
100
AcDbRotatedDimension
1001
ACAD
1000
DSTYLE
1002
{
1070
    41
1040
2.0
1070
   343
1005
88
1070
   344
1005
88
1070
   176
1070
     3
1070
   177
1070
     3
1070
   178
1070
     2
1070
    43
1040
7.0
1070
   173
1070
     1
1070
   272
1070
     3
1070
   340
1005
83
1070
   140
1040
3.584
1002
}
  0
DIMENSION
  5
14D
330
1F
100
AcDbEntity
  8
1
  6
ByBlock
 62
     3
100
AcDbDimension
  2
_D4
 10
221.7096245979177
 20
363.3504874829658
 30
0.0
 11
310.7096245979177
 21
369.3504874829658
 31
0.0
 70
   160
 71
     5
 42
-1.0
 52
90.0
  3
DIMSTYEX_3
100
AcDbAlignedDimension
 13
399.7096245979177
 23
330.6762457836842
 33
0.0
 14
221.7096245979177
 24
330.6762457836842
 34
0.0
100
AcDbRotatedDimension
1001
ACAD
1000
DSTYLE
1002
{
1070
    41
1040
2.0
1070
   343
1005
AE
1070
   344
1005
88
1070
   176
1070
     3
1070
   177
1070
     3
1070
   178
1070
     2
1070
    43
1040
7.0
1070
   173
1070
     1
1070
   281
1070
     1
1070
    75
1070
     1
1070
    77
1070
     1
1070
   272
1070
     3
1070
   340
1005
83
1070
   140
1040
3.584
1002
}
  0
DIMENSION
  5
15A
330
1F
100
AcDbEntity
  8
1
  6
ByBlock
 62
     3
100
AcDbDimension
  2
_D5
 10
410.7096245979177
 20
377.3504874829658
 30
0.0
 11
310.7096245979177
 21
383.3504874829658
 31
0.0
 70
   160
 71
     5
 42
-1.0
 52
90.0
  3
DIMSTYEX_1
100
AcDbAlignedDimension
 13
210.7096245979177
 23
330.6762457836852
 33
0.0
 14
410.7096245979177
 24
330.6762457836852
 34
0.0
100
AcDbRotatedDimension
1001
ACAD
1000
DSTYLE
1002
{
1070
    41
1040
2.0
1070
   343
1005
88
1070
   344
1005
88
1070
   176
1070
     3
1070
   177
1070
     3
1070
   178
1070
     2
1070
    43
1040
7.0
1070
   173
1070
     1
1070
   272
1070
     3
1070
   340
1005
83
1070
   140
1040
3.584
1002
}
  0
DIMENSION
  5
167
330
1F
100
AcDbEntity
  8
1
  6
ByBlock
 62
     3
100
AcDbDimension
  2
_D6
 10
189.7096245979177
 20
463.8720420794282
 30
0.0
 11
183.7096245979177
 21
529.3720420794282
 31
0.0
 70
   160
  1
１３０
 71
     5
 42
-1.0
 52
90.0
  3
DIMSTYEX_1
100
AcDbAlignedDimension
 13
221.7096245979178
 23
594.8720420794281
 33
0.0
 14
221.7096245979178
 24
463.8720420794282
 34
0.0
 50
-90.0
100
AcDbRotatedDimension
1001
ACAD
1000
DSTYLE
1002
{
1070
    41
1040
2.0
1070
   343
1005
88
1070
   344
1005
88
1070
   176
1070
     3
1070
   177
1070
     3
1070
   178
1070
     2
1070
    43
1040
7.0
1070
   173
1070
     1
1070
   272
1070
     3
1070
   340
1005
83
1070
   140
1040
3.584
1002
}
  0
DIMENSION
  5
174
330
1F
100
AcDbEntity
  8
1
  6
ByBlock
 62
     3
100
AcDbDimension
  2
_D7
 10
175.7096245979177
 20
454.3720420794281
 30
0.0
 11
169.7096245979177
 21
529.3720420794281
 31
0.0
 70
   160
 71
     5
 42
-1.0
 52
90.0
  3
DIMSTYEX_1
100
AcDbAlignedDimension
 13
210.7096245979178
 23
604.3720420794281
 33
0.0
 14
210.7096245979177
 24
454.3720420794281
 34
0.0
 50
-90.0
100
AcDbRotatedDimension
1001
ACAD
1000
DSTYLE
1002
{
1070
    41
1040
2.0
1070
   343
1005
88
1070
   344
1005
88
1070
   176
1070
     3
1070
   177
1070
     3
1070
   178
1070
     2
1070
    43
1040
7.0
1070
   173
1070
     1
1070
   272
1070
     3
1070
   340
1005
83
1070
   140
1040
3.584
1002
}
  0
DIMENSION
  5
186
330
1F
100
AcDbEntity
  8
1
  6
ByBlock
 62
     3
100
AcDbDimension
  2
_D8
 10
203.7096245979177
 20
519.6220420794268
 30
0.0
 11
195.7096245979177
 21
529.372042079428
 31
0.0
 70
   160
 71
     5
 42
-1.0
 52
90.0
  3
DIMSTYEX_4
100
AcDbAlignedDimension
 13
248.0971385177587
 23
539.1220420794291
 33
0.0
 14
248.0971385177588
 24
519.6220420794268
 34
0.0
 50
-90.0
100
AcDbRotatedDimension
1001
ACAD
1000
DSTYLE
1002
{
1070
    41
1040
2.0
1070
   343
1005
88
1070
   344
1005
88
1070
   176
1070
     3
1070
   177
1070
     3
1070
   178
1070
     2
1070
    43
1040
7.0
1070
   147
1040
2.0
1070
   173
1070
     1
1070
   272
1070
     3
1070
   340
1005
83
1070
   140
1040
3.584
1002
}
  0
DIMENSION
  5
193
330
1F
100
AcDbEntity
  8
1
  6
ByBlock
 62
     3
100
AcDbDimension
  2
_D9
 10
253.7148319950317
 20
553.1199531963064
 30
0.0
 11
237.7170640695362
 21
559.1259049802175
 31
0.0
 70
   161
 71
     5
 42
-1.0
 52
90.0
  3
DIMSTYEX_1
100
AcDbAlignedDimension
 13
221.7096245979178
 23
539.1339464776106
 33
0.0
 14
253.7096245979178
 24
539.1220420794291
 34
0.0
1001
ACAD
1000
DSTYLE
1002
{
1070
    41
1040
2.0
1070
   343
1005
88
1070
   344
1005
88
1070
   176
1070
     3
1070
   177
1070
     3
1070
   178
1070
     2
1070
    43
1040
7.0
1070
   173
1070
     1
1070
   272
1070
     3
1070
   340
1005
83
1070
   140
1040
3.584
1002
}
  0
INSERT
  5
19C
330
1F
100
AcDbEntity
  8
1
  6
ByBlock
 62
     3
100
AcDbBlockReference
  2
BALN0
 10
228.215
 20
328.7644133099825
 30
0.0
  0
INSERT
  5
1A4
330
1F
100
AcDbEntity
  8
1
  6
ByBlock
 62
     3
100
AcDbBlockReference
  2
BALN1
 10
210.7096245979177
 20
318.3622817453073
 30
0.0
  0
LINE
  5
1A5
330
1F
100
AcDbEntity
  8
1
  6
Continuous
 62
     7
100
AcDbLine
 10
242.4596245979178
 20
330.6762457836842
 30
0.0
 11
242.4596245979177
 21
327.6762457836841
 31
0.0
  0
LINE
  5
1A6
330
1F
100
AcDbEntity
  8
1
  6
Continuous
 62
     7
100
AcDbLine
 10
264.9596245979178
 20
330.6762457836842
 30
0.0
 11
264.9596245979178
 21
327.6762457836841
 31
0.0
  0
HATCH
  5
1A7
330
1F
100
AcDbEntity
  8
1
  6
Continuous
 62
     7
100
AcDbHatch
 10
0.0
 20
0.0
 30
0.0
210
0.0
220
0.0
230
1.0
  2
_U
 70
     0
 71
     0
 91
        8
 92
        0
 93
       10
 72
     1
 10
242.4596245979147
 20
330.6762457836842
 11
221.7096245979177
 21
330.6762457836842
 72
     1
 10
221.7096245979177
 20
330.6762457836842
 11
221.7096245979177
 21
327.6762457836842
 72
     1
 10
221.7096245979177
 20
327.6762457836842
 11
229.7096245979178
 21
327.6762457836828
 72
     1
 10
229.7096245979178
 20
327.6762457836828
 11
219.7096245979177
 21
327.6762457836829
 72
     1
 10
219.7096245979177
 20
327.6762457836842
 11
219.7096245979177
 21
311.6762457836853
 72
     1
 10
219.7096245979177
 20
311.6762457836853
 11
310.7096245979177
 21
311.6762457836853
 72
     1
 10
310.7096245979177
 20
311.6762457836853
 11
410.7096245979177
 21
311.6762457836853
 72
     1
 10
410.7096245979177
 20
311.6762457836853
 11
410.7096245979177
 21
330.6762457836852
 72
     1
 10
410.7096245979177
 20
330.6762457836852
 11
310.7096245979177
 21
330.6762457836852
 72
     1
 10
310.7096245979177
 20
330.6762457836842
 11
242.4596245979147
 21
330.6762457836842
 97
        0
 92
        0
 93
        4
 72
     1
 10
264.9596245979178
 20
330.6762457836842
 11
242.4596245979147
 21
330.6762457836842
 72
     1
 10
242.4596245979178
 20
330.6762457836842
 11
242.4596245979177
 21
327.6762457836841
 72
     1
 10
242.4596245979147
 20
327.6762457836842
 11
264.9596245979178
 21
327.6762457836842
 72
     1
 10
264.9596245979178
 20
327.6762457836841
 11
264.9596245979178
 21
330.6762457836842
 97
        0
 92
        0
 93
       14
 72
     2
 10
260.7096245979176
 20
322.1762457836852
 40
1.0
 50
90.0
 51
270.0
 73
     0
 72
     1
 10
260.7096245979176
 20
323.1762457836852
 11
260.7096245979176
 21
327.1762457836851
 72
     1
 10
260.7096245979176
 20
327.1762457836851
 11
310.7096245979178
 21
327.1762457836851
 72
     1
 10
310.7096245979177
 20
327.1762457836851
 11
310.7096245979177
 21
327.6762457836842
 72
     1
 10
310.7096245979177
 20
327.6762457836842
 11
229.7096245979177
 21
327.6762457836842
 72
     1
 10
229.7096245979177
 20
327.6762457836829
 11
229.7096245979177
 21
325.6762457836829
 72
     1
 10
229.7096245979177
 20
325.6762457836829
 11
221.7096245979176
 21
325.6762457836829
 72
     1
 10
221.7096245979176
 20
325.6762457836829
 11
221.7096245979176
 21
312.6762457836829
 72
     1
 10
221.7096245979176
 20
312.6762457836829
 11
219.7096245979177
 21
312.6762457836829
 72
     1
 10
219.7096245979177
 20
312.6762457836829
 11
219.7096245979177
 21
311.6762457836853
 72
     1
 10
219.7096245979177
 20
311.6762457836853
 11
310.7096245979177
 21
311.6762457836853
 72
     1
 10
310.7096245979177
 20
311.6762457836853
 11
310.7096245979177
 21
317.1762457836852
 72
     1
 10
310.7096245979178
 20
317.1762457836852
 11
260.7096245979176
 21
317.1762457836852
 72
     1
 10
260.7096245979176
 20
317.1762457836852
 11
260.7096245979176
 21
321.1762457836852
 97
        0
 92
        0
 93
        6
 72
     1
 10
229.7096245979178
 20
327.6762457836828
 11
219.7096245979177
 21
327.6762457836829
 72
     1
 10
219.7096245979177
 20
327.6762457836842
 11
219.7096245979177
 21
312.6762457836829
 72
     1
 10
219.7096245979177
 20
312.6762457836829
 11
221.7096245979176
 21
312.6762457836829
 72
     1
 10
221.7096245979176
 20
312.6762457836829
 11
221.7096245979176
 21
325.6762457836829
 72
     1
 10
221.7096245979176
 20
325.6762457836829
 11
229.7096245979177
 21
325.6762457836829
 72
     1
 10
229.7096245979177
 20
325.6762457836829
 11
229.7096245979177
 21
327.6762457836829
 97
        0
 92
        0
 93
        4
 72
     1
 10
410.7096245979177
 20
330.6762457836852
 11
310.7096245979177
 21
330.6762457836852
 72
     1
 10
310.7096245979177
 20
330.6762457836852
 11
310.7096245979177
 21
311.6762457836853
 72
     1
 10
310.7096245979177
 20
311.6762457836853
 11
410.7096245979177
 21
311.6762457836853
 72
     1
 10
410.7096245979177
 20
311.6762457836853
 11
410.7096245979177
 21
330.6762457836852
 97
        0
 92
        0
 93
        6
 72
     1
 10
310.7096245979178
 20
327.1762457836851
 11
260.7096245979176
 21
327.1762457836851
 72
     1
 10
260.7096245979176
 20
327.1762457836851
 11
260.7096245979176
 21
323.1762457836852
 72
     2
 10
260.7096245979176
 20
322.1762457836852
 40
1.0
 50
270.0
 51
450.0
 73
     0
 72
     1
 10
260.7096245979176
 20
321.1762457836852
 11
260.7096245979176
 21
317.1762457836852
 72
     1
 10
260.7096245979176
 20
317.1762457836852
 11
310.7096245979178
 21
317.1762457836852
 72
     1
 10
310.7096245979177
 20
317.1762457836852
 11
310.7096245979177
 21
327.1762457836851
 97
        0
 92
        0
 93
        2
 72
     1
 10
260.7096245979176
 20
323.1762457836852
 11
260.7096245979176
 21
321.1762457836852
 72
     2
 10
260.7096245979176
 20
322.1762457836852
 40
1.0
 50
270.0
 51
450.0
 73
     1
 97
        0
 92
        0
 93
        2
 72
     2
 10
260.7096245979176
 20
322.1762457836852
 40
1.0
 50
90.0
 51
270.0
 73
     1
 72
     1
 10
260.7096245979176
 20
321.1762457836852
 11
260.7096245979176
 21
323.1762457836852
 97
        0
 75
     0
 76
     0
 52
45.0
 41
6.0
 77
     0
 78
     1
 53
45.0
 43
0.0
 44
0.0
 45
-4.242640687119285
 46
4.242640687119286
 79
     0
 98
        1
 10
0.0
 20
0.0
  0
LINE
  5
1A8
330
1F
100
AcDbEntity
  8
1
  6
Continuous
 62
     7
100
AcDbLine
 10
60.05563450431175
 20
60.51210826370063
 30
0.0
 11
270.055634504312
 21
60.51210826370063
 31
0.0
  0
LINE
  5
1A9
330
1F
100
AcDbEntity
  8
1
  6
Continuous
 62
     7
100
AcDbLine
 10
270.055634504312
 20
60.51210826370063
 30
0.0
 11
270.055634504312
 21
18.51210826370063
 31
0.0
  0
LINE
  5
1AA
330
1F
100
AcDbEntity
  8
1
  6
Continuous
 62
     7
100
AcDbLine
 10
60.05563450431175
 20
18.51210826370063
 30
0.0
 11
60.05563450431175
 21
60.51210826370063
 31
0.0
  0
LINE
  5
1AB
330
1F
100
AcDbEntity
  8
1
  6
Continuous
 62
     7
100
AcDbLine
 10
80.05563450431175
 20
60.51210826370063
 30
0.0
 11
80.05563450431175
 21
18.51210826370061
 31
0.0
  0
LINE
  5
1AC
330
1F
100
AcDbEntity
  8
1
  6
Continuous
 62
     7
100
AcDbLine
 10
140.0556345043117
 20
18.51210826370063
 30
0.0
 11
140.0556345043117
 21
60.51210826370063
 31
0.0
  0
LINE
  5
1AD
330
1F
100
AcDbEntity
  8
1
  6
Continuous
 62
     7
100
AcDbLine
 10
210.0556345043117
 20
60.51210826370063
 30
0.0
 11
210.0556345043117
 21
18.51210826370063
 31
0.0
  0
LINE
  5
1AE
330
1F
100
AcDbEntity
  8
1
  6
Continuous
 62
     7
100
AcDbLine
 10
60.05563450431175
 20
32.51210826370063
 30
0.0
 11
140.0556345043117
 21
32.51210826370063
 31
0.0
  0
LINE
  5
1AF
330
1F
100
AcDbEntity
  8
1
  6
Continuous
 62
     7
100
AcDbLine
 10
210.0556345043118
 20
32.51210826370063
 30
0.0
 11
270.055634504312
 21
32.51210826370063
 31
0.0
  0
LINE
  5
1B0
330
1F
100
AcDbEntity
  8
1
  6
Continuous
 62
     7
100
AcDbLine
 10
60.05563450431175
 20
46.51210826370063
 30
0.0
 11
270.055634504312
 21
46.51210826370063
 31
0.0
  0
LINE
  5
1B1
330
1F
100
AcDbEntity
  8
1
  6
Continuous
 62
     7
100
AcDbLine
 10
270.055634504312
 20
18.51210826370063
 30
0.0
 11
60.05563450431175
 21
18.51210826370063
 31
0.0
  0
MTEXT
  5
1B2
102
{ACAD_REACTORS
330
1B4
102
}
330
1F
100
AcDbEntity
  8
1
  6
Continuous
 62
     2
100
AcDbMText
 10
272.449119314652
 20
557.3398086871517
 30
0.0
 40
10.0
 41
0.0
 71
     7
 72
     5
  1
取手穴
  7
MTSTANDARD
 73
     1
 44
0.775
  0
LEADER
  5
1B4
330
1F
100
AcDbEntity
  8
1
  6
ByBlock
 62
     3
100
AcDbLeader
  3
DIMSTYEX_7
 73
     0
 74
     0
 76
     3
 10
256.2313527069294
 20
539.1220420794291
 30
0.0
 10
272.449119314652
 20
555.3398086871517
 30
0.0
 10
273.449119314652
 20
555.3398086871517
 30
0.0
340
1B2
1001
ACAD
1000
DSTYLE
1002
{
1070
   176
1070
     0
1002
}
  0
DIMENSION
  5
1C7
330
1F
100
AcDbEntity
  8
1
  6
ByBlock
 62
     3
100
AcDbDimension
  2
_D10
 10
253.8586824194405
 20
330.6762457836842
 30
0.0
 11
260.7096245979177
 21
347.5312055614681
 31
0.0
 70
   160
 71
     5
 42
-1.0
 52
90.0
  3
DIMSTYEX_2
100
AcDbAlignedDimension
 13
242.4596245979177
 23
327.6762457836841
 33
0.0
 14
242.4596245979178
 24
330.6762457836842
 34
0.0
 50
90.0
100
AcDbRotatedDimension
1001
ACAD
1000
DSTYLE
1002
{
1070
    41
1040
2.0
1070
   343
1005
88
1070
   344
1005
88
1070
   176
1070
     3
1070
   177
1070
     3
1070
   178
1070
     2
1070
    43
1040
7.0
1070
   147
1040
2.0
1070
   173
1070
     1
1070
   272
1070
     3
1070
   279
1070
     1
1070
   340
1005
83
1070
   140
1040
3.584
1002
}
  0
DIMENSION
  5
1D5
330
1F
100
AcDbEntity
  8
1
  6
ByBlock
 62
     3
100
AcDbDimension
  2
_D11
 10
161.7096245979177
 20
609.8720420794281
 30
0.0
 11
155.7096245979177
 21
529.3720420794281
 31
0.0
 70
   160
 71
     5
 42
-1.0
 52
90.0
  3
DIMSTYEX_8
100
AcDbAlignedDimension
 13
232.772237903057
 23
448.8720420794281
 33
0.0
 14
233.1255557265779
 24
609.8720420794281
 34
0.0
 50
90.0
100
AcDbRotatedDimension
1001
ACAD
1000
DSTYLE
1002
{
1070
    41
1040
2.0
1070
   343
1005
88
1070
   344
1005
88
1070
   176
1070
     3
1070
   177
1070
     3
1070
   178
1070
     2
1070
    43
1040
7.0
1070
   173
1070
     1
1070
   272
1070
     3
1070
   340
1005
83
1070
   140
1040
3.584
1002
}
  0
LINE
  5
1D6
330
1F
100
AcDbEntity
  8
1
  6
Continuous
 62
     7
100
AcDbLine
 10
396.0024488942295
 20
21.41807840050208
 30
0.0
 11
396.0024488942295
 21
-12.58192159949792
 31
0.0
  0
LINE
  5
1D7
330
1F
100
AcDbEntity
  8
1
  6
Continuous
 62
     7
100
AcDbLine
 10
386.0024588942292
 20
-12.58192159949792
 30
0.0
 11
386.0024588942292
 21
21.41807840050208
 31
0.0
  0
LINE
  5
1D8
330
1F
100
AcDbEntity
  8
1
  6
Continuous
 62
     7
100
AcDbLine
 10
352.0024588942297
 20
21.41807840050208
 30
0.0
 11
352.0024588942297
 21
-12.58192159949792
 31
0.0
  0
LINE
  5
1D9
330
1F
100
AcDbEntity
  8
1
  6
Continuous
 62
     7
100
AcDbLine
 10
342.0024688942294
 20
-12.58192159949792
 30
0.0
 11
342.0024688942294
 21
21.41807840050208
 31
0.0
  0
MTEXT
  5
1DB
330
1F
100
AcDbEntity
  8
1
  6
Continuous
 62
     7
100
AcDbMText
 10
343.5024638942295
 20
-3.362820334390534
 30
0.0
 40
7.0
 41
0.0
 71
     7
 72
     5
  1
{\fＭＳ 明朝|b0|i0|c128|p17;\W1.0;査}
  7
MTSTANDARD4
 73
     1
 44
0.8392857142857144
  0
MTEXT
  5
1DC
330
1F
100
AcDbEntity
  8
1
  6
Continuous
 62
     7
100
AcDbMText
 10
387.5024538942293
 20
-3.362820334390534
 30
0.0
 40
7.0
 41
0.0
 71
     7
 72
     5
  1
{\fＭＳ 明朝|b0|i0|c128|p17;\W1.0;認}
  7
MTSTANDARD4
 73
     1
 44
0.8392857142857144
  0
MTEXT
  5
1DD
330
1F
100
AcDbEntity
  8
1
  6
Continuous
 62
     7
100
AcDbMText
 10
387.5024538942293
 20
4.637171665609486
 30
0.0
 40
7.0
 41
0.0
 71
     7
 72
     5
  1
{\fＭＳ 明朝|b0|i0|c128|p17;\W1.0;承}
  7
MTSTANDARD4
 73
     1
 44
0.8392857142857144
  0
MTEXT
  5
1DE
330
1F
100
AcDbEntity
  8
1
  6
Continuous
 62
     7
100
AcDbMText
 10
299.5024738942293
 20
4.637171665609486
 30
0.0
 40
7.0
 41
0.0
 71
     7
 72
     5
  1
{\fＭＳ 明朝|b0|i0|c128|p17;\W1.0;設}
  7
MTSTANDARD4
 73
     1
 44
0.8392857142857144
  0
MTEXT
  5
1DF
330
1F
100
AcDbEntity
  8
1
  6
Continuous
 62
     7
100
AcDbMText
 10
299.5024738942293
 20
-3.362820334390534
 30
0.0
 40
7.0
 41
0.0
 71
     7
 72
     5
  1
{\fＭＳ 明朝|b0|i0|c128|p17;\W1.0;計}
  7
MTSTANDARD4
 73
     1
 44
0.8392857142857144
  0
MTEXT
  5
1E0
330
1F
100
AcDbEntity
  8
1
  6
Continuous
 62
     7
100
AcDbMText
 10
343.5024638942295
 20
4.637171665609486
 30
0.0
 40
7.0
 41
0.0
 71
     7
 72
     5
  1
{\fＭＳ 明朝|b0|i0|c128|p17;\W1.0;照}
  7
MTSTANDARD4
 73
     1
 44
0.8392857142857144
  0
MTEXT
  5
1E2
330
1F
100
AcDbEntity
  8
1
  6
Continuous
 62
     7
100
AcDbMText
 10
356.9326467570913
 20
1.738868798135655
 30
0.0
 40
5.0
 41
0.0
 71
     7
 72
     5
  1
{\fＭＳ 明朝|b0|i0|c128|p17;\W1.0;2006.03.23}
  7
MTSTANDARD5
 73
     1
 44
0.875
  0
MTEXT
  5
1E3
330
1F
100
AcDbEntity
  8
1
  6
Continuous
 62
     7
100
AcDbMText
 10
400.4655766961077
 20
1.738868798135655
 30
0.0
 40
5.0
 41
0.0
 71
     7
 72
     5
  1
{\fＭＳ 明朝|b0|i0|c128|p17;\W1.0;2006.03.23}
  7
MTSTANDARD5
 73
     1
 44
0.875
  0
LINE
  5
1E4
330
1F
100
AcDbEntity
  8
1
  6
Continuous
 62
     7
100
AcDbLine
 10
660.0023188942298
 20
707.4180984005011
 30
0.0
 11
1194.00231889423
 21
707.4180984005011
 31
0.0
  0
LINE
  5
1E5
330
1F
100
AcDbEntity
  8
1
  6
Continuous
 62
     7
100
AcDbLine
 10
1194.00231889423
 20
707.4180984005011
 30
0.0
 11
1194.00231889423
 21
-32.58190159949845
 31
0.0
  0
LINE
  5
1E6
330
1F
100
AcDbEntity
  8
1
  6
Continuous
 62
     7
100
AcDbLine
 10
660.0023188942298
 20
-32.58190159949845
 30
0.0
 11
660.0023188942298
 21
707.4180984005011
 31
0.0
  0
LINE
  5
1E7
330
1F
100
AcDbEntity
  8
1
  6
Continuous
 62
     7
100
AcDbLine
 10
660.0023188942298
 20
-32.58190159949845
 30
0.0
 11
1194.00231889423
 21
-32.58190159949845
 31
0.0
  0
MTEXT
  5
1E8
330
1F
100
AcDbEntity
  8
1
  6
Continuous
 62
     7
100
AcDbMText
 10
971.8327242730481
 20
71.68983250166411
 30
0.0
 40
10.0
 41
0.0
 71
     7
 72
     5
  1
{\fＭＳ 明朝|b0|i0|c128|p17;\W1.0;・呼び径１３～２０に適用}
  7
MTSTANDARD
 73
     1
 44
0.875
  0
LINE
  5
1E9
330
1F
100
AcDbEntity
  8
1
  6
Continuous
 62
     7
100
AcDbLine
 10
944.7096245979178
 20
311.6762457836847
 30
0.0
 11
844.7096245979178
 21
311.6762457836847
 31
0.0
  0
LINE
  5
1EA
330
1F
100
AcDbEntity
  8
1
  6
Continuous
 62
     7
100
AcDbLine
 10
844.7096245979178
 20
311.6762457836847
 30
0.0
 11
844.7096245979178
 21
330.6762457836846
 31
0.0
  0
LINE
  5
1EB
330
1F
100
AcDbEntity
  8
1
  6
Continuous
 62
     7
100
AcDbLine
 10
853.7096245979178
 20
330.6762457836846
 30
0.0
 11
853.7096245979178
 21
311.6762457836847
 31
0.0
  0
LINE
  5
1EC
330
1F
100
AcDbEntity
  8
1
  6
CENTER2
 62
     7
100
AcDbLine
 10
944.7096245979178
 20
335.4212841959758
 30
0.0
 11
944.7096245979178
 21
175.909120303531
 31
0.0
  0
HATCH
  5
1ED
330
1F
100
AcDbEntity
  8
1
  6
Continuous
 62
     7
100
AcDbHatch
 10
0.0
 20
0.0
 30
0.0
210
0.0
220
0.0
230
1.0
  2
_U
 70
     0
 71
     0
 91
        1
 92
        0
 93
        4
 72
     1
 10
844.7096245979178
 20
330.6762457836846
 11
844.7096245979178
 21
311.6762457836847
 72
     1
 10
844.7096245979178
 20
311.6762457836847
 11
853.7096245979178
 21
311.6762457836847
 72
     1
 10
853.7096245979178
 20
311.6762457836847
 11
853.7096245979178
 21
330.6762457836846
 72
     1
 10
853.7096245979178
 20
330.6762457836846
 11
844.7096245979178
 21
330.6762457836846
 97
        0
 75
     0
 76
     0
 52
45.0
 41
3.0
 77
     0
 78
     1
 53
45.0
 43
0.0
 44
0.0
 45
-2.121320343559642
 46
2.121320343559643
 79
     0
 98
        1
 10
0.0
 20
0.0
  0
LINE
  5
1EE
330
1F
100
AcDbEntity
  8
1
  6
Continuous
 62
     7
100
AcDbLine
 10
863.7096245979178
 20
327.6762457836822
 30
0.0
 11
853.7096245979178
 21
327.6762457836824
 31
0.0
  0
LINE
  5
1EF
330
1F
100
AcDbEntity
  8
1
  6
Continuous
 62
     7
100
AcDbLine
 10
855.7096245979178
 20
312.6762457836824
 30
0.0
 11
853.7096245979178
 21
312.6762457836824
 31
0.0
  0
LINE
  5
1F0
330
1F
100
AcDbEntity
  8
1
  6
Continuous
 62
     7
100
AcDbLine
 10
863.7096245979178
 20
327.6762457836824
 30
0.0
 11
863.7096245979178
 21
325.6762457836824
 31
0.0
  0
LINE
  5
1F1
330
1F
100
AcDbEntity
  8
1
  6
Continuous
 62
     7
100
AcDbLine
 10
863.7096245979178
 20
325.6762457836824
 30
0.0
 11
855.7096245979178
 21
325.6762457836824
 31
0.0
  0
LINE
  5
1F2
330
1F
100
AcDbEntity
  8
1
  6
Continuous
 62
     7
100
AcDbLine
 10
855.7096245979178
 20
325.6762457836824
 30
0.0
 11
855.7096245979178
 21
312.6762457836824
 31
0.0
  0
HATCH
  5
1F3
330
1F
100
AcDbEntity
  8
1
  6
Continuous
 62
     7
100
AcDbHatch
 10
0.0
 20
0.0
 30
0.0
210
0.0
220
0.0
230
1.0
  2
_U
 70
     0
 71
     0
 91
        1
 92
        0
 93
        6
 72
     1
 10
855.7096245979178
 20
312.6762457836824
 11
855.7096245979178
 21
325.6762457836824
 72
     1
 10
855.7096245979178
 20
325.6762457836824
 11
863.7096245979178
 21
325.6762457836824
 72
     1
 10
863.7096245979178
 20
325.6762457836824
 11
863.7096245979178
 21
327.6762457836824
 72
     1
 10
863.7096245979178
 20
327.6762457836824
 11
853.7096245979178
 21
327.6762457836835
 72
     1
 10
853.7096245979178
 20
327.6762457836835
 11
853.7096245979178
 21
312.6762457836824
 72
     1
 10
853.7096245979178
 20
312.6762457836824
 11
855.7096245979178
 21
312.6762457836824
 97
        0
 75
     0
 76
     0
 52
315.0
 41
3.0
 77
     0
 78
     1
 53
315.0
 43
0.0
 44
0.0
 45
2.121320343559643
 46
2.121320343559642
 79
     0
 98
        1
 10
0.0
 20
0.0
  0
LINE
  5
1F4
330
1F
100
AcDbEntity
  8
1
  6
Continuous
 62
     7
100
AcDbLine
 10
944.7096245979178
 20
317.1762457836846
 30
0.0
 11
894.7096245979177
 21
317.1762457836846
 31
0.0
  0
LINE
  5
1F5
330
1F
100
AcDbEntity
  8
1
  6
Continuous
 62
     7
100
AcDbLine
 10
907.8586824194406
 20
327.1762457836845
 30
0.0
 11
944.7096245979178
 21
327.1762457836845
 31
0.0
  0
LINE
  5
1F6
330
1F
100
AcDbEntity
  8
1
  6
Continuous
 62
     7
100
AcDbLine
 10
853.7096245979176
 20
311.6762457836847
 30
0.0
 11
853.7096245979176
 21
180.6762457836847
 31
0.0
  0
LINE
  5
1F7
330
1F
100
AcDbEntity
  8
1
  6
Continuous
 62
     7
100
AcDbLine
 10
850.7096245979178
 20
202.1762457836849
 30
0.0
 11
852.2096245979178
 21
202.1762457836849
 31
0.0
  0
LINE
  5
1F8
330
1F
100
AcDbEntity
  8
1
  6
Continuous
 62
     7
100
AcDbLine
 10
852.2096245979176
 20
310.6762457836847
 30
0.0
 11
851.2096245979176
 21
311.6762457836847
 31
0.0
  0
LINE
  5
1F9
330
1F
100
AcDbEntity
  8
1
  6
Continuous
 62
     7
100
AcDbLine
 10
852.0969336387997
 20
310.9542012568796
 30
0.0
 11
852.1165519305359
 21
311.568253788223
 31
0.0
  0
LINE
  5
1FA
330
1F
100
AcDbEntity
  8
1
  6
Continuous
 62
     7
100
AcDbLine
 10
852.1165519305359
 20
311.568253788223
 30
0.0
 11
851.3887133071225
 21
311.5859102507856
 31
0.0
  0
LINE
  5
1FB
330
1F
100
AcDbEntity
  8
1
  6
Continuous
 62
     7
100
AcDbLine
 10
851.3887133071225
 20
311.5859102507856
 30
0.0
 11
851.9439109632573
 21
311.0974147865539
 31
0.0
  0
LINE
  5
1FC
330
1F
100
AcDbEntity
  8
1
  6
Continuous
 62
     7
100
AcDbLine
 10
851.9439109632573
 20
311.0974147865539
 30
0.0
 11
852.0400405927647
 21
311.4780096462364
 31
0.0
  0
LINE
  5
1FD
330
1F
100
AcDbEntity
  8
1
  6
Continuous
 62
     7
100
AcDbLine
 10
852.0400405927647
 20
311.4780096462364
 30
0.0
 11
851.6947586582074
 21
311.4603531836739
 31
0.0
  0
LINE
  5
1FE
330
1F
100
AcDbEntity
  8
1
  6
Continuous
 62
     7
100
AcDbLine
 10
851.6947586582074
 20
311.4603531836739
 30
0.0
 11
851.8870179172222
 21
311.277903070527
 31
0.0
  0
LINE
  5
1FF
330
1F
100
AcDbEntity
  8
1
  6
Continuous
 62
     7
100
AcDbLine
 10
852.2096245979178
 20
230.6762457836847
 30
0.0
 11
853.7096245979176
 21
230.6762457836847
 31
0.0
  0
HATCH
  5
200
330
1F
100
AcDbEntity
  8
1
  6
Continuous
 62
     7
100
AcDbHatch
 10
0.0
 20
0.0
 30
0.0
210
0.0
220
0.0
230
1.0
  2
_U
 70
     0
 71
     0
 91
        1
 92
        0
 93
        4
 72
     1
 10
852.2096245979178
 20
230.6762457836847
 11
853.7096245979176
 21
230.6762457836848
 72
     1
 10
853.7096245979176
 20
230.6762457836848
 11
853.7096245979176
 21
311.6762457836847
 72
     1
 10
853.7096245979176
 20
311.6762457836847
 11
852.2096245979178
 21
311.6762457836847
 72
     1
 10
852.2096245979178
 20
311.6762457836847
 11
852.2096245979178
 21
230.6762457836848
 97
        0
 75
     0
 76
     0
 52
45.0
 41
3.0
 77
     0
 78
     1
 53
45.0
 43
0.0
 44
0.0
 45
-2.121320343559642
 46
2.121320343559643
 79
     0
 98
        1
 10
0.0
 20
0.0
  0
LINE
  5
201
330
1F
100
AcDbEntity
  8
1
  6
Continuous
 62
     7
100
AcDbLine
 10
850.7096245979178
 20
311.6762457836847
 30
0.0
 11
850.7096245979178
 21
180.6762457836847
 31
0.0
  0
LINE
  5
202
330
1F
100
AcDbEntity
  8
1
  6
Continuous
 62
     7
100
AcDbLine
 10
852.2096245979177
 20
311.6762457836847
 30
0.0
 11
852.2096245979178
 21
180.6762457836847
 31
0.0
  0
LINE
  5
203
330
1F
100
AcDbEntity
  8
1
  6
Continuous
 62
     7
100
AcDbLine
 10
862.2096245979176
 20
180.6762457836847
 30
0.0
 11
862.2096245979176
 21
182.1762457836847
 31
0.0
  0
LINE
  5
204
330
1F
100
AcDbEntity
  8
1
  6
Continuous
 62
     7
100
AcDbLine
 10
862.2096245979176
 20
182.1762457836847
 30
0.0
 11
858.2096245979177
 21
182.1762457836847
 31
0.0
  0
LINE
  5
205
330
1F
100
AcDbEntity
  8
1
  6
Continuous
 62
     7
100
AcDbLine
 10
858.2096245979177
 20
182.1762457836847
 30
0.0
 11
858.2096245979177
 21
180.6762457836847
 31
0.0
  0
LINE
  5
206
330
1F
100
AcDbEntity
  8
1
  6
Continuous
 62
     7
100
AcDbLine
 10
850.7096245979177
 20
180.6762457836847
 30
0.0
 11
858.2096245979177
 21
180.6762457836847
 31
0.0
  0
LINE
  5
207
330
1F
100
AcDbEntity
  8
1
  6
Continuous
 62
     7
100
AcDbLine
 10
862.2096245979176
 20
180.6762457836847
 30
0.0
 11
944.7096245979178
 21
180.6762457836847
 31
0.0
  0
LINE
  5
208
330
1F
100
AcDbEntity
  8
1
  6
HIDDEN
 62
     7
100
AcDbLine
 10
862.2096245979176
 20
182.1762457836847
 30
0.0
 11
944.7096245979178
 21
182.1762457836847
 31
0.0
  0
LINE
  5
209
330
1F
100
AcDbEntity
  8
1
  6
Continuous
 62
     7
100
AcDbLine
 10
1044.709624597918
 20
330.6762457836846
 30
0.0
 11
944.7096245979178
 21
330.6762457836846
 31
0.0
  0
LINE
  5
20A
330
1F
100
AcDbEntity
  8
1
  6
Continuous
 62
     7
100
AcDbLine
 10
944.7096245979178
 20
311.6762457836847
 30
0.0
 11
1044.709624597918
 21
311.6762457836847
 31
0.0
  0
LINE
  5
20B
330
1F
100
AcDbEntity
  8
1
  6
Continuous
 62
     7
100
AcDbLine
 10
1044.709624597918
 20
311.6762457836847
 30
0.0
 11
1044.709624597918
 21
330.6762457836846
 31
0.0
  0
LINE
  5
20C
330
1F
100
AcDbEntity
  8
1
  6
Continuous
 62
     7
100
AcDbLine
 10
1037.209624597918
 20
311.6762457836847
 30
0.0
 11
1037.209624597918
 21
180.6762457836848
 31
0.0
  0
LINE
  5
20D
330
1F
100
AcDbEntity
  8
1
  6
Continuous
 62
     7
100
AcDbLine
 10
944.7096245979178
 20
182.1762457836848
 30
0.0
 11
1031.861971759852
 21
182.1762457836848
 31
0.0
  0
LINE
  5
20E
330
1F
100
AcDbEntity
  8
1
  6
Continuous
 62
     7
100
AcDbLine
 10
1031.861971759852
 20
182.1762457836848
 30
0.0
 11
1031.861971759852
 21
180.6762457836848
 31
0.0
  0
LINE
  5
20F
330
1F
100
AcDbEntity
  8
1
  6
Continuous
 62
     7
100
AcDbLine
 10
1037.209624597918
 20
180.6762457836848
 30
0.0
 11
944.7096245979178
 21
180.6762457836848
 31
0.0
  0
CIRCLE
  5
210
330
1F
100
AcDbEntity
  8
1
  6
Continuous
 62
     7
100
AcDbCircle
 10
1022.209624597918
 20
322.1762457836847
 30
0.0
 40
4.0
  0
INSERT
  5
217
330
1F
100
AcDbEntity
  8
1
  6
Continuous
 62
     7
100
AcDbBlockReference
  2
HOLE1
 10
1022.209624597918
 20
322.1762457836847
 30
0.0
  0
LINE
  5
218
330
1F
100
AcDbEntity
  8
2
  6
Continuous
 62
     7
100
AcDbLine
 10
855.7096245979178
 20
327.6762457836836
 30
0.0
 11
855.7096245979178
 21
330.6762457836836
 31
0.0
  0
LINE
  5
219
330
1F
100
AcDbEntity
  8
2
  6
Continuous
 62
     7
100
AcDbLine
 10
944.7096245979178
 20
327.6762457836836
 30
0.0
 11
855.7096245979178
 21
327.6762457836836
 31
0.0
  0
LINE
  5
21A
330
1F
100
AcDbEntity
  8
2
  6
Continuous
 62
     7
100
AcDbLine
 10
844.7096245979178
 20
330.6762457836836
 30
0.0
 11
944.7096245979178
 21
330.6762457836836
 31
0.0
  0
LINE
  5
21B
330
1F
100
AcDbEntity
  8
1
  6
Continuous
 62
     7
100
AcDbLine
 10
1044.709624597918
 20
604.3720420794275
 30
0.0
 11
844.7096245979178
 21
604.3720420794275
 31
0.0
  0
LINE
  5
21C
330
1F
100
AcDbEntity
  8
1
  6
Continuous
 62
     7
100
AcDbLine
 10
844.7096245979178
 20
604.3720420794275
 30
0.0
 11
844.7096245979178
 21
454.3720420794275
 31
0.0
  0
LINE
  5
21D
330
1F
100
AcDbEntity
  8
1
  6
Continuous
 62
     7
100
AcDbLine
 10
844.7096245979178
 20
454.3720420794275
 30
0.0
 11
1044.709624597918
 21
454.3720420794275
 31
0.0
  0
LINE
  5
21E
330
1F
100
AcDbEntity
  8
1
  6
Continuous
 62
     7
100
AcDbLine
 10
1044.709624597918
 20
454.3720420794275
 30
0.0
 11
1044.709624597918
 21
604.3720420794275
 31
0.0
  0
LINE
  5
21F
330
1F
100
AcDbEntity
  8
1
  6
Continuous
 62
     7
100
AcDbLine
 10
1035.709624597918
 20
595.3720420794275
 30
0.0
 11
1035.709624597918
 21
463.3720420794275
 31
0.0
  0
LINE
  5
220
330
1F
100
AcDbEntity
  8
1
  6
Continuous
 62
     7
100
AcDbLine
 10
1035.709624597918
 20
463.3720420794275
 30
0.0
 11
853.7096245979178
 21
463.3720420794275
 31
0.0
  0
LINE
  5
221
330
1F
100
AcDbEntity
  8
1
  6
Continuous
 62
     7
100
AcDbLine
 10
853.7096245979178
 20
463.3720420794275
 30
0.0
 11
853.7096245979178
 21
595.3720420794275
 31
0.0
  0
LINE
  5
222
330
1F
100
AcDbEntity
  8
1
  6
Continuous
 62
     7
100
AcDbLine
 10
853.7096245979178
 20
595.3720420794275
 30
0.0
 11
1035.709624597918
 21
595.3720420794275
 31
0.0
  0
LINE
  5
223
330
1F
100
AcDbEntity
  8
1
  6
CENTER2
 62
     7
100
AcDbLine
 10
841.1348989174785
 20
529.3720420794275
 30
0.0
 11
1051.064901349741
 21
529.3720420794275
 31
0.0
  0
LINE
  5
224
330
1F
100
AcDbEntity
  8
1
  6
CENTER2
 62
     7
100
AcDbLine
 10
944.7096245979178
 20
622.7352192667854
 30
0.0
 11
944.7096245979178
 21
433.5337728248675
 31
0.0
  0
LINE
  5
225
330
1F
100
AcDbEntity
  8
1
  6
Continuous
 62
     7
100
AcDbLine
 10
857.1255557265781
 20
604.3720420794275
 30
0.0
 11
867.1255557265781
 21
610.3720420794275
 31
0.0
  0
LINE
  5
226
330
1F
100
AcDbEntity
  8
1
  6
Continuous
 62
     7
100
AcDbLine
 10
867.1255557265781
 20
610.3720420794275
 30
0.0
 11
1022.774293301384
 21
610.3720420794275
 31
0.0
  0
LINE
  5
227
330
1F
100
AcDbEntity
  8
1
  6
Continuous
 62
     7
100
AcDbLine
 10
1022.774293301384
 20
610.3720420794275
 30
0.0
 11
1032.774293301384
 21
604.3720420794276
 31
0.0
  0
LINE
  5
228
330
1F
100
AcDbEntity
  8
1
  6
Continuous
 62
     7
100
AcDbLine
 10
1031.861971759852
 20
454.3720420794275
 30
0.0
 11
1021.861971759852
 21
448.3720420794275
 31
0.0
  0
LINE
  5
229
330
1F
100
AcDbEntity
  8
1
  6
Continuous
 62
     7
100
AcDbLine
 10
1021.861971759852
 20
448.3720420794275
 30
0.0
 11
866.7722379030571
 21
448.3720420794275
 31
0.0
  0
LINE
  5
22A
330
1F
100
AcDbEntity
  8
1
  6
Continuous
 62
     7
100
AcDbLine
 10
866.7722379030571
 20
448.3720420794275
 30
0.0
 11
856.7722379030571
 21
454.3720420794275
 31
0.0
  0
LINE
  5
22B
330
1F
100
AcDbEntity
  8
2
  6
Continuous
 62
     7
100
AcDbLine
 10
1033.709624597918
 20
594.8720420794275
 30
0.0
 11
855.7096245979178
 21
594.8720420794275
 31
0.0
  0
LINE
  5
22C
330
1F
100
AcDbEntity
  8
2
  6
HIDDEN
 62
     7
100
AcDbLine
 10
1015.209624597918
 20
592.3720420794274
 30
0.0
 11
1028.209624597918
 21
592.3720420794274
 31
0.0
  0
LINE
  5
22D
330
1F
100
AcDbEntity
  8
2
  6
HIDDEN
 62
     7
100
AcDbLine
 10
1028.209624597918
 20
592.3720420794274
 30
0.0
 11
1028.209624597918
 21
577.3720420794274
 31
0.0
  0
LINE
  5
22E
330
1F
100
AcDbEntity
  8
2
  6
HIDDEN
 62
     7
100
AcDbLine
 10
1028.209624597918
 20
577.3720420794274
 30
0.0
 11
1015.209624597918
 21
577.3720420794274
 31
0.0
  0
LINE
  5
22F
330
1F
100
AcDbEntity
  8
2
  6
HIDDEN
 62
     7
100
AcDbLine
 10
1015.209624597918
 20
577.3720420794274
 30
0.0
 11
1015.209624597918
 21
592.3720420794274
 31
0.0
  0
LINE
  5
230
330
1F
100
AcDbEntity
  8
2
  6
Continuous
 62
     7
100
AcDbLine
 10
855.7096245979178
 20
463.8720420794275
 30
0.0
 11
1033.709624597918
 21
463.8720420794275
 31
0.0
  0
LINE
  5
231
330
1F
100
AcDbEntity
  8
2
  6
HIDDEN
 62
     7
100
AcDbLine
 10
1015.209624597918
 20
481.3720420794274
 30
0.0
 11
1015.209624597918
 21
466.3720420794274
 31
0.0
  0
LINE
  5
232
330
1F
100
AcDbEntity
  8
2
  6
HIDDEN
 62
     7
100
AcDbLine
 10
1015.209624597918
 20
466.3720420794274
 30
0.0
 11
1028.209624597918
 21
466.3720420794274
 31
0.0
  0
LINE
  5
233
330
1F
100
AcDbEntity
  8
2
  6
HIDDEN
 62
     7
100
AcDbLine
 10
1028.209624597918
 20
466.3720420794274
 30
0.0
 11
1028.209624597918
 21
481.3720420794274
 31
0.0
  0
LINE
  5
234
330
1F
100
AcDbEntity
  8
2
  6
HIDDEN
 62
     7
100
AcDbLine
 10
1028.209624597918
 20
481.3720420794274
 30
0.0
 11
1015.209624597918
 21
481.3720420794274
 31
0.0
  0
LINE
  5
235
330
1F
100
AcDbEntity
  8
2
  6
Continuous
 62
     7
100
AcDbLine
 10
855.7096245979178
 20
594.8720420794275
 30
0.0
 11
855.7096245979178
 21
463.8720420794275
 31
0.0
  0
LINE
  5
236
330
1F
100
AcDbEntity
  8
2
  6
Continuous
 62
     7
100
AcDbLine
 10
1033.709624597918
 20
463.8720420794275
 30
0.0
 11
1033.709624597918
 21
594.8720420794275
 31
0.0
  0
LINE
  5
237
330
1F
100
AcDbEntity
  8
2
  6
CENTER2
 62
     7
100
AcDbLine
 10
887.7096245979178
 20
546.6655637386482
 30
0.0
 11
887.7096245979178
 21
512.0785204202068
 31
0.0
  0
MTEXT
  5
238
330
1F
100
AcDbEntity
  8
4
  6
Continuous
 62
     7
100
AcDbMText
 10
915.5096245979178
 20
517.3720420794274
 30
0.0
 40
24.0
 41
0.0
 71
     7
 72
     5
  1
{\fHG丸ｺﾞｼｯｸM-PRO|b1|i0|c128|p50;\W1.0;散}
  7
MTSTANDARD1
 73
     1
 44
0.6875
  0
MTEXT
  5
239
330
1F
100
AcDbEntity
  8
4
  6
Continuous
 62
     7
100
AcDbMText
 10
950.509624597918
 20
517.3720420794274
 30
0.0
 40
24.0
 41
0.0
 71
     7
 72
     5
  1
{\fHG丸ｺﾞｼｯｸM-PRO|b1|i0|c128|p50;\W1.0;水}
  7
MTSTANDARD1
 73
     1
 44
0.6875
  0
MTEXT
  5
23A
330
1F
100
AcDbEntity
  8
4
  6
Continuous
 62
     7
100
AcDbMText
 10
985.5096245979178
 20
517.3720420794274
 30
0.0
 40
24.0
 41
0.0
 71
     7
 72
     5
  1
{\fHG丸ｺﾞｼｯｸM-PRO|b1|i0|c128|p50;\W1.0;栓}
  7
MTSTANDARD1
 73
     1
 44
0.6875
  0
DIMENSION
  5
247
330
1F
100
AcDbEntity
  8
1
  6
ByBlock
 62
     3
100
AcDbDimension
  2
_D12
 10
1037.209624597918
 20
150.1681134935426
 30
0.0
 11
944.7096245979178
 21
156.1681134935426
 31
0.0
 70
   160
 71
     5
 42
-1.0
 52
90.0
  3
DIMSTYEX_1
100
AcDbAlignedDimension
 13
852.2096245979178
 23
180.6762457836847
 33
0.0
 14
1037.209624597918
 24
180.6762457836848
 34
0.0
100
AcDbRotatedDimension
1001
ACAD
1000
DSTYLE
1002
{
1070
    41
1040
2.0
1070
   343
1005
88
1070
   344
1005
88
1070
   176
1070
     3
1070
   177
1070
     3
1070
   178
1070
     2
1070
    43
1040
7.0
1070
   173
1070
     1
1070
   272
1070
     3
1070
   340
1005
83
1070
   140
1040
3.584
1002
}
  0
DIMENSION
  5
25A
330
1F
100
AcDbEntity
  8
1
  6
ByBlock
 62
     3
100
AcDbDimension
  2
_D13
 10
853.7096245979176
 20
279.8971198672003
 30
0.0
 11
843.2027653041416
 21
291.6539791609764
 31
0.0
 70
   160
 71
     5
 42
-1.0
 52
90.0
  3
DIMSTYEX_2
100
AcDbAlignedDimension
 13
852.2096245979177
 23
268.661577511
 33
0.0
 14
853.7096245979176
 24
268.661577511
 34
0.0
100
AcDbRotatedDimension
1001
ACAD
1000
DSTYLE
1002
{
1070
    41
1040
2.0
1070
   343
1005
88
1070
   344
1005
88
1070
   176
1070
     3
1070
   177
1070
     3
1070
   178
1070
     2
1070
    43
1040
7.0
1070
   147
1040
2.0
1070
   173
1070
     1
1070
   272
1070
     3
1070
   279
1070
     1
1070
   340
1005
83
1070
   140
1040
3.584
1002
}
  0
DIMENSION
  5
267
330
1F
100
AcDbEntity
  8
1
  6
ByBlock
 62
     3
100
AcDbDimension
  2
_D14
 10
811.8102223177721
 20
330.6762457836836
 30
0.0
 11
805.8102223177721
 21
255.6762457836842
 31
0.0
 70
   160
 71
     5
 42
-1.0
 52
90.0
  3
DIMSTYEX_1
100
AcDbAlignedDimension
 13
850.7096245979177
 23
180.6762457836847
 33
0.0
 14
843.813582099604
 24
330.6762457836836
 34
0.0
 50
90.0
100
AcDbRotatedDimension
1001
ACAD
1000
DSTYLE
1002
{
1070
    41
1040
2.0
1070
   343
1005
88
1070
   344
1005
88
1070
   176
1070
     3
1070
   177
1070
     3
1070
   178
1070
     2
1070
    43
1040
7.0
1070
   173
1070
     1
1070
   272
1070
     3
1070
   340
1005
83
1070
   140
1040
3.584
1002
}
  0
DIMENSION
  5
272
330
1F
100
AcDbEntity
  8
1
  6
ByBlock
 62
     3
100
AcDbDimension
  2
_D15
 10
855.7096245979178
 20
363.3504874829653
 30
0.0
 11
944.7096245979178
 21
369.3504874829653
 31
0.0
 70
   160
 71
     5
 42
-1.0
 52
90.0
  3
DIMSTYEX_3
100
AcDbAlignedDimension
 13
1033.709624597918
 23
330.6762457836836
 33
0.0
 14
855.7096245979178
 24
330.6762457836836
 34
0.0
100
AcDbRotatedDimension
1001
ACAD
1000
DSTYLE
1002
{
1070
    41
1040
2.0
1070
   343
1005
AE
1070
   344
1005
88
1070
   176
1070
     3
1070
   177
1070
     3
1070
   178
1070
     2
1070
    43
1040
7.0
1070
   173
1070
     1
1070
   281
1070
     1
1070
    75
1070
     1
1070
    77
1070
     1
1070
   272
1070
     3
1070
   340
1005
83
1070
   140
1040
3.584
1002
}
  0
DIMENSION
  5
27F
330
1F
100
AcDbEntity
  8
1
  6
ByBlock
 62
     3
100
AcDbDimension
  2
_D16
 10
1044.709624597918
 20
377.3504874829653
 30
0.0
 11
944.7096245979178
 21
383.3504874829653
 31
0.0
 70
   160
 71
     5
 42
-1.0
 52
90.0
  3
DIMSTYEX_1
100
AcDbAlignedDimension
 13
844.7096245979178
 23
330.6762457836846
 33
0.0
 14
1044.709624597918
 24
330.6762457836846
 34
0.0
100
AcDbRotatedDimension
1001
ACAD
1000
DSTYLE
1002
{
1070
    41
1040
2.0
1070
   343
1005
88
1070
   344
1005
88
1070
   176
1070
     3
1070
   177
1070
     3
1070
   178
1070
     2
1070
    43
1040
7.0
1070
   173
1070
     1
1070
   272
1070
     3
1070
   340
1005
83
1070
   140
1040
3.584
1002
}
  0
DIMENSION
  5
28C
330
1F
100
AcDbEntity
  8
1
  6
ByBlock
 62
     3
100
AcDbDimension
  2
_D17
 10
823.7096245979178
 20
463.8720420794276
 30
0.0
 11
817.7096245979178
 21
529.3720420794275
 31
0.0
 70
   160
  1
１３０
 71
     5
 42
-1.0
 52
90.0
  3
DIMSTYEX_1
100
AcDbAlignedDimension
 13
855.7096245979178
 23
594.8720420794275
 33
0.0
 14
855.7096245979178
 24
463.8720420794276
 34
0.0
 50
-90.0
100
AcDbRotatedDimension
1001
ACAD
1000
DSTYLE
1002
{
1070
    41
1040
2.0
1070
   343
1005
88
1070
   344
1005
88
1070
   176
1070
     3
1070
   177
1070
     3
1070
   178
1070
     2
1070
    43
1040
7.0
1070
   173
1070
     1
1070
   272
1070
     3
1070
   340
1005
83
1070
   140
1040
3.584
1002
}
  0
DIMENSION
  5
299
330
1F
100
AcDbEntity
  8
1
  6
ByBlock
 62
     3
100
AcDbDimension
  2
_D18
 10
809.7096245979178
 20
454.3720420794275
 30
0.0
 11
803.7096245979178
 21
529.3720420794275
 31
0.0
 70
   160
 71
     5
 42
-1.0
 52
90.0
  3
DIMSTYEX_1
100
AcDbAlignedDimension
 13
844.7096245979178
 23
604.3720420794275
 33
0.0
 14
844.7096245979178
 24
454.3720420794275
 34
0.0
 50
-90.0
100
AcDbRotatedDimension
1001
ACAD
1000
DSTYLE
1002
{
1070
    41
1040
2.0
1070
   343
1005
88
1070
   344
1005
88
1070
   176
1070
     3
1070
   177
1070
     3
1070
   178
1070
     2
1070
    43
1040
7.0
1070
   173
1070
     1
1070
   272
1070
     3
1070
   340
1005
83
1070
   140
1040
3.584
1002
}
  0
DIMENSION
  5
2A6
330
1F
100
AcDbEntity
  8
1
  6
ByBlock
 62
     3
100
AcDbDimension
  2
_D19
 10
887.7148319950318
 20
553.1199531963058
 30
0.0
 11
871.7170640695363
 21
559.1259049802168
 31
0.0
 70
   161
 71
     5
 42
-1.0
 52
90.0
  3
DIMSTYEX_1
100
AcDbAlignedDimension
 13
855.7096245979178
 23
539.13394647761
 33
0.0
 14
887.7096245979178
 24
539.1220420794285
 34
0.0
1001
ACAD
1000
DSTYLE
1002
{
1070
    41
1040
2.0
1070
   343
1005
88
1070
   344
1005
88
1070
   176
1070
     3
1070
   177
1070
     3
1070
   178
1070
     2
1070
    43
1040
7.0
1070
   173
1070
     1
1070
   272
1070
     3
1070
   340
1005
83
1070
   140
1040
3.584
1002
}
  0
INSERT
  5
2AE
330
1F
100
AcDbEntity
  8
1
  6
ByBlock
 62
     3
100
AcDbBlockReference
  2
BALN2
 10
862.2150000000001
 20
328.7644133099819
 30
0.0
  0
INSERT
  5
2B6
330
1F
100
AcDbEntity
  8
1
  6
ByBlock
 62
     3
100
AcDbBlockReference
  2
BALN3
 10
844.7096245979178
 20
318.3622817453067
 30
0.0
  0
LINE
  5
2B7
330
1F
100
AcDbEntity
  8
1
  6
Continuous
 62
     7
100
AcDbLine
 10
876.4596245979178
 20
330.6762457836836
 30
0.0
 11
876.4596245979178
 21
327.6762457836835
 31
0.0
  0
LINE
  5
2B8
330
1F
100
AcDbEntity
  8
1
  6
Continuous
 62
     7
100
AcDbLine
 10
898.9596245979178
 20
330.6762457836836
 30
0.0
 11
898.9596245979178
 21
327.6762457836835
 31
0.0
  0
HATCH
  5
2B9
330
1F
100
AcDbEntity
  8
1
  6
Continuous
 62
     7
100
AcDbHatch
 10
0.0
 20
0.0
 30
0.0
210
0.0
220
0.0
230
1.0
  2
_U
 70
     0
 71
     0
 91
        8
 92
        0
 93
       10
 72
     1
 10
876.4596245979149
 20
330.6762457836836
 11
855.7096245979178
 21
330.6762457836836
 72
     1
 10
855.7096245979178
 20
330.6762457836836
 11
855.7096245979178
 21
327.6762457836836
 72
     1
 10
855.7096245979178
 20
327.6762457836836
 11
863.7096245979178
 21
327.6762457836822
 72
     1
 10
863.7096245979178
 20
327.6762457836822
 11
853.7096245979178
 21
327.6762457836824
 72
     1
 10
853.7096245979178
 20
327.6762457836836
 11
853.7096245979178
 21
311.6762457836847
 72
     1
 10
853.7096245979178
 20
311.6762457836847
 11
944.7096245979178
 21
311.6762457836847
 72
     1
 10
944.7096245979178
 20
311.6762457836847
 11
1044.709624597918
 21
311.6762457836847
 72
     1
 10
1044.709624597918
 20
311.6762457836847
 11
1044.709624597918
 21
330.6762457836846
 72
     1
 10
1044.709624597918
 20
330.6762457836846
 11
944.7096245979178
 21
330.6762457836846
 72
     1
 10
944.7096245979178
 20
330.6762457836836
 11
876.4596245979149
 21
330.6762457836836
 97
        0
 92
        0
 93
        4
 72
     1
 10
898.9596245979178
 20
330.6762457836836
 11
876.4596245979149
 21
330.6762457836836
 72
     1
 10
876.4596245979178
 20
330.6762457836836
 11
876.4596245979178
 21
327.6762457836835
 72
     1
 10
876.4596245979149
 20
327.6762457836836
 11
898.9596245979178
 21
327.6762457836836
 72
     1
 10
898.9596245979178
 20
327.6762457836835
 11
898.9596245979178
 21
330.6762457836836
 97
        0
 92
        0
 93
       14
 72
     2
 10
894.7096245979177
 20
322.1762457836846
 40
1.0
 50
90.0
 51
270.0
 73
     0
 72
     1
 10
894.7096245979177
 20
323.1762457836846
 11
894.7096245979177
 21
327.1762457836845
 72
     1
 10
894.7096245979177
 20
327.1762457836845
 11
944.7096245979178
 21
327.1762457836845
 72
     1
 10
944.7096245979178
 20
327.1762457836845
 11
944.7096245979178
 21
327.6762457836836
 72
     1
 10
944.7096245979178
 20
327.6762457836836
 11
863.7096245979178
 21
327.6762457836836
 72
     1
 10
863.7096245979178
 20
327.6762457836824
 11
863.7096245979178
 21
325.6762457836824
 72
     1
 10
863.7096245979178
 20
325.6762457836824
 11
855.7096245979178
 21
325.6762457836824
 72
     1
 10
855.7096245979178
 20
325.6762457836824
 11
855.7096245979178
 21
312.6762457836824
 72
     1
 10
855.7096245979178
 20
312.6762457836824
 11
853.7096245979178
 21
312.6762457836824
 72
     1
 10
853.7096245979178
 20
312.6762457836824
 11
853.7096245979178
 21
311.6762457836847
 72
     1
 10
853.7096245979178
 20
311.6762457836847
 11
944.7096245979178
 21
311.6762457836847
 72
     1
 10
944.7096245979178
 20
311.6762457836847
 11
944.7096245979178
 21
317.1762457836846
 72
     1
 10
944.7096245979178
 20
317.1762457836846
 11
894.7096245979177
 21
317.1762457836846
 72
     1
 10
894.7096245979177
 20
317.1762457836846
 11
894.7096245979177
 21
321.1762457836846
 97
        0
 92
        0
 93
        6
 72
     1
 10
863.7096245979178
 20
327.6762457836822
 11
853.7096245979178
 21
327.6762457836824
 72
     1
 10
853.7096245979178
 20
327.6762457836836
 11
853.7096245979178
 21
312.6762457836824
 72
     1
 10
853.7096245979178
 20
312.6762457836824
 11
855.7096245979178
 21
312.6762457836824
 72
     1
 10
855.7096245979178
 20
312.6762457836824
 11
855.7096245979178
 21
325.6762457836824
 72
     1
 10
855.7096245979178
 20
325.6762457836824
 11
863.7096245979178
 21
325.6762457836824
 72
     1
 10
863.7096245979178
 20
325.6762457836824
 11
863.7096245979178
 21
327.6762457836824
 97
        0
 92
        0
 93
        4
 72
     1
 10
1044.709624597918
 20
330.6762457836846
 11
944.7096245979178
 21
330.6762457836846
 72
     1
 10
944.7096245979178
 20
330.6762457836846
 11
944.7096245979178
 21
311.6762457836847
 72
     1
 10
944.7096245979178
 20
311.6762457836847
 11
1044.709624597918
 21
311.6762457836847
 72
     1
 10
1044.709624597918
 20
311.6762457836847
 11
1044.709624597918
 21
330.6762457836846
 97
        0
 92
        0
 93
        6
 72
     1
 10
944.7096245979178
 20
327.1762457836845
 11
894.7096245979177
 21
327.1762457836845
 72
     1
 10
894.7096245979177
 20
327.1762457836845
 11
894.7096245979177
 21
323.1762457836846
 72
     2
 10
894.7096245979177
 20
322.1762457836846
 40
1.0
 50
270.0
 51
450.0
 73
     0
 72
     1
 10
894.7096245979177
 20
321.1762457836846
 11
894.7096245979177
 21
317.1762457836846
 72
     1
 10
894.7096245979177
 20
317.1762457836846
 11
944.7096245979178
 21
317.1762457836846
 72
     1
 10
944.7096245979178
 20
317.1762457836846
 11
944.7096245979178
 21
327.1762457836845
 97
        0
 92
        0
 93
        2
 72
     1
 10
894.7096245979177
 20
323.1762457836846
 11
894.7096245979177
 21
321.1762457836846
 72
     2
 10
894.7096245979177
 20
322.1762457836846
 40
1.0
 50
270.0
 51
450.0
 73
     1
 97
        0
 92
        0
 93
        2
 72
     2
 10
894.7096245979177
 20
322.1762457836846
 40
1.0
 50
90.0
 51
270.0
 73
     1
 72
     1
 10
894.7096245979177
 20
321.1762457836846
 11
894.7096245979177
 21
323.1762457836846
 97
        0
 75
     0
 76
     0
 52
45.0
 41
6.0
 77
     0
 78
     1
 53
45.0
 43
0.0
 44
0.0
 45
-4.242640687119285
 46
4.242640687119286
 79
     0
 98
        1
 10
0.0
 20
0.0
  0
DIMENSION
  5
2CD
330
1F
100
AcDbEntity
  8
1
  6
ByBlock
 62
     3
100
AcDbDimension
  2
_D20
 10
928.6407658260305
 20
330.6762457836836
 30
0.0
 11
935.4917080045077
 21
347.5312055614675
 31
0.0
 70
   160
 71
     5
 42
-1.0
 52
90.0
  3
DIMSTYEX_11
100
AcDbAlignedDimension
 13
876.4596245979178
 23
327.6762457836835
 33
0.0
 14
876.4596245979178
 24
330.6762457836836
 34
0.0
 50
90.0
100
AcDbRotatedDimension
1001
ACAD
1000
DSTYLE
1002
{
1070
    41
1040
2.0
1070
   343
1005
88
1070
   344
1005
88
1070
   176
1070
     3
1070
   177
1070
     3
1070
   178
1070
     2
1070
    43
1040
27.39104170329495
1070
   147
1040
2.0
1070
   173
1070
     1
1070
   272
1070
     3
1070
   279
1070
     1
1070
   340
1005
83
1070
   140
1040
3.584
1002
}
  0
DIMENSION
  5
2DA
330
1F
100
AcDbEntity
  8
1
  6
ByBlock
 62
     3
100
AcDbDimension
  2
_D21
 10
795.7096245979178
 20
610.3720420794275
 30
0.0
 11
789.7096245979178
 21
529.3720420794275
 31
0.0
 70
   160
 71
     5
 42
-1.0
 52
90.0
  3
DIMSTYEX_1
100
AcDbAlignedDimension
 13
866.7722379030571
 23
448.3720420794275
 33
0.0
 14
867.1255557265781
 24
610.3720420794275
 34
0.0
 50
90.0
100
AcDbRotatedDimension
1001
ACAD
1000
DSTYLE
1002
{
1070
    41
1040
2.0
1070
   343
1005
88
1070
   344
1005
88
1070
   176
1070
     3
1070
   177
1070
     3
1070
   178
1070
     2
1070
    43
1040
7.0
1070
   173
1070
     1
1070
   272
1070
     3
1070
   340
1005
83
1070
   140
1040
3.584
1002
}
  0
LINE
  5
2DB
330
1F
100
AcDbEntity
  8
1
  6
Continuous
 62
     7
100
AcDbLine
 10
1030.002448894229
 20
21.41807840050154
 30
0.0
 11
1030.002448894229
 21
-12.58192159949846
 31
0.0
  0
LINE
  5
2DC
330
1F
100
AcDbEntity
  8
1
  6
Continuous
 62
     7
100
AcDbLine
 10
1020.002458894229
 20
-12.58192159949846
 30
0.0
 11
1020.002458894229
 21
21.41807840050154
 31
0.0
  0
LINE
  5
2DD
330
1F
100
AcDbEntity
  8
1
  6
Continuous
 62
     7
100
AcDbLine
 10
986.0024588942298
 20
21.41807840050154
 30
0.0
 11
986.0024588942298
 21
-12.58192159949846
 31
0.0
  0
LINE
  5
2DE
330
1F
100
AcDbEntity
  8
1
  6
Continuous
 62
     7
100
AcDbLine
 10
976.0024688942295
 20
-12.58192159949846
 30
0.0
 11
976.0024688942295
 21
21.41807840050154
 31
0.0
  0
MTEXT
  5
2DF
330
1F
100
AcDbEntity
  8
1
  6
Continuous
 62
     7
100
AcDbMText
 10
977.5024638942297
 20
-3.362820334391074
 30
0.0
 40
7.0
 41
0.0
 71
     7
 72
     5
  1
{\fＭＳ 明朝|b0|i0|c128|p17;\W1.0;査}
  7
MTSTANDARD4
 73
     1
 44
0.8392857142857144
  0
MTEXT
  5
2E0
330
1F
100
AcDbEntity
  8
1
  6
Continuous
 62
     7
100
AcDbMText
 10
1021.502453894229
 20
-3.362820334391074
 30
0.0
 40
7.0
 41
0.0
 71
     7
 72
     5
  1
{\fＭＳ 明朝|b0|i0|c128|p17;\W1.0;認}
  7
MTSTANDARD4
 73
     1
 44
0.8392857142857144
  0
MTEXT
  5
2E1
330
1F
100
AcDbEntity
  8
1
  6
Continuous
 62
     7
100
AcDbMText
 10
1021.502453894229
 20
4.637171665608946
 30
0.0
 40
7.0
 41
0.0
 71
     7
 72
     5
  1
{\fＭＳ 明朝|b0|i0|c128|p17;\W1.0;承}
  7
MTSTANDARD4
 73
     1
 44
0.8392857142857144
  0
MTEXT
  5
2E2
330
1F
100
AcDbEntity
  8
1
  6
Continuous
 62
     7
100
AcDbMText
 10
933.5024738942294
 20
4.637171665608946
 30
0.0
 40
7.0
 41
0.0
 71
     7
 72
     5
  1
{\fＭＳ 明朝|b0|i0|c128|p17;\W1.0;設}
  7
MTSTANDARD4
 73
     1
 44
0.8392857142857144
  0
MTEXT
  5
2E3
330
1F
100
AcDbEntity
  8
1
  6
Continuous
 62
     7
100
AcDbMText
 10
933.5024738942294
 20
-3.362820334391074
 30
0.0
 40
7.0
 41
0.0
 71
     7
 72
     5
  1
{\fＭＳ 明朝|b0|i0|c128|p17;\W1.0;計}
  7
MTSTANDARD4
 73
     1
 44
0.8392857142857144
  0
MTEXT
  5
2E4
330
1F
100
AcDbEntity
  8
1
  6
Continuous
 62
     7
100
AcDbMText
 10
977.5024638942297
 20
4.637171665608946
 30
0.0
 40
7.0
 41
0.0
 71
     7
 72
     5
  1
{\fＭＳ 明朝|b0|i0|c128|p17;\W1.0;照}
  7
MTSTANDARD4
 73
     1
 44
0.8392857142857144
  0
MTEXT
  5
2E5
330
1F
100
AcDbEntity
  8
1
  6
Continuous
 62
     7
100
AcDbMText
 10
1034.465576696108
 20
1.738868798135115
 30
0.0
 40
5.0
 41
0.0
 71
     7
 72
     5
  1
{\fＭＳ 明朝|b0|i0|c128|p17;\W1.0;2017.06.07}
  7
MTSTANDARD5
 73
     1
 44
0.875
  0
LINE
  5
2E6
330
1F
100
AcDbEntity
  8
3
  6
Continuous
 62
     7
100
AcDbLine
 10
859.8586824194405
 20
325.6762457836837
 30
0.0
 11
864.8586824194267
 21
325.6762457836837
 31
0.0
  0
LINE
  5
2E7
330
1F
100
AcDbEntity
  8
3
  6
Continuous
 62
     7
100
AcDbLine
 10
872.8586824194406
 20
330.6762457836836
 30
0.0
 11
872.8586824194406
 21
333.6762457836836
 31
0.0
  0
LINE
  5
2E8
330
1F
100
AcDbEntity
  8
3
  6
Continuous
 62
     7
100
AcDbLine
 10
872.8586824194406
 20
333.6762457836836
 30
0.0
 11
902.8586824194406
 21
333.6762457836836
 31
0.0
  0
LINE
  5
2E9
330
1F
100
AcDbEntity
  8
3
  6
Continuous
 62
     7
100
AcDbLine
 10
902.8586824194406
 20
333.6762457836836
 30
0.0
 11
902.8586824194404
 21
330.6762457836836
 31
0.0
  0
LINE
  5
2EA
330
1F
100
AcDbEntity
  8
3
  6
Continuous
 62
     7
100
AcDbLine
 10
902.8586824194406
 20
333.6762457836836
 30
0.0
 11
901.8586824194406
 21
336.6762457836836
 31
0.0
  0
LINE
  5
2EB
330
1F
100
AcDbEntity
  8
3
  6
Continuous
 62
     7
100
AcDbLine
 10
901.8586824194406
 20
336.6762457836836
 30
0.0
 11
873.8586824194407
 21
336.6762457836836
 31
0.0
  0
LINE
  5
2EC
330
1F
100
AcDbEntity
  8
3
  6
Continuous
 62
     7
100
AcDbLine
 10
873.8586824194407
 20
336.6762457836836
 30
0.0
 11
872.8586824194406
 21
333.6762457836836
 31
0.0
  0
LINE
  5
2ED
330
1F
100
AcDbEntity
  8
3
  6
Continuous
 62
     7
100
AcDbLine
 10
867.8586824194406
 20
327.6762457836836
 30
0.0
 11
867.8586824194406
 21
324.6762457836836
 31
0.0
  0
LINE
  5
2EE
330
1F
100
AcDbEntity
  8
3
  6
Continuous
 62
     7
100
AcDbLine
 10
867.8586824194406
 20
324.6762457836836
 30
0.0
 11
907.8586824194406
 21
324.6762457836836
 31
0.0
  0
LINE
  5
2EF
330
1F
100
AcDbEntity
  8
3
  6
Continuous
 62
     7
100
AcDbLine
 10
907.8586824194406
 20
324.6762457836836
 30
0.0
 11
907.8586824194406
 21
327.6762457836836
 31
0.0
  0
LINE
  5
2F0
330
1F
100
AcDbEntity
  8
3
  6
Continuous
 62
     7
100
AcDbLine
 10
873.8586824194407
 20
324.6762457836836
 30
0.0
 11
873.8586824194407
 21
318.6762457836836
 31
0.0
  0
LINE
  5
2F1
330
1F
100
AcDbEntity
  8
3
  6
Continuous
 62
     7
100
AcDbLine
 10
901.8586824194406
 20
324.6762457836836
 30
0.0
 11
901.8586824194406
 21
318.6762457836836
 31
0.0
  0
LINE
  5
2F2
330
1F
100
AcDbEntity
  8
3
  6
Continuous
 62
     7
100
AcDbLine
 10
901.8586824194406
 20
318.6762457836836
 30
0.0
 11
873.8586824194407
 21
318.6762457836836
 31
0.0
  0
LINE
  5
2F3
330
1F
100
AcDbEntity
  8
3
  6
Continuous
 62
     7
100
AcDbLine
 10
860.3586824194407
 20
325.6762457836834
 30
0.0
 11
860.3586824194407
 21
324.1762457836834
 31
0.0
  0
LINE
  5
2F4
330
1F
100
AcDbEntity
  8
3
  6
Continuous
 62
     7
100
AcDbLine
 10
901.8586824194406
 20
317.1762457836833
 30
0.0
 11
901.8586824194406
 21
318.6762457836836
 31
0.0
  0
LINE
  5
2F5
330
1F
100
AcDbEntity
  8
3
  6
Continuous
 62
     7
100
AcDbLine
 10
867.8586824194406
 20
318.6762457836836
 30
0.0
 11
873.8586824194407
 21
318.6762457836836
 31
0.0
  0
ARC
  5
2F6
330
1F
100
AcDbEntity
  8
3
  6
Continuous
 62
     7
100
AcDbCircle
 10
867.8586824194406
 20
320.1762457836836
 30
0.0
 40
1.5
100
AcDbArc
 50
180.0
 51
270.0
  0
LINE
  5
2F7
330
1F
100
AcDbEntity
  8
3
  6
Continuous
 62
     7
100
AcDbLine
 10
866.3586824194407
 20
317.1762457836833
 30
0.0
 11
901.8586824194406
 21
317.1762457836833
 31
0.0
  0
ARC
  5
2F8
330
1F
100
AcDbEntity
  8
3
  6
Continuous
 62
     7
100
AcDbCircle
 10
866.3586824194407
 20
318.6762457836833
 30
0.0
 40
1.5
100
AcDbArc
 50
180.0
 51
270.0
  0
LINE
  5
2F9
330
1F
100
AcDbEntity
  8
3
  6
Continuous
 62
     7
100
AcDbLine
 10
863.3586824194407
 20
324.1762457836834
 30
0.0
 11
860.3586824194407
 21
324.1762457836834
 31
0.0
  0
LINE
  5
2FA
330
1F
100
AcDbEntity
  8
3
  6
Continuous
 62
     7
100
AcDbLine
 10
864.8586824194407
 20
322.6762457836834
 30
0.0
 11
864.8586824194407
 21
318.6762457836833
 31
0.0
  0
ARC
  5
2FB
330
1F
100
AcDbEntity
  8
3
  6
Continuous
 62
     7
100
AcDbCircle
 10
863.3586824194407
 20
322.6762457836834
 30
0.0
 40
1.5
100
AcDbArc
 50
0.0
 51
90.0
  0
LINE
  5
2FC
330
1F
100
AcDbEntity
  8
3
  6
Continuous
 62
     7
100
AcDbLine
 10
866.3586824194406
 20
324.1762457836834
 30
0.0
 11
866.3586824194406
 21
320.1762457836836
 31
0.0
  0
ARC
  5
2FD
330
1F
100
AcDbEntity
  8
3
  6
Continuous
 62
     7
100
AcDbCircle
 10
864.8586824194406
 20
324.1762457836834
 30
0.0
 40
1.5
100
AcDbArc
 50
0.0
 51
90.0
  0
INSERT
  5
305
330
1F
100
AcDbEntity
  8
1
  6
ByBlock
 62
     3
100
AcDbBlockReference
  2
BALN4
 10
885.4190682155745
 20
336.2286872017191
 30
0.0
  0
MTEXT
  5
306
330
1F
100
AcDbEntity
  8
1
  6
Continuous
 62
     7
100
AcDbMText
 10
990.4655866961081
 20
1.738868798135115
 30
0.0
 40
5.0
 41
0.0
 71
     7
 72
     5
  1
{\fＭＳ 明朝|b0|i0|c128|p17;\W1.0;2017.06.07}
  7
MTSTANDARD5
 73
     1
 44
0.875
  0
MTEXT
  5
307
330
1F
100
AcDbEntity
  8
1
  6
Continuous
 62
     7
100
AcDbMText
 10
946.4655966961083
 20
1.738868798135172
 30
0.0
 40
5.0
 41
0.0
 71
     7
 72
     5
  1
{\fＭＳ 明朝|b0|i0|c128|p17;\W1.0;2017.06.07}
  7
MTSTANDARD5
 73
     1
 44
0.875
  0
CIRCLE
  5
308
330
1F
100
AcDbEntity
  8
3
  6
Continuous
 62
     7
100
AcDbCircle
 10
887.7096245979179
 20
529.3720420794275
 30
0.0
 40
15.0
  0
CIRCLE
  5
309
330
1F
100
AcDbEntity
  8
3
  6
Continuous
 62
     7
100
AcDbCircle
 10
887.7096245979179
 20
529.3720420794275
 30
0.0
 40
14.0
  0
CIRCLE
  5
30A
330
1F
100
AcDbEntity
  8
1
  6
Continuous
 62
     7
100
AcDbCircle
 10
325.0290582192952
 20
4.238868798135655
 30
0.0
 40
16.0
  0
LINE
  5
30B
330
1F
100
AcDbEntity
  8
1
  6
Continuous
 62
     7
100
AcDbLine
 10
309.5371248344654
 20
8.238868798135655
 30
0.0
 11
340.5209916041249
 21
8.238868798135655
 31
0.0
  0
LINE
  5
30C
330
1F
100
AcDbEntity
  8
1
  6
Continuous
 62
     7
100
AcDbLine
 10
309.5371248344654
 20
0.2388687981356554
 30
0.0
 11
340.5209916041249
 21
0.2388687981356554
 31
0.0
  0
MTEXT
  5
30E
330
1F
100
AcDbEntity
  8
1
  6
Continuous
 62
     7
100
AcDbMText
 10
321.0290582192947
 20
10.23886879813566
 30
0.0
 40
8.0
 41
0.0
 71
     7
 72
     5
  1
{\fＭＳ 明朝|b0|i0|c128|p17;\W1.0;橋}
  7
MTSTANDARD6
 73
     1
 44
0.78125
  0
MTEXT
  5
30F
330
1F
100
AcDbEntity
  8
1
  6
Continuous
 62
     7
100
AcDbMText
 10
321.0290582192947
 20
-9.761131201864345
 30
0.0
 40
8.0
 41
0.0
 71
     7
 72
     5
  1
{\fＭＳ 明朝|b0|i0|c128|p17;\W1.0;本}
  7
MTSTANDARD6
 73
     1
 44
0.78125
  0
MTEXT
  5
310
330
1F
100
AcDbEntity
  8
1
  6
Continuous
 62
     7
100
AcDbMText
 10
312.5290582192947
 20
1.738868798135655
 30
0.0
 40
5.0
 41
0.0
 71
     7
 72
     5
  1
{\fＭＳ 明朝|b0|i0|c128|p17;\W1.0;2006.03.23}
  7
MTSTANDARD5
 73
     1
 44
0.875
  0
CIRCLE
  5
311
330
1F
100
AcDbEntity
  8
1
  6
Continuous
 62
     7
100
AcDbCircle
 10
369.4326467570918
 20
4.238868798135655
 30
0.0
 40
16.0
  0
LINE
  5
312
330
1F
100
AcDbEntity
  8
1
  6
Continuous
 62
     7
100
AcDbLine
 10
353.9407133722621
 20
8.238868798135655
 30
0.0
 11
384.9245801419215
 21
8.238868798135655
 31
0.0
  0
LINE
  5
313
330
1F
100
AcDbEntity
  8
1
  6
Continuous
 62
     7
100
AcDbLine
 10
353.9407133722621
 20
0.2388687981356554
 30
0.0
 11
384.9245801419215
 21
0.2388687981356554
 31
0.0
  0
MTEXT
  5
314
330
1F
100
AcDbEntity
  8
1
  6
Continuous
 62
     7
100
AcDbMText
 10
365.4326467570913
 20
10.23886879813566
 30
0.0
 40
8.0
 41
0.0
 71
     7
 72
     5
  1
{\fＭＳ 明朝|b0|i0|c128|p17;\W1.0;野}
  7
MTSTANDARD6
 73
     1
 44
0.78125
  0
MTEXT
  5
315
330
1F
100
AcDbEntity
  8
1
  6
Continuous
 62
     7
100
AcDbMText
 10
365.4326467570913
 20
-9.761131201864345
 30
0.0
 40
8.0
 41
0.0
 71
     7
 72
     5
  1
{\fＭＳ 明朝|b0|i0|c128|p17;\W1.0;島}
  7
MTSTANDARD6
 73
     1
 44
0.78125
  0
CIRCLE
  5
316
330
1F
100
AcDbEntity
  8
1
  6
Continuous
 62
     7
100
AcDbCircle
 10
412.9655766961077
 20
4.238868798135655
 30
0.0
 40
16.0
  0
LINE
  5
317
330
1F
100
AcDbEntity
  8
1
  6
Continuous
 62
     7
100
AcDbLine
 10
397.473643311278
 20
8.238868798135655
 30
0.0
 11
428.4575100809375
 21
8.238868798135655
 31
0.0
  0
LINE
  5
318
330
1F
100
AcDbEntity
  8
1
  6
Continuous
 62
     7
100
AcDbLine
 10
397.473643311278
 20
0.2388687981356554
 30
0.0
 11
428.4575100809375
 21
0.2388687981356554
 31
0.0
  0
MTEXT
  5
319
330
1F
100
AcDbEntity
  8
1
  6
Continuous
 62
     7
100
AcDbMText
 10
408.9655766961077
 20
10.23886879813566
 30
0.0
 40
8.0
 41
0.0
 71
     7
 72
     5
  1
{\fＭＳ 明朝|b0|i0|c128|p17;\W1.0;梅}
  7
MTSTANDARD6
 73
     1
 44
0.78125
  0
MTEXT
  5
31A
330
1F
100
AcDbEntity
  8
1
  6
Continuous
 62
     7
100
AcDbMText
 10
408.9655766961077
 20
-9.761131201864345
 30
0.0
 40
8.0
 41
0.0
 71
     7
 72
     5
  1
{\fＭＳ 明朝|b0|i0|c128|p17;\W1.0;村}
  7
MTSTANDARD6
 73
     1
 44
0.78125
  0
CIRCLE
  5
31B
330
1F
100
AcDbEntity
  8
1
  6
Continuous
 62
     7
100
AcDbCircle
 10
959.4326567570921
 20
4.238868798135172
 30
0.0
 40
16.0
  0
LINE
  5
31C
330
1F
100
AcDbEntity
  8
1
  6
Continuous
 62
     7
100
AcDbLine
 10
943.9407233722624
 20
8.238868798135172
 30
0.0
 11
974.9245901419218
 21
8.238868798135172
 31
0.0
  0
LINE
  5
31D
330
1F
100
AcDbEntity
  8
1
  6
Continuous
 62
     7
100
AcDbLine
 10
943.9407233722624
 20
0.2388687981351723
 30
0.0
 11
974.9245901419218
 21
0.2388687981351723
 31
0.0
  0
MTEXT
  5
31E
330
1F
100
AcDbEntity
  8
1
  6
Continuous
 62
     7
100
AcDbMText
 10
955.4326567570916
 20
10.23886879813517
 30
0.0
 40
8.0
 41
0.0
 71
     7
 72
     5
  1
{\fＭＳ 明朝|b0|i0|c128|p17;\W1.0;松}
  7
MTSTANDARD6
 73
     1
 44
0.78125
  0
MTEXT
  5
31F
330
1F
100
AcDbEntity
  8
1
  6
Continuous
 62
     7
100
AcDbMText
 10
955.4326567570916
 20
-9.761131201864828
 30
0.0
 40
8.0
 41
0.0
 71
     7
 72
     5
  1
{\fＭＳ 明朝|b0|i0|c128|p17;\W1.0;本}
  7
MTSTANDARD6
 73
     1
 44
0.78125
  0
CIRCLE
  5
320
330
1F
100
AcDbEntity
  8
1
  6
Continuous
 62
     7
100
AcDbCircle
 10
1003.432646757092
 20
4.238868798135115
 30
0.0
 40
16.0
  0
LINE
  5
321
330
1F
100
AcDbEntity
  8
1
  6
Continuous
 62
     7
100
AcDbLine
 10
987.9407133722622
 20
8.238868798135115
 30
0.0
 11
1018.924580141922
 21
8.238868798135115
 31
0.0
  0
LINE
  5
322
330
1F
100
AcDbEntity
  8
1
  6
Continuous
 62
     7
100
AcDbLine
 10
987.9407133722622
 20
0.2388687981351154
 30
0.0
 11
1018.924580141922
 21
0.2388687981351154
 31
0.0
  0
MTEXT
  5
323
330
1F
100
AcDbEntity
  8
1
  6
Continuous
 62
     7
100
AcDbMText
 10
999.4326467570914
 20
10.23886879813512
 30
0.0
 40
8.0
 41
0.0
 71
     7
 72
     5
  1
{\fＭＳ 明朝|b0|i0|c128|p17;\W1.0;藤}
  7
MTSTANDARD6
 73
     1
 44
0.78125
  0
MTEXT
  5
324
330
1F
100
AcDbEntity
  8
1
  6
Continuous
 62
     7
100
AcDbMText
 10
999.4326467570914
 20
-9.761131201864885
 30
0.0
 40
8.0
 41
0.0
 71
     7
 72
     5
  1
{\fＭＳ 明朝|b0|i0|c128|p17;\W1.0;繁}
  7
MTSTANDARD6
 73
     1
 44
0.78125
  0
CIRCLE
  5
325
330
1F
100
AcDbEntity
  8
1
  6
Continuous
 62
     7
100
AcDbCircle
 10
1047.432636757092
 20
4.238868798135059
 30
0.0
 40
16.0
  0
LINE
  5
326
330
1F
100
AcDbEntity
  8
1
  6
Continuous
 62
     7
100
AcDbLine
 10
1031.940703372262
 20
8.238868798135059
 30
0.0
 11
1062.924570141921
 21
8.238868798135059
 31
0.0
  0
LINE
  5
327
330
1F
100
AcDbEntity
  8
1
  6
Continuous
 62
     7
100
AcDbLine
 10
1031.940703372262
 20
0.2388687981350586
 30
0.0
 11
1062.924570141921
 21
0.2388687981350586
 31
0.0
  0
MTEXT
  5
328
330
1F
100
AcDbEntity
  8
1
  6
Continuous
 62
     7
100
AcDbMText
 10
1043.432636757091
 20
10.23886879813506
 30
0.0
 40
8.0
 41
0.0
 71
     7
 72
     5
  1
{\fＭＳ 明朝|b0|i0|c128|p17;\W1.0;野}
  7
MTSTANDARD6
 73
     1
 44
0.78125
  0
MTEXT
  5
329
330
1F
100
AcDbEntity
  8
1
  6
Continuous
 62
     7
100
AcDbMText
 10
1043.432636757091
 20
-9.761131201864941
 30
0.0
 40
8.0
 41
0.0
 71
     7
 72
     5
  1
{\fＭＳ 明朝|b0|i0|c128|p17;\W1.0;島}
  7
MTSTANDARD6
 73
     1
 44
0.78125
  0
LINE
  5
32A
330
1F
100
AcDbEntity
  8
1
  6
Continuous
 62
     7
100
AcDbLine
 10
1074.00243889423
 20
43.41805640050126
 30
0.0
 11
1074.00243889423
 21
-32.58190159949845
 31
0.0
  0
LINE
  5
32B
330
1F
100
AcDbEntity
  8
1
  6
Continuous
 62
     7
100
AcDbLine
 10
1064.002448894229
 20
-32.58190159949845
 30
0.0
 11
1064.002448894229
 21
43.41805640050126
 31
0.0
  0
LINE
  5
32C
330
1F
100
AcDbEntity
  8
1
  6
Continuous
 62
     7
100
AcDbLine
 10
942.00246889423
 20
43.41805640050126
 30
0.0
 11
942.0024688942298
 21
-12.5819215994984
 31
0.0
  0
LINE
  5
32D
330
1F
100
AcDbEntity
  8
1
  6
Continuous
 62
     7
100
AcDbLine
 10
1174.00233889423
 20
43.41805640050126
 30
0.0
 11
1174.00233889423
 21
21.4180784005016
 31
0.0
  0
LINE
  5
32E
330
1F
100
AcDbEntity
  8
1
  6
Continuous
 62
     7
100
AcDbLine
 10
1164.00234889423
 20
43.41805640050126
 30
0.0
 11
1164.00234889423
 21
21.4180784005016
 31
0.0
  0
LINE
  5
32F
330
1F
100
AcDbEntity
  8
1
  6
Continuous
 62
     7
100
AcDbLine
 10
1174.00233889423
 20
-12.5819215994984
 30
0.0
 11
1174.00233889423
 21
-32.58190159949845
 31
0.0
  0
LINE
  5
330
330
1F
100
AcDbEntity
  8
1
  6
Continuous
 62
     7
100
AcDbLine
 10
1164.00234889423
 20
-12.5819215994984
 30
0.0
 11
1164.00234889423
 21
-32.58190159949845
 31
0.0
  0
LINE
  5
331
330
1F
100
AcDbEntity
  8
1
  6
Continuous
 62
     7
100
AcDbLine
 10
1146.002366894229
 20
-12.5819215994984
 30
0.0
 11
1146.002366894229
 21
-32.58190159949845
 31
0.0
  0
LINE
  5
332
330
1F
100
AcDbEntity
  8
1
  6
Continuous
 62
     7
100
AcDbLine
 10
932.0024788942297
 20
-12.5819215994984
 30
0.0
 11
1194.00231889423
 21
-12.5819215994984
 31
0.0
  0
LINE
  5
333
330
1F
100
AcDbEntity
  8
1
  6
Continuous
 62
     7
100
AcDbLine
 10
1194.00231889423
 20
21.4180784005016
 30
0.0
 11
932.0024788942297
 21
21.4180784005016
 31
0.0
  0
LINE
  5
334
330
1F
100
AcDbEntity
  8
1
  6
Continuous
 62
     7
100
AcDbLine
 10
932.0024788942297
 20
43.41805640050126
 30
0.0
 11
1194.00231889423
 21
43.41805640050126
 31
0.0
  0
LINE
  5
335
330
1F
100
AcDbEntity
  8
1
  6
Continuous
 62
     7
100
AcDbLine
 10
932.0024788942297
 20
43.41805640050126
 30
0.0
 11
932.0024788942297
 21
-32.58190159949845
 31
0.0
  0
LINE
  5
336
330
1F
100
AcDbEntity
  8
1
  6
Continuous
 62
     7
100
AcDbLine
 10
942.00246889423
 20
43.41805640050126
 30
0.0
 11
942.0024688942298
 21
-12.5819215994984
 31
0.0
  0
MTEXT
  5
337
330
1F
100
AcDbEntity
  8
1
  6
Continuous
 62
     7
100
AcDbMText
 10
933.5024738942296
 20
32.9180634005013
 30
0.0
 40
7.0
 41
0.0
 71
     7
 72
     5
  1
{\fＭＳ 明朝|b0|i0|c128|p17;\W1.0;図}
  7
MTSTANDARD4
 73
     1
 44
0.8392857142857144
  0
MTEXT
  5
338
330
1F
100
AcDbEntity
  8
1
  6
Continuous
 62
     7
100
AcDbMText
 10
1065.50244389423
 20
-23.08191459949842
 30
0.0
 40
7.0
 41
0.0
 71
     7
 72
     5
  1
{\fＭＳ 明朝|b0|i0|c128|p17;\W1.0;図}
  7
MTSTANDARD4
 73
     1
 44
0.8392857142857144
  0
MTEXT
  5
339
330
1F
100
AcDbEntity
  8
1
  6
Continuous
 62
     7
100
AcDbMText
 10
933.5024738942296
 20
24.91807140050128
 30
0.0
 40
7.0
 41
0.0
 71
     7
 72
     5
  1
{\fＭＳ 明朝|b0|i0|c128|p17;\W1.0;名}
  7
MTSTANDARD4
 73
     1
 44
0.8392857142857144
  0
MTEXT
  5
33A
330
1F
100
AcDbEntity
  8
1
  6
Continuous
 62
     7
100
AcDbMText
 10
1065.50244389423
 20
-31.08190659949844
 30
0.0
 40
7.0
 41
0.0
 71
     7
 72
     5
  1
{\fＭＳ 明朝|b0|i0|c128|p17;\W1.0;番}
  7
MTSTANDARD4
 73
     1
 44
0.8392857142857144
  0
MTEXT
  5
33B
330
1F
100
AcDbEntity
  8
1
  6
Continuous
 62
     7
100
AcDbMText
 10
1065.50244389423
 20
32.9180634005013
 30
0.0
 40
7.0
 41
0.0
 71
     7
 72
     5
  1
{\fＭＳ 明朝|b0|i0|c128|p17;\W1.0;符}
  7
MTSTANDARD4
 73
     1
 44
0.8392857142857144
  0
MTEXT
  5
33C
330
1F
100
AcDbEntity
  8
1
  6
Continuous
 62
     7
100
AcDbMText
 10
1065.50244389423
 20
24.91807140050128
 30
0.0
 40
7.0
 41
0.0
 71
     7
 72
     5
  1
{\fＭＳ 明朝|b0|i0|c128|p17;\W1.0;号}
  7
MTSTANDARD4
 73
     1
 44
0.8392857142857144
  0
MTEXT
  5
33D
330
1F
100
AcDbEntity
  8
1
  6
Continuous
 62
     7
100
AcDbMText
 10
1065.50244389423
 20
4.637171665608946
 30
0.0
 40
7.0
 41
0.0
 71
     7
 72
     5
  1
{\fＭＳ 明朝|b0|i0|c128|p17;\W1.0;記}
  7
MTSTANDARD4
 73
     1
 44
0.8392857142857144
  0
MTEXT
  5
33E
330
1F
100
AcDbEntity
  8
1
  6
Continuous
 62
     7
100
AcDbMText
 10
1065.50244389423
 20
-3.362820334391074
 30
0.0
 40
7.0
 41
0.0
 71
     7
 72
     5
  1
{\fＭＳ 明朝|b0|i0|c128|p17;\W1.0;事}
  7
MTSTANDARD4
 73
     1
 44
0.8392857142857144
  0
MTEXT
  5
33F
330
1F
100
AcDbEntity
  8
1
  6
Continuous
 62
     7
100
AcDbMText
 10
1165.502343894226
 20
32.9180634005013
 30
0.0
 40
7.0
 41
0.0
 71
     7
 72
     5
  1
{\fＭＳ 明朝|b0|i0|c128|p17;\W1.0;縮}
  7
MTSTANDARD4
 73
     1
 44
0.8392857142857144
  0
MTEXT
  5
340
330
1F
100
AcDbEntity
  8
1
  6
Continuous
 62
     7
100
AcDbMText
 10
1165.502343894226
 20
24.91807140050111
 30
0.0
 40
7.0
 41
0.0
 71
     7
 72
     5
  1
{\fＭＳ 明朝|b0|i0|c128|p17;\W1.0;尺}
  7
MTSTANDARD4
 73
     1
 44
0.8392857142857144
  0
MTEXT
  5
342
330
1F
100
AcDbEntity
  8
1
  6
Continuous
 62
     7
100
AcDbMText
 10
964.0024788942297
 20
-27.08191159949843
 30
0.0
 40
9.0
 41
0.0
 71
     7
 72
     5
  1
{\fＭＳ ゴシック|b0|i0|c128|p49;\W1.0;伊藤鉄工株式会社}
  7
MTSTANDARD7
 73
     1
 44
0.7916666666666667
  0
MTEXT
  5
344
330
1F
100
AcDbEntity
  8
1
  6
Continuous
 62
     7
100
AcDbMText
 10
1166.00234389423
 20
-20.58191659949858
 30
0.0
 40
6.0
 41
0.0
 71
     7
 72
     5
  1
{\fＭＳ 明朝|b0|i0|c128|p17;\W1.0;葉}
  7
MTSTANDARD8
 73
     1
 44
0.8333333333333334
  0
MTEXT
  5
345
330
1F
100
AcDbEntity
  8
1
  6
Continuous
 62
     7
100
AcDbMText
 10
1166.00234389423
 20
-25.58191159949826
 30
0.0
 40
6.0
 41
0.0
 71
     7
 72
     5
  1
{\fＭＳ 明朝|b0|i0|c128|p17;\W1.0;ノ}
  7
MTSTANDARD8
 73
     1
 44
0.8333333333333334
  0
MTEXT
  5
346
330
1F
100
AcDbEntity
  8
1
  6
Continuous
 62
     7
100
AcDbMText
 10
1166.00234389423
 20
-30.58190659949844
 30
0.0
 40
6.0
 41
0.0
 71
     7
 72
     5
  1
{\fＭＳ 明朝|b0|i0|c128|p17;\W1.0;内}
  7
MTSTANDARD8
 73
     1
 44
0.8333333333333334
  0
LINE
  5
347
330
1F
100
AcDbEntity
  8
1
  6
Continuous
 62
     7
100
AcDbLine
 10
932.0024788942297
 20
43.41805640050126
 30
0.0
 11
932.0024788942297
 21
-32.58190159949845
 31
0.0
  0
LINE
  5
348
330
1F
100
AcDbEntity
  8
1
  6
Continuous
 62
     7
100
AcDbLine
 10
932.0024788942297
 20
43.41805640050126
 30
0.0
 11
932.0024788942297
 21
-32.58190159949845
 31
0.0
  0
LINE
  5
349
330
1F
100
AcDbEntity
  8
1
  6
Continuous
 62
     7
100
AcDbLine
 10
1174.00233889423
 20
-32.58190159949845
 30
0.0
 11
1194.00231889423
 21
-12.5819215994984
 31
0.0
  0
MTEXT
  5
34A
330
1F
100
AcDbEntity
  8
1
  6
Continuous
 62
     7
100
AcDbMText
 10
1095.002393894229
 20
28.4180674005014
 30
0.0
 40
8.0
 41
0.0
 71
     7
 72
     5
  1
{\fＭＳ 明朝|b0|i0|c128|p17;\W1.0;ＳＢ３Ｅ１Ｋ}
  7
MTSTANDARD6
 73
     1
 44
1.171874999999988
  0
MTEXT
  5
34B
330
1F
100
AcDbEntity
  8
1
  6
Continuous
 62
     7
100
AcDbMText
 10
976.002474894232
 20
28.4180674005014
 30
0.0
 40
8.0
 41
0.0
 71
     7
 72
     5
  1
{\fＭＳ 明朝|b0|i0|c128|p17;\W1.0;散水栓ボックス}
  7
MTSTANDARD6
 73
     1
 44
1.171874999999991
  0
MTEXT
  5
34C
330
1F
100
AcDbEntity
  8
1
  6
Continuous
 62
     7
100
AcDbMText
 10
1179.50232889423
 20
29.4180674005014
 30
0.0
 40
6.0
 41
0.0
 71
     7
 72
     5
  1
{\fＭＳ 明朝|b0|i0|c128|p17;\W1.0;1/2}
  7
MTSTANDARD8
 73
     1
 44
1.354165520833317
  0
MTEXT
  5
34D
330
1F
100
AcDbEntity
  8
1
  6
Continuous
 62
     7
100
AcDbMText
 10
1122.00237889423
 20
0.4180784005015994
 30
0.0
 40
8.0
 41
0.0
 71
     7
 72
     5
  1
{\fＭＳ 明朝|b0|i0|c128|p17;\W1.0;鍵付き}
  7
MTSTANDARD6
 73
     1
 44
3.28125
  0
MTEXT
  5
34E
330
1F
100
AcDbEntity
  8
1
  6
Continuous
 62
     7
100
AcDbMText
 10
1074.00240289423
 20
-26.58191159949843
 30
0.0
 40
8.0
 41
0.0
 71
     7
 72
     5
  1
{\fＭＳ 明朝|b0|i0|c128|p17;\W1.0;Ｇ１１Ａ１７００２}
  7
MTSTANDARD6
 73
     1
 44
1.093749218750001
  0
LINE
  5
34F
330
1F
100
AcDbEntity
  8
1
  6
Continuous
 62
     7
100
AcDbLine
 10
440.0024388942295
 20
43.4180564005018
 30
0.0
 11
440.0024388942295
 21
-32.58190159949791
 31
0.0
  0
LINE
  5
350
330
1F
100
AcDbEntity
  8
1
  6
Continuous
 62
     7
100
AcDbLine
 10
430.0024488942295
 20
-32.58190159949791
 30
0.0
 11
430.0024488942295
 21
43.4180564005018
 31
0.0
  0
LINE
  5
351
330
1F
100
AcDbEntity
  8
1
  6
Continuous
 62
     7
100
AcDbLine
 10
308.0024688942299
 20
43.4180564005018
 30
0.0
 11
308.0024688942297
 21
-12.58192159949786
 31
0.0
  0
LINE
  5
352
330
1F
100
AcDbEntity
  8
1
  6
Continuous
 62
     7
100
AcDbLine
 10
540.0023388942298
 20
43.4180564005018
 30
0.0
 11
540.0023388942298
 21
21.41807840050214
 31
0.0
  0
LINE
  5
353
330
1F
100
AcDbEntity
  8
1
  6
Continuous
 62
     7
100
AcDbLine
 10
530.0023488942297
 20
43.4180564005018
 30
0.0
 11
530.0023488942297
 21
21.41807840050214
 31
0.0
  0
LINE
  5
354
330
1F
100
AcDbEntity
  8
1
  6
Continuous
 62
     7
100
AcDbLine
 10
540.0023388942298
 20
-12.58192159949786
 30
0.0
 11
540.0023388942298
 21
-32.58190159949791
 31
0.0
  0
LINE
  5
355
330
1F
100
AcDbEntity
  8
1
  6
Continuous
 62
     7
100
AcDbLine
 10
530.0023488942297
 20
-12.58192159949786
 30
0.0
 11
530.0023488942297
 21
-32.58190159949791
 31
0.0
  0
LINE
  5
356
330
1F
100
AcDbEntity
  8
1
  6
Continuous
 62
     7
100
AcDbLine
 10
512.0023668942295
 20
-12.58192159949786
 30
0.0
 11
512.0023668942295
 21
-32.58190159949791
 31
0.0
  0
LINE
  5
357
330
1F
100
AcDbEntity
  8
1
  6
Continuous
 62
     7
100
AcDbLine
 10
298.0024788942296
 20
-12.58192159949786
 30
0.0
 11
560.0023188942298
 21
-12.58192159949786
 31
0.0
  0
LINE
  5
358
330
1F
100
AcDbEntity
  8
1
  6
Continuous
 62
     7
100
AcDbLine
 10
560.0023188942298
 20
21.41807840050214
 30
0.0
 11
298.0024788942296
 21
21.41807840050214
 31
0.0
  0
LINE
  5
359
330
1F
100
AcDbEntity
  8
1
  6
Continuous
 62
     7
100
AcDbLine
 10
298.0024788942296
 20
43.4180564005018
 30
0.0
 11
560.0023188942298
 21
43.4180564005018
 31
0.0
  0
LINE
  5
35A
330
1F
100
AcDbEntity
  8
1
  6
Continuous
 62
     7
100
AcDbLine
 10
298.0024788942296
 20
43.4180564005018
 30
0.0
 11
298.0024788942296
 21
-32.58190159949791
 31
0.0
  0
LINE
  5
35B
330
1F
100
AcDbEntity
  8
1
  6
Continuous
 62
     7
100
AcDbLine
 10
308.0024688942299
 20
43.4180564005018
 30
0.0
 11
308.0024688942297
 21
-12.58192159949786
 31
0.0
  0
MTEXT
  5
35C
330
1F
100
AcDbEntity
  8
1
  6
Continuous
 62
     7
100
AcDbMText
 10
299.5024738942295
 20
32.91806340050184
 30
0.0
 40
7.0
 41
0.0
 71
     7
 72
     5
  1
{\fＭＳ 明朝|b0|i0|c128|p17;\W1.0;図}
  7
MTSTANDARD4
 73
     1
 44
0.8392857142857144
  0
MTEXT
  5
35D
330
1F
100
AcDbEntity
  8
1
  6
Continuous
 62
     7
100
AcDbMText
 10
431.5024438942296
 20
-23.08191459949788
 30
0.0
 40
7.0
 41
0.0
 71
     7
 72
     5
  1
{\fＭＳ 明朝|b0|i0|c128|p17;\W1.0;図}
  7
MTSTANDARD4
 73
     1
 44
0.8392857142857144
  0
MTEXT
  5
35E
330
1F
100
AcDbEntity
  8
1
  6
Continuous
 62
     7
100
AcDbMText
 10
299.5024738942295
 20
24.91807140050182
 30
0.0
 40
7.0
 41
0.0
 71
     7
 72
     5
  1
{\fＭＳ 明朝|b0|i0|c128|p17;\W1.0;名}
  7
MTSTANDARD4
 73
     1
 44
0.8392857142857144
  0
MTEXT
  5
35F
330
1F
100
AcDbEntity
  8
1
  6
Continuous
 62
     7
100
AcDbMText
 10
431.5024438942296
 20
-31.0819065994979
 30
0.0
 40
7.0
 41
0.0
 71
     7
 72
     5
  1
{\fＭＳ 明朝|b0|i0|c128|p17;\W1.0;番}
  7
MTSTANDARD4
 73
     1
 44
0.8392857142857144
  0
MTEXT
  5
360
330
1F
100
AcDbEntity
  8
1
  6
Continuous
 62
     7
100
AcDbMText
 10
431.5024438942296
 20
32.91806340050184
 30
0.0
 40
7.0
 41
0.0
 71
     7
 72
     5
  1
{\fＭＳ 明朝|b0|i0|c128|p17;\W1.0;符}
  7
MTSTANDARD4
 73
     1
 44
0.8392857142857144
  0
MTEXT
  5
361
330
1F
100
AcDbEntity
  8
1
  6
Continuous
 62
     7
100
AcDbMText
 10
431.5024438942296
 20
24.91807140050182
 30
0.0
 40
7.0
 41
0.0
 71
     7
 72
     5
  1
{\fＭＳ 明朝|b0|i0|c128|p17;\W1.0;号}
  7
MTSTANDARD4
 73
     1
 44
0.8392857142857144
  0
MTEXT
  5
362
330
1F
100
AcDbEntity
  8
1
  6
Continuous
 62
     7
100
AcDbMText
 10
431.5024438942296
 20
4.637171665609486
 30
0.0
 40
7.0
 41
0.0
 71
     7
 72
     5
  1
{\fＭＳ 明朝|b0|i0|c128|p17;\W1.0;記}
  7
MTSTANDARD4
 73
     1
 44
0.8392857142857144
  0
MTEXT
  5
363
330
1F
100
AcDbEntity
  8
1
  6
Continuous
 62
     7
100
AcDbMText
 10
431.5024438942296
 20
-3.362820334390534
 30
0.0
 40
7.0
 41
0.0
 71
     7
 72
     5
  1
{\fＭＳ 明朝|b0|i0|c128|p17;\W1.0;事}
  7
MTSTANDARD4
 73
     1
 44
0.8392857142857144
  0
MTEXT
  5
364
330
1F
100
AcDbEntity
  8
1
  6
Continuous
 62
     7
100
AcDbMText
 10
531.5023438942262
 20
32.91806340050184
 30
0.0
 40
7.0
 41
0.0
 71
     7
 72
     5
  1
{\fＭＳ 明朝|b0|i0|c128|p17;\W1.0;縮}
  7
MTSTANDARD4
 73
     1
 44
0.8392857142857144
  0
MTEXT
  5
365
330
1F
100
AcDbEntity
  8
1
  6
Continuous
 62
     7
100
AcDbMText
 10
531.5023438942262
 20
24.91807140050165
 30
0.0
 40
7.0
 41
0.0
 71
     7
 72
     5
  1
{\fＭＳ 明朝|b0|i0|c128|p17;\W1.0;尺}
  7
MTSTANDARD4
 73
     1
 44
0.8392857142857144
  0
MTEXT
  5
366
330
1F
100
AcDbEntity
  8
1
  6
Continuous
 62
     7
100
AcDbMText
 10
330.0024788942296
 20
-27.08191159949789
 30
0.0
 40
9.0
 41
0.0
 71
     7
 72
     5
  1
{\fＭＳ ゴシック|b0|i0|c128|p49;\W1.0;伊藤鉄工株式会社}
  7
MTSTANDARD7
 73
     1
 44
0.7916666666666667
  0
MTEXT
  5
367
330
1F
100
AcDbEntity
  8
1
  6
Continuous
 62
     7
100
AcDbMText
 10
532.0023438942299
 20
-20.58191659949804
 30
0.0
 40
6.0
 41
0.0
 71
     7
 72
     5
  1
{\fＭＳ 明朝|b0|i0|c128|p17;\W1.0;葉}
  7
MTSTANDARD8
 73
     1
 44
0.8333333333333334
  0
MTEXT
  5
368
330
1F
100
AcDbEntity
  8
1
  6
Continuous
 62
     7
100
AcDbMText
 10
532.0023438942299
 20
-25.58191159949772
 30
0.0
 40
6.0
 41
0.0
 71
     7
 72
     5
  1
{\fＭＳ 明朝|b0|i0|c128|p17;\W1.0;ノ}
  7
MTSTANDARD8
 73
     1
 44
0.8333333333333334
  0
MTEXT
  5
369
330
1F
100
AcDbEntity
  8
1
  6
Continuous
 62
     7
100
AcDbMText
 10
532.0023438942299
 20
-30.5819065994979
 30
0.0
 40
6.0
 41
0.0
 71
     7
 72
     5
  1
{\fＭＳ 明朝|b0|i0|c128|p17;\W1.0;内}
  7
MTSTANDARD8
 73
     1
 44
0.8333333333333334
  0
LINE
  5
36A
330
1F
100
AcDbEntity
  8
1
  6
Continuous
 62
     7
100
AcDbLine
 10
298.0024788942296
 20
43.4180564005018
 30
0.0
 11
298.0024788942296
 21
-32.58190159949791
 31
0.0
  0
LINE
  5
36B
330
1F
100
AcDbEntity
  8
1
  6
Continuous
 62
     7
100
AcDbLine
 10
298.0024788942296
 20
43.4180564005018
 30
0.0
 11
298.0024788942296
 21
-32.58190159949791
 31
0.0
  0
LINE
  5
36C
330
1F
100
AcDbEntity
  8
1
  6
Continuous
 62
     7
100
AcDbLine
 10
540.0023388942298
 20
-32.58190159949791
 30
0.0
 11
560.0023188942298
 21
-12.58192159949786
 31
0.0
  0
MTEXT
  5
36D
330
1F
100
AcDbEntity
  8
1
  6
Continuous
 62
     7
100
AcDbMText
 10
465.0023938942295
 20
28.41806740050194
 30
0.0
 40
8.0
 41
0.0
 71
     7
 72
     5
  1
{\fＭＳ 明朝|b0|i0|c128|p17;\W1.0;ＳＢ３Ｅ１}
  7
MTSTANDARD6
 73
     1
 44
1.171874999999988
  0
MTEXT
  5
36E
330
1F
100
AcDbEntity
  8
1
  6
Continuous
 62
     7
100
AcDbMText
 10
342.0024748942319
 20
28.41806740050194
 30
0.0
 40
8.0
 41
0.0
 71
     7
 72
     5
  1
{\fＭＳ 明朝|b0|i0|c128|p17;\W1.0;散水栓ボックス}
  7
MTSTANDARD6
 73
     1
 44
1.171874999999991
  0
MTEXT
  5
36F
330
1F
100
AcDbEntity
  8
1
  6
Continuous
 62
     7
100
AcDbMText
 10
545.5023288942298
 20
29.41806740050194
 30
0.0
 40
6.0
 41
0.0
 71
     7
 72
     5
  1
{\fＭＳ 明朝|b0|i0|c128|p17;\W1.0;1/2}
  7
MTSTANDARD8
 73
     1
 44
1.354165520833317
  0
MTEXT
  5
370
330
1F
100
AcDbEntity
  8
1
  6
Continuous
 62
     7
100
AcDbMText
 10
492.0023788942297
 20
0.4180784005021394
 30
0.0
 40
8.0
 41
0.0
 71
     7
 72
     5
  1
{\fＭＳ 明朝|b0|i0|c128|p17;\W1.0;記事}
  7
MTSTANDARD6
 73
     1
 44
3.28125
  0
MTEXT
  5
371
330
1F
100
AcDbEntity
  8
1
  6
Continuous
 62
     7
100
AcDbMText
 10
440.0024028942296
 20
-26.58191159949789
 30
0.0
 40
8.0
 41
0.0
 71
     7
 72
     5
  1
{\fＭＳ 明朝|b0|i0|c128|p17;\W1.0;Ｇ１１Ａ００５４９}
  7
MTSTANDARD6
 73
     1
 44
1.093749218750001
  0
MTEXT
  5
372
330
1F
100
AcDbEntity
  8
1
  6
Continuous
 62
     7
100
AcDbMText
 10
62.05563450431175
 20
49.51210826370063
 30
0.0
 40
8.0
 41
0.0
 71
     7
 72
     5
  1
{\fＭＳ 明朝|b0|i0|c128|p17;\W1.0;部番}
  7
MTSTANDARD6
 73
     1
 44
0.78125
  0
MTEXT
  5
373
330
1F
100
AcDbEntity
  8
1
  6
Continuous
 62
     7
100
AcDbMText
 10
65.05563450431175
 20
34.51210826370063
 30
0.0
 40
10.0
 41
0.0
 71
     7
 72
     5
  1
{\fＭＳ 明朝|b0|i0|c128|p17;\W1.0;①}
  7
MTSTANDARD
 73
     1
 44
0.75
  0
MTEXT
  5
374
330
1F
100
AcDbEntity
  8
1
  6
Continuous
 62
     7
100
AcDbMText
 10
65.05563450431175
 20
20.51210826370061
 30
0.0
 40
10.0
 41
0.0
 71
     7
 72
     5
  1
{\fＭＳ 明朝|b0|i0|c128|p17;\W1.0;②}
  7
MTSTANDARD
 73
     1
 44
0.75
  0
MTEXT
  5
375
330
1F
100
AcDbEntity
  8
1
  6
Continuous
 62
     7
100
AcDbMText
 10
94.05563450431174
 20
49.51210826370063
 30
0.0
 40
8.0
 41
0.0
 71
     7
 72
     5
  1
{\fＭＳ 明朝|b0|i0|c128|p17;\W1.0;部 品 名}
  7
MTSTANDARD6
 73
     1
 44
0.78125
  0
MTEXT
  5
376
330
1F
100
AcDbEntity
  8
1
  6
Continuous
 62
     7
100
AcDbMText
 10
106.0556345043117
 20
35.51210826370063
 30
0.0
 40
8.0
 41
0.0
 71
     7
 72
     5
  1
{\fＭＳ 明朝|b0|i0|c128|p17;\W1.0;蓋}
  7
MTSTANDARD6
 73
     1
 44
0.78125
  0
MTEXT
  5
377
330
1F
100
AcDbEntity
  8
1
  6
Continuous
 62
     7
100
AcDbMText
 10
98.05563450431174
 20
21.51210826370062
 30
0.0
 40
8.0
 41
0.0
 71
     7
 72
     5
  1
{\fＭＳ 明朝|b0|i0|c128|p17;\W1.0;本　体}
  7
MTSTANDARD6
 73
     1
 44
0.78125
  0
MTEXT
  5
378
330
1F
100
AcDbEntity
  8
1
  6
Continuous
 62
     7
100
AcDbMText
 10
163.0556345043117
 20
49.51210826370063
 30
0.0
 40
8.0
 41
0.0
 71
     7
 72
     5
  1
{\fＭＳ 明朝|b0|i0|c128|p17;\W1.0;材　質}
  7
MTSTANDARD6
 73
     1
 44
0.78125
  0
MTEXT
  5
379
330
1F
100
AcDbEntity
  8
1
  6
Continuous
 62
     7
100
AcDbMText
 10
151.0556345043117
 20
23.51210826370063
 30
0.0
 40
8.0
 41
0.0
 71
     7
 72
     5
  1
{\fＭＳ 明朝|b0|i0|c128|p17;\W1.0;ＳＵＳ３０４\Pステンレス}
  7
MTSTANDARD6
 73
     1
 44
0.78125
  0
MTEXT
  5
37A
330
1F
100
AcDbEntity
  8
1
  6
Continuous
 62
     7
100
AcDbMText
 10
218.0556345043119
 20
49.51210826370063
 30
0.0
 40
8.0
 41
0.0
 71
     7
 72
     5
  1
{\fＭＳ 明朝|b0|i0|c128|p17;\W1.0;表 面 処 理}
  7
MTSTANDARD6
 73
     1
 44
0.78125
  0
MTEXT
  5
37B
330
1F
100
AcDbEntity
  8
1
  6
Continuous
 62
     7
100
AcDbMText
 10
212.0556345043119
 20
35.51210826370063
 30
0.0
 40
8.0
 41
0.0
 71
     7
 72
     5
  1
{\fＭＳ 明朝|b0|i0|c128|p17;\W1.0;ヘアライン仕上}
  7
MTSTANDARD6
 73
     1
 44
0.78125
  0
MTEXT
  5
37C
330
1F
100
AcDbEntity
  8
1
  6
Continuous
 62
     7
100
AcDbMText
 10
236.0556345043119
 20
21.51210826370063
 30
0.0
 40
8.0
 41
0.0
 71
     7
 72
     5
  1
{\fＭＳ 明朝|b0|i0|c128|p17;\W1.0;－}
  7
MTSTANDARD6
 73
     1
 44
0.78125
  0
LINE
  5
37D
330
1F
100
AcDbEntity
  8
1
  6
Continuous
 62
     7
100
AcDbLine
 10
684.0556445043118
 20
60.5121082637001
 30
0.0
 11
914.055644504312
 21
60.5121082637001
 31
0.0
  0
LINE
  5
37E
330
1F
100
AcDbEntity
  8
1
  6
Continuous
 62
     7
100
AcDbLine
 10
914.055644504312
 20
60.5121082637001
 30
0.0
 11
914.055644504312
 21
4.512108263700085
 31
0.0
  0
LINE
  5
37F
330
1F
100
AcDbEntity
  8
1
  6
Continuous
 62
     7
100
AcDbLine
 10
684.0556445043118
 20
4.512108263700085
 30
0.0
 11
684.0556445043118
 21
60.5121082637001
 31
0.0
  0
LINE
  5
380
330
1F
100
AcDbEntity
  8
1
  6
Continuous
 62
     7
100
AcDbLine
 10
704.0556445043118
 20
60.5121082637001
 30
0.0
 11
704.0556445043118
 21
4.512108263700085
 31
0.0
  0
LINE
  5
381
330
1F
100
AcDbEntity
  8
1
  6
Continuous
 62
     7
100
AcDbLine
 10
784.0556445043118
 20
4.512108263700085
 30
0.0
 11
784.0556445043118
 21
60.5121082637001
 31
0.0
  0
LINE
  5
382
330
1F
100
AcDbEntity
  8
1
  6
Continuous
 62
     7
100
AcDbLine
 10
854.0556445043118
 20
60.5121082637001
 30
0.0
 11
854.0556445043118
 21
4.512108263700085
 31
0.0
  0
LINE
  5
383
330
1F
100
AcDbEntity
  8
1
  6
Continuous
 62
     7
100
AcDbLine
 10
684.0556445043118
 20
32.5121082637001
 30
0.0
 11
784.0556445043118
 21
32.5121082637001
 31
0.0
  0
LINE
  5
384
330
1F
100
AcDbEntity
  8
1
  6
Continuous
 62
     7
100
AcDbLine
 10
854.0556445043118
 20
32.5121082637001
 30
0.0
 11
914.055644504312
 21
32.5121082637001
 31
0.0
  0
LINE
  5
385
330
1F
100
AcDbEntity
  8
1
  6
Continuous
 62
     7
100
AcDbLine
 10
684.0556445043118
 20
46.5121082637001
 30
0.0
 11
914.055644504312
 21
46.5121082637001
 31
0.0
  0
LINE
  5
386
330
1F
100
AcDbEntity
  8
1
  6
Continuous
 62
     7
100
AcDbLine
 10
914.055644504312
 20
18.51210826370009
 30
0.0
 11
684.0556445043118
 21
18.51210826370009
 31
0.0
  0
MTEXT
  5
387
330
1F
100
AcDbEntity
  8
1
  6
Continuous
 62
     7
100
AcDbMText
 10
686.0556445043118
 20
49.5121082637001
 30
0.0
 40
8.0
 41
0.0
 71
     7
 72
     5
  1
{\fＭＳ 明朝|b0|i0|c128|p17;\W1.0;部番}
  7
MTSTANDARD6
 73
     1
 44
0.78125
  0
MTEXT
  5
388
330
1F
100
AcDbEntity
  8
1
  6
Continuous
 62
     7
100
AcDbMText
 10
689.0556445043118
 20
34.51210826370009
 30
0.0
 40
10.0
 41
0.0
 71
     7
 72
     5
  1
{\fＭＳ 明朝|b0|i0|c128|p17;\W1.0;①}
  7
MTSTANDARD
 73
     1
 44
0.75
  0
MTEXT
  5
389
330
1F
100
AcDbEntity
  8
1
  6
Continuous
 62
     7
100
AcDbMText
 10
689.0556445043118
 20
20.51210826370007
 30
0.0
 40
10.0
 41
0.0
 71
     7
 72
     5
  1
{\fＭＳ 明朝|b0|i0|c128|p17;\W1.0;②}
  7
MTSTANDARD
 73
     1
 44
0.75
  0
MTEXT
  5
38A
330
1F
100
AcDbEntity
  8
1
  6
Continuous
 62
     7
100
AcDbMText
 10
728.0556445043118
 20
49.5121082637001
 30
0.0
 40
8.0
 41
0.0
 71
     7
 72
     5
  1
{\fＭＳ 明朝|b0|i0|c128|p17;\W1.0;部 品 名}
  7
MTSTANDARD6
 73
     1
 44
0.78125
  0
MTEXT
  5
38B
330
1F
100
AcDbEntity
  8
1
  6
Continuous
 62
     7
100
AcDbMText
 10
740.0556445043118
 20
35.5121082637001
 30
0.0
 40
8.0
 41
0.0
 71
     7
 72
     5
  1
{\fＭＳ 明朝|b0|i0|c128|p17;\W1.0;蓋}
  7
MTSTANDARD6
 73
     1
 44
0.78125
  0
MTEXT
  5
38C
330
1F
100
AcDbEntity
  8
1
  6
Continuous
 62
     7
100
AcDbMText
 10
732.0556445043118
 20
21.5121082637001
 30
0.0
 40
8.0
 41
0.0
 71
     7
 72
     5
  1
{\fＭＳ 明朝|b0|i0|c128|p17;\W1.0;本　体}
  7
MTSTANDARD6
 73
     1
 44
0.78125
  0
MTEXT
  5
38D
330
1F
100
AcDbEntity
  8
1
  6
Continuous
 62
     7
100
AcDbMText
 10
807.0556445043118
 20
49.5121082637001
 30
0.0
 40
8.0
 41
0.0
 71
     7
 72
     5
  1
{\fＭＳ 明朝|b0|i0|c128|p17;\W1.0;材　質}
  7
MTSTANDARD6
 73
     1
 44
0.78125
  0
MTEXT
  5
38E
330
1F
100
AcDbEntity
  8
1
  6
Continuous
 62
     7
100
AcDbMText
 10
795.0556445043118
 20
23.5121082637001
 30
0.0
 40
8.0
 41
0.0
 71
     7
 72
     5
  1
{\fＭＳ 明朝|b0|i0|c128|p17;\W1.0;ＳＵＳ３０４\Pステンレス}
  7
MTSTANDARD6
 73
     1
 44
0.78125
  0
MTEXT
  5
38F
330
1F
100
AcDbEntity
  8
1
  6
Continuous
 62
     7
100
AcDbMText
 10
862.0556445043118
 20
49.5121082637001
 30
0.0
 40
8.0
 41
0.0
 71
     7
 72
     5
  1
{\fＭＳ 明朝|b0|i0|c128|p17;\W1.0;表 面 処 理}
  7
MTSTANDARD6
 73
     1
 44
0.78125
  0
MTEXT
  5
390
330
1F
100
AcDbEntity
  8
1
  6
Continuous
 62
     7
100
AcDbMText
 10
856.0556445043118
 20
35.5121082637001
 30
0.0
 40
8.0
 41
0.0
 71
     7
 72
     5
  1
{\fＭＳ 明朝|b0|i0|c128|p17;\W1.0;ヘアライン仕上}
  7
MTSTANDARD6
 73
     1
 44
0.78125
  0
MTEXT
  5
391
330
1F
100
AcDbEntity
  8
1
  6
Continuous
 62
     7
100
AcDbMText
 10
880.0556445043118
 20
21.51210826370009
 30
0.0
 40
8.0
 41
0.0
 71
     7
 72
     5
  1
{\fＭＳ 明朝|b0|i0|c128|p17;\W1.0;－}
  7
MTSTANDARD6
 73
     1
 44
0.78125
  0
LINE
  5
392
330
1F
100
AcDbEntity
  8
1
  6
Continuous
 62
     7
100
AcDbLine
 10
914.055644504312
 20
4.512108263700085
 30
0.0
 11
684.0556445043118
 21
4.512108263700085
 31
0.0
  0
MTEXT
  5
393
330
1F
100
AcDbEntity
  8
1
  6
Continuous
 62
     7
100
AcDbMText
 10
689.0556445043118
 20
6.512108263700064
 30
0.0
 40
10.0
 41
0.0
 71
     7
 72
     5
  1
{\fＭＳ 明朝|b0|i0|c128|p17;\W1.0;③}
  7
MTSTANDARD
 73
     1
 44
0.75
  0
MTEXT
  5
394
330
1F
100
AcDbEntity
  8
1
  6
Continuous
 62
     7
100
AcDbMText
 10
712.0556445043118
 20
7.512108263700089
 30
0.0
 40
8.0
 41
0.0
 71
     7
 72
     5
  1
{\fＭＳ 明朝|b0|i0|c128|p17;\W1.0;ロックハンドル錠}
  7
MTSTANDARD6
 73
     1
 44
0.78125
  0
MTEXT
  5
395
330
1F
100
AcDbEntity
  8
1
  6
Continuous
 62
     7
100
AcDbMText
 10
860.0556445043118
 20
7.512108263700085
 30
0.0
 40
8.0
 41
0.0
 71
     7
 72
     5
  1
{\fＭＳ 明朝|b0|i0|c128|p17;\W1.0;クロムメッキ}
  7
MTSTANDARD6
 73
     1
 44
0.78125
  0
MTEXT
  5
396
330
1F
100
AcDbEntity
  8
1
  6
Continuous
 62
     7
100
AcDbMText
 10
791.0556445043118
 20
7.512108263700092
 30
0.0
 40
8.0
 41
0.0
 71
     7
 72
     5
  1
{\fＭＳ 明朝|b0|i0|c128|p17;\W1.0;ＺＤＣ亜鉛合金}
  7
MTSTANDARD6
 73
     1
 44
0.78125
  0
ENDSEC
  0
SECTION
  2
OBJECTS
  0
DICTIONARY
  5
C
330
0
100
AcDbDictionary
281
     1
  3
ACAD_GROUP
350
D
  3
ACAD_LAYOUT
350
1A
  3
ACAD_MATERIAL
350
43
  3
ACAD_MLEADERSTYLE
350
6B
  3
ACAD_MLINESTYLE
350
17
  3
ACAD_PLOTSETTINGS
350
19
  3
ACAD_PLOTSTYLENAME
350
E
  3
ACAD_SCALELIST
350
47
  3
ACAD_TABLESTYLE
350
69
  3
ACAD_VISUALSTYLE
350
2A
  3
AcDbVariableDictionary
350
3A6
  0
DICTIONARY
  5
3AD
330
8
100
AcDbDictionary
280
     1
281
     1
  3
ACAD_XREC_ROUNDTRIP
360
3AE
  0
DICTIONARY
  5
D
102
{ACAD_REACTORS
330
C
102
}
330
C
100
AcDbDictionary
281
     1
  0
DICTIONARY
  5
1A
102
{ACAD_REACTORS
330
C
102
}
330
C
100
AcDbDictionary
281
     1
  3
Layout1
350
1E
  3
Model
350
22
  0
DICTIONARY
  5
43
102
{ACAD_REACTORS
330
C
102
}
330
C
100
AcDbDictionary
281
     1
  3
ByBlock
350
45
  3
ByLayer
350
44
  3
Global
350
46
  0
DICTIONARY
  5
6B
102
{ACAD_REACTORS
330
C
102
}
330
C
100
AcDbDictionary
281
     1
  3
Standard
350
6C
  0
DICTIONARY
  5
17
102
{ACAD_REACTORS
330
C
102
}
330
C
100
AcDbDictionary
281
     1
  3
Standard
350
18
  0
DICTIONARY
  5
19
102
{ACAD_REACTORS
330
C
102
}
330
C
100
AcDbDictionary
281
     1
  0
ACDBDICTIONARYWDFLT
  5
E
102
{ACAD_REACTORS
330
C
102
}
330
C
100
AcDbDictionary
281
     1
  3
Normal
350
F
100
AcDbDictionaryWithDefault
340
F
  0
DICTIONARY
  5
47
102
{ACAD_REACTORS
330
C
102
}
330
C
100
AcDbDictionary
281
     1
  3
A0
350
48
  3
A1
350
49
  3
A2
350
4A
  3
A3
350
4B
  3
A4
350
4C
  3
A5
350
4D
  3
A6
350
4E
  3
A7
350
4F
  3
A8
350
50
  3
A9
350
51
  3
B0
350
52
  3
B1
350
53
  3
B2
350
54
  3
B3
350
55
  3
B4
350
56
  3
B5
350
57
  3
B6
350
58
  3
B7
350
59
  3
B8
350
5A
  3
B9
350
5B
  3
C0
350
5C
  3
C1
350
5D
  3
C2
350
5E
  3
C3
350
5F
  3
C4
350
60
  3
C5
350
61
  3
C6
350
62
  3
C7
350
63
  3
C8
350
64
  3
C9
350
65
  3
D0
350
66
  3
D1
350
67
  3
D2
350
68
  0
DICTIONARY
  5
69
102
{ACAD_REACTORS
330
C
102
}
330
C
100
AcDbDictionary
281
     1
  3
Standard
350
6A
  0
DICTIONARY
  5
2A
102
{ACAD_REACTORS
330
C
102
}
330
C
100
AcDbDictionary
281
     1
  3
2dWireframe
350
2F
  3
Basic
350
32
  3
Brighten
350
36
  3
ColorChange
350
3A
  3
Conceptual
350
34
  3
Dim
350
35
  3
EdgeColorOff
350
3D
  3
Facepattern
350
39
  3
Flat
350
2B
  3
FlatWithEdges
350
2C
  3
Gouraud
350
2D
  3
GouraudWithEdges
350
2E
  3
Hidden
350
31
  3
JitterOff
350
3B
  3
Linepattern
350
38
  3
OverhangOff
350
3C
  3
Realistic
350
33
  3
Shaded
350
42
  3
Shaded with edges
350
41
  3
Shades of Gray
350
3E
  3
Sketchy
350
3F
  3
Thicken
350
37
  3
Wireframe
350
30
  3
X-Ray
350
40
  0
DICTIONARY
  5
3A6
102
{ACAD_REACTORS
330
C
102
}
330
C
100
AcDbDictionary
281
     1
  3
CANNOSCALE
350
3AF
  3
CMLEADERSTYLE
350
3A8
  3
CTABLESTYLE
350
3A7
  3
DIMASSOC
350
3AB
  3
HIDETEXT
350
3AC
  3
MSLTSCALE
350
3B0
  0
XRECORD
  5
3AE
102
{ACAD_REACTORS
330
3AD
102
}
330
3AD
100
AcDbXrecord
280
     1
102
VTR_0.000_0.000_1.000_1.000_VISUALSTYLE
340
2F
102
VTR_0.000_0.000_1.000_1.000_GRIDDISPLAY
 70
     3
102
VTR_0.000_0.000_1.000_1.000_GRIDMAJOR
 70
     5
102
VTR_0.000_0.000_1.000_1.000_DEFAULTLIGHTING
280
     1
102
VTR_0.000_0.000_1.000_1.000_DEFAULTLIGHTINGTYPE
 70
     1
102
VTR_0.000_0.000_1.000_1.000_BRIGHTNESS
141
0.0
102
VTR_0.000_0.000_1.000_1.000_CONTRAST
142
0.0
  0
LAYOUT
  5
1E
102
{ACAD_REACTORS
330
1A
102
}
330
1A
100
AcDbPlotSettings
  1

  2
none_device
  4

  6

 40
0.0
 41
0.0
 42
0.0
 43
0.0
 44
0.0
 45
0.0
 46
0.0
 47
0.0
 48
0.0
 49
0.0
140
0.0
141
0.0
142
1.0
143
1.0
 70
   688
 72
     0
 73
     0
 74
     5
  7

 75
    16
147
1.0
148
0.0
149
0.0
100
AcDbLayout
  1
Layout1
 70
     1
 71
     1
 10
0.0
 20
0.0
 11
12.0
 21
9.0
 12
0.0
 22
0.0
 32
0.0
 14
1.000000000000000E+20
 24
1.000000000000000E+20
 34
1.000000000000000E+20
 15
-1.000000000000000E+20
 25
-1.000000000000000E+20
 35
-1.000000000000000E+20
146
0.0
 13
0.0
 23
0.0
 33
0.0
 16
1.0
 26
0.0
 36
0.0
 17
0.0
 27
1.0
 37
0.0
 76
     0
330
1B
  0
LAYOUT
  5
22
102
{ACAD_REACTORS
330
1A
102
}
330
1A
100
AcDbPlotSettings
  1

  2
none_device
  4
Letter_(8.50_x_11.00_Inches)
  6

 40
6.35
 41
6.35
 42
6.35000508
 43
6.35000508
 44
215.9
 45
279.4
 46
0.0
 47
0.0
 48
0.0
 49
0.0
140
0.0
141
0.0
142
1.0
143
1.0
 70
  1712
 72
     0
 73
     0
 74
     0
  7

 75
     0
147
1.0
148
0.0
149
0.0
100
AcDbLayout
  1
Model
 70
     1
 71
     0
 10
26.00231889422965
 20
-32.58190159949845
 11
1194.00231889423
 21
707.4180984005017
 12
26.00231889422965
 22
707.4180984005017
 32
0.0
 14
26.00231889422965
 24
-32.58190159949845
 34
0.0
 15
1194.00231889423
 25
707.4180984005017
 35
0.0
146
0.0
 13
0.0
 23
0.0
 33
0.0
 16
1.0
 26
0.0
 36
0.0
 17
0.0
 27
1.0
 37
0.0
 76
     0
330
1F
331
29
  0
MATERIAL
  5
45
102
{ACAD_REACTORS
330
43
102
}
102
{ACAD_XDICTIONARY
360
3E3
102
}
330
43
100
AcDbMaterial
  1
ByBlock
  0
MATERIAL
  5
44
102
{ACAD_REACTORS
330
43
102
}
102
{ACAD_XDICTIONARY
360
3E1
102
}
330
43
100
AcDbMaterial
  1
ByLayer
  0
MATERIAL
  5
46
102
{ACAD_REACTORS
330
43
102
}
102
{ACAD_XDICTIONARY
360
3E5
102
}
330
43
100
AcDbMaterial
  1
Global
  0
MLEADERSTYLE
  5
6C
102
{ACAD_REACTORS
330
6B
102
}
102
{ACAD_XDICTIONARY
360
3E8
102
}
330
6B
100
AcDbMLeaderStyle
170
     2
171
     1
172
     0
 90
        2
 40
0.0
 41
0.0
173
     1
 91
-1056964608
340
14
 92
       -2
290
     1
 42
0.09
291
     1
 43
0.36
  3
Standard
341
0
 44
0.18
300

342
11
174
     1
178
     6
175
     1
176
     0
 93
-1056964608
 45
0.18
292
     0
297
     0
 46
0.18
343
0
 94
-1056964608
 47
1.0
 49
1.0
140
1.0
293
     1
141
0.0
294
     1
177
     0
142
1.0
295
     0
296
     0
143
0.125
1001
ACAD_MLEADERVER
1070
     2
  0
MLINESTYLE
  5
18
102
{ACAD_REACTORS
330
17
102
}
330
17
100
AcDbMlineStyle
  2
Standard
 70
     0
  3

 62
   256
 51
90.0
 52
90.0
 71
     2
 49
0.5
 62
   256
  6
BYLAYER
 49
-0.5
 62
   256
  6
BYLAYER
  0
ACDBPLACEHOLDER
  5
F
102
{ACAD_REACTORS
330
E
102
}
330
E
  0
SCALE
  5
48
102
{ACAD_REACTORS
330
47
102
}
330
47
100
AcDbScale
 70
     0
300
1:1
140
1.0
141
1.0
290
     1
  0
SCALE
  5
49
102
{ACAD_REACTORS
330
47
102
}
330
47
100
AcDbScale
 70
     0
300
1:2
140
1.0
141
2.0
290
     0
  0
SCALE
  5
4A
102
{ACAD_REACTORS
330
47
102
}
330
47
100
AcDbScale
 70
     0
300
1:4
140
1.0
141
4.0
290
     0
  0
SCALE
  5
4B
102
{ACAD_REACTORS
330
47
102
}
330
47
100
AcDbScale
 70
     0
300
1:5
140
1.0
141
5.0
290
     0
  0
SCALE
  5
4C
102
{ACAD_REACTORS
330
47
102
}
330
47
100
AcDbScale
 70
     0
300
1:8
140
1.0
141
8.0
290
     0
  0
SCALE
  5
4D
102
{ACAD_REACTORS
330
47
102
}
330
47
100
AcDbScale
 70
     0
300
1:10
140
1.0
141
10.0
290
     0
  0
SCALE
  5
4E
102
{ACAD_REACTORS
330
47
102
}
330
47
100
AcDbScale
 70
     0
300
1:16
140
1.0
141
16.0
290
     0
  0
SCALE
  5
4F
102
{ACAD_REACTORS
330
47
102
}
330
47
100
AcDbScale
 70
     0
300
1:20
140
1.0
141
20.0
290
     0
  0
SCALE
  5
50
102
{ACAD_REACTORS
330
47
102
}
330
47
100
AcDbScale
 70
     0
300
1:30
140
1.0
141
30.0
290
     0
  0
SCALE
  5
51
102
{ACAD_REACTORS
330
47
102
}
330
47
100
AcDbScale
 70
     0
300
1:40
140
1.0
141
40.0
290
     0
  0
SCALE
  5
52
102
{ACAD_REACTORS
330
47
102
}
330
47
100
AcDbScale
 70
     0
300
1:50
140
1.0
141
50.0
290
     0
  0
SCALE
  5
53
102
{ACAD_REACTORS
330
47
102
}
330
47
100
AcDbScale
 70
     0
300
1:100
140
1.0
141
100.0
290
     0
  0
SCALE
  5
54
102
{ACAD_REACTORS
330
47
102
}
330
47
100
AcDbScale
 70
     0
300
2:1
140
2.0
141
1.0
290
     0
  0
SCALE
  5
55
102
{ACAD_REACTORS
330
47
102
}
330
47
100
AcDbScale
 70
     0
300
4:1
140
4.0
141
1.0
290
     0
  0
SCALE
  5
56
102
{ACAD_REACTORS
330
47
102
}
330
47
100
AcDbScale
 70
     0
300
8:1
140
8.0
141
1.0
290
     0
  0
SCALE
  5
57
102
{ACAD_REACTORS
330
47
102
}
330
47
100
AcDbScale
 70
     0
300
10:1
140
10.0
141
1.0
290
     0
  0
SCALE
  5
58
102
{ACAD_REACTORS
330
47
102
}
330
47
100
AcDbScale
 70
     0
300
100:1
140
100.0
141
1.0
290
     0
  0
SCALE
  5
59
102
{ACAD_REACTORS
330
47
102
}
330
47
100
AcDbScale
 70
     0
300
1/128" = 1'-0"
140
0.0078125
141
12.0
290
     0
  0
SCALE
  5
5A
102
{ACAD_REACTORS
330
47
102
}
330
47
100
AcDbScale
 70
     0
300
1/64" = 1'-0"
140
0.015625
141
12.0
290
     0
  0
SCALE
  5
5B
102
{ACAD_REACTORS
330
47
102
}
330
47
100
AcDbScale
 70
     0
300
1/32" = 1'-0"
140
0.03125
141
12.0
290
     0
  0
SCALE
  5
5C
102
{ACAD_REACTORS
330
47
102
}
330
47
100
AcDbScale
 70
     0
300
1/16" = 1'-0"
140
0.0625
141
12.0
290
     0
  0
SCALE
  5
5D
102
{ACAD_REACTORS
330
47
102
}
330
47
100
AcDbScale
 70
     0
300
3/32" = 1'-0"
140
0.09375
141
12.0
290
     0
  0
SCALE
  5
5E
102
{ACAD_REACTORS
330
47
102
}
330
47
100
AcDbScale
 70
     0
300
1/8" = 1'-0"
140
0.125
141
12.0
290
     0
  0
SCALE
  5
5F
102
{ACAD_REACTORS
330
47
102
}
330
47
100
AcDbScale
 70
     0
300
3/16" = 1'-0"
140
0.1875
141
12.0
290
     0
  0
SCALE
  5
60
102
{ACAD_REACTORS
330
47
102
}
330
47
100
AcDbScale
 70
     0
300
1/4" = 1'-0"
140
0.25
141
12.0
290
     0
  0
SCALE
  5
61
102
{ACAD_REACTORS
330
47
102
}
330
47
100
AcDbScale
 70
     0
300
3/8" = 1'-0"
140
0.375
141
12.0
290
     0
  0
SCALE
  5
62
102
{ACAD_REACTORS
330
47
102
}
330
47
100
AcDbScale
 70
     0
300
1/2" = 1'-0"
140
0.5
141
12.0
290
     0
  0
SCALE
  5
63
102
{ACAD_REACTORS
330
47
102
}
330
47
100
AcDbScale
 70
     0
300
3/4" = 1'-0"
140
0.75
141
12.0
290
     0
  0
SCALE
  5
64
102
{ACAD_REACTORS
330
47
102
}
330
47
100
AcDbScale
 70
     0
300
1" = 1'-0"
140
1.0
141
12.0
290
     0
  0
SCALE
  5
65
102
{ACAD_REACTORS
330
47
102
}
330
47
100
AcDbScale
 70
     0
300
1-1/2" = 1'-0"
140
1.5
141
12.0
290
     0
  0
SCALE
  5
66
102
{ACAD_REACTORS
330
47
102
}
330
47
100
AcDbScale
 70
     0
300
3" = 1'-0"
140
3.0
141
12.0
290
     0
  0
SCALE
  5
67
102
{ACAD_REACTORS
330
47
102
}
330
47
100
AcDbScale
 70
     0
300
6" = 1'-0"
140
6.0
141
12.0
290
     0
  0
SCALE
  5
68
102
{ACAD_REACTORS
330
47
102
}
330
47
100
AcDbScale
 70
     0
300
1'-0" = 1'-0"
140
12.0
141
12.0
290
     0
  0
TABLESTYLE
  5
6A
102
{ACAD_REACTORS
330
69
102
}
330
69
100
AcDbTableStyle
  3
Standard
 70
     0
 71
     0
 40
0.06
 41
0.06
280
     0
281
     0
  7
Standard
140
0.18
170
     2
 62
     0
 63
   257
283
     0
274
    -2
284
     1
 64
     0
275
    -2
285
     1
 65
     0
276
    -2
286
     1
 66
     0
277
    -2
287
     1
 67
     0
278
    -2
288
     1
 68
     0
279
    -2
289
     1
 69
     0
  7
Standard
140
0.25
170
     5
 62
     0
 63
   257
283
     0
274
    -2
284
     1
 64
     0
275
    -2
285
     1
 65
     0
276
    -2
286
     1
 66
     0
277
    -2
287
     1
 67
     0
278
    -2
288
     1
 68
     0
279
    -2
289
     1
 69
     0
  7
Standard
140
0.18
170
     5
 62
     0
 63
   257
283
     0
274
    -2
284
     1
 64
     0
275
    -2
285
     1
 65
     0
276
    -2
286
     1
 66
     0
277
    -2
287
     1
 67
     0
278
    -2
288
     1
 68
     0
279
    -2
289
     1
 69
     0
  0
VISUALSTYLE
  5
2F
102
{ACAD_REACTORS
330
2A
102
}
102
{ACAD_XDICTIONARY
360
3B9
102
}
330
2A
100
AcDbVisualStyle
  2
2dWireframe
 70
     4
 71
     0
 72
     2
 73
     0
 90
        0
 40
0.6
 41
30.0
 62
     5
 63
     7
 74
     1
 91
        4
 64
     7
 65
   257
 75
     1
175
     1
 42
1.0
 92
        0
 66
   257
 43
1.0
 76
     1
 77
     6
 78
     2
 67
     7
 79
     5
170
     0
171
     0
290
     0
174
     0
 93
        1
 44
0.0
173
     0
291
     0
 45
0.0
1001
ACAD
1000
AcDbSavedByObjectVersion
1070
     0
  0
VISUALSTYLE
  5
32
102
{ACAD_REACTORS
330
2A
102
}
102
{ACAD_XDICTIONARY
360
3BF
102
}
330
2A
100
AcDbVisualStyle
  2
Basic
 70
     7
 71
     1
 72
     0
 73
     1
 90
        0
 40
0.6
 41
30.0
 62
     5
 63
     7
 74
     0
 91
        4
 64
     7
 65
   257
 75
     1
175
     1
 42
1.0
 92
        8
 66
     7
 43
1.0
 76
     1
 77
     6
 78
     2
 67
     7
 79
     5
170
     0
171
     0
290
     0
174
     0
 93
        1
 44
0.0
173
     0
291
     1
 45
0.0
1001
ACAD
1000
AcDbSavedByObjectVersion
1070
     0
  0
VISUALSTYLE
  5
36
102
{ACAD_REACTORS
330
2A
102
}
102
{ACAD_XDICTIONARY
360
3C7
102
}
330
2A
100
AcDbVisualStyle
  2
Brighten
 70
    12
 71
     2
 72
     2
 73
     0
 90
        0
 40
0.6
 41
30.0
 62
     5
 63
     7
 74
     1
 91
        4
 64
     7
 65
   257
 75
     1
175
     1
 42
1.0
 92
        8
 66
     7
 43
1.0
 76
     1
 77
     6
 78
     2
 67
     7
 79
     5
170
     0
171
     0
290
     0
174
     0
 93
        1
 44
50.0
173
     0
291
     1
 45
0.0
1001
ACAD
1000
AcDbSavedByObjectVersion
1070
     0
  0
VISUALSTYLE
  5
3A
102
{ACAD_REACTORS
330
2A
102
}
102
{ACAD_XDICTIONARY
360
3CF
102
}
330
2A
100
AcDbVisualStyle
  2
ColorChange
 70
    16
 71
     2
 72
     2
 73
     3
 90
        0
 40
0.6
 41
30.0
 62
     5
 63
     8
 74
     1
 91
        4
 64
     7
 65
   257
 75
     1
175
     1
 42
1.0
 92
        8
 66
     8
 43
1.0
 76
     1
 77
     6
 78
     2
 67
     7
 79
     5
170
     0
171
     0
290
     0
174
     0
 93
        1
 44
0.0
173
     0
291
     1
 45
0.0
1001
ACAD
1000
AcDbSavedByObjectVersion
1070
     0
  0
VISUALSTYLE
  5
34
102
{ACAD_REACTORS
330
2A
102
}
102
{ACAD_XDICTIONARY
360
3C3
102
}
330
2A
100
AcDbVisualStyle
  2
Conceptual
 70
     9
 71
     3
 72
     2
 73
     0
 90
        0
 40
0.6
 41
30.0
 62
     5
 63
     7
 74
     2
 91
        2
 64
     7
 65
   257
 75
     1
175
     1
 42
179.0
 92
        8
 66
     7
 43
1.0
 76
     1
 77
     6
 78
     2
 67
     7
 79
     3
170
     0
171
     0
290
     0
174
     0
 93
        1
 44
0.0
173
     0
291
     0
 45
0.0
1001
ACAD
1000
AcDbSavedByObjectVersion
1070
     0
  0
VISUALSTYLE
  5
35
102
{ACAD_REACTORS
330
2A
102
}
102
{ACAD_XDICTIONARY
360
3C5
102
}
330
2A
100
AcDbVisualStyle
  2
Dim
 70
    11
 71
     2
 72
     2
 73
     0
 90
        0
 40
0.6
 41
30.0
 62
     5
 63
     7
 74
     1
 91
        4
 64
     7
 65
   257
 75
     1
175
     1
 42
1.0
 92
        8
 66
     7
 43
1.0
 76
     1
 77
     6
 78
     2
 67
     7
 79
     5
170
     0
171
     0
290
     0
174
     0
 93
        1
 44
-50.0
173
     0
291
     1
 45
0.0
1001
ACAD
1000
AcDbSavedByObjectVersion
1070
     0
  0
VISUALSTYLE
  5
3D
102
{ACAD_REACTORS
330
2A
102
}
102
{ACAD_XDICTIONARY
360
3D5
102
}
330
2A
100
AcDbVisualStyle
  2
EdgeColorOff
 70
    22
 71
     2
 72
     2
 73
     0
 90
        0
 40
0.6
 41
30.0
 62
     5
 63
     7
 74
     1
 91
        4
 64
     7
 65
   257
 75
     1
175
     1
 42
1.0
 92
        8
 66
     7
 43
1.0
 76
     1
 77
     6
 78
     2
 67
     7
 79
     5
170
     0
171
     0
290
     0
174
     0
 93
        1
 44
0.0
173
     0
291
     1
 45
0.0
1001
ACAD
1000
AcDbSavedByObjectVersion
1070
     0
  0
VISUALSTYLE
  5
39
102
{ACAD_REACTORS
330
2A
102
}
102
{ACAD_XDICTIONARY
360
3CD
102
}
330
2A
100
AcDbVisualStyle
  2
Facepattern
 70
    15
 71
     2
 72
     2
 73
     0
 90
        0
 40
0.6
 41
30.0
 62
     5
 63
     7
 74
     1
 91
        4
 64
     7
 65
   257
 75
     1
175
     1
 42
1.0
 92
        8
 66
     7
 43
1.0
 76
     1
 77
     6
 78
     2
 67
     7
 79
     5
170
     0
171
     0
290
     0
174
     0
 93
        1
 44
0.0
173
     0
291
     1
 45
0.0
1001
ACAD
1000
AcDbSavedByObjectVersion
1070
     0
  0
VISUALSTYLE
  5
2B
102
{ACAD_REACTORS
330
2A
102
}
102
{ACAD_XDICTIONARY
360
3B1
102
}
330
2A
100
AcDbVisualStyle
  2
Flat
 70
     0
 71
     2
 72
     1
 73
     1
 90
        2
 40
0.6
 41
30.0
 62
     5
 63
     7
 74
     0
 91
        0
 64
     7
 65
   257
 75
     1
175
     1
 42
1.0
 92
        8
 66
     7
 43
1.0
 76
     1
 77
     6
 78
     2
 67
     7
 79
     5
170
     0
171
     0
290
     0
174
     0
 93
       13
 44
0.0
173
     0
291
     1
 45
0.0
1001
ACAD
1000
AcDbSavedByObjectVersion
1070
     0
  0
VISUALSTYLE
  5
2C
102
{ACAD_REACTORS
330
2A
102
}
102
{ACAD_XDICTIONARY
360
3B3
102
}
330
2A
100
AcDbVisualStyle
  2
FlatWithEdges
 70
     1
 71
     2
 72
     1
 73
     1
 90
        2
 40
0.6
 41
30.0
 62
     5
 63
     7
 74
     1
 91
        0
 64
     7
 65
   257
 75
     1
175
     1
 42
1.0
 92
        0
 66
   257
 43
1.0
 76
     1
 77
     6
 78
     2
 67
     7
 79
     5
170
     0
171
     0
290
     0
174
     0
 93
       13
 44
0.0
173
     0
291
     1
 45
0.0
1001
ACAD
1000
AcDbSavedByObjectVersion
1070
     0
  0
VISUALSTYLE
  5
2D
102
{ACAD_REACTORS
330
2A
102
}
102
{ACAD_XDICTIONARY
360
3B5
102
}
330
2A
100
AcDbVisualStyle
  2
Gouraud
 70
     2
 71
     2
 72
     2
 73
     1
 90
        2
 40
0.6
 41
30.0
 62
     5
 63
     7
 74
     0
 91
        0
 64
     7
 65
   257
 75
     1
175
     1
 42
1.0
 92
        0
 66
     7
 43
1.0
 76
     1
 77
     6
 78
     2
 67
     7
 79
     5
170
     0
171
     0
290
     0
174
     0
 93
       13
 44
0.0
173
     0
291
     1
 45
0.0
1001
ACAD
1000
AcDbSavedByObjectVersion
1070
     0
  0
VISUALSTYLE
  5
2E
102
{ACAD_REACTORS
330
2A
102
}
102
{ACAD_XDICTIONARY
360
3B7
102
}
330
2A
100
AcDbVisualStyle
  2
GouraudWithEdges
 70
     3
 71
     2
 72
     2
 73
     1
 90
        2
 40
0.6
 41
30.0
 62
     5
 63
     7
 74
     1
 91
        0
 64
     7
 65
   257
 75
     1
175
     1
 42
1.0
 92
        0
 66
   257
 43
1.0
 76
     1
 77
     6
 78
     2
 67
     7
 79
     5
170
     0
171
     0
290
     0
174
     0
 93
       13
 44
0.0
173
     0
291
     1
 45
0.0
1001
ACAD
1000
AcDbSavedByObjectVersion
1070
     0
  0
VISUALSTYLE
  5
31
102
{ACAD_REACTORS
330
2A
102
}
102
{ACAD_XDICTIONARY
360
3BD
102
}
330
2A
100
AcDbVisualStyle
  2
Hidden
 70
     6
 71
     1
 72
     2
 73
     2
 90
        0
 40
0.6
 41
30.0
 62
     5
 63
     7
 74
     2
 91
        2
 64
     7
 65
   257
 75
     2
175
     1
 42
40.0
 92
        0
 66
   257
 43
1.0
 76
     1
 77
     6
 78
     2
 67
     7
 79
     3
170
     0
171
     0
290
     0
174
     0
 93
        1
 44
0.0
173
     0
291
     0
 45
0.0
1001
ACAD
1000
AcDbSavedByObjectVersion
1070
     0
  0
VISUALSTYLE
  5
3B
102
{ACAD_REACTORS
330
2A
102
}
102
{ACAD_XDICTIONARY
360
3D1
102
}
330
2A
100
AcDbVisualStyle
  2
JitterOff
 70
    20
 71
     2
 72
     2
 73
     0
 90
        0
 40
0.6
 41
30.0
 62
     5
 63
     7
 74
     1
 91
        4
 64
     7
 65
   257
 75
     1
175
     1
 42
1.0
 92
       10
 66
     7
 43
1.0
 76
     1
 77
     6
 78
     2
 67
     7
 79
     5
170
     0
171
     0
290
     0
174
     0
 93
        1
 44
0.0
173
     0
291
     1
 45
0.0
1001
ACAD
1000
AcDbSavedByObjectVersion
1070
     0
  0
VISUALSTYLE
  5
38
102
{ACAD_REACTORS
330
2A
102
}
102
{ACAD_XDICTIONARY
360
3CB
102
}
330
2A
100
AcDbVisualStyle
  2
Linepattern
 70
    14
 71
     2
 72
     2
 73
     0
 90
        0
 40
0.6
 41
30.0
 62
     5
 63
     7
 74
     1
 91
        4
 64
     7
 65
   257
 75
     7
175
     7
 42
1.0
 92
        8
 66
     7
 43
1.0
 76
     1
 77
     6
 78
     2
 67
     7
 79
     5
170
     0
171
     0
290
     0
174
     0
 93
        1
 44
0.0
173
     0
291
     1
 45
0.0
1001
ACAD
1000
AcDbSavedByObjectVersion
1070
     0
  0
VISUALSTYLE
  5
3C
102
{ACAD_REACTORS
330
2A
102
}
102
{ACAD_XDICTIONARY
360
3D3
102
}
330
2A
100
AcDbVisualStyle
  2
OverhangOff
 70
    21
 71
     2
 72
     2
 73
     0
 90
        0
 40
0.6
 41
30.0
 62
     5
 63
     7
 74
     1
 91
        4
 64
     7
 65
   257
 75
     1
175
     1
 42
1.0
 92
        9
 66
     7
 43
1.0
 76
     1
 77
     6
 78
     2
 67
     7
 79
     5
170
     0
171
     0
290
     0
174
     0
 93
        1
 44
0.0
173
     0
291
     1
 45
0.0
1001
ACAD
1000
AcDbSavedByObjectVersion
1070
     0
  0
VISUALSTYLE
  5
33
102
{ACAD_REACTORS
330
2A
102
}
102
{ACAD_XDICTIONARY
360
3C1
102
}
330
2A
100
AcDbVisualStyle
  2
Realistic
 70
     8
 71
     2
 72
     3
 73
     0
 90
        2
 40
0.6
 41
30.0
 62
     5
 63
     7
 74
     0
 91
        0
 64
     7
 65
   257
 75
     1
175
     1
 42
1.0
 92
        8
 66
   257
 43
1.0
 76
     1
 77
     6
 78
     2
 67
     7
 79
     3
170
     0
171
     0
290
     0
174
     0
 93
       13
 44
0.0
173
     0
291
     0
 45
0.0
1001
ACAD
1000
AcDbSavedByObjectVersion
1070
     0
  0
VISUALSTYLE
  5
42
102
{ACAD_REACTORS
330
2A
102
}
102
{ACAD_XDICTIONARY
360
3DF
102
}
330
2A
100
AcDbVisualStyle
  2
Shaded
 70
    27
 71
     2
 72
     2
 73
     1
 90
        2
 40
0.6
 41
30.0
 62
     5
 63
     7
 74
     0
 91
        4
 64
     7
 65
   257
 75
     1
175
     1
 42
1.0
 92
        8
 66
   257
 43
1.0
 76
     1
 77
     6
 78
     2
 67
     8
 79
     3
170
     0
171
     0
290
     0
174
     0
 93
        5
 44
0.0
173
     0
291
     0
 45
0.0
1001
ACAD
1000
AcDbSavedByObjectVersion
1070
     0
  0
VISUALSTYLE
  5
41
102
{ACAD_REACTORS
330
2A
102
}
102
{ACAD_XDICTIONARY
360
3DD
102
}
330
2A
100
AcDbVisualStyle
  2
Shaded with edges
 70
    26
 71
     2
 72
     2
 73
     1
 90
        2
 40
0.6
 41
30.0
 62
     5
 63
     7
 74
     1
 91
       10
 64
     7
 65
   257
 75
     2
175
     1
 42
1.0
 92
        8
 66
   257
 43
1.0
 76
     1
 77
     6
 78
     2
 67
     7
 79
     3
170
     0
171
     0
290
     0
174
     0
 93
        5
 44
0.0
173
     0
291
     0
 45
0.0
1001
ACAD
1000
AcDbSavedByObjectVersion
1070
     0
  0
VISUALSTYLE
  5
3E
102
{ACAD_REACTORS
330
2A
102
}
102
{ACAD_XDICTIONARY
360
3D7
102
}
330
2A
100
AcDbVisualStyle
  2
Shades of Gray
 70
    23
 71
     2
 72
     2
 73
     3
 90
        0
 40
0.6
 41
30.0
 62
     5
 63
     7
 74
     2
 91
        2
 64
     7
 65
     7
 75
     1
175
     1
 42
40.0
 92
        8
 66
     7
 43
1.0
 76
     1
 77
     6
 78
     2
 67
     7
 79
     3
170
     0
171
     0
290
     0
174
     0
 93
        1
 44
0.0
173
     0
291
     0
 45
0.0
1001
ACAD
1000
AcDbSavedByObjectVersion
1070
     0
  0
VISUALSTYLE
  5
3F
102
{ACAD_REACTORS
330
2A
102
}
102
{ACAD_XDICTIONARY
360
3D9
102
}
330
2A
100
AcDbVisualStyle
  2
Sketchy
 70
    24
 71
     1
 72
     2
 73
     2
 90
        0
 40
0.6
 41
30.0
 62
     5
 63
     7
 74
     2
 91
        2
 64
     7
 65
     7
 75
     1
175
     1
 42
40.0
 92
       11
 66
     7
 43
1.0
 76
     1
 77
     6
 78
     2
 67
     7
 79
     6
170
     0
171
     0
290
     0
174
     0
 93
        1
 44
0.0
173
     0
291
     0
 45
0.0
1001
ACAD
1000
AcDbSavedByObjectVersion
1070
     0
  0
VISUALSTYLE
  5
37
102
{ACAD_REACTORS
330
2A
102
}
102
{ACAD_XDICTIONARY
360
3C9
102
}
330
2A
100
AcDbVisualStyle
  2
Thicken
 70
    13
 71
     2
 72
     2
 73
     0
 90
        0
 40
0.6
 41
30.0
 62
     5
 63
     7
 74
     1
 91
        4
 64
     7
 65
   257
 75
     1
175
     1
 42
1.0
 92
       12
 66
     7
 43
1.0
 76
     1
 77
     6
 78
     2
 67
     7
 79
     5
170
     0
171
     0
290
     0
174
     0
 93
        1
 44
0.0
173
     0
291
     1
 45
0.0
1001
ACAD
1000
AcDbSavedByObjectVersion
1070
     0
  0
VISUALSTYLE
  5
30
102
{ACAD_REACTORS
330
2A
102
}
102
{ACAD_XDICTIONARY
360
3BB
102
}
330
2A
100
AcDbVisualStyle
  2
Wireframe
 70
     5
 71
     0
 72
     2
 73
     0
 90
        0
 40
0.6
 41
30.0
 62
     5
 63
     7
 74
     1
 91
        4
 64
     7
 65
   257
 75
     1
175
     1
 42
1.0
 92
        0
 66
   257
 43
1.0
 76
     1
 77
     6
 78
     2
 67
     7
 79
     3
170
     0
171
     0
290
     0
174
     0
 93
        1
 44
0.0
173
     0
291
     0
 45
0.0
1001
ACAD
1000
AcDbSavedByObjectVersion
1070
     0
  0
VISUALSTYLE
  5
40
102
{ACAD_REACTORS
330
2A
102
}
102
{ACAD_XDICTIONARY
360
3DB
102
}
330
2A
100
AcDbVisualStyle
  2
X-Ray
 70
    25
 71
     2
 72
     2
 73
     1
 90
        1
 40
0.5
 41
30.0
 62
     5
 63
     7
 74
     1
 91
        0
 64
     7
 65
   257
 75
     1
175
     1
 42
1.0
 92
        8
 66
     7
 43
1.0
 76
     1
 77
     6
 78
     2
 67
     7
 79
     3
170
     0
171
     0
290
     0
174
     0
 93
       13
 44
0.0
173
     0
291
     0
 45
0.0
1001
ACAD
1000
AcDbSavedByObjectVersion
1070
     0
  0
DICTIONARYVAR
  5
3AF
102
{ACAD_REACTORS
330
3A6
102
}
330
3A6
100
DictionaryVariables
280
     0
  1
1:1
  0
DICTIONARYVAR
  5
3A8
102
{ACAD_REACTORS
330
3A6
102
}
330
3A6
100
DictionaryVariables
280
     0
  1
Standard
  0
DICTIONARYVAR
  5
3A7
102
{ACAD_REACTORS
330
3A6
102
}
330
3A6
100
DictionaryVariables
280
     0
  1
Standard
  0
DICTIONARYVAR
  5
3AB
102
{ACAD_REACTORS
330
3A6
102
}
330
3A6
100
DictionaryVariables
280
     0
  1
2
  0
DICTIONARYVAR
  5
3AC
102
{ACAD_REACTORS
330
3A6
102
}
330
3A6
100
DictionaryVariables
280
     0
  1
1
  0
DICTIONARYVAR
  5
3B0
102
{ACAD_REACTORS
330
3A6
102
}
330
3A6
100
DictionaryVariables
280
     0
  1
1
  0
DICTIONARY
  5
3E3
330
45
100
AcDbDictionary
280
     1
281
     1
  3
ACAD_XREC_ROUNDTRIP
360
3E4
  0
DICTIONARY
  5
3E1
330
44
100
AcDbDictionary
280
     1
281
     1
  3
ACAD_XREC_ROUNDTRIP
360
3E2
  0
DICTIONARY
  5
3E5
330
46
100
AcDbDictionary
280
     1
281
     1
  3
ACAD_XREC_ROUNDTRIP
360
3E6
  0
DICTIONARY
  5
3E8
330
6C
100
AcDbDictionary
280
     1
281
     1
  3
ACAD_XREC_ROUNDTRIP
360
3E9
  0
DICTIONARY
  5
3B9
330
2F
100
AcDbDictionary
280
     1
281
     1
  3
ACAD_XREC_ROUNDTRIP
360
3BA
  0
DICTIONARY
  5
3BF
330
32
100
AcDbDictionary
280
     1
281
     1
  3
ACAD_XREC_ROUNDTRIP
360
3C0
  0
DICTIONARY
  5
3C7
330
36
100
AcDbDictionary
280
     1
281
     1
  3
ACAD_XREC_ROUNDTRIP
360
3C8
  0
DICTIONARY
  5
3CF
330
3A
100
AcDbDictionary
280
     1
281
     1
  3
ACAD_XREC_ROUNDTRIP
360
3D0
  0
DICTIONARY
  5
3C3
330
34
100
AcDbDictionary
280
     1
281
     1
  3
ACAD_XREC_ROUNDTRIP
360
3C4
  0
DICTIONARY
  5
3C5
330
35
100
AcDbDictionary
280
     1
281
     1
  3
ACAD_XREC_ROUNDTRIP
360
3C6
  0
DICTIONARY
  5
3D5
330
3D
100
AcDbDictionary
280
     1
281
     1
  3
ACAD_XREC_ROUNDTRIP
360
3D6
  0
DICTIONARY
  5
3CD
330
39
100
AcDbDictionary
280
     1
281
     1
  3
ACAD_XREC_ROUNDTRIP
360
3CE
  0
DICTIONARY
  5
3B1
330
2B
100
AcDbDictionary
280
     1
281
     1
  3
ACAD_XREC_ROUNDTRIP
360
3B2
  0
DICTIONARY
  5
3B3
330
2C
100
AcDbDictionary
280
     1
281
     1
  3
ACAD_XREC_ROUNDTRIP
360
3B4
  0
DICTIONARY
  5
3B5
330
2D
100
AcDbDictionary
280
     1
281
     1
  3
ACAD_XREC_ROUNDTRIP
360
3B6
  0
DICTIONARY
  5
3B7
330
2E
100
AcDbDictionary
280
     1
281
     1
  3
ACAD_XREC_ROUNDTRIP
360
3B8
  0
DICTIONARY
  5
3BD
330
31
100
AcDbDictionary
280
     1
281
     1
  3
ACAD_XREC_ROUNDTRIP
360
3BE
  0
DICTIONARY
  5
3D1
330
3B
100
AcDbDictionary
280
     1
281
     1
  3
ACAD_XREC_ROUNDTRIP
360
3D2
  0
DICTIONARY
  5
3CB
330
38
100
AcDbDictionary
280
     1
281
     1
  3
ACAD_XREC_ROUNDTRIP
360
3CC
  0
DICTIONARY
  5
3D3
330
3C
100
AcDbDictionary
280
     1
281
     1
  3
ACAD_XREC_ROUNDTRIP
360
3D4
  0
DICTIONARY
  5
3C1
330
33
100
AcDbDictionary
280
     1
281
     1
  3
ACAD_XREC_ROUNDTRIP
360
3C2
  0
DICTIONARY
  5
3DF
330
42
100
AcDbDictionary
280
     1
281
     1
  3
ACAD_XREC_ROUNDTRIP
360
3E0
  0
DICTIONARY
  5
3DD
330
41
100
AcDbDictionary
280
     1
281
     1
  3
ACAD_XREC_ROUNDTRIP
360
3DE
  0
DICTIONARY
  5
3D7
330
3E
100
AcDbDictionary
280
     1
281
     1
  3
ACAD_XREC_ROUNDTRIP
360
3D8
  0
DICTIONARY
  5
3D9
330
3F
100
AcDbDictionary
280
     1
281
     1
  3
ACAD_XREC_ROUNDTRIP
360
3DA
  0
DICTIONARY
  5
3C9
330
37
100
AcDbDictionary
280
     1
281
     1
  3
ACAD_XREC_ROUNDTRIP
360
3CA
  0
DICTIONARY
  5
3BB
330
30
100
AcDbDictionary
280
     1
281
     1
  3
ACAD_XREC_ROUNDTRIP
360
3BC
  0
DICTIONARY
  5
3DB
330
40
100
AcDbDictionary
280
     1
281
     1
  3
ACAD_XREC_ROUNDTRIP
360
3DC
  0
XRECORD
  5
3E4
102
{ACAD_REACTORS
330
3E3
102
}
330
3E3
100
AcDbXrecord
280
     1
102
MATERIAL
148
0.0
149
0.0
149
0.0
 93
        0
 94
      127
282
     0
 72
     1
 77
     1
171
     1
175
     1
179
     1
273
     0
  0
XRECORD
  5
3E2
102
{ACAD_REACTORS
330
3E1
102
}
330
3E1
100
AcDbXrecord
280
     1
102
MATERIAL
148
0.0
149
0.0
149
0.0
 93
        0
 94
      127
282
     0
 72
     1
 77
     1
171
     1
175
     1
179
     1
273
     0
  0
XRECORD
  5
3E6
102
{ACAD_REACTORS
330
3E5
102
}
330
3E5
100
AcDbXrecord
280
     1
102
MATERIAL
148
0.0
149
0.0
149
0.0
 93
        0
 94
      127
282
     0
 72
     1
 77
     1
171
     1
175
     1
179
     1
273
     0
  0
XRECORD
  5
3E9
102
{ACAD_REACTORS
330
3E8
102
}
330
3E8
100
AcDbXrecord
280
     1
102
ACAD_ROUNDTRIP_2010_MLEADER_STYLE
  0
XRECORD
  5
3BA
102
{ACAD_REACTORS
330
3B9
102
}
330
3B9
100
AcDbXrecord
280
     1
102
RTVSPropertyOp0
 70
     1
102
RTVSPropertyOp1
 70
     1
102
RTVSPropertyOp2
 70
     1
102
RTVSPropertyOp3
 70
     1
102
RTVSPropertyOp4
 70
     1
102
RTVSPropertyOp5
 70
     1
102
RTVSPropertyOp6
 70
     1
102
RTVSPropertyOp7
 70
     1
102
RTVSPropertyOp8
 70
     1
102
RTVSPropertyOp9
 70
     1
102
RTVSPropertyOp10
 70
     1
102
RTVSPropertyOp11
 70
     1
102
RTVSPropertyOp12
 70
     1
102
RTVSPropertyOp13
 70
     1
102
RTVSPropertyOp14
 70
     1
102
RTVSPropertyOp15
 70
     1
102
RTVSPropertyOp16
 70
     1
102
RTVSPropertyOp17
 70
     1
102
RTVSPropertyOp18
 70
     1
102
RTVSPropertyOp19
 70
     1
102
RTVSPropertyOp20
 70
     1
102
RTVSPropertyOp21
 70
     1
102
RTVSPropertyOp22
 70
     1
102
RTVSPropertyOp23
 70
     1
102
RTVSPropertyOp24
 70
     1
102
RTVSPropertyOp25
 70
     1
102
RTVSPropertyOp26
 70
     1
102
RTVSPropertyOp27
 70
     1
102
RTVSPropertyOp28
 70
     1
102
RTVSPropertyOp29
 70
     1
102
RTVSPropertyOp30
 70
     1
102
RTVSPropertyOp31
 70
     1
102
RTVSPropertyOp32
 70
     1
102
RTVSPropertyOp33
 70
     1
102
RTVSPropertyOp34
 70
     1
102
RTVSPropertyOp35
 70
     1
102
RTVSPropertyOp36
 70
     1
102
RTVSPropertyOp37
 70
     1
102
RTVSPropertyOp38
 70
     1
102
RTVSPropertyOp39
 70
     1
102
RTVSPropertyOp40
 70
     1
102
RTVSPropertyOp41
 70
     1
102
RTVSPropertyOp42
 70
     1
102
RTVSPropertyOp43
 70
     1
102
RTVSPropertyOp44
 70
     1
102
RTVSPropertyOp45
 70
     1
102
RTVSPropertyOp46
 70
     1
102
RTVSPropertyOp47
 70
     1
102
RTVSPropertyOp48
 70
     1
102
RTVSPropertyOp49
 70
     1
102
RTVSPropertyOp50
 70
     1
102
RTVSPropertyOp51
 70
     0
102
RTVSPropertyOp52
 70
     0
102
RTVSPropertyOp53
 70
     1
102
RTVSPropertyOp54
 70
     1
102
RTVSPropertyOp55
 70
     1
102
RTVSPropertyOp56
 70
     1
102
RTVSPropertyOp57
 70
     1
102
RTVSPost2010Prop28
280
     1
102
RTVSPost2010PropOp28
 70
     1
102
RTVSPost2010Prop29
280
     1
102
RTVSPost2010PropOp29
 70
     1
102
RTVSPost2010Prop30
280
     0
102
RTVSPost2010PropOp30
 70
     1
102
RTVSPost2010Prop31
280
     0
102
RTVSPost2010PropOp31
 70
     1
102
RTVSPost2010Prop32
280
     0
102
RTVSPost2010PropOp32
 70
     1
102
RTVSPost2010Prop33
280
     0
102
RTVSPost2010PropOp33
 70
     1
102
RTVSPost2010Prop34
280
     0
102
RTVSPost2010PropOp34
 70
     1
102
RTVSPost2010Prop35
280
     0
102
RTVSPost2010PropOp35
 70
     1
102
RTVSPost2010Prop36
280
     0
102
RTVSPost2010PropOp36
 70
     1
102
RTVSPost2010Prop37
 90
       50
102
RTVSPost2010PropOp37
 70
     1
102
RTVSPost2010Prop38
140
0.0
102
RTVSPost2010PropOp38
 70
     1
102
RTVSPost2010Prop39
140
1.0
102
RTVSPost2010PropOp39
 70
     1
102
RTVSPost2010Prop40
 90
        0
102
RTVSPost2010PropOp40
 70
     1
102
RTVSPost2010Prop41ColorIndex
 90
       18
102
RTVSPost2010Prop41ColorRGB
 90
        0
102
RTVSPost2010PropOp41
 70
     1
102
RTVSPost2010Prop42
 90
       50
102
RTVSPost2010PropOp42
 70
     1
102
RTVSPost2010Prop43
 90
        3
102
RTVSPost2010PropOp43
 70
     1
102
RTVSPost2010Prop44ColorIndex
 90
        5
102
RTVSPost2010Prop44ColorRGB
 90
      255
102
RTVSPost2010PropOp44
 70
     1
102
RTVSPost2010Prop45
280
     0
102
RTVSPost2010PropOp45
 70
     1
102
RTVSPost2010Prop46
 90
       50
102
RTVSPost2010PropOp46
 70
     1
102
RTVSPost2010Prop47
 90
       50
102
RTVSPost2010PropOp47
 70
     1
102
RTVSPost2010Prop48
 90
       50
102
RTVSPost2010PropOp48
 70
     1
102
RTVSPost2010Prop49
280
     0
102
RTVSPost2010PropOp49
 70
     1
102
RTVSPost2010Prop50
 90
       50
102
RTVSPost2010PropOp50
 70
     1
102
RTVSPost2010Prop51ColorIndex
 90
      256
102
RTVSPost2010Prop51ColorRGB
 90
-16777216
102
RTVSPost2010PropOp51
 70
     0
102
RTVSPost2010Prop52
140
1.0
102
RTVSPost2010PropOp52
 70
     0
102
RTVSPost2010Prop53
 90
        2
102
RTVSPost2010PropOp53
 70
     1
102
RTVSPost2010Prop54
  1
strokes_ogs.tif
102
RTVSPost2010PropOp54
 70
     1
102
RTVSPost2010Prop55
280
     0
102
RTVSPost2010PropOp55
 70
     1
102
RTVSPost2010Prop56
140
1.0
102
RTVSPost2010PropOp56
 70
     1
102
RTVSPost2010Prop57
140
1.0
102
RTVSPost2010PropOp57
 70
     1
  0
XRECORD
  5
3C0
102
{ACAD_REACTORS
330
3BF
102
}
330
3BF
100
AcDbXrecord
280
     1
102
RTVSPropertyOp0
 70
     1
102
RTVSPropertyOp1
 70
     1
102
RTVSPropertyOp2
 70
     1
102
RTVSPropertyOp3
 70
     1
102
RTVSPropertyOp4
 70
     1
102
RTVSPropertyOp5
 70
     1
102
RTVSPropertyOp6
 70
     1
102
RTVSPropertyOp7
 70
     1
102
RTVSPropertyOp8
 70
     1
102
RTVSPropertyOp9
 70
     1
102
RTVSPropertyOp10
 70
     1
102
RTVSPropertyOp11
 70
     1
102
RTVSPropertyOp12
 70
     1
102
RTVSPropertyOp13
 70
     1
102
RTVSPropertyOp14
 70
     1
102
RTVSPropertyOp15
 70
     1
102
RTVSPropertyOp16
 70
     1
102
RTVSPropertyOp17
 70
     1
102
RTVSPropertyOp18
 70
     1
102
RTVSPropertyOp19
 70
     1
102
RTVSPropertyOp20
 70
     1
102
RTVSPropertyOp21
 70
     1
102
RTVSPropertyOp22
 70
     1
102
RTVSPropertyOp23
 70
     1
102
RTVSPropertyOp24
 70
     1
102
RTVSPropertyOp25
 70
     1
102
RTVSPropertyOp26
 70
     1
102
RTVSPropertyOp27
 70
     1
102
RTVSPropertyOp28
 70
     1
102
RTVSPropertyOp29
 70
     1
102
RTVSPropertyOp30
 70
     1
102
RTVSPropertyOp31
 70
     1
102
RTVSPropertyOp32
 70
     1
102
RTVSPropertyOp33
 70
     1
102
RTVSPropertyOp34
 70
     1
102
RTVSPropertyOp35
 70
     1
102
RTVSPropertyOp36
 70
     1
102
RTVSPropertyOp37
 70
     1
102
RTVSPropertyOp38
 70
     1
102
RTVSPropertyOp39
 70
     1
102
RTVSPropertyOp40
 70
     1
102
RTVSPropertyOp41
 70
     1
102
RTVSPropertyOp42
 70
     1
102
RTVSPropertyOp43
 70
     1
102
RTVSPropertyOp44
 70
     1
102
RTVSPropertyOp45
 70
     1
102
RTVSPropertyOp46
 70
     1
102
RTVSPropertyOp47
 70
     1
102
RTVSPropertyOp48
 70
     1
102
RTVSPropertyOp49
 70
     1
102
RTVSPropertyOp50
 70
     1
102
RTVSPropertyOp51
 70
     0
102
RTVSPropertyOp52
 70
     0
102
RTVSPropertyOp53
 70
     1
102
RTVSPropertyOp54
 70
     1
102
RTVSPropertyOp55
 70
     1
102
RTVSPropertyOp56
 70
     1
102
RTVSPropertyOp57
 70
     1
102
RTVSPost2010Prop28
280
     0
102
RTVSPost2010PropOp28
 70
     1
102
RTVSPost2010Prop29
280
     1
102
RTVSPost2010PropOp29
 70
     1
102
RTVSPost2010Prop30
280
     1
102
RTVSPost2010PropOp30
 70
     1
102
RTVSPost2010Prop31
280
     0
102
RTVSPost2010PropOp31
 70
     1
102
RTVSPost2010Prop32
280
     0
102
RTVSPost2010PropOp32
 70
     1
102
RTVSPost2010Prop33
280
     0
102
RTVSPost2010PropOp33
 70
     1
102
RTVSPost2010Prop34
280
     0
102
RTVSPost2010PropOp34
 70
     1
102
RTVSPost2010Prop35
280
     0
102
RTVSPost2010PropOp35
 70
     1
102
RTVSPost2010Prop36
280
     0
102
RTVSPost2010PropOp36
 70
     1
102
RTVSPost2010Prop37
 90
       50
102
RTVSPost2010PropOp37
 70
     1
102
RTVSPost2010Prop38
140
0.0
102
RTVSPost2010PropOp38
 70
     1
102
RTVSPost2010Prop39
140
1.0
102
RTVSPost2010PropOp39
 70
     1
102
RTVSPost2010Prop40
 90
        0
102
RTVSPost2010PropOp40
 70
     1
102
RTVSPost2010Prop41ColorIndex
 90
       18
102
RTVSPost2010Prop41ColorRGB
 90
        0
102
RTVSPost2010PropOp41
 70
     1
102
RTVSPost2010Prop42
 90
       50
102
RTVSPost2010PropOp42
 70
     1
102
RTVSPost2010Prop43
 90
        3
102
RTVSPost2010PropOp43
 70
     1
102
RTVSPost2010Prop44ColorIndex
 90
        5
102
RTVSPost2010Prop44ColorRGB
 90
      255
102
RTVSPost2010PropOp44
 70
     1
102
RTVSPost2010Prop45
280
     0
102
RTVSPost2010PropOp45
 70
     1
102
RTVSPost2010Prop46
 90
       50
102
RTVSPost2010PropOp46
 70
     1
102
RTVSPost2010Prop47
 90
       50
102
RTVSPost2010PropOp47
 70
     1
102
RTVSPost2010Prop48
 90
       50
102
RTVSPost2010PropOp48
 70
     1
102
RTVSPost2010Prop49
280
     0
102
RTVSPost2010PropOp49
 70
     1
102
RTVSPost2010Prop50
 90
       50
102
RTVSPost2010PropOp50
 70
     1
102
RTVSPost2010Prop51ColorIndex
 90
      256
102
RTVSPost2010Prop51ColorRGB
 90
-16777216
102
RTVSPost2010PropOp51
 70
     0
102
RTVSPost2010Prop52
140
1.0
102
RTVSPost2010PropOp52
 70
     0
102
RTVSPost2010Prop53
 90
        2
102
RTVSPost2010PropOp53
 70
     1
102
RTVSPost2010Prop54
  1
strokes_ogs.tif
102
RTVSPost2010PropOp54
 70
     1
102
RTVSPost2010Prop55
280
     0
102
RTVSPost2010PropOp55
 70
     1
102
RTVSPost2010Prop56
140
1.0
102
RTVSPost2010PropOp56
 70
     1
102
RTVSPost2010Prop57
140
1.0
102
RTVSPost2010PropOp57
 70
     1
  0
XRECORD
  5
3C8
102
{ACAD_REACTORS
330
3C7
102
}
330
3C7
100
AcDbXrecord
280
     1
102
RTVSPropertyOp0
 70
     1
102
RTVSPropertyOp1
 70
     1
102
RTVSPropertyOp2
 70
     1
102
RTVSPropertyOp3
 70
     1
102
RTVSPropertyOp4
 70
     1
102
RTVSPropertyOp5
 70
     1
102
RTVSPropertyOp6
 70
     1
102
RTVSPropertyOp7
 70
     1
102
RTVSPropertyOp8
 70
     1
102
RTVSPropertyOp9
 70
     1
102
RTVSPropertyOp10
 70
     1
102
RTVSPropertyOp11
 70
     1
102
RTVSPropertyOp12
 70
     1
102
RTVSPropertyOp13
 70
     1
102
RTVSPropertyOp14
 70
     1
102
RTVSPropertyOp15
 70
     1
102
RTVSPropertyOp16
 70
     1
102
RTVSPropertyOp17
 70
     1
102
RTVSPropertyOp18
 70
     1
102
RTVSPropertyOp19
 70
     1
102
RTVSPropertyOp20
 70
     1
102
RTVSPropertyOp21
 70
     1
102
RTVSPropertyOp22
 70
     1
102
RTVSPropertyOp23
 70
     1
102
RTVSPropertyOp24
 70
     1
102
RTVSPropertyOp25
 70
     1
102
RTVSPropertyOp26
 70
     1
102
RTVSPropertyOp27
 70
     1
102
RTVSPropertyOp28
 70
     1
102
RTVSPropertyOp29
 70
     1
102
RTVSPropertyOp30
 70
     1
102
RTVSPropertyOp31
 70
     1
102
RTVSPropertyOp32
 70
     1
102
RTVSPropertyOp33
 70
     1
102
RTVSPropertyOp34
 70
     1
102
RTVSPropertyOp35
 70
     1
102
RTVSPropertyOp36
 70
     1
102
RTVSPropertyOp37
 70
     1
102
RTVSPropertyOp38
 70
     1
102
RTVSPropertyOp39
 70
     1
102
RTVSPropertyOp40
 70
     1
102
RTVSPropertyOp41
 70
     1
102
RTVSPropertyOp42
 70
     1
102
RTVSPropertyOp43
 70
     1
102
RTVSPropertyOp44
 70
     1
102
RTVSPropertyOp45
 70
     1
102
RTVSPropertyOp46
 70
     1
102
RTVSPropertyOp47
 70
     1
102
RTVSPropertyOp48
 70
     1
102
RTVSPropertyOp49
 70
     1
102
RTVSPropertyOp50
 70
     1
102
RTVSPropertyOp51
 70
     0
102
RTVSPropertyOp52
 70
     0
102
RTVSPropertyOp53
 70
     1
102
RTVSPropertyOp54
 70
     1
102
RTVSPropertyOp55
 70
     1
102
RTVSPropertyOp56
 70
     1
102
RTVSPropertyOp57
 70
     1
102
RTVSPost2010Prop28
280
     0
102
RTVSPost2010PropOp28
 70
     1
102
RTVSPost2010Prop29
280
     1
102
RTVSPost2010PropOp29
 70
     1
102
RTVSPost2010Prop30
280
     1
102
RTVSPost2010PropOp30
 70
     1
102
RTVSPost2010Prop31
280
     0
102
RTVSPost2010PropOp31
 70
     1
102
RTVSPost2010Prop32
280
     0
102
RTVSPost2010PropOp32
 70
     1
102
RTVSPost2010Prop33
280
     0
102
RTVSPost2010PropOp33
 70
     1
102
RTVSPost2010Prop34
280
     0
102
RTVSPost2010PropOp34
 70
     1
102
RTVSPost2010Prop35
280
     0
102
RTVSPost2010PropOp35
 70
     1
102
RTVSPost2010Prop36
280
     0
102
RTVSPost2010PropOp36
 70
     1
102
RTVSPost2010Prop37
 90
       50
102
RTVSPost2010PropOp37
 70
     1
102
RTVSPost2010Prop38
140
0.0
102
RTVSPost2010PropOp38
 70
     1
102
RTVSPost2010Prop39
140
1.0
102
RTVSPost2010PropOp39
 70
     1
102
RTVSPost2010Prop40
 90
        0
102
RTVSPost2010PropOp40
 70
     1
102
RTVSPost2010Prop41ColorIndex
 90
       18
102
RTVSPost2010Prop41ColorRGB
 90
        0
102
RTVSPost2010PropOp41
 70
     1
102
RTVSPost2010Prop42
 90
       50
102
RTVSPost2010PropOp42
 70
     1
102
RTVSPost2010Prop43
 90
        3
102
RTVSPost2010PropOp43
 70
     1
102
RTVSPost2010Prop44ColorIndex
 90
        5
102
RTVSPost2010Prop44ColorRGB
 90
      255
102
RTVSPost2010PropOp44
 70
     1
102
RTVSPost2010Prop45
280
     0
102
RTVSPost2010PropOp45
 70
     1
102
RTVSPost2010Prop46
 90
       50
102
RTVSPost2010PropOp46
 70
     1
102
RTVSPost2010Prop47
 90
       50
102
RTVSPost2010PropOp47
 70
     1
102
RTVSPost2010Prop48
 90
       50
102
RTVSPost2010PropOp48
 70
     1
102
RTVSPost2010Prop49
280
     0
102
RTVSPost2010PropOp49
 70
     1
102
RTVSPost2010Prop50
 90
       50
102
RTVSPost2010PropOp50
 70
     1
102
RTVSPost2010Prop51ColorIndex
 90
      256
102
RTVSPost2010Prop51ColorRGB
 90
-16777216
102
RTVSPost2010PropOp51
 70
     0
102
RTVSPost2010Prop52
140
1.0
102
RTVSPost2010PropOp52
 70
     0
102
RTVSPost2010Prop53
 90
        2
102
RTVSPost2010PropOp53
 70
     1
102
RTVSPost2010Prop54
  1
strokes_ogs.tif
102
RTVSPost2010PropOp54
 70
     1
102
RTVSPost2010Prop55
280
     0
102
RTVSPost2010PropOp55
 70
     1
102
RTVSPost2010Prop56
140
1.0
102
RTVSPost2010PropOp56
 70
     1
102
RTVSPost2010Prop57
140
1.0
102
RTVSPost2010PropOp57
 70
     1
  0
XRECORD
  5
3D0
102
{ACAD_REACTORS
330
3CF
102
}
330
3CF
100
AcDbXrecord
280
     1
102
RTVSPropertyOp0
 70
     1
102
RTVSPropertyOp1
 70
     1
102
RTVSPropertyOp2
 70
     1
102
RTVSPropertyOp3
 70
     1
102
RTVSPropertyOp4
 70
     1
102
RTVSPropertyOp5
 70
     1
102
RTVSPropertyOp6
 70
     1
102
RTVSPropertyOp7
 70
     1
102
RTVSPropertyOp8
 70
     1
102
RTVSPropertyOp9
 70
     1
102
RTVSPropertyOp10
 70
     1
102
RTVSPropertyOp11
 70
     1
102
RTVSPropertyOp12
 70
     1
102
RTVSPropertyOp13
 70
     1
102
RTVSPropertyOp14
 70
     1
102
RTVSPropertyOp15
 70
     1
102
RTVSPropertyOp16
 70
     1
102
RTVSPropertyOp17
 70
     1
102
RTVSPropertyOp18
 70
     1
102
RTVSPropertyOp19
 70
     1
102
RTVSPropertyOp20
 70
     1
102
RTVSPropertyOp21
 70
     1
102
RTVSPropertyOp22
 70
     1
102
RTVSPropertyOp23
 70
     1
102
RTVSPropertyOp24
 70
     1
102
RTVSPropertyOp25
 70
     1
102
RTVSPropertyOp26
 70
     1
102
RTVSPropertyOp27
 70
     1
102
RTVSPropertyOp28
 70
     1
102
RTVSPropertyOp29
 70
     1
102
RTVSPropertyOp30
 70
     1
102
RTVSPropertyOp31
 70
     1
102
RTVSPropertyOp32
 70
     1
102
RTVSPropertyOp33
 70
     1
102
RTVSPropertyOp34
 70
     1
102
RTVSPropertyOp35
 70
     1
102
RTVSPropertyOp36
 70
     1
102
RTVSPropertyOp37
 70
     1
102
RTVSPropertyOp38
 70
     1
102
RTVSPropertyOp39
 70
     1
102
RTVSPropertyOp40
 70
     1
102
RTVSPropertyOp41
 70
     1
102
RTVSPropertyOp42
 70
     1
102
RTVSPropertyOp43
 70
     1
102
RTVSPropertyOp44
 70
     1
102
RTVSPropertyOp45
 70
     1
102
RTVSPropertyOp46
 70
     1
102
RTVSPropertyOp47
 70
     1
102
RTVSPropertyOp48
 70
     1
102
RTVSPropertyOp49
 70
     1
102
RTVSPropertyOp50
 70
     1
102
RTVSPropertyOp51
 70
     0
102
RTVSPropertyOp52
 70
     0
102
RTVSPropertyOp53
 70
     1
102
RTVSPropertyOp54
 70
     1
102
RTVSPropertyOp55
 70
     1
102
RTVSPropertyOp56
 70
     1
102
RTVSPropertyOp57
 70
     1
102
RTVSPost2010Prop28
280
     0
102
RTVSPost2010PropOp28
 70
     1
102
RTVSPost2010Prop29
280
     1
102
RTVSPost2010PropOp29
 70
     1
102
RTVSPost2010Prop30
280
     1
102
RTVSPost2010PropOp30
 70
     1
102
RTVSPost2010Prop31
280
     0
102
RTVSPost2010PropOp31
 70
     1
102
RTVSPost2010Prop32
280
     0
102
RTVSPost2010PropOp32
 70
     1
102
RTVSPost2010Prop33
280
     0
102
RTVSPost2010PropOp33
 70
     1
102
RTVSPost2010Prop34
280
     0
102
RTVSPost2010PropOp34
 70
     1
102
RTVSPost2010Prop35
280
     0
102
RTVSPost2010PropOp35
 70
     1
102
RTVSPost2010Prop36
280
     0
102
RTVSPost2010PropOp36
 70
     1
102
RTVSPost2010Prop37
 90
       50
102
RTVSPost2010PropOp37
 70
     1
102
RTVSPost2010Prop38
140
0.0
102
RTVSPost2010PropOp38
 70
     1
102
RTVSPost2010Prop39
140
1.0
102
RTVSPost2010PropOp39
 70
     1
102
RTVSPost2010Prop40
 90
        0
102
RTVSPost2010PropOp40
 70
     1
102
RTVSPost2010Prop41ColorIndex
 90
       18
102
RTVSPost2010Prop41ColorRGB
 90
        0
102
RTVSPost2010PropOp41
 70
     1
102
RTVSPost2010Prop42
 90
       50
102
RTVSPost2010PropOp42
 70
     1
102
RTVSPost2010Prop43
 90
        3
102
RTVSPost2010PropOp43
 70
     1
102
RTVSPost2010Prop44ColorIndex
 90
        5
102
RTVSPost2010Prop44ColorRGB
 90
      255
102
RTVSPost2010PropOp44
 70
     1
102
RTVSPost2010Prop45
280
     0
102
RTVSPost2010PropOp45
 70
     1
102
RTVSPost2010Prop46
 90
       50
102
RTVSPost2010PropOp46
 70
     1
102
RTVSPost2010Prop47
 90
       50
102
RTVSPost2010PropOp47
 70
     1
102
RTVSPost2010Prop48
 90
       50
102
RTVSPost2010PropOp48
 70
     1
102
RTVSPost2010Prop49
280
     0
102
RTVSPost2010PropOp49
 70
     1
102
RTVSPost2010Prop50
 90
       50
102
RTVSPost2010PropOp50
 70
     1
102
RTVSPost2010Prop51ColorIndex
 90
      256
102
RTVSPost2010Prop51ColorRGB
 90
-16777216
102
RTVSPost2010PropOp51
 70
     0
102
RTVSPost2010Prop52
140
1.0
102
RTVSPost2010PropOp52
 70
     0
102
RTVSPost2010Prop53
 90
        2
102
RTVSPost2010PropOp53
 70
     1
102
RTVSPost2010Prop54
  1
strokes_ogs.tif
102
RTVSPost2010PropOp54
 70
     1
102
RTVSPost2010Prop55
280
     0
102
RTVSPost2010PropOp55
 70
     1
102
RTVSPost2010Prop56
140
1.0
102
RTVSPost2010PropOp56
 70
     1
102
RTVSPost2010Prop57
140
1.0
102
RTVSPost2010PropOp57
 70
     1
  0
XRECORD
  5
3C4
102
{ACAD_REACTORS
330
3C3
102
}
330
3C3
100
AcDbXrecord
280
     1
102
RTVSPropertyOp0
 70
     1
102
RTVSPropertyOp1
 70
     1
102
RTVSPropertyOp2
 70
     1
102
RTVSPropertyOp3
 70
     1
102
RTVSPropertyOp4
 70
     1
102
RTVSPropertyOp5
 70
     1
102
RTVSPropertyOp6
 70
     1
102
RTVSPropertyOp7
 70
     1
102
RTVSPropertyOp8
 70
     1
102
RTVSPropertyOp9
 70
     1
102
RTVSPropertyOp10
 70
     1
102
RTVSPropertyOp11
 70
     1
102
RTVSPropertyOp12
 70
     1
102
RTVSPropertyOp13
 70
     1
102
RTVSPropertyOp14
 70
     1
102
RTVSPropertyOp15
 70
     1
102
RTVSPropertyOp16
 70
     1
102
RTVSPropertyOp17
 70
     1
102
RTVSPropertyOp18
 70
     1
102
RTVSPropertyOp19
 70
     1
102
RTVSPropertyOp20
 70
     1
102
RTVSPropertyOp21
 70
     1
102
RTVSPropertyOp22
 70
     1
102
RTVSPropertyOp23
 70
     1
102
RTVSPropertyOp24
 70
     1
102
RTVSPropertyOp25
 70
     1
102
RTVSPropertyOp26
 70
     1
102
RTVSPropertyOp27
 70
     1
102
RTVSPropertyOp28
 70
     1
102
RTVSPropertyOp29
 70
     1
102
RTVSPropertyOp30
 70
     1
102
RTVSPropertyOp31
 70
     1
102
RTVSPropertyOp32
 70
     1
102
RTVSPropertyOp33
 70
     1
102
RTVSPropertyOp34
 70
     1
102
RTVSPropertyOp35
 70
     1
102
RTVSPropertyOp36
 70
     1
102
RTVSPropertyOp37
 70
     1
102
RTVSPropertyOp38
 70
     1
102
RTVSPropertyOp39
 70
     1
102
RTVSPropertyOp40
 70
     1
102
RTVSPropertyOp41
 70
     1
102
RTVSPropertyOp42
 70
     1
102
RTVSPropertyOp43
 70
     1
102
RTVSPropertyOp44
 70
     1
102
RTVSPropertyOp45
 70
     1
102
RTVSPropertyOp46
 70
     1
102
RTVSPropertyOp47
 70
     1
102
RTVSPropertyOp48
 70
     1
102
RTVSPropertyOp49
 70
     1
102
RTVSPropertyOp50
 70
     1
102
RTVSPropertyOp51
 70
     0
102
RTVSPropertyOp52
 70
     0
102
RTVSPropertyOp53
 70
     1
102
RTVSPropertyOp54
 70
     1
102
RTVSPropertyOp55
 70
     1
102
RTVSPropertyOp56
 70
     1
102
RTVSPropertyOp57
 70
     1
102
RTVSPost2010Prop28
280
     0
102
RTVSPost2010PropOp28
 70
     1
102
RTVSPost2010Prop29
280
     1
102
RTVSPost2010PropOp29
 70
     1
102
RTVSPost2010Prop30
280
     1
102
RTVSPost2010PropOp30
 70
     1
102
RTVSPost2010Prop31
280
     0
102
RTVSPost2010PropOp31
 70
     1
102
RTVSPost2010Prop32
280
     0
102
RTVSPost2010PropOp32
 70
     1
102
RTVSPost2010Prop33
280
     0
102
RTVSPost2010PropOp33
 70
     1
102
RTVSPost2010Prop34
280
     0
102
RTVSPost2010PropOp34
 70
     1
102
RTVSPost2010Prop35
280
     0
102
RTVSPost2010PropOp35
 70
     1
102
RTVSPost2010Prop36
280
     0
102
RTVSPost2010PropOp36
 70
     1
102
RTVSPost2010Prop37
 90
       50
102
RTVSPost2010PropOp37
 70
     1
102
RTVSPost2010Prop38
140
0.0
102
RTVSPost2010PropOp38
 70
     1
102
RTVSPost2010Prop39
140
1.0
102
RTVSPost2010PropOp39
 70
     1
102
RTVSPost2010Prop40
 90
        0
102
RTVSPost2010PropOp40
 70
     1
102
RTVSPost2010Prop41ColorIndex
 90
       18
102
RTVSPost2010Prop41ColorRGB
 90
        0
102
RTVSPost2010PropOp41
 70
     1
102
RTVSPost2010Prop42
 90
       50
102
RTVSPost2010PropOp42
 70
     1
102
RTVSPost2010Prop43
 90
        3
102
RTVSPost2010PropOp43
 70
     1
102
RTVSPost2010Prop44ColorIndex
 90
        5
102
RTVSPost2010Prop44ColorRGB
 90
      255
102
RTVSPost2010PropOp44
 70
     1
102
RTVSPost2010Prop45
280
     0
102
RTVSPost2010PropOp45
 70
     1
102
RTVSPost2010Prop46
 90
       50
102
RTVSPost2010PropOp46
 70
     1
102
RTVSPost2010Prop47
 90
       50
102
RTVSPost2010PropOp47
 70
     1
102
RTVSPost2010Prop48
 90
       50
102
RTVSPost2010PropOp48
 70
     1
102
RTVSPost2010Prop49
280
     0
102
RTVSPost2010PropOp49
 70
     1
102
RTVSPost2010Prop50
 90
       50
102
RTVSPost2010PropOp50
 70
     1
102
RTVSPost2010Prop51ColorIndex
 90
      256
102
RTVSPost2010Prop51ColorRGB
 90
-16777216
102
RTVSPost2010PropOp51
 70
     0
102
RTVSPost2010Prop52
140
1.0
102
RTVSPost2010PropOp52
 70
     0
102
RTVSPost2010Prop53
 90
        2
102
RTVSPost2010PropOp53
 70
     1
102
RTVSPost2010Prop54
  1
strokes_ogs.tif
102
RTVSPost2010PropOp54
 70
     1
102
RTVSPost2010Prop55
280
     0
102
RTVSPost2010PropOp55
 70
     1
102
RTVSPost2010Prop56
140
1.0
102
RTVSPost2010PropOp56
 70
     1
102
RTVSPost2010Prop57
140
1.0
102
RTVSPost2010PropOp57
 70
     1
  0
XRECORD
  5
3C6
102
{ACAD_REACTORS
330
3C5
102
}
330
3C5
100
AcDbXrecord
280
     1
102
RTVSPropertyOp0
 70
     1
102
RTVSPropertyOp1
 70
     1
102
RTVSPropertyOp2
 70
     1
102
RTVSPropertyOp3
 70
     1
102
RTVSPropertyOp4
 70
     1
102
RTVSPropertyOp5
 70
     1
102
RTVSPropertyOp6
 70
     1
102
RTVSPropertyOp7
 70
     1
102
RTVSPropertyOp8
 70
     1
102
RTVSPropertyOp9
 70
     1
102
RTVSPropertyOp10
 70
     1
102
RTVSPropertyOp11
 70
     1
102
RTVSPropertyOp12
 70
     1
102
RTVSPropertyOp13
 70
     1
102
RTVSPropertyOp14
 70
     1
102
RTVSPropertyOp15
 70
     1
102
RTVSPropertyOp16
 70
     1
102
RTVSPropertyOp17
 70
     1
102
RTVSPropertyOp18
 70
     1
102
RTVSPropertyOp19
 70
     1
102
RTVSPropertyOp20
 70
     1
102
RTVSPropertyOp21
 70
     1
102
RTVSPropertyOp22
 70
     1
102
RTVSPropertyOp23
 70
     1
102
RTVSPropertyOp24
 70
     1
102
RTVSPropertyOp25
 70
     1
102
RTVSPropertyOp26
 70
     1
102
RTVSPropertyOp27
 70
     1
102
RTVSPropertyOp28
 70
     1
102
RTVSPropertyOp29
 70
     1
102
RTVSPropertyOp30
 70
     1
102
RTVSPropertyOp31
 70
     1
102
RTVSPropertyOp32
 70
     1
102
RTVSPropertyOp33
 70
     1
102
RTVSPropertyOp34
 70
     1
102
RTVSPropertyOp35
 70
     1
102
RTVSPropertyOp36
 70
     1
102
RTVSPropertyOp37
 70
     1
102
RTVSPropertyOp38
 70
     1
102
RTVSPropertyOp39
 70
     1
102
RTVSPropertyOp40
 70
     1
102
RTVSPropertyOp41
 70
     1
102
RTVSPropertyOp42
 70
     1
102
RTVSPropertyOp43
 70
     1
102
RTVSPropertyOp44
 70
     1
102
RTVSPropertyOp45
 70
     1
102
RTVSPropertyOp46
 70
     1
102
RTVSPropertyOp47
 70
     1
102
RTVSPropertyOp48
 70
     1
102
RTVSPropertyOp49
 70
     1
102
RTVSPropertyOp50
 70
     1
102
RTVSPropertyOp51
 70
     0
102
RTVSPropertyOp52
 70
     0
102
RTVSPropertyOp53
 70
     1
102
RTVSPropertyOp54
 70
     1
102
RTVSPropertyOp55
 70
     1
102
RTVSPropertyOp56
 70
     1
102
RTVSPropertyOp57
 70
     1
102
RTVSPost2010Prop28
280
     0
102
RTVSPost2010PropOp28
 70
     1
102
RTVSPost2010Prop29
280
     1
102
RTVSPost2010PropOp29
 70
     1
102
RTVSPost2010Prop30
280
     1
102
RTVSPost2010PropOp30
 70
     1
102
RTVSPost2010Prop31
280
     0
102
RTVSPost2010PropOp31
 70
     1
102
RTVSPost2010Prop32
280
     0
102
RTVSPost2010PropOp32
 70
     1
102
RTVSPost2010Prop33
280
     0
102
RTVSPost2010PropOp33
 70
     1
102
RTVSPost2010Prop34
280
     0
102
RTVSPost2010PropOp34
 70
     1
102
RTVSPost2010Prop35
280
     0
102
RTVSPost2010PropOp35
 70
     1
102
RTVSPost2010Prop36
280
     0
102
RTVSPost2010PropOp36
 70
     1
102
RTVSPost2010Prop37
 90
       50
102
RTVSPost2010PropOp37
 70
     1
102
RTVSPost2010Prop38
140
0.0
102
RTVSPost2010PropOp38
 70
     1
102
RTVSPost2010Prop39
140
1.0
102
RTVSPost2010PropOp39
 70
     1
102
RTVSPost2010Prop40
 90
        0
102
RTVSPost2010PropOp40
 70
     1
102
RTVSPost2010Prop41ColorIndex
 90
       18
102
RTVSPost2010Prop41ColorRGB
 90
        0
102
RTVSPost2010PropOp41
 70
     1
102
RTVSPost2010Prop42
 90
       50
102
RTVSPost2010PropOp42
 70
     1
102
RTVSPost2010Prop43
 90
        3
102
RTVSPost2010PropOp43
 70
     1
102
RTVSPost2010Prop44ColorIndex
 90
        5
102
RTVSPost2010Prop44ColorRGB
 90
      255
102
RTVSPost2010PropOp44
 70
     1
102
RTVSPost2010Prop45
280
     0
102
RTVSPost2010PropOp45
 70
     1
102
RTVSPost2010Prop46
 90
       50
102
RTVSPost2010PropOp46
 70
     1
102
RTVSPost2010Prop47
 90
       50
102
RTVSPost2010PropOp47
 70
     1
102
RTVSPost2010Prop48
 90
       50
102
RTVSPost2010PropOp48
 70
     1
102
RTVSPost2010Prop49
280
     0
102
RTVSPost2010PropOp49
 70
     1
102
RTVSPost2010Prop50
 90
       50
102
RTVSPost2010PropOp50
 70
     1
102
RTVSPost2010Prop51ColorIndex
 90
      256
102
RTVSPost2010Prop51ColorRGB
 90
-16777216
102
RTVSPost2010PropOp51
 70
     0
102
RTVSPost2010Prop52
140
1.0
102
RTVSPost2010PropOp52
 70
     0
102
RTVSPost2010Prop53
 90
        2
102
RTVSPost2010PropOp53
 70
     1
102
RTVSPost2010Prop54
  1
strokes_ogs.tif
102
RTVSPost2010PropOp54
 70
     1
102
RTVSPost2010Prop55
280
     0
102
RTVSPost2010PropOp55
 70
     1
102
RTVSPost2010Prop56
140
1.0
102
RTVSPost2010PropOp56
 70
     1
102
RTVSPost2010Prop57
140
1.0
102
RTVSPost2010PropOp57
 70
     1
  0
XRECORD
  5
3D6
102
{ACAD_REACTORS
330
3D5
102
}
330
3D5
100
AcDbXrecord
280
     1
102
RTVSPropertyOp0
 70
     0
102
RTVSPropertyOp1
 70
     0
102
RTVSPropertyOp2
 70
     0
102
RTVSPropertyOp3
 70
     0
102
RTVSPropertyOp4
 70
     0
102
RTVSPropertyOp5
 70
     0
102
RTVSPropertyOp6
 70
     0
102
RTVSPropertyOp7
 70
     0
102
RTVSPropertyOp8
 70
     0
102
RTVSPropertyOp9
 70
     0
102
RTVSPropertyOp10
 70
     0
102
RTVSPropertyOp11
 70
     0
102
RTVSPropertyOp12
 70
     0
102
RTVSPropertyOp13
 70
     0
102
RTVSPropertyOp14
 70
     2
102
RTVSPropertyOp15
 70
     0
102
RTVSPropertyOp16
 70
     0
102
RTVSPropertyOp17
 70
     0
102
RTVSPropertyOp18
 70
     0
102
RTVSPropertyOp19
 70
     0
102
RTVSPropertyOp20
 70
     0
102
RTVSPropertyOp21
 70
     0
102
RTVSPropertyOp22
 70
     0
102
RTVSPropertyOp23
 70
     0
102
RTVSPropertyOp24
 70
     0
102
RTVSPropertyOp25
 70
     0
102
RTVSPropertyOp26
 70
     0
102
RTVSPropertyOp27
 70
     0
102
RTVSPropertyOp28
 70
     0
102
RTVSPropertyOp29
 70
     0
102
RTVSPropertyOp30
 70
     0
102
RTVSPropertyOp31
 70
     0
102
RTVSPropertyOp32
 70
     0
102
RTVSPropertyOp33
 70
     0
102
RTVSPropertyOp34
 70
     0
102
RTVSPropertyOp35
 70
     0
102
RTVSPropertyOp36
 70
     0
102
RTVSPropertyOp37
 70
     0
102
RTVSPropertyOp38
 70
     0
102
RTVSPropertyOp39
 70
     0
102
RTVSPropertyOp40
 70
     0
102
RTVSPropertyOp41
 70
     0
102
RTVSPropertyOp42
 70
     0
102
RTVSPropertyOp43
 70
     0
102
RTVSPropertyOp44
 70
     0
102
RTVSPropertyOp45
 70
     0
102
RTVSPropertyOp46
 70
     0
102
RTVSPropertyOp47
 70
     0
102
RTVSPropertyOp48
 70
     0
102
RTVSPropertyOp49
 70
     0
102
RTVSPropertyOp50
 70
     0
102
RTVSPropertyOp51
 70
     0
102
RTVSPropertyOp52
 70
     0
102
RTVSPropertyOp53
 70
     0
102
RTVSPropertyOp54
 70
     0
102
RTVSPropertyOp55
 70
     0
102
RTVSPropertyOp56
 70
     0
102
RTVSPropertyOp57
 70
     0
102
RTVSPost2010Prop28
280
     0
102
RTVSPost2010PropOp28
 70
     0
102
RTVSPost2010Prop29
280
     1
102
RTVSPost2010PropOp29
 70
     0
102
RTVSPost2010Prop30
280
     1
102
RTVSPost2010PropOp30
 70
     0
102
RTVSPost2010Prop31
280
     0
102
RTVSPost2010PropOp31
 70
     0
102
RTVSPost2010Prop32
280
     0
102
RTVSPost2010PropOp32
 70
     0
102
RTVSPost2010Prop33
280
     0
102
RTVSPost2010PropOp33
 70
     0
102
RTVSPost2010Prop34
280
     0
102
RTVSPost2010PropOp34
 70
     0
102
RTVSPost2010Prop35
280
     0
102
RTVSPost2010PropOp35
 70
     0
102
RTVSPost2010Prop36
280
     0
102
RTVSPost2010PropOp36
 70
     0
102
RTVSPost2010Prop37
 90
       50
102
RTVSPost2010PropOp37
 70
     0
102
RTVSPost2010Prop38
140
0.0
102
RTVSPost2010PropOp38
 70
     0
102
RTVSPost2010Prop39
140
1.0
102
RTVSPost2010PropOp39
 70
     0
102
RTVSPost2010Prop40
 90
        0
102
RTVSPost2010PropOp40
 70
     0
102
RTVSPost2010Prop41ColorIndex
 90
       18
102
RTVSPost2010Prop41ColorRGB
 90
        0
102
RTVSPost2010PropOp41
 70
     0
102
RTVSPost2010Prop42
 90
       50
102
RTVSPost2010PropOp42
 70
     0
102
RTVSPost2010Prop43
 90
        3
102
RTVSPost2010PropOp43
 70
     0
102
RTVSPost2010Prop44ColorIndex
 90
        5
102
RTVSPost2010Prop44ColorRGB
 90
      255
102
RTVSPost2010PropOp44
 70
     0
102
RTVSPost2010Prop45
280
     0
102
RTVSPost2010PropOp45
 70
     0
102
RTVSPost2010Prop46
 90
       50
102
RTVSPost2010PropOp46
 70
     0
102
RTVSPost2010Prop47
 90
       50
102
RTVSPost2010PropOp47
 70
     0
102
RTVSPost2010Prop48
 90
       50
102
RTVSPost2010PropOp48
 70
     0
102
RTVSPost2010Prop49
280
     0
102
RTVSPost2010PropOp49
 70
     0
102
RTVSPost2010Prop50
 90
       50
102
RTVSPost2010PropOp50
 70
     0
102
RTVSPost2010Prop51ColorIndex
 90
      256
102
RTVSPost2010Prop51ColorRGB
 90
-16777216
102
RTVSPost2010PropOp51
 70
     0
102
RTVSPost2010Prop52
140
1.0
102
RTVSPost2010PropOp52
 70
     0
102
RTVSPost2010Prop53
 90
        2
102
RTVSPost2010PropOp53
 70
     0
102
RTVSPost2010Prop54
  1
strokes_ogs.tif
102
RTVSPost2010PropOp54
 70
     0
102
RTVSPost2010Prop55
280
     0
102
RTVSPost2010PropOp55
 70
     0
102
RTVSPost2010Prop56
140
1.0
102
RTVSPost2010PropOp56
 70
     0
102
RTVSPost2010Prop57
140
1.0
102
RTVSPost2010PropOp57
 70
     0
  0
XRECORD
  5
3CE
102
{ACAD_REACTORS
330
3CD
102
}
330
3CD
100
AcDbXrecord
280
     1
102
RTVSPropertyOp0
 70
     1
102
RTVSPropertyOp1
 70
     1
102
RTVSPropertyOp2
 70
     1
102
RTVSPropertyOp3
 70
     1
102
RTVSPropertyOp4
 70
     1
102
RTVSPropertyOp5
 70
     1
102
RTVSPropertyOp6
 70
     1
102
RTVSPropertyOp7
 70
     1
102
RTVSPropertyOp8
 70
     1
102
RTVSPropertyOp9
 70
     1
102
RTVSPropertyOp10
 70
     1
102
RTVSPropertyOp11
 70
     1
102
RTVSPropertyOp12
 70
     1
102
RTVSPropertyOp13
 70
     1
102
RTVSPropertyOp14
 70
     1
102
RTVSPropertyOp15
 70
     1
102
RTVSPropertyOp16
 70
     1
102
RTVSPropertyOp17
 70
     1
102
RTVSPropertyOp18
 70
     1
102
RTVSPropertyOp19
 70
     1
102
RTVSPropertyOp20
 70
     1
102
RTVSPropertyOp21
 70
     1
102
RTVSPropertyOp22
 70
     1
102
RTVSPropertyOp23
 70
     1
102
RTVSPropertyOp24
 70
     1
102
RTVSPropertyOp25
 70
     1
102
RTVSPropertyOp26
 70
     1
102
RTVSPropertyOp27
 70
     1
102
RTVSPropertyOp28
 70
     1
102
RTVSPropertyOp29
 70
     1
102
RTVSPropertyOp30
 70
     1
102
RTVSPropertyOp31
 70
     1
102
RTVSPropertyOp32
 70
     1
102
RTVSPropertyOp33
 70
     1
102
RTVSPropertyOp34
 70
     1
102
RTVSPropertyOp35
 70
     1
102
RTVSPropertyOp36
 70
     1
102
RTVSPropertyOp37
 70
     1
102
RTVSPropertyOp38
 70
     1
102
RTVSPropertyOp39
 70
     1
102
RTVSPropertyOp40
 70
     1
102
RTVSPropertyOp41
 70
     1
102
RTVSPropertyOp42
 70
     1
102
RTVSPropertyOp43
 70
     1
102
RTVSPropertyOp44
 70
     1
102
RTVSPropertyOp45
 70
     1
102
RTVSPropertyOp46
 70
     1
102
RTVSPropertyOp47
 70
     1
102
RTVSPropertyOp48
 70
     1
102
RTVSPropertyOp49
 70
     1
102
RTVSPropertyOp50
 70
     1
102
RTVSPropertyOp51
 70
     0
102
RTVSPropertyOp52
 70
     0
102
RTVSPropertyOp53
 70
     1
102
RTVSPropertyOp54
 70
     1
102
RTVSPropertyOp55
 70
     1
102
RTVSPropertyOp56
 70
     1
102
RTVSPropertyOp57
 70
     1
102
RTVSPost2010Prop28
280
     0
102
RTVSPost2010PropOp28
 70
     1
102
RTVSPost2010Prop29
280
     1
102
RTVSPost2010PropOp29
 70
     1
102
RTVSPost2010Prop30
280
     1
102
RTVSPost2010PropOp30
 70
     1
102
RTVSPost2010Prop31
280
     0
102
RTVSPost2010PropOp31
 70
     1
102
RTVSPost2010Prop32
280
     0
102
RTVSPost2010PropOp32
 70
     1
102
RTVSPost2010Prop33
280
     0
102
RTVSPost2010PropOp33
 70
     1
102
RTVSPost2010Prop34
280
     0
102
RTVSPost2010PropOp34
 70
     1
102
RTVSPost2010Prop35
280
     0
102
RTVSPost2010PropOp35
 70
     1
102
RTVSPost2010Prop36
280
     0
102
RTVSPost2010PropOp36
 70
     1
102
RTVSPost2010Prop37
 90
       50
102
RTVSPost2010PropOp37
 70
     1
102
RTVSPost2010Prop38
140
0.0
102
RTVSPost2010PropOp38
 70
     1
102
RTVSPost2010Prop39
140
1.0
102
RTVSPost2010PropOp39
 70
     1
102
RTVSPost2010Prop40
 90
        0
102
RTVSPost2010PropOp40
 70
     1
102
RTVSPost2010Prop41ColorIndex
 90
       18
102
RTVSPost2010Prop41ColorRGB
 90
        0
102
RTVSPost2010PropOp41
 70
     1
102
RTVSPost2010Prop42
 90
       50
102
RTVSPost2010PropOp42
 70
     1
102
RTVSPost2010Prop43
 90
        3
102
RTVSPost2010PropOp43
 70
     1
102
RTVSPost2010Prop44ColorIndex
 90
        5
102
RTVSPost2010Prop44ColorRGB
 90
      255
102
RTVSPost2010PropOp44
 70
     1
102
RTVSPost2010Prop45
280
     0
102
RTVSPost2010PropOp45
 70
     1
102
RTVSPost2010Prop46
 90
       50
102
RTVSPost2010PropOp46
 70
     1
102
RTVSPost2010Prop47
 90
       50
102
RTVSPost2010PropOp47
 70
     1
102
RTVSPost2010Prop48
 90
       50
102
RTVSPost2010PropOp48
 70
     1
102
RTVSPost2010Prop49
280
     0
102
RTVSPost2010PropOp49
 70
     1
102
RTVSPost2010Prop50
 90
       50
102
RTVSPost2010PropOp50
 70
     1
102
RTVSPost2010Prop51ColorIndex
 90
      256
102
RTVSPost2010Prop51ColorRGB
 90
-16777216
102
RTVSPost2010PropOp51
 70
     0
102
RTVSPost2010Prop52
140
1.0
102
RTVSPost2010PropOp52
 70
     0
102
RTVSPost2010Prop53
 90
        2
102
RTVSPost2010PropOp53
 70
     1
102
RTVSPost2010Prop54
  1
strokes_ogs.tif
102
RTVSPost2010PropOp54
 70
     1
102
RTVSPost2010Prop55
280
     0
102
RTVSPost2010PropOp55
 70
     1
102
RTVSPost2010Prop56
140
1.0
102
RTVSPost2010PropOp56
 70
     1
102
RTVSPost2010Prop57
140
1.0
102
RTVSPost2010PropOp57
 70
     1
  0
XRECORD
  5
3B2
102
{ACAD_REACTORS
330
3B1
102
}
330
3B1
100
AcDbXrecord
280
     1
102
RTVSPropertyOp0
 70
     1
102
RTVSPropertyOp1
 70
     1
102
RTVSPropertyOp2
 70
     1
102
RTVSPropertyOp3
 70
     1
102
RTVSPropertyOp4
 70
     1
102
RTVSPropertyOp5
 70
     1
102
RTVSPropertyOp6
 70
     1
102
RTVSPropertyOp7
 70
     1
102
RTVSPropertyOp8
 70
     1
102
RTVSPropertyOp9
 70
     1
102
RTVSPropertyOp10
 70
     1
102
RTVSPropertyOp11
 70
     1
102
RTVSPropertyOp12
 70
     1
102
RTVSPropertyOp13
 70
     1
102
RTVSPropertyOp14
 70
     1
102
RTVSPropertyOp15
 70
     1
102
RTVSPropertyOp16
 70
     1
102
RTVSPropertyOp17
 70
     1
102
RTVSPropertyOp18
 70
     1
102
RTVSPropertyOp19
 70
     1
102
RTVSPropertyOp20
 70
     1
102
RTVSPropertyOp21
 70
     1
102
RTVSPropertyOp22
 70
     1
102
RTVSPropertyOp23
 70
     1
102
RTVSPropertyOp24
 70
     1
102
RTVSPropertyOp25
 70
     1
102
RTVSPropertyOp26
 70
     1
102
RTVSPropertyOp27
 70
     1
102
RTVSPropertyOp28
 70
     1
102
RTVSPropertyOp29
 70
     1
102
RTVSPropertyOp30
 70
     1
102
RTVSPropertyOp31
 70
     1
102
RTVSPropertyOp32
 70
     1
102
RTVSPropertyOp33
 70
     1
102
RTVSPropertyOp34
 70
     1
102
RTVSPropertyOp35
 70
     1
102
RTVSPropertyOp36
 70
     1
102
RTVSPropertyOp37
 70
     1
102
RTVSPropertyOp38
 70
     1
102
RTVSPropertyOp39
 70
     1
102
RTVSPropertyOp40
 70
     1
102
RTVSPropertyOp41
 70
     1
102
RTVSPropertyOp42
 70
     1
102
RTVSPropertyOp43
 70
     1
102
RTVSPropertyOp44
 70
     1
102
RTVSPropertyOp45
 70
     1
102
RTVSPropertyOp46
 70
     1
102
RTVSPropertyOp47
 70
     1
102
RTVSPropertyOp48
 70
     1
102
RTVSPropertyOp49
 70
     1
102
RTVSPropertyOp50
 70
     1
102
RTVSPropertyOp51
 70
     0
102
RTVSPropertyOp52
 70
     0
102
RTVSPropertyOp53
 70
     1
102
RTVSPropertyOp54
 70
     1
102
RTVSPropertyOp55
 70
     1
102
RTVSPropertyOp56
 70
     1
102
RTVSPropertyOp57
 70
     1
102
RTVSPost2010Prop28
280
     0
102
RTVSPost2010PropOp28
 70
     1
102
RTVSPost2010Prop29
280
     1
102
RTVSPost2010PropOp29
 70
     1
102
RTVSPost2010Prop30
280
     1
102
RTVSPost2010PropOp30
 70
     1
102
RTVSPost2010Prop31
280
     0
102
RTVSPost2010PropOp31
 70
     1
102
RTVSPost2010Prop32
280
     0
102
RTVSPost2010PropOp32
 70
     1
102
RTVSPost2010Prop33
280
     0
102
RTVSPost2010PropOp33
 70
     1
102
RTVSPost2010Prop34
280
     0
102
RTVSPost2010PropOp34
 70
     1
102
RTVSPost2010Prop35
280
     0
102
RTVSPost2010PropOp35
 70
     1
102
RTVSPost2010Prop36
280
     0
102
RTVSPost2010PropOp36
 70
     1
102
RTVSPost2010Prop37
 90
       50
102
RTVSPost2010PropOp37
 70
     1
102
RTVSPost2010Prop38
140
0.0
102
RTVSPost2010PropOp38
 70
     1
102
RTVSPost2010Prop39
140
1.0
102
RTVSPost2010PropOp39
 70
     1
102
RTVSPost2010Prop40
 90
        0
102
RTVSPost2010PropOp40
 70
     1
102
RTVSPost2010Prop41ColorIndex
 90
       18
102
RTVSPost2010Prop41ColorRGB
 90
        0
102
RTVSPost2010PropOp41
 70
     1
102
RTVSPost2010Prop42
 90
       50
102
RTVSPost2010PropOp42
 70
     1
102
RTVSPost2010Prop43
 90
        3
102
RTVSPost2010PropOp43
 70
     1
102
RTVSPost2010Prop44ColorIndex
 90
        5
102
RTVSPost2010Prop44ColorRGB
 90
      255
102
RTVSPost2010PropOp44
 70
     1
102
RTVSPost2010Prop45
280
     0
102
RTVSPost2010PropOp45
 70
     1
102
RTVSPost2010Prop46
 90
       50
102
RTVSPost2010PropOp46
 70
     1
102
RTVSPost2010Prop47
 90
       50
102
RTVSPost2010PropOp47
 70
     1
102
RTVSPost2010Prop48
 90
       50
102
RTVSPost2010PropOp48
 70
     1
102
RTVSPost2010Prop49
280
     0
102
RTVSPost2010PropOp49
 70
     1
102
RTVSPost2010Prop50
 90
       50
102
RTVSPost2010PropOp50
 70
     1
102
RTVSPost2010Prop51ColorIndex
 90
      256
102
RTVSPost2010Prop51ColorRGB
 90
-16777216
102
RTVSPost2010PropOp51
 70
     0
102
RTVSPost2010Prop52
140
1.0
102
RTVSPost2010PropOp52
 70
     0
102
RTVSPost2010Prop53
 90
        2
102
RTVSPost2010PropOp53
 70
     1
102
RTVSPost2010Prop54
  1
strokes_ogs.tif
102
RTVSPost2010PropOp54
 70
     1
102
RTVSPost2010Prop55
280
     0
102
RTVSPost2010PropOp55
 70
     1
102
RTVSPost2010Prop56
140
1.0
102
RTVSPost2010PropOp56
 70
     1
102
RTVSPost2010Prop57
140
1.0
102
RTVSPost2010PropOp57
 70
     1
  0
XRECORD
  5
3B4
102
{ACAD_REACTORS
330
3B3
102
}
330
3B3
100
AcDbXrecord
280
     1
102
RTVSPropertyOp0
 70
     1
102
RTVSPropertyOp1
 70
     1
102
RTVSPropertyOp2
 70
     1
102
RTVSPropertyOp3
 70
     1
102
RTVSPropertyOp4
 70
     1
102
RTVSPropertyOp5
 70
     1
102
RTVSPropertyOp6
 70
     1
102
RTVSPropertyOp7
 70
     1
102
RTVSPropertyOp8
 70
     1
102
RTVSPropertyOp9
 70
     1
102
RTVSPropertyOp10
 70
     1
102
RTVSPropertyOp11
 70
     1
102
RTVSPropertyOp12
 70
     1
102
RTVSPropertyOp13
 70
     1
102
RTVSPropertyOp14
 70
     1
102
RTVSPropertyOp15
 70
     1
102
RTVSPropertyOp16
 70
     1
102
RTVSPropertyOp17
 70
     1
102
RTVSPropertyOp18
 70
     1
102
RTVSPropertyOp19
 70
     1
102
RTVSPropertyOp20
 70
     1
102
RTVSPropertyOp21
 70
     1
102
RTVSPropertyOp22
 70
     1
102
RTVSPropertyOp23
 70
     1
102
RTVSPropertyOp24
 70
     1
102
RTVSPropertyOp25
 70
     1
102
RTVSPropertyOp26
 70
     1
102
RTVSPropertyOp27
 70
     1
102
RTVSPropertyOp28
 70
     1
102
RTVSPropertyOp29
 70
     1
102
RTVSPropertyOp30
 70
     1
102
RTVSPropertyOp31
 70
     1
102
RTVSPropertyOp32
 70
     1
102
RTVSPropertyOp33
 70
     1
102
RTVSPropertyOp34
 70
     1
102
RTVSPropertyOp35
 70
     1
102
RTVSPropertyOp36
 70
     1
102
RTVSPropertyOp37
 70
     1
102
RTVSPropertyOp38
 70
     1
102
RTVSPropertyOp39
 70
     1
102
RTVSPropertyOp40
 70
     1
102
RTVSPropertyOp41
 70
     1
102
RTVSPropertyOp42
 70
     1
102
RTVSPropertyOp43
 70
     1
102
RTVSPropertyOp44
 70
     1
102
RTVSPropertyOp45
 70
     1
102
RTVSPropertyOp46
 70
     1
102
RTVSPropertyOp47
 70
     1
102
RTVSPropertyOp48
 70
     1
102
RTVSPropertyOp49
 70
     1
102
RTVSPropertyOp50
 70
     1
102
RTVSPropertyOp51
 70
     0
102
RTVSPropertyOp52
 70
     0
102
RTVSPropertyOp53
 70
     1
102
RTVSPropertyOp54
 70
     1
102
RTVSPropertyOp55
 70
     1
102
RTVSPropertyOp56
 70
     1
102
RTVSPropertyOp57
 70
     1
102
RTVSPost2010Prop28
280
     0
102
RTVSPost2010PropOp28
 70
     1
102
RTVSPost2010Prop29
280
     1
102
RTVSPost2010PropOp29
 70
     1
102
RTVSPost2010Prop30
280
     1
102
RTVSPost2010PropOp30
 70
     1
102
RTVSPost2010Prop31
280
     0
102
RTVSPost2010PropOp31
 70
     1
102
RTVSPost2010Prop32
280
     0
102
RTVSPost2010PropOp32
 70
     1
102
RTVSPost2010Prop33
280
     0
102
RTVSPost2010PropOp33
 70
     1
102
RTVSPost2010Prop34
280
     0
102
RTVSPost2010PropOp34
 70
     1
102
RTVSPost2010Prop35
280
     0
102
RTVSPost2010PropOp35
 70
     1
102
RTVSPost2010Prop36
280
     0
102
RTVSPost2010PropOp36
 70
     1
102
RTVSPost2010Prop37
 90
       50
102
RTVSPost2010PropOp37
 70
     1
102
RTVSPost2010Prop38
140
0.0
102
RTVSPost2010PropOp38
 70
     1
102
RTVSPost2010Prop39
140
1.0
102
RTVSPost2010PropOp39
 70
     1
102
RTVSPost2010Prop40
 90
        0
102
RTVSPost2010PropOp40
 70
     1
102
RTVSPost2010Prop41ColorIndex
 90
       18
102
RTVSPost2010Prop41ColorRGB
 90
        0
102
RTVSPost2010PropOp41
 70
     1
102
RTVSPost2010Prop42
 90
       50
102
RTVSPost2010PropOp42
 70
     1
102
RTVSPost2010Prop43
 90
        3
102
RTVSPost2010PropOp43
 70
     1
102
RTVSPost2010Prop44ColorIndex
 90
        5
102
RTVSPost2010Prop44ColorRGB
 90
      255
102
RTVSPost2010PropOp44
 70
     1
102
RTVSPost2010Prop45
280
     0
102
RTVSPost2010PropOp45
 70
     1
102
RTVSPost2010Prop46
 90
       50
102
RTVSPost2010PropOp46
 70
     1
102
RTVSPost2010Prop47
 90
       50
102
RTVSPost2010PropOp47
 70
     1
102
RTVSPost2010Prop48
 90
       50
102
RTVSPost2010PropOp48
 70
     1
102
RTVSPost2010Prop49
280
     0
102
RTVSPost2010PropOp49
 70
     1
102
RTVSPost2010Prop50
 90
       50
102
RTVSPost2010PropOp50
 70
     1
102
RTVSPost2010Prop51ColorIndex
 90
      256
102
RTVSPost2010Prop51ColorRGB
 90
-16777216
102
RTVSPost2010PropOp51
 70
     0
102
RTVSPost2010Prop52
140
1.0
102
RTVSPost2010PropOp52
 70
     0
102
RTVSPost2010Prop53
 90
        2
102
RTVSPost2010PropOp53
 70
     1
102
RTVSPost2010Prop54
  1
strokes_ogs.tif
102
RTVSPost2010PropOp54
 70
     1
102
RTVSPost2010Prop55
280
     0
102
RTVSPost2010PropOp55
 70
     1
102
RTVSPost2010Prop56
140
1.0
102
RTVSPost2010PropOp56
 70
     1
102
RTVSPost2010Prop57
140
1.0
102
RTVSPost2010PropOp57
 70
     1
  0
XRECORD
  5
3B6
102
{ACAD_REACTORS
330
3B5
102
}
330
3B5
100
AcDbXrecord
280
     1
102
RTVSPropertyOp0
 70
     1
102
RTVSPropertyOp1
 70
     1
102
RTVSPropertyOp2
 70
     1
102
RTVSPropertyOp3
 70
     1
102
RTVSPropertyOp4
 70
     1
102
RTVSPropertyOp5
 70
     1
102
RTVSPropertyOp6
 70
     1
102
RTVSPropertyOp7
 70
     1
102
RTVSPropertyOp8
 70
     1
102
RTVSPropertyOp9
 70
     1
102
RTVSPropertyOp10
 70
     1
102
RTVSPropertyOp11
 70
     1
102
RTVSPropertyOp12
 70
     1
102
RTVSPropertyOp13
 70
     1
102
RTVSPropertyOp14
 70
     1
102
RTVSPropertyOp15
 70
     1
102
RTVSPropertyOp16
 70
     1
102
RTVSPropertyOp17
 70
     1
102
RTVSPropertyOp18
 70
     1
102
RTVSPropertyOp19
 70
     1
102
RTVSPropertyOp20
 70
     1
102
RTVSPropertyOp21
 70
     1
102
RTVSPropertyOp22
 70
     1
102
RTVSPropertyOp23
 70
     1
102
RTVSPropertyOp24
 70
     1
102
RTVSPropertyOp25
 70
     1
102
RTVSPropertyOp26
 70
     1
102
RTVSPropertyOp27
 70
     1
102
RTVSPropertyOp28
 70
     1
102
RTVSPropertyOp29
 70
     1
102
RTVSPropertyOp30
 70
     1
102
RTVSPropertyOp31
 70
     1
102
RTVSPropertyOp32
 70
     1
102
RTVSPropertyOp33
 70
     1
102
RTVSPropertyOp34
 70
     1
102
RTVSPropertyOp35
 70
     1
102
RTVSPropertyOp36
 70
     1
102
RTVSPropertyOp37
 70
     1
102
RTVSPropertyOp38
 70
     1
102
RTVSPropertyOp39
 70
     1
102
RTVSPropertyOp40
 70
     1
102
RTVSPropertyOp41
 70
     1
102
RTVSPropertyOp42
 70
     1
102
RTVSPropertyOp43
 70
     1
102
RTVSPropertyOp44
 70
     1
102
RTVSPropertyOp45
 70
     1
102
RTVSPropertyOp46
 70
     1
102
RTVSPropertyOp47
 70
     1
102
RTVSPropertyOp48
 70
     1
102
RTVSPropertyOp49
 70
     1
102
RTVSPropertyOp50
 70
     1
102
RTVSPropertyOp51
 70
     0
102
RTVSPropertyOp52
 70
     0
102
RTVSPropertyOp53
 70
     1
102
RTVSPropertyOp54
 70
     1
102
RTVSPropertyOp55
 70
     1
102
RTVSPropertyOp56
 70
     1
102
RTVSPropertyOp57
 70
     1
102
RTVSPost2010Prop28
280
     0
102
RTVSPost2010PropOp28
 70
     1
102
RTVSPost2010Prop29
280
     1
102
RTVSPost2010PropOp29
 70
     1
102
RTVSPost2010Prop30
280
     1
102
RTVSPost2010PropOp30
 70
     1
102
RTVSPost2010Prop31
280
     0
102
RTVSPost2010PropOp31
 70
     1
102
RTVSPost2010Prop32
280
     0
102
RTVSPost2010PropOp32
 70
     1
102
RTVSPost2010Prop33
280
     0
102
RTVSPost2010PropOp33
 70
     1
102
RTVSPost2010Prop34
280
     0
102
RTVSPost2010PropOp34
 70
     1
102
RTVSPost2010Prop35
280
     0
102
RTVSPost2010PropOp35
 70
     1
102
RTVSPost2010Prop36
280
     0
102
RTVSPost2010PropOp36
 70
     1
102
RTVSPost2010Prop37
 90
       50
102
RTVSPost2010PropOp37
 70
     1
102
RTVSPost2010Prop38
140
0.0
102
RTVSPost2010PropOp38
 70
     1
102
RTVSPost2010Prop39
140
1.0
102
RTVSPost2010PropOp39
 70
     1
102
RTVSPost2010Prop40
 90
        0
102
RTVSPost2010PropOp40
 70
     1
102
RTVSPost2010Prop41ColorIndex
 90
       18
102
RTVSPost2010Prop41ColorRGB
 90
        0
102
RTVSPost2010PropOp41
 70
     1
102
RTVSPost2010Prop42
 90
       50
102
RTVSPost2010PropOp42
 70
     1
102
RTVSPost2010Prop43
 90
        3
102
RTVSPost2010PropOp43
 70
     1
102
RTVSPost2010Prop44ColorIndex
 90
        5
102
RTVSPost2010Prop44ColorRGB
 90
      255
102
RTVSPost2010PropOp44
 70
     1
102
RTVSPost2010Prop45
280
     0
102
RTVSPost2010PropOp45
 70
     1
102
RTVSPost2010Prop46
 90
       50
102
RTVSPost2010PropOp46
 70
     1
102
RTVSPost2010Prop47
 90
       50
102
RTVSPost2010PropOp47
 70
     1
102
RTVSPost2010Prop48
 90
       50
102
RTVSPost2010PropOp48
 70
     1
102
RTVSPost2010Prop49
280
     0
102
RTVSPost2010PropOp49
 70
     1
102
RTVSPost2010Prop50
 90
       50
102
RTVSPost2010PropOp50
 70
     1
102
RTVSPost2010Prop51ColorIndex
 90
      256
102
RTVSPost2010Prop51ColorRGB
 90
-16777216
102
RTVSPost2010PropOp51
 70
     0
102
RTVSPost2010Prop52
140
1.0
102
RTVSPost2010PropOp52
 70
     0
102
RTVSPost2010Prop53
 90
        2
102
RTVSPost2010PropOp53
 70
     1
102
RTVSPost2010Prop54
  1
strokes_ogs.tif
102
RTVSPost2010PropOp54
 70
     1
102
RTVSPost2010Prop55
280
     0
102
RTVSPost2010PropOp55
 70
     1
102
RTVSPost2010Prop56
140
1.0
102
RTVSPost2010PropOp56
 70
     1
102
RTVSPost2010Prop57
140
1.0
102
RTVSPost2010PropOp57
 70
     1
  0
XRECORD
  5
3B8
102
{ACAD_REACTORS
330
3B7
102
}
330
3B7
100
AcDbXrecord
280
     1
102
RTVSPropertyOp0
 70
     1
102
RTVSPropertyOp1
 70
     1
102
RTVSPropertyOp2
 70
     1
102
RTVSPropertyOp3
 70
     1
102
RTVSPropertyOp4
 70
     1
102
RTVSPropertyOp5
 70
     1
102
RTVSPropertyOp6
 70
     1
102
RTVSPropertyOp7
 70
     1
102
RTVSPropertyOp8
 70
     1
102
RTVSPropertyOp9
 70
     1
102
RTVSPropertyOp10
 70
     1
102
RTVSPropertyOp11
 70
     1
102
RTVSPropertyOp12
 70
     1
102
RTVSPropertyOp13
 70
     1
102
RTVSPropertyOp14
 70
     1
102
RTVSPropertyOp15
 70
     1
102
RTVSPropertyOp16
 70
     1
102
RTVSPropertyOp17
 70
     1
102
RTVSPropertyOp18
 70
     1
102
RTVSPropertyOp19
 70
     1
102
RTVSPropertyOp20
 70
     1
102
RTVSPropertyOp21
 70
     1
102
RTVSPropertyOp22
 70
     1
102
RTVSPropertyOp23
 70
     1
102
RTVSPropertyOp24
 70
     1
102
RTVSPropertyOp25
 70
     1
102
RTVSPropertyOp26
 70
     1
102
RTVSPropertyOp27
 70
     1
102
RTVSPropertyOp28
 70
     1
102
RTVSPropertyOp29
 70
     1
102
RTVSPropertyOp30
 70
     1
102
RTVSPropertyOp31
 70
     1
102
RTVSPropertyOp32
 70
     1
102
RTVSPropertyOp33
 70
     1
102
RTVSPropertyOp34
 70
     1
102
RTVSPropertyOp35
 70
     1
102
RTVSPropertyOp36
 70
     1
102
RTVSPropertyOp37
 70
     1
102
RTVSPropertyOp38
 70
     1
102
RTVSPropertyOp39
 70
     1
102
RTVSPropertyOp40
 70
     1
102
RTVSPropertyOp41
 70
     1
102
RTVSPropertyOp42
 70
     1
102
RTVSPropertyOp43
 70
     1
102
RTVSPropertyOp44
 70
     1
102
RTVSPropertyOp45
 70
     1
102
RTVSPropertyOp46
 70
     1
102
RTVSPropertyOp47
 70
     1
102
RTVSPropertyOp48
 70
     1
102
RTVSPropertyOp49
 70
     1
102
RTVSPropertyOp50
 70
     1
102
RTVSPropertyOp51
 70
     0
102
RTVSPropertyOp52
 70
     0
102
RTVSPropertyOp53
 70
     1
102
RTVSPropertyOp54
 70
     1
102
RTVSPropertyOp55
 70
     1
102
RTVSPropertyOp56
 70
     1
102
RTVSPropertyOp57
 70
     1
102
RTVSPost2010Prop28
280
     0
102
RTVSPost2010PropOp28
 70
     1
102
RTVSPost2010Prop29
280
     1
102
RTVSPost2010PropOp29
 70
     1
102
RTVSPost2010Prop30
280
     1
102
RTVSPost2010PropOp30
 70
     1
102
RTVSPost2010Prop31
280
     0
102
RTVSPost2010PropOp31
 70
     1
102
RTVSPost2010Prop32
280
     0
102
RTVSPost2010PropOp32
 70
     1
102
RTVSPost2010Prop33
280
     0
102
RTVSPost2010PropOp33
 70
     1
102
RTVSPost2010Prop34
280
     0
102
RTVSPost2010PropOp34
 70
     1
102
RTVSPost2010Prop35
280
     0
102
RTVSPost2010PropOp35
 70
     1
102
RTVSPost2010Prop36
280
     0
102
RTVSPost2010PropOp36
 70
     1
102
RTVSPost2010Prop37
 90
       50
102
RTVSPost2010PropOp37
 70
     1
102
RTVSPost2010Prop38
140
0.0
102
RTVSPost2010PropOp38
 70
     1
102
RTVSPost2010Prop39
140
1.0
102
RTVSPost2010PropOp39
 70
     1
102
RTVSPost2010Prop40
 90
        0
102
RTVSPost2010PropOp40
 70
     1
102
RTVSPost2010Prop41ColorIndex
 90
       18
102
RTVSPost2010Prop41ColorRGB
 90
        0
102
RTVSPost2010PropOp41
 70
     1
102
RTVSPost2010Prop42
 90
       50
102
RTVSPost2010PropOp42
 70
     1
102
RTVSPost2010Prop43
 90
        3
102
RTVSPost2010PropOp43
 70
     1
102
RTVSPost2010Prop44ColorIndex
 90
        5
102
RTVSPost2010Prop44ColorRGB
 90
      255
102
RTVSPost2010PropOp44
 70
     1
102
RTVSPost2010Prop45
280
     0
102
RTVSPost2010PropOp45
 70
     1
102
RTVSPost2010Prop46
 90
       50
102
RTVSPost2010PropOp46
 70
     1
102
RTVSPost2010Prop47
 90
       50
102
RTVSPost2010PropOp47
 70
     1
102
RTVSPost2010Prop48
 90
       50
102
RTVSPost2010PropOp48
 70
     1
102
RTVSPost2010Prop49
280
     0
102
RTVSPost2010PropOp49
 70
     1
102
RTVSPost2010Prop50
 90
       50
102
RTVSPost2010PropOp50
 70
     1
102
RTVSPost2010Prop51ColorIndex
 90
      256
102
RTVSPost2010Prop51ColorRGB
 90
-16777216
102
RTVSPost2010PropOp51
 70
     0
102
RTVSPost2010Prop52
140
1.0
102
RTVSPost2010PropOp52
 70
     0
102
RTVSPost2010Prop53
 90
        2
102
RTVSPost2010PropOp53
 70
     1
102
RTVSPost2010Prop54
  1
strokes_ogs.tif
102
RTVSPost2010PropOp54
 70
     1
102
RTVSPost2010Prop55
280
     0
102
RTVSPost2010PropOp55
 70
     1
102
RTVSPost2010Prop56
140
1.0
102
RTVSPost2010PropOp56
 70
     1
102
RTVSPost2010Prop57
140
1.0
102
RTVSPost2010PropOp57
 70
     1
  0
XRECORD
  5
3BE
102
{ACAD_REACTORS
330
3BD
102
}
330
3BD
100
AcDbXrecord
280
     1
102
RTVSPropertyOp0
 70
     1
102
RTVSPropertyOp1
 70
     1
102
RTVSPropertyOp2
 70
     1
102
RTVSPropertyOp3
 70
     1
102
RTVSPropertyOp4
 70
     1
102
RTVSPropertyOp5
 70
     1
102
RTVSPropertyOp6
 70
     1
102
RTVSPropertyOp7
 70
     1
102
RTVSPropertyOp8
 70
     1
102
RTVSPropertyOp9
 70
     1
102
RTVSPropertyOp10
 70
     1
102
RTVSPropertyOp11
 70
     1
102
RTVSPropertyOp12
 70
     1
102
RTVSPropertyOp13
 70
     1
102
RTVSPropertyOp14
 70
     1
102
RTVSPropertyOp15
 70
     1
102
RTVSPropertyOp16
 70
     1
102
RTVSPropertyOp17
 70
     1
102
RTVSPropertyOp18
 70
     1
102
RTVSPropertyOp19
 70
     1
102
RTVSPropertyOp20
 70
     1
102
RTVSPropertyOp21
 70
     1
102
RTVSPropertyOp22
 70
     1
102
RTVSPropertyOp23
 70
     1
102
RTVSPropertyOp24
 70
     1
102
RTVSPropertyOp25
 70
     1
102
RTVSPropertyOp26
 70
     1
102
RTVSPropertyOp27
 70
     1
102
RTVSPropertyOp28
 70
     1
102
RTVSPropertyOp29
 70
     1
102
RTVSPropertyOp30
 70
     1
102
RTVSPropertyOp31
 70
     1
102
RTVSPropertyOp32
 70
     1
102
RTVSPropertyOp33
 70
     1
102
RTVSPropertyOp34
 70
     1
102
RTVSPropertyOp35
 70
     1
102
RTVSPropertyOp36
 70
     1
102
RTVSPropertyOp37
 70
     1
102
RTVSPropertyOp38
 70
     1
102
RTVSPropertyOp39
 70
     1
102
RTVSPropertyOp40
 70
     1
102
RTVSPropertyOp41
 70
     1
102
RTVSPropertyOp42
 70
     1
102
RTVSPropertyOp43
 70
     1
102
RTVSPropertyOp44
 70
     1
102
RTVSPropertyOp45
 70
     1
102
RTVSPropertyOp46
 70
     1
102
RTVSPropertyOp47
 70
     1
102
RTVSPropertyOp48
 70
     1
102
RTVSPropertyOp49
 70
     1
102
RTVSPropertyOp50
 70
     1
102
RTVSPropertyOp51
 70
     0
102
RTVSPropertyOp52
 70
     0
102
RTVSPropertyOp53
 70
     1
102
RTVSPropertyOp54
 70
     1
102
RTVSPropertyOp55
 70
     1
102
RTVSPropertyOp56
 70
     1
102
RTVSPropertyOp57
 70
     1
102
RTVSPost2010Prop28
280
     0
102
RTVSPost2010PropOp28
 70
     1
102
RTVSPost2010Prop29
280
     1
102
RTVSPost2010PropOp29
 70
     1
102
RTVSPost2010Prop30
280
     1
102
RTVSPost2010PropOp30
 70
     1
102
RTVSPost2010Prop31
280
     0
102
RTVSPost2010PropOp31
 70
     1
102
RTVSPost2010Prop32
280
     0
102
RTVSPost2010PropOp32
 70
     1
102
RTVSPost2010Prop33
280
     0
102
RTVSPost2010PropOp33
 70
     1
102
RTVSPost2010Prop34
280
     0
102
RTVSPost2010PropOp34
 70
     1
102
RTVSPost2010Prop35
280
     0
102
RTVSPost2010PropOp35
 70
     1
102
RTVSPost2010Prop36
280
     0
102
RTVSPost2010PropOp36
 70
     1
102
RTVSPost2010Prop37
 90
       50
102
RTVSPost2010PropOp37
 70
     1
102
RTVSPost2010Prop38
140
0.0
102
RTVSPost2010PropOp38
 70
     1
102
RTVSPost2010Prop39
140
1.0
102
RTVSPost2010PropOp39
 70
     1
102
RTVSPost2010Prop40
 90
        0
102
RTVSPost2010PropOp40
 70
     1
102
RTVSPost2010Prop41ColorIndex
 90
       18
102
RTVSPost2010Prop41ColorRGB
 90
        0
102
RTVSPost2010PropOp41
 70
     1
102
RTVSPost2010Prop42
 90
       50
102
RTVSPost2010PropOp42
 70
     1
102
RTVSPost2010Prop43
 90
        3
102
RTVSPost2010PropOp43
 70
     1
102
RTVSPost2010Prop44ColorIndex
 90
        5
102
RTVSPost2010Prop44ColorRGB
 90
      255
102
RTVSPost2010PropOp44
 70
     1
102
RTVSPost2010Prop45
280
     0
102
RTVSPost2010PropOp45
 70
     1
102
RTVSPost2010Prop46
 90
       50
102
RTVSPost2010PropOp46
 70
     1
102
RTVSPost2010Prop47
 90
       50
102
RTVSPost2010PropOp47
 70
     1
102
RTVSPost2010Prop48
 90
       50
102
RTVSPost2010PropOp48
 70
     1
102
RTVSPost2010Prop49
280
     0
102
RTVSPost2010PropOp49
 70
     1
102
RTVSPost2010Prop50
 90
       50
102
RTVSPost2010PropOp50
 70
     1
102
RTVSPost2010Prop51ColorIndex
 90
      256
102
RTVSPost2010Prop51ColorRGB
 90
-16777216
102
RTVSPost2010PropOp51
 70
     0
102
RTVSPost2010Prop52
140
1.0
102
RTVSPost2010PropOp52
 70
     0
102
RTVSPost2010Prop53
 90
        2
102
RTVSPost2010PropOp53
 70
     1
102
RTVSPost2010Prop54
  1
strokes_ogs.tif
102
RTVSPost2010PropOp54
 70
     1
102
RTVSPost2010Prop55
280
     0
102
RTVSPost2010PropOp55
 70
     1
102
RTVSPost2010Prop56
140
1.0
102
RTVSPost2010PropOp56
 70
     1
102
RTVSPost2010Prop57
140
1.0
102
RTVSPost2010PropOp57
 70
     1
  0
XRECORD
  5
3D2
102
{ACAD_REACTORS
330
3D1
102
}
330
3D1
100
AcDbXrecord
280
     1
102
RTVSPropertyOp0
 70
     0
102
RTVSPropertyOp1
 70
     0
102
RTVSPropertyOp2
 70
     0
102
RTVSPropertyOp3
 70
     0
102
RTVSPropertyOp4
 70
     0
102
RTVSPropertyOp5
 70
     0
102
RTVSPropertyOp6
 70
     0
102
RTVSPropertyOp7
 70
     0
102
RTVSPropertyOp8
 70
     0
102
RTVSPropertyOp9
 70
     0
102
RTVSPropertyOp10
 70
     0
102
RTVSPropertyOp11
 70
     0
102
RTVSPropertyOp12
 70
     0
102
RTVSPropertyOp13
 70
     0
102
RTVSPropertyOp14
 70
     2
102
RTVSPropertyOp15
 70
     0
102
RTVSPropertyOp16
 70
     0
102
RTVSPropertyOp17
 70
     0
102
RTVSPropertyOp18
 70
     0
102
RTVSPropertyOp19
 70
     0
102
RTVSPropertyOp20
 70
     0
102
RTVSPropertyOp21
 70
     0
102
RTVSPropertyOp22
 70
     0
102
RTVSPropertyOp23
 70
     0
102
RTVSPropertyOp24
 70
     0
102
RTVSPropertyOp25
 70
     0
102
RTVSPropertyOp26
 70
     0
102
RTVSPropertyOp27
 70
     0
102
RTVSPropertyOp28
 70
     0
102
RTVSPropertyOp29
 70
     0
102
RTVSPropertyOp30
 70
     0
102
RTVSPropertyOp31
 70
     0
102
RTVSPropertyOp32
 70
     0
102
RTVSPropertyOp33
 70
     0
102
RTVSPropertyOp34
 70
     0
102
RTVSPropertyOp35
 70
     0
102
RTVSPropertyOp36
 70
     0
102
RTVSPropertyOp37
 70
     0
102
RTVSPropertyOp38
 70
     0
102
RTVSPropertyOp39
 70
     0
102
RTVSPropertyOp40
 70
     0
102
RTVSPropertyOp41
 70
     0
102
RTVSPropertyOp42
 70
     0
102
RTVSPropertyOp43
 70
     0
102
RTVSPropertyOp44
 70
     0
102
RTVSPropertyOp45
 70
     0
102
RTVSPropertyOp46
 70
     0
102
RTVSPropertyOp47
 70
     0
102
RTVSPropertyOp48
 70
     0
102
RTVSPropertyOp49
 70
     0
102
RTVSPropertyOp50
 70
     0
102
RTVSPropertyOp51
 70
     0
102
RTVSPropertyOp52
 70
     0
102
RTVSPropertyOp53
 70
     0
102
RTVSPropertyOp54
 70
     0
102
RTVSPropertyOp55
 70
     0
102
RTVSPropertyOp56
 70
     0
102
RTVSPropertyOp57
 70
     0
102
RTVSPost2010Prop28
280
     0
102
RTVSPost2010PropOp28
 70
     0
102
RTVSPost2010Prop29
280
     1
102
RTVSPost2010PropOp29
 70
     0
102
RTVSPost2010Prop30
280
     1
102
RTVSPost2010PropOp30
 70
     0
102
RTVSPost2010Prop31
280
     0
102
RTVSPost2010PropOp31
 70
     0
102
RTVSPost2010Prop32
280
     0
102
RTVSPost2010PropOp32
 70
     0
102
RTVSPost2010Prop33
280
     0
102
RTVSPost2010PropOp33
 70
     0
102
RTVSPost2010Prop34
280
     0
102
RTVSPost2010PropOp34
 70
     0
102
RTVSPost2010Prop35
280
     0
102
RTVSPost2010PropOp35
 70
     0
102
RTVSPost2010Prop36
280
     0
102
RTVSPost2010PropOp36
 70
     0
102
RTVSPost2010Prop37
 90
       50
102
RTVSPost2010PropOp37
 70
     0
102
RTVSPost2010Prop38
140
0.0
102
RTVSPost2010PropOp38
 70
     0
102
RTVSPost2010Prop39
140
1.0
102
RTVSPost2010PropOp39
 70
     0
102
RTVSPost2010Prop40
 90
        0
102
RTVSPost2010PropOp40
 70
     0
102
RTVSPost2010Prop41ColorIndex
 90
       18
102
RTVSPost2010Prop41ColorRGB
 90
        0
102
RTVSPost2010PropOp41
 70
     0
102
RTVSPost2010Prop42
 90
       50
102
RTVSPost2010PropOp42
 70
     0
102
RTVSPost2010Prop43
 90
        3
102
RTVSPost2010PropOp43
 70
     0
102
RTVSPost2010Prop44ColorIndex
 90
        5
102
RTVSPost2010Prop44ColorRGB
 90
      255
102
RTVSPost2010PropOp44
 70
     0
102
RTVSPost2010Prop45
280
     0
102
RTVSPost2010PropOp45
 70
     0
102
RTVSPost2010Prop46
 90
       50
102
RTVSPost2010PropOp46
 70
     0
102
RTVSPost2010Prop47
 90
       50
102
RTVSPost2010PropOp47
 70
     0
102
RTVSPost2010Prop48
 90
       50
102
RTVSPost2010PropOp48
 70
     0
102
RTVSPost2010Prop49
280
     0
102
RTVSPost2010PropOp49
 70
     0
102
RTVSPost2010Prop50
 90
       50
102
RTVSPost2010PropOp50
 70
     0
102
RTVSPost2010Prop51ColorIndex
 90
      256
102
RTVSPost2010Prop51ColorRGB
 90
-16777216
102
RTVSPost2010PropOp51
 70
     0
102
RTVSPost2010Prop52
140
1.0
102
RTVSPost2010PropOp52
 70
     0
102
RTVSPost2010Prop53
 90
        2
102
RTVSPost2010PropOp53
 70
     0
102
RTVSPost2010Prop54
  1
strokes_ogs.tif
102
RTVSPost2010PropOp54
 70
     0
102
RTVSPost2010Prop55
280
     0
102
RTVSPost2010PropOp55
 70
     0
102
RTVSPost2010Prop56
140
1.0
102
RTVSPost2010PropOp56
 70
     0
102
RTVSPost2010Prop57
140
1.0
102
RTVSPost2010PropOp57
 70
     0
  0
XRECORD
  5
3CC
102
{ACAD_REACTORS
330
3CB
102
}
330
3CB
100
AcDbXrecord
280
     1
102
RTVSPropertyOp0
 70
     1
102
RTVSPropertyOp1
 70
     1
102
RTVSPropertyOp2
 70
     1
102
RTVSPropertyOp3
 70
     1
102
RTVSPropertyOp4
 70
     1
102
RTVSPropertyOp5
 70
     1
102
RTVSPropertyOp6
 70
     1
102
RTVSPropertyOp7
 70
     1
102
RTVSPropertyOp8
 70
     1
102
RTVSPropertyOp9
 70
     1
102
RTVSPropertyOp10
 70
     1
102
RTVSPropertyOp11
 70
     1
102
RTVSPropertyOp12
 70
     1
102
RTVSPropertyOp13
 70
     1
102
RTVSPropertyOp14
 70
     1
102
RTVSPropertyOp15
 70
     1
102
RTVSPropertyOp16
 70
     1
102
RTVSPropertyOp17
 70
     1
102
RTVSPropertyOp18
 70
     1
102
RTVSPropertyOp19
 70
     1
102
RTVSPropertyOp20
 70
     1
102
RTVSPropertyOp21
 70
     1
102
RTVSPropertyOp22
 70
     1
102
RTVSPropertyOp23
 70
     1
102
RTVSPropertyOp24
 70
     1
102
RTVSPropertyOp25
 70
     1
102
RTVSPropertyOp26
 70
     1
102
RTVSPropertyOp27
 70
     1
102
RTVSPropertyOp28
 70
     1
102
RTVSPropertyOp29
 70
     1
102
RTVSPropertyOp30
 70
     1
102
RTVSPropertyOp31
 70
     1
102
RTVSPropertyOp32
 70
     1
102
RTVSPropertyOp33
 70
     1
102
RTVSPropertyOp34
 70
     1
102
RTVSPropertyOp35
 70
     1
102
RTVSPropertyOp36
 70
     1
102
RTVSPropertyOp37
 70
     1
102
RTVSPropertyOp38
 70
     1
102
RTVSPropertyOp39
 70
     1
102
RTVSPropertyOp40
 70
     1
102
RTVSPropertyOp41
 70
     1
102
RTVSPropertyOp42
 70
     1
102
RTVSPropertyOp43
 70
     1
102
RTVSPropertyOp44
 70
     1
102
RTVSPropertyOp45
 70
     1
102
RTVSPropertyOp46
 70
     1
102
RTVSPropertyOp47
 70
     1
102
RTVSPropertyOp48
 70
     1
102
RTVSPropertyOp49
 70
     1
102
RTVSPropertyOp50
 70
     1
102
RTVSPropertyOp51
 70
     0
102
RTVSPropertyOp52
 70
     0
102
RTVSPropertyOp53
 70
     1
102
RTVSPropertyOp54
 70
     1
102
RTVSPropertyOp55
 70
     1
102
RTVSPropertyOp56
 70
     1
102
RTVSPropertyOp57
 70
     1
102
RTVSPost2010Prop28
280
     0
102
RTVSPost2010PropOp28
 70
     1
102
RTVSPost2010Prop29
280
     1
102
RTVSPost2010PropOp29
 70
     1
102
RTVSPost2010Prop30
280
     1
102
RTVSPost2010PropOp30
 70
     1
102
RTVSPost2010Prop31
280
     0
102
RTVSPost2010PropOp31
 70
     1
102
RTVSPost2010Prop32
280
     0
102
RTVSPost2010PropOp32
 70
     1
102
RTVSPost2010Prop33
280
     0
102
RTVSPost2010PropOp33
 70
     1
102
RTVSPost2010Prop34
280
     0
102
RTVSPost2010PropOp34
 70
     1
102
RTVSPost2010Prop35
280
     0
102
RTVSPost2010PropOp35
 70
     1
102
RTVSPost2010Prop36
280
     0
102
RTVSPost2010PropOp36
 70
     1
102
RTVSPost2010Prop37
 90
       50
102
RTVSPost2010PropOp37
 70
     1
102
RTVSPost2010Prop38
140
0.0
102
RTVSPost2010PropOp38
 70
     1
102
RTVSPost2010Prop39
140
1.0
102
RTVSPost2010PropOp39
 70
     1
102
RTVSPost2010Prop40
 90
        0
102
RTVSPost2010PropOp40
 70
     1
102
RTVSPost2010Prop41ColorIndex
 90
       18
102
RTVSPost2010Prop41ColorRGB
 90
        0
102
RTVSPost2010PropOp41
 70
     1
102
RTVSPost2010Prop42
 90
       50
102
RTVSPost2010PropOp42
 70
     1
102
RTVSPost2010Prop43
 90
        3
102
RTVSPost2010PropOp43
 70
     1
102
RTVSPost2010Prop44ColorIndex
 90
        5
102
RTVSPost2010Prop44ColorRGB
 90
      255
102
RTVSPost2010PropOp44
 70
     1
102
RTVSPost2010Prop45
280
     0
102
RTVSPost2010PropOp45
 70
     1
102
RTVSPost2010Prop46
 90
       50
102
RTVSPost2010PropOp46
 70
     1
102
RTVSPost2010Prop47
 90
       50
102
RTVSPost2010PropOp47
 70
     1
102
RTVSPost2010Prop48
 90
       50
102
RTVSPost2010PropOp48
 70
     1
102
RTVSPost2010Prop49
280
     0
102
RTVSPost2010PropOp49
 70
     1
102
RTVSPost2010Prop50
 90
       50
102
RTVSPost2010PropOp50
 70
     1
102
RTVSPost2010Prop51ColorIndex
 90
      256
102
RTVSPost2010Prop51ColorRGB
 90
-16777216
102
RTVSPost2010PropOp51
 70
     0
102
RTVSPost2010Prop52
140
1.0
102
RTVSPost2010PropOp52
 70
     0
102
RTVSPost2010Prop53
 90
        2
102
RTVSPost2010PropOp53
 70
     1
102
RTVSPost2010Prop54
  1
strokes_ogs.tif
102
RTVSPost2010PropOp54
 70
     1
102
RTVSPost2010Prop55
280
     0
102
RTVSPost2010PropOp55
 70
     1
102
RTVSPost2010Prop56
140
1.0
102
RTVSPost2010PropOp56
 70
     1
102
RTVSPost2010Prop57
140
1.0
102
RTVSPost2010PropOp57
 70
     1
  0
XRECORD
  5
3D4
102
{ACAD_REACTORS
330
3D3
102
}
330
3D3
100
AcDbXrecord
280
     1
102
RTVSPropertyOp0
 70
     0
102
RTVSPropertyOp1
 70
     0
102
RTVSPropertyOp2
 70
     0
102
RTVSPropertyOp3
 70
     0
102
RTVSPropertyOp4
 70
     0
102
RTVSPropertyOp5
 70
     0
102
RTVSPropertyOp6
 70
     0
102
RTVSPropertyOp7
 70
     0
102
RTVSPropertyOp8
 70
     0
102
RTVSPropertyOp9
 70
     0
102
RTVSPropertyOp10
 70
     0
102
RTVSPropertyOp11
 70
     0
102
RTVSPropertyOp12
 70
     0
102
RTVSPropertyOp13
 70
     0
102
RTVSPropertyOp14
 70
     2
102
RTVSPropertyOp15
 70
     0
102
RTVSPropertyOp16
 70
     0
102
RTVSPropertyOp17
 70
     0
102
RTVSPropertyOp18
 70
     0
102
RTVSPropertyOp19
 70
     0
102
RTVSPropertyOp20
 70
     0
102
RTVSPropertyOp21
 70
     0
102
RTVSPropertyOp22
 70
     0
102
RTVSPropertyOp23
 70
     0
102
RTVSPropertyOp24
 70
     0
102
RTVSPropertyOp25
 70
     0
102
RTVSPropertyOp26
 70
     0
102
RTVSPropertyOp27
 70
     0
102
RTVSPropertyOp28
 70
     0
102
RTVSPropertyOp29
 70
     0
102
RTVSPropertyOp30
 70
     0
102
RTVSPropertyOp31
 70
     0
102
RTVSPropertyOp32
 70
     0
102
RTVSPropertyOp33
 70
     0
102
RTVSPropertyOp34
 70
     0
102
RTVSPropertyOp35
 70
     0
102
RTVSPropertyOp36
 70
     0
102
RTVSPropertyOp37
 70
     0
102
RTVSPropertyOp38
 70
     0
102
RTVSPropertyOp39
 70
     0
102
RTVSPropertyOp40
 70
     0
102
RTVSPropertyOp41
 70
     0
102
RTVSPropertyOp42
 70
     0
102
RTVSPropertyOp43
 70
     0
102
RTVSPropertyOp44
 70
     0
102
RTVSPropertyOp45
 70
     0
102
RTVSPropertyOp46
 70
     0
102
RTVSPropertyOp47
 70
     0
102
RTVSPropertyOp48
 70
     0
102
RTVSPropertyOp49
 70
     0
102
RTVSPropertyOp50
 70
     0
102
RTVSPropertyOp51
 70
     0
102
RTVSPropertyOp52
 70
     0
102
RTVSPropertyOp53
 70
     0
102
RTVSPropertyOp54
 70
     0
102
RTVSPropertyOp55
 70
     0
102
RTVSPropertyOp56
 70
     0
102
RTVSPropertyOp57
 70
     0
102
RTVSPost2010Prop28
280
     0
102
RTVSPost2010PropOp28
 70
     0
102
RTVSPost2010Prop29
280
     1
102
RTVSPost2010PropOp29
 70
     0
102
RTVSPost2010Prop30
280
     1
102
RTVSPost2010PropOp30
 70
     0
102
RTVSPost2010Prop31
280
     0
102
RTVSPost2010PropOp31
 70
     0
102
RTVSPost2010Prop32
280
     0
102
RTVSPost2010PropOp32
 70
     0
102
RTVSPost2010Prop33
280
     0
102
RTVSPost2010PropOp33
 70
     0
102
RTVSPost2010Prop34
280
     0
102
RTVSPost2010PropOp34
 70
     0
102
RTVSPost2010Prop35
280
     0
102
RTVSPost2010PropOp35
 70
     0
102
RTVSPost2010Prop36
280
     0
102
RTVSPost2010PropOp36
 70
     0
102
RTVSPost2010Prop37
 90
       50
102
RTVSPost2010PropOp37
 70
     0
102
RTVSPost2010Prop38
140
0.0
102
RTVSPost2010PropOp38
 70
     0
102
RTVSPost2010Prop39
140
1.0
102
RTVSPost2010PropOp39
 70
     0
102
RTVSPost2010Prop40
 90
        0
102
RTVSPost2010PropOp40
 70
     0
102
RTVSPost2010Prop41ColorIndex
 90
       18
102
RTVSPost2010Prop41ColorRGB
 90
        0
102
RTVSPost2010PropOp41
 70
     0
102
RTVSPost2010Prop42
 90
       50
102
RTVSPost2010PropOp42
 70
     0
102
RTVSPost2010Prop43
 90
        3
102
RTVSPost2010PropOp43
 70
     0
102
RTVSPost2010Prop44ColorIndex
 90
        5
102
RTVSPost2010Prop44ColorRGB
 90
      255
102
RTVSPost2010PropOp44
 70
     0
102
RTVSPost2010Prop45
280
     0
102
RTVSPost2010PropOp45
 70
     0
102
RTVSPost2010Prop46
 90
       50
102
RTVSPost2010PropOp46
 70
     0
102
RTVSPost2010Prop47
 90
       50
102
RTVSPost2010PropOp47
 70
     0
102
RTVSPost2010Prop48
 90
       50
102
RTVSPost2010PropOp48
 70
     0
102
RTVSPost2010Prop49
280
     0
102
RTVSPost2010PropOp49
 70
     0
102
RTVSPost2010Prop50
 90
       50
102
RTVSPost2010PropOp50
 70
     0
102
RTVSPost2010Prop51ColorIndex
 90
      256
102
RTVSPost2010Prop51ColorRGB
 90
-16777216
102
RTVSPost2010PropOp51
 70
     0
102
RTVSPost2010Prop52
140
1.0
102
RTVSPost2010PropOp52
 70
     0
102
RTVSPost2010Prop53
 90
        2
102
RTVSPost2010PropOp53
 70
     0
102
RTVSPost2010Prop54
  1
strokes_ogs.tif
102
RTVSPost2010PropOp54
 70
     0
102
RTVSPost2010Prop55
280
     0
102
RTVSPost2010PropOp55
 70
     0
102
RTVSPost2010Prop56
140
1.0
102
RTVSPost2010PropOp56
 70
     0
102
RTVSPost2010Prop57
140
1.0
102
RTVSPost2010PropOp57
 70
     0
  0
XRECORD
  5
3C2
102
{ACAD_REACTORS
330
3C1
102
}
330
3C1
100
AcDbXrecord
280
     1
102
RTVSPropertyOp0
 70
     1
102
RTVSPropertyOp1
 70
     1
102
RTVSPropertyOp2
 70
     1
102
RTVSPropertyOp3
 70
     1
102
RTVSPropertyOp4
 70
     1
102
RTVSPropertyOp5
 70
     1
102
RTVSPropertyOp6
 70
     1
102
RTVSPropertyOp7
 70
     1
102
RTVSPropertyOp8
 70
     1
102
RTVSPropertyOp9
 70
     1
102
RTVSPropertyOp10
 70
     1
102
RTVSPropertyOp11
 70
     1
102
RTVSPropertyOp12
 70
     1
102
RTVSPropertyOp13
 70
     1
102
RTVSPropertyOp14
 70
     1
102
RTVSPropertyOp15
 70
     1
102
RTVSPropertyOp16
 70
     1
102
RTVSPropertyOp17
 70
     1
102
RTVSPropertyOp18
 70
     1
102
RTVSPropertyOp19
 70
     1
102
RTVSPropertyOp20
 70
     1
102
RTVSPropertyOp21
 70
     1
102
RTVSPropertyOp22
 70
     1
102
RTVSPropertyOp23
 70
     1
102
RTVSPropertyOp24
 70
     1
102
RTVSPropertyOp25
 70
     1
102
RTVSPropertyOp26
 70
     1
102
RTVSPropertyOp27
 70
     1
102
RTVSPropertyOp28
 70
     1
102
RTVSPropertyOp29
 70
     1
102
RTVSPropertyOp30
 70
     1
102
RTVSPropertyOp31
 70
     1
102
RTVSPropertyOp32
 70
     1
102
RTVSPropertyOp33
 70
     1
102
RTVSPropertyOp34
 70
     1
102
RTVSPropertyOp35
 70
     1
102
RTVSPropertyOp36
 70
     1
102
RTVSPropertyOp37
 70
     1
102
RTVSPropertyOp38
 70
     1
102
RTVSPropertyOp39
 70
     1
102
RTVSPropertyOp40
 70
     1
102
RTVSPropertyOp41
 70
     1
102
RTVSPropertyOp42
 70
     1
102
RTVSPropertyOp43
 70
     1
102
RTVSPropertyOp44
 70
     1
102
RTVSPropertyOp45
 70
     1
102
RTVSPropertyOp46
 70
     1
102
RTVSPropertyOp47
 70
     1
102
RTVSPropertyOp48
 70
     1
102
RTVSPropertyOp49
 70
     1
102
RTVSPropertyOp50
 70
     1
102
RTVSPropertyOp51
 70
     0
102
RTVSPropertyOp52
 70
     0
102
RTVSPropertyOp53
 70
     1
102
RTVSPropertyOp54
 70
     1
102
RTVSPropertyOp55
 70
     1
102
RTVSPropertyOp56
 70
     1
102
RTVSPropertyOp57
 70
     1
102
RTVSPost2010Prop28
280
     0
102
RTVSPost2010PropOp28
 70
     1
102
RTVSPost2010Prop29
280
     1
102
RTVSPost2010PropOp29
 70
     1
102
RTVSPost2010Prop30
280
     1
102
RTVSPost2010PropOp30
 70
     1
102
RTVSPost2010Prop31
280
     0
102
RTVSPost2010PropOp31
 70
     1
102
RTVSPost2010Prop32
280
     0
102
RTVSPost2010PropOp32
 70
     1
102
RTVSPost2010Prop33
280
     0
102
RTVSPost2010PropOp33
 70
     1
102
RTVSPost2010Prop34
280
     0
102
RTVSPost2010PropOp34
 70
     1
102
RTVSPost2010Prop35
280
     0
102
RTVSPost2010PropOp35
 70
     1
102
RTVSPost2010Prop36
280
     0
102
RTVSPost2010PropOp36
 70
     1
102
RTVSPost2010Prop37
 90
       50
102
RTVSPost2010PropOp37
 70
     1
102
RTVSPost2010Prop38
140
0.0
102
RTVSPost2010PropOp38
 70
     1
102
RTVSPost2010Prop39
140
1.0
102
RTVSPost2010PropOp39
 70
     1
102
RTVSPost2010Prop40
 90
        0
102
RTVSPost2010PropOp40
 70
     1
102
RTVSPost2010Prop41ColorIndex
 90
       18
102
RTVSPost2010Prop41ColorRGB
 90
        0
102
RTVSPost2010PropOp41
 70
     1
102
RTVSPost2010Prop42
 90
       50
102
RTVSPost2010PropOp42
 70
     1
102
RTVSPost2010Prop43
 90
        3
102
RTVSPost2010PropOp43
 70
     1
102
RTVSPost2010Prop44ColorIndex
 90
        5
102
RTVSPost2010Prop44ColorRGB
 90
      255
102
RTVSPost2010PropOp44
 70
     1
102
RTVSPost2010Prop45
280
     0
102
RTVSPost2010PropOp45
 70
     1
102
RTVSPost2010Prop46
 90
       50
102
RTVSPost2010PropOp46
 70
     1
102
RTVSPost2010Prop47
 90
       50
102
RTVSPost2010PropOp47
 70
     1
102
RTVSPost2010Prop48
 90
       50
102
RTVSPost2010PropOp48
 70
     1
102
RTVSPost2010Prop49
280
     0
102
RTVSPost2010PropOp49
 70
     1
102
RTVSPost2010Prop50
 90
       50
102
RTVSPost2010PropOp50
 70
     1
102
RTVSPost2010Prop51ColorIndex
 90
      256
102
RTVSPost2010Prop51ColorRGB
 90
-16777216
102
RTVSPost2010PropOp51
 70
     0
102
RTVSPost2010Prop52
140
1.0
102
RTVSPost2010PropOp52
 70
     0
102
RTVSPost2010Prop53
 90
        2
102
RTVSPost2010PropOp53
 70
     1
102
RTVSPost2010Prop54
  1
strokes_ogs.tif
102
RTVSPost2010PropOp54
 70
     1
102
RTVSPost2010Prop55
280
     0
102
RTVSPost2010PropOp55
 70
     1
102
RTVSPost2010Prop56
140
1.0
102
RTVSPost2010PropOp56
 70
     1
102
RTVSPost2010Prop57
140
1.0
102
RTVSPost2010PropOp57
 70
     1
  0
XRECORD
  5
3E0
102
{ACAD_REACTORS
330
3DF
102
}
330
3DF
100
AcDbXrecord
280
     1
102
RTVSPropertyOp0
 70
     1
102
RTVSPropertyOp1
 70
     1
102
RTVSPropertyOp2
 70
     1
102
RTVSPropertyOp3
 70
     1
102
RTVSPropertyOp4
 70
     1
102
RTVSPropertyOp5
 70
     1
102
RTVSPropertyOp6
 70
     1
102
RTVSPropertyOp7
 70
     1
102
RTVSPropertyOp8
 70
     1
102
RTVSPropertyOp9
 70
     1
102
RTVSPropertyOp10
 70
     1
102
RTVSPropertyOp11
 70
     1
102
RTVSPropertyOp12
 70
     1
102
RTVSPropertyOp13
 70
     1
102
RTVSPropertyOp14
 70
     1
102
RTVSPropertyOp15
 70
     1
102
RTVSPropertyOp16
 70
     1
102
RTVSPropertyOp17
 70
     1
102
RTVSPropertyOp18
 70
     1
102
RTVSPropertyOp19
 70
     1
102
RTVSPropertyOp20
 70
     1
102
RTVSPropertyOp21
 70
     1
102
RTVSPropertyOp22
 70
     1
102
RTVSPropertyOp23
 70
     1
102
RTVSPropertyOp24
 70
     1
102
RTVSPropertyOp25
 70
     1
102
RTVSPropertyOp26
 70
     1
102
RTVSPropertyOp27
 70
     1
102
RTVSPropertyOp28
 70
     1
102
RTVSPropertyOp29
 70
     1
102
RTVSPropertyOp30
 70
     1
102
RTVSPropertyOp31
 70
     1
102
RTVSPropertyOp32
 70
     1
102
RTVSPropertyOp33
 70
     1
102
RTVSPropertyOp34
 70
     1
102
RTVSPropertyOp35
 70
     1
102
RTVSPropertyOp36
 70
     1
102
RTVSPropertyOp37
 70
     1
102
RTVSPropertyOp38
 70
     1
102
RTVSPropertyOp39
 70
     1
102
RTVSPropertyOp40
 70
     1
102
RTVSPropertyOp41
 70
     1
102
RTVSPropertyOp42
 70
     1
102
RTVSPropertyOp43
 70
     1
102
RTVSPropertyOp44
 70
     1
102
RTVSPropertyOp45
 70
     1
102
RTVSPropertyOp46
 70
     1
102
RTVSPropertyOp47
 70
     1
102
RTVSPropertyOp48
 70
     1
102
RTVSPropertyOp49
 70
     1
102
RTVSPropertyOp50
 70
     1
102
RTVSPropertyOp51
 70
     0
102
RTVSPropertyOp52
 70
     0
102
RTVSPropertyOp53
 70
     1
102
RTVSPropertyOp54
 70
     1
102
RTVSPropertyOp55
 70
     1
102
RTVSPropertyOp56
 70
     1
102
RTVSPropertyOp57
 70
     1
102
RTVSPost2010Prop28
280
     0
102
RTVSPost2010PropOp28
 70
     1
102
RTVSPost2010Prop29
280
     1
102
RTVSPost2010PropOp29
 70
     1
102
RTVSPost2010Prop30
280
     1
102
RTVSPost2010PropOp30
 70
     1
102
RTVSPost2010Prop31
280
     0
102
RTVSPost2010PropOp31
 70
     1
102
RTVSPost2010Prop32
280
     0
102
RTVSPost2010PropOp32
 70
     1
102
RTVSPost2010Prop33
280
     0
102
RTVSPost2010PropOp33
 70
     1
102
RTVSPost2010Prop34
280
     0
102
RTVSPost2010PropOp34
 70
     1
102
RTVSPost2010Prop35
280
     0
102
RTVSPost2010PropOp35
 70
     1
102
RTVSPost2010Prop36
280
     0
102
RTVSPost2010PropOp36
 70
     1
102
RTVSPost2010Prop37
 90
       50
102
RTVSPost2010PropOp37
 70
     1
102
RTVSPost2010Prop38
140
0.0
102
RTVSPost2010PropOp38
 70
     1
102
RTVSPost2010Prop39
140
1.0
102
RTVSPost2010PropOp39
 70
     1
102
RTVSPost2010Prop40
 90
        0
102
RTVSPost2010PropOp40
 70
     1
102
RTVSPost2010Prop41ColorIndex
 90
       18
102
RTVSPost2010Prop41ColorRGB
 90
        0
102
RTVSPost2010PropOp41
 70
     1
102
RTVSPost2010Prop42
 90
       50
102
RTVSPost2010PropOp42
 70
     1
102
RTVSPost2010Prop43
 90
        3
102
RTVSPost2010PropOp43
 70
     1
102
RTVSPost2010Prop44ColorIndex
 90
        5
102
RTVSPost2010Prop44ColorRGB
 90
      255
102
RTVSPost2010PropOp44
 70
     1
102
RTVSPost2010Prop45
280
     0
102
RTVSPost2010PropOp45
 70
     1
102
RTVSPost2010Prop46
 90
       50
102
RTVSPost2010PropOp46
 70
     1
102
RTVSPost2010Prop47
 90
       50
102
RTVSPost2010PropOp47
 70
     1
102
RTVSPost2010Prop48
 90
       50
102
RTVSPost2010PropOp48
 70
     1
102
RTVSPost2010Prop49
280
     0
102
RTVSPost2010PropOp49
 70
     1
102
RTVSPost2010Prop50
 90
       50
102
RTVSPost2010PropOp50
 70
     1
102
RTVSPost2010Prop51ColorIndex
 90
      256
102
RTVSPost2010Prop51ColorRGB
 90
-16777216
102
RTVSPost2010PropOp51
 70
     0
102
RTVSPost2010Prop52
140
1.0
102
RTVSPost2010PropOp52
 70
     0
102
RTVSPost2010Prop53
 90
        2
102
RTVSPost2010PropOp53
 70
     1
102
RTVSPost2010Prop54
  1
strokes_ogs.tif
102
RTVSPost2010PropOp54
 70
     1
102
RTVSPost2010Prop55
280
     0
102
RTVSPost2010PropOp55
 70
     1
102
RTVSPost2010Prop56
140
1.0
102
RTVSPost2010PropOp56
 70
     1
102
RTVSPost2010Prop57
140
1.0
102
RTVSPost2010PropOp57
 70
     1
  0
XRECORD
  5
3DE
102
{ACAD_REACTORS
330
3DD
102
}
330
3DD
100
AcDbXrecord
280
     1
102
RTVSPropertyOp0
 70
     1
102
RTVSPropertyOp1
 70
     1
102
RTVSPropertyOp2
 70
     1
102
RTVSPropertyOp3
 70
     1
102
RTVSPropertyOp4
 70
     1
102
RTVSPropertyOp5
 70
     1
102
RTVSPropertyOp6
 70
     1
102
RTVSPropertyOp7
 70
     1
102
RTVSPropertyOp8
 70
     1
102
RTVSPropertyOp9
 70
     1
102
RTVSPropertyOp10
 70
     1
102
RTVSPropertyOp11
 70
     1
102
RTVSPropertyOp12
 70
     1
102
RTVSPropertyOp13
 70
     1
102
RTVSPropertyOp14
 70
     1
102
RTVSPropertyOp15
 70
     1
102
RTVSPropertyOp16
 70
     1
102
RTVSPropertyOp17
 70
     1
102
RTVSPropertyOp18
 70
     1
102
RTVSPropertyOp19
 70
     1
102
RTVSPropertyOp20
 70
     1
102
RTVSPropertyOp21
 70
     1
102
RTVSPropertyOp22
 70
     1
102
RTVSPropertyOp23
 70
     1
102
RTVSPropertyOp24
 70
     1
102
RTVSPropertyOp25
 70
     1
102
RTVSPropertyOp26
 70
     1
102
RTVSPropertyOp27
 70
     1
102
RTVSPropertyOp28
 70
     1
102
RTVSPropertyOp29
 70
     1
102
RTVSPropertyOp30
 70
     1
102
RTVSPropertyOp31
 70
     1
102
RTVSPropertyOp32
 70
     1
102
RTVSPropertyOp33
 70
     1
102
RTVSPropertyOp34
 70
     1
102
RTVSPropertyOp35
 70
     1
102
RTVSPropertyOp36
 70
     1
102
RTVSPropertyOp37
 70
     1
102
RTVSPropertyOp38
 70
     1
102
RTVSPropertyOp39
 70
     1
102
RTVSPropertyOp40
 70
     1
102
RTVSPropertyOp41
 70
     1
102
RTVSPropertyOp42
 70
     1
102
RTVSPropertyOp43
 70
     1
102
RTVSPropertyOp44
 70
     1
102
RTVSPropertyOp45
 70
     1
102
RTVSPropertyOp46
 70
     1
102
RTVSPropertyOp47
 70
     1
102
RTVSPropertyOp48
 70
     1
102
RTVSPropertyOp49
 70
     1
102
RTVSPropertyOp50
 70
     1
102
RTVSPropertyOp51
 70
     0
102
RTVSPropertyOp52
 70
     0
102
RTVSPropertyOp53
 70
     1
102
RTVSPropertyOp54
 70
     1
102
RTVSPropertyOp55
 70
     1
102
RTVSPropertyOp56
 70
     1
102
RTVSPropertyOp57
 70
     1
102
RTVSPost2010Prop28
280
     0
102
RTVSPost2010PropOp28
 70
     1
102
RTVSPost2010Prop29
280
     1
102
RTVSPost2010PropOp29
 70
     1
102
RTVSPost2010Prop30
280
     1
102
RTVSPost2010PropOp30
 70
     1
102
RTVSPost2010Prop31
280
     0
102
RTVSPost2010PropOp31
 70
     1
102
RTVSPost2010Prop32
280
     0
102
RTVSPost2010PropOp32
 70
     1
102
RTVSPost2010Prop33
280
     0
102
RTVSPost2010PropOp33
 70
     1
102
RTVSPost2010Prop34
280
     0
102
RTVSPost2010PropOp34
 70
     1
102
RTVSPost2010Prop35
280
     0
102
RTVSPost2010PropOp35
 70
     1
102
RTVSPost2010Prop36
280
     0
102
RTVSPost2010PropOp36
 70
     1
102
RTVSPost2010Prop37
 90
       50
102
RTVSPost2010PropOp37
 70
     1
102
RTVSPost2010Prop38
140
0.0
102
RTVSPost2010PropOp38
 70
     1
102
RTVSPost2010Prop39
140
1.0
102
RTVSPost2010PropOp39
 70
     1
102
RTVSPost2010Prop40
 90
        0
102
RTVSPost2010PropOp40
 70
     1
102
RTVSPost2010Prop41ColorIndex
 90
       18
102
RTVSPost2010Prop41ColorRGB
 90
        0
102
RTVSPost2010PropOp41
 70
     1
102
RTVSPost2010Prop42
 90
       50
102
RTVSPost2010PropOp42
 70
     1
102
RTVSPost2010Prop43
 90
        3
102
RTVSPost2010PropOp43
 70
     1
102
RTVSPost2010Prop44ColorIndex
 90
        5
102
RTVSPost2010Prop44ColorRGB
 90
      255
102
RTVSPost2010PropOp44
 70
     1
102
RTVSPost2010Prop45
280
     0
102
RTVSPost2010PropOp45
 70
     1
102
RTVSPost2010Prop46
 90
       50
102
RTVSPost2010PropOp46
 70
     1
102
RTVSPost2010Prop47
 90
       50
102
RTVSPost2010PropOp47
 70
     1
102
RTVSPost2010Prop48
 90
       50
102
RTVSPost2010PropOp48
 70
     1
102
RTVSPost2010Prop49
280
     0
102
RTVSPost2010PropOp49
 70
     1
102
RTVSPost2010Prop50
 90
       50
102
RTVSPost2010PropOp50
 70
     1
102
RTVSPost2010Prop51ColorIndex
 90
      256
102
RTVSPost2010Prop51ColorRGB
 90
-16777216
102
RTVSPost2010PropOp51
 70
     0
102
RTVSPost2010Prop52
140
1.0
102
RTVSPost2010PropOp52
 70
     0
102
RTVSPost2010Prop53
 90
        2
102
RTVSPost2010PropOp53
 70
     1
102
RTVSPost2010Prop54
  1
strokes_ogs.tif
102
RTVSPost2010PropOp54
 70
     1
102
RTVSPost2010Prop55
280
     0
102
RTVSPost2010PropOp55
 70
     1
102
RTVSPost2010Prop56
140
1.0
102
RTVSPost2010PropOp56
 70
     1
102
RTVSPost2010Prop57
140
1.0
102
RTVSPost2010PropOp57
 70
     1
  0
XRECORD
  5
3D8
102
{ACAD_REACTORS
330
3D7
102
}
330
3D7
100
AcDbXrecord
280
     1
102
RTVSPropertyOp0
 70
     1
102
RTVSPropertyOp1
 70
     1
102
RTVSPropertyOp2
 70
     1
102
RTVSPropertyOp3
 70
     1
102
RTVSPropertyOp4
 70
     1
102
RTVSPropertyOp5
 70
     1
102
RTVSPropertyOp6
 70
     1
102
RTVSPropertyOp7
 70
     1
102
RTVSPropertyOp8
 70
     1
102
RTVSPropertyOp9
 70
     1
102
RTVSPropertyOp10
 70
     1
102
RTVSPropertyOp11
 70
     1
102
RTVSPropertyOp12
 70
     1
102
RTVSPropertyOp13
 70
     1
102
RTVSPropertyOp14
 70
     1
102
RTVSPropertyOp15
 70
     1
102
RTVSPropertyOp16
 70
     1
102
RTVSPropertyOp17
 70
     1
102
RTVSPropertyOp18
 70
     1
102
RTVSPropertyOp19
 70
     1
102
RTVSPropertyOp20
 70
     1
102
RTVSPropertyOp21
 70
     1
102
RTVSPropertyOp22
 70
     1
102
RTVSPropertyOp23
 70
     1
102
RTVSPropertyOp24
 70
     1
102
RTVSPropertyOp25
 70
     1
102
RTVSPropertyOp26
 70
     1
102
RTVSPropertyOp27
 70
     1
102
RTVSPropertyOp28
 70
     1
102
RTVSPropertyOp29
 70
     1
102
RTVSPropertyOp30
 70
     1
102
RTVSPropertyOp31
 70
     1
102
RTVSPropertyOp32
 70
     1
102
RTVSPropertyOp33
 70
     1
102
RTVSPropertyOp34
 70
     1
102
RTVSPropertyOp35
 70
     1
102
RTVSPropertyOp36
 70
     1
102
RTVSPropertyOp37
 70
     1
102
RTVSPropertyOp38
 70
     1
102
RTVSPropertyOp39
 70
     1
102
RTVSPropertyOp40
 70
     1
102
RTVSPropertyOp41
 70
     1
102
RTVSPropertyOp42
 70
     1
102
RTVSPropertyOp43
 70
     1
102
RTVSPropertyOp44
 70
     1
102
RTVSPropertyOp45
 70
     1
102
RTVSPropertyOp46
 70
     1
102
RTVSPropertyOp47
 70
     1
102
RTVSPropertyOp48
 70
     1
102
RTVSPropertyOp49
 70
     1
102
RTVSPropertyOp50
 70
     1
102
RTVSPropertyOp51
 70
     0
102
RTVSPropertyOp52
 70
     0
102
RTVSPropertyOp53
 70
     1
102
RTVSPropertyOp54
 70
     1
102
RTVSPropertyOp55
 70
     1
102
RTVSPropertyOp56
 70
     1
102
RTVSPropertyOp57
 70
     1
102
RTVSPost2010Prop28
280
     0
102
RTVSPost2010PropOp28
 70
     1
102
RTVSPost2010Prop29
280
     1
102
RTVSPost2010PropOp29
 70
     1
102
RTVSPost2010Prop30
280
     1
102
RTVSPost2010PropOp30
 70
     1
102
RTVSPost2010Prop31
280
     0
102
RTVSPost2010PropOp31
 70
     1
102
RTVSPost2010Prop32
280
     0
102
RTVSPost2010PropOp32
 70
     1
102
RTVSPost2010Prop33
280
     0
102
RTVSPost2010PropOp33
 70
     1
102
RTVSPost2010Prop34
280
     0
102
RTVSPost2010PropOp34
 70
     1
102
RTVSPost2010Prop35
280
     0
102
RTVSPost2010PropOp35
 70
     1
102
RTVSPost2010Prop36
280
     0
102
RTVSPost2010PropOp36
 70
     1
102
RTVSPost2010Prop37
 90
       50
102
RTVSPost2010PropOp37
 70
     1
102
RTVSPost2010Prop38
140
0.0
102
RTVSPost2010PropOp38
 70
     1
102
RTVSPost2010Prop39
140
1.0
102
RTVSPost2010PropOp39
 70
     1
102
RTVSPost2010Prop40
 90
        0
102
RTVSPost2010PropOp40
 70
     1
102
RTVSPost2010Prop41ColorIndex
 90
       18
102
RTVSPost2010Prop41ColorRGB
 90
        0
102
RTVSPost2010PropOp41
 70
     1
102
RTVSPost2010Prop42
 90
       50
102
RTVSPost2010PropOp42
 70
     1
102
RTVSPost2010Prop43
 90
        3
102
RTVSPost2010PropOp43
 70
     1
102
RTVSPost2010Prop44ColorIndex
 90
        5
102
RTVSPost2010Prop44ColorRGB
 90
      255
102
RTVSPost2010PropOp44
 70
     1
102
RTVSPost2010Prop45
280
     0
102
RTVSPost2010PropOp45
 70
     1
102
RTVSPost2010Prop46
 90
       50
102
RTVSPost2010PropOp46
 70
     1
102
RTVSPost2010Prop47
 90
       50
102
RTVSPost2010PropOp47
 70
     1
102
RTVSPost2010Prop48
 90
       50
102
RTVSPost2010PropOp48
 70
     1
102
RTVSPost2010Prop49
280
     0
102
RTVSPost2010PropOp49
 70
     1
102
RTVSPost2010Prop50
 90
       50
102
RTVSPost2010PropOp50
 70
     1
102
RTVSPost2010Prop51ColorIndex
 90
      256
102
RTVSPost2010Prop51ColorRGB
 90
-16777216
102
RTVSPost2010PropOp51
 70
     0
102
RTVSPost2010Prop52
140
1.0
102
RTVSPost2010PropOp52
 70
     0
102
RTVSPost2010Prop53
 90
        2
102
RTVSPost2010PropOp53
 70
     1
102
RTVSPost2010Prop54
  1
strokes_ogs.tif
102
RTVSPost2010PropOp54
 70
     1
102
RTVSPost2010Prop55
280
     0
102
RTVSPost2010PropOp55
 70
     1
102
RTVSPost2010Prop56
140
1.0
102
RTVSPost2010PropOp56
 70
     1
102
RTVSPost2010Prop57
140
1.0
102
RTVSPost2010PropOp57
 70
     1
  0
XRECORD
  5
3DA
102
{ACAD_REACTORS
330
3D9
102
}
330
3D9
100
AcDbXrecord
280
     1
102
RTVSPropertyOp0
 70
     1
102
RTVSPropertyOp1
 70
     1
102
RTVSPropertyOp2
 70
     1
102
RTVSPropertyOp3
 70
     1
102
RTVSPropertyOp4
 70
     1
102
RTVSPropertyOp5
 70
     1
102
RTVSPropertyOp6
 70
     1
102
RTVSPropertyOp7
 70
     1
102
RTVSPropertyOp8
 70
     1
102
RTVSPropertyOp9
 70
     1
102
RTVSPropertyOp10
 70
     1
102
RTVSPropertyOp11
 70
     1
102
RTVSPropertyOp12
 70
     1
102
RTVSPropertyOp13
 70
     1
102
RTVSPropertyOp14
 70
     1
102
RTVSPropertyOp15
 70
     1
102
RTVSPropertyOp16
 70
     1
102
RTVSPropertyOp17
 70
     1
102
RTVSPropertyOp18
 70
     1
102
RTVSPropertyOp19
 70
     1
102
RTVSPropertyOp20
 70
     1
102
RTVSPropertyOp21
 70
     1
102
RTVSPropertyOp22
 70
     1
102
RTVSPropertyOp23
 70
     1
102
RTVSPropertyOp24
 70
     1
102
RTVSPropertyOp25
 70
     1
102
RTVSPropertyOp26
 70
     1
102
RTVSPropertyOp27
 70
     1
102
RTVSPropertyOp28
 70
     1
102
RTVSPropertyOp29
 70
     1
102
RTVSPropertyOp30
 70
     1
102
RTVSPropertyOp31
 70
     1
102
RTVSPropertyOp32
 70
     1
102
RTVSPropertyOp33
 70
     1
102
RTVSPropertyOp34
 70
     1
102
RTVSPropertyOp35
 70
     1
102
RTVSPropertyOp36
 70
     1
102
RTVSPropertyOp37
 70
     1
102
RTVSPropertyOp38
 70
     1
102
RTVSPropertyOp39
 70
     1
102
RTVSPropertyOp40
 70
     1
102
RTVSPropertyOp41
 70
     1
102
RTVSPropertyOp42
 70
     1
102
RTVSPropertyOp43
 70
     1
102
RTVSPropertyOp44
 70
     1
102
RTVSPropertyOp45
 70
     1
102
RTVSPropertyOp46
 70
     1
102
RTVSPropertyOp47
 70
     1
102
RTVSPropertyOp48
 70
     1
102
RTVSPropertyOp49
 70
     1
102
RTVSPropertyOp50
 70
     1
102
RTVSPropertyOp51
 70
     0
102
RTVSPropertyOp52
 70
     0
102
RTVSPropertyOp53
 70
     1
102
RTVSPropertyOp54
 70
     1
102
RTVSPropertyOp55
 70
     1
102
RTVSPropertyOp56
 70
     1
102
RTVSPropertyOp57
 70
     1
102
RTVSPost2010Prop28
280
     0
102
RTVSPost2010PropOp28
 70
     1
102
RTVSPost2010Prop29
280
     1
102
RTVSPost2010PropOp29
 70
     1
102
RTVSPost2010Prop30
280
     1
102
RTVSPost2010PropOp30
 70
     1
102
RTVSPost2010Prop31
280
     0
102
RTVSPost2010PropOp31
 70
     1
102
RTVSPost2010Prop32
280
     0
102
RTVSPost2010PropOp32
 70
     1
102
RTVSPost2010Prop33
280
     0
102
RTVSPost2010PropOp33
 70
     1
102
RTVSPost2010Prop34
280
     0
102
RTVSPost2010PropOp34
 70
     1
102
RTVSPost2010Prop35
280
     0
102
RTVSPost2010PropOp35
 70
     1
102
RTVSPost2010Prop36
280
     0
102
RTVSPost2010PropOp36
 70
     1
102
RTVSPost2010Prop37
 90
       50
102
RTVSPost2010PropOp37
 70
     1
102
RTVSPost2010Prop38
140
0.0
102
RTVSPost2010PropOp38
 70
     1
102
RTVSPost2010Prop39
140
1.0
102
RTVSPost2010PropOp39
 70
     1
102
RTVSPost2010Prop40
 90
        0
102
RTVSPost2010PropOp40
 70
     1
102
RTVSPost2010Prop41ColorIndex
 90
       18
102
RTVSPost2010Prop41ColorRGB
 90
        0
102
RTVSPost2010PropOp41
 70
     1
102
RTVSPost2010Prop42
 90
       50
102
RTVSPost2010PropOp42
 70
     1
102
RTVSPost2010Prop43
 90
        3
102
RTVSPost2010PropOp43
 70
     1
102
RTVSPost2010Prop44ColorIndex
 90
        5
102
RTVSPost2010Prop44ColorRGB
 90
      255
102
RTVSPost2010PropOp44
 70
     1
102
RTVSPost2010Prop45
280
     0
102
RTVSPost2010PropOp45
 70
     1
102
RTVSPost2010Prop46
 90
       50
102
RTVSPost2010PropOp46
 70
     1
102
RTVSPost2010Prop47
 90
       50
102
RTVSPost2010PropOp47
 70
     1
102
RTVSPost2010Prop48
 90
       50
102
RTVSPost2010PropOp48
 70
     1
102
RTVSPost2010Prop49
280
     0
102
RTVSPost2010PropOp49
 70
     1
102
RTVSPost2010Prop50
 90
       50
102
RTVSPost2010PropOp50
 70
     1
102
RTVSPost2010Prop51ColorIndex
 90
      256
102
RTVSPost2010Prop51ColorRGB
 90
-16777216
102
RTVSPost2010PropOp51
 70
     0
102
RTVSPost2010Prop52
140
1.0
102
RTVSPost2010PropOp52
 70
     0
102
RTVSPost2010Prop53
 90
        2
102
RTVSPost2010PropOp53
 70
     1
102
RTVSPost2010Prop54
  1
strokes_ogs.tif
102
RTVSPost2010PropOp54
 70
     1
102
RTVSPost2010Prop55
280
     0
102
RTVSPost2010PropOp55
 70
     1
102
RTVSPost2010Prop56
140
1.0
102
RTVSPost2010PropOp56
 70
     1
102
RTVSPost2010Prop57
140
1.0
102
RTVSPost2010PropOp57
 70
     1
  0
XRECORD
  5
3CA
102
{ACAD_REACTORS
330
3C9
102
}
330
3C9
100
AcDbXrecord
280
     1
102
RTVSPropertyOp0
 70
     1
102
RTVSPropertyOp1
 70
     1
102
RTVSPropertyOp2
 70
     1
102
RTVSPropertyOp3
 70
     1
102
RTVSPropertyOp4
 70
     1
102
RTVSPropertyOp5
 70
     1
102
RTVSPropertyOp6
 70
     1
102
RTVSPropertyOp7
 70
     1
102
RTVSPropertyOp8
 70
     1
102
RTVSPropertyOp9
 70
     1
102
RTVSPropertyOp10
 70
     1
102
RTVSPropertyOp11
 70
     1
102
RTVSPropertyOp12
 70
     1
102
RTVSPropertyOp13
 70
     1
102
RTVSPropertyOp14
 70
     1
102
RTVSPropertyOp15
 70
     1
102
RTVSPropertyOp16
 70
     1
102
RTVSPropertyOp17
 70
     1
102
RTVSPropertyOp18
 70
     1
102
RTVSPropertyOp19
 70
     1
102
RTVSPropertyOp20
 70
     1
102
RTVSPropertyOp21
 70
     1
102
RTVSPropertyOp22
 70
     1
102
RTVSPropertyOp23
 70
     1
102
RTVSPropertyOp24
 70
     1
102
RTVSPropertyOp25
 70
     1
102
RTVSPropertyOp26
 70
     1
102
RTVSPropertyOp27
 70
     1
102
RTVSPropertyOp28
 70
     1
102
RTVSPropertyOp29
 70
     1
102
RTVSPropertyOp30
 70
     1
102
RTVSPropertyOp31
 70
     1
102
RTVSPropertyOp32
 70
     1
102
RTVSPropertyOp33
 70
     1
102
RTVSPropertyOp34
 70
     1
102
RTVSPropertyOp35
 70
     1
102
RTVSPropertyOp36
 70
     1
102
RTVSPropertyOp37
 70
     1
102
RTVSPropertyOp38
 70
     1
102
RTVSPropertyOp39
 70
     1
102
RTVSPropertyOp40
 70
     1
102
RTVSPropertyOp41
 70
     1
102
RTVSPropertyOp42
 70
     1
102
RTVSPropertyOp43
 70
     1
102
RTVSPropertyOp44
 70
     1
102
RTVSPropertyOp45
 70
     1
102
RTVSPropertyOp46
 70
     1
102
RTVSPropertyOp47
 70
     1
102
RTVSPropertyOp48
 70
     1
102
RTVSPropertyOp49
 70
     1
102
RTVSPropertyOp50
 70
     1
102
RTVSPropertyOp51
 70
     0
102
RTVSPropertyOp52
 70
     0
102
RTVSPropertyOp53
 70
     1
102
RTVSPropertyOp54
 70
     1
102
RTVSPropertyOp55
 70
     1
102
RTVSPropertyOp56
 70
     1
102
RTVSPropertyOp57
 70
     1
102
RTVSPost2010Prop28
280
     0
102
RTVSPost2010PropOp28
 70
     1
102
RTVSPost2010Prop29
280
     1
102
RTVSPost2010PropOp29
 70
     1
102
RTVSPost2010Prop30
280
     1
102
RTVSPost2010PropOp30
 70
     1
102
RTVSPost2010Prop31
280
     0
102
RTVSPost2010PropOp31
 70
     1
102
RTVSPost2010Prop32
280
     0
102
RTVSPost2010PropOp32
 70
     1
102
RTVSPost2010Prop33
280
     0
102
RTVSPost2010PropOp33
 70
     1
102
RTVSPost2010Prop34
280
     0
102
RTVSPost2010PropOp34
 70
     1
102
RTVSPost2010Prop35
280
     0
102
RTVSPost2010PropOp35
 70
     1
102
RTVSPost2010Prop36
280
     0
102
RTVSPost2010PropOp36
 70
     1
102
RTVSPost2010Prop37
 90
       50
102
RTVSPost2010PropOp37
 70
     1
102
RTVSPost2010Prop38
140
0.0
102
RTVSPost2010PropOp38
 70
     1
102
RTVSPost2010Prop39
140
1.0
102
RTVSPost2010PropOp39
 70
     1
102
RTVSPost2010Prop40
 90
        0
102
RTVSPost2010PropOp40
 70
     1
102
RTVSPost2010Prop41ColorIndex
 90
       18
102
RTVSPost2010Prop41ColorRGB
 90
        0
102
RTVSPost2010PropOp41
 70
     1
102
RTVSPost2010Prop42
 90
       50
102
RTVSPost2010PropOp42
 70
     1
102
RTVSPost2010Prop43
 90
        3
102
RTVSPost2010PropOp43
 70
     1
102
RTVSPost2010Prop44ColorIndex
 90
        5
102
RTVSPost2010Prop44ColorRGB
 90
      255
102
RTVSPost2010PropOp44
 70
     1
102
RTVSPost2010Prop45
280
     0
102
RTVSPost2010PropOp45
 70
     1
102
RTVSPost2010Prop46
 90
       50
102
RTVSPost2010PropOp46
 70
     1
102
RTVSPost2010Prop47
 90
       50
102
RTVSPost2010PropOp47
 70
     1
102
RTVSPost2010Prop48
 90
       50
102
RTVSPost2010PropOp48
 70
     1
102
RTVSPost2010Prop49
280
     0
102
RTVSPost2010PropOp49
 70
     1
102
RTVSPost2010Prop50
 90
       50
102
RTVSPost2010PropOp50
 70
     1
102
RTVSPost2010Prop51ColorIndex
 90
      256
102
RTVSPost2010Prop51ColorRGB
 90
-16777216
102
RTVSPost2010PropOp51
 70
     0
102
RTVSPost2010Prop52
140
1.0
102
RTVSPost2010PropOp52
 70
     0
102
RTVSPost2010Prop53
 90
        2
102
RTVSPost2010PropOp53
 70
     1
102
RTVSPost2010Prop54
  1
strokes_ogs.tif
102
RTVSPost2010PropOp54
 70
     1
102
RTVSPost2010Prop55
280
     0
102
RTVSPost2010PropOp55
 70
     1
102
RTVSPost2010Prop56
140
1.0
102
RTVSPost2010PropOp56
 70
     1
102
RTVSPost2010Prop57
140
1.0
102
RTVSPost2010PropOp57
 70
     1
  0
XRECORD
  5
3BC
102
{ACAD_REACTORS
330
3BB
102
}
330
3BB
100
AcDbXrecord
280
     1
102
RTVSPropertyOp0
 70
     1
102
RTVSPropertyOp1
 70
     1
102
RTVSPropertyOp2
 70
     1
102
RTVSPropertyOp3
 70
     1
102
RTVSPropertyOp4
 70
     1
102
RTVSPropertyOp5
 70
     1
102
RTVSPropertyOp6
 70
     1
102
RTVSPropertyOp7
 70
     1
102
RTVSPropertyOp8
 70
     1
102
RTVSPropertyOp9
 70
     1
102
RTVSPropertyOp10
 70
     1
102
RTVSPropertyOp11
 70
     1
102
RTVSPropertyOp12
 70
     1
102
RTVSPropertyOp13
 70
     1
102
RTVSPropertyOp14
 70
     1
102
RTVSPropertyOp15
 70
     1
102
RTVSPropertyOp16
 70
     1
102
RTVSPropertyOp17
 70
     1
102
RTVSPropertyOp18
 70
     1
102
RTVSPropertyOp19
 70
     1
102
RTVSPropertyOp20
 70
     1
102
RTVSPropertyOp21
 70
     1
102
RTVSPropertyOp22
 70
     1
102
RTVSPropertyOp23
 70
     1
102
RTVSPropertyOp24
 70
     1
102
RTVSPropertyOp25
 70
     1
102
RTVSPropertyOp26
 70
     1
102
RTVSPropertyOp27
 70
     1
102
RTVSPropertyOp28
 70
     1
102
RTVSPropertyOp29
 70
     1
102
RTVSPropertyOp30
 70
     1
102
RTVSPropertyOp31
 70
     1
102
RTVSPropertyOp32
 70
     1
102
RTVSPropertyOp33
 70
     1
102
RTVSPropertyOp34
 70
     1
102
RTVSPropertyOp35
 70
     1
102
RTVSPropertyOp36
 70
     1
102
RTVSPropertyOp37
 70
     1
102
RTVSPropertyOp38
 70
     1
102
RTVSPropertyOp39
 70
     1
102
RTVSPropertyOp40
 70
     1
102
RTVSPropertyOp41
 70
     1
102
RTVSPropertyOp42
 70
     1
102
RTVSPropertyOp43
 70
     1
102
RTVSPropertyOp44
 70
     1
102
RTVSPropertyOp45
 70
     1
102
RTVSPropertyOp46
 70
     1
102
RTVSPropertyOp47
 70
     1
102
RTVSPropertyOp48
 70
     1
102
RTVSPropertyOp49
 70
     1
102
RTVSPropertyOp50
 70
     1
102
RTVSPropertyOp51
 70
     0
102
RTVSPropertyOp52
 70
     0
102
RTVSPropertyOp53
 70
     1
102
RTVSPropertyOp54
 70
     1
102
RTVSPropertyOp55
 70
     1
102
RTVSPropertyOp56
 70
     1
102
RTVSPropertyOp57
 70
     1
102
RTVSPost2010Prop28
280
     0
102
RTVSPost2010PropOp28
 70
     1
102
RTVSPost2010Prop29
280
     1
102
RTVSPost2010PropOp29
 70
     1
102
RTVSPost2010Prop30
280
     1
102
RTVSPost2010PropOp30
 70
     1
102
RTVSPost2010Prop31
280
     0
102
RTVSPost2010PropOp31
 70
     1
102
RTVSPost2010Prop32
280
     0
102
RTVSPost2010PropOp32
 70
     1
102
RTVSPost2010Prop33
280
     0
102
RTVSPost2010PropOp33
 70
     1
102
RTVSPost2010Prop34
280
     0
102
RTVSPost2010PropOp34
 70
     1
102
RTVSPost2010Prop35
280
     0
102
RTVSPost2010PropOp35
 70
     1
102
RTVSPost2010Prop36
280
     0
102
RTVSPost2010PropOp36
 70
     1
102
RTVSPost2010Prop37
 90
       50
102
RTVSPost2010PropOp37
 70
     1
102
RTVSPost2010Prop38
140
0.0
102
RTVSPost2010PropOp38
 70
     1
102
RTVSPost2010Prop39
140
1.0
102
RTVSPost2010PropOp39
 70
     1
102
RTVSPost2010Prop40
 90
        0
102
RTVSPost2010PropOp40
 70
     1
102
RTVSPost2010Prop41ColorIndex
 90
       18
102
RTVSPost2010Prop41ColorRGB
 90
        0
102
RTVSPost2010PropOp41
 70
     1
102
RTVSPost2010Prop42
 90
       50
102
RTVSPost2010PropOp42
 70
     1
102
RTVSPost2010Prop43
 90
        3
102
RTVSPost2010PropOp43
 70
     1
102
RTVSPost2010Prop44ColorIndex
 90
        5
102
RTVSPost2010Prop44ColorRGB
 90
      255
102
RTVSPost2010PropOp44
 70
     1
102
RTVSPost2010Prop45
280
     0
102
RTVSPost2010PropOp45
 70
     1
102
RTVSPost2010Prop46
 90
       50
102
RTVSPost2010PropOp46
 70
     1
102
RTVSPost2010Prop47
 90
       50
102
RTVSPost2010PropOp47
 70
     1
102
RTVSPost2010Prop48
 90
       50
102
RTVSPost2010PropOp48
 70
     1
102
RTVSPost2010Prop49
280
     0
102
RTVSPost2010PropOp49
 70
     1
102
RTVSPost2010Prop50
 90
       50
102
RTVSPost2010PropOp50
 70
     1
102
RTVSPost2010Prop51ColorIndex
 90
      256
102
RTVSPost2010Prop51ColorRGB
 90
-16777216
102
RTVSPost2010PropOp51
 70
     0
102
RTVSPost2010Prop52
140
1.0
102
RTVSPost2010PropOp52
 70
     0
102
RTVSPost2010Prop53
 90
        2
102
RTVSPost2010PropOp53
 70
     1
102
RTVSPost2010Prop54
  1
strokes_ogs.tif
102
RTVSPost2010PropOp54
 70
     1
102
RTVSPost2010Prop55
280
     0
102
RTVSPost2010PropOp55
 70
     1
102
RTVSPost2010Prop56
140
1.0
102
RTVSPost2010PropOp56
 70
     1
102
RTVSPost2010Prop57
140
1.0
102
RTVSPost2010PropOp57
 70
     1
  0
XRECORD
  5
3DC
102
{ACAD_REACTORS
330
3DB
102
}
330
3DB
100
AcDbXrecord
280
     1
102
RTVSPropertyOp0
 70
     1
102
RTVSPropertyOp1
 70
     1
102
RTVSPropertyOp2
 70
     1
102
RTVSPropertyOp3
 70
     1
102
RTVSPropertyOp4
 70
     1
102
RTVSPropertyOp5
 70
     1
102
RTVSPropertyOp6
 70
     1
102
RTVSPropertyOp7
 70
     1
102
RTVSPropertyOp8
 70
     1
102
RTVSPropertyOp9
 70
     1
102
RTVSPropertyOp10
 70
     1
102
RTVSPropertyOp11
 70
     1
102
RTVSPropertyOp12
 70
     1
102
RTVSPropertyOp13
 70
     1
102
RTVSPropertyOp14
 70
     1
102
RTVSPropertyOp15
 70
     1
102
RTVSPropertyOp16
 70
     1
102
RTVSPropertyOp17
 70
     1
102
RTVSPropertyOp18
 70
     1
102
RTVSPropertyOp19
 70
     1
102
RTVSPropertyOp20
 70
     1
102
RTVSPropertyOp21
 70
     1
102
RTVSPropertyOp22
 70
     1
102
RTVSPropertyOp23
 70
     1
102
RTVSPropertyOp24
 70
     1
102
RTVSPropertyOp25
 70
     1
102
RTVSPropertyOp26
 70
     1
102
RTVSPropertyOp27
 70
     1
102
RTVSPropertyOp28
 70
     1
102
RTVSPropertyOp29
 70
     1
102
RTVSPropertyOp30
 70
     1
102
RTVSPropertyOp31
 70
     1
102
RTVSPropertyOp32
 70
     1
102
RTVSPropertyOp33
 70
     1
102
RTVSPropertyOp34
 70
     1
102
RTVSPropertyOp35
 70
     1
102
RTVSPropertyOp36
 70
     1
102
RTVSPropertyOp37
 70
     1
102
RTVSPropertyOp38
 70
     1
102
RTVSPropertyOp39
 70
     1
102
RTVSPropertyOp40
 70
     1
102
RTVSPropertyOp41
 70
     1
102
RTVSPropertyOp42
 70
     1
102
RTVSPropertyOp43
 70
     1
102
RTVSPropertyOp44
 70
     1
102
RTVSPropertyOp45
 70
     1
102
RTVSPropertyOp46
 70
     1
102
RTVSPropertyOp47
 70
     1
102
RTVSPropertyOp48
 70
     1
102
RTVSPropertyOp49
 70
     1
102
RTVSPropertyOp50
 70
     1
102
RTVSPropertyOp51
 70
     0
102
RTVSPropertyOp52
 70
     0
102
RTVSPropertyOp53
 70
     1
102
RTVSPropertyOp54
 70
     1
102
RTVSPropertyOp55
 70
     1
102
RTVSPropertyOp56
 70
     1
102
RTVSPropertyOp57
 70
     1
102
RTVSPost2010Prop28
280
     0
102
RTVSPost2010PropOp28
 70
     1
102
RTVSPost2010Prop29
280
     1
102
RTVSPost2010PropOp29
 70
     1
102
RTVSPost2010Prop30
280
     1
102
RTVSPost2010PropOp30
 70
     1
102
RTVSPost2010Prop31
280
     0
102
RTVSPost2010PropOp31
 70
     1
102
RTVSPost2010Prop32
280
     0
102
RTVSPost2010PropOp32
 70
     1
102
RTVSPost2010Prop33
280
     0
102
RTVSPost2010PropOp33
 70
     1
102
RTVSPost2010Prop34
280
     0
102
RTVSPost2010PropOp34
 70
     1
102
RTVSPost2010Prop35
280
     0
102
RTVSPost2010PropOp35
 70
     1
102
RTVSPost2010Prop36
280
     0
102
RTVSPost2010PropOp36
 70
     1
102
RTVSPost2010Prop37
 90
       50
102
RTVSPost2010PropOp37
 70
     1
102
RTVSPost2010Prop38
140
0.0
102
RTVSPost2010PropOp38
 70
     1
102
RTVSPost2010Prop39
140
1.0
102
RTVSPost2010PropOp39
 70
     1
102
RTVSPost2010Prop40
 90
        0
102
RTVSPost2010PropOp40
 70
     1
102
RTVSPost2010Prop41ColorIndex
 90
       18
102
RTVSPost2010Prop41ColorRGB
 90
        0
102
RTVSPost2010PropOp41
 70
     1
102
RTVSPost2010Prop42
 90
       50
102
RTVSPost2010PropOp42
 70
     1
102
RTVSPost2010Prop43
 90
        3
102
RTVSPost2010PropOp43
 70
     1
102
RTVSPost2010Prop44ColorIndex
 90
        5
102
RTVSPost2010Prop44ColorRGB
 90
      255
102
RTVSPost2010PropOp44
 70
     1
102
RTVSPost2010Prop45
280
     0
102
RTVSPost2010PropOp45
 70
     1
102
RTVSPost2010Prop46
 90
       50
102
RTVSPost2010PropOp46
 70
     1
102
RTVSPost2010Prop47
 90
       50
102
RTVSPost2010PropOp47
 70
     1
102
RTVSPost2010Prop48
 90
       50
102
RTVSPost2010PropOp48
 70
     1
102
RTVSPost2010Prop49
280
     0
102
RTVSPost2010PropOp49
 70
     1
102
RTVSPost2010Prop50
 90
       50
102
RTVSPost2010PropOp50
 70
     1
102
RTVSPost2010Prop51ColorIndex
 90
      256
102
RTVSPost2010Prop51ColorRGB
 90
-16777216
102
RTVSPost2010PropOp51
 70
     0
102
RTVSPost2010Prop52
140
1.0
102
RTVSPost2010PropOp52
 70
     0
102
RTVSPost2010Prop53
 90
        2
102
RTVSPost2010PropOp53
 70
     1
102
RTVSPost2010Prop54
  1
strokes_ogs.tif
102
RTVSPost2010PropOp54
 70
     1
102
RTVSPost2010Prop55
280
     0
102
RTVSPost2010PropOp55
 70
     1
102
RTVSPost2010Prop56
140
1.0
102
RTVSPost2010PropOp56
 70
     1
102
RTVSPost2010Prop57
140
1.0
102
RTVSPost2010PropOp57
 70
     1
  0
ENDSEC
  0
EOF
