  0
SECTION
  2
HEADER
  9
$ACADVER
  1
AC1015
  9
$ACADMAINTVER
 70
     6
  9
$DWGCODEPAGE
  3
ANSI_932
  9
$INSBASE
 10
-21.96614993617709
 20
-1239.830167942637
 30
0.0
  9
$EXTMIN
 10
-21.96614993617709
 20
-1879.991621020336
 30
0.0
  9
$EXTMAX
 10
532.0338500638229
 20
-1079.991621020336
 30
0.0
  9
$LIMMIN
 10
-21.96614993617709
 20
-1879.991621020336
  9
$LIMMAX
 10
532.0338500638229
 20
-1079.991621020336
  9
$ORTHOMODE
 70
     0
  9
$REGENMODE
 70
     0
  9
$FILLMODE
 70
     1
  9
$QTEXTMODE
 70
     0
  9
$MIRRTEXT
 70
     1
  9
$LTSCALE
 40
2.0
  9
$ATTMODE
 70
     1
  9
$TEXTSIZE
 40
8.0
  9
$TRACEWID
 40
0.05
  9
$TEXTSTYLE
  7
Standard
  9
$CLAYER
  8
1
  9
$CELTYPE
  6
Continuous
  9
$CECOLOR
 62
     7
  9
$CELTSCALE
 40
1.0
  9
$DISPSILH
 70
     0
  9
$DIMSCALE
 40
2.0
  9
$DIMASZ
 40
2.0
  9
$DIMEXO
 40
1.0
  9
$DIMDLI
 40
7.0
  9
$DIMRND
 40
0.0
  9
$DIMDLE
 40
1.0
  9
$DIMEXE
 40
1.0
  9
$DIMTP
 40
0.0
  9
$DIMTM
 40
0.0
  9
$DIMTXT
 40
4.0
  9
$DIMCEN
 40
0.09
  9
$DIMTSZ
 40
0.0
  9
$DIMTOL
 70
     0
  9
$DIMLIM
 70
     0
  9
$DIMTIH
 70
     0
  9
$DIMTOH
 70
     0
  9
$DIMSE1
 70
     0
  9
$DIMSE2
 70
     0
  9
$DIMTAD
 70
     1
  9
$DIMZIN
 70
     8
  9
$DIMBLK
  1
OPEN30
  9
$DIMASO
 70
     1
  9
$DIMSHO
 70
     0
  9
$DIMPOST
  1

  9
$DIMAPOST
  1

  9
$DIMALT
 70
     0
  9
$DIMALTD
 70
     3
  9
$DIMALTF
 40
25.4
  9
$DIMLFAC
 40
1.0
  9
$DIMTOFL
 70
     0
  9
$DIMTVP
 40
0.0
  9
$DIMTIX
 70
     0
  9
$DIMSOXD
 70
     0
  9
$DIMSAH
 70
     0
  9
$DIMBLK1
  1
OPEN30
  9
$DIMBLK2
  1
OPEN30
  9
$DIMSTYLE
  2
Standard
  9
$DIMCLRD
 70
     3
  9
$DIMCLRE
 70
     3
  9
$DIMCLRT
 70
     2
  9
$DIMTFAC
 40
0.5
  9
$DIMGAP
 40
0.0
  9
$DIMJUST
 70
     0
  9
$DIMSD1
 70
     0
  9
$DIMSD2
 70
     0
  9
$DIMTOLJ
 70
     1
  9
$DIMTZIN
 70
     0
  9
$DIMALTZ
 70
     0
  9
$DIMALTTZ
 70
     0
  9
$DIMUPT
 70
     0
  9
$DIMDEC
 70
     3
  9
$DIMTDEC
 70
     3
  9
$DIMALTU
 70
     2
  9
$DIMALTTD
 70
     2
  9
$DIMTXSTY
  7
DIMSTANDARD
  9
$DIMAUNIT
 70
     0
  9
$DIMADEC
 70
     3
  9
$DIMALTRND
 40
0.0
  9
$DIMAZIN
 70
     2
  9
$DIMDSEP
 70
    46
  9
$DIMATFIT
 70
     3
  9
$DIMFRAC
 70
     0
  9
$DIMLDRBLK
  1

  9
$DIMLUNIT
 70
     2
  9
$DIMLWD
 70
    -1
  9
$DIMLWE
 70
    -1
  9
$DIMTMOVE
 70
     0
  9
$LUNITS
 70
     2
  9
$LUPREC
 70
     4
  9
$SKETCHINC
 40
0.1
  9
$FILLETRAD
 40
0.0
  9
$AUNITS
 70
     0
  9
$AUPREC
 70
     0
  9
$MENU
  1
ACAD
  9
$ELEVATION
 40
0.0
  9
$PELEVATION
 40
0.0
  9
$THICKNESS
 40
0.0
  9
$LIMCHECK
 70
     0
  9
$CHAMFERA
 40
0.0
  9
$CHAMFERB
 40
0.0
  9
$CHAMFERC
 40
0.0
  9
$CHAMFERD
 40
0.0
  9
$SKPOLY
 70
     0
  9
$TDCREATE
 40
2420809.375
  9
$TDUCREATE
 40
2420809.0
  9
$TDUPDATE
 40
2457700.423001852
  9
$TDUUPDATE
 40
2457700.048001852
  9
$TDINDWG
 40
0.0
  9
$TDUSRTIMER
 40
0.0
  9
$USRTIMER
 70
     1
  9
$ANGBASE
 50
0.0
  9
$ANGDIR
 70
     0
  9
$PDMODE
 70
    65
  9
$PDSIZE
 40
0.2
  9
$PLINEWID
 40
0.0
  9
$SPLFRAME
 70
     0
  9
$SPLINETYPE
 70
     6
  9
$SPLINESEGS
 70
     8
  9
$HANDSEED
  5
45A
  9
$SURFTAB1
 70
     6
  9
$SURFTAB2
 70
     6
  9
$SURFTYPE
 70
     6
  9
$SURFU
 70
     6
  9
$SURFV
 70
     6
  9
$UCSBASE
  2

  9
$UCSNAME
  2

  9
$UCSORG
 10
0.0
 20
0.0
 30
0.0
  9
$UCSXDIR
 10
1.0
 20
0.0
 30
0.0
  9
$UCSYDIR
 10
0.0
 20
1.0
 30
0.0
  9
$UCSORTHOREF
  2

  9
$UCSORTHOVIEW
 70
     0
  9
$UCSORGTOP
 10
0.0
 20
0.0
 30
0.0
  9
$UCSORGBOTTOM
 10
0.0
 20
0.0
 30
0.0
  9
$UCSORGLEFT
 10
0.0
 20
0.0
 30
0.0
  9
$UCSORGRIGHT
 10
0.0
 20
0.0
 30
0.0
  9
$UCSORGFRONT
 10
0.0
 20
0.0
 30
0.0
  9
$UCSORGBACK
 10
0.0
 20
0.0
 30
0.0
  9
$PUCSBASE
  2

  9
$PUCSNAME
  2

  9
$PUCSORG
 10
0.0
 20
0.0
 30
0.0
  9
$PUCSXDIR
 10
1.0
 20
0.0
 30
0.0
  9
$PUCSYDIR
 10
0.0
 20
1.0
 30
0.0
  9
$PUCSORTHOREF
  2

  9
$PUCSORTHOVIEW
 70
     0
  9
$PUCSORGTOP
 10
0.0
 20
0.0
 30
0.0
  9
$PUCSORGBOTTOM
 10
0.0
 20
0.0
 30
0.0
  9
$PUCSORGLEFT
 10
0.0
 20
0.0
 30
0.0
  9
$PUCSORGRIGHT
 10
0.0
 20
0.0
 30
0.0
  9
$PUCSORGFRONT
 10
0.0
 20
0.0
 30
0.0
  9
$PUCSORGBACK
 10
0.0
 20
0.0
 30
0.0
  9
$USERI1
 70
     0
  9
$USERI2
 70
     0
  9
$USERI3
 70
     0
  9
$USERI4
 70
     0
  9
$USERI5
 70
     0
  9
$USERR1
 40
0.0
  9
$USERR2
 40
0.0
  9
$USERR3
 40
0.0
  9
$USERR4
 40
0.0
  9
$USERR5
 40
0.0
  9
$WORLDVIEW
 70
     1
  9
$SHADEDGE
 70
     3
  9
$SHADEDIF
 70
    70
  9
$TILEMODE
 70
     1
  9
$MAXACTVP
 70
    64
  9
$PINSBASE
 10
0.0
 20
0.0
 30
0.0
  9
$PLIMCHECK
 70
     0
  9
$PEXTMIN
 10
1.000000000000000E+20
 20
1.000000000000000E+20
 30
1.000000000000000E+20
  9
$PEXTMAX
 10
-1.000000000000000E+20
 20
-1.000000000000000E+20
 30
-1.000000000000000E+20
  9
$PLIMMIN
 10
0.0
 20
0.0
  9
$PLIMMAX
 10
12.0
 20
9.0
  9
$UNITMODE
 70
     0
  9
$VISRETAIN
 70
     1
  9
$PLINEGEN
 70
     0
  9
$PSLTSCALE
 70
     1
  9
$TREEDEPTH
 70
  3020
  9
$CMLSTYLE
  2
Standard
  9
$CMLJUST
 70
     0
  9
$CMLSCALE
 40
1.0
  9
$PROXYGRAPHICS
 70
     1
  9
$MEASUREMENT
 70
     0
  9
$CELWEIGHT
370
    -1
  9
$ENDCAPS
280
     0
  9
$JOINSTYLE
280
     0
  9
$LWDISPLAY
290
     0
  9
$INSUNITS
 70
     1
  9
$HYPERLINKBASE
  1

  9
$STYLESHEET
  1

  9
$XEDIT
290
     1
  9
$CEPSNTYPE
380
     0
  9
$PSTYLEMODE
290
     1
  9
$FINGERPRINTGUID
  2
{F8A718B0-619E-4F4B-BEB1-E6C859EA274B}
  9
$VERSIONGUID
  2
{FAEB1C32-E019-11D5-929B-00C0DF256EC4}
  9
$EXTNAMES
290
     1
  9
$PSVPSCALE
 40
0.0
  9
$OLESTARTUP
290
     0
  0
ENDSEC
  0
SECTION
  2
CLASSES
  0
CLASS
  1
ACDBDICTIONARYWDFLT
  2
AcDbDictionaryWithDefault
  3
ObjectDBX Classes
 90
        0
280
     0
281
     0
  0
CLASS
  1
VISUALSTYLE
  2
AcDbVisualStyle
  3
ObjectDBX Classes
 90
     4095
280
     0
281
     0
  0
CLASS
  1
MATERIAL
  2
AcDbMaterial
  3
ObjectDBX Classes
 90
     1153
280
     0
281
     0
  0
CLASS
  1
SCALE
  2
AcDbScale
  3
ObjectDBX Classes
 90
     1153
280
     0
281
     0
  0
CLASS
  1
TABLESTYLE
  2
AcDbTableStyle
  3
ObjectDBX Classes
 90
     4095
280
     0
281
     0
  0
CLASS
  1
MLEADERSTYLE
  2
AcDbMLeaderStyle
  3
ACDB_MLEADERSTYLE_CLASS
 90
     4095
280
     0
281
     0
  0
CLASS
  1
SUN
  2
AcDbSun
  3
SCENEOE
 90
     1153
280
     0
281
     0
  0
CLASS
  1
DICTIONARYVAR
  2
AcDbDictionaryVar
  3
ObjectDBX Classes
 90
        0
280
     0
281
     0
  0
CLASS
  1
ACDBPLACEHOLDER
  2
AcDbPlaceHolder
  3
ObjectDBX Classes
 90
        0
280
     0
281
     0
  0
CLASS
  1
LAYOUT
  2
AcDbLayout
  3
ObjectDBX Classes
 90
        0
280
     0
281
     0
  0
ENDSEC
  0
SECTION
  2
TABLES
  0
TABLE
  2
VPORT
  5
8
102
{ACAD_XDICTIONARY
360
41D
102
}
330
0
100
AcDbSymbolTable
 70
     1
  0
VPORT
  5
29
330
8
100
AcDbSymbolTableRecord
100
AcDbViewportTableRecord
  2
*Active
 70
     0
 10
0.0
 20
0.0
 11
1.0
 21
1.0
 12
277.0
 22
400.0
 13
0.0
 23
0.0
 14
0.5
 24
0.5
 15
0.5
 25
0.5
 16
0.0
 26
0.0
 36
1.0
 17
0.0
 27
0.0
 37
0.0
 40
800.0
 41
0.6925
 42
50.0
 43
0.0
 44
0.0
 50
0.0
 51
0.0
 71
     0
 72
   100
 73
     1
 74
     3
 75
     0
 76
     0
 77
     0
 78
     0
281
     0
 65
     1
110
0.0
120
0.0
130
0.0
111
1.0
121
0.0
131
0.0
112
0.0
122
1.0
132
0.0
 79
     0
146
0.0
  0
ENDTAB
  0
TABLE
  2
LTYPE
  5
5
330
0
100
AcDbSymbolTable
 70
    17
  0
LTYPE
  5
14
330
5
100
AcDbSymbolTableRecord
100
AcDbLinetypeTableRecord
  2
ByBlock
 70
     0
  3

 72
    65
 73
     0
 40
0.0
  0
LTYPE
  5
15
330
5
100
AcDbSymbolTableRecord
100
AcDbLinetypeTableRecord
  2
ByLayer
 70
     0
  3

 72
    65
 73
     0
 40
0.0
  0
LTYPE
  5
16
330
5
100
AcDbSymbolTableRecord
100
AcDbLinetypeTableRecord
  2
Continuous
 70
     0
  3
Solid line
 72
    65
 73
     0
 40
0.0
  0
LTYPE
  5
6E
330
5
100
AcDbSymbolTableRecord
100
AcDbLinetypeTableRecord
  2
DIVIDE
 70
     0
  3
Divide ____ . . ____ . . ____ . . ____ . . ____
 72
    65
 73
     6
 40
1.25
 49
0.5
 74
     0
 49
-0.25
 74
     0
 49
0.0
 74
     0
 49
-0.25
 74
     0
 49
0.0
 74
     0
 49
-0.25
 74
     0
  0
LTYPE
  5
6F
330
5
100
AcDbSymbolTableRecord
100
AcDbLinetypeTableRecord
  2
HIDDEN
 70
     0
  3
Hidden __ __ __ __ __ __ __ __ __ __ __ __ __ _
 72
    65
 73
     2
 40
9.525
 49
6.35
 74
     0
 49
-3.175
 74
     0
  0
LTYPE
  5
70
330
5
100
AcDbSymbolTableRecord
100
AcDbLinetypeTableRecord
  2
HIDDEN2
 70
     0
  3
Hidden (.5x) _ _ _ _ _ _ _ _ _ _ _ _ _ _ _ _ _
 72
    65
 73
     2
 40
4.7625
 49
3.175
 74
     0
 49
-1.5875
 74
     0
  0
LTYPE
  5
71
330
5
100
AcDbSymbolTableRecord
100
AcDbLinetypeTableRecord
  2
CENTER2
 70
     0
  3
Center (.5x) ___ _ ___ _ ___ _ ___ _ ___ _ ___
 72
    65
 73
     4
 40
28.575
 49
19.05
 74
     0
 49
-3.175
 74
     0
 49
3.175
 74
     0
 49
-3.175
 74
     0
  0
LTYPE
  5
72
330
5
100
AcDbSymbolTableRecord
100
AcDbLinetypeTableRecord
  2
PHANTOM2
 70
     0
  3
Phantom (.5x) ___ _ _ ___ _ _ ___ _ _ ___ _ _
 72
    65
 73
     6
 40
31.75
 49
15.875
 74
     0
 49
-3.175
 74
     0
 49
3.175
 74
     0
 49
-3.175
 74
     0
 49
3.175
 74
     0
 49
-3.175
 74
     0
  0
LTYPE
  5
73
330
5
100
AcDbSymbolTableRecord
100
AcDbLinetypeTableRecord
  2
DASHED
 70
     0
  3
Dashed __ __ __ __ __ __ __ __ __ __ __ __ __ _
 72
    65
 73
     2
 40
19.05
 49
12.7
 74
     0
 49
-6.35
 74
     0
  0
LTYPE
  5
74
330
5
100
AcDbSymbolTableRecord
100
AcDbLinetypeTableRecord
  2
CENTER
 70
     0
  3
Center ____ _ ____ _ ____ _ ____ _ ____ _ ____
 72
    65
 73
     4
 40
50.8
 49
31.75
 74
     0
 49
-6.35
 74
     0
 49
6.35
 74
     0
 49
-6.35
 74
     0
  0
LTYPE
  5
75
330
5
100
AcDbSymbolTableRecord
100
AcDbLinetypeTableRecord
  2
PHANTOM
 70
     0
  3
Phantom ______  __  __  ______  __  __  ______
 72
    65
 73
     6
 40
63.5
 49
31.75
 74
     0
 49
-6.35
 74
     0
 49
6.35
 74
     0
 49
-6.35
 74
     0
 49
6.35
 74
     0
 49
-6.35
 74
     0
  0
LTYPE
  5
76
330
5
100
AcDbSymbolTableRecord
100
AcDbLinetypeTableRecord
  2
BORDER2
 70
     0
  3
Border (.5x) __.__.__.__.__.__.__.__.__.__.__.
 72
    65
 73
     6
 40
22.225
 49
6.35
 74
     0
 49
-3.175
 74
     0
 49
6.35
 74
     0
 49
-3.175
 74
     0
 49
0.0
 74
     0
 49
-3.175
 74
     0
  0
LTYPE
  5
77
330
5
100
AcDbSymbolTableRecord
100
AcDbLinetypeTableRecord
  2
HIDDENX2
 70
     0
  3
Hidden (2x) ____ ____ ____ ____ ____ ____ ____
 72
    65
 73
     2
 40
19.05
 49
12.7
 74
     0
 49
-6.35
 74
     0
  0
LTYPE
  5
78
330
5
100
AcDbSymbolTableRecord
100
AcDbLinetypeTableRecord
  2
DOTX2
 70
     0
  3
Dot (2x) .  .  .  .  .  .  .  .  .  .  .  .  . 
 72
    65
 73
     2
 40
12.7
 49
0.0
 74
     0
 49
-12.7
 74
     0
  0
LTYPE
  5
79
330
5
100
AcDbSymbolTableRecord
100
AcDbLinetypeTableRecord
  2
DASHDOTX2
 70
     0
  3
Dash dot (2x) ____  .  ____  .  ____  .  ___
 72
    65
 73
     4
 40
50.8
 49
25.4
 74
     0
 49
-12.7
 74
     0
 49
0.0
 74
     0
 49
-12.7
 74
     0
  0
LTYPE
  5
7A
330
5
100
AcDbSymbolTableRecord
100
AcDbLinetypeTableRecord
  2
DIVIDEX2
 70
     0
  3
Divide (2x) ________  .  .  ________  .  .  _
 72
    65
 73
     6
 40
63.5
 49
25.4
 74
     0
 49
-12.7
 74
     0
 49
0.0
 74
     0
 49
-12.7
 74
     0
 49
0.0
 74
     0
 49
-12.7
 74
     0
  0
LTYPE
  5
7B
330
5
100
AcDbSymbolTableRecord
100
AcDbLinetypeTableRecord
  2
DASHEDX2
 70
     0
  3
Dashed (2x) ____  ____  ____  ____  ____  ___
 72
    65
 73
     2
 40
38.1
 49
25.4
 74
     0
 49
-12.7
 74
     0
  0
LTYPE
  5
7C
330
5
100
AcDbSymbolTableRecord
100
AcDbLinetypeTableRecord
  2
CENTERX2
 70
     0
  3
Center (2x) ________  __  ________  __  _____
 72
    65
 73
     4
 40
101.6
 49
63.5
 74
     0
 49
-12.7
 74
     0
 49
12.7
 74
     0
 49
-12.7
 74
     0
  0
LTYPE
  5
7D
330
5
100
AcDbSymbolTableRecord
100
AcDbLinetypeTableRecord
  2
PHANTOMX2
 70
     0
  3
Phantom (2x) ____________    ____    ____   _
 72
    65
 73
     6
 40
127.0
 49
63.5
 74
     0
 49
-12.7
 74
     0
 49
12.7
 74
     0
 49
-12.7
 74
     0
 49
12.7
 74
     0
 49
-12.7
 74
     0
  0
ENDTAB
  0
TABLE
  2
LAYER
  5
2
330
0
100
AcDbSymbolTable
 70
     6
  0
LAYER
  5
10
330
2
100
AcDbSymbolTableRecord
100
AcDbLayerTableRecord
  2
0
 70
     0
 62
     7
  6
Continuous
370
    -3
390
F
  0
LAYER
  5
7E
330
2
100
AcDbSymbolTableRecord
100
AcDbLayerTableRecord
  2
1
 70
     0
 62
     7
  6
Continuous
370
     0
390
F
  0
LAYER
  5
7F
330
2
100
AcDbSymbolTableRecord
100
AcDbLayerTableRecord
  2
2
 70
     0
 62
     7
  6
Continuous
370
     0
390
F
  0
LAYER
  5
80
330
2
100
AcDbSymbolTableRecord
100
AcDbLayerTableRecord
  2
4
 70
     0
 62
     7
  6
Continuous
370
     0
390
F
  0
LAYER
  5
81
330
2
100
AcDbSymbolTableRecord
100
AcDbLayerTableRecord
  2
6
 70
     0
 62
     7
  6
Continuous
370
     0
390
F
  0
LAYER
  5
82
330
2
100
AcDbSymbolTableRecord
100
AcDbLayerTableRecord
  2
DEFPOINTS
 70
     0
 62
     3
  6
DIVIDE
290
     0
370
     0
390
F
  0
ENDTAB
  0
TABLE
  2
STYLE
  5
3
330
0
100
AcDbSymbolTable
 70
     9
  0
STYLE
  5
11
330
3
100
AcDbSymbolTableRecord
100
AcDbTextStyleTableRecord
  2
Standard
 70
     0
 40
0.0
 41
0.8
 50
0.0
 71
     0
 42
8.0
  3
MONOTXT.shx
  4
EXTFONT.shx
  0
STYLE
  5
83
330
3
100
AcDbSymbolTableRecord
100
AcDbTextStyleTableRecord
  2
DIMSTANDARD
 70
     0
 40
0.0
 41
0.75
 50
0.0
 71
     0
 42
8.0
  3
MONOTXT.shx
  4
EXTFONT.shx
  0
STYLE
  5
BB
330
3
100
AcDbSymbolTableRecord
100
AcDbTextStyleTableRecord
  2
MTSTANDARD
 70
     0
 40
0.0
 41
1.0
 50
0.0
 71
     0
 42
8.0
  3
MONOTXT.shx
  4
EXTFONT.shx
  0
STYLE
  5
BC
330
3
100
AcDbSymbolTableRecord
100
AcDbTextStyleTableRecord
  2
MTSTANDARD1
 70
     0
 40
0.0
 41
1.0
 50
0.0
 71
     0
 42
8.0
  3
MONOTXT.shx
  4
EXTFONT.shx
  0
STYLE
  5
C6
330
3
100
AcDbSymbolTableRecord
100
AcDbTextStyleTableRecord
  2
MTSTANDARD2
 70
     0
 40
0.0
 41
1.0
 50
0.0
 71
     0
 42
8.0
  3
MONOTXT.shx
  4
EXTFONT.shx
  0
STYLE
  5
F2
330
3
100
AcDbSymbolTableRecord
100
AcDbTextStyleTableRecord
  2
MTSTANDARD3
 70
     0
 40
0.0
 41
1.0
 50
0.0
 71
     0
 42
8.0
  3
MONOTXT.shx
  4
EXTFONT.shx
  0
STYLE
  5
F4
330
3
100
AcDbSymbolTableRecord
100
AcDbTextStyleTableRecord
  2
MTSTANDARD4
 70
     0
 40
0.0
 41
1.0
 50
0.0
 71
     0
 42
8.0
  3
MONOTXT.shx
  4
EXTFONT.shx
  0
STYLE
  5
13A
330
3
100
AcDbSymbolTableRecord
100
AcDbTextStyleTableRecord
  2
MTSTANDARD5
 70
     0
 40
0.0
 41
1.0
 50
0.0
 71
     0
 42
8.0
  3
MONOTXT.shx
  4
EXTFONT.shx
  0
STYLE
  5
19B
330
3
100
AcDbSymbolTableRecord
100
AcDbTextStyleTableRecord
  2
MTSTANDARD6
 70
     0
 40
0.0
 41
0.75
 50
0.0
 71
     0
 42
8.0
  3
MONOTXT.shx
  4
EXTFONT.shx
  0
ENDTAB
  0
TABLE
  2
VIEW
  5
6
330
0
100
AcDbSymbolTable
 70
     0
  0
ENDTAB
  0
TABLE
  2
UCS
  5
7
330
0
100
AcDbSymbolTable
 70
     0
  0
ENDTAB
  0
TABLE
  2
APPID
  5
9
330
0
100
AcDbSymbolTable
 70
     2
  0
APPID
  5
12
330
9
100
AcDbSymbolTableRecord
100
AcDbRegAppTableRecord
  2
ACAD
 70
     0
  0
APPID
  5
457
330
9
100
AcDbSymbolTableRecord
100
AcDbRegAppTableRecord
  2
ACAD_MLEADERVER
 70
     0
  0
ENDTAB
  0
TABLE
  2
DIMSTYLE
  5
A
330
0
100
AcDbSymbolTable
 70
    17
100
AcDbDimStyleTable
  0
DIMSTYLE
105
27
330
A
100
AcDbSymbolTableRecord
100
AcDbDimStyleTableRecord
  2
Standard
 70
     0
 40
2.0
 41
2.0
 42
1.0
 43
7.0
 44
1.0
 73
     0
 74
     0
 77
     3
 78
     8
 79
     2
140
4.0
141
0.0
146
0.5
147
0.0
176
     3
177
     3
271
     3
178
     2
179
     3
271
     3
340
11
342
88
371
    -1
372
    -1
  0
DIMSTYLE
105
167
330
A
100
AcDbSymbolTableRecord
100
AcDbDimStyleTableRecord
  2
DIMSTYEX_1
 70
     0
 40
2.0
 41
2.0
 42
1.0
 43
7.0
 44
1.0
 73
     0
 74
     0
 77
     3
 78
     8
 79
     2
140
4.0
141
0.0
146
0.5
147
0.0
176
     3
177
     3
271
     3
178
     2
179
     3
271
     3
340
11
341
88
342
88
371
    -1
372
    -1
  0
DIMSTYLE
105
16F
330
A
100
AcDbSymbolTableRecord
100
AcDbDimStyleTableRecord
  2
DIMSTYEX_2
 70
     0
 40
2.0
 41
2.0
 42
1.0
 43
7.0
 44
1.0
 73
     0
 74
     0
 77
     3
 78
     8
 79
     2
140
4.0
141
0.0
146
0.5
147
0.0
176
     3
177
     3
271
     3
178
     2
179
     3
271
     3
340
11
341
88
342
88
371
    -1
372
    -1
  0
DIMSTYLE
105
177
330
A
100
AcDbSymbolTableRecord
100
AcDbDimStyleTableRecord
  2
DIMSTYEX_3
 70
     0
 40
2.0
 41
2.0
 42
1.0
 43
7.0
 44
1.0
 73
     0
 74
     0
 77
     3
 78
     8
 79
     2
140
4.0
141
0.0
146
0.5
147
0.0
176
     3
177
     3
271
     3
178
     2
179
     3
271
     3
340
11
341
88
342
88
371
    -1
372
    -1
  0
DIMSTYLE
105
191
330
A
100
AcDbSymbolTableRecord
100
AcDbDimStyleTableRecord
  2
DIMSTYEX_4
 70
     0
 40
2.0
 41
2.0
 42
1.0
 43
7.0
 44
1.0
 73
     0
 74
     0
 77
     3
 78
     8
 79
     2
140
4.0
141
0.0
146
0.5
147
0.0
176
     7
177
     7
271
     3
178
     2
179
     3
271
     3
340
11
341
88
342
88
371
    -1
372
    -1
  0
DIMSTYLE
105
1A0
102
{ACAD_REACTORS
330
1A1
102
}
330
A
100
AcDbSymbolTableRecord
100
AcDbDimStyleTableRecord
  2
DIMSTYEX_5
 70
     0
 40
2.0
 41
2.0
 42
1.0
 43
0.0
 44
1.0
 73
     0
 74
     0
 77
     3
 78
     8
 79
     2
140
3.584
141
0.0
146
0.5
147
1.0
173
     1
176
     3
177
     3
271
     3
178
     2
179
     3
271
     3
272
     3
340
83
342
88
343
88
344
88
371
    -1
372
    -1
  0
DIMSTYLE
105
22B
102
{ACAD_REACTORS
330
22C
102
}
330
A
100
AcDbSymbolTableRecord
100
AcDbDimStyleTableRecord
  2
DIMSTYEX_6
 70
     0
 40
2.0
 41
2.0
 42
1.0
 43
14.0
 44
1.0
 73
     0
 74
     0
 75
     1
 77
     1
 78
     8
 79
     2
140
3.584
141
0.0
146
0.5
147
0.0
173
     1
176
     3
177
     3
271
     3
178
     2
179
     3
271
     3
272
     3
281
     1
340
83
342
88
343
AE
344
88
371
    -1
372
    -1
  0
DIMSTYLE
105
239
102
{ACAD_REACTORS
330
23A
102
}
330
A
100
AcDbSymbolTableRecord
100
AcDbDimStyleTableRecord
  2
DIMSTYEX_7
 70
     0
 40
2.0
 41
2.0
 42
1.0
 43
7.0
 44
1.0
 73
     0
 74
     0
 77
     3
 78
     8
 79
     2
140
3.584
141
0.0
146
0.5
147
0.0
173
     1
176
     3
177
     3
271
     3
178
     2
179
     3
271
     3
272
     3
340
83
342
88
343
88
344
88
371
    -1
372
    -1
  0
DIMSTYLE
105
25D
102
{ACAD_REACTORS
330
25E
102
}
330
A
100
AcDbSymbolTableRecord
100
AcDbDimStyleTableRecord
  2
DIMSTYEX_8
 70
     0
 40
2.0
 41
2.0
 42
1.0
 43
7.0
 44
1.0
 73
     0
 74
     0
 75
     1
 77
     1
 78
     8
 79
     2
140
3.584
141
0.0
146
0.5
147
0.0
173
     1
176
     3
177
     3
271
     3
178
     2
179
     3
271
     3
272
     3
281
     1
340
83
342
88
343
AE
344
88
371
    -1
372
    -1
  0
DIMSTYLE
105
264
330
A
100
AcDbSymbolTableRecord
100
AcDbDimStyleTableRecord
  2
DIMSTYEX_9
 70
     0
 40
2.0
 41
2.0
 42
1.0
 43
7.0
 44
1.0
 73
     0
 74
     0
 77
     3
 78
     8
 79
     2
140
4.0
141
0.0
146
0.5
147
0.0
176
     3
177
     3
271
     3
178
     2
179
     3
271
     3
340
11
341
88
342
88
371
    -1
372
    -1
  0
DIMSTYLE
105
26C
330
A
100
AcDbSymbolTableRecord
100
AcDbDimStyleTableRecord
  2
DIMSTYEX_10
 70
     0
 40
2.0
 41
2.0
 42
1.0
 43
7.0
 44
1.0
 73
     0
 74
     0
 77
     3
 78
     8
 79
     2
140
4.0
141
0.0
146
0.5
147
0.0
176
     3
177
     3
271
     3
178
     2
179
     3
271
     3
340
11
341
88
342
88
371
    -1
372
    -1
  0
DIMSTYLE
105
274
330
A
100
AcDbSymbolTableRecord
100
AcDbDimStyleTableRecord
  2
DIMSTYEX_11
 70
     0
 40
2.0
 41
2.0
 42
1.0
 43
7.0
 44
1.0
 73
     0
 74
     0
 77
     3
 78
     8
 79
     2
140
4.0
141
0.0
146
0.5
147
0.0
176
     3
177
     3
271
     3
178
     2
179
     3
271
     3
340
11
341
88
342
88
371
    -1
372
    -1
  0
DIMSTYLE
105
27C
330
A
100
AcDbSymbolTableRecord
100
AcDbDimStyleTableRecord
  2
DIMSTYEX_12
 70
     0
 40
2.0
 41
2.0
 42
1.0
 43
7.0
 44
1.0
 73
     0
 74
     0
 77
     3
 78
     8
 79
     2
140
4.0
141
0.0
146
0.5
147
0.0
176
     3
177
     3
271
     3
178
     2
179
     3
271
     3
340
11
341
88
342
88
371
    -1
372
    -1
  0
DIMSTYLE
105
28B
102
{ACAD_REACTORS
330
28C
102
}
330
A
100
AcDbSymbolTableRecord
100
AcDbDimStyleTableRecord
  2
DIMSTYEX_13
 70
     0
 40
2.0
 41
2.0
 42
1.0
 43
1.00383588451183
 44
1.0
 73
     0
 74
     0
 77
     3
 78
     8
 79
     2
140
3.584
141
0.0
146
0.5
147
0.0
173
     1
176
     3
177
     3
271
     3
178
     2
179
     3
271
     3
272
     3
340
83
342
88
343
88
344
88
371
    -1
372
    -1
  0
DIMSTYLE
105
310
102
{ACAD_REACTORS
330
311
102
}
330
A
100
AcDbSymbolTableRecord
100
AcDbDimStyleTableRecord
  2
DIMSTYEX_14
 70
     0
 40
2.0
 41
2.0
 42
1.0
 43
2.969960569123145
 44
1.0
 73
     0
 74
     0
 77
     3
 78
     8
 79
     2
140
3.584
141
0.0
146
0.5
147
0.0
173
     1
176
     3
177
     3
271
     3
178
     2
179
     3
271
     3
272
     3
340
83
342
88
343
88
344
88
371
    -1
372
    -1
  0
DIMSTYLE
105
31E
102
{ACAD_REACTORS
330
31F
330
34C
102
}
330
A
100
AcDbSymbolTableRecord
100
AcDbDimStyleTableRecord
  2
DIMSTYEX_15
 70
     0
 40
2.0
 41
2.0
 42
1.0
 43
0.0
 44
1.0
 73
     0
 74
     0
 77
     3
 78
     8
 79
     2
140
3.584
141
0.0
146
0.5
147
0.0
173
     1
176
     3
177
     3
271
     3
178
     2
179
     3
271
     3
272
     3
340
83
342
88
343
88
344
88
371
    -1
372
    -1
  0
DIMSTYLE
105
33E
102
{ACAD_REACTORS
330
33F
102
}
330
A
100
AcDbSymbolTableRecord
100
AcDbDimStyleTableRecord
  2
DIMSTYEX_16
 70
     0
 40
2.0
 41
2.0
 42
1.0
 43
108.9163935631128
 44
1.0
 73
     0
 74
     0
 77
     3
 78
     8
 79
     2
140
3.584
141
0.0
146
0.5
147
0.0
173
     1
176
     3
177
     3
271
     3
178
     2
179
     3
271
     3
272
     3
340
83
342
88
343
88
344
88
371
    -1
372
    -1
  0
ENDTAB
  0
TABLE
  2
BLOCK_RECORD
  5
1
330
0
100
AcDbSymbolTable
 70
    38
  0
BLOCK_RECORD
  5
1F
330
1
100
AcDbSymbolTableRecord
100
AcDbBlockTableRecord
  2
*Model_Space
340
22
  0
BLOCK_RECORD
  5
1B
330
1
100
AcDbSymbolTableRecord
100
AcDbBlockTableRecord
  2
*Paper_Space
340
1E
  0
BLOCK_RECORD
  5
84
330
1
100
AcDbSymbolTableRecord
100
AcDbBlockTableRecord
  2
_SMALL
340
0
  0
BLOCK_RECORD
  5
88
330
1
100
AcDbSymbolTableRecord
100
AcDbBlockTableRecord
  2
_OPEN30
340
0
102
{BLKREFS
331
199
331
19A
331
226
331
233
331
234
331
258
331
285
331
286
331
30A
331
30B
331
318
331
319
331
338
331
339
331
346
331
347
102
}
  0
BLOCK_RECORD
  5
8E
330
1
100
AcDbSymbolTableRecord
100
AcDbBlockTableRecord
  2
_OBLIQUE
340
0
  0
BLOCK_RECORD
  5
92
330
1
100
AcDbSymbolTableRecord
100
AcDbBlockTableRecord
  2
_DOT
340
0
  0
BLOCK_RECORD
  5
96
330
1
100
AcDbSymbolTableRecord
100
AcDbBlockTableRecord
  2
_DOTSMALL
340
0
  0
BLOCK_RECORD
  5
9A
330
1
100
AcDbSymbolTableRecord
100
AcDbBlockTableRecord
  2
_DATUMFILLED
340
0
  0
BLOCK_RECORD
  5
9E
330
1
100
AcDbSymbolTableRecord
100
AcDbBlockTableRecord
  2
DATUMFILLED2
340
0
  0
BLOCK_RECORD
  5
A2
330
1
100
AcDbSymbolTableRecord
100
AcDbBlockTableRecord
  2
_DATUMBLANK
340
0
  0
BLOCK_RECORD
  5
A8
330
1
100
AcDbSymbolTableRecord
100
AcDbBlockTableRecord
  2
DATUMBLANK2
340
0
  0
BLOCK_RECORD
  5
AE
330
1
100
AcDbSymbolTableRecord
100
AcDbBlockTableRecord
  2
_NONE
340
0
  0
BLOCK_RECORD
  5
B4
330
1
100
AcDbSymbolTableRecord
100
AcDbBlockTableRecord
  2
BLK0
340
0
102
{BLKREFS
331
D4
102
}
  0
BLOCK_RECORD
  5
110
330
1
100
AcDbSymbolTableRecord
100
AcDbBlockTableRecord
  2
MAKR0
340
0
102
{BLKREFS
331
115
102
}
  0
BLOCK_RECORD
  5
116
330
1
100
AcDbSymbolTableRecord
100
AcDbBlockTableRecord
  2
MAKR1
340
0
102
{BLKREFS
331
11B
102
}
  0
BLOCK_RECORD
  5
129
330
1
100
AcDbSymbolTableRecord
100
AcDbBlockTableRecord
  2
MAKR2
340
0
102
{BLKREFS
331
12E
102
}
  0
BLOCK_RECORD
  5
134
330
1
100
AcDbSymbolTableRecord
100
AcDbBlockTableRecord
  2
MAKR3
340
0
102
{BLKREFS
331
139
102
}
  0
BLOCK_RECORD
  5
13F
330
1
100
AcDbSymbolTableRecord
100
AcDbBlockTableRecord
  2
MAKR4
340
0
102
{BLKREFS
331
144
102
}
  0
BLOCK_RECORD
  5
149
330
1
100
AcDbSymbolTableRecord
100
AcDbBlockTableRecord
  2
MAKR5
340
0
102
{BLKREFS
331
14E
102
}
  0
BLOCK_RECORD
  5
153
330
1
100
AcDbSymbolTableRecord
100
AcDbBlockTableRecord
  2
MAKR6
340
0
102
{BLKREFS
331
158
102
}
  0
BLOCK_RECORD
  5
162
330
1
100
AcDbSymbolTableRecord
100
AcDbBlockTableRecord
  2
BALN0
340
0
102
{BLKREFS
331
169
102
}
  0
BLOCK_RECORD
  5
16A
330
1
100
AcDbSymbolTableRecord
100
AcDbBlockTableRecord
  2
BALN1
340
0
102
{BLKREFS
331
171
102
}
  0
BLOCK_RECORD
  5
172
330
1
100
AcDbSymbolTableRecord
100
AcDbBlockTableRecord
  2
BALN2
340
0
102
{BLKREFS
331
179
102
}
  0
BLOCK_RECORD
  5
17F
330
1
100
AcDbSymbolTableRecord
100
AcDbBlockTableRecord
  2
BLK1
340
0
102
{BLKREFS
331
18F
102
}
  0
BLOCK_RECORD
  5
193
330
1
100
AcDbSymbolTableRecord
100
AcDbBlockTableRecord
  2
_D1
340
0
  0
BLOCK_RECORD
  5
1A2
330
1
100
AcDbSymbolTableRecord
100
AcDbBlockTableRecord
  2
BLK2
340
0
102
{BLKREFS
331
1F9
102
}
  0
BLOCK_RECORD
  5
221
330
1
100
AcDbSymbolTableRecord
100
AcDbBlockTableRecord
  2
_D2
340
0
  0
BLOCK_RECORD
  5
22D
330
1
100
AcDbSymbolTableRecord
100
AcDbBlockTableRecord
  2
_D3
340
0
  0
BLOCK_RECORD
  5
253
330
1
100
AcDbSymbolTableRecord
100
AcDbBlockTableRecord
  2
_D4
340
0
  0
BLOCK_RECORD
  5
25F
330
1
100
AcDbSymbolTableRecord
100
AcDbBlockTableRecord
  2
BALN3
340
0
102
{BLKREFS
331
266
102
}
  0
BLOCK_RECORD
  5
267
330
1
100
AcDbSymbolTableRecord
100
AcDbBlockTableRecord
  2
BALN4
340
0
102
{BLKREFS
331
26E
102
}
  0
BLOCK_RECORD
  5
26F
330
1
100
AcDbSymbolTableRecord
100
AcDbBlockTableRecord
  2
BALN5
340
0
102
{BLKREFS
331
276
102
}
  0
BLOCK_RECORD
  5
277
330
1
100
AcDbSymbolTableRecord
100
AcDbBlockTableRecord
  2
BALN6
340
0
102
{BLKREFS
331
27E
102
}
  0
BLOCK_RECORD
  5
27F
330
1
100
AcDbSymbolTableRecord
100
AcDbBlockTableRecord
  2
_D5
340
0
  0
BLOCK_RECORD
  5
304
330
1
100
AcDbSymbolTableRecord
100
AcDbBlockTableRecord
  2
_D6
340
0
  0
BLOCK_RECORD
  5
312
330
1
100
AcDbSymbolTableRecord
100
AcDbBlockTableRecord
  2
_D7
340
0
  0
BLOCK_RECORD
  5
332
330
1
100
AcDbSymbolTableRecord
100
AcDbBlockTableRecord
  2
_D8
340
0
  0
BLOCK_RECORD
  5
340
330
1
100
AcDbSymbolTableRecord
100
AcDbBlockTableRecord
  2
_D9
340
0
  0
BLOCK_RECORD
  5
34E
330
1
100
AcDbSymbolTableRecord
100
AcDbBlockTableRecord
  2
BLK3
340
0
102
{BLKREFS
331
406
102
}
  0
ENDTAB
  0
ENDSEC
  0
SECTION
  2
BLOCKS
  0
BLOCK
  5
20
330
1F
100
AcDbEntity
  8
0
100
AcDbBlockBegin
  2
*Model_Space
 70
     0
 10
0.0
 20
0.0
 30
0.0
  3
*Model_Space
  1

  0
ENDBLK
  5
21
330
1F
100
AcDbEntity
  8
0
100
AcDbBlockEnd
  0
BLOCK
  5
1C
330
1B
100
AcDbEntity
 67
     1
  8
0
100
AcDbBlockBegin
  2
*Paper_Space
 70
     0
 10
0.0
 20
0.0
 30
0.0
  3
*Paper_Space
  1

  0
ENDBLK
  5
1D
330
1B
100
AcDbEntity
 67
     1
  8
0
100
AcDbBlockEnd
  0
BLOCK
  5
85
330
84
100
AcDbEntity
  8
0
100
AcDbBlockBegin
  2
_SMALL
 70
     0
 10
0.0
 20
0.0
 30
0.0
  3
_SMALL
  1

  0
CIRCLE
  5
87
330
84
100
AcDbEntity
  8
0
  6
ByBlock
 62
     0
370
    -2
100
AcDbCircle
 10
0.0
 20
0.0
 30
0.0
 40
0.1666666666
  0
CIRCLE
  5
407
330
84
100
AcDbEntity
  8
0
  6
ByBlock
 62
     0
370
    -2
100
AcDbCircle
 10
0.0
 20
0.0
 30
0.0
 40
0.1666666666
  0
ENDBLK
  5
86
330
84
100
AcDbEntity
  8
0
100
AcDbBlockEnd
  0
BLOCK
  5
89
330
88
100
AcDbEntity
  8
0
100
AcDbBlockBegin
  2
_OPEN30
 70
     0
 10
0.0
 20
0.0
 30
0.0
  3
_OPEN30
  1

  0
LINE
  5
8B
330
88
100
AcDbEntity
  8
0
  6
ByBlock
 62
     0
370
    -2
100
AcDbLine
 10
-1.0
 20
0.26794919
 30
0.0
 11
0.0
 21
0.0
 31
0.0
  0
LINE
  5
8C
330
88
100
AcDbEntity
  8
0
  6
ByBlock
 62
     0
370
    -2
100
AcDbLine
 10
0.0
 20
0.0
 30
0.0
 11
-1.0
 21
-0.26794919
 31
0.0
  0
LINE
  5
8D
330
88
100
AcDbEntity
  8
0
  6
ByBlock
 62
     0
370
    -2
100
AcDbLine
 10
0.0
 20
0.0
 30
0.0
 11
-1.0
 21
0.0
 31
0.0
  0
LINE
  5
408
330
88
100
AcDbEntity
  8
0
  6
ByBlock
 62
     0
370
    -2
100
AcDbLine
 10
-1.0
 20
0.26794919
 30
0.0
 11
0.0
 21
0.0
 31
0.0
  0
LINE
  5
409
330
88
100
AcDbEntity
  8
0
  6
ByBlock
 62
     0
370
    -2
100
AcDbLine
 10
0.0
 20
0.0
 30
0.0
 11
-1.0
 21
-0.26794919
 31
0.0
  0
LINE
  5
40A
330
88
100
AcDbEntity
  8
0
  6
ByBlock
 62
     0
370
    -2
100
AcDbLine
 10
0.0
 20
0.0
 30
0.0
 11
-1.0
 21
0.0
 31
0.0
  0
ENDBLK
  5
8A
330
88
100
AcDbEntity
  8
0
100
AcDbBlockEnd
  0
BLOCK
  5
8F
330
8E
100
AcDbEntity
  8
0
100
AcDbBlockBegin
  2
_OBLIQUE
 70
     0
 10
0.0
 20
0.0
 30
0.0
  3
_OBLIQUE
  1

  0
LINE
  5
91
330
8E
100
AcDbEntity
  8
0
  6
ByBlock
 62
     0
370
    -2
100
AcDbLine
 10
-0.5
 20
-0.5
 30
0.0
 11
0.5
 21
0.5
 31
0.0
  0
LINE
  5
40B
330
8E
100
AcDbEntity
  8
0
  6
ByBlock
 62
     0
370
    -2
100
AcDbLine
 10
-0.5
 20
-0.5
 30
0.0
 11
0.5
 21
0.5
 31
0.0
  0
ENDBLK
  5
90
330
8E
100
AcDbEntity
  8
0
100
AcDbBlockEnd
  0
BLOCK
  5
93
330
92
100
AcDbEntity
  8
0
100
AcDbBlockBegin
  2
_DOT
 70
     0
 10
0.0
 20
0.0
 30
0.0
  3
_DOT
  1

  0
LWPOLYLINE
  5
95
330
92
100
AcDbEntity
  8
0
  6
ByBlock
 62
     0
370
    -2
100
AcDbPolyline
 90
        2
 70
     1
 43
0.5
 10
-0.25
 20
0.0
 42
1.0
 10
0.25
 20
0.0
 42
1.0
  0
LWPOLYLINE
  5
40C
330
92
100
AcDbEntity
  8
0
  6
ByBlock
 62
     0
370
    -2
100
AcDbPolyline
 90
        2
 70
     1
 43
0.5
 10
-0.25
 20
0.0
 42
1.0
 10
0.25
 20
0.0
 42
1.0
  0
ENDBLK
  5
94
330
92
100
AcDbEntity
  8
0
100
AcDbBlockEnd
  0
BLOCK
  5
97
330
96
100
AcDbEntity
  8
0
100
AcDbBlockBegin
  2
_DOTSMALL
 70
     0
 10
0.0
 20
0.0
 30
0.0
  3
_DOTSMALL
  1

  0
LWPOLYLINE
  5
99
330
96
100
AcDbEntity
  8
0
  6
ByBlock
 62
     0
370
    -2
100
AcDbPolyline
 90
        2
 70
     1
 43
0.5
 10
-0.0625
 20
0.0
 42
1.0
 10
0.0625
 20
0.0
 42
1.0
  0
LWPOLYLINE
  5
40D
330
96
100
AcDbEntity
  8
0
  6
ByBlock
 62
     0
370
    -2
100
AcDbPolyline
 90
        2
 70
     1
 43
0.5
 10
-0.0625
 20
0.0
 42
1.0
 10
0.0625
 20
0.0
 42
1.0
  0
ENDBLK
  5
98
330
96
100
AcDbEntity
  8
0
100
AcDbBlockEnd
  0
BLOCK
  5
9B
330
9A
100
AcDbEntity
  8
0
100
AcDbBlockBegin
  2
_DATUMFILLED
 70
     0
 10
0.0
 20
0.0
 30
0.0
  3
_DATUMFILLED
  1

  0
SOLID
  5
9D
330
9A
100
AcDbEntity
  8
0
  6
ByBlock
 62
     0
370
    -2
100
AcDbTrace
 10
0.0
 20
0.57735027
 30
0.0
 11
-1.0
 21
0.0
 31
0.0
 12
0.0
 22
-0.57735027
 32
0.0
 13
0.0
 23
-0.57735027
 33
0.0
  0
SOLID
  5
40E
330
9A
100
AcDbEntity
  8
0
  6
ByBlock
 62
     0
370
    -2
100
AcDbTrace
 10
0.0
 20
0.57735027
 30
0.0
 11
-1.0
 21
0.0
 31
0.0
 12
0.0
 22
-0.57735027
 32
0.0
 13
0.0
 23
-0.57735027
 33
0.0
  0
ENDBLK
  5
9C
330
9A
100
AcDbEntity
  8
0
100
AcDbBlockEnd
  0
BLOCK
  5
9F
330
9E
100
AcDbEntity
  8
0
100
AcDbBlockBegin
  2
DATUMFILLED2
 70
     0
 10
0.0
 20
0.0
 30
0.0
  3
DATUMFILLED2
  1

  0
SOLID
  5
A1
330
9E
100
AcDbEntity
  8
0
  6
ByBlock
 62
     0
370
    -2
100
AcDbTrace
 10
0.0
 20
1.0
 30
0.0
 11
-1.0
 21
0.0
 31
0.0
 12
0.0
 22
-1.0
 32
0.0
 13
0.0
 23
-1.0
 33
0.0
  0
SOLID
  5
40F
330
9E
100
AcDbEntity
  8
0
  6
ByBlock
 62
     0
370
    -2
100
AcDbTrace
 10
0.0
 20
1.0
 30
0.0
 11
-1.0
 21
0.0
 31
0.0
 12
0.0
 22
-1.0
 32
0.0
 13
0.0
 23
-1.0
 33
0.0
  0
ENDBLK
  5
A0
330
9E
100
AcDbEntity
  8
0
100
AcDbBlockEnd
  0
BLOCK
  5
A3
330
A2
100
AcDbEntity
  8
0
100
AcDbBlockBegin
  2
_DATUMBLANK
 70
     0
 10
0.0
 20
0.0
 30
0.0
  3
_DATUMBLANK
  1

  0
LINE
  5
A5
330
A2
100
AcDbEntity
  8
0
  6
ByBlock
 62
     0
370
    -2
100
AcDbLine
 10
0.0
 20
0.57735027
 30
0.0
 11
-1.0
 21
0.0
 31
0.0
  0
LINE
  5
A6
330
A2
100
AcDbEntity
  8
0
  6
ByBlock
 62
     0
370
    -2
100
AcDbLine
 10
-1.0
 20
0.0
 30
0.0
 11
0.0
 21
-0.57735027
 31
0.0
  0
LINE
  5
A7
330
A2
100
AcDbEntity
  8
0
  6
ByBlock
 62
     0
370
    -2
100
AcDbLine
 10
0.0
 20
-0.57735027
 30
0.0
 11
0.0
 21
0.57735027
 31
0.0
  0
LINE
  5
410
330
A2
100
AcDbEntity
  8
0
  6
ByBlock
 62
     0
370
    -2
100
AcDbLine
 10
0.0
 20
0.57735027
 30
0.0
 11
-1.0
 21
0.0
 31
0.0
  0
LINE
  5
411
330
A2
100
AcDbEntity
  8
0
  6
ByBlock
 62
     0
370
    -2
100
AcDbLine
 10
-1.0
 20
0.0
 30
0.0
 11
0.0
 21
-0.57735027
 31
0.0
  0
LINE
  5
412
330
A2
100
AcDbEntity
  8
0
  6
ByBlock
 62
     0
370
    -2
100
AcDbLine
 10
0.0
 20
-0.57735027
 30
0.0
 11
0.0
 21
0.57735027
 31
0.0
  0
ENDBLK
  5
A4
330
A2
100
AcDbEntity
  8
0
100
AcDbBlockEnd
  0
BLOCK
  5
A9
330
A8
100
AcDbEntity
  8
0
100
AcDbBlockBegin
  2
DATUMBLANK2
 70
     0
 10
0.0
 20
0.0
 30
0.0
  3
DATUMBLANK2
  1

  0
LINE
  5
AB
330
A8
100
AcDbEntity
  8
0
  6
ByBlock
 62
     0
370
    -2
100
AcDbLine
 10
0.0
 20
1.0
 30
0.0
 11
-1.0
 21
0.0
 31
0.0
  0
LINE
  5
AC
330
A8
100
AcDbEntity
  8
0
  6
ByBlock
 62
     0
370
    -2
100
AcDbLine
 10
-1.0
 20
0.0
 30
0.0
 11
0.0
 21
-1.0
 31
0.0
  0
LINE
  5
AD
330
A8
100
AcDbEntity
  8
0
  6
ByBlock
 62
     0
370
    -2
100
AcDbLine
 10
0.0
 20
-1.0
 30
0.0
 11
0.0
 21
1.0
 31
0.0
  0
LINE
  5
413
330
A8
100
AcDbEntity
  8
0
  6
ByBlock
 62
     0
370
    -2
100
AcDbLine
 10
0.0
 20
1.0
 30
0.0
 11
-1.0
 21
0.0
 31
0.0
  0
LINE
  5
414
330
A8
100
AcDbEntity
  8
0
  6
ByBlock
 62
     0
370
    -2
100
AcDbLine
 10
-1.0
 20
0.0
 30
0.0
 11
0.0
 21
-1.0
 31
0.0
  0
LINE
  5
415
330
A8
100
AcDbEntity
  8
0
  6
ByBlock
 62
     0
370
    -2
100
AcDbLine
 10
0.0
 20
-1.0
 30
0.0
 11
0.0
 21
1.0
 31
0.0
  0
ENDBLK
  5
AA
330
A8
100
AcDbEntity
  8
0
100
AcDbBlockEnd
  0
BLOCK
  5
AF
330
AE
100
AcDbEntity
  8
0
100
AcDbBlockBegin
  2
_NONE
 70
     0
 10
0.0
 20
0.0
 30
0.0
  3
_NONE
  1

  0
ENDBLK
  5
B0
330
AE
100
AcDbEntity
  8
0
100
AcDbBlockEnd
  0
BLOCK
  5
B5
330
B4
100
AcDbEntity
  8
0
100
AcDbBlockBegin
  2
BLK0
 70
     0
 10
402.0339800638226
 20
-1825.991641020337
 30
0.0
  3
BLK0
  1

  0
LINE
  5
B7
330
B4
100
AcDbEntity
  8
1
  6
Continuous
 62
     7
100
AcDbLine
 10
368.0339800638226
 20
-1825.991641020337
 30
0.0
 11
368.0339800638226
 21
-1859.991641020337
 31
0.0
  0
LINE
  5
B8
330
B4
100
AcDbEntity
  8
1
  6
Continuous
 62
     7
100
AcDbLine
 10
358.0339900638223
 20
-1859.991641020337
 30
0.0
 11
358.0339900638223
 21
-1825.991641020337
 31
0.0
  0
LINE
  5
B9
330
B4
100
AcDbEntity
  8
1
  6
Continuous
 62
     7
100
AcDbLine
 10
324.0339900638226
 20
-1825.991641020337
 30
0.0
 11
324.0339900638226
 21
-1859.991641020337
 31
0.0
  0
LINE
  5
BA
330
B4
100
AcDbEntity
  8
1
  6
Continuous
 62
     7
100
AcDbLine
 10
314.0340000638225
 20
-1859.991641020337
 30
0.0
 11
314.0340000638225
 21
-1825.991641020337
 31
0.0
  0
MTEXT
  5
BD
330
B4
100
AcDbEntity
  8
1
  6
Continuous
 62
     7
100
AcDbMText
 10
315.5339950638224
 20
-1850.772539755229
 30
0.0
 40
7.0
 41
0.0
 71
     7
 72
     5
  1
{\fＭＳ 明朝|b0|i0|c128|p17;\W1.0;査}
  7
MTSTANDARD1
 73
     1
 44
0.8392857142857144
  0
MTEXT
  5
BE
330
B4
100
AcDbEntity
  8
1
  6
Continuous
 62
     7
100
AcDbMText
 10
359.5339850638225
 20
-1850.772539755229
 30
0.0
 40
7.0
 41
0.0
 71
     7
 72
     5
  1
{\fＭＳ 明朝|b0|i0|c128|p17;\W1.0;認}
  7
MTSTANDARD1
 73
     1
 44
0.8392857142857144
  0
MTEXT
  5
BF
330
B4
100
AcDbEntity
  8
1
  6
Continuous
 62
     7
100
AcDbMText
 10
359.5339850638225
 20
-1842.772547755229
 30
0.0
 40
7.0
 41
0.0
 71
     7
 72
     5
  1
{\fＭＳ 明朝|b0|i0|c128|p17;\W1.0;承}
  7
MTSTANDARD1
 73
     1
 44
0.8392857142857144
  0
MTEXT
  5
C0
330
B4
100
AcDbEntity
  8
1
  6
Continuous
 62
     7
100
AcDbMText
 10
315.5339950638224
 20
-1842.772547755229
 30
0.0
 40
7.0
 41
0.0
 71
     7
 72
     5
  1
{\fＭＳ 明朝|b0|i0|c128|p17;\W1.0;照}
  7
MTSTANDARD1
 73
     1
 44
0.8392857142857144
  0
CIRCLE
  5
C1
330
B4
100
AcDbEntity
  8
1
  6
Continuous
 62
     7
100
AcDbCircle
 10
296.9685730544766
 20
-1843.093510506318
 30
0.0
 40
16.0
  0
LINE
  5
C2
330
B4
100
AcDbEntity
  8
1
  6
Continuous
 62
     7
100
AcDbLine
 10
281.4766396696468
 20
-1839.093510506318
 30
0.0
 11
312.4605064393063
 21
-1839.093510506318
 31
0.0
  0
LINE
  5
C3
330
B4
100
AcDbEntity
  8
1
  6
Continuous
 62
     7
100
AcDbLine
 10
281.4766396696468
 20
-1847.093510506318
 30
0.0
 11
312.4605064393063
 21
-1847.093510506318
 31
0.0
  0
MTEXT
  5
C4
330
B4
100
AcDbEntity
  8
1
  6
Continuous
 62
     7
100
AcDbMText
 10
292.9685730544763
 20
-1837.093510506318
 30
0.0
 40
8.0
 41
0.0
 71
     7
 72
     5
  1
{\fＭＳ 明朝|b0|i0|c128|p17;\W1.0;笛}
  7
MTSTANDARD
 73
     1
 44
0.78125
  0
MTEXT
  5
C5
330
B4
100
AcDbEntity
  8
1
  6
Continuous
 62
     7
100
AcDbMText
 10
292.9685730544763
 20
-1857.093510506318
 30
0.0
 40
8.0
 41
0.0
 71
     7
 72
     5
  1
{\fＭＳ 明朝|b0|i0|c128|p17;\W1.0;木}
  7
MTSTANDARD
 73
     1
 44
0.78125
  0
MTEXT
  5
C7
330
B4
100
AcDbEntity
  8
1
  6
Continuous
 62
     7
100
AcDbMText
 10
284.4685730544763
 20
-1845.593510506318
 30
0.0
 40
5.0
 41
0.0
 71
     7
 72
     5
  1
{\fＭＳ 明朝|b0|i0|c128|p17;\W1.0;2015.04.08}
  7
MTSTANDARD2
 73
     1
 44
0.875
  0
CIRCLE
  5
C8
330
B4
100
AcDbEntity
  8
1
  6
Continuous
 62
     7
100
AcDbCircle
 10
341.043312493729
 20
-1843.093510506318
 30
0.0
 40
16.0
  0
LINE
  5
C9
330
B4
100
AcDbEntity
  8
1
  6
Continuous
 62
     7
100
AcDbLine
 10
325.5513791088993
 20
-1839.093510506318
 30
0.0
 11
356.5352458785587
 21
-1839.093510506318
 31
0.0
  0
LINE
  5
CA
330
B4
100
AcDbEntity
  8
1
  6
Continuous
 62
     7
100
AcDbLine
 10
325.5513791088993
 20
-1847.093510506318
 30
0.0
 11
356.5352458785587
 21
-1847.093510506318
 31
0.0
  0
CIRCLE
  5
CB
330
B4
100
AcDbEntity
  8
1
  6
Continuous
 62
     7
100
AcDbCircle
 10
385.1180519329814
 20
-1843.093510506318
 30
0.0
 40
16.0
  0
LINE
  5
CC
330
B4
100
AcDbEntity
  8
1
  6
Continuous
 62
     7
100
AcDbLine
 10
369.6261185481517
 20
-1839.093510506318
 30
0.0
 11
400.6099853178112
 21
-1839.093510506318
 31
0.0
  0
LINE
  5
CD
330
B4
100
AcDbEntity
  8
1
  6
Continuous
 62
     7
100
AcDbLine
 10
369.6261185481517
 20
-1847.093510506318
 30
0.0
 11
400.6099853178112
 21
-1847.093510506318
 31
0.0
  0
MTEXT
  5
CE
330
B4
100
AcDbEntity
  8
1
  6
Continuous
 62
     7
100
AcDbMText
 10
337.0433124937288
 20
-1837.093510506318
 30
0.0
 40
8.0
 41
0.0
 71
     7
 72
     5
  1
{\fＭＳ 明朝|b0|i0|c128|p17;\W1.0;野}
  7
MTSTANDARD
 73
     1
 44
0.78125
  0
MTEXT
  5
CF
330
B4
100
AcDbEntity
  8
1
  6
Continuous
 62
     7
100
AcDbMText
 10
337.0433124937288
 20
-1857.093510506318
 30
0.0
 40
8.0
 41
0.0
 71
     7
 72
     5
  1
{\fＭＳ 明朝|b0|i0|c128|p17;\W1.0;島}
  7
MTSTANDARD
 73
     1
 44
0.78125
  0
MTEXT
  5
D0
330
B4
100
AcDbEntity
  8
1
  6
Continuous
 62
     7
100
AcDbMText
 10
328.5433124937288
 20
-1845.593510506318
 30
0.0
 40
5.0
 41
0.0
 71
     7
 72
     5
  1
{\fＭＳ 明朝|b0|i0|c128|p17;\W1.0;2015.04.08}
  7
MTSTANDARD2
 73
     1
 44
0.875
  0
MTEXT
  5
D1
330
B4
100
AcDbEntity
  8
1
  6
Continuous
 62
     7
100
AcDbMText
 10
381.1180519329812
 20
-1837.093510506318
 30
0.0
 40
8.0
 41
0.0
 71
     7
 72
     5
  1
{\fＭＳ 明朝|b0|i0|c128|p17;\W1.0;野}
  7
MTSTANDARD
 73
     1
 44
0.78125
  0
MTEXT
  5
D2
330
B4
100
AcDbEntity
  8
1
  6
Continuous
 62
     7
100
AcDbMText
 10
381.1180519329812
 20
-1857.093510506318
 30
0.0
 40
8.0
 41
0.0
 71
     7
 72
     5
  1
{\fＭＳ 明朝|b0|i0|c128|p17;\W1.0;島}
  7
MTSTANDARD
 73
     1
 44
0.78125
  0
MTEXT
  5
D3
330
B4
100
AcDbEntity
  8
1
  6
Continuous
 62
     7
100
AcDbMText
 10
372.6180519329812
 20
-1845.593510506318
 30
0.0
 40
5.0
 41
0.0
 71
     7
 72
     5
  1
{\fＭＳ 明朝|b0|i0|c128|p17;\W1.0;2015.04.08}
  7
MTSTANDARD2
 73
     1
 44
0.875
  0
ENDBLK
  5
B6
330
B4
100
AcDbEntity
  8
0
100
AcDbBlockEnd
  0
BLOCK
  5
111
330
110
100
AcDbEntity
  8
0
100
AcDbBlockBegin
  2
MAKR0
 70
     0
 10
0.690962913739753
 20
-1742.182113848461
 30
0.0
  3
MAKR0
  1

  0
CIRCLE
  5
113
330
110
100
AcDbEntity
  8
1
  6
ByBlock
 62
     3
100
AcDbCircle
 10
0.690962913739753
 20
-1742.182113848461
 30
0.0
 40
7.0
  0
MTEXT
  5
114
330
110
100
AcDbEntity
  8
1
  6
Continuous
 62
     2
100
AcDbMText
 10
-1.309037086260247
 20
-1746.182113848461
 30
0.0
 40
8.0
 41
0.0
 71
     7
 72
     5
  1
{\fＭＳ ゴシック|b0|i0|c128|p49;\W1.0;1}
  7
MTSTANDARD
 73
     1
 44
0.78125
  0
ENDBLK
  5
112
330
110
100
AcDbEntity
  8
0
100
AcDbBlockEnd
  0
BLOCK
  5
117
330
116
100
AcDbEntity
  8
0
100
AcDbBlockBegin
  2
MAKR1
 70
     0
 10
0.690962913739753
 20
-1758.182113848461
 30
0.0
  3
MAKR1
  1

  0
CIRCLE
  5
119
330
116
100
AcDbEntity
  8
1
  6
ByBlock
 62
     3
100
AcDbCircle
 10
0.690962913739753
 20
-1758.182113848461
 30
0.0
 40
7.0
  0
MTEXT
  5
11A
330
116
100
AcDbEntity
  8
1
  6
Continuous
 62
     2
100
AcDbMText
 10
-1.309037086260247
 20
-1762.182113848461
 30
0.0
 40
8.0
 41
0.0
 71
     7
 72
     5
  1
{\fＭＳ ゴシック|b0|i0|c128|p49;\W1.0;2}
  7
MTSTANDARD
 73
     1
 44
0.78125
  0
ENDBLK
  5
118
330
116
100
AcDbEntity
  8
0
100
AcDbBlockEnd
  0
BLOCK
  5
12A
330
129
100
AcDbEntity
  8
0
100
AcDbBlockBegin
  2
MAKR2
 70
     0
 10
0.690962913739753
 20
-1774.182113848461
 30
0.0
  3
MAKR2
  1

  0
CIRCLE
  5
12C
330
129
100
AcDbEntity
  8
1
  6
ByBlock
 62
     3
100
AcDbCircle
 10
0.690962913739753
 20
-1774.182113848461
 30
0.0
 40
7.0
  0
MTEXT
  5
12D
330
129
100
AcDbEntity
  8
1
  6
Continuous
 62
     2
100
AcDbMText
 10
-1.309037086260247
 20
-1778.182113848461
 30
0.0
 40
8.0
 41
0.0
 71
     7
 72
     5
  1
{\fＭＳ ゴシック|b0|i0|c128|p49;\W1.0;3}
  7
MTSTANDARD
 73
     1
 44
0.78125
  0
ENDBLK
  5
12B
330
129
100
AcDbEntity
  8
0
100
AcDbBlockEnd
  0
BLOCK
  5
135
330
134
100
AcDbEntity
  8
0
100
AcDbBlockBegin
  2
MAKR3
 70
     0
 10
0.690962913739753
 20
-1790.182113848461
 30
0.0
  3
MAKR3
  1

  0
CIRCLE
  5
137
330
134
100
AcDbEntity
  8
1
  6
ByBlock
 62
     3
100
AcDbCircle
 10
0.690962913739753
 20
-1790.182113848461
 30
0.0
 40
7.0
  0
MTEXT
  5
138
330
134
100
AcDbEntity
  8
1
  6
Continuous
 62
     2
100
AcDbMText
 10
-1.309037086260247
 20
-1794.182113848461
 30
0.0
 40
8.0
 41
0.0
 71
     7
 72
     5
  1
{\fＭＳ ゴシック|b0|i0|c128|p49;\W1.0;4}
  7
MTSTANDARD
 73
     1
 44
0.78125
  0
ENDBLK
  5
136
330
134
100
AcDbEntity
  8
0
100
AcDbBlockEnd
  0
BLOCK
  5
140
330
13F
100
AcDbEntity
  8
0
100
AcDbBlockBegin
  2
MAKR4
 70
     0
 10
0.690962913739753
 20
-1806.182113848461
 30
0.0
  3
MAKR4
  1

  0
CIRCLE
  5
142
330
13F
100
AcDbEntity
  8
1
  6
ByBlock
 62
     3
100
AcDbCircle
 10
0.690962913739753
 20
-1806.182113848461
 30
0.0
 40
7.0
  0
MTEXT
  5
143
330
13F
100
AcDbEntity
  8
1
  6
Continuous
 62
     2
100
AcDbMText
 10
-1.309037086260247
 20
-1810.182113848461
 30
0.0
 40
8.0
 41
0.0
 71
     7
 72
     5
  1
{\fＭＳ ゴシック|b0|i0|c128|p49;\W1.0;5}
  7
MTSTANDARD
 73
     1
 44
0.78125
  0
ENDBLK
  5
141
330
13F
100
AcDbEntity
  8
0
100
AcDbBlockEnd
  0
BLOCK
  5
14A
330
149
100
AcDbEntity
  8
0
100
AcDbBlockBegin
  2
MAKR5
 70
     0
 10
0.690962913739753
 20
-1822.182113848461
 30
0.0
  3
MAKR5
  1

  0
CIRCLE
  5
14C
330
149
100
AcDbEntity
  8
1
  6
ByBlock
 62
     3
100
AcDbCircle
 10
0.690962913739753
 20
-1822.182113848461
 30
0.0
 40
7.0
  0
MTEXT
  5
14D
330
149
100
AcDbEntity
  8
1
  6
Continuous
 62
     2
100
AcDbMText
 10
-1.309037086260247
 20
-1826.182113848461
 30
0.0
 40
8.0
 41
0.0
 71
     7
 72
     5
  1
{\fＭＳ ゴシック|b0|i0|c128|p49;\W1.0;6}
  7
MTSTANDARD
 73
     1
 44
0.78125
  0
ENDBLK
  5
14B
330
149
100
AcDbEntity
  8
0
100
AcDbBlockEnd
  0
BLOCK
  5
154
330
153
100
AcDbEntity
  8
0
100
AcDbBlockBegin
  2
MAKR6
 70
     0
 10
0.690962913739753
 20
-1838.182113848461
 30
0.0
  3
MAKR6
  1

  0
CIRCLE
  5
156
330
153
100
AcDbEntity
  8
1
  6
ByBlock
 62
     3
100
AcDbCircle
 10
0.690962913739753
 20
-1838.182113848461
 30
0.0
 40
7.0
  0
MTEXT
  5
157
330
153
100
AcDbEntity
  8
1
  6
Continuous
 62
     2
100
AcDbMText
 10
-1.309037086260247
 20
-1842.182113848461
 30
0.0
 40
8.0
 41
0.0
 71
     7
 72
     5
  1
{\fＭＳ ゴシック|b0|i0|c128|p49;\W1.0;7}
  7
MTSTANDARD
 73
     1
 44
0.78125
  0
ENDBLK
  5
155
330
153
100
AcDbEntity
  8
0
100
AcDbBlockEnd
  0
BLOCK
  5
163
330
162
100
AcDbEntity
  8
0
100
AcDbBlockBegin
  2
BALN0
 70
     0
 10
0.0
 20
0.0
 30
0.0
  3
BALN0
  1

  0
CIRCLE
  5
165
330
162
100
AcDbEntity
  8
1
  6
ByBlock
 62
     3
100
AcDbCircle
 10
31.92863491569926
 20
-14.48836679602118
 30
0.0
 40
8.0
  0
MTEXT
  5
166
330
162
100
AcDbEntity
  8
1
  6
Continuous
 62
     2
100
AcDbMText
 10
29.92863491569926
 20
-18.48836679602118
 30
0.0
 40
8.0
 41
0.0
 71
     7
 72
     5
  1
{\fＭＳ ゴシック|b0|i0|c128|p49;\W1.0;5}
  7
MTSTANDARD
 73
     1
 44
0.9375
  0
LEADER
  5
168
330
162
100
AcDbEntity
  8
1
  6
ByBlock
 62
     3
100
AcDbLeader
  3
DIMSTYEX_1
 76
     2
 10
0.0
 20
0.0
 30
0.0
 10
24.64358592112513
 20
-11.18260498568844
 30
0.0
1001
ACAD
1000
DSTYLE
1002
{
1070
   176
1070
     0
1002
}
  0
ENDBLK
  5
164
330
162
100
AcDbEntity
  8
0
100
AcDbBlockEnd
  0
BLOCK
  5
16B
330
16A
100
AcDbEntity
  8
0
100
AcDbBlockBegin
  2
BALN1
 70
     0
 10
0.0
 20
0.0
 30
0.0
  3
BALN1
  1

  0
CIRCLE
  5
16D
330
16A
100
AcDbEntity
  8
1
  6
ByBlock
 62
     3
100
AcDbCircle
 10
44.0587874541003
 20
-6.071199191109372
 30
0.0
 40
8.0
  0
MTEXT
  5
16E
330
16A
100
AcDbEntity
  8
1
  6
Continuous
 62
     2
100
AcDbMText
 10
42.0587874541003
 20
-10.07119919110937
 30
0.0
 40
8.0
 41
0.0
 71
     7
 72
     5
  1
{\fＭＳ ゴシック|b0|i0|c128|p49;\W1.0;6}
  7
MTSTANDARD
 73
     1
 44
0.9375
  0
LEADER
  5
170
330
16A
100
AcDbEntity
  8
1
  6
ByBlock
 62
     3
100
AcDbLeader
  3
DIMSTYEX_2
 76
     2
 10
0.0
 20
0.0
 30
0.0
 10
36.13367544931892
 20
-4.979137053834142
 30
0.0
1001
ACAD
1000
DSTYLE
1002
{
1070
   176
1070
     0
1002
}
  0
ENDBLK
  5
16C
330
16A
100
AcDbEntity
  8
0
100
AcDbBlockEnd
  0
BLOCK
  5
173
330
172
100
AcDbEntity
  8
0
100
AcDbBlockBegin
  2
BALN2
 70
     0
 10
0.0
 20
0.0
 30
0.0
  3
BALN2
  1

  0
CIRCLE
  5
175
330
172
100
AcDbEntity
  8
1
  6
ByBlock
 62
     3
100
AcDbCircle
 10
19.89377690838649
 20
19.5677999102254
 30
0.0
 40
8.0
  0
MTEXT
  5
176
330
172
100
AcDbEntity
  8
1
  6
Continuous
 62
     2
100
AcDbMText
 10
17.89377690838649
 20
15.5677999102254
 30
0.0
 40
8.0
 41
0.0
 71
     7
 72
     5
  1
{\fＭＳ ゴシック|b0|i0|c128|p49;\W1.0;7}
  7
MTSTANDARD
 73
     1
 44
0.9375
  0
LEADER
  5
178
330
172
100
AcDbEntity
  8
1
  6
ByBlock
 62
     3
100
AcDbLeader
  3
DIMSTYEX_3
 76
     2
 10
0.0
 20
0.0
 30
0.0
 10
14.19038813885219
 20
13.95786617233241
 30
0.0
1001
ACAD
1000
DSTYLE
1002
{
1070
   176
1070
     0
1002
}
  0
ENDBLK
  5
174
330
172
100
AcDbEntity
  8
0
100
AcDbBlockEnd
  0
BLOCK
  5
180
330
17F
100
AcDbEntity
  8
0
100
AcDbBlockBegin
  2
BLK1
 70
     0
 10
261.4134542146363
 20
-1572.04487084919
 30
0.0
  3
BLK1
  1

  0
LINE
  5
182
330
17F
100
AcDbEntity
  8
1
  6
PHANTOM2
 62
     7
100
AcDbLine
 10
318.4134542146379
 20
-1572.04487084919
 30
0.0
 11
311.4134542146363
 21
-1572.04487084919
 31
0.0
  0
LINE
  5
183
330
17F
100
AcDbEntity
  8
1
  6
PHANTOM2
 62
     7
100
AcDbLine
 10
211.4134542146363
 20
-1572.04487084919
 30
0.0
 11
204.4134542146344
 21
-1572.04487084919
 31
0.0
  0
LINE
  5
184
330
17F
100
AcDbEntity
  8
1
  6
PHANTOM2
 62
     7
100
AcDbLine
 10
204.4134542146344
 20
-1525.844870848891
 30
0.0
 11
204.4134542146344
 21
-1572.04487084919
 31
0.0
  0
LINE
  5
185
330
17F
100
AcDbEntity
  8
1
  6
PHANTOM2
 62
     7
100
AcDbLine
 10
318.4134542146344
 20
-1525.844870849139
 30
0.0
 11
318.4134542146381
 21
-1572.04487084919
 31
0.0
  0
LINE
  5
186
330
17F
100
AcDbEntity
  8
1
  6
PHANTOM2
 62
     7
100
AcDbLine
 10
316.5307042146379
 20
-1518.044870849192
 30
0.0
 11
316.7744542146361
 21
-1525.844870849139
 31
0.0
  0
LINE
  5
187
330
17F
100
AcDbEntity
  8
1
  6
PHANTOM2
 62
     7
100
AcDbLine
 10
318.0097042146378
 20
-1518.044870849192
 30
0.0
 11
318.2534542146362
 21
-1525.844870849139
 31
0.0
  0
LINE
  5
188
330
17F
100
AcDbEntity
  8
1
  6
PHANTOM2
 62
     7
100
AcDbLine
 10
211.4134542146363
 20
-1490.044870849188
 30
0.0
 11
211.4134542146363
 21
-1572.04487084919
 31
0.0
  0
LINE
  5
189
330
17F
100
AcDbEntity
  8
1
  6
PHANTOM2
 62
     7
100
AcDbLine
 10
311.4134542146363
 20
-1518.044870849192
 30
0.0
 11
311.4134542146363
 21
-1572.04487084919
 31
0.0
  0
LINE
  5
18A
330
17F
100
AcDbEntity
  8
1
  6
PHANTOM2
 62
     7
100
AcDbLine
 10
318.4134542146228
 20
-1525.844870849139
 30
0.0
 11
316.7744542146361
 21
-1525.844870849139
 31
0.0
  0
LINE
  5
18B
330
17F
100
AcDbEntity
  8
1
  6
PHANTOM2
 62
     7
100
AcDbLine
 10
205.6922042146362
 20
-1490.044870849139
 30
0.0
 11
211.4134542146363
 21
-1490.044870849188
 31
0.0
  0
LINE
  5
18C
330
17F
100
AcDbEntity
  8
1
  6
PHANTOM2
 62
     7
100
AcDbLine
 10
207.1712042146347
 20
-1490.044870849188
 30
0.0
 11
206.0524542146364
 21
-1525.844870849139
 31
0.0
  0
LINE
  5
18D
330
17F
100
AcDbEntity
  8
1
  6
PHANTOM2
 62
     7
100
AcDbLine
 10
205.6922042146348
 20
-1490.044870849188
 30
0.0
 11
204.5734542146363
 21
-1525.844870849139
 31
0.0
  0
LINE
  5
18E
330
17F
100
AcDbEntity
  8
1
  6
PHANTOM2
 62
     7
100
AcDbLine
 10
204.4134542146497
 20
-1525.844870849139
 30
0.0
 11
206.0524542146364
 21
-1525.844870849139
 31
0.0
  0
ENDBLK
  5
181
330
17F
100
AcDbEntity
  8
0
100
AcDbBlockEnd
  0
BLOCK
  5
194
330
193
100
AcDbEntity
  8
0
100
AcDbBlockBegin
  2
_D1
 70
     0
 10
0.0
 20
0.0
 30
0.0
  3
_D1
  1

  0
LINE
  5
196
330
193
100
AcDbEntity
  8
1
  6
ByBlock
 62
     3
100
AcDbLine
 10
141.9134542146322
 20
-1532.044870849189
 30
0.0
 11
116.0386069467109
 21
-1532.044870849189
 31
0.0
  0
LINE
  5
197
330
193
100
AcDbEntity
  8
1
  6
ByBlock
 62
     3
100
AcDbLine
 10
118.0386069467109
 20
-1532.044870849189
 30
0.0
 11
118.0386069467109
 21
-1464.044870849146
 31
0.0
  0
LINE
  5
198
330
193
100
AcDbEntity
  8
1
  6
ByBlock
 62
     3
100
AcDbLine
 10
165.4134542146289
 20
-1464.044870849146
 30
0.0
 11
116.0386069467109
 21
-1464.044870849146
 31
0.0
  0
INSERT
  5
199
330
193
100
AcDbEntity
  8
1
  6
ByBlock
 62
     3
100
AcDbBlockReference
  2
_OPEN30
 10
118.0386069467109
 20
-1532.044870849189
 30
0.0
 41
3.939231012048822
 42
3.939231012048822
 43
3.939231012048822
 50
270.0
  0
INSERT
  5
19A
330
193
100
AcDbEntity
  8
1
  6
ByBlock
 62
     3
100
AcDbBlockReference
  2
_OPEN30
 10
118.0386069467109
 20
-1464.044870849146
 30
0.0
 41
3.939231012048822
 42
3.939231012048822
 43
3.939231012048822
 50
90.0
  0
MTEXT
  5
19C
330
193
100
AcDbEntity
  8
1
  6
Continuous
 62
     2
100
AcDbMText
 10
116.0386069467109
 20
-1539.544870849168
 30
0.0
 40
8.0
 41
0.0
 71
     7
 72
     5
  1
ＹＤＧ　Ｌ＝８２ｍｍの時\P（７０～１０２）
  7
MTSTANDARD6
 11
0.0
 21
1.0
 31
0.0
 73
     1
 44
0.9375
  0
POINT
  5
19D
330
193
100
AcDbEntity
  8
DEFPOINTS
  6
ByBlock
 62
     3
100
AcDbPoint
 10
143.9134542146322
 20
-1532.044870849189
 30
0.0
  0
POINT
  5
19E
330
193
100
AcDbEntity
  8
DEFPOINTS
  6
ByBlock
 62
     3
100
AcDbPoint
 10
167.4134542146289
 20
-1464.044870849146
 30
0.0
  0
POINT
  5
19F
330
193
100
AcDbEntity
  8
DEFPOINTS
  6
ByBlock
 62
     3
100
AcDbPoint
 10
118.0386069467109
 20
-1464.044870849146
 30
0.0
  0
ENDBLK
  5
195
330
193
100
AcDbEntity
  8
0
100
AcDbBlockEnd
  0
BLOCK
  5
1A3
330
1A2
100
AcDbEntity
  8
0
100
AcDbBlockBegin
  2
BLK2
 70
     0
 10
261.4134542146364
 20
-1240.589354817974
 30
0.0
  3
BLK2
  1

  0
CIRCLE
  5
1A5
330
1A2
100
AcDbEntity
  8
1
  6
Continuous
 62
     7
100
AcDbCircle
 10
261.4134542146364
 20
-1240.589354817974
 30
0.0
 40
84.99999999992494
  0
CIRCLE
  5
1A6
330
1A2
100
AcDbEntity
  8
1
  6
Continuous
 62
     7
100
AcDbCircle
 10
261.4134542146364
 20
-1240.589354817974
 30
0.0
 40
94.00000000000021
  0
CIRCLE
  5
1A7
330
1A2
100
AcDbEntity
  8
1
  6
Continuous
 62
     7
100
AcDbCircle
 10
261.4134542146364
 20
-1240.589354817974
 30
0.0
 40
57.00000000000728
  0
CIRCLE
  5
1A8
330
1A2
100
AcDbEntity
  8
1
  6
Continuous
 62
     7
100
AcDbCircle
 10
261.4134542146364
 20
-1240.589354817974
 30
0.0
 40
56.75000000000728
  0
ARC
  5
1A9
330
1A2
100
AcDbEntity
  8
1
  6
Continuous
 62
     7
100
AcDbCircle
 10
261.4134542146364
 20
-1240.589354817974
 30
0.0
 40
52.75000000000001
100
AcDbArc
 50
126.2496475208811
 51
174.1495643479088
  0
ARC
  5
1AA
330
1A2
100
AcDbEntity
  8
1
  6
Continuous
 62
     7
100
AcDbCircle
 10
261.4134542146364
 20
-1240.589354817974
 30
0.0
 40
52.75000000000001
100
AcDbArc
 50
66.2496475208809
 51
113.7503524791191
  0
ARC
  5
1AB
330
1A2
100
AcDbEntity
  8
1
  6
Continuous
 62
     7
100
AcDbCircle
 10
261.4134542146364
 20
-1240.589354817974
 30
0.0
 40
46.00000000000001
100
AcDbArc
 50
126.2496475208809
 51
173.7503524791189
  0
ARC
  5
1AC
330
1A2
100
AcDbEntity
  8
1
  6
Continuous
 62
     7
100
AcDbCircle
 10
261.4134542146364
 20
-1240.589354817974
 30
0.0
 40
46.00000000000001
100
AcDbArc
 50
66.2496475208808
 51
113.7503524791192
  0
ARC
  5
1AD
330
1A2
100
AcDbEntity
  8
1
  6
Continuous
 62
     7
100
AcDbCircle
 10
261.4134542146364
 20
-1240.589354817974
 30
0.0
 40
42.0
100
AcDbArc
 50
67.66835499077851
 51
112.3316450092214
  0
LINE
  5
1AE
330
1A2
100
AcDbEntity
  8
1
  6
Continuous
 62
     7
100
AcDbLine
 10
246.2147700610657
 20
-1205.589354817974
 30
0.0
 11
276.612138368207
 21
-1205.589354817974
 31
0.0
  0
LINE
  5
1AF
330
1A2
100
AcDbEntity
  8
1
  6
Continuous
 62
     7
100
AcDbLine
 10
234.4690670440215
 20
-1209.589354817974
 30
0.0
 11
255.9134542146361
 21
-1209.589354817974
 31
0.0
  0
LINE
  5
1B0
330
1A2
100
AcDbEntity
  8
1
  6
Continuous
 62
     7
100
AcDbLine
 10
255.9134542146361
 20
-1216.589354817974
 30
0.0
 11
234.4690670440215
 21
-1216.589354817974
 31
0.0
  0
ARC
  5
1B1
330
1A2
100
AcDbEntity
  8
1
  6
Continuous
 62
     7
100
AcDbCircle
 10
246.2147700610657
 20
-1203.589354817974
 30
0.0
 40
2.0
100
AcDbArc
 50
112.3316450092191
 51
270.0
  0
ARC
  5
1B2
330
1A2
100
AcDbEntity
  8
1
  6
Continuous
 62
     7
100
AcDbCircle
 10
255.9134542146361
 20
-1213.089354817974
 30
0.0
 40
3.500000000000139
100
AcDbArc
 50
270.0
 51
90.0
  0
LINE
  5
1B3
330
1A2
100
AcDbEntity
  8
1
  6
Continuous
 62
     7
100
AcDbLine
 10
226.6283999527843
 20
-1220.589354817974
 30
0.0
 11
255.9134542146361
 21
-1220.589354817974
 31
0.0
  0
LINE
  5
1B4
330
1A2
100
AcDbEntity
  8
1
  6
Continuous
 62
     7
100
AcDbLine
 10
255.9134542146361
 20
-1227.589354817974
 30
0.0
 11
226.6283999527843
 21
-1227.589354817974
 31
0.0
  0
ARC
  5
1B5
330
1A2
100
AcDbEntity
  8
1
  6
Continuous
 62
     7
100
AcDbCircle
 10
255.9134542146361
 20
-1224.089354817974
 30
0.0
 40
3.500000000000139
100
AcDbArc
 50
270.0
 51
90.0
  0
LINE
  5
1B6
330
1A2
100
AcDbEntity
  8
1
  6
Continuous
 62
     7
100
AcDbLine
 10
223.308336448121
 20
-1231.589354817974
 30
0.0
 11
255.9134542146361
 21
-1231.589354817974
 31
0.0
  0
LINE
  5
1B7
330
1A2
100
AcDbEntity
  8
1
  6
Continuous
 62
     7
100
AcDbLine
 10
255.9134542146361
 20
-1238.589354817974
 30
0.0
 11
223.308336448121
 21
-1238.589354817974
 31
0.0
  0
ARC
  5
1B8
330
1A2
100
AcDbEntity
  8
1
  6
Continuous
 62
     7
100
AcDbCircle
 10
255.9134542146361
 20
-1235.089354817974
 30
0.0
 40
3.500000000000139
100
AcDbArc
 50
270.0
 51
90.0
  0
ARC
  5
1B9
330
1A2
100
AcDbEntity
  8
1
  6
Continuous
 62
     7
100
AcDbCircle
 10
234.4690670440215
 20
-1213.089354817974
 30
0.0
 40
3.5
100
AcDbArc
 50
90.0
 51
270.0
  0
ARC
  5
1BA
330
1A2
100
AcDbEntity
  8
1
  6
Continuous
 62
     7
100
AcDbCircle
 10
226.6283999527843
 20
-1224.089354817974
 30
0.0
 40
3.5
100
AcDbArc
 50
90.0
 51
270.0
  0
ARC
  5
1BB
330
1A2
100
AcDbEntity
  8
1
  6
Continuous
 62
     7
100
AcDbCircle
 10
223.308336448121
 20
-1235.089354817974
 30
0.0
 40
3.5
100
AcDbArc
 50
90.0
 51
270.0
  0
ARC
  5
1BC
330
1A2
100
AcDbEntity
  8
1
  6
Continuous
 62
     7
100
AcDbCircle
 10
241.5275583763616
 20
-1195.395972872059
 30
0.0
 40
3.375000000000006
100
AcDbArc
 50
113.7503524791201
 51
293.750352479117
  0
ARC
  5
1BD
330
1A2
100
AcDbEntity
  8
1
  6
Continuous
 62
     7
100
AcDbCircle
 10
232.2177852856789
 20
-1200.77097287206
 30
0.0
 40
3.375000000000028
100
AcDbArc
 50
306.2496475208827
 51
126.2496475208827
  0
ARC
  5
1BE
330
1A2
100
AcDbEntity
  8
1
  6
Continuous
 62
     7
100
AcDbCircle
 10
212.3318894474043
 20
-1235.214354817974
 30
0.0
 40
3.375000000000047
100
AcDbArc
 50
180.0
 51
353.7503524791174
  0
ARC
  5
1BF
330
1A2
100
AcDbEntity
  8
1
  6
Continuous
 62
     7
100
AcDbCircle
 10
261.4134542146364
 20
-1240.589354817974
 30
0.0
 40
52.75000000000001
100
AcDbArc
 50
5.85043565209124
 51
53.75035247911892
  0
ARC
  5
1C0
330
1A2
100
AcDbEntity
  8
1
  6
Continuous
 62
     7
100
AcDbCircle
 10
261.4134542146364
 20
-1240.589354817974
 30
0.0
 40
46.00000000000001
100
AcDbArc
 50
6.249647520881369
 51
53.75035247911916
  0
LINE
  5
1C1
330
1A2
100
AcDbEntity
  8
1
  6
Continuous
 62
     7
100
AcDbLine
 10
288.3578413852512
 20
-1209.589354817974
 30
0.0
 11
266.9134542146366
 21
-1209.589354817974
 31
0.0
  0
LINE
  5
1C2
330
1A2
100
AcDbEntity
  8
1
  6
Continuous
 62
     7
100
AcDbLine
 10
266.9134542146366
 20
-1216.589354817974
 30
0.0
 11
288.3578413852512
 21
-1216.589354817974
 31
0.0
  0
ARC
  5
1C3
330
1A2
100
AcDbEntity
  8
1
  6
Continuous
 62
     7
100
AcDbCircle
 10
276.612138368207
 20
-1203.589354817974
 30
0.0
 40
2.0
100
AcDbArc
 50
270.0
 51
67.66835499077844
  0
ARC
  5
1C4
330
1A2
100
AcDbEntity
  8
1
  6
Continuous
 62
     7
100
AcDbCircle
 10
266.9134542146366
 20
-1213.089354817974
 30
0.0
 40
3.500000000000139
100
AcDbArc
 50
90.0
 51
270.0
  0
LINE
  5
1C5
330
1A2
100
AcDbEntity
  8
1
  6
Continuous
 62
     7
100
AcDbLine
 10
296.1985084764885
 20
-1220.589354817974
 30
0.0
 11
266.9134542146366
 21
-1220.589354817974
 31
0.0
  0
LINE
  5
1C6
330
1A2
100
AcDbEntity
  8
1
  6
Continuous
 62
     7
100
AcDbLine
 10
266.9134542146366
 20
-1227.589354817974
 30
0.0
 11
296.1985084764885
 21
-1227.589354817974
 31
0.0
  0
ARC
  5
1C7
330
1A2
100
AcDbEntity
  8
1
  6
Continuous
 62
     7
100
AcDbCircle
 10
266.9134542146366
 20
-1224.089354817974
 30
0.0
 40
3.500000000000139
100
AcDbArc
 50
90.0
 51
270.0
  0
LINE
  5
1C8
330
1A2
100
AcDbEntity
  8
1
  6
Continuous
 62
     7
100
AcDbLine
 10
299.5185719811518
 20
-1231.589354817974
 30
0.0
 11
266.9134542146366
 21
-1231.589354817974
 31
0.0
  0
LINE
  5
1C9
330
1A2
100
AcDbEntity
  8
1
  6
Continuous
 62
     7
100
AcDbLine
 10
266.9134542146366
 20
-1238.589354817974
 30
0.0
 11
299.5185719811518
 21
-1238.589354817974
 31
0.0
  0
ARC
  5
1CA
330
1A2
100
AcDbEntity
  8
1
  6
Continuous
 62
     7
100
AcDbCircle
 10
266.9134542146366
 20
-1235.089354817974
 30
0.0
 40
3.500000000000139
100
AcDbArc
 50
90.0
 51
270.0
  0
ARC
  5
1CB
330
1A2
100
AcDbEntity
  8
1
  6
Continuous
 62
     7
100
AcDbCircle
 10
288.3578413852512
 20
-1213.089354817974
 30
0.0
 40
3.5
100
AcDbArc
 50
270.0
 51
90.0
  0
ARC
  5
1CC
330
1A2
100
AcDbEntity
  8
1
  6
Continuous
 62
     7
100
AcDbCircle
 10
296.1985084764885
 20
-1224.089354817974
 30
0.0
 40
3.5
100
AcDbArc
 50
270.0
 51
90.0
  0
ARC
  5
1CD
330
1A2
100
AcDbEntity
  8
1
  6
Continuous
 62
     7
100
AcDbCircle
 10
299.5185719811518
 20
-1235.089354817974
 30
0.0
 40
3.5
100
AcDbArc
 50
270.0
 51
90.0
  0
ARC
  5
1CE
330
1A2
100
AcDbEntity
  8
1
  6
Continuous
 62
     7
100
AcDbCircle
 10
281.2993500529112
 20
-1195.395972872059
 30
0.0
 40
3.375000000000006
100
AcDbArc
 50
246.249647520883
 51
66.24964752087988
  0
ARC
  5
1CF
330
1A2
100
AcDbEntity
  8
1
  6
Continuous
 62
     7
100
AcDbCircle
 10
290.6091231435939
 20
-1200.77097287206
 30
0.0
 40
3.375000000000028
100
AcDbArc
 50
53.75035247911955
 51
233.750352479115
  0
ARC
  5
1D0
330
1A2
100
AcDbEntity
  8
1
  6
Continuous
 62
     7
100
AcDbCircle
 10
310.4950189818684
 20
-1235.214354817974
 30
0.0
 40
3.375000000000047
100
AcDbArc
 50
186.249647520875
 51
0.0
  0
ARC
  5
1D1
330
1A2
100
AcDbEntity
  8
1
  6
Continuous
 62
     7
100
AcDbCircle
 10
261.4134542146365
 20
-1240.589354817972
 30
0.0
 40
52.75000000000001
100
AcDbArc
 50
185.8504356520912
 51
233.7503524791189
  0
ARC
  5
1D2
330
1A2
100
AcDbEntity
  8
1
  6
Continuous
 62
     7
100
AcDbCircle
 10
261.4134542146365
 20
-1240.589354817972
 30
0.0
 40
52.75000000000001
100
AcDbArc
 50
246.2496475208809
 51
293.7503524791191
  0
ARC
  5
1D3
330
1A2
100
AcDbEntity
  8
1
  6
Continuous
 62
     7
100
AcDbCircle
 10
261.4134542146365
 20
-1240.589354817972
 30
0.0
 40
46.00000000000001
100
AcDbArc
 50
186.249647520881
 51
233.7503524791191
  0
ARC
  5
1D4
330
1A2
100
AcDbEntity
  8
1
  6
Continuous
 62
     7
100
AcDbCircle
 10
261.4134542146365
 20
-1240.589354817972
 30
0.0
 40
46.00000000000001
100
AcDbArc
 50
246.2496475208808
 51
293.7503524791192
  0
ARC
  5
1D5
330
1A2
100
AcDbEntity
  8
1
  6
Continuous
 62
     7
100
AcDbCircle
 10
261.4134542146365
 20
-1240.589354817972
 30
0.0
 40
42.0
100
AcDbArc
 50
247.6683549907786
 51
292.3316450092215
  0
LINE
  5
1D6
330
1A2
100
AcDbEntity
  8
1
  6
Continuous
 62
     7
100
AcDbLine
 10
246.2147700610656
 20
-1275.589354817972
 30
0.0
 11
276.6121383682069
 21
-1275.589354817972
 31
0.0
  0
LINE
  5
1D7
330
1A2
100
AcDbEntity
  8
1
  6
Continuous
 62
     7
100
AcDbLine
 10
234.4690670440216
 20
-1271.589354817972
 30
0.0
 11
255.913454214636
 21
-1271.589354817972
 31
0.0
  0
LINE
  5
1D8
330
1A2
100
AcDbEntity
  8
1
  6
Continuous
 62
     7
100
AcDbLine
 10
255.913454214636
 20
-1264.589354817972
 30
0.0
 11
234.4690670440216
 21
-1264.589354817972
 31
0.0
  0
ARC
  5
1D9
330
1A2
100
AcDbEntity
  8
1
  6
Continuous
 62
     7
100
AcDbCircle
 10
246.2147700610656
 20
-1277.589354817972
 30
0.0
 40
2.0
100
AcDbArc
 50
90.0
 51
247.6683549907869
  0
ARC
  5
1DA
330
1A2
100
AcDbEntity
  8
1
  6
Continuous
 62
     7
100
AcDbCircle
 10
255.913454214636
 20
-1268.089354817972
 30
0.0
 40
3.500000000000139
100
AcDbArc
 50
270.0
 51
90.0
  0
LINE
  5
1DB
330
1A2
100
AcDbEntity
  8
1
  6
Continuous
 62
     7
100
AcDbLine
 10
226.6283999527844
 20
-1260.589354817972
 30
0.0
 11
255.913454214636
 21
-1260.589354817972
 31
0.0
  0
LINE
  5
1DC
330
1A2
100
AcDbEntity
  8
1
  6
Continuous
 62
     7
100
AcDbLine
 10
255.913454214636
 20
-1253.589354817972
 30
0.0
 11
226.6283999527844
 21
-1253.589354817972
 31
0.0
  0
ARC
  5
1DD
330
1A2
100
AcDbEntity
  8
1
  6
Continuous
 62
     7
100
AcDbCircle
 10
255.913454214636
 20
-1257.089354817972
 30
0.0
 40
3.500000000000139
100
AcDbArc
 50
270.0
 51
90.0
  0
LINE
  5
1DE
330
1A2
100
AcDbEntity
  8
1
  6
Continuous
 62
     7
100
AcDbLine
 10
223.3083364481211
 20
-1249.589354817972
 30
0.0
 11
255.913454214636
 21
-1249.589354817972
 31
0.0
  0
LINE
  5
1DF
330
1A2
100
AcDbEntity
  8
1
  6
Continuous
 62
     7
100
AcDbLine
 10
255.913454214636
 20
-1242.589354817972
 30
0.0
 11
223.3083364481211
 21
-1242.589354817972
 31
0.0
  0
ARC
  5
1E0
330
1A2
100
AcDbEntity
  8
1
  6
Continuous
 62
     7
100
AcDbCircle
 10
255.913454214636
 20
-1246.089354817972
 30
0.0
 40
3.500000000000139
100
AcDbArc
 50
270.0
 51
90.0
  0
ARC
  5
1E1
330
1A2
100
AcDbEntity
  8
1
  6
Continuous
 62
     7
100
AcDbCircle
 10
234.4690670440216
 20
-1268.089354817972
 30
0.0
 40
3.5
100
AcDbArc
 50
90.0
 51
270.0
  0
ARC
  5
1E2
330
1A2
100
AcDbEntity
  8
1
  6
Continuous
 62
     7
100
AcDbCircle
 10
226.6283999527844
 20
-1257.089354817972
 30
0.0
 40
3.5
100
AcDbArc
 50
90.0
 51
270.0
  0
ARC
  5
1E3
330
1A2
100
AcDbEntity
  8
1
  6
Continuous
 62
     7
100
AcDbCircle
 10
223.3083364481211
 20
-1246.089354817972
 30
0.0
 40
3.5
100
AcDbArc
 50
90.0
 51
270.0
  0
ARC
  5
1E4
330
1A2
100
AcDbEntity
  8
1
  6
Continuous
 62
     7
100
AcDbCircle
 10
241.5275583763617
 20
-1285.782736763887
 30
0.0
 40
3.375000000000006
100
AcDbArc
 50
66.24964752088299
 51
246.2496475208798
  0
ARC
  5
1E5
330
1A2
100
AcDbEntity
  8
1
  6
Continuous
 62
     7
100
AcDbCircle
 10
232.2177852856788
 20
-1280.407736763887
 30
0.0
 40
3.375000000000028
100
AcDbArc
 50
233.7503524791204
 51
53.75035247911416
  0
ARC
  5
1E6
330
1A2
100
AcDbEntity
  8
1
  6
Continuous
 62
     7
100
AcDbCircle
 10
212.3318894474044
 20
-1245.964354817972
 30
0.0
 40
3.375000000000047
100
AcDbArc
 50
6.249647520883062
 51
180.0
  0
ARC
  5
1E7
330
1A2
100
AcDbEntity
  8
1
  6
Continuous
 62
     7
100
AcDbCircle
 10
261.4134542146365
 20
-1240.589354817972
 30
0.0
 40
52.75000000000001
100
AcDbArc
 50
306.2496475208811
 51
354.1495643479087
  0
ARC
  5
1E8
330
1A2
100
AcDbEntity
  8
1
  6
Continuous
 62
     7
100
AcDbCircle
 10
261.4134542146365
 20
-1240.589354817972
 30
0.0
 40
46.00000000000001
100
AcDbArc
 50
306.2496475208808
 51
353.7503524791186
  0
LINE
  5
1E9
330
1A2
100
AcDbEntity
  8
1
  6
Continuous
 62
     7
100
AcDbLine
 10
288.3578413852513
 20
-1271.589354817972
 30
0.0
 11
266.9134542146365
 21
-1271.589354817972
 31
0.0
  0
LINE
  5
1EA
330
1A2
100
AcDbEntity
  8
1
  6
Continuous
 62
     7
100
AcDbLine
 10
266.9134542146365
 20
-1264.589354817972
 30
0.0
 11
288.3578413852513
 21
-1264.589354817972
 31
0.0
  0
ARC
  5
1EB
330
1A2
100
AcDbEntity
  8
1
  6
Continuous
 62
     7
100
AcDbCircle
 10
276.6121383682069
 20
-1277.589354817972
 30
0.0
 40
2.0
100
AcDbArc
 50
292.3316450092275
 51
90.0
  0
ARC
  5
1EC
330
1A2
100
AcDbEntity
  8
1
  6
Continuous
 62
     7
100
AcDbCircle
 10
266.9134542146365
 20
-1268.089354817972
 30
0.0
 40
3.500000000000139
100
AcDbArc
 50
90.0
 51
270.0
  0
LINE
  5
1ED
330
1A2
100
AcDbEntity
  8
1
  6
Continuous
 62
     7
100
AcDbLine
 10
296.1985084764886
 20
-1260.589354817972
 30
0.0
 11
266.9134542146365
 21
-1260.589354817972
 31
0.0
  0
LINE
  5
1EE
330
1A2
100
AcDbEntity
  8
1
  6
Continuous
 62
     7
100
AcDbLine
 10
266.9134542146365
 20
-1253.589354817972
 30
0.0
 11
296.1985084764886
 21
-1253.589354817972
 31
0.0
  0
ARC
  5
1EF
330
1A2
100
AcDbEntity
  8
1
  6
Continuous
 62
     7
100
AcDbCircle
 10
266.9134542146365
 20
-1257.089354817972
 30
0.0
 40
3.500000000000139
100
AcDbArc
 50
90.0
 51
270.0
  0
LINE
  5
1F0
330
1A2
100
AcDbEntity
  8
1
  6
Continuous
 62
     7
100
AcDbLine
 10
299.5185719811519
 20
-1249.589354817972
 30
0.0
 11
266.9134542146365
 21
-1249.589354817972
 31
0.0
  0
LINE
  5
1F1
330
1A2
100
AcDbEntity
  8
1
  6
Continuous
 62
     7
100
AcDbLine
 10
266.9134542146365
 20
-1242.589354817972
 30
0.0
 11
299.5185719811519
 21
-1242.589354817972
 31
0.0
  0
ARC
  5
1F2
330
1A2
100
AcDbEntity
  8
1
  6
Continuous
 62
     7
100
AcDbCircle
 10
266.9134542146365
 20
-1246.089354817972
 30
0.0
 40
3.500000000000139
100
AcDbArc
 50
90.0
 51
270.0
  0
ARC
  5
1F3
330
1A2
100
AcDbEntity
  8
1
  6
Continuous
 62
     7
100
AcDbCircle
 10
288.3578413852513
 20
-1268.089354817972
 30
0.0
 40
3.5
100
AcDbArc
 50
270.0
 51
90.0
  0
ARC
  5
1F4
330
1A2
100
AcDbEntity
  8
1
  6
Continuous
 62
     7
100
AcDbCircle
 10
296.1985084764886
 20
-1257.089354817972
 30
0.0
 40
3.5
100
AcDbArc
 50
270.0
 51
90.0
  0
ARC
  5
1F5
330
1A2
100
AcDbEntity
  8
1
  6
Continuous
 62
     7
100
AcDbCircle
 10
299.5185719811519
 20
-1246.089354817972
 30
0.0
 40
3.5
100
AcDbArc
 50
270.0
 51
90.0
  0
ARC
  5
1F6
330
1A2
100
AcDbEntity
  8
1
  6
Continuous
 62
     7
100
AcDbCircle
 10
281.2993500529113
 20
-1285.782736763887
 30
0.0
 40
3.375000000000006
100
AcDbArc
 50
293.7503524791202
 51
113.750352479117
  0
ARC
  5
1F7
330
1A2
100
AcDbEntity
  8
1
  6
Continuous
 62
     7
100
AcDbCircle
 10
290.6091231435938
 20
-1280.407736763886
 30
0.0
 40
3.375000000000028
100
AcDbArc
 50
126.2496475208819
 51
306.2496475208835
  0
ARC
  5
1F8
330
1A2
100
AcDbEntity
  8
1
  6
Continuous
 62
     7
100
AcDbCircle
 10
310.4950189818686
 20
-1245.964354817972
 30
0.0
 40
3.375000000000047
100
AcDbArc
 50
0.0
 51
173.7503524791254
  0
ENDBLK
  5
1A4
330
1A2
100
AcDbEntity
  8
0
100
AcDbBlockEnd
  0
BLOCK
  5
222
330
221
100
AcDbEntity
  8
0
100
AcDbBlockBegin
  2
_D2
 70
     0
 10
0.0
 20
0.0
 30
0.0
  3
_D2
  1

  0
LINE
  5
224
330
221
100
AcDbEntity
  8
1
  6
ByBlock
 62
     3
100
AcDbLine
 10
177.413454214635
 20
-1462.044870849189
 30
0.0
 11
177.413454214635
 21
-1421.821405455373
 31
0.0
  0
LINE
  5
225
330
221
100
AcDbEntity
  8
1
  6
ByBlock
 62
     3
100
AcDbLine
 10
177.413454214635
 20
-1423.821405455373
 30
0.0
 11
281.9134542146361
 21
-1423.821405455373
 31
0.0
  0
INSERT
  5
226
330
221
100
AcDbEntity
  8
1
  6
ByBlock
 62
     3
100
AcDbBlockReference
  2
_OPEN30
 10
177.413454214635
 20
-1423.821405455373
 30
0.0
 41
3.939231012048822
 42
3.939231012048822
 43
3.939231012048822
 50
180.0
  0
MTEXT
  5
227
330
221
100
AcDbEntity
  8
1
  6
Continuous
 62
     2
100
AcDbMText
 10
247.9134542146361
 20
-1423.821405455373
 30
0.0
 40
8.0
 41
0.0
 71
     7
 72
     5
  1
φ１６８
  7
MTSTANDARD6
 73
     1
 44
0.9375
  0
POINT
  5
228
330
221
100
AcDbEntity
  8
DEFPOINTS
  6
ByBlock
 62
     3
100
AcDbPoint
 10
177.413454214635
 20
-1423.821405455373
 30
0.0
  0
POINT
  5
229
330
221
100
AcDbEntity
  8
DEFPOINTS
  6
ByBlock
 62
     3
100
AcDbPoint
 10
177.413454214635
 20
-1464.044870849189
 30
0.0
  0
POINT
  5
22A
330
221
100
AcDbEntity
  8
DEFPOINTS
  6
ByBlock
 62
     3
100
AcDbPoint
 10
345.4134542146373
 20
-1464.044870849196
 30
0.0
  0
ENDBLK
  5
223
330
221
100
AcDbEntity
  8
0
100
AcDbBlockEnd
  0
BLOCK
  5
22E
330
22D
100
AcDbEntity
  8
0
100
AcDbBlockBegin
  2
_D3
 70
     0
 10
0.0
 20
0.0
 30
0.0
  3
_D3
  1

  0
LINE
  5
230
330
22D
100
AcDbEntity
  8
1
  6
ByBlock
 62
     3
100
AcDbLine
 10
167.4134542146288
 20
-1462.044870849146
 30
0.0
 11
167.4134542146289
 21
-1407.821405455373
 31
0.0
  0
LINE
  5
231
330
22D
100
AcDbEntity
  8
1
  6
ByBlock
 62
     3
100
AcDbLine
 10
167.4134542146289
 20
-1409.821405455373
 30
0.0
 11
355.4134542146414
 21
-1409.821405455373
 31
0.0
  0
LINE
  5
232
330
22D
100
AcDbEntity
  8
1
  6
ByBlock
 62
     3
100
AcDbLine
 10
355.4134542146414
 20
-1462.044870849169
 30
0.0
 11
355.4134542146413
 21
-1407.821405455373
 31
0.0
  0
INSERT
  5
233
330
22D
100
AcDbEntity
  8
1
  6
ByBlock
 62
     3
100
AcDbBlockReference
  2
_OPEN30
 10
167.4134542146289
 20
-1409.821405455373
 30
0.0
 41
3.939231012048822
 42
3.939231012048822
 43
3.939231012048822
 50
180.0
  0
INSERT
  5
234
330
22D
100
AcDbEntity
  8
1
  6
ByBlock
 62
     3
100
AcDbBlockReference
  2
_OPEN30
 10
355.4134542146414
 20
-1409.821405455373
 30
0.0
 41
3.939231012048822
 42
3.939231012048822
 43
3.939231012048822
  0
MTEXT
  5
235
330
22D
100
AcDbEntity
  8
1
  6
Continuous
 62
     2
100
AcDbMText
 10
247.9134542146351
 20
-1409.821405455373
 30
0.0
 40
8.0
 41
0.0
 71
     7
 72
     5
  1
φ１８８
  7
MTSTANDARD6
 73
     1
 44
0.9375
  0
POINT
  5
236
330
22D
100
AcDbEntity
  8
DEFPOINTS
  6
ByBlock
 62
     3
100
AcDbPoint
 10
167.4134542146289
 20
-1464.044870849146
 30
0.0
  0
POINT
  5
237
330
22D
100
AcDbEntity
  8
DEFPOINTS
  6
ByBlock
 62
     3
100
AcDbPoint
 10
355.4134542146414
 20
-1464.044870849169
 30
0.0
  0
POINT
  5
238
330
22D
100
AcDbEntity
  8
DEFPOINTS
  6
ByBlock
 62
     3
100
AcDbPoint
 10
355.4134542146414
 20
-1409.821405455373
 30
0.0
  0
ENDBLK
  5
22F
330
22D
100
AcDbEntity
  8
0
100
AcDbBlockEnd
  0
BLOCK
  5
254
330
253
100
AcDbEntity
  8
0
100
AcDbBlockBegin
  2
_D4
 70
     0
 10
0.0
 20
0.0
 30
0.0
  3
_D4
  1

  0
LINE
  5
256
330
253
100
AcDbEntity
  8
1
  6
ByBlock
 62
     3
100
AcDbLine
 10
204.6634542146361
 20
-1462.044870849192
 30
0.0
 11
204.6634542146361
 21
-1435.821405455373
 31
0.0
  0
LINE
  5
257
330
253
100
AcDbEntity
  8
1
  6
ByBlock
 62
     3
100
AcDbLine
 10
204.6634542146361
 20
-1437.821405455373
 30
0.0
 11
286.9134542146368
 21
-1437.821405455373
 31
0.0
  0
INSERT
  5
258
330
253
100
AcDbEntity
  8
1
  6
ByBlock
 62
     3
100
AcDbBlockReference
  2
_OPEN30
 10
204.6634542146361
 20
-1437.821405455373
 30
0.0
 41
3.939231012048822
 42
3.939231012048822
 43
3.939231012048822
 50
180.0
  0
MTEXT
  5
259
330
253
100
AcDbEntity
  8
1
  6
Continuous
 62
     2
100
AcDbMText
 10
242.9134542146368
 20
-1437.821405455373
 30
0.0
 40
8.0
 41
0.0
 71
     7
 72
     5
  1
φ１１３．５
  7
MTSTANDARD6
 73
     1
 44
0.9375
  0
POINT
  5
25A
330
253
100
AcDbEntity
  8
DEFPOINTS
  6
ByBlock
 62
     3
100
AcDbPoint
 10
204.6634542146361
 20
-1437.821405455373
 30
0.0
  0
POINT
  5
25B
330
253
100
AcDbEntity
  8
DEFPOINTS
  6
ByBlock
 62
     3
100
AcDbPoint
 10
204.6634542146361
 20
-1464.044870849193
 30
0.0
  0
POINT
  5
25C
330
253
100
AcDbEntity
  8
DEFPOINTS
  6
ByBlock
 62
     3
100
AcDbPoint
 10
318.1634542146375
 20
-1464.044870849193
 30
0.0
  0
ENDBLK
  5
255
330
253
100
AcDbEntity
  8
0
100
AcDbBlockEnd
  0
BLOCK
  5
260
330
25F
100
AcDbEntity
  8
0
100
AcDbBlockBegin
  2
BALN3
 70
     0
 10
0.0
 20
0.0
 30
0.0
  3
BALN3
  1

  0
CIRCLE
  5
262
330
25F
100
AcDbEntity
  8
1
  6
ByBlock
 62
     3
100
AcDbCircle
 10
-13.38907238874367
 20
77.96742992753138
 30
0.0
 40
8.0
  0
MTEXT
  5
263
330
25F
100
AcDbEntity
  8
1
  6
Continuous
 62
     2
100
AcDbMText
 10
-15.38907238874367
 20
73.96742992753138
 30
0.0
 40
8.0
 41
0.0
 71
     7
 72
     5
  1
{\fＭＳ ゴシック|b0|i0|c128|p49;\W1.0;4}
  7
MTSTANDARD
 73
     1
 44
0.9375
  0
LEADER
  5
265
330
25F
100
AcDbEntity
  8
1
  6
ByBlock
 62
     3
100
AcDbLeader
  3
DIMSTYEX_9
 76
     2
 10
0.0
 20
0.0
 30
0.0
 10
-12.03508008725076
 20
70.08284339128879
 30
0.0
1001
ACAD
1000
DSTYLE
1002
{
1070
   176
1070
     0
1002
}
  0
ENDBLK
  5
261
330
25F
100
AcDbEntity
  8
0
100
AcDbBlockEnd
  0
BLOCK
  5
268
330
267
100
AcDbEntity
  8
0
100
AcDbBlockBegin
  2
BALN4
 70
     0
 10
0.0
 20
0.0
 30
0.0
  3
BALN4
  1

  0
CIRCLE
  5
26A
330
267
100
AcDbEntity
  8
1
  6
ByBlock
 62
     3
100
AcDbCircle
 10
4.589985591085735
 20
71.81144084171456
 30
0.0
 40
8.0
  0
MTEXT
  5
26B
330
267
100
AcDbEntity
  8
1
  6
Continuous
 62
     2
100
AcDbMText
 10
2.589985591085735
 20
67.81144084171456
 30
0.0
 40
8.0
 41
0.0
 71
     7
 72
     5
  1
{\fＭＳ ゴシック|b0|i0|c128|p49;\W1.0;2}
  7
MTSTANDARD
 73
     1
 44
0.9375
  0
LEADER
  5
26D
330
267
100
AcDbEntity
  8
1
  6
ByBlock
 62
     3
100
AcDbLeader
  3
DIMSTYEX_10
 76
     2
 10
0.0
 20
0.0
 30
0.0
 10
4.079689383341169
 20
63.82773256921602
 30
0.0
1001
ACAD
1000
DSTYLE
1002
{
1070
   176
1070
     0
1002
}
  0
ENDBLK
  5
269
330
267
100
AcDbEntity
  8
0
100
AcDbBlockEnd
  0
BLOCK
  5
270
330
26F
100
AcDbEntity
  8
0
100
AcDbBlockBegin
  2
BALN5
 70
     0
 10
0.0
 20
0.0
 30
0.0
  3
BALN5
  1

  0
CIRCLE
  5
272
330
26F
100
AcDbEntity
  8
1
  6
ByBlock
 62
     3
100
AcDbCircle
 10
10.01426614772964
 20
72.16323811295752
 30
0.0
 40
8.0
  0
MTEXT
  5
273
330
26F
100
AcDbEntity
  8
1
  6
Continuous
 62
     2
100
AcDbMText
 10
8.014266147729643
 20
68.16323811295752
 30
0.0
 40
8.0
 41
0.0
 71
     7
 72
     5
  1
{\fＭＳ ゴシック|b0|i0|c128|p49;\W1.0;3}
  7
MTSTANDARD
 73
     1
 44
0.9375
  0
LEADER
  5
275
330
26F
100
AcDbEntity
  8
1
  6
ByBlock
 62
     3
100
AcDbLeader
  3
DIMSTYEX_11
 76
     2
 10
0.0
 20
0.0
 30
0.0
 10
8.914624737636
 20
64.2391742080406
 30
0.0
1001
ACAD
1000
DSTYLE
1002
{
1070
   176
1070
     0
1002
}
  0
ENDBLK
  5
271
330
26F
100
AcDbEntity
  8
0
100
AcDbBlockEnd
  0
BLOCK
  5
278
330
277
100
AcDbEntity
  8
0
100
AcDbBlockBegin
  2
BALN6
 70
     0
 10
0.0
 20
0.0
 30
0.0
  3
BALN6
  1

  0
CIRCLE
  5
27A
330
277
100
AcDbEntity
  8
1
  6
ByBlock
 62
     3
100
AcDbCircle
 10
-13.16666666666561
 20
-19.99999999999955
 30
0.0
 40
8.0
  0
MTEXT
  5
27B
330
277
100
AcDbEntity
  8
1
  6
Continuous
 62
     2
100
AcDbMText
 10
-15.16666666666561
 20
-23.99999999999955
 30
0.0
 40
8.0
 41
0.0
 71
     7
 72
     5
  1
{\fＭＳ ゴシック|b0|i0|c128|p49;\W1.0;1}
  7
MTSTANDARD
 73
     1
 44
0.9375
  0
LEADER
  5
27D
330
277
100
AcDbEntity
  8
1
  6
ByBlock
 62
     3
100
AcDbLeader
  3
DIMSTYEX_12
 76
     2
 10
0.0
 20
0.0
 30
0.0
 10
-8.767689463266636
 20
-13.31800931129186
 30
0.0
1001
ACAD
1000
DSTYLE
1002
{
1070
   176
1070
     0
1002
}
  0
ENDBLK
  5
279
330
277
100
AcDbEntity
  8
0
100
AcDbBlockEnd
  0
BLOCK
  5
280
330
27F
100
AcDbEntity
  8
0
100
AcDbBlockBegin
  2
_D5
 70
     0
 10
0.0
 20
0.0
 30
0.0
  3
_D5
  1

  0
LINE
  5
282
330
27F
100
AcDbEntity
  8
1
  6
ByBlock
 62
     3
100
AcDbLine
 10
165.4134542146289
 20
-1464.044870849146
 30
0.0
 11
128.9626494916998
 21
-1464.044870849146
 31
0.0
  0
LINE
  5
283
330
27F
100
AcDbEntity
  8
1
  6
ByBlock
 62
     3
100
AcDbLine
 10
130.9626494916998
 20
-1464.044870849146
 30
0.0
 11
130.9626494916998
 21
-1518.044870849189
 31
0.0
  0
LINE
  5
284
330
27F
100
AcDbEntity
  8
1
  6
ByBlock
 62
     3
100
AcDbLine
 10
195.3030287395326
 20
-1518.044870849189
 30
0.0
 11
128.9626494916998
 21
-1518.044870849189
 31
0.0
  0
INSERT
  5
285
330
27F
100
AcDbEntity
  8
1
  6
ByBlock
 62
     3
100
AcDbBlockReference
  2
_OPEN30
 10
130.9626494916998
 20
-1464.044870849146
 30
0.0
 41
3.939231012048822
 42
3.939231012048822
 43
3.939231012048822
 50
90.0
  0
INSERT
  5
286
330
27F
100
AcDbEntity
  8
1
  6
ByBlock
 62
     3
100
AcDbBlockReference
  2
_OPEN30
 10
130.9626494916998
 20
-1518.044870849189
 30
0.0
 41
3.939231012048822
 42
3.939231012048822
 43
3.939231012048822
 50
270.0
  0
MTEXT
  5
287
330
27F
100
AcDbEntity
  8
1
  6
Continuous
 62
     2
100
AcDbMText
 10
130.9626494916998
 20
-1497.544870849167
 30
0.0
 40
8.0
 41
0.0
 71
     7
 72
     5
  1
５４
  7
MTSTANDARD6
 11
0.0
 21
1.0
 31
0.0
 73
     1
 44
0.9375
  0
POINT
  5
288
330
27F
100
AcDbEntity
  8
DEFPOINTS
  6
ByBlock
 62
     3
100
AcDbPoint
 10
167.4134542146289
 20
-1464.044870849146
 30
0.0
  0
POINT
  5
289
330
27F
100
AcDbEntity
  8
DEFPOINTS
  6
ByBlock
 62
     3
100
AcDbPoint
 10
197.3030287395326
 20
-1518.044870849189
 30
0.0
  0
POINT
  5
28A
330
27F
100
AcDbEntity
  8
DEFPOINTS
  6
ByBlock
 62
     3
100
AcDbPoint
 10
130.9626494916998
 20
-1518.044870849189
 30
0.0
  0
ENDBLK
  5
281
330
27F
100
AcDbEntity
  8
0
100
AcDbBlockEnd
  0
BLOCK
  5
305
330
304
100
AcDbEntity
  8
0
100
AcDbBlockBegin
  2
_D6
 70
     0
 10
0.0
 20
0.0
 30
0.0
  3
_D6
  1

  0
LINE
  5
307
330
304
100
AcDbEntity
  8
1
  6
ByBlock
 62
     3
100
AcDbLine
 10
231.6064542146364
 20
-1642.04487084919
 30
0.0
 11
231.6064542146364
 21
-1659.983122271886
 31
0.0
  0
LINE
  5
308
330
304
100
AcDbEntity
  8
1
  6
ByBlock
 62
     3
100
AcDbLine
 10
231.6064542146364
 20
-1657.983122271886
 30
0.0
 11
291.220454214636
 21
-1657.983122271886
 31
0.0
  0
LINE
  5
309
330
304
100
AcDbEntity
  8
1
  6
ByBlock
 62
     3
100
AcDbLine
 10
291.220454214636
 20
-1642.04487084919
 30
0.0
 11
291.220454214636
 21
-1659.983122271886
 31
0.0
  0
INSERT
  5
30A
330
304
100
AcDbEntity
  8
1
  6
ByBlock
 62
     3
100
AcDbBlockReference
  2
_OPEN30
 10
231.6064542146364
 20
-1657.983122271886
 30
0.0
 41
3.939231012048822
 42
3.939231012048822
 43
3.939231012048822
 50
180.0
  0
INSERT
  5
30B
330
304
100
AcDbEntity
  8
1
  6
ByBlock
 62
     3
100
AcDbBlockReference
  2
_OPEN30
 10
291.220454214636
 20
-1657.983122271886
 30
0.0
 41
3.939231012048822
 42
3.939231012048822
 43
3.939231012048822
  0
MTEXT
  5
30C
330
304
100
AcDbEntity
  8
1
  6
Continuous
 62
     2
100
AcDbMText
 10
251.4134542146362
 20
-1657.983122271886
 30
0.0
 40
8.0
 41
0.0
 71
     7
 72
     5
  1
Ｒｃ２
  7
MTSTANDARD6
 73
     1
 44
0.9375
  0
POINT
  5
30D
330
304
100
AcDbEntity
  8
DEFPOINTS
  6
ByBlock
 62
     3
100
AcDbPoint
 10
231.6064542146364
 20
-1640.04487084919
 30
0.0
  0
POINT
  5
30E
330
304
100
AcDbEntity
  8
DEFPOINTS
  6
ByBlock
 62
     3
100
AcDbPoint
 10
291.220454214636
 20
-1640.04487084919
 30
0.0
  0
POINT
  5
30F
330
304
100
AcDbEntity
  8
DEFPOINTS
  6
ByBlock
 62
     3
100
AcDbPoint
 10
291.220454214636
 20
-1657.983122271886
 30
0.0
  0
ENDBLK
  5
306
330
304
100
AcDbEntity
  8
0
100
AcDbBlockEnd
  0
BLOCK
  5
313
330
312
100
AcDbEntity
  8
0
100
AcDbBlockBegin
  2
_D7
 70
     0
 10
0.0
 20
0.0
 30
0.0
  3
_D7
  1

  0
LINE
  5
315
330
312
100
AcDbEntity
  8
1
  6
ByBlock
 62
     3
100
AcDbLine
 10
229.1674157400489
 20
-1605.54487084919
 30
0.0
 11
253.0076791332981
 21
-1605.54487084919
 31
0.0
  0
LINE
  5
316
330
312
100
AcDbEntity
  8
1
  6
ByBlock
 62
     3
100
AcDbLine
 10
251.0076791332981
 20
-1605.54487084919
 30
0.0
 11
251.0076791332981
 21
-1555.54487084919
 31
0.0
  0
LINE
  5
317
330
312
100
AcDbEntity
  8
1
  6
ByBlock
 62
     3
100
AcDbLine
 10
239.2731874399588
 20
-1555.54487084919
 30
0.0
 11
253.0076791332981
 21
-1555.54487084919
 31
0.0
  0
INSERT
  5
318
330
312
100
AcDbEntity
  8
1
  6
ByBlock
 62
     3
100
AcDbBlockReference
  2
_OPEN30
 10
251.0076791332981
 20
-1605.54487084919
 30
0.0
 41
3.939231012048822
 42
3.939231012048822
 43
3.939231012048822
 50
270.0
  0
INSERT
  5
319
330
312
100
AcDbEntity
  8
1
  6
ByBlock
 62
     3
100
AcDbBlockReference
  2
_OPEN30
 10
251.0076791332981
 20
-1555.54487084919
 30
0.0
 41
3.939231012048822
 42
3.939231012048822
 43
3.939231012048822
 50
90.0
  0
MTEXT
  5
31A
330
312
100
AcDbEntity
  8
1
  6
Continuous
 62
     2
100
AcDbMText
 10
251.0076791332981
 20
-1587.04487084919
 30
0.0
 40
8.0
 41
0.0
 71
     7
 72
     5
  1
５０
  7
MTSTANDARD6
 11
0.0
 21
1.0
 31
0.0
 73
     1
 44
0.9375
  0
POINT
  5
31B
330
312
100
AcDbEntity
  8
DEFPOINTS
  6
ByBlock
 62
     3
100
AcDbPoint
 10
227.1674157400489
 20
-1605.54487084919
 30
0.0
  0
POINT
  5
31C
330
312
100
AcDbEntity
  8
DEFPOINTS
  6
ByBlock
 62
     3
100
AcDbPoint
 10
237.2731874399587
 20
-1555.54487084919
 30
0.0
  0
POINT
  5
31D
330
312
100
AcDbEntity
  8
DEFPOINTS
  6
ByBlock
 62
     3
100
AcDbPoint
 10
251.0076791332981
 20
-1555.54487084919
 30
0.0
  0
ENDBLK
  5
314
330
312
100
AcDbEntity
  8
0
100
AcDbBlockEnd
  0
BLOCK
  5
333
330
332
100
AcDbEntity
  8
0
100
AcDbBlockBegin
  2
_D8
 70
     0
 10
0.0
 20
0.0
 30
0.0
  3
_D8
  1

  0
LINE
  5
335
330
332
100
AcDbEntity
  8
1
  6
ByBlock
 62
     3
100
AcDbLine
 10
194.1573261448027
 20
-1545.044870849226
 30
0.0
 11
194.1573261448027
 21
-1674.374556939199
 31
0.0
  0
LINE
  5
336
330
332
100
AcDbEntity
  8
1
  6
ByBlock
 62
     3
100
AcDbLine
 10
194.1573261448027
 20
-1672.374556939199
 30
0.0
 11
328.6695822844708
 21
-1672.374556939199
 31
0.0
  0
LINE
  5
337
330
332
100
AcDbEntity
  8
1
  6
ByBlock
 62
     3
100
AcDbLine
 10
328.6695822844708
 20
-1545.04487084919
 30
0.0
 11
328.6695822844709
 21
-1674.374556939199
 31
0.0
  0
INSERT
  5
338
330
332
100
AcDbEntity
  8
1
  6
ByBlock
 62
     3
100
AcDbBlockReference
  2
_OPEN30
 10
194.1573261448027
 20
-1672.374556939199
 30
0.0
 41
3.939231012048822
 42
3.939231012048822
 43
3.939231012048822
 50
180.0
  0
INSERT
  5
339
330
332
100
AcDbEntity
  8
1
  6
ByBlock
 62
     3
100
AcDbBlockReference
  2
_OPEN30
 10
328.6695822844708
 20
-1672.374556939199
 30
0.0
 41
3.939231012048822
 42
3.939231012048822
 43
3.939231012048822
  0
MTEXT
  5
33A
330
332
100
AcDbEntity
  8
1
  6
Continuous
 62
     2
100
AcDbMText
 10
247.9134542146368
 20
-1672.374556939199
 30
0.0
 40
8.0
 41
0.0
 71
     7
 72
     5
  1
φ１３５
  7
MTSTANDARD6
 73
     1
 44
0.9375
  0
POINT
  5
33B
330
332
100
AcDbEntity
  8
DEFPOINTS
  6
ByBlock
 62
     3
100
AcDbPoint
 10
194.1573261448027
 20
-1543.044870849226
 30
0.0
  0
POINT
  5
33C
330
332
100
AcDbEntity
  8
DEFPOINTS
  6
ByBlock
 62
     3
100
AcDbPoint
 10
328.6695822844708
 20
-1543.04487084919
 30
0.0
  0
POINT
  5
33D
330
332
100
AcDbEntity
  8
DEFPOINTS
  6
ByBlock
 62
     3
100
AcDbPoint
 10
328.6695822844708
 20
-1672.374556939199
 30
0.0
  0
ENDBLK
  5
334
330
332
100
AcDbEntity
  8
0
100
AcDbBlockEnd
  0
BLOCK
  5
341
330
340
100
AcDbEntity
  8
0
100
AcDbBlockBegin
  2
_D9
 70
     0
 10
0.0
 20
0.0
 30
0.0
  3
_D9
  1

  0
LINE
  5
343
330
340
100
AcDbEntity
  8
1
  6
ByBlock
 62
     3
100
AcDbLine
 10
220.5775583792782
 20
-1640.04487084919
 30
0.0
 11
116.0386069467108
 21
-1640.04487084919
 31
0.0
  0
LINE
  5
344
330
340
100
AcDbEntity
  8
1
  6
ByBlock
 62
     3
100
AcDbLine
 10
118.0386069467108
 20
-1640.04487084919
 30
0.0
 11
118.0386069467108
 21
-1532.044870849226
 31
0.0
  0
LINE
  5
345
330
340
100
AcDbEntity
  8
1
  6
ByBlock
 62
     3
100
AcDbLine
 10
194.028465493109
 20
-1532.044870849226
 30
0.0
 11
116.0386069467108
 21
-1532.044870849226
 31
0.0
  0
INSERT
  5
346
330
340
100
AcDbEntity
  8
1
  6
ByBlock
 62
     3
100
AcDbBlockReference
  2
_OPEN30
 10
118.0386069467108
 20
-1640.04487084919
 30
0.0
 41
3.939231012048822
 42
3.939231012048822
 43
3.939231012048822
 50
270.0
  0
INSERT
  5
347
330
340
100
AcDbEntity
  8
1
  6
ByBlock
 62
     3
100
AcDbBlockReference
  2
_OPEN30
 10
118.0386069467108
 20
-1532.044870849226
 30
0.0
 41
3.939231012048822
 42
3.939231012048822
 43
3.939231012048822
 50
90.0
  0
MTEXT
  5
348
330
340
100
AcDbEntity
  8
1
  6
Continuous
 62
     2
100
AcDbMText
 10
118.0386069467108
 20
-1596.044870849208
 30
0.0
 40
8.0
 41
0.0
 71
     7
 72
     5
  1
１０８
  7
MTSTANDARD6
 11
0.0
 21
1.0
 31
0.0
 73
     1
 44
0.9375
  0
POINT
  5
349
330
340
100
AcDbEntity
  8
DEFPOINTS
  6
ByBlock
 62
     3
100
AcDbPoint
 10
222.5775583792782
 20
-1640.04487084919
 30
0.0
  0
POINT
  5
34A
330
340
100
AcDbEntity
  8
DEFPOINTS
  6
ByBlock
 62
     3
100
AcDbPoint
 10
196.028465493109
 20
-1532.044870849226
 30
0.0
  0
POINT
  5
34B
330
340
100
AcDbEntity
  8
DEFPOINTS
  6
ByBlock
 62
     3
100
AcDbPoint
 10
118.0386069467108
 20
-1532.044870849226
 30
0.0
  0
ENDBLK
  5
342
330
340
100
AcDbEntity
  8
0
100
AcDbBlockEnd
  0
BLOCK
  5
34F
330
34E
100
AcDbEntity
  8
0
100
AcDbBlockBegin
  2
BLK3
 70
     0
 10
261.4134542146361
 20
-1555.54487084919
 30
0.0
  3
BLK3
  1

  0
LINE
  5
351
330
34E
100
AcDbEntity
  8
1
  6
Continuous
 62
     7
100
AcDbLine
 10
301.1393102880132
 20
-1560.591317886181
 30
0.0
 11
301.2194441542854
 21
-1560.622768328181
 31
0.0
  0
LINE
  5
352
330
34E
100
AcDbEntity
  8
1
  6
Continuous
 62
     7
100
AcDbLine
 10
301.2194441542854
 20
-1560.622768328181
 30
0.0
 11
301.2978290877548
 21
-1560.657416874609
 31
0.0
  0
LINE
  5
353
330
34E
100
AcDbEntity
  8
1
  6
Continuous
 62
     7
100
AcDbLine
 10
301.2978290877548
 20
-1560.657416874609
 30
0.0
 11
301.3727278855361
 21
-1560.698425050732
 31
0.0
  0
LINE
  5
354
330
34E
100
AcDbEntity
  8
1
  6
Continuous
 62
     7
100
AcDbLine
 10
301.3727278855361
 20
-1560.698425050732
 30
0.0
 11
301.4430015095734
 21
-1560.747089034521
 31
0.0
  0
LINE
  5
355
330
34E
100
AcDbEntity
  8
1
  6
Continuous
 62
     7
100
AcDbLine
 10
301.4430015095734
 20
-1560.747089034521
 30
0.0
 11
301.5083819593531
 21
-1560.801988716665
 31
0.0
  0
LINE
  5
356
330
34E
100
AcDbEntity
  8
1
  6
Continuous
 62
     7
100
AcDbLine
 10
301.5083819593531
 20
-1560.801988716665
 30
0.0
 11
301.5685959227124
 21
-1560.861637185305
 31
0.0
  0
LINE
  5
357
330
34E
100
AcDbEntity
  8
1
  6
Continuous
 62
     7
100
AcDbLine
 10
301.5685959227124
 20
-1560.861637185305
 30
0.0
 11
301.6230176911379
 21
-1560.925249693544
 31
0.0
  0
LINE
  5
358
330
34E
100
AcDbEntity
  8
1
  6
Continuous
 62
     7
100
AcDbLine
 10
301.6230176911379
 20
-1560.925249693544
 30
0.0
 11
301.6708947856694
 21
-1560.992045598973
 31
0.0
  0
LINE
  5
359
330
34E
100
AcDbEntity
  8
1
  6
Continuous
 62
     7
100
AcDbLine
 10
301.6708947856694
 20
-1560.992045598973
 30
0.0
 11
301.7113101058351
 21
-1561.059716977592
 31
0.0
  0
LINE
  5
35A
330
34E
100
AcDbEntity
  8
1
  6
Continuous
 62
     7
100
AcDbLine
 10
301.7113101058351
 20
-1561.059716977592
 30
0.0
 11
301.7432514892392
 21
-1561.124541098102
 31
0.0
  0
LINE
  5
35B
330
34E
100
AcDbEntity
  8
1
  6
Continuous
 62
     7
100
AcDbLine
 10
301.7432514892392
 20
-1561.124541098102
 30
0.0
 11
301.7656514705907
 21
-1561.179459445449
 31
0.0
  0
LINE
  5
35C
330
34E
100
AcDbEntity
  8
1
  6
Continuous
 62
     7
100
AcDbLine
 10
301.7656514705907
 20
-1561.179459445449
 30
0.0
 11
301.7788956123907
 21
-1561.21887638139
 31
0.0
  0
LINE
  5
35D
330
34E
100
AcDbEntity
  8
1
  6
Continuous
 62
     7
100
AcDbLine
 10
301.7788956123907
 20
-1561.21887638139
 30
0.0
 11
301.7848567593235
 21
-1561.239731017233
 31
0.0
  0
LINE
  5
35E
330
34E
100
AcDbEntity
  8
1
  6
Continuous
 62
     7
100
AcDbLine
 10
301.7848567593235
 20
-1561.239731017233
 30
0.0
 11
301.7855385477431
 21
-1561.242289762227
 31
0.0
  0
ARC
  5
35F
330
34E
100
AcDbEntity
  8
1
  6
Continuous
 62
     7
100
AcDbCircle
 10
252.9497179550361
 20
-1543.04487084919
 30
0.0
 40
1.000000000000002
100
AcDbArc
 50
90.0
 51
172.4947745055995
  0
LINE
  5
360
330
34E
100
AcDbEntity
  8
1
  6
Continuous
 62
     7
100
AcDbLine
 10
250.4120139308359
 20
-1554.67522385199
 30
0.0
 11
251.9582503082359
 21
-1542.91451784649
 31
0.0
  0
ARC
  5
361
330
34E
100
AcDbEntity
  8
1
  6
Continuous
 62
     7
100
AcDbCircle
 10
249.4205462840362
 20
-1554.54487084919
 30
0.0
 40
1.000000000000004
100
AcDbArc
 50
270.0
 51
352.5100085351011
  0
LINE
  5
362
330
34E
100
AcDbEntity
  8
1
  6
Continuous
 62
     7
100
AcDbLine
 10
308.413454214636
 20
-1605.54487084919
 30
0.0
 11
303.411016037436
 21
-1605.54487084919
 31
0.0
  0
LINE
  5
363
330
34E
100
AcDbEntity
  8
1
  6
Continuous
 62
     7
100
AcDbLine
 10
303.411016037436
 20
-1605.54487084919
 30
0.0
 11
301.873283462536
 21
-1561.50997135249
 31
0.0
  0
ARC
  5
364
330
34E
100
AcDbEntity
  8
1
  6
Continuous
 62
     7
100
AcDbCircle
 10
300.8738926354361
 20
-1561.54487084919
 30
0.0
 40
1.000000000000028
100
AcDbArc
 50
2.000000000003953
 51
90.0
  0
LINE
  5
365
330
34E
100
AcDbEntity
  8
1
  6
Continuous
 62
     7
100
AcDbLine
 10
300.8738926354361
 20
-1560.54487084919
 30
0.0
 11
296.053746836936
 21
-1560.54487084919
 31
0.0
  0
ARC
  5
366
330
34E
100
AcDbEntity
  8
1
  6
Continuous
 62
     7
100
AcDbCircle
 10
296.053746836936
 20
-1559.54487084919
 30
0.0
 40
1.000000000000003
100
AcDbArc
 50
181.999999999991
 51
270.0
  0
LINE
  5
367
330
34E
100
AcDbEntity
  8
1
  6
Continuous
 62
     7
100
AcDbLine
 10
295.0543560098361
 20
-1559.57977034589
 30
0.0
 11
294.9471562668362
 21
-1556.50997135249
 31
0.0
  0
ARC
  5
368
330
34E
100
AcDbEntity
  8
1
  6
Continuous
 62
     7
100
AcDbCircle
 10
293.9477654398359
 20
-1556.54487084919
 30
0.0
 40
1.0
100
AcDbArc
 50
2.000000000003044
 51
90.0
  0
LINE
  5
369
330
34E
100
AcDbEntity
  8
1
  6
Continuous
 62
     7
100
AcDbLine
 10
293.9477654398359
 20
-1555.54487084919
 30
0.0
 11
289.3505733775358
 21
-1555.54487084919
 31
0.0
  0
ARC
  5
36A
330
34E
100
AcDbEntity
  8
1
  6
Continuous
 62
     7
100
AcDbCircle
 10
289.3505733775358
 20
-1554.54487084919
 30
0.0
 40
1.000000000000004
100
AcDbArc
 50
181.999999999991
 51
270.0
  0
LINE
  5
36B
330
34E
100
AcDbEntity
  8
1
  6
Continuous
 62
     7
100
AcDbLine
 10
288.351182550536
 20
-1554.57977034589
 30
0.0
 11
287.9471562668362
 21
-1543.00997135249
 31
0.0
  0
ARC
  5
36C
330
34E
100
AcDbEntity
  8
1
  6
Continuous
 62
     7
100
AcDbCircle
 10
286.9477654398359
 20
-1543.04487084919
 30
0.0
 40
1.000000000000003
100
AcDbArc
 50
2.000000000003044
 51
90.0
  0
LINE
  5
36D
330
34E
100
AcDbEntity
  8
1
  6
HIDDEN
 62
     1
100
AcDbLine
 10
296.3651033006357
 20
-1542.04487084919
 30
0.0
 11
286.9477654398359
 21
-1542.04487084919
 31
0.0
  0
LINE
  5
36E
330
34E
100
AcDbEntity
  8
1
  6
Continuous
 62
     7
100
AcDbLine
 10
286.9477654398359
 20
-1542.04487084919
 30
0.0
 11
226.4618051286359
 21
-1542.04487084919
 31
0.0
  0
ARC
  5
36F
330
34E
100
AcDbEntity
  8
1
  6
Continuous
 62
     7
100
AcDbCircle
 10
226.4618051286359
 20
-1547.04487084919
 30
0.0
 40
5.000000000000002
100
AcDbArc
 50
90.0
 51
177.999999999999
  0
LINE
  5
370
330
34E
100
AcDbEntity
  8
1
  6
Continuous
 62
     7
100
AcDbLine
 10
221.4648509935362
 20
-1546.87037336569
 30
0.0
 11
219.4158923918361
 21
-1605.54487084919
 31
0.0
  0
LINE
  5
371
330
34E
100
AcDbEntity
  8
1
  6
Continuous
 62
     7
100
AcDbLine
 10
219.4158923918361
 20
-1605.54487084919
 30
0.0
 11
214.413454214636
 21
-1605.54487084919
 31
0.0
  0
LINE
  5
372
330
34E
100
AcDbEntity
  8
1
  6
Continuous
 62
     7
100
AcDbLine
 10
214.413454214636
 20
-1605.54487084919
 30
0.0
 11
216.5022084549362
 21
-1545.73077537889
 31
0.0
  0
ARC
  5
373
330
34E
100
AcDbEntity
  8
1
  6
Continuous
 62
     7
100
AcDbCircle
 10
225.4967258981358
 20
-1546.04487084919
 30
0.0
 40
9.0
100
AcDbArc
 50
90.0
 51
177.9999999999993
  0
LINE
  5
374
330
34E
100
AcDbEntity
  8
1
  6
Continuous
 62
     7
100
AcDbLine
 10
225.4967258981358
 20
-1537.04487084919
 30
0.0
 11
246.9817144036359
 21
-1537.04487084919
 31
0.0
  0
ARC
  5
375
330
34E
100
AcDbEntity
  8
1
  6
Continuous
 62
     7
100
AcDbCircle
 10
246.9817144036359
 20
-1534.04487084919
 30
0.0
 40
3.0
100
AcDbArc
 50
270.0
 51
335.5560452196047
  0
LINE
  5
376
330
34E
100
AcDbEntity
  8
1
  6
Continuous
 62
     7
100
AcDbLine
 10
249.7128138360361
 20
-1535.28627968209
 30
0.0
 11
253.114094593236
 21
-1527.80346201629
 31
0.0
  0
ARC
  5
377
330
34E
100
AcDbEntity
  8
1
  6
Continuous
 62
     7
100
AcDbCircle
 10
255.8451940256362
 20
-1529.04487084919
 30
0.0
 40
3.0
100
AcDbArc
 50
90.0
 51
155.5560452196007
  0
LINE
  5
378
330
34E
100
AcDbEntity
  8
1
  6
Continuous
 62
     7
100
AcDbLine
 10
255.8451940256362
 20
-1526.04487084919
 30
0.0
 11
266.9817144036359
 21
-1526.04487084919
 31
0.0
  0
ARC
  5
379
330
34E
100
AcDbEntity
  8
1
  6
Continuous
 62
     7
100
AcDbCircle
 10
266.9817144036359
 20
-1529.04487084919
 30
0.0
 40
3.0
100
AcDbArc
 50
24.44395478039929
 51
90.0
  0
LINE
  5
37A
330
34E
100
AcDbEntity
  8
1
  6
Continuous
 62
     7
100
AcDbLine
 10
269.7128138360361
 20
-1527.80346201629
 30
0.0
 11
273.114094593236
 21
-1535.28627968209
 31
0.0
  0
ARC
  5
37B
330
34E
100
AcDbEntity
  8
1
  6
Continuous
 62
     7
100
AcDbCircle
 10
275.8451940256362
 20
-1534.04487084919
 30
0.0
 40
3.000000000000004
100
AcDbArc
 50
204.4439547803953
 51
270.0
  0
LINE
  5
37C
330
34E
100
AcDbEntity
  8
1
  6
Continuous
 62
     7
100
AcDbLine
 10
275.8451940256362
 20
-1537.04487084919
 30
0.0
 11
297.3301825311358
 21
-1537.04487084919
 31
0.0
  0
ARC
  5
37D
330
34E
100
AcDbEntity
  8
1
  6
Continuous
 62
     7
100
AcDbCircle
 10
297.3301825311358
 20
-1546.04487084919
 30
0.0
 40
9.0
100
AcDbArc
 50
2.000000000000655
 51
90.0
  0
LINE
  5
37E
330
34E
100
AcDbEntity
  8
1
  6
Continuous
 62
     7
100
AcDbLine
 10
306.3246999743358
 20
-1545.73077537889
 30
0.0
 11
308.413454214636
 21
-1605.54487084919
 31
0.0
  0
LINE
  5
37F
330
34E
100
AcDbEntity
  8
1
  6
Continuous
 62
     7
100
AcDbLine
 10
237.7048153464539
 20
-1555.54487084919
 30
0.0
 11
237.5847311404603
 21
-1554.241661290001
 31
0.0
  0
LINE
  5
380
330
34E
100
AcDbEntity
  8
1
  6
Continuous
 62
     7
100
AcDbLine
 10
237.5847311404603
 20
-1554.241661290001
 30
0.0
 11
237.415726509021
 21
-1552.398707799912
 31
0.0
  0
LINE
  5
381
330
34E
100
AcDbEntity
  8
1
  6
Continuous
 62
     7
100
AcDbLine
 10
237.415726509021
 20
-1552.398707799912
 30
0.0
 11
237.247549971555
 21
-1550.555840836814
 31
0.0
  0
LINE
  5
382
330
34E
100
AcDbEntity
  8
1
  6
Continuous
 62
     7
100
AcDbLine
 10
237.247549971555
 20
-1550.555840836814
 30
0.0
 11
237.0802075443792
 21
-1548.713062119234
 31
0.0
  0
LINE
  5
383
330
34E
100
AcDbEntity
  8
1
  6
Continuous
 62
     7
100
AcDbLine
 10
237.0802075443792
 20
-1548.713062119234
 30
0.0
 11
236.9137052438116
 21
-1546.870373365699
 31
0.0
  0
LINE
  5
384
330
34E
100
AcDbEntity
  8
1
  6
Continuous
 62
     7
100
AcDbLine
 10
301.873283462536
 20
-1561.50997135249
 30
0.0
 11
301.8390458347361
 21
-1561.50997135249
 31
0.0
  0
LINE
  5
385
330
34E
100
AcDbEntity
  8
1
  6
Continuous
 62
     7
100
AcDbLine
 10
303.411016037436
 20
-1605.54487084919
 30
0.0
 11
295.6594926892236
 21
-1605.54487084919
 31
0.0
  0
LINE
  5
386
330
34E
100
AcDbEntity
  8
1
  6
Continuous
 62
     7
100
AcDbLine
 10
227.1674157400487
 20
-1605.54487084919
 30
0.0
 11
219.4158923918361
 21
-1605.54487084919
 31
0.0
  0
LINE
  5
387
330
34E
100
AcDbEntity
  8
1
  6
Continuous
 62
     7
100
AcDbLine
 10
236.9137052438116
 20
-1546.870373365699
 30
0.0
 11
236.8958868789157
 21
-1546.502750412032
 31
0.0
  0
LINE
  5
388
330
34E
100
AcDbEntity
  8
1
  6
Continuous
 62
     7
100
AcDbLine
 10
236.8958868789157
 20
-1546.502750412032
 30
0.0
 11
236.8925300406812
 21
-1546.140974539853
 31
0.0
  0
LINE
  5
389
330
34E
100
AcDbEntity
  8
1
  6
Continuous
 62
     7
100
AcDbLine
 10
236.8925300406812
 20
-1546.140974539853
 30
0.0
 11
236.9034115831694
 21
-1545.784790030064
 31
0.0
  0
LINE
  5
38A
330
34E
100
AcDbEntity
  8
1
  6
Continuous
 62
     7
100
AcDbLine
 10
236.9034115831694
 20
-1545.784790030064
 30
0.0
 11
236.9286118285029
 21
-1545.433720173556
 31
0.0
  0
LINE
  5
38B
330
34E
100
AcDbEntity
  8
1
  6
Continuous
 62
     7
100
AcDbLine
 10
236.9286118285029
 20
-1545.433720173556
 30
0.0
 11
236.9680067941984
 21
-1545.090666248102
 31
0.0
  0
LINE
  5
38C
330
34E
100
AcDbEntity
  8
1
  6
Continuous
 62
     7
100
AcDbLine
 10
236.9680067941984
 20
-1545.090666248102
 30
0.0
 11
237.0212297242813
 21
-1544.759378849288
 31
0.0
  0
LINE
  5
38D
330
34E
100
AcDbEntity
  8
1
  6
Continuous
 62
     7
100
AcDbLine
 10
237.0212297242813
 20
-1544.759378849288
 30
0.0
 11
237.0877427778617
 21
-1544.442043751585
 31
0.0
  0
LINE
  5
38E
330
34E
100
AcDbEntity
  8
1
  6
Continuous
 62
     7
100
AcDbLine
 10
237.0877427778617
 20
-1544.442043751585
 30
0.0
 11
237.1674490968683
 21
-1544.138599906639
 31
0.0
  0
LINE
  5
38F
330
34E
100
AcDbEntity
  8
1
  6
Continuous
 62
     7
100
AcDbLine
 10
237.1674490968683
 20
-1544.138599906639
 30
0.0
 11
237.2605550082165
 21
-1543.848934941156
 31
0.0
  0
LINE
  5
390
330
34E
100
AcDbEntity
  8
1
  6
Continuous
 62
     7
100
AcDbLine
 10
237.2605550082165
 20
-1543.848934941156
 30
0.0
 11
237.3661932704243
 21
-1543.575859638875
 31
0.0
  0
LINE
  5
391
330
34E
100
AcDbEntity
  8
1
  6
Continuous
 62
     7
100
AcDbLine
 10
237.3661932704243
 20
-1543.575859638875
 30
0.0
 11
237.4830366101485
 21
-1543.322889388396
 31
0.0
  0
LINE
  5
392
330
34E
100
AcDbEntity
  8
1
  6
Continuous
 62
     7
100
AcDbLine
 10
237.4830366101485
 20
-1543.322889388396
 30
0.0
 11
237.6106084016699
 21
-1543.090506033965
 31
0.0
  0
LINE
  5
393
330
34E
100
AcDbEntity
  8
1
  6
Continuous
 62
     7
100
AcDbLine
 10
237.6106084016699
 20
-1543.090506033965
 30
0.0
 11
237.7489590442809
 21
-1542.878606111261
 31
0.0
  0
LINE
  5
394
330
34E
100
AcDbEntity
  8
1
  6
Continuous
 62
     7
100
AcDbLine
 10
237.7489590442809
 20
-1542.878606111261
 30
0.0
 11
237.8979525170756
 21
-1542.687781490686
 31
0.0
  0
LINE
  5
395
330
34E
100
AcDbEntity
  8
1
  6
Continuous
 62
     7
100
AcDbLine
 10
237.8979525170756
 20
-1542.687781490686
 30
0.0
 11
238.0561903673814
 21
-1542.520007183607
 31
0.0
  0
LINE
  5
396
330
34E
100
AcDbEntity
  8
1
  6
Continuous
 62
     7
100
AcDbLine
 10
238.0561903673814
 20
-1542.520007183607
 30
0.0
 11
238.2217947677057
 21
-1542.377117820138
 31
0.0
  0
LINE
  5
397
330
34E
100
AcDbEntity
  8
1
  6
Continuous
 62
     7
100
AcDbLine
 10
238.2217947677057
 20
-1542.377117820138
 30
0.0
 11
238.3942846254366
 21
-1542.259276883025
 31
0.0
  0
LINE
  5
398
330
34E
100
AcDbEntity
  8
1
  6
Continuous
 62
     7
100
AcDbLine
 10
238.3942846254366
 20
-1542.259276883025
 30
0.0
 11
238.5739450189956
 21
-1542.166433196019
 31
0.0
  0
LINE
  5
399
330
34E
100
AcDbEntity
  8
1
  6
Continuous
 62
     7
100
AcDbLine
 10
238.5739450189956
 20
-1542.166433196019
 30
0.0
 11
238.7604328031615
 21
-1542.099137250137
 31
0.0
  0
LINE
  5
39A
330
34E
100
AcDbEntity
  8
1
  6
Continuous
 62
     7
100
AcDbLine
 10
238.7604328031615
 20
-1542.099137250137
 30
0.0
 11
238.9518044414334
 21
-1542.058488826777
 31
0.0
  0
LINE
  5
39B
330
34E
100
AcDbEntity
  8
1
  6
Continuous
 62
     7
100
AcDbLine
 10
238.9518044414334
 20
-1542.058488826777
 30
0.0
 11
239.1471704600338
 21
-1542.044870849213
 31
0.0
  0
LINE
  5
39C
330
34E
100
AcDbEntity
  8
1
  6
Continuous
 62
     7
100
AcDbLine
 10
301.1401528502359
 20
-1560.59090206909
 30
0.0
 11
301.0311482354362
 21
-1560.56324366579
 31
0.0
  0
LINE
  5
39D
330
34E
100
AcDbEntity
  8
1
  6
Continuous
 62
     7
100
AcDbLine
 10
301.0311482354362
 20
-1560.56324366579
 30
0.0
 11
300.8405007051359
 21
-1560.54487084919
 31
0.0
  0
LINE
  5
39E
330
34E
100
AcDbEntity
  8
1
  6
Continuous
 62
     7
100
AcDbLine
 10
244.8518277618362
 20
-1543.00997135249
 30
0.0
 11
244.8643381429359
 21
-1542.81991979489
 31
0.0
  0
LINE
  5
39F
330
34E
100
AcDbEntity
  8
1
  6
Continuous
 62
     7
100
AcDbLine
 10
244.8643381429359
 20
-1542.81991979489
 30
0.0
 11
244.8947504465362
 21
-1542.63813420609
 31
0.0
  0
LINE
  5
3A0
330
34E
100
AcDbEntity
  8
1
  6
Continuous
 62
     7
100
AcDbLine
 10
244.8947504465362
 20
-1542.63813420609
 30
0.0
 11
244.9419471532358
 21
-1542.47129441289
 31
0.0
  0
LINE
  5
3A1
330
34E
100
AcDbEntity
  8
1
  6
Continuous
 62
     7
100
AcDbLine
 10
244.9419471532358
 20
-1542.47129441289
 30
0.0
 11
245.004193990136
 21
-1542.32553104889
 31
0.0
  0
LINE
  5
3A2
330
34E
100
AcDbEntity
  8
1
  6
Continuous
 62
     7
100
AcDbLine
 10
245.004193990136
 20
-1542.32553104889
 30
0.0
 11
245.0792036578362
 21
-1542.20620028129
 31
0.0
  0
LINE
  5
3A3
330
34E
100
AcDbEntity
  8
1
  6
Continuous
 62
     7
100
AcDbLine
 10
245.0792036578362
 20
-1542.20620028129
 30
0.0
 11
245.1642198786361
 21
-1542.11768699469
 31
0.0
  0
LINE
  5
3A4
330
34E
100
AcDbEntity
  8
1
  6
Continuous
 62
     7
100
AcDbLine
 10
245.1642198786361
 20
-1542.11768699469
 30
0.0
 11
245.2561186776359
 21
-1542.06324366579
 31
0.0
  0
LINE
  5
3A5
330
34E
100
AcDbEntity
  8
1
  6
Continuous
 62
     7
100
AcDbLine
 10
245.2561186776359
 20
-1542.06324366579
 30
0.0
 11
245.3515231753361
 21
-1542.04487084919
 31
0.0
  0
ELLIPSE
  5
3A6
330
34E
100
AcDbEntity
  8
1
  6
Continuous
 62
     7
100
AcDbEllipse
 10
244.3588717219362
 20
-1543.04487084919
 30
0.0
 11
1.013931638939368
 21
-0.09778476618402047
 31
0.0
210
0.0
220
0.0
230
1.0
 40
0.0917384779
 41
1.071949132649259
 42
2.638190145274232
  0
ARC
  5
3A7
330
34E
100
AcDbEntity
  8
1
  6
Continuous
 62
     7
100
AcDbCircle
 10
242.5567730037358
 20
-1542.96247026869
 30
0.0
 40
0.9195368576207673
100
AcDbArc
 50
3.000048100999482
 51
86.27999717049266
  0
LINE
  5
3A8
330
34E
100
AcDbEntity
  8
1
  6
Continuous
 62
     7
100
AcDbLine
 10
251.4413786151361
 20
-1543.00997135249
 30
0.0
 11
244.8518277618362
 21
-1543.00997135249
 31
0.0
  0
LINE
  5
3A9
330
34E
100
AcDbEntity
  8
1
  6
Continuous
 62
     7
100
AcDbLine
 10
251.4413786151361
 20
-1543.00997135249
 30
0.0
 11
251.4538889963358
 21
-1542.81991979489
 31
0.0
  0
LINE
  5
3AA
330
34E
100
AcDbEntity
  8
1
  6
Continuous
 62
     7
100
AcDbLine
 10
251.4538889963358
 20
-1542.81991979489
 30
0.0
 11
251.4843012998361
 21
-1542.63813420609
 31
0.0
  0
LINE
  5
3AB
330
34E
100
AcDbEntity
  8
1
  6
Continuous
 62
     7
100
AcDbLine
 10
251.4843012998361
 20
-1542.63813420609
 30
0.0
 11
251.5314980065362
 21
-1542.47129441289
 31
0.0
  0
LINE
  5
3AC
330
34E
100
AcDbEntity
  8
1
  6
Continuous
 62
     7
100
AcDbLine
 10
251.5314980065362
 20
-1542.47129441289
 30
0.0
 11
251.5937448434359
 21
-1542.32553104889
 31
0.0
  0
LINE
  5
3AD
330
34E
100
AcDbEntity
  8
1
  6
Continuous
 62
     7
100
AcDbLine
 10
251.5937448434359
 20
-1542.32553104889
 30
0.0
 11
251.6687545112362
 21
-1542.20620028129
 31
0.0
  0
LINE
  5
3AE
330
34E
100
AcDbEntity
  8
1
  6
Continuous
 62
     7
100
AcDbLine
 10
251.6687545112362
 20
-1542.20620028129
 30
0.0
 11
251.753770731936
 21
-1542.11768699469
 31
0.0
  0
LINE
  5
3AF
330
34E
100
AcDbEntity
  8
1
  6
Continuous
 62
     7
100
AcDbLine
 10
251.753770731936
 20
-1542.11768699469
 30
0.0
 11
251.8456695310359
 21
-1542.06324366579
 31
0.0
  0
LINE
  5
3B0
330
34E
100
AcDbEntity
  8
1
  6
Continuous
 62
     7
100
AcDbLine
 10
251.8456695310359
 20
-1542.06324366579
 30
0.0
 11
251.9410740287361
 21
-1542.04487084919
 31
0.0
  0
LINE
  5
3B1
330
34E
100
AcDbEntity
  8
1
  6
Continuous
 62
     7
100
AcDbLine
 10
243.4750496277359
 20
-1542.91434465699
 30
0.0
 11
240.0057868964362
 21
-1542.91434465699
 31
0.0
  0
ARC
  5
3B2
330
34E
100
AcDbEntity
  8
1
  6
Continuous
 62
     7
100
AcDbCircle
 10
239.0875102725361
 20
-1542.96247026869
 30
0.0
 40
0.9195368576207901
100
AcDbArc
 50
3.000048101000964
 51
86.27999717052093
  0
LINE
  5
3B3
330
34E
100
AcDbEntity
  8
1
  6
Continuous
 62
     7
100
AcDbLine
 10
244.8518277618362
 20
-1543.00997135249
 30
0.0
 11
245.968938395736
 21
-1554.57977034589
 31
0.0
  0
ARC
  5
3B4
330
34E
100
AcDbEntity
  8
1
  6
Continuous
 62
     7
100
AcDbCircle
 10
244.7466693548361
 20
-1546.91303309439
 30
0.0
 40
7.763555995304718
100
AcDbArc
 50
268.9959397778978
 51
279.0581473358984
  0
LINE
  5
3B5
330
34E
100
AcDbEntity
  8
1
  6
Continuous
 62
     7
100
AcDbLine
 10
244.6106265458359
 20
-1554.67539704139
 30
0.0
 11
243.4750496277359
 21
-1542.91434465699
 31
0.0
  0
LINE
  5
3B6
330
34E
100
AcDbEntity
  8
1
  6
Continuous
 62
     7
100
AcDbLine
 10
249.9202416975361
 20
-1554.57977034589
 30
0.0
 11
251.4413786151361
 21
-1543.00997135249
 31
0.0
  0
LINE
  5
3B7
330
34E
100
AcDbEntity
  8
1
  6
Continuous
 62
     7
100
AcDbLine
 10
245.968938395736
 20
-1554.57977034589
 30
0.0
 11
249.9202416975361
 21
-1554.57977034589
 31
0.0
  0
ELLIPSE
  5
3B8
330
34E
100
AcDbEntity
  8
1
  6
Continuous
 62
     7
100
AcDbEllipse
 10
272.2440033651358
 20
-1674.52706799709
 30
0.0
 11
-37.74364262753095
 21
329.7264105120536
 31
0.0
210
0.0
220
0.0
230
1.0
 40
0.0626506732
 41
1.16577231647522
 42
1.194454291272976
  0
LINE
  5
3B9
330
34E
100
AcDbEntity
  8
1
  6
Continuous
 62
     7
100
AcDbLine
 10
240.0057868964353
 20
-1542.914344656992
 30
0.0
 11
239.8572640836053
 21
-1542.925247812517
 31
0.0
  0
LINE
  5
3BA
330
34E
100
AcDbEntity
  8
1
  6
Continuous
 62
     7
100
AcDbLine
 10
239.8572640836053
 20
-1542.925247812517
 30
0.0
 11
239.7122530082191
 21
-1542.957777424789
 31
0.0
  0
LINE
  5
3BB
330
34E
100
AcDbEntity
  8
1
  6
Continuous
 62
     7
100
AcDbLine
 10
239.7122530082191
 20
-1542.957777424789
 30
0.0
 11
239.5714093663731
 21
-1543.011604783215
 31
0.0
  0
LINE
  5
3BC
330
34E
100
AcDbEntity
  8
1
  6
Continuous
 62
     7
100
AcDbLine
 10
239.5714093663731
 20
-1543.011604783215
 30
0.0
 11
239.4361726027371
 21
-1543.085839131692
 31
0.0
  0
LINE
  5
3BD
330
34E
100
AcDbEntity
  8
1
  6
Continuous
 62
     7
100
AcDbLine
 10
239.4361726027371
 20
-1543.085839131692
 30
0.0
 11
239.3067893002765
 21
-1543.180030700628
 31
0.0
  0
LINE
  5
3BE
330
34E
100
AcDbEntity
  8
1
  6
Continuous
 62
     7
100
AcDbLine
 10
239.3067893002765
 20
-1543.180030700628
 30
0.0
 11
239.1830438711038
 21
-1543.294205463445
 31
0.0
  0
LINE
  5
3BF
330
34E
100
AcDbEntity
  8
1
  6
Continuous
 62
     7
100
AcDbLine
 10
239.1830438711038
 20
-1543.294205463445
 30
0.0
 11
239.0652960650908
 21
-1543.428228315261
 31
0.0
  0
LINE
  5
3C0
330
34E
100
AcDbEntity
  8
1
  6
Continuous
 62
     7
100
AcDbLine
 10
239.0652960650908
 20
-1543.428228315261
 30
0.0
 11
238.9549292739919
 21
-1543.580652659704
 31
0.0
  0
LINE
  5
3C1
330
34E
100
AcDbEntity
  8
1
  6
Continuous
 62
     7
100
AcDbLine
 10
238.9549292739919
 20
-1543.580652659704
 30
0.0
 11
238.8529717415038
 21
-1543.749916912441
 31
0.0
  0
LINE
  5
3C2
330
34E
100
AcDbEntity
  8
1
  6
Continuous
 62
     7
100
AcDbLine
 10
238.8529717415038
 20
-1543.749916912441
 30
0.0
 11
238.7595300650972
 21
-1543.935552380549
 31
0.0
  0
LINE
  5
3C3
330
34E
100
AcDbEntity
  8
1
  6
Continuous
 62
     7
100
AcDbLine
 10
238.7595300650972
 20
-1543.935552380549
 30
0.0
 11
238.6745791534598
 21
-1544.137644289724
 31
0.0
  0
LINE
  5
3C4
330
34E
100
AcDbEntity
  8
1
  6
Continuous
 62
     7
100
AcDbLine
 10
238.6745791534598
 20
-1544.137644289724
 30
0.0
 11
238.5984809164696
 21
-1544.355829411063
 31
0.0
  0
LINE
  5
3C5
330
34E
100
AcDbEntity
  8
1
  6
Continuous
 62
     7
100
AcDbLine
 10
238.5984809164696
 20
-1544.355829411063
 30
0.0
 11
238.5321981398063
 21
-1544.587339404281
 31
0.0
  0
LINE
  5
3C6
330
34E
100
AcDbEntity
  8
1
  6
Continuous
 62
     7
100
AcDbLine
 10
238.5321981398063
 20
-1544.587339404281
 30
0.0
 11
238.4763609300851
 21
-1544.829953716564
 31
0.0
  0
LINE
  5
3C7
330
34E
100
AcDbEntity
  8
1
  6
Continuous
 62
     7
100
AcDbLine
 10
238.4763609300851
 20
-1544.829953716564
 30
0.0
 11
238.430839560471
 21
-1545.083757703259
 31
0.0
  0
LINE
  5
3C8
330
34E
100
AcDbEntity
  8
1
  6
Continuous
 62
     7
100
AcDbLine
 10
238.430839560471
 20
-1545.083757703259
 30
0.0
 11
238.3957304097542
 21
-1545.34880851906
 31
0.0
  0
LINE
  5
3C9
330
34E
100
AcDbEntity
  8
1
  6
Continuous
 62
     7
100
AcDbLine
 10
238.3957304097542
 20
-1545.34880851906
 30
0.0
 11
238.371427109845
 21
-1545.62340457067
 31
0.0
  0
LINE
  5
3CA
330
34E
100
AcDbEntity
  8
1
  6
Continuous
 62
     7
100
AcDbLine
 10
238.371427109845
 20
-1545.62340457067
 30
0.0
 11
238.3581711412579
 21
-1545.904557628642
 31
0.0
  0
LINE
  5
3CB
330
34E
100
AcDbEntity
  8
1
  6
Continuous
 62
     7
100
AcDbLine
 10
238.3581711412579
 20
-1545.904557628642
 30
0.0
 11
238.3560339888266
 21
-1546.189939900845
 31
0.0
  0
LINE
  5
3CC
330
34E
100
AcDbEntity
  8
1
  6
Continuous
 62
     7
100
AcDbLine
 10
238.3560339888266
 20
-1546.189939900845
 30
0.0
 11
238.364986556516
 21
-1546.479932639895
 31
0.0
  0
LINE
  5
3CD
330
34E
100
AcDbEntity
  8
1
  6
Continuous
 62
     7
100
AcDbLine
 10
238.364986556516
 20
-1546.479932639895
 30
0.0
 11
238.3852298274685
 21
-1546.774746670181
 31
0.0
  0
LINE
  5
3CE
330
34E
100
AcDbEntity
  8
1
  6
Continuous
 62
     7
100
AcDbLine
 10
242.3120305147361
 20
-1554.67539704139
 30
0.0
 11
244.6106265458359
 21
-1554.67539704139
 31
0.0
  0
ELLIPSE
  5
3CF
330
34E
100
AcDbEntity
  8
1
  6
Continuous
 62
     7
100
AcDbEllipse
 10
242.5400593295361
 20
-1556.67539704139
 30
0.0
 11
-0.3014998366102898
 21
1.99450194716951
 31
0.0
210
0.0
220
0.0
230
1.0
 40
0.4915284858
 41
6.209019454339612
 42
7.179063623500695
  0
LINE
  5
3D0
330
34E
100
AcDbEntity
  8
1
  6
Continuous
 62
     7
100
AcDbLine
 10
245.968938395736
 20
-1554.57977034589
 30
0.0
 11
245.9564280146358
 21
-1554.76982190359
 31
0.0
  0
LINE
  5
3D1
330
34E
100
AcDbEntity
  8
1
  6
Continuous
 62
     7
100
AcDbLine
 10
245.9564280146358
 20
-1554.76982190359
 30
0.0
 11
245.926015711036
 21
-1554.95160749229
 31
0.0
  0
LINE
  5
3D2
330
34E
100
AcDbEntity
  8
1
  6
Continuous
 62
     7
100
AcDbLine
 10
245.926015711036
 20
-1554.95160749229
 30
0.0
 11
245.8788190044359
 21
-1555.11844728559
 31
0.0
  0
LINE
  5
3D3
330
34E
100
AcDbEntity
  8
1
  6
Continuous
 62
     7
100
AcDbLine
 10
245.8788190044359
 20
-1555.11844728559
 30
0.0
 11
245.8165721674362
 21
-1555.26421064959
 31
0.0
  0
LINE
  5
3D4
330
34E
100
AcDbEntity
  8
1
  6
Continuous
 62
     7
100
AcDbLine
 10
245.8165721674362
 20
-1555.26421064959
 30
0.0
 11
245.7415624997359
 21
-1555.38354141719
 31
0.0
  0
ARC
  5
3D5
330
34E
100
AcDbEntity
  8
1
  6
Continuous
 62
     7
100
AcDbCircle
 10
245.528903169736
 20
-1554.62727142979
 30
0.0
 40
0.9195368576207751
100
AcDbArc
 50
183.000048101001
 51
266.2799971704926
  0
LINE
  5
3D6
330
34E
100
AcDbEntity
  8
1
  6
Continuous
 62
     7
100
AcDbLine
 10
249.4205462840362
 20
-1555.54487084919
 30
0.0
 11
249.515950781736
 21
-1555.52649803269
 31
0.0
  0
LINE
  5
3D7
330
34E
100
AcDbEntity
  8
1
  6
Continuous
 62
     7
100
AcDbLine
 10
249.515950781736
 20
-1555.52649803269
 30
0.0
 11
249.6078495807358
 21
-1555.47205470379
 31
0.0
  0
LINE
  5
3D8
330
34E
100
AcDbEntity
  8
1
  6
Continuous
 62
     7
100
AcDbLine
 10
249.6078495807358
 20
-1555.47205470379
 30
0.0
 11
249.6928658015361
 21
-1555.38354141719
 31
0.0
  0
LINE
  5
3D9
330
34E
100
AcDbEntity
  8
1
  6
Continuous
 62
     7
100
AcDbLine
 10
249.6928658015361
 20
-1555.38354141719
 30
0.0
 11
249.7678754692359
 21
-1555.26421064959
 31
0.0
  0
LINE
  5
3DA
330
34E
100
AcDbEntity
  8
1
  6
Continuous
 62
     7
100
AcDbLine
 10
249.7678754692359
 20
-1555.26421064959
 30
0.0
 11
249.8301223062361
 21
-1555.11844728559
 31
0.0
  0
LINE
  5
3DB
330
34E
100
AcDbEntity
  8
1
  6
Continuous
 62
     7
100
AcDbLine
 10
249.8301223062361
 20
-1555.11844728559
 30
0.0
 11
249.8773190128362
 21
-1554.95160749229
 31
0.0
  0
LINE
  5
3DC
330
34E
100
AcDbEntity
  8
1
  6
Continuous
 62
     7
100
AcDbLine
 10
249.8773190128362
 20
-1554.95160749229
 30
0.0
 11
249.907731316436
 21
-1554.76982190359
 31
0.0
  0
LINE
  5
3DD
330
34E
100
AcDbEntity
  8
1
  6
Continuous
 62
     7
100
AcDbLine
 10
249.907731316436
 20
-1554.76982190359
 30
0.0
 11
249.9202416975361
 21
-1554.57977034589
 31
0.0
  0
LINE
  5
3DE
330
34E
100
AcDbEntity
  8
1
  6
Continuous
 62
     7
100
AcDbLine
 10
245.469242982236
 20
-1555.54487084919
 30
0.0
 11
249.4205462840362
 21
-1555.54487084919
 31
0.0
  0
ARC
  5
3DF
330
34E
100
AcDbEntity
  8
1
  6
Continuous
 62
     7
100
AcDbCircle
 10
243.2303071386362
 20
-1554.62727142979
 30
0.0
 40
0.919536857620716
100
AcDbArc
 50
183.0000481009995
 51
266.2799971704917
  0
ARC
  5
3E0
330
34E
100
AcDbEntity
  8
1
  6
Continuous
 62
     7
100
AcDbCircle
 10
238.0866318553361
 20
-1553.54974054019
 30
0.0
 40
6.781570812693679
100
AcDbArc
 50
87.47640525790136
 51
99.95984548990128
  0
LINE
  5
3E1
330
34E
100
AcDbEntity
  8
1
  6
Continuous
 62
     8
100
AcDbLine
 10
301.7694374188839
 20
-1561.205220695439
 30
0.0
 11
301.7781660483454
 21
-1561.266618425923
 31
0.0
  0
LINE
  5
3E2
330
34E
100
AcDbEntity
  8
1
  6
Continuous
 62
     8
100
AcDbLine
 10
301.7781660483454
 20
-1561.266618425923
 30
0.0
 11
301.7865131912825
 21
-1561.31881369325
 31
0.0
  0
LINE
  5
3E3
330
34E
100
AcDbEntity
  8
1
  6
Continuous
 62
     8
100
AcDbLine
 10
301.7865131912825
 20
-1561.31881369325
 30
0.0
 11
301.7944734171886
 21
-1561.362603138052
 31
0.0
  0
LINE
  5
3E4
330
34E
100
AcDbEntity
  8
1
  6
Continuous
 62
     8
100
AcDbLine
 10
301.7944734171886
 20
-1561.362603138052
 30
0.0
 11
301.8020996195385
 21
-1561.400334281543
 31
0.0
  0
LINE
  5
3E5
330
34E
100
AcDbEntity
  8
1
  6
Continuous
 62
     8
100
AcDbLine
 10
301.8020996195385
 20
-1561.400334281543
 30
0.0
 11
301.8094087138246
 21
-1561.433554673551
 31
0.0
  0
LINE
  5
3E6
330
34E
100
AcDbEntity
  8
1
  6
Continuous
 62
     8
100
AcDbLine
 10
301.8094087138246
 20
-1561.433554673551
 30
0.0
 11
301.8163066187774
 21
-1561.461343847903
 31
0.0
  0
LINE
  5
3E7
330
34E
100
AcDbEntity
  8
1
  6
Continuous
 62
     8
100
AcDbLine
 10
301.8163066187774
 20
-1561.461343847903
 30
0.0
 11
301.8226779484251
 21
-1561.482307307569
 31
0.0
  0
LINE
  5
3E8
330
34E
100
AcDbEntity
  8
1
  6
Continuous
 62
     8
100
AcDbLine
 10
301.8226779484251
 20
-1561.482307307569
 30
0.0
 11
301.8284754222771
 21
-1561.495905472777
 31
0.0
  0
LINE
  5
3E9
330
34E
100
AcDbEntity
  8
1
  6
Continuous
 62
     8
100
AcDbLine
 10
301.8284754222771
 20
-1561.495905472777
 30
0.0
 11
301.8338630820461
 21
-1561.504251457712
 31
0.0
  0
LINE
  5
3EA
330
34E
100
AcDbEntity
  8
1
  6
Continuous
 62
     8
100
AcDbLine
 10
301.8338630820461
 20
-1561.504251457712
 30
0.0
 11
301.8390458347738
 21
-1561.50997135251
 31
0.0
  0
ARC
  5
3EB
330
34E
100
AcDbEntity
  8
1
  6
Continuous
 62
     8
100
AcDbCircle
 10
300.8398756621362
 20
-1561.54450971509
 30
0.0
 40
0.9997669389881347
100
AcDbArc
 50
1.97975764579641
 51
72.52154281591551
  0
ELLIPSE
  5
3EC
330
34E
100
AcDbEntity
  8
1
  6
Continuous
 62
     8
100
AcDbEllipse
 10
250.932506393536
 20
-1543.04487084919
 30
0.0
 11
1.025745163479435
 21
0.1306515484807846
 31
0.0
210
0.0
220
0.0
230
1.0
 40
0.032975745
 41
5.227285087067939
 42
6.273630535639288
  0
ARC
  5
3ED
330
34E
100
AcDbEntity
  8
1
  6
Continuous
 62
     8
100
AcDbCircle
 10
249.7037537347358
 20
-1557.00962786669
 30
0.0
 40
2.439482446980151
100
AcDbArc
 50
73.12215729439839
 51
84.90868014779217
  0
CIRCLE
  5
3EE
330
34E
100
AcDbEntity
  8
1
  6
Continuous
 62
     7
100
AcDbCircle
 10
261.413454214636
 20
-1533.04487084919
 30
0.0
 40
3.000000000000022
  0
HATCH
  5
3EF
330
34E
100
AcDbEntity
  8
1
  6
Continuous
 62
     7
100
AcDbHatch
 10
0.0
 20
0.0
 30
0.0
210
0.0
220
0.0
230
1.0
  2
_U
 70
     0
 71
     0
 91
        2
 92
        0
 93
       28
 72
     1
 10
273.114094593236
 20
-1535.28627968209
 11
269.7128138360361
 21
-1527.80346201629
 72
     2
 10
266.9817144036359
 20
-1529.04487084919
 40
3.0
 50
24.44395478039929
 51
90.0
 73
     1
 72
     1
 10
266.9817144036359
 20
-1526.04487084919
 11
255.8451940256362
 21
-1526.04487084919
 72
     2
 10
255.8451940256362
 20
-1529.04487084919
 40
3.0
 50
90.0
 51
155.5560452196007
 73
     1
 72
     1
 10
253.114094593236
 20
-1527.80346201629
 11
249.7128138360361
 21
-1535.28627968209
 72
     2
 10
246.9817144036359
 20
-1534.04487084919
 40
3.0
 50
24.44395478039533
 51
90.0
 73
     0
 72
     1
 10
246.9817144036359
 20
-1537.04487084919
 11
225.4967258981358
 21
-1537.04487084919
 72
     2
 10
225.4967258981358
 20
-1546.04487084919
 40
9.0
 50
90.0
 51
177.9999999999993
 73
     1
 72
     1
 10
216.5022084549362
 20
-1545.73077537889
 11
214.413454214636
 21
-1605.54487084919
 72
     1
 10
214.413454214636
 20
-1605.54487084919
 11
219.4158923918361
 21
-1605.54487084919
 72
     1
 10
219.4158923918361
 20
-1605.54487084919
 11
221.4648509935362
 21
-1546.87037336569
 72
     2
 10
226.4618051286359
 20
-1547.04487084919
 40
5.000000000000002
 50
182.000000000001
 51
270.0
 73
     0
 72
     1
 10
226.4618051286359
 20
-1542.04487084919
 11
286.9477654398359
 21
-1542.04487084919
 72
     2
 10
286.9477654398359
 20
-1543.04487084919
 40
1.000000000000003
 50
270.0
 51
357.999999999997
 73
     0
 72
     1
 10
287.9471562668362
 20
-1543.00997135249
 11
288.351182550536
 21
-1554.57977034589
 72
     2
 10
289.3505733775358
 20
-1554.54487084919
 40
1.000000000000004
 50
181.999999999991
 51
270.0
 73
     1
 72
     1
 10
289.3505733775358
 20
-1555.54487084919
 11
293.9477654398359
 21
-1555.54487084919
 72
     2
 10
293.9477654398359
 20
-1556.54487084919
 40
1.0
 50
270.0
 51
357.999999999997
 73
     0
 72
     1
 10
294.9471562668362
 20
-1556.50997135249
 11
295.0543560098361
 21
-1559.57977034589
 72
     2
 10
296.053746836936
 20
-1559.54487084919
 40
1.000000000000003
 50
181.999999999991
 51
270.0
 73
     1
 72
     1
 10
296.053746836936
 20
-1560.54487084919
 11
300.8738926354361
 21
-1560.54487084919
 72
     2
 10
300.8738926354361
 20
-1561.54487084919
 40
1.000000000000028
 50
270.0
 51
357.9999999999961
 73
     0
 72
     1
 10
301.873283462536
 20
-1561.50997135249
 11
303.411016037436
 21
-1605.54487084919
 72
     1
 10
303.411016037436
 20
-1605.54487084919
 11
308.413454214636
 21
-1605.54487084919
 72
     1
 10
308.413454214636
 20
-1605.54487084919
 11
306.3246999743358
 21
-1545.73077537889
 72
     2
 10
297.3301825311358
 20
-1546.04487084919
 40
9.0
 50
2.000000000000655
 51
90.0
 73
     1
 72
     1
 10
297.3301825311358
 20
-1537.04487084919
 11
275.8451940256362
 21
-1537.04487084919
 72
     2
 10
275.8451940256362
 20
-1534.04487084919
 40
3.000000000000004
 50
90.0
 51
155.5560452196047
 73
     0
 97
        0
 92
        0
 93
        1
 72
     2
 10
261.413454214636
 20
-1533.04487084919
 40
3.000000000000022
 50
0.0
 51
360.0
 73
     1
 97
        0
 75
     0
 76
     0
 52
45.00000000014619
 41
4.0
 77
     0
 78
     1
 53
45.00000000014619
 43
0.0
 44
0.0
 45
-2.828427124753407
 46
2.828427124738973
 79
     0
 98
        1
 10
0.0
 20
0.0
  0
LINE
  5
3F0
330
34E
100
AcDbEntity
  8
1
  6
CENTER2
 62
     5
100
AcDbLine
 10
267.0126005972182
 20
-1533.04487084919
 30
0.0
 11
255.6503039486241
 21
-1533.04487084919
 31
0.0
  0
POINT
  5
3F1
330
34E
100
AcDbEntity
  8
1
  6
Continuous
 62
     7
100
AcDbPoint
 10
287.9134542146251
 20
-1542.04487084919
 30
0.0
  0
POINT
  5
3F2
330
34E
100
AcDbEntity
  8
1
  6
Continuous
 62
     7
100
AcDbPoint
 10
301.8395814103242
 20
-1560.54487084919
 30
0.0
  0
POINT
  5
3F3
330
34E
100
AcDbEntity
  8
1
  6
Continuous
 62
     7
100
AcDbPoint
 10
295.0880580620372
 20
-1560.54487084919
 30
0.0
  0
POINT
  5
3F4
330
34E
100
AcDbEntity
  8
1
  6
Continuous
 62
     7
100
AcDbPoint
 10
268.9134542146226
 20
-1526.04487084919
 30
0.0
  0
POINT
  5
3F5
330
34E
100
AcDbEntity
  8
1
  6
Continuous
 62
     7
100
AcDbPoint
 10
273.9134542146494
 20
-1537.04487084919
 30
0.0
  0
POINT
  5
3F6
330
34E
100
AcDbEntity
  8
1
  6
Continuous
 62
     7
100
AcDbPoint
 10
253.9134542146492
 20
-1526.04487084919
 30
0.0
  0
POINT
  5
3F7
330
34E
100
AcDbEntity
  8
1
  6
Continuous
 62
     7
100
AcDbPoint
 10
248.9134542146224
 20
-1537.04487084919
 30
0.0
  0
ARC
  5
3F8
330
34E
100
AcDbEntity
  8
1
  6
HIDDEN
 62
     1
100
AcDbCircle
 10
296.3651033006357
 20
-1547.04487084919
 30
0.0
 40
5.000000000000002
100
AcDbArc
 50
2.000000000000985
 51
90.0
  0
LINE
  5
3F9
330
34E
100
AcDbEntity
  8
1
  6
HIDDEN
 62
     1
100
AcDbLine
 10
301.3620574357358
 20
-1546.87037336569
 30
0.0
 11
301.873283462536
 21
-1561.50997135249
 31
0.0
  0
LINE
  5
3FA
330
34E
100
AcDbEntity
  8
6
  6
Continuous
 62
     7
100
AcDbLine
 10
283.2046275807773
 20
-1531.54487084919
 30
0.0
 11
271.413454214636
 21
-1531.54487084919
 31
0.0
  0
LINE
  5
3FB
330
34E
100
AcDbEntity
  8
6
  6
Continuous
 62
     7
100
AcDbLine
 10
264.0183778075219
 20
-1531.54487084919
 30
0.0
 11
261.2046275807773
 21
-1531.54487084919
 31
0.0
  0
LINE
  5
3FC
330
34E
100
AcDbEntity
  8
6
  6
Continuous
 62
     7
100
AcDbLine
 10
283.2046275807773
 20
-1535.54487084919
 30
0.0
 11
273.247117814263
 21
-1535.54487084919
 31
0.0
  0
CIRCLE
  5
3FD
330
34E
100
AcDbEntity
  8
6
  6
Continuous
 62
     7
100
AcDbCircle
 10
261.2046275807773
 20
-1532.5854522547
 30
0.0
 40
1.0
  0
CIRCLE
  5
3FE
330
34E
100
AcDbEntity
  8
6
  6
Continuous
 62
     7
100
AcDbCircle
 10
283.2046275807773
 20
-1534.54487084919
 30
0.0
 40
1.0
  0
ARC
  5
3FF
330
34E
100
AcDbEntity
  8
6
  6
Continuous
 62
     7
100
AcDbCircle
 10
261.2046275807773
 20
-1534.54487084919
 30
0.0
 40
1.0
100
AcDbArc
 50
79.95857188423582
 51
280.367641442742
  0
ARC
  5
400
330
34E
100
AcDbEntity
  8
6
  6
Continuous
 62
     7
100
AcDbCircle
 10
283.2046275807773
 20
-1532.54487084919
 30
0.0
 40
1.0
100
AcDbArc
 50
270.0
 51
90.0
  0
LINE
  5
401
330
34E
100
AcDbEntity
  8
6
  6
Continuous
 62
     7
100
AcDbLine
 10
261.3845912121345
 20
-1535.528544113739
 30
0.0
 11
263.3311030993364
 21
-1535.351951852321
 31
0.0
  0
LINE
  5
402
330
34E
100
AcDbEntity
  8
6
  6
Continuous
 62
     7
100
AcDbLine
 10
272.7553150007209
 20
-1534.496964578577
 30
0.0
 11
283.2949789378875
 21
-1533.540780801079
 31
0.0
  0
LINE
  5
403
330
34E
100
AcDbEntity
  8
6
  6
Continuous
 62
     7
100
AcDbLine
 10
261.2046275807773
 20
-1533.54487084919
 30
0.0
 11
264.4061265728349
 21
-1533.254423125416
 31
0.0
  0
LINE
  5
404
330
34E
100
AcDbEntity
  8
6
  6
Continuous
 62
     7
100
AcDbLine
 10
271.8822279841873
 20
-1532.576173142202
 30
0.0
 11
283.2949789378529
 21
-1531.540780801082
 31
0.0
  0
LINE
  5
405
330
34E
100
AcDbEntity
  8
1
  6
Continuous
 62
     7
100
AcDbLine
 10
261.3845912121345
 20
-1535.528544113739
 30
0.0
 11
263.1608734053846
 21
-1535.528544113739
 31
0.0
  0
ENDBLK
  5
350
330
34E
100
AcDbEntity
  8
0
100
AcDbBlockEnd
  0
ENDSEC
  0
SECTION
  2
ENTITIES
  0
LINE
  5
B1
330
1F
100
AcDbEntity
  8
1
  6
Continuous
 62
     7
100
AcDbLine
 10
-21.96614993617709
 20
-1079.991621020336
 30
0.0
 11
532.0338500638229
 21
-1079.991621020336
 31
0.0
  0
LINE
  5
B2
330
1F
100
AcDbEntity
  8
1
  6
Continuous
 62
     7
100
AcDbLine
 10
532.0338500638229
 20
-1079.991621020336
 30
0.0
 11
532.0338500638229
 21
-1879.991621020336
 31
0.0
  0
LINE
  5
B3
330
1F
100
AcDbEntity
  8
1
  6
Continuous
 62
     7
100
AcDbLine
 10
-21.96614993617709
 20
-1879.991621020336
 30
0.0
 11
-21.96614993617709
 21
-1079.991621020336
 31
0.0
  0
INSERT
  5
D4
330
1F
100
AcDbEntity
  8
1
  6
Continuous
 62
     0
100
AcDbBlockReference
  2
BLK0
 10
402.0339800638226
 20
-1825.991641020337
 30
0.0
  0
LINE
  5
D5
330
1F
100
AcDbEntity
  8
1
  6
Continuous
 62
     7
100
AcDbLine
 10
412.0339700638226
 20
-1803.991663020337
 30
0.0
 11
412.0339700638226
 21
-1879.991621020336
 31
0.0
  0
LINE
  5
D6
330
1F
100
AcDbEntity
  8
1
  6
Continuous
 62
     7
100
AcDbLine
 10
402.0339800638226
 20
-1879.991621020336
 30
0.0
 11
402.0339800638226
 21
-1803.991663020337
 31
0.0
  0
LINE
  5
D7
330
1F
100
AcDbEntity
  8
1
  6
Continuous
 62
     7
100
AcDbLine
 10
368.0339800638226
 20
-1825.991641020337
 30
0.0
 11
368.0339800638226
 21
-1859.991641020336
 31
0.0
  0
LINE
  5
D8
330
1F
100
AcDbEntity
  8
1
  6
Continuous
 62
     7
100
AcDbLine
 10
358.0339900638226
 20
-1859.991641020336
 30
0.0
 11
358.0339900638226
 21
-1825.991641020337
 31
0.0
  0
LINE
  5
D9
330
1F
100
AcDbEntity
  8
1
  6
Continuous
 62
     7
100
AcDbLine
 10
324.0339900638226
 20
-1825.991641020337
 30
0.0
 11
324.0339900638226
 21
-1859.991641020336
 31
0.0
  0
LINE
  5
DA
330
1F
100
AcDbEntity
  8
1
  6
Continuous
 62
     7
100
AcDbLine
 10
314.0340000638228
 20
-1859.991641020336
 30
0.0
 11
314.0340000638228
 21
-1825.991641020337
 31
0.0
  0
LINE
  5
DB
330
1F
100
AcDbEntity
  8
1
  6
Continuous
 62
     7
100
AcDbLine
 10
280.034000063823
 20
-1803.991663020337
 30
0.0
 11
280.0340000638228
 21
-1859.991641020336
 31
0.0
  0
LINE
  5
DC
330
1F
100
AcDbEntity
  8
1
  6
Continuous
 62
     7
100
AcDbLine
 10
512.0338700638229
 20
-1803.991663020337
 30
0.0
 11
512.0338700638229
 21
-1825.991641020337
 31
0.0
  0
LINE
  5
DD
330
1F
100
AcDbEntity
  8
1
  6
Continuous
 62
     7
100
AcDbLine
 10
502.0338800638228
 20
-1803.991663020337
 30
0.0
 11
502.0338800638228
 21
-1825.991641020337
 31
0.0
  0
LINE
  5
DE
330
1F
100
AcDbEntity
  8
1
  6
Continuous
 62
     7
100
AcDbLine
 10
512.0338700638229
 20
-1859.991641020336
 30
0.0
 11
512.0338700638229
 21
-1879.991621020336
 31
0.0
  0
LINE
  5
DF
330
1F
100
AcDbEntity
  8
1
  6
Continuous
 62
     7
100
AcDbLine
 10
502.0338800638228
 20
-1859.991641020336
 30
0.0
 11
502.0338800638228
 21
-1879.991621020336
 31
0.0
  0
LINE
  5
E0
330
1F
100
AcDbEntity
  8
1
  6
Continuous
 62
     7
100
AcDbLine
 10
484.0338980638226
 20
-1859.991641020336
 30
0.0
 11
484.0338980638226
 21
-1879.991621020336
 31
0.0
  0
LINE
  5
E1
330
1F
100
AcDbEntity
  8
1
  6
Continuous
 62
     7
100
AcDbLine
 10
270.0340100638227
 20
-1859.991641020336
 30
0.0
 11
532.0338500638229
 21
-1859.991641020336
 31
0.0
  0
LINE
  5
E2
330
1F
100
AcDbEntity
  8
1
  6
Continuous
 62
     7
100
AcDbLine
 10
532.0338500638229
 20
-1825.991641020337
 30
0.0
 11
270.0340100638227
 21
-1825.991641020337
 31
0.0
  0
LINE
  5
E3
330
1F
100
AcDbEntity
  8
1
  6
Continuous
 62
     7
100
AcDbLine
 10
270.0340100638227
 20
-1803.991663020337
 30
0.0
 11
532.0338500638229
 21
-1803.991663020337
 31
0.0
  0
LINE
  5
E4
330
1F
100
AcDbEntity
  8
1
  6
Continuous
 62
     7
100
AcDbLine
 10
270.0340100638227
 20
-1803.991663020337
 30
0.0
 11
270.0340100638227
 21
-1879.991621020336
 31
0.0
  0
LINE
  5
E5
330
1F
100
AcDbEntity
  8
1
  6
Continuous
 62
     7
100
AcDbLine
 10
280.034000063823
 20
-1803.991663020337
 30
0.0
 11
280.0340000638228
 21
-1859.991641020336
 31
0.0
  0
MTEXT
  5
E6
330
1F
100
AcDbEntity
  8
1
  6
Continuous
 62
     7
100
AcDbMText
 10
271.5340050638226
 20
-1814.491656020337
 30
0.0
 40
7.0
 41
0.0
 71
     7
 72
     5
  1
{\fＭＳ 明朝|b0|i0|c128|p17;\W1.0;図}
  7
MTSTANDARD1
 73
     1
 44
0.8392857142857144
  0
MTEXT
  5
E7
330
1F
100
AcDbEntity
  8
1
  6
Continuous
 62
     7
100
AcDbMText
 10
403.5339750638227
 20
-1870.491634020337
 30
0.0
 40
7.0
 41
0.0
 71
     7
 72
     5
  1
{\fＭＳ 明朝|b0|i0|c128|p17;\W1.0;図}
  7
MTSTANDARD1
 73
     1
 44
0.8392857142857144
  0
MTEXT
  5
E8
330
1F
100
AcDbEntity
  8
1
  6
Continuous
 62
     7
100
AcDbMText
 10
271.5340050638226
 20
-1822.491648020337
 30
0.0
 40
7.0
 41
0.0
 71
     7
 72
     5
  1
{\fＭＳ 明朝|b0|i0|c128|p17;\W1.0;名}
  7
MTSTANDARD1
 73
     1
 44
0.8392857142857144
  0
MTEXT
  5
E9
330
1F
100
AcDbEntity
  8
1
  6
Continuous
 62
     7
100
AcDbMText
 10
403.5339750638227
 20
-1878.491626020337
 30
0.0
 40
7.0
 41
0.0
 71
     7
 72
     5
  1
{\fＭＳ 明朝|b0|i0|c128|p17;\W1.0;番}
  7
MTSTANDARD1
 73
     1
 44
0.8392857142857144
  0
MTEXT
  5
EA
330
1F
100
AcDbEntity
  8
1
  6
Continuous
 62
     7
100
AcDbMText
 10
271.5340050638226
 20
-1842.772547755229
 30
0.0
 40
7.0
 41
0.0
 71
     7
 72
     5
  1
{\fＭＳ 明朝|b0|i0|c128|p17;\W1.0;設}
  7
MTSTANDARD1
 73
     1
 44
0.8392857142857144
  0
MTEXT
  5
EB
330
1F
100
AcDbEntity
  8
1
  6
Continuous
 62
     7
100
AcDbMText
 10
271.5340050638226
 20
-1850.772539755229
 30
0.0
 40
7.0
 41
0.0
 71
     7
 72
     5
  1
{\fＭＳ 明朝|b0|i0|c128|p17;\W1.0;計}
  7
MTSTANDARD1
 73
     1
 44
0.8392857142857144
  0
MTEXT
  5
EC
330
1F
100
AcDbEntity
  8
1
  6
Continuous
 62
     7
100
AcDbMText
 10
403.5339750638227
 20
-1814.491656020337
 30
0.0
 40
7.0
 41
0.0
 71
     7
 72
     5
  1
{\fＭＳ 明朝|b0|i0|c128|p17;\W1.0;符}
  7
MTSTANDARD1
 73
     1
 44
0.8392857142857144
  0
MTEXT
  5
ED
330
1F
100
AcDbEntity
  8
1
  6
Continuous
 62
     7
100
AcDbMText
 10
403.5339750638227
 20
-1822.491648020337
 30
0.0
 40
7.0
 41
0.0
 71
     7
 72
     5
  1
{\fＭＳ 明朝|b0|i0|c128|p17;\W1.0;号}
  7
MTSTANDARD1
 73
     1
 44
0.8392857142857144
  0
MTEXT
  5
EE
330
1F
100
AcDbEntity
  8
1
  6
Continuous
 62
     7
100
AcDbMText
 10
403.5339750638227
 20
-1842.772547755229
 30
0.0
 40
7.0
 41
0.0
 71
     7
 72
     5
  1
{\fＭＳ 明朝|b0|i0|c128|p17;\W1.0;記}
  7
MTSTANDARD1
 73
     1
 44
0.8392857142857144
  0
MTEXT
  5
EF
330
1F
100
AcDbEntity
  8
1
  6
Continuous
 62
     7
100
AcDbMText
 10
403.5339750638227
 20
-1850.772539755229
 30
0.0
 40
7.0
 41
0.0
 71
     7
 72
     5
  1
{\fＭＳ 明朝|b0|i0|c128|p17;\W1.0;事}
  7
MTSTANDARD1
 73
     1
 44
0.8392857142857144
  0
MTEXT
  5
F0
330
1F
100
AcDbEntity
  8
1
  6
Continuous
 62
     7
100
AcDbMText
 10
503.5338750638193
 20
-1814.491656020337
 30
0.0
 40
7.0
 41
0.0
 71
     7
 72
     5
  1
{\fＭＳ 明朝|b0|i0|c128|p17;\W1.0;縮}
  7
MTSTANDARD1
 73
     1
 44
0.8392857142857144
  0
MTEXT
  5
F1
330
1F
100
AcDbEntity
  8
1
  6
Continuous
 62
     7
100
AcDbMText
 10
503.5338750638193
 20
-1822.491648020337
 30
0.0
 40
7.0
 41
0.0
 71
     7
 72
     5
  1
{\fＭＳ 明朝|b0|i0|c128|p17;\W1.0;尺}
  7
MTSTANDARD1
 73
     1
 44
0.8392857142857144
  0
MTEXT
  5
F3
330
1F
100
AcDbEntity
  8
1
  6
Continuous
 62
     7
100
AcDbMText
 10
302.0340100638227
 20
-1874.491631020337
 30
0.0
 40
9.0
 41
0.0
 71
     7
 72
     5
  1
{\fＭＳ ゴシック|b0|i0|c128|p49;\W1.0;伊藤鉄工株式会社}
  7
MTSTANDARD3
 73
     1
 44
0.7916666666666667
  0
MTEXT
  5
F5
330
1F
100
AcDbEntity
  8
1
  6
Continuous
 62
     7
100
AcDbMText
 10
504.033875063823
 20
-1867.991636020337
 30
0.0
 40
6.0
 41
0.0
 71
     7
 72
     5
  1
{\fＭＳ 明朝|b0|i0|c128|p17;\W1.0;葉}
  7
MTSTANDARD4
 73
     1
 44
0.8333333333333334
  0
MTEXT
  5
F6
330
1F
100
AcDbEntity
  8
1
  6
Continuous
 62
     7
100
AcDbMText
 10
504.033875063823
 20
-1872.991631020337
 30
0.0
 40
6.0
 41
0.0
 71
     7
 72
     5
  1
{\fＭＳ 明朝|b0|i0|c128|p17;\W1.0;ノ}
  7
MTSTANDARD4
 73
     1
 44
0.8333333333333334
  0
MTEXT
  5
F7
330
1F
100
AcDbEntity
  8
1
  6
Continuous
 62
     7
100
AcDbMText
 10
504.033875063823
 20
-1877.991626020337
 30
0.0
 40
6.0
 41
0.0
 71
     7
 72
     5
  1
{\fＭＳ 明朝|b0|i0|c128|p17;\W1.0;内}
  7
MTSTANDARD4
 73
     1
 44
0.8333333333333334
  0
LINE
  5
F8
330
1F
100
AcDbEntity
  8
1
  6
Continuous
 62
     7
100
AcDbLine
 10
270.0340100638227
 20
-1803.991663020337
 30
0.0
 11
270.0340100638227
 21
-1879.991621020336
 31
0.0
  0
LINE
  5
F9
330
1F
100
AcDbEntity
  8
1
  6
Continuous
 62
     7
100
AcDbLine
 10
270.0340100638227
 20
-1803.991663020337
 30
0.0
 11
270.0340100638227
 21
-1879.991621020336
 31
0.0
  0
LINE
  5
FA
330
1F
100
AcDbEntity
  8
1
  6
Continuous
 62
     7
100
AcDbLine
 10
512.0338700638229
 20
-1879.991621020336
 30
0.0
 11
532.0338500638229
 21
-1859.991641020336
 31
0.0
  0
MTEXT
  5
FB
330
1F
100
AcDbEntity
  8
1
  6
Continuous
 62
     7
100
AcDbMText
 10
421.0339250638226
 20
-1818.991652020337
 30
0.0
 40
8.0
 41
0.0
 71
     7
 72
     5
  1
{\fＭＳ 明朝|b0|i0|c128|p17;\W1.0;Ｔ５ＡＹＤＲ－５０}
  7
MTSTANDARD
 73
     1
 44
1.171874999999988
  0
MTEXT
  5
FC
330
1F
100
AcDbEntity
  8
1
  6
Continuous
 62
     7
100
AcDbMText
 10
290.034006063825
 20
-1823.991652020337
 30
0.0
 40
8.0
 41
0.0
 71
     7
 72
     5
  1
{\fＭＳ 明朝|b0|i0|c128|p17;\W1.0;シート露出防水用\P排水金具付き床排水トラップ}
  7
MTSTANDARD
 73
     1
 44
0.78125
  0
MTEXT
  5
FD
330
1F
100
AcDbEntity
  8
1
  6
Continuous
 62
     7
100
AcDbMText
 10
517.5338600638229
 20
-1817.991652020337
 30
0.0
 40
6.0
 41
0.0
 71
     7
 72
     5
  1
{\fＭＳ 明朝|b0|i0|c128|p17;\W1.0;1/2}
  7
MTSTANDARD4
 73
     1
 44
1.354165520833317
  0
LINE
  5
FE
330
1F
100
AcDbEntity
  8
1
  6
Continuous
 62
     7
100
AcDbLine
 10
-21.96614993617709
 20
-1879.991621020336
 30
0.0
 11
532.0338500638229
 21
-1879.991621020336
 31
0.0
  0
LINE
  5
FF
330
1F
100
AcDbEntity
  8
1
  6
Continuous
 62
     7
100
AcDbLine
 10
532.0338500638229
 20
-1879.991621020336
 30
0.0
 11
532.0338500638229
 21
-1803.991663020337
 31
0.0
  0
MTEXT
  5
100
330
1F
100
AcDbEntity
  8
1
  6
Continuous
 62
     7
100
AcDbMText
 10
412.3302063601191
 20
-1874.031421541598
 30
0.0
 40
8.0
 41
0.0
 71
     7
 72
     5
  1
{\fＭＳ 明朝|b0|i0|c128|p17;\W1.0;Ｇ０１Ａ１５０４８}
  7
MTSTANDARD
 73
     1
 44
3.28125
  0
MTEXT
  5
101
330
1F
100
AcDbEntity
  8
1
  6
Continuous
 62
     7
100
AcDbMText
 10
97.1322567712023
 20
-1794.300268591294
 30
0.0
 40
8.0
 41
0.0
 71
     7
 72
     5
  1
{\fＭＳ 明朝|b0|i0|c128|p17;\W1.0;ポリエチレン}
  7
MTSTANDARD
 73
     1
 44
0.9375
  0
LINE
  5
102
330
1F
100
AcDbEntity
  8
1
  6
Continuous
 62
     7
100
AcDbLine
 10
-8.867743228799242
 20
-1734.300268591294
 30
0.0
 11
259.7989234376731
 21
-1734.300268591294
 31
0.0
  0
LINE
  5
103
330
1F
100
AcDbEntity
  8
1
  6
Continuous
 62
     7
100
AcDbLine
 10
241.1322567710061
 20
-1718.300268591294
 30
0.0
 11
241.1322567710414
 21
-1846.30026859125
 31
0.0
  0
LINE
  5
104
330
1F
100
AcDbEntity
  8
1
  6
Continuous
 62
     7
100
AcDbLine
 10
-8.867743228799242
 20
-1718.300268591294
 30
0.0
 11
-8.867743228798673
 21
-1846.300268591294
 31
0.0
  0
LINE
  5
105
330
1F
100
AcDbEntity
  8
1
  6
Continuous
 62
     7
100
AcDbLine
 10
-8.867743228799242
 20
-1718.300268591294
 30
0.0
 11
259.7989234376731
 21
-1718.300268591294
 31
0.0
  0
LINE
  5
106
330
1F
100
AcDbEntity
  8
1
  6
Continuous
 62
     7
100
AcDbLine
 10
-8.867743228799242
 20
-1750.300268591294
 30
0.0
 11
259.7989234376731
 21
-1750.300268591294
 31
0.0
  0
LINE
  5
107
330
1F
100
AcDbEntity
  8
1
  6
Continuous
 62
     7
100
AcDbLine
 10
-8.867743228799242
 20
-1766.300268591294
 30
0.0
 11
81.13225677120258
 21
-1766.300268591294
 31
0.0
  0
LINE
  5
108
330
1F
100
AcDbEntity
  8
1
  6
Continuous
 62
     7
100
AcDbLine
 10
241.1322567710061
 20
-1766.300268591294
 30
0.0
 11
259.7989234376731
 21
-1766.300268591294
 31
0.0
  0
LINE
  5
109
330
1F
100
AcDbEntity
  8
1
  6
Continuous
 62
     7
100
AcDbLine
 10
11.13225677120076
 20
-1718.300268591294
 30
0.0
 11
11.13225677120133
 21
-1846.300268591294
 31
0.0
  0
LINE
  5
10A
330
1F
100
AcDbEntity
  8
1
  6
Continuous
 62
     7
100
AcDbLine
 10
81.13225677120258
 20
-1846.300268591294
 30
0.0
 11
81.13225677120258
 21
-1718.300268591294
 31
0.0
  0
LINE
  5
10B
330
1F
100
AcDbEntity
  8
1
  6
Continuous
 62
     7
100
AcDbLine
 10
161.1322567712017
 20
-1718.300268591294
 30
0.0
 11
161.1322567712022
 21
-1846.300268591293
 31
0.0
  0
MTEXT
  5
10C
330
1F
100
AcDbEntity
  8
1
  6
Continuous
 62
     7
100
AcDbMText
 10
-6.867743228799242
 20
-1730.300268591294
 30
0.0
 40
8.0
 41
0.0
 71
     7
 72
     5
  1
{\fＭＳ 明朝|b0|i0|c128|p17;\W1.0;部番}
  7
MTSTANDARD
 73
     1
 44
0.9375
  0
MTEXT
  5
10D
330
1F
100
AcDbEntity
  8
1
  6
Continuous
 62
     7
100
AcDbMText
 10
34.13225677120167
 20
-1730.300268591294
 30
0.0
 40
8.0
 41
0.0
 71
     7
 72
     5
  1
{\fＭＳ 明朝|b0|i0|c128|p17;\W1.0;部品名}
  7
MTSTANDARD
 73
     1
 44
0.9375
  0
MTEXT
  5
10E
330
1F
100
AcDbEntity
  8
1
  6
Continuous
 62
     7
100
AcDbMText
 10
113.1322567712017
 20
-1730.300268591294
 30
0.0
 40
8.0
 41
0.0
 71
     7
 72
     5
  1
{\fＭＳ 明朝|b0|i0|c128|p17;\W1.0;材質}
  7
MTSTANDARD
 73
     1
 44
0.625
  0
MTEXT
  5
10F
330
1F
100
AcDbEntity
  8
1
  6
Continuous
 62
     7
100
AcDbMText
 10
193.1322567711039
 20
-1730.300268591294
 30
0.0
 40
8.0
 41
0.0
 71
     7
 72
     5
  1
{\fＭＳ 明朝|b0|i0|c128|p17;\W1.0;備考}
  7
MTSTANDARD
 73
     1
 44
0.9375
  0
INSERT
  5
115
330
1F
100
AcDbEntity
  8
1
  6
ByBlock
 62
     3
100
AcDbBlockReference
  2
MAKR0
 10
0.690962913739753
 20
-1742.182113848461
 30
0.0
  0
INSERT
  5
11B
330
1F
100
AcDbEntity
  8
1
  6
ByBlock
 62
     3
100
AcDbBlockReference
  2
MAKR1
 10
0.690962913739753
 20
-1758.182113848461
 30
0.0
  0
MTEXT
  5
11C
330
1F
100
AcDbEntity
  8
1
  6
Continuous
 62
     7
100
AcDbMText
 10
22.13225677120167
 20
-1746.300268591294
 30
0.0
 40
8.0
 41
0.0
 71
     7
 72
     5
  1
{\fＭＳ 明朝|b0|i0|c128|p17;\W1.0;排水金具本体}
  7
MTSTANDARD
 73
     1
 44
1.875
  0
MTEXT
  5
11D
330
1F
100
AcDbEntity
  8
1
  6
Continuous
 62
     7
100
AcDbMText
 10
103.1322567712017
 20
-1746.300268591294
 30
0.0
 40
8.0
 41
0.0
 71
     7
 72
     5
  1
{\fＭＳ 明朝|b0|i0|c128|p17;\W1.0;FC150鋳鉄}
  7
MTSTANDARD
 73
     1
 44
0.9375
  0
MTEXT
  5
11E
330
1F
100
AcDbEntity
  8
1
  6
Continuous
 62
     7
100
AcDbMText
 10
183.6322567711039
 20
-1745.800268591294
 30
0.0
 40
7.0
 41
0.0
 71
     7
 72
     5
  1
{\fＭＳ 明朝|b0|i0|c128|p17;\W1.0;錆止め塗装}
  7
MTSTANDARD1
 73
     1
 44
2.053571428571429
  0
MTEXT
  5
11F
330
1F
100
AcDbEntity
  8
1
  6
Continuous
 62
     7
100
AcDbMText
 10
-8.867743228799242
 20
-1714.20651134855
 30
0.0
 40
8.0
 41
0.0
 71
     7
 72
     5
  1
{\fＭＳ 明朝|b0|i0|c128|p17;\W1.0;●部品表}
  7
MTSTANDARD
 73
     1
 44
1.203125
  0
MTEXT
  5
120
330
1F
100
AcDbEntity
  8
1
  6
Continuous
 62
     7
100
AcDbMText
 10
42.13225677120167
 20
-1762.300268591294
 30
0.0
 40
8.0
 41
0.0
 71
     7
 72
     5
  1
{\fＭＳ 明朝|b0|i0|c128|p17;\W1.0;枠}
  7
MTSTANDARD
 73
     1
 44
1.875
  0
MTEXT
  5
121
330
1F
100
AcDbEntity
  8
1
  6
Continuous
 62
     7
100
AcDbMText
 10
113.1322567712023
 20
-1826.300268591294
 30
0.0
 40
8.0
 41
0.0
 71
     7
 72
     5
  1
{\fＭＳ 明朝|b0|i0|c128|p17;\W1.0;樹脂}
  7
MTSTANDARD
 73
     1
 44
0.9375
  0
MTEXT
  5
122
330
1F
100
AcDbEntity
  8
1
  6
Continuous
 62
     7
100
AcDbMText
 10
173.1322567711083
 20
-1776.96693525796
 30
0.0
 40
8.0
 41
0.0
 71
     7
 72
     5
  1
{\fＭＳ 明朝|b0|i0|c128|p17;\W1.0;ニッケル　\Pクロームメッキ}
  7
MTSTANDARD
 73
     1
 44
1.041666666666667
  0
LINE
  5
123
330
1F
100
AcDbEntity
  8
1
  6
Continuous
 62
     7
100
AcDbLine
 10
259.7989234376736
 20
-1718.300268591294
 30
0.0
 11
259.7989234377084
 21
-1846.300268591245
 31
0.0
  0
MTEXT
  5
124
330
1F
100
AcDbEntity
  8
1
  6
Continuous
 62
     7
100
AcDbMText
 10
242.4655901043387
 20
-1730.300268591294
 30
0.0
 40
8.0
 41
0.0
 71
     7
 72
     5
  1
{\fＭＳ 明朝|b0|i0|c128|p17;\W1.0;数量}
  7
MTSTANDARD
 73
     1
 44
0.9375
  0
MTEXT
  5
125
330
1F
100
AcDbEntity
  8
1
  6
Continuous
 62
     7
100
AcDbMText
 10
248.4655901043387
 20
-1746.300268591294
 30
0.0
 40
8.0
 41
0.0
 71
     7
 72
     5
  1
{\fＭＳ 明朝|b0|i0|c128|p17;\W1.0;1}
  7
MTSTANDARD
 73
     1
 44
0.9375
  0
MTEXT
  5
126
330
1F
100
AcDbEntity
  8
1
  6
Continuous
 62
     7
100
AcDbMText
 10
248.4655901043387
 20
-1762.300268591294
 30
0.0
 40
8.0
 41
0.0
 71
     7
 72
     5
  1
{\fＭＳ 明朝|b0|i0|c128|p17;\W1.0;1}
  7
MTSTANDARD
 73
     1
 44
0.9375
  0
LINE
  5
127
330
1F
100
AcDbEntity
  8
1
  6
Continuous
 62
     7
100
AcDbLine
 10
-8.867743228799242
 20
-1782.300268591294
 30
0.0
 11
241.1322567710061
 21
-1782.300268591294
 31
0.0
  0
LINE
  5
128
330
1F
100
AcDbEntity
  8
1
  6
Continuous
 62
     7
100
AcDbLine
 10
241.1322567710239
 20
-1782.300268591294
 30
0.0
 11
259.7989234376731
 21
-1782.300268591294
 31
0.0
  0
INSERT
  5
12E
330
1F
100
AcDbEntity
  8
1
  6
ByBlock
 62
     3
100
AcDbBlockReference
  2
MAKR2
 10
0.690962913739753
 20
-1774.182113848461
 30
0.0
  0
MTEXT
  5
12F
330
1F
100
AcDbEntity
  8
1
  6
Continuous
 62
     7
100
AcDbMText
 10
38.13225677120167
 20
-1778.300268591294
 30
0.0
 40
8.0
 41
0.0
 71
     7
 72
     5
  1
{\fＭＳ 明朝|b0|i0|c128|p17;\W1.0;目皿}
  7
MTSTANDARD
 73
     1
 44
1.875
  0
MTEXT
  5
130
330
1F
100
AcDbEntity
  8
1
  6
Continuous
 62
     7
100
AcDbMText
 10
197.6322567711039
 20
-1793.800268591294
 30
0.0
 40
7.0
 41
0.0
 71
     7
 72
     5
  1
{\fＭＳ 明朝|b0|i0|c128|p17;\W1.0;－}
  7
MTSTANDARD1
 73
     1
 44
1.026785714285714
  0
MTEXT
  5
131
330
1F
100
AcDbEntity
  8
1
  6
Continuous
 62
     7
100
AcDbMText
 10
248.4655901043387
 20
-1778.300268591294
 30
0.0
 40
8.0
 41
0.0
 71
     7
 72
     5
  1
{\fＭＳ 明朝|b0|i0|c128|p17;\W1.0;1}
  7
MTSTANDARD
 73
     1
 44
0.9375
  0
LINE
  5
132
330
1F
100
AcDbEntity
  8
1
  6
Continuous
 62
     7
100
AcDbLine
 10
-8.867743228799242
 20
-1798.300268591294
 30
0.0
 11
241.1322567710061
 21
-1798.300268591294
 31
0.0
  0
LINE
  5
133
330
1F
100
AcDbEntity
  8
1
  6
Continuous
 62
     7
100
AcDbLine
 10
241.1322567710282
 20
-1798.300268591294
 30
0.0
 11
259.7989234376731
 21
-1798.300268591294
 31
0.0
  0
INSERT
  5
139
330
1F
100
AcDbEntity
  8
1
  6
ByBlock
 62
     3
100
AcDbBlockReference
  2
MAKR3
 10
0.690962913739753
 20
-1790.182113848461
 30
0.0
  0
MTEXT
  5
13B
330
1F
100
AcDbEntity
  8
1
  6
Continuous
 62
     7
100
AcDbMText
 10
11.93225677120166
 20
-1794.100268591294
 30
0.0
 40
7.6
 41
0.0
 71
     7
 72
     5
  1
{\fＭＳ 明朝|b0|i0|c128|p17;\W1.0;スリップワッシャー}
  7
MTSTANDARD5
 73
     1
 44
1.940789473684211
  0
MTEXT
  5
13C
330
1F
100
AcDbEntity
  8
1
  6
Continuous
 62
     7
100
AcDbMText
 10
248.4655901043387
 20
-1794.300268591294
 30
0.0
 40
8.0
 41
0.0
 71
     7
 72
     5
  1
{\fＭＳ 明朝|b0|i0|c128|p17;\W1.0;1}
  7
MTSTANDARD
 73
     1
 44
0.9375
  0
LINE
  5
13D
330
1F
100
AcDbEntity
  8
1
  6
Continuous
 62
     7
100
AcDbLine
 10
-8.867743228799242
 20
-1814.300268591294
 30
0.0
 11
241.1322567710061
 21
-1814.300268591294
 31
0.0
  0
LINE
  5
13E
330
1F
100
AcDbEntity
  8
1
  6
Continuous
 62
     7
100
AcDbLine
 10
241.1322567710061
 20
-1814.300268591294
 30
0.0
 11
259.7989234376731
 21
-1814.300268591294
 31
0.0
  0
INSERT
  5
144
330
1F
100
AcDbEntity
  8
1
  6
ByBlock
 62
     3
100
AcDbBlockReference
  2
MAKR4
 10
0.690962913739753
 20
-1806.182113848461
 30
0.0
  0
MTEXT
  5
145
330
1F
100
AcDbEntity
  8
1
  6
Continuous
 62
     7
100
AcDbMText
 10
34.13225677120167
 20
-1810.300268591294
 30
0.0
 40
8.0
 41
0.0
 71
     7
 72
     5
  1
{\fＭＳ 明朝|b0|i0|c128|p17;\W1.0;本　体}
  7
MTSTANDARD
 73
     1
 44
1.875
  0
MTEXT
  5
146
330
1F
100
AcDbEntity
  8
1
  6
Continuous
 62
     7
100
AcDbMText
 10
101.1322567712022
 20
-1770.300268591294
 30
0.0
 40
8.0
 41
0.0
 71
     7
 72
     5
  1
{\fＭＳ 明朝|b0|i0|c128|p17;\W1.0;CAC202黄銅}
  7
MTSTANDARD
 73
     1
 44
1.5625
  0
MTEXT
  5
147
330
1F
100
AcDbEntity
  8
1
  6
Continuous
 62
     7
100
AcDbMText
 10
248.4655901043387
 20
-1810.300268591294
 30
0.0
 40
8.0
 41
0.0
 71
     7
 72
     5
  1
{\fＭＳ 明朝|b0|i0|c128|p17;\W1.0;1}
  7
MTSTANDARD
 73
     1
 44
0.9375
  0
LINE
  5
148
330
1F
100
AcDbEntity
  8
1
  6
Continuous
 62
     7
100
AcDbLine
 10
-8.867743228799242
 20
-1830.300268591294
 30
0.0
 11
259.7989234376731
 21
-1830.300268591294
 31
0.0
  0
INSERT
  5
14E
330
1F
100
AcDbEntity
  8
1
  6
ByBlock
 62
     3
100
AcDbBlockReference
  2
MAKR5
 10
0.690962913739753
 20
-1822.182113848461
 30
0.0
  0
MTEXT
  5
14F
330
1F
100
AcDbEntity
  8
1
  6
Continuous
 62
     7
100
AcDbMText
 10
42.13225677120167
 20
-1826.300268591294
 30
0.0
 40
8.0
 41
0.0
 71
     7
 72
     5
  1
{\fＭＳ 明朝|b0|i0|c128|p17;\W1.0;椀}
  7
MTSTANDARD
 73
     1
 44
1.875
  0
MTEXT
  5
150
330
1F
100
AcDbEntity
  8
1
  6
Continuous
 62
     7
100
AcDbMText
 10
248.4655901043387
 20
-1826.300268591294
 30
0.0
 40
8.0
 41
0.0
 71
     7
 72
     5
  1
{\fＭＳ 明朝|b0|i0|c128|p17;\W1.0;1}
  7
MTSTANDARD
 73
     1
 44
0.9375
  0
LINE
  5
151
330
1F
100
AcDbEntity
  8
1
  6
Continuous
 62
     7
100
AcDbLine
 10
-8.867743228799242
 20
-1846.300268591294
 30
0.0
 11
241.1322567710414
 21
-1846.300268591294
 31
0.0
  0
LINE
  5
152
330
1F
100
AcDbEntity
  8
1
  6
Continuous
 62
     7
100
AcDbLine
 10
241.1322567710414
 20
-1846.300268591294
 30
0.0
 11
259.7989234376731
 21
-1846.300268591294
 31
0.0
  0
INSERT
  5
158
330
1F
100
AcDbEntity
  8
1
  6
ByBlock
 62
     3
100
AcDbBlockReference
  2
MAKR6
 10
0.690962913739753
 20
-1838.182113848461
 30
0.0
  0
MTEXT
  5
159
330
1F
100
AcDbEntity
  8
1
  6
Continuous
 62
     7
100
AcDbMText
 10
38.13225677120167
 20
-1842.300268591294
 30
0.0
 40
8.0
 41
0.0
 71
     7
 72
     5
  1
{\fＭＳ 明朝|b0|i0|c128|p17;\W1.0;ビス}
  7
MTSTANDARD
 73
     1
 44
1.875
  0
MTEXT
  5
15A
330
1F
100
AcDbEntity
  8
1
  6
Continuous
 62
     7
100
AcDbMText
 10
105.1322567712017
 20
-1842.300268591294
 30
0.0
 40
8.0
 41
0.0
 71
     7
 72
     5
  1
{\fＭＳ 明朝|b0|i0|c128|p17;\W1.0;SWRM軟鋼}
  7
MTSTANDARD
 73
     1
 44
1.875
  0
MTEXT
  5
15B
330
1F
100
AcDbEntity
  8
1
  6
Continuous
 62
     7
100
AcDbMText
 10
176.6322567711039
 20
-1841.800268591294
 30
0.0
 40
7.0
 41
0.0
 71
     7
 72
     5
  1
{\fＭＳ 明朝|b0|i0|c128|p17;\W1.0;ユニクロメッキ}
  7
MTSTANDARD1
 73
     1
 44
2.053571428571429
  0
MTEXT
  5
15C
330
1F
100
AcDbEntity
  8
1
  6
Continuous
 62
     7
100
AcDbMText
 10
248.4655901043387
 20
-1842.300268591294
 30
0.0
 40
8.0
 41
0.0
 71
     7
 72
     5
  1
{\fＭＳ 明朝|b0|i0|c128|p17;\W1.0;3}
  7
MTSTANDARD
 73
     1
 44
0.9375
  0
MTEXT
  5
15D
330
1F
100
AcDbEntity
  8
1
  6
Continuous
 62
     7
100
AcDbMText
 10
103.132256771202
 20
-1810.300268591294
 30
0.0
 40
8.0
 41
0.0
 71
     7
 72
     5
  1
{\fＭＳ 明朝|b0|i0|c128|p17;\W1.0;FC150鋳鉄}
  7
MTSTANDARD
 73
     1
 44
0.9375
  0
MTEXT
  5
15E
330
1F
100
AcDbEntity
  8
1
  6
Continuous
 62
     7
100
AcDbMText
 10
197.6322567710862
 20
-1825.800268591294
 30
0.0
 40
7.0
 41
0.0
 71
     7
 72
     5
  1
{\fＭＳ 明朝|b0|i0|c128|p17;\W1.0;－}
  7
MTSTANDARD1
 73
     1
 44
1.026785714285714
  0
MTEXT
  5
15F
330
1F
100
AcDbEntity
  8
1
  6
Continuous
 62
     7
100
AcDbMText
 10
183.6322567710995
 20
-1809.800268591294
 30
0.0
 40
7.0
 41
0.0
 71
     7
 72
     5
  1
{\fＭＳ 明朝|b0|i0|c128|p17;\W1.0;錆止め塗装}
  7
MTSTANDARD1
 73
     1
 44
2.053571428571429
  0
MTEXT
  5
160
330
1F
100
AcDbEntity
  8
1
  6
Continuous
 62
     7
100
AcDbMText
 10
272.5506189140343
 20
-1787.385852063163
 30
0.0
 40
8.0
 41
0.0
 71
     7
 72
     5
  1
{\fＭＳ 明朝|b0|i0|c128|p17;\W1.0;●流出口は管用テーパーねじ\P●本体、非防水}
  7
MTSTANDARD
 73
     1
 44
0.9375
  0
LINE
  5
161
330
1F
100
AcDbEntity
  8
6
  6
CENTER2
 62
     7
100
AcDbLine
 10
261.4134542146361
 20
-1645.04487084919
 30
0.0
 11
261.4134542146361
 21
-1458.627342222432
 31
0.0
  0
INSERT
  5
169
330
1F
100
AcDbEntity
  8
1
  6
ByBlock
 62
     3
100
AcDbBlockReference
  2
BALN0
 10
322.2031581263726
 20
-1617.360228262276
 30
0.0
  0
INSERT
  5
171
330
1F
100
AcDbEntity
  8
1
  6
ByBlock
 62
     3
100
AcDbBlockReference
  2
BALN1
 10
306.6827261547839
 20
-1598.937683687785
 30
0.0
  0
INSERT
  5
179
330
1F
100
AcDbEntity
  8
1
  6
ByBlock
 62
     3
100
AcDbBlockReference
  2
BALN2
 10
332.7826852200198
 20
-1526.612670759413
 30
0.0
  0
CIRCLE
  5
17A
330
1F
100
AcDbEntity
  8
1
  6
Continuous
 62
     7
100
AcDbCircle
 10
261.4134542146364
 20
-1240.589354817974
 30
0.0
 40
117.5000000000001
  0
CIRCLE
  5
17B
330
1F
100
AcDbEntity
  8
1
  6
Continuous
 62
     7
100
AcDbCircle
 10
261.4134542146364
 20
-1240.589354817974
 30
0.0
 40
112.4999999999866
  0
CIRCLE
  5
17C
330
1F
100
AcDbEntity
  8
1
  6
Continuous
 62
     7
100
AcDbCircle
 10
261.4134542146364
 20
-1240.589354817974
 30
0.0
 40
103.9158681310037
  0
LINE
  5
17D
330
1F
100
AcDbEntity
  8
1
  6
CENTER2
 62
     7
100
AcDbLine
 10
261.4134542146364
 20
-1370.589354817974
 30
0.0
 11
261.4134542146364
 21
-1110.589354817974
 31
0.0
  0
LINE
  5
17E
330
1F
100
AcDbEntity
  8
1
  6
CENTER2
 62
     7
100
AcDbLine
 10
391.4134542146371
 20
-1240.589354817974
 30
0.0
 11
131.4134542146367
 21
-1240.589354817974
 31
0.0
  0
INSERT
  5
18F
330
1F
100
AcDbEntity
  8
1
  6
Continuous
 62
     7
100
AcDbBlockReference
  2
BLK1
 10
261.4134542146363
 20
-1572.04487084919
 30
0.0
  0
MTEXT
  5
190
102
{ACAD_REACTORS
330
192
102
}
330
1F
100
AcDbEntity
  8
1
  6
Continuous
 62
     2
100
AcDbMText
 10
341.1634542146365
 20
-1580.364669842595
 30
0.0
 40
8.0
 41
0.0
 71
     7
 72
     5
  1
{\fＭＳ ゴシック|b0|i0|c128|p49;\W1.0;調節管（別途価格）\PYDG-100A MIN＝82ｍｍ}
  7
MTSTANDARD
 73
     1
 44
0.9375
  0
LEADER
  5
192
330
1F
100
AcDbEntity
  8
1
  6
Continuous
 62
     7
100
AcDbLeader
  3
DIMSTYEX_4
 73
     0
 74
     0
 76
     3
 10
318.4134542146363
 20
-1548.944870849164
 30
0.0
 10
341.1634542146365
 20
-1568.364669842595
 30
0.0
 10
342.1634542146365
 20
-1568.364669842595
 30
0.0
340
190
1001
ACAD
1000
DSTYLE
1002
{
1070
   176
1070
     0
1002
}
  0
DIMENSION
  5
1A1
330
1F
100
AcDbEntity
  8
1
  6
ByBlock
 62
     3
100
AcDbDimension
  2
_D1
 10
118.0386069467109
 20
-1464.044870849146
 30
0.0
 11
106.0386069467109
 21
-1498.044870849168
 31
0.0
 70
   160
  1
ＹＤＧ　Ｌ＝８２ｍｍの時\P（７０～１０２）
 71
     5
 42
-1.0
 52
90.0
  3
DIMSTYEX_5
100
AcDbAlignedDimension
 13
143.9134542146322
 23
-1532.044870849189
 33
0.0
 14
167.4134542146289
 24
-1464.044870849146
 34
0.0
 50
90.0
100
AcDbRotatedDimension
1001
ACAD
1000
DSTYLE
1002
{
1070
   343
1005
88
1070
   344
1005
88
1070
    43
1040
0.0
1070
   147
1040
1.0
1070
   173
1070
     1
1070
   272
1070
     3
1070
   340
1005
83
1070
   140
1040
3.584
1002
}
  0
INSERT
  5
1F9
330
1F
100
AcDbEntity
  8
1
  6
Continuous
 62
     7
100
AcDbBlockReference
  2
BLK2
 10
261.4134542146364
 20
-1240.589354817974
 30
0.0
  0
LINE
  5
1FA
330
1F
100
AcDbEntity
  8
1
  6
Continuous
 62
     7
100
AcDbLine
 10
261.4134542146361
 20
-1464.044870849193
 30
0.0
 11
167.4134542146361
 21
-1464.044870849189
 31
0.0
  0
LINE
  5
1FB
330
1F
100
AcDbEntity
  8
1
  6
Continuous
 62
     7
100
AcDbLine
 10
167.4134542146359
 20
-1464.044870849189
 30
0.0
 11
168.4134542146361
 21
-1470.044870849189
 31
0.0
  0
LINE
  5
1FC
330
1F
100
AcDbEntity
  8
1
  6
Continuous
 62
     7
100
AcDbLine
 10
168.4134542146361
 20
-1470.044870849189
 30
0.0
 11
177.4134542146359
 21
-1470.044870849189
 31
0.0
  0
LINE
  5
1FD
330
1F
100
AcDbEntity
  8
1
  6
Continuous
 62
     7
100
AcDbLine
 10
177.4134542146359
 20
-1470.044870849189
 30
0.0
 11
185.9134542146359
 21
-1476.044870849189
 31
0.0
  0
LINE
  5
1FE
330
1F
100
AcDbEntity
  8
1
  6
Continuous
 62
     7
100
AcDbLine
 10
185.9134542146359
 20
-1476.044870849189
 30
0.0
 11
192.4134542146359
 21
-1476.044870849189
 31
0.0
  0
LINE
  5
1FF
330
1F
100
AcDbEntity
  8
1
  6
Continuous
 62
     7
100
AcDbLine
 10
192.4134542146359
 20
-1476.044870849189
 30
0.0
 11
192.4134542146359
 21
-1488.044870849189
 31
0.0
  0
LINE
  5
200
330
1F
100
AcDbEntity
  8
1
  6
Continuous
 62
     7
100
AcDbLine
 10
195.4134542146361
 20
-1491.044870849189
 30
0.0
 11
196.3064555102998
 21
-1515.155905832112
 31
0.0
  0
LINE
  5
201
330
1F
100
AcDbEntity
  8
1
  6
Continuous
 62
     7
100
AcDbLine
 10
197.3030287395326
 20
-1518.044870849189
 30
0.0
 11
206.3774542146361
 21
-1518.044870849188
 31
0.0
  0
LINE
  5
202
330
1F
100
AcDbEntity
  8
1
  6
Continuous
 62
     7
100
AcDbLine
 10
176.4134542146361
 20
-1464.044870849146
 30
0.0
 11
186.4134542146361
 21
-1470.044870849146
 31
0.0
  0
LINE
  5
203
330
1F
100
AcDbEntity
  8
1
  6
Continuous
 62
     7
100
AcDbLine
 10
186.4134542146361
 20
-1470.044870849146
 30
0.0
 11
199.9134542146364
 21
-1470.044870849146
 31
0.0
  0
LINE
  5
204
330
1F
100
AcDbEntity
  8
1
  6
Continuous
 62
     7
100
AcDbLine
 10
193.3827580728498
 20
-1490.253099365383
 30
0.0
 11
194.3050842382322
 21
-1515.155905830718
 31
0.0
  0
LINE
  5
205
330
1F
100
AcDbEntity
  8
1
  6
Continuous
 62
     7
100
AcDbLine
 10
205.585954214636
 20
-1496.044870849188
 30
0.0
 11
204.898454214636
 21
-1518.044870849188
 31
0.0
  0
LINE
  5
206
330
1F
100
AcDbEntity
  8
1
  6
Continuous
 62
     7
100
AcDbLine
 10
207.0649542146361
 20
-1496.044870849188
 30
0.0
 11
206.3774542146361
 21
-1518.044870849188
 31
0.0
  0
LINE
  5
207
330
1F
100
AcDbEntity
  8
1
  6
Continuous
 62
     7
100
AcDbLine
 10
200.9134542146548
 20
-1485.044870849241
 30
0.0
 11
261.4134542146361
 21
-1485.044870848796
 31
0.0
  0
LINE
  5
208
330
1F
100
AcDbEntity
  8
1
  6
Continuous
 62
     7
100
AcDbLine
 10
206.4134542146361
 20
-1485.044870849188
 30
0.0
 11
206.4134542146361
 21
-1490.044870849188
 31
0.0
  0
LINE
  5
209
330
1F
100
AcDbEntity
  8
1
  6
Continuous
 62
     7
100
AcDbLine
 10
261.4134542146361
 20
-1490.044870849188
 30
0.0
 11
204.9134542146359
 21
-1490.044870849188
 31
0.0
  0
LINE
  5
20A
330
1F
100
AcDbEntity
  8
1
  6
Continuous
 62
     7
100
AcDbLine
 10
204.9134542146359
 20
-1490.044870849188
 30
0.0
 11
204.9134542146359
 21
-1496.044870849188
 31
0.0
  0
LINE
  5
20B
330
1F
100
AcDbEntity
  8
1
  6
Continuous
 62
     7
100
AcDbLine
 10
204.9134542146359
 20
-1496.044870849188
 30
0.0
 11
207.0649542146361
 21
-1496.044870849188
 31
0.0
  0
LINE
  5
20C
330
1F
100
AcDbEntity
  8
1
  6
Continuous
 62
     7
100
AcDbLine
 10
199.9134542146364
 20
-1470.044870849146
 30
0.0
 11
199.9134542146364
 21
-1484.836158696593
 31
0.0
  0
LINE
  5
20D
330
1F
100
AcDbEntity
  8
1
  6
Continuous
 62
     7
100
AcDbLine
 10
198.4134542146361
 20
-1482.544870849115
 30
0.0
 11
198.4134542146361
 21
-1470.044870849145
 31
0.0
  0
ARC
  5
20E
330
1F
100
AcDbEntity
  8
1
  6
Continuous
 62
     7
100
AcDbCircle
 10
195.4134542146359
 20
-1488.044870849189
 30
0.0
 40
3.0
100
AcDbArc
 50
180.0
 51
270.0
  0
ARC
  5
20F
330
1F
100
AcDbEntity
  8
1
  6
Continuous
 62
     7
100
AcDbCircle
 10
199.304400011518
 20
-1515.044870850585
 30
0.0
 40
3.0
100
AcDbArc
 50
182.1210963966634
 51
270.0
  0
ARC
  5
210
330
1F
100
AcDbEntity
  8
1
  6
Continuous
 62
     7
100
AcDbCircle
 10
197.3030287395326
 20
-1515.044870849189
 30
0.0
 40
3.0
100
AcDbArc
 50
182.1210963966616
 51
270.0
  0
LINE
  5
211
330
1F
100
AcDbEntity
  8
1
  6
Continuous
 62
     7
100
AcDbLine
 10
186.4134542146361
 20
-1470.044870849146
 30
0.0
 11
198.9134542146361
 21
-1470.044870849146
 31
0.0
  0
LINE
  5
212
330
1F
100
AcDbEntity
  8
1
  6
Continuous
 62
     7
100
AcDbLine
 10
198.9134542146361
 20
-1470.044870849146
 30
0.0
 11
198.9134542146361
 21
-1469.544870849145
 31
0.0
  0
LINE
  5
213
330
1F
100
AcDbEntity
  8
1
  6
Continuous
 62
     7
100
AcDbLine
 10
198.9134542146361
 20
-1469.544870849145
 30
0.0
 11
186.4134542146361
 21
-1469.544870849145
 31
0.0
  0
LINE
  5
214
330
1F
100
AcDbEntity
  8
1
  6
Continuous
 62
     7
100
AcDbLine
 10
186.4134542146361
 20
-1469.544870849145
 30
0.0
 11
186.4134542146361
 21
-1470.044870849146
 31
0.0
  0
HATCH
  5
215
330
1F
100
AcDbEntity
  8
2
  6
Continuous
 62
     7
100
AcDbHatch
 10
0.0
 20
0.0
 30
0.0
210
0.0
220
0.0
230
1.0
  2
_U
 70
     0
 71
     0
 91
        5
 92
        0
 93
        8
 72
     1
 10
199.9134542146364
 20
-1470.044870849146
 11
198.4134542146361
 21
-1470.044870849145
 72
     1
 10
198.4134542146361
 20
-1470.044870849145
 11
198.4134542146361
 21
-1482.044870850643
 72
     2
 10
201.4134542146361
 20
-1482.044870850643
 40
3.0
 50
180.0
 51
239.9999999999999
 73
     1
 72
     1
 10
199.9134542146364
 20
-1484.642947061996
 11
199.9134542146364
 21
-1482.044870849192
 72
     1
 10
199.9134542146364
 20
-1482.044870849192
 11
199.0134542146361
 21
-1482.044870849192
 72
     1
 10
199.0134542146361
 20
-1482.044870849192
 11
199.0134542146361
 21
-1473.044870849192
 72
     1
 10
199.0134542146361
 20
-1473.044870849192
 11
199.9134542146364
 21
-1473.044870849192
 72
     1
 10
199.9134542146364
 20
-1473.044870849192
 11
199.9134542146364
 21
-1470.044870849146
 97
        0
 92
        0
 93
        4
 72
     1
 10
199.9134542146364
 20
-1473.044870849192
 11
199.0134542146361
 21
-1473.044870849192
 72
     1
 10
199.0134542146361
 20
-1473.044870849192
 11
199.0134542146361
 21
-1482.044870849192
 72
     1
 10
199.0134542146361
 20
-1482.044870849192
 11
199.9134542146364
 21
-1482.044870849192
 72
     1
 10
199.9134542146364
 20
-1482.044870849192
 11
199.9134542146364
 21
-1473.044870849192
 97
        0
 92
        0
 93
        4
 72
     1
 10
207.0649542146359
 20
-1496.044870849188
 11
205.585954214636
 21
-1496.044870849188
 72
     1
 10
205.585954214636
 20
-1496.044870849188
 11
204.898454214636
 21
-1518.044870849188
 72
     1
 10
204.898454214636
 20
-1518.044870849188
 11
206.3774542146361
 21
-1518.044870849188
 72
     1
 10
206.3774542146361
 20
-1518.044870849188
 11
207.0649542146361
 21
-1496.044870849188
 97
        0
 92
        0
 93
        7
 72
     1
 10
205.585954214636
 20
-1496.044870849188
 11
204.9134542146359
 21
-1496.044870849188
 72
     1
 10
204.9134542146359
 20
-1496.044870849188
 11
204.9134542146359
 21
-1491.044870849189
 72
     1
 10
204.9134542146359
 20
-1491.044870849189
 11
195.4134542146359
 21
-1491.044870849189
 72
     1
 10
195.4134542146361
 20
-1491.044870849189
 11
196.3064555102998
 21
-1515.155905832112
 72
     2
 10
199.304400011518
 20
-1515.044870850585
 40
3.0
 50
182.1210963966634
 51
270.0
 73
     1
 72
     1
 10
199.304400011518
 20
-1518.044870849189
 11
204.898454214636
 21
-1518.044870849188
 72
     1
 10
204.898454214636
 20
-1518.044870849188
 11
205.585954214636
 21
-1496.044870849188
 97
        0
 92
        0
 93
       17
 72
     1
 10
167.4134542146361
 20
-1464.044870849189
 11
176.4134542146361
 21
-1464.044870849189
 72
     1
 10
176.4134542146361
 20
-1464.044870849146
 11
186.4134542146361
 21
-1470.044870849146
 72
     1
 10
186.4134542146361
 20
-1470.044870849146
 11
198.4134542146361
 21
-1470.044870849146
 72
     1
 10
198.4134542146361
 20
-1470.044870849145
 11
198.4134542146361
 21
-1482.044870850643
 72
     2
 10
201.4134542146361
 20
-1482.044870850643
 40
3.0
 50
180.0
 51
239.9999999999999
 73
     1
 72
     2
 10
201.4134542146361
 20
-1482.044870850643
 40
3.0
 50
239.9999999999999
 51
270.0000000003778
 73
     1
 72
     1
 10
201.4134542146559
 20
-1485.044870849241
 11
206.4134542146361
 21
-1485.044870849188
 72
     1
 10
206.4134542146361
 20
-1485.044870849188
 11
206.4134542146361
 21
-1490.044870849188
 72
     1
 10
206.4134542146361
 20
-1490.044870849188
 11
204.9134542146359
 21
-1490.044870849188
 72
     1
 10
204.9134542146359
 20
-1490.044870849188
 11
204.9134542146359
 21
-1491.044870849189
 72
     1
 10
204.9134542146359
 20
-1491.044870849189
 11
195.4134542146359
 21
-1491.044870849189
 72
     2
 10
195.4134542146359
 20
-1488.044870849189
 40
3.0
 50
90.0
 51
180.0
 73
     0
 72
     1
 10
192.4134542146359
 20
-1488.044870849189
 11
192.4134542146359
 21
-1476.044870849189
 72
     1
 10
192.4134542146359
 20
-1476.044870849189
 11
185.9134542146359
 21
-1476.044870849189
 72
     1
 10
185.9134542146359
 20
-1476.044870849189
 11
177.4134542146359
 21
-1470.044870849189
 72
     1
 10
177.4134542146359
 20
-1470.044870849189
 11
168.4134542146361
 21
-1470.044870849189
 72
     1
 10
168.4134542146361
 20
-1470.044870849189
 11
167.4134542146359
 21
-1464.044870849189
 97
        0
 75
     0
 76
     0
 52
45.00000000014619
 41
3.0
 77
     0
 78
     1
 53
45.00000000014619
 43
0.0
 44
0.0
 45
-2.121320343565055
 46
2.12132034355423
 79
     0
 98
        1
 10
0.0
 20
0.0
  0
LINE
  5
216
330
1F
100
AcDbEntity
  8
1
  6
Continuous
 62
     7
100
AcDbLine
 10
261.4134542146368
 20
-1464.044870849193
 30
0.0
 11
355.4134542146368
 21
-1464.044870849195
 31
0.0
  0
LINE
  5
217
330
1F
100
AcDbEntity
  8
1
  6
Continuous
 62
     7
100
AcDbLine
 10
355.4134542146373
 20
-1464.044870849195
 30
0.0
 11
354.4134542146364
 21
-1470.044870849195
 31
0.0
  0
LINE
  5
218
330
1F
100
AcDbEntity
  8
1
  6
Continuous
 62
     7
100
AcDbLine
 10
354.4134542146364
 20
-1470.044870849195
 30
0.0
 11
261.4134542146361
 21
-1470.044870849125
 31
0.0
  0
LINE
  5
219
330
1F
100
AcDbEntity
  8
1
  6
Continuous
 62
     7
100
AcDbLine
 10
345.4134542146368
 20
-1470.044870849194
 30
0.0
 11
336.9134542146364
 21
-1476.044870849194
 31
0.0
  0
LINE
  5
21A
330
1F
100
AcDbEntity
  8
1
  6
Continuous
 62
     7
100
AcDbLine
 10
336.9134542146364
 20
-1476.044870849194
 30
0.0
 11
261.4134542146361
 21
-1476.044870849113
 31
0.0
  0
LINE
  5
21B
330
1F
100
AcDbEntity
  8
1
  6
Continuous
 62
     7
100
AcDbLine
 10
330.4134542146364
 20
-1476.044870849193
 30
0.0
 11
330.4134542146355
 21
-1488.044870849193
 31
0.0
  0
LINE
  5
21C
330
1F
100
AcDbEntity
  8
1
  6
Continuous
 62
     7
100
AcDbLine
 10
327.4134542146355
 20
-1491.044870849193
 30
0.0
 11
261.4134542146361
 21
-1491.044870849098
 31
0.0
  0
LINE
  5
21D
330
1F
100
AcDbEntity
  8
1
  6
Continuous
 62
     7
100
AcDbLine
 10
327.4134542146355
 20
-1491.044870849193
 30
0.0
 11
326.5204529189702
 21
-1515.155905832116
 31
0.0
  0
LINE
  5
21E
330
1F
100
AcDbEntity
  8
1
  6
Continuous
 62
     7
100
AcDbLine
 10
323.5225084177516
 20
-1518.044870849193
 30
0.0
 11
261.4134542146334
 21
-1518.044870849189
 31
0.0
  0
ARC
  5
21F
330
1F
100
AcDbEntity
  8
1
  6
Continuous
 62
     7
100
AcDbCircle
 10
327.4134542146355
 20
-1488.044870849193
 30
0.0
 40
3.0
100
AcDbArc
 50
270.0
 51
0.0
  0
ARC
  5
220
330
1F
100
AcDbEntity
  8
1
  6
Continuous
 62
     7
100
AcDbCircle
 10
323.522508417752
 20
-1515.044870850589
 30
0.0
 40
3.0
100
AcDbArc
 50
269.9999999999913
 51
357.8789036033323
  0
DIMENSION
  5
22C
330
1F
100
AcDbEntity
  8
1
  6
ByBlock
 62
     3
100
AcDbDimension
  2
_D2
 10
177.413454214635
 20
-1423.821405455373
 30
0.0
 11
261.4134542146361
 21
-1419.821405455373
 31
0.0
 70
   160
  1
φ<>
 71
     5
 42
-1.0
 52
90.0
  3
DIMSTYEX_6
100
AcDbAlignedDimension
 13
345.4134542146373
 23
-1464.044870849193
 33
0.0
 14
177.413454214635
 24
-1464.044870849189
 34
0.0
100
AcDbRotatedDimension
1001
ACAD
1000
DSTYLE
1002
{
1070
   343
1005
AE
1070
   344
1005
88
1070
    43
1040
14.0
1070
   173
1070
     1
1070
   281
1070
     1
1070
    75
1070
     1
1070
    77
1070
     1
1070
   272
1070
     3
1070
   340
1005
83
1070
   140
1040
3.584
1002
}
  0
DIMENSION
  5
23A
330
1F
100
AcDbEntity
  8
1
  6
ByBlock
 62
     3
100
AcDbDimension
  2
_D3
 10
355.4134542146414
 20
-1409.821405455373
 30
0.0
 11
261.4134542146351
 21
-1405.821405455373
 31
0.0
 70
   160
  1
φ<>
 71
     5
 42
-1.0
 52
90.0
  3
DIMSTYEX_7
100
AcDbAlignedDimension
 13
167.4134542146289
 23
-1464.044870849146
 33
0.0
 14
355.4134542146414
 24
-1464.044870849169
 34
0.0
100
AcDbRotatedDimension
1001
ACAD
1000
DSTYLE
1002
{
1070
   343
1005
88
1070
   344
1005
88
1070
   173
1070
     1
1070
   272
1070
     3
1070
   340
1005
83
1070
   140
1040
3.584
1002
}
  0
LINE
  5
23B
330
1F
100
AcDbEntity
  8
1
  6
Continuous
 62
     7
100
AcDbLine
 10
290.0355207098225
 20
-1491.981514066732
 30
0.0
 11
290.9958299211214
 21
-1517.108227631093
 31
0.0
  0
LINE
  5
23C
330
1F
100
AcDbEntity
  8
1
  6
Continuous
 62
     7
100
AcDbLine
 10
291.9638273136636
 20
-1491.983489151665
 30
0.0
 11
292.8938418620564
 21
-1517.106252546157
 31
0.0
  0
LINE
  5
23D
330
1F
100
AcDbEntity
  8
1
  6
Continuous
 62
     7
100
AcDbLine
 10
298.781658826613
 20
-1491.989204896391
 30
0.0
 11
297.9391658167203
 21
-1517.100536801428
 31
0.0
  0
ARC
  5
23E
330
1F
100
AcDbEntity
  8
1
  6
Continuous
 62
     7
100
AcDbCircle
 10
289.0375297688931
 20
-1492.044870848713
 30
0.0
 40
1.0
100
AcDbArc
 50
3.63250917887915
 51
90.0
  0
ARC
  5
23F
330
1F
100
AcDbEntity
  8
1
  6
Continuous
 62
     7
100
AcDbCircle
 10
290.965712947838
 20
-1492.044870848713
 30
0.0
 40
1.0
100
AcDbArc
 50
3.51912438543268
 51
90.0
  0
ARC
  5
240
330
1F
100
AcDbEntity
  8
1
  6
Continuous
 62
     7
100
AcDbCircle
 10
299.7801082753842
 20
-1492.044870848713
 30
0.0
 40
1.0
100
AcDbArc
 50
90.0
 51
176.8089263911323
  0
ARC
  5
241
330
1F
100
AcDbEntity
  8
1
  6
Continuous
 62
     7
100
AcDbCircle
 10
293.891956227882
 20
-1517.044870849109
 30
0.0
 40
1.0
100
AcDbArc
 50
183.5191243854327
 51
270.0
  0
ARC
  5
242
330
1F
100
AcDbEntity
  8
1
  6
Continuous
 62
     7
100
AcDbCircle
 10
291.9938208620508
 20
-1517.044870849112
 30
0.0
 40
1.0
100
AcDbArc
 50
183.6325091788921
 51
270.0
  0
ARC
  5
243
330
1F
100
AcDbEntity
  8
1
  6
Continuous
 62
     7
100
AcDbCircle
 10
296.9407163679486
 20
-1517.044870849106
 30
0.0
 40
1.0
100
AcDbArc
 50
270.0
 51
356.8089263911337
  0
LINE
  5
244
330
1F
100
AcDbEntity
  8
1
  6
Continuous
 62
     7
100
AcDbLine
 10
177.4134542146361
 20
-1464.044870849193
 30
0.0
 11
186.4134542146361
 21
-1469.044870849193
 31
0.0
  0
LINE
  5
245
330
1F
100
AcDbEntity
  8
1
  6
Continuous
 62
     7
100
AcDbLine
 10
186.4134542146361
 20
-1469.044870849193
 30
0.0
 11
198.9134542146361
 21
-1469.044870849193
 31
0.0
  0
LINE
  5
246
330
1F
100
AcDbEntity
  8
1
  6
Continuous
 62
     7
100
AcDbLine
 10
198.9134542146361
 20
-1469.044870849193
 30
0.0
 11
198.9134542146361
 21
-1484.044870849193
 31
0.0
  0
LINE
  5
247
330
1F
100
AcDbEntity
  8
1
  6
Continuous
 62
     7
100
AcDbLine
 10
198.9134542146361
 20
-1484.044870849193
 30
0.0
 11
261.4134542146361
 21
-1484.044870849193
 31
0.0
  0
LINE
  5
248
330
1F
100
AcDbEntity
  8
1
  6
Continuous
 62
     7
100
AcDbLine
 10
204.4134542146361
 20
-1464.044870849193
 30
0.0
 11
204.4134542146359
 21
-1469.044870849193
 31
0.0
  0
LINE
  5
249
330
1F
100
AcDbEntity
  8
1
  6
Continuous
 62
     7
100
AcDbLine
 10
204.4134542146359
 20
-1469.044870849193
 30
0.0
 11
261.4134542146361
 21
-1469.044870849193
 31
0.0
  0
LINE
  5
24A
330
1F
100
AcDbEntity
  8
1
  6
Continuous
 62
     7
100
AcDbLine
 10
207.113454214636
 20
-1469.044870849193
 30
0.0
 11
207.113454214636
 21
-1477.044870849193
 31
0.0
  0
LINE
  5
24B
330
1F
100
AcDbEntity
  8
1
  6
Continuous
 62
     7
100
AcDbLine
 10
207.113454214636
 20
-1477.044870849193
 30
0.0
 11
203.4134542146359
 21
-1477.044870849193
 31
0.0
  0
LINE
  5
24C
330
1F
100
AcDbEntity
  8
1
  6
Continuous
 62
     7
100
AcDbLine
 10
203.4134542146359
 20
-1477.044870849193
 30
0.0
 11
202.9134542146361
 21
-1484.044870849192
 31
0.0
  0
HATCH
  5
24D
330
1F
100
AcDbEntity
  8
2
  6
Continuous
 62
     7
100
AcDbHatch
 10
0.0
 20
0.0
 30
0.0
210
0.0
220
0.0
230
1.0
  2
_U
 70
     0
 71
     0
 91
        2
 92
        0
 93
       12
 72
     1
 10
207.113454214636
 20
-1469.044870849193
 11
204.4134542146359
 21
-1469.044870849193
 72
     1
 10
204.4134542146359
 20
-1469.044870849193
 11
204.4134542146361
 21
-1464.044870849193
 72
     1
 10
204.4134542146414
 20
-1464.044870849193
 11
177.4134542146361
 21
-1464.044870849193
 72
     1
 10
177.4134542146361
 20
-1464.044870849193
 11
186.4134542146361
 21
-1469.044870849193
 72
     1
 10
186.4134542146361
 20
-1469.044870849193
 11
198.9134542146361
 21
-1469.044870849193
 72
     1
 10
198.9134542146361
 20
-1469.044870849193
 11
198.9134542146361
 21
-1470.044870849192
 72
     1
 10
198.9134542146361
 20
-1470.044870849192
 11
199.9134542146364
 21
-1470.044870849193
 72
     1
 10
199.9134542146364
 20
-1470.044870849193
 11
199.9134542146364
 21
-1484.044870849192
 72
     1
 10
199.9134542146364
 20
-1484.044870849192
 11
202.9134542146361
 21
-1484.044870849192
 72
     1
 10
202.9134542146361
 20
-1484.044870849192
 11
203.4134542146359
 21
-1477.044870849193
 72
     1
 10
203.4134542146359
 20
-1477.044870849193
 11
207.113454214636
 21
-1477.044870849193
 72
     1
 10
207.113454214636
 20
-1477.044870849193
 11
207.113454214636
 21
-1469.044870849193
 97
        0
 92
        0
 93
        4
 72
     1
 10
199.9134542146364
 20
-1470.044870849193
 11
198.9134542146361
 21
-1470.044870849192
 72
     1
 10
198.9134542146361
 20
-1470.044870849192
 11
198.9134542146361
 21
-1484.044870849193
 72
     1
 10
198.9134542146361
 20
-1484.044870849193
 11
199.9134542146364
 21
-1484.044870849192
 72
     1
 10
199.9134542146364
 20
-1484.044870849192
 11
199.9134542146364
 21
-1470.044870849193
 97
        0
 75
     0
 76
     0
 52
315.0
 41
3.0
 77
     0
 78
     1
 53
315.0
 43
0.0
 44
0.0
 45
2.121320343559643
 46
2.121320343559642
 79
     0
 98
        1
 10
0.0
 20
0.0
  0
LINE
  5
24E
330
1F
100
AcDbEntity
  8
1
  6
Continuous
 62
     7
100
AcDbLine
 10
204.6634542146361
 20
-1464.044870849193
 30
0.0
 11
204.6634542146361
 21
-1469.044870849193
 31
0.0
  0
LINE
  5
24F
330
1F
100
AcDbEntity
  8
1
  6
Continuous
 62
     7
100
AcDbLine
 10
207.6634542146359
 20
-1468.044870849193
 30
0.0
 11
261.4134542146361
 21
-1468.044870849193
 31
0.0
  0
ARC
  5
250
330
1F
100
AcDbEntity
  8
1
  6
Continuous
 62
     7
100
AcDbCircle
 10
207.6634542146359
 20
-1469.044870848895
 30
0.0
 40
1.0
100
AcDbArc
 50
90.0
 51
180.0
  0
HATCH
  5
251
330
1F
100
AcDbEntity
  8
2
  6
Continuous
 62
     7
100
AcDbHatch
 10
0.0
 20
0.0
 30
0.0
210
0.0
220
0.0
230
1.0
  2
_U
 70
     0
 71
     0
 91
        1
 92
        0
 93
        6
 72
     1
 10
261.4134542146361
 20
-1464.044870849239
 11
204.6634542146361
 21
-1464.044870849193
 72
     1
 10
204.6634542146361
 20
-1464.044870849193
 11
204.6634542146361
 21
-1469.044870849193
 72
     1
 10
204.6634542146361
 20
-1469.044870849193
 11
206.6634542146359
 21
-1469.044870849193
 72
     2
 10
207.6634542146359
 20
-1469.044870848895
 40
1.0
 50
180.0
 51
270.0
 73
     0
 72
     1
 10
207.6634542146359
 20
-1468.044870849193
 11
261.4134542146361
 21
-1468.044870849193
 72
     1
 10
261.4134542146361
 20
-1468.044870849193
 11
261.4134542146361
 21
-1464.044870849193
 97
        0
 75
     0
 76
     0
 52
45.00000000014619
 41
3.0
 77
     0
 78
     1
 53
45.00000000014619
 43
0.0
 44
0.0
 45
-2.121320343565055
 46
2.12132034355423
 79
     0
 98
        1
 10
0.0
 20
0.0
  0
ARC
  5
252
330
1F
100
AcDbEntity
  8
1
  6
Continuous
 62
     7
100
AcDbCircle
 10
200.9134542146361
 20
-1482.544870849115
 30
0.0
 40
2.5
100
AcDbArc
 50
180.0
 51
270.0000000004273
  0
DIMENSION
  5
25E
330
1F
100
AcDbEntity
  8
1
  6
ByBlock
 62
     3
100
AcDbDimension
  2
_D4
 10
204.6634542146361
 20
-1437.821405455373
 30
0.0
 11
261.4134542146368
 21
-1433.821405455373
 31
0.0
 70
   160
  1
φ<>
 71
     5
 42
-1.0
 52
90.0
  3
DIMSTYEX_8
100
AcDbAlignedDimension
 13
318.1634542146375
 23
-1464.044870849193
 33
0.0
 14
204.6634542146361
 24
-1464.044870849193
 34
0.0
100
AcDbRotatedDimension
1001
ACAD
1000
DSTYLE
1002
{
1070
   343
1005
AE
1070
   344
1005
88
1070
   173
1070
     1
1070
   281
1070
     1
1070
    75
1070
     1
1070
    77
1070
     1
1070
   272
1070
     3
1070
   340
1005
83
1070
   140
1040
3.584
1002
}
  0
INSERT
  5
266
330
1F
100
AcDbEntity
  8
1
  6
ByBlock
 62
     3
100
AcDbBlockReference
  2
BALN3
 10
190.8025266033798
 20
-1469.794870849146
 30
0.0
  0
INSERT
  5
26E
330
1F
100
AcDbEntity
  8
1
  6
ByBlock
 62
     3
100
AcDbBlockReference
  2
BALN4
 10
198.4134542146361
 20
-1464.04487084919
 30
0.0
  0
INSERT
  5
276
330
1F
100
AcDbEntity
  8
1
  6
ByBlock
 62
     3
100
AcDbBlockReference
  2
BALN5
 10
218.8648768417135
 20
-1464.044870849191
 30
0.0
  0
INSERT
  5
27E
330
1F
100
AcDbEntity
  8
1
  6
ByBlock
 62
     3
100
AcDbBlockReference
  2
BALN6
 10
185.9134542146359
 20
-1476.044870849189
 30
0.0
  0
DIMENSION
  5
28C
330
1F
100
AcDbEntity
  8
1
  6
ByBlock
 62
     3
100
AcDbDimension
  2
_D5
 10
130.9626494916998
 20
-1518.044870849189
 30
0.0
 11
126.9626494916998
 21
-1491.044870849167
 31
0.0
 70
   160
 71
     5
 42
-1.0
 52
90.0
  3
DIMSTYEX_13
100
AcDbAlignedDimension
 13
167.4134542146289
 23
-1464.044870849146
 33
0.0
 14
197.3030287395326
 24
-1518.044870849189
 34
0.0
 50
-90.0
100
AcDbRotatedDimension
1001
ACAD
1000
DSTYLE
1002
{
1070
   343
1005
88
1070
   344
1005
88
1070
    43
1040
1.00383588451183
1070
   173
1070
     1
1070
   272
1070
     3
1070
   340
1005
83
1070
   140
1040
3.584
1002
}
  0
LINE
  5
28D
330
1F
100
AcDbEntity
  8
6
  6
Continuous
 62
     7
100
AcDbLine
 10
230.9134542146362
 20
-1620.54487084919
 30
0.0
 11
230.9134542146362
 21
-1622.54487084919
 31
0.0
  0
LINE
  5
28E
330
1F
100
AcDbEntity
  8
6
  6
Continuous
 62
     7
100
AcDbLine
 10
235.413454214636
 20
-1627.04487084919
 30
0.0
 11
261.4134542146362
 21
-1627.04487084919
 31
0.0
  0
LINE
  5
28F
330
1F
100
AcDbEntity
  8
6
  6
Continuous
 62
     7
100
AcDbLine
 10
233.413454214636
 20
-1618.04487084919
 30
0.0
 11
261.4134542146362
 21
-1618.04487084919
 31
0.0
  0
LINE
  5
290
330
1F
100
AcDbEntity
  8
6
  6
Continuous
 62
     7
100
AcDbLine
 10
231.6064542146364
 20
-1640.04487084919
 30
0.0
 11
232.0595715530117
 21
-1625.545116021181
 31
0.0
  0
LINE
  5
291
330
1F
100
AcDbEntity
  8
6
  6
Continuous
 62
     7
100
AcDbLine
 10
233.1792042146362
 20
-1640.04487084919
 30
0.0
 11
233.5974141992135
 21
-1626.662151342718
 31
0.0
  0
LINE
  5
292
330
1F
100
AcDbEntity
  8
6
  6
Continuous
 62
     7
100
AcDbLine
 10
222.5775583792783
 20
-1640.04487084919
 30
0.0
 11
261.4134542146362
 21
-1640.04487084919
 31
0.0
  0
ARC
  5
293
330
1F
100
AcDbEntity
  8
6
  6
Continuous
 62
     7
100
AcDbCircle
 10
233.413454214636
 20
-1620.54487084919
 30
0.0
 40
2.5
100
AcDbArc
 50
90.0
 51
180.0
  0
ARC
  5
294
330
1F
100
AcDbEntity
  8
6
  6
Continuous
 62
     7
100
AcDbCircle
 10
235.413454214636
 20
-1622.54487084919
 30
0.0
 40
4.5
100
AcDbArc
 50
246.1988007052884
 51
270.0
  0
ARC
  5
295
330
1F
100
AcDbEntity
  8
6
  6
Continuous
 62
     7
100
AcDbCircle
 10
235.413454214636
 20
-1622.54487084919
 30
0.0
 40
4.5
100
AcDbArc
 50
180.0
 51
246.1988007052884
  0
LINE
  5
296
330
1F
100
AcDbEntity
  8
6
  6
Continuous
 62
     7
100
AcDbLine
 10
235.0417930777132
 20
-1616.492521604136
 30
0.0
 11
232.9471562668482
 21
-1556.509971352488
 31
0.0
  0
LINE
  5
297
330
1F
100
AcDbEntity
  8
6
  6
Continuous
 62
     7
100
AcDbLine
 10
219.9477654398293
 20
-1620.04487084919
 30
0.0
 11
207.2419753921445
 21
-1620.04487084919
 31
0.0
  0
LINE
  5
298
330
1F
100
AcDbEntity
  8
6
  6
Continuous
 62
     7
100
AcDbLine
 10
220.9471562668482
 20
-1621.009971352488
 30
0.0
 11
221.5781675522594
 21
-1639.079770345893
 31
0.0
  0
POINT
  5
299
330
1F
100
AcDbEntity
  8
6
  6
Continuous
 62
     7
100
AcDbPoint
 10
220.9134542146362
 20
-1620.04487084919
 30
0.0
  0
ARC
  5
29A
330
1F
100
AcDbEntity
  8
6
  6
Continuous
 62
     7
100
AcDbCircle
 10
219.9477654398293
 20
-1621.04487084919
 30
0.0
 40
1.0
100
AcDbArc
 50
2.000000000003953
 51
90.0
  0
ARC
  5
29B
330
1F
100
AcDbEntity
  8
6
  6
Continuous
 62
     7
100
AcDbCircle
 10
222.5775583792783
 20
-1639.04487084919
 30
0.0
 40
1.0
100
AcDbArc
 50
182.000000000003
 51
270.0
  0
LINE
  5
29C
330
1F
100
AcDbEntity
  8
6
  6
Continuous
 62
     7
100
AcDbLine
 10
221.9897641710959
 20
-1615.54487084919
 30
0.0
 11
211.6365954632433
 21
-1615.54487084919
 31
0.0
  0
LINE
  5
29D
330
1F
100
AcDbEntity
  8
6
  6
HIDDEN2
 62
     7
100
AcDbLine
 10
211.6369066884363
 20
-1615.54487084919
 30
0.0
 11
206.7418980886719
 21
-1615.54487084919
 31
0.0
  0
LINE
  5
29E
330
1F
100
AcDbEntity
  8
6
  6
HIDDEN2
 62
     7
100
AcDbLine
 10
202.2449439535762
 20
-1610.719368332703
 30
0.0
 11
201.0353025370446
 21
-1569.079770345892
 31
0.0
  0
LINE
  5
29F
330
1F
100
AcDbEntity
  8
6
  6
Continuous
 62
     7
100
AcDbLine
 10
201.0353025370446
 20
-1569.079770345892
 30
0.0
 11
200.0027024024262
 21
-1533.009971352487
 31
0.0
  0
POINT
  5
2A0
330
1F
100
AcDbEntity
  8
6
  6
Continuous
 62
     7
100
AcDbPoint
 10
202.4134542146362
 20
-1615.54487084919
 30
0.0
  0
ARC
  5
2A1
330
1F
100
AcDbEntity
  8
6
  6
HIDDEN2
 62
     7
100
AcDbCircle
 10
207.2418980886719
 20
-1610.54487084919
 30
0.0
 40
5.0
100
AcDbArc
 50
181.9999999999984
 51
270.0
  0
ARC
  5
2A2
330
1F
100
AcDbEntity
  8
6
  6
Continuous
 62
     7
100
AcDbCircle
 10
233.5427068371844
 20
-1616.54487084919
 30
0.0
 40
1.5
100
AcDbArc
 50
270.0
 51
2.000000000003347
  0
LINE
  5
2A3
330
1F
100
AcDbEntity
  8
6
  6
Continuous
 62
     7
100
AcDbLine
 10
231.9477654398293
 20
-1555.54487084919
 30
0.0
 11
229.8791429894436
 21
-1555.54487084919
 31
0.0
  0
LINE
  5
2A4
330
1F
100
AcDbEntity
  8
6
  6
Continuous
 62
     7
100
AcDbLine
 10
228.8797521624242
 20
-1556.509971352487
 30
0.0
 11
226.9867183061915
 21
-1610.719368332703
 31
0.0
  0
POINT
  5
2A5
330
1F
100
AcDbEntity
  8
6
  6
Continuous
 62
     7
100
AcDbPoint
 10
226.8182080451315
 20
-1615.54487084919
 30
0.0
  0
POINT
  5
2A6
330
1F
100
AcDbEntity
  8
6
  6
Continuous
 62
     7
100
AcDbPoint
 10
228.9134542146362
 20
-1555.54487084919
 30
0.0
  0
POINT
  5
2A7
330
1F
100
AcDbEntity
  8
6
  6
Continuous
 62
     7
100
AcDbPoint
 10
232.9134542146362
 20
-1555.54487084919
 30
0.0
  0
ARC
  5
2A8
330
1F
100
AcDbEntity
  8
6
  6
Continuous
 62
     7
100
AcDbCircle
 10
221.9897641710959
 20
-1610.54487084919
 30
0.0
 40
5.0
100
AcDbArc
 50
270.0
 51
358.0000000000016
  0
ARC
  5
2A9
330
1F
100
AcDbEntity
  8
6
  6
Continuous
 62
     7
100
AcDbCircle
 10
231.9477654398293
 20
-1556.54487084919
 30
0.0
 40
1.0
100
AcDbArc
 50
2.000000000003953
 51
90.0
  0
ARC
  5
2AA
330
1F
100
AcDbEntity
  8
6
  6
Continuous
 62
     7
100
AcDbCircle
 10
229.8791429894436
 20
-1556.54487084919
 30
0.0
 40
1.0
100
AcDbArc
 50
90.0
 51
177.999999999997
  0
LINE
  5
2AB
330
1F
100
AcDbEntity
  8
6
  6
Continuous
 62
     7
100
AcDbLine
 10
232.9134542146362
 20
-1555.54487084919
 30
0.0
 11
261.4134542146362
 21
-1555.54487084919
 31
0.0
  0
ARC
  5
2AC
330
1F
100
AcDbEntity
  8
1
  6
Continuous
 62
     7
100
AcDbCircle
 10
199.0033115754068
 20
-1533.044870849189
 30
0.0
 40
1.0
100
AcDbArc
 50
2.000000000003044
 51
90.0
  0
LINE
  5
2AD
330
1F
100
AcDbEntity
  8
6
  6
Continuous
 62
     7
100
AcDbLine
 10
210.7183963009775
 20
-1615.54487084919
 30
0.0
 11
202.4134542146362
 21
-1615.54487084919
 31
0.0
  0
LINE
  5
2AE
330
1F
100
AcDbEntity
  8
6
  6
Continuous
 62
     7
100
AcDbLine
 10
202.4134542146362
 20
-1615.54487084919
 30
0.0
 11
202.3163258365262
 21
-1612.763478012661
 31
0.0
  0
LINE
  5
2AF
330
1F
100
AcDbEntity
  8
1
  6
Continuous
 62
     7
100
AcDbLine
 10
209.4131496281457
 20
-1572.527421100839
 30
0.0
 11
210.6372046362239
 21
-1614.579770345892
 31
0.0
  0
LINE
  5
2B0
330
1F
100
AcDbEntity
  8
1
  6
Continuous
 62
     7
100
AcDbLine
 10
208.9134542146362
 20
-1572.04487084919
 30
0.0
 11
203.6462986020397
 21
-1572.044870849189
 31
0.0
  0
ARC
  5
2B1
330
1F
100
AcDbEntity
  8
1
  6
Continuous
 62
     7
100
AcDbCircle
 10
211.6365954632433
 20
-1614.54487084919
 30
0.0
 40
1.0
100
AcDbArc
 50
181.9999999999901
 51
270.0
  0
LINE
  5
2B2
330
1F
100
AcDbEntity
  8
1
  6
Continuous
 62
     7
100
AcDbLine
 10
203.1634542146362
 20
-1571.562320597541
 30
0.0
 11
203.1273147278648
 21
-1570.527421100838
 31
0.0
  0
LINE
  5
2B3
330
1F
100
AcDbEntity
  8
1
  6
Continuous
 62
     7
100
AcDbLine
 10
202.6276193143553
 20
-1570.04487084919
 30
0.0
 11
202.0346933640635
 21
-1570.04487084919
 31
0.0
  0
ARC
  5
2B4
330
1F
100
AcDbEntity
  8
1
  6
Continuous
 62
     7
100
AcDbCircle
 10
202.6276193143553
 20
-1570.54487084919
 30
0.0
 40
0.5
100
AcDbArc
 50
2.000000000003953
 51
90.0
  0
ARC
  5
2B5
330
1F
100
AcDbEntity
  8
1
  6
Continuous
 62
     7
100
AcDbCircle
 10
208.9134542146362
 20
-1572.54487084919
 30
0.0
 40
0.5
100
AcDbArc
 50
2.000000000003953
 51
90.0
  0
ARC
  5
2B6
330
1F
100
AcDbEntity
  8
1
  6
Continuous
 62
     7
100
AcDbCircle
 10
202.0346933640635
 20
-1569.04487084919
 30
0.0
 40
1.0
100
AcDbArc
 50
181.999999999991
 51
270.0
  0
ARC
  5
2B7
330
1F
100
AcDbEntity
  8
1
  6
Continuous
 62
     7
100
AcDbCircle
 10
203.6631496281457
 20
-1571.54487084919
 30
0.0
 40
0.5
100
AcDbArc
 50
182.0000000000039
 51
270.0
  0
LINE
  5
2B8
330
1F
100
AcDbEntity
  8
1
  6
Continuous
 62
     7
100
AcDbLine
 10
197.7460660398397
 20
-1610.823628042473
 30
0.0
 11
195.7830595624509
 21
-1546.588882178748
 31
0.0
  0
ARC
  5
2B9
330
1F
100
AcDbEntity
  8
1
  6
Continuous
 62
     7
100
AcDbCircle
 10
207.2419753921445
 20
-1610.54487084919
 30
0.0
 40
9.5
100
AcDbArc
 50
181.6814635271747
 51
270.0
  0
LINE
  5
2BA
330
1F
100
AcDbEntity
  8
1
  6
Continuous
 62
     7
100
AcDbLine
 10
196.028465493109
 20
-1532.044870849226
 30
0.0
 11
201.4894395476699
 21
-1532.044870849189
 31
0.0
  0
LINE
  5
2BB
330
1F
100
AcDbEntity
  8
1
  6
Continuous
 62
     7
100
AcDbLine
 10
198.2039365550336
 20
-1531.345274200573
 30
0.0
 11
199.9679116844218
 21
-1525.744467497806
 31
0.0
  0
LINE
  5
2BC
330
1F
100
AcDbEntity
  8
1
  6
Continuous
 62
     7
100
AcDbLine
 10
202.4704243615647
 20
-1531.238955353742
 30
0.0
 11
203.5364552498791
 21
-1525.850786344636
 31
0.0
  0
LINE
  5
2BD
330
1F
100
AcDbEntity
  8
1
  6
Continuous
 62
     7
100
AcDbLine
 10
203.6959028859992
 20
-1525.04487084919
 30
0.0
 11
200.9217239439772
 21
-1525.04487084919
 31
0.0
  0
LINE
  5
2BE
330
1F
100
AcDbEntity
  8
1
  6
Continuous
 62
     7
100
AcDbLine
 10
204.5174400637738
 20
-1525.04487084919
 30
0.0
 11
204.8984542146363
 21
-1525.04487084919
 31
0.0
  0
ARC
  5
2BF
330
1F
100
AcDbEntity
  8
1
  6
Continuous
 62
     7
100
AcDbCircle
 10
204.5174400637738
 20
-1526.044870849189
 30
0.0
 40
1.0
100
AcDbArc
 50
90.0
 51
168.8087521348427
  0
ARC
  5
2C0
330
1F
100
AcDbEntity
  8
1
  6
Continuous
 62
     7
100
AcDbCircle
 10
200.9217239439772
 20
-1526.04487084919
 30
0.0
 40
1.0
100
AcDbArc
 50
90.0
 51
162.5181690540945
  0
ARC
  5
2C1
330
1F
100
AcDbEntity
  8
1
  6
Continuous
 62
     7
100
AcDbCircle
 10
201.4894395476699
 20
-1531.044870849189
 30
0.0
 40
1.0
100
AcDbArc
 50
270.0
 51
348.8087521348427
  0
ARC
  5
2C2
330
1F
100
AcDbEntity
  8
1
  6
Continuous
 62
     7
100
AcDbCircle
 10
197.2501242954781
 20
-1531.04487084919
 30
0.0
 40
1.0
100
AcDbArc
 50
270.0
 51
342.5181690540945
  0
POINT
  5
2C3
330
1F
100
AcDbEntity
  8
4
  6
Continuous
 62
     7
100
AcDbPoint
 10
227.9134542146362
 20
-1555.54487084919
 30
0.0
  0
POINT
  5
2C4
330
1F
100
AcDbEntity
  8
1
  6
Continuous
 62
     7
100
AcDbPoint
 10
207.6041581361746
 20
-1572.044870849189
 30
0.0
  0
POINT
  5
2C5
330
1F
100
AcDbEntity
  8
1
  6
Continuous
 62
     7
100
AcDbPoint
 10
203.6041581361746
 20
-1572.044870849189
 30
0.0
  0
LINE
  5
2C6
330
1F
100
AcDbEntity
  8
6
  6
Continuous
 62
     7
100
AcDbLine
 10
291.9134542146362
 20
-1620.54487084919
 30
0.0
 11
291.9134542146362
 21
-1622.54487084919
 31
0.0
  0
LINE
  5
2C7
330
1F
100
AcDbEntity
  8
6
  6
Continuous
 62
     7
100
AcDbLine
 10
287.4134542146362
 20
-1627.04487084919
 30
0.0
 11
261.4134542146362
 21
-1627.04487084919
 31
0.0
  0
LINE
  5
2C8
330
1F
100
AcDbEntity
  8
6
  6
Continuous
 62
     7
100
AcDbLine
 10
289.4134542146362
 20
-1618.04487084919
 30
0.0
 11
261.4134542146362
 21
-1618.04487084919
 31
0.0
  0
LINE
  5
2C9
330
1F
100
AcDbEntity
  8
6
  6
Continuous
 62
     7
100
AcDbLine
 10
291.220454214636
 20
-1640.04487084919
 30
0.0
 11
290.7673368762607
 21
-1625.545116021181
 31
0.0
  0
LINE
  5
2CA
330
1F
100
AcDbEntity
  8
6
  6
Continuous
 62
     7
100
AcDbLine
 10
289.6477042146362
 20
-1640.04487084919
 30
0.0
 11
289.2294942300587
 21
-1626.662151342718
 31
0.0
  0
LINE
  5
2CB
330
1F
100
AcDbEntity
  8
6
  6
Continuous
 62
     7
100
AcDbLine
 10
300.2493500499941
 20
-1640.04487084919
 30
0.0
 11
261.4134542146362
 21
-1640.04487084919
 31
0.0
  0
ARC
  5
2CC
330
1F
100
AcDbEntity
  8
6
  6
Continuous
 62
     7
100
AcDbCircle
 10
289.4134542146362
 20
-1620.54487084919
 30
0.0
 40
2.5
100
AcDbArc
 50
0.0
 51
90.0
  0
ARC
  5
2CD
330
1F
100
AcDbEntity
  8
6
  6
Continuous
 62
     7
100
AcDbCircle
 10
287.4134542146362
 20
-1622.54487084919
 30
0.0
 40
4.5
100
AcDbArc
 50
270.0
 51
293.8011992947116
  0
ARC
  5
2CE
330
1F
100
AcDbEntity
  8
6
  6
Continuous
 62
     7
100
AcDbCircle
 10
287.4134542146362
 20
-1622.54487084919
 30
0.0
 40
4.5
100
AcDbArc
 50
293.8011992947116
 51
0.0
  0
LINE
  5
2CF
330
1F
100
AcDbEntity
  8
6
  6
Continuous
 62
     7
100
AcDbLine
 10
287.7851153515589
 20
-1616.492521604137
 30
0.0
 11
289.8797521624242
 21
-1556.509971352488
 31
0.0
  0
LINE
  5
2D0
330
1F
100
AcDbEntity
  8
6
  6
Continuous
 62
     7
100
AcDbLine
 10
302.8791429894432
 20
-1620.04487084919
 30
0.0
 11
315.5849330371279
 21
-1620.04487084919
 31
0.0
  0
LINE
  5
2D1
330
1F
100
AcDbEntity
  8
6
  6
Continuous
 62
     7
100
AcDbLine
 10
301.8797521624242
 20
-1621.009971352488
 30
0.0
 11
301.248740877013
 21
-1639.079770345893
 31
0.0
  0
POINT
  5
2D2
330
1F
100
AcDbEntity
  8
6
  6
Continuous
 62
     7
100
AcDbPoint
 10
301.9134542146362
 20
-1620.04487084919
 30
0.0
  0
ARC
  5
2D3
330
1F
100
AcDbEntity
  8
6
  6
Continuous
 62
     7
100
AcDbCircle
 10
302.8791429894432
 20
-1621.04487084919
 30
0.0
 40
1.0
100
AcDbArc
 50
90.0
 51
177.9999999999961
  0
ARC
  5
2D4
330
1F
100
AcDbEntity
  8
6
  6
Continuous
 62
     7
100
AcDbCircle
 10
300.2493500499941
 20
-1639.04487084919
 30
0.0
 40
1.0
100
AcDbArc
 50
270.0
 51
357.999999999997
  0
LINE
  5
2D5
330
1F
100
AcDbEntity
  8
6
  6
Continuous
 62
     7
100
AcDbLine
 10
300.8371442581765
 20
-1615.54487084919
 30
0.0
 11
315.5850103406005
 21
-1615.54487084919
 31
0.0
  0
LINE
  5
2D6
330
1F
100
AcDbEntity
  8
6
  6
Continuous
 62
     7
100
AcDbLine
 10
317.8079269648838
 20
-1615.54487084919
 30
0.0
 11
320.4134542146362
 21
-1615.54487084919
 31
0.0
  0
LINE
  5
2D7
330
1F
100
AcDbEntity
  8
6
  6
Continuous
 62
     7
100
AcDbLine
 10
320.4134542146362
 20
-1615.54487084919
 30
0.0
 11
320.5105825927462
 21
-1612.763478012661
 31
0.0
  0
LINE
  5
2D8
330
1F
100
AcDbEntity
  8
6
  6
Continuous
 62
     7
100
AcDbLine
 10
320.5819644756962
 20
-1610.719368332703
 30
0.0
 11
323.0686514132885
 21
-1526.009971352487
 31
0.0
  0
POINT
  5
2D9
330
1F
100
AcDbEntity
  8
6
  6
Continuous
 62
     7
100
AcDbPoint
 10
320.4134542146362
 20
-1615.54487084919
 30
0.0
  0
ARC
  5
2DA
330
1F
100
AcDbEntity
  8
6
  6
Continuous
 62
     7
100
AcDbCircle
 10
315.5850103406005
 20
-1610.54487084919
 30
0.0
 40
5.0
100
AcDbArc
 50
270.0
 51
358.0000000000016
  0
ARC
  5
2DB
330
1F
100
AcDbEntity
  8
6
  6
Continuous
 62
     7
100
AcDbCircle
 10
289.2842015920878
 20
-1616.54487084919
 30
0.0
 40
1.5
100
AcDbArc
 50
177.9999999999967
 51
270.0
  0
LINE
  5
2DC
330
1F
100
AcDbEntity
  8
6
  6
Continuous
 62
     7
100
AcDbLine
 10
290.8791429894432
 20
-1555.54487084919
 30
0.0
 11
292.9477654398288
 21
-1555.54487084919
 31
0.0
  0
LINE
  5
2DD
330
1F
100
AcDbEntity
  8
6
  6
Continuous
 62
     7
100
AcDbLine
 10
293.9471562668482
 20
-1556.509971352487
 30
0.0
 11
295.8401901230809
 21
-1610.719368332703
 31
0.0
  0
POINT
  5
2DE
330
1F
100
AcDbEntity
  8
6
  6
Continuous
 62
     7
100
AcDbPoint
 10
296.0087003841409
 20
-1615.54487084919
 30
0.0
  0
POINT
  5
2DF
330
1F
100
AcDbEntity
  8
6
  6
Continuous
 62
     7
100
AcDbPoint
 10
293.9134542146362
 20
-1555.54487084919
 30
0.0
  0
POINT
  5
2E0
330
1F
100
AcDbEntity
  8
6
  6
Continuous
 62
     7
100
AcDbPoint
 10
289.9134542146362
 20
-1555.54487084919
 30
0.0
  0
ARC
  5
2E1
330
1F
100
AcDbEntity
  8
6
  6
Continuous
 62
     7
100
AcDbCircle
 10
300.8371442581765
 20
-1610.54487084919
 30
0.0
 40
5.0
100
AcDbArc
 50
181.9999999999984
 51
270.0
  0
ARC
  5
2E2
330
1F
100
AcDbEntity
  8
6
  6
Continuous
 62
     7
100
AcDbCircle
 10
290.8791429894432
 20
-1556.54487084919
 30
0.0
 40
1.0
100
AcDbArc
 50
90.0
 51
177.9999999999961
  0
ARC
  5
2E3
330
1F
100
AcDbEntity
  8
6
  6
Continuous
 62
     7
100
AcDbCircle
 10
292.9477654398288
 20
-1556.54487084919
 30
0.0
 40
1.0
100
AcDbArc
 50
2.000000000003044
 51
90.0
  0
LINE
  5
2E4
330
1F
100
AcDbEntity
  8
6
  6
Continuous
 62
     7
100
AcDbLine
 10
327.3603215154048
 20
-1528.054850439764
 30
0.0
 11
322.9838718579881
 21
-1528.43774017128
 31
0.0
  0
LINE
  5
2E5
330
1F
100
AcDbEntity
  8
6
  6
Continuous
 62
     7
100
AcDbLine
 10
327.7961002291431
 20
-1533.035823930223
 30
0.0
 11
322.8080639288314
 21
-1533.472220559756
 31
0.0
  0
LINE
  5
2E6
330
1F
100
AcDbEntity
  8
6
  6
Continuous
 62
     7
100
AcDbLine
 10
327.3980599520146
 20
-1528.486202744038
 30
0.0
 11
322.9686468913233
 21
-1528.873726172922
 31
0.0
  0
LINE
  5
2E7
330
1F
100
AcDbEntity
  8
6
  6
Continuous
 62
     7
100
AcDbLine
 10
327.7583617925334
 20
-1532.604471625949
 30
0.0
 11
322.8232888954967
 21
-1533.036234558114
 31
0.0
  0
LINE
  5
2E8
330
1F
100
AcDbEntity
  8
6
  6
CENTER2
 62
     7
100
AcDbLine
 10
334.3128383851022
 20
-1529.956133624551
 30
0.0
 11
319.1830159959813
 21
-1531.27982156476
 31
0.0
  0
LINE
  5
2E9
330
1F
100
AcDbEntity
  8
6
  6
Continuous
 62
     7
100
AcDbLine
 10
327.1768459478594
 20
-1525.957715106444
 30
0.0
 11
328.6695822844708
 21
-1543.04487084919
 31
0.0
  0
LINE
  5
2EA
330
1F
100
AcDbEntity
  8
1
  6
Continuous
 62
     7
100
AcDbLine
 10
324.0680422403075
 20
-1525.04487084919
 30
0.0
 11
326.1806512497678
 21
-1525.04487084919
 31
0.0
  0
LINE
  5
2EB
330
1F
100
AcDbEntity
  8
6
  6
Continuous
 62
     7
100
AcDbLine
 10
289.9134542146362
 20
-1555.54487084919
 30
0.0
 11
261.4134542146362
 21
-1555.54487084919
 31
0.0
  0
ARC
  5
2EC
330
1F
100
AcDbEntity
  8
1
  6
Continuous
 62
     7
100
AcDbCircle
 10
324.0680422403075
 20
-1526.04487084919
 30
0.0
 40
1.0
100
AcDbArc
 50
90.0
 51
177.9999999999961
  0
ARC
  5
2ED
330
1F
100
AcDbEntity
  8
1
  6
Continuous
 62
     7
100
AcDbCircle
 10
326.1806512497678
 20
-1526.044870849191
 30
0.0
 40
1.0
100
AcDbArc
 50
5.000000000000595
 51
90.0
  0
LINE
  5
2EE
330
1F
100
AcDbEntity
  8
1
  6
Continuous
 62
     7
100
AcDbLine
 10
325.0808423894327
 20
-1610.823628042474
 30
0.0
 11
326.6346912321101
 21
-1558.04487084919
 31
0.0
  0
ARC
  5
2EF
330
1F
100
AcDbEntity
  8
1
  6
Continuous
 62
     7
100
AcDbCircle
 10
315.5849330371279
 20
-1610.54487084919
 30
0.0
 40
9.5
100
AcDbArc
 50
270.0
 51
358.3185364728253
  0
POINT
  5
2F0
330
1F
100
AcDbEntity
  8
1
  6
Continuous
 62
     7
100
AcDbPoint
 10
323.0969824237854
 20
-1525.044870849191
 30
0.0
  0
POINT
  5
2F1
330
1F
100
AcDbEntity
  8
1
  6
Continuous
 62
     7
100
AcDbPoint
 10
327.096982423785
 20
-1525.04487084919
 30
0.0
  0
LINE
  5
2F2
330
1F
100
AcDbEntity
  8
6
  6
Continuous
 62
     7
100
AcDbLine
 10
329.3800307690503
 20
-1527.878148776452
 30
0.0
 11
319.8494360924064
 21
-1528.711967767318
 31
0.0
  0
LINE
  5
2F3
330
1F
100
AcDbEntity
  8
6
  6
Continuous
 62
     7
100
AcDbLine
 10
329.8158094827886
 20
-1532.85912226691
 30
0.0
 11
320.2852148061447
 21
-1533.692941257777
 31
0.0
  0
LINE
  5
2F4
330
1F
100
AcDbEntity
  8
6
  6
Continuous
 62
     7
100
AcDbLine
 10
319.8494360924064
 20
-1528.711967767318
 30
0.0
 11
319.4558222247424
 21
-1529.181058508202
 31
0.0
  0
LINE
  5
2F5
330
1F
100
AcDbEntity
  8
6
  6
Continuous
 62
     7
100
AcDbLine
 10
320.2852148061447
 20
-1533.692941257777
 30
0.0
 11
319.8161240652612
 21
-1533.299327390113
 31
0.0
  0
LINE
  5
2F6
330
1F
100
AcDbEntity
  8
6
  6
Continuous
 62
     7
100
AcDbLine
 10
319.4558222247424
 20
-1529.181058508202
 30
0.0
 11
319.8161240652612
 21
-1533.299327390113
 31
0.0
  0
LINE
  5
2F7
330
1F
100
AcDbEntity
  8
6
  6
Continuous
 62
     7
100
AcDbLine
 10
319.8494360924064
 20
-1528.711967767318
 30
0.0
 11
320.2852148061447
 21
-1533.692941257777
 31
0.0
  0
LINE
  5
2F8
330
1F
100
AcDbEntity
  8
6
  6
Continuous
 62
     7
100
AcDbLine
 10
329.4177692056601
 20
-1528.309501080725
 30
0.0
 11
319.4558222247424
 21
-1529.181058508202
 31
0.0
  0
LINE
  5
2F9
330
1F
100
AcDbEntity
  8
6
  6
Continuous
 62
     7
100
AcDbLine
 10
329.7780710461789
 20
-1532.427769962637
 30
0.0
 11
319.8161240652612
 21
-1533.299327390113
 31
0.0
  0
LINE
  5
2FA
330
1F
100
AcDbEntity
  8
1
  6
Continuous
 62
     7
100
AcDbLine
 10
329.1953649936249
 20
-1525.767409304812
 30
0.0
 11
330.0004752582136
 21
-1534.96986173855
 31
0.0
  0
LINE
  5
2FB
330
1F
100
AcDbEntity
  8
1
  6
Continuous
 62
     7
100
AcDbLine
 10
329.1953649936249
 20
-1525.767409304812
 30
0.0
 11
332.1839490879004
 21
-1525.505942076569
 31
0.0
  0
LINE
  5
2FC
330
1F
100
AcDbEntity
  8
1
  6
Continuous
 62
     7
100
AcDbLine
 10
332.7826852200196
 20
-1526.612670759413
 30
0.0
 11
333.0846015692405
 21
-1530.063590422064
 31
0.0
  0
LINE
  5
2FD
330
1F
100
AcDbEntity
  8
1
  6
Continuous
 62
     7
100
AcDbLine
 10
330.0004752582136
 20
-1534.96986173855
 30
0.0
 11
332.9890593524888
 21
-1534.708394510307
 31
0.0
  0
LINE
  5
2FE
330
1F
100
AcDbEntity
  8
1
  6
Continuous
 62
     7
100
AcDbLine
 10
333.3865179184613
 20
-1533.514510084715
 30
0.0
 11
333.0846015692405
 21
-1530.063590422064
 31
0.0
  0
ARC
  5
2FF
330
1F
100
AcDbEntity
  8
1
  6
Continuous
 62
     7
100
AcDbCircle
 10
331.809209646482
 20
-1533.652506677399
 30
0.0
 40
1.583333333333975
100
AcDbArc
 50
318.1735511072658
 51
51.82644889273416
  0
ARC
  5
300
330
1F
100
AcDbEntity
  8
1
  6
Continuous
 62
     7
100
AcDbCircle
 10
327.522514504898
 20
-1530.550209985738
 30
0.0
 40
5.583333333330427
100
AcDbArc
 50
340.5673023205371
 51
29.43269767946525
  0
ARC
  5
301
330
1F
100
AcDbEntity
  8
1
  6
Continuous
 62
     7
100
AcDbCircle
 10
331.2053769480406
 20
-1526.750667352097
 30
0.0
 40
1.583333333333975
100
AcDbArc
 50
318.1735511072714
 51
51.82644889272908
  0
LINE
  5
302
330
1F
100
AcDbEntity
  8
1
  6
Continuous
 62
     7
100
AcDbLine
 10
332.7877817863418
 20
-1532.407781401872
 30
0.0
 11
329.7991976920648
 21
-1532.669248630115
 31
0.0
  0
LINE
  5
303
330
1F
100
AcDbEntity
  8
1
  6
Continuous
 62
     7
100
AcDbLine
 10
329.3966425597723
 20
-1528.068022413247
 30
0.0
 11
332.3852266540475
 21
-1527.806555185004
 31
0.0
  0
DIMENSION
  5
311
330
1F
100
AcDbEntity
  8
1
  6
ByBlock
 62
     3
100
AcDbDimension
  2
_D6
 10
291.220454214636
 20
-1657.983122271886
 30
0.0
 11
261.4134542146362
 21
-1653.983122271886
 31
0.0
 70
   160
  1
Ｒｃ２
 71
     5
 42
-1.0
 52
90.0
  3
DIMSTYEX_14
100
AcDbAlignedDimension
 13
231.6064542146364
 23
-1640.04487084919
 33
0.0
 14
291.220454214636
 24
-1640.04487084919
 34
0.0
100
AcDbRotatedDimension
1001
ACAD
1000
DSTYLE
1002
{
1070
   343
1005
88
1070
   344
1005
88
1070
    43
1040
2.969960569123145
1070
   173
1070
     1
1070
   272
1070
     3
1070
   340
1005
83
1070
   140
1040
3.584
1002
}
  0
DIMENSION
  5
31F
330
1F
100
AcDbEntity
  8
1
  6
ByBlock
 62
     3
100
AcDbDimension
  2
_D7
 10
251.0076791332981
 20
-1555.54487084919
 30
0.0
 11
247.0076791332981
 21
-1580.54487084919
 31
0.0
 70
   160
 71
     5
 42
-1.0
 52
90.0
  3
DIMSTYEX_15
100
AcDbAlignedDimension
 13
227.1674157400489
 23
-1605.54487084919
 33
0.0
 14
237.2731874399587
 24
-1555.54487084919
 34
0.0
 50
90.0
100
AcDbRotatedDimension
1001
ACAD
1000
DSTYLE
1002
{
1070
   343
1005
88
1070
   344
1005
88
1070
    43
1040
0.0
1070
   173
1070
     1
1070
   272
1070
     3
1070
   340
1005
83
1070
   140
1040
3.584
1002
}
  0
LINE
  5
320
330
1F
100
AcDbEntity
  8
6
  6
Continuous
 62
     7
100
AcDbLine
 10
327.3600540308662
 20
-1528.054873841629
 30
0.0
 11
322.9838718579881
 21
-1528.43774017128
 31
0.0
  0
LINE
  5
321
330
1F
100
AcDbEntity
  8
6
  6
Continuous
 62
     7
100
AcDbLine
 10
327.7951974334833
 20
-1533.035902914608
 30
0.0
 11
322.8080639288314
 21
-1533.472220559756
 31
0.0
  0
LINE
  5
322
330
1F
100
AcDbEntity
  8
6
  6
Continuous
 62
     7
100
AcDbLine
 10
327.3977374495325
 20
-1528.486230959349
 30
0.0
 11
322.9686468913233
 21
-1528.873726172922
 31
0.0
  0
LINE
  5
323
330
1F
100
AcDbEntity
  8
6
  6
Continuous
 62
     7
100
AcDbLine
 10
327.7575140148165
 20
-1532.604545796888
 30
0.0
 11
322.8232888954967
 21
-1533.036234558114
 31
0.0
  0
LINE
  5
324
330
1F
100
AcDbEntity
  8
1
  6
Continuous
 62
     7
100
AcDbLine
 10
324.0680422403075
 20
-1525.04487084919
 30
0.0
 11
326.1806512497678
 21
-1525.04487084919
 31
0.0
  0
ARC
  5
325
330
1F
100
AcDbEntity
  8
1
  6
Continuous
 62
     7
100
AcDbCircle
 10
324.0680422403075
 20
-1526.04487084919
 30
0.0
 40
1.0
100
AcDbArc
 50
90.0
 51
177.9999999999961
  0
POINT
  5
326
330
1F
100
AcDbEntity
  8
1
  6
Continuous
 62
     7
100
AcDbPoint
 10
323.0969824237854
 20
-1525.044870849191
 30
0.0
  0
POINT
  5
327
330
1F
100
AcDbEntity
  8
1
  6
Continuous
 62
     7
100
AcDbPoint
 10
327.096982423785
 20
-1525.04487084919
 30
0.0
  0
ARC
  5
328
330
1F
100
AcDbEntity
  8
1
  6
Continuous
 62
     7
100
AcDbCircle
 10
326.1806512497678
 20
-1526.04487084919
 30
0.0
 40
1.0
100
AcDbArc
 50
4.999999999998323
 51
90.0
  0
LINE
  5
329
330
1F
100
AcDbEntity
  8
1
  6
Continuous
 62
     7
100
AcDbLine
 10
328.6695822844708
 20
-1543.04487084919
 30
0.0
 11
327.720107329651
 21
-1556.301478404656
 31
0.0
  0
ARC
  5
32A
330
1F
100
AcDbEntity
  8
1
  6
Continuous
 62
     7
100
AcDbCircle
 10
326.7207165026321
 20
-1556.266578907954
 30
0.0
 40
1.0
100
AcDbArc
 50
297.233874637235
 51
358.0000000000091
  0
LINE
  5
32B
330
1F
100
AcDbEntity
  8
1
  6
HIDDEN2
 62
     7
100
AcDbLine
 10
327.0438488668228
 20
-1546.588882178711
 30
0.0
 11
326.6346912321101
 21
-1558.04487084919
 31
0.0
  0
ARC
  5
32C
330
1F
100
AcDbEntity
  8
1
  6
Continuous
 62
     7
100
AcDbCircle
 10
327.6359638854387
 20
-1558.04487084919
 30
0.0
 40
1.0
100
AcDbArc
 50
117.2338746372059
 51
178.3067368498722
  0
ARC
  5
32D
330
1F
100
AcDbEntity
  8
1
  6
HIDDEN2
 62
     7
100
AcDbCircle
 10
332.0416655736885
 20
-1546.736625755814
 30
0.0
 40
5.0
100
AcDbArc
 50
132.4088667058103
 51
178.306736849878
  0
LINE
  5
32E
330
1F
100
AcDbEntity
  8
6
  6
Continuous
 62
     7
100
AcDbLine
 10
195.0322707950172
 20
-1532.957715106478
 30
0.0
 11
194.1573261448027
 21
-1543.044870849226
 31
0.0
  0
ARC
  5
32F
330
1F
100
AcDbEntity
  8
1
  6
Continuous
 62
     7
100
AcDbCircle
 10
196.028465493109
 20
-1533.044870849226
 30
0.0
 40
1.0
100
AcDbArc
 50
90.0
 51
175.0000000000005
  0
ARC
  5
330
330
1F
100
AcDbEntity
  8
1
  6
Continuous
 62
     7
100
AcDbCircle
 10
190.7852428555852
 20
-1546.73662575585
 30
0.0
 40
5.0
100
AcDbArc
 50
1.693263150122003
 51
47.5911332941934
  0
HATCH
  5
331
330
1F
100
AcDbEntity
  8
1
  6
Continuous
 62
     7
100
AcDbHatch
 10
0.0
 20
0.0
 30
0.0
210
0.0
220
0.0
230
1.0
  2
_U
 70
     0
 71
     0
 91
        3
 92
        0
 93
       30
 72
     2
 10
199.0033115754068
 20
-1533.044870849189
 40
1.0
 50
2.000000000003044
 51
90.0
 73
     1
 72
     1
 10
199.0033115754002
 20
-1532.044870849226
 11
196.028465493109
 21
-1532.044870849226
 72
     2
 10
196.028465493109
 20
-1533.044870849226
 40
1.0
 50
90.0
 51
175.0000000000005
 73
     1
 72
     1
 10
195.0322707950172
 20
-1532.957715106478
 11
194.1573261448027
 21
-1543.044870849226
 72
     2
 10
190.7852428555852
 20
-1546.73662575585
 40
5.0
 50
312.4088667058066
 51
358.306736849878
 73
     0
 72
     1
 10
195.7830595624509
 20
-1546.588882178748
 11
197.7460660398397
 21
-1610.823628042473
 72
     2
 10
207.2419753921445
 20
-1610.54487084919
 40
9.5
 50
181.6814635271747
 51
270.0
 73
     1
 72
     1
 10
207.2419753921445
 20
-1620.04487084919
 11
219.9477654398293
 21
-1620.04487084919
 72
     2
 10
219.9477654398293
 20
-1621.04487084919
 40
1.0
 50
270.0
 51
357.9999999999961
 73
     0
 72
     1
 10
220.9471562668482
 20
-1621.009971352488
 11
221.5781675522594
 21
-1639.079770345893
 72
     2
 10
222.5775583792783
 20
-1639.04487084919
 40
1.0
 50
182.000000000003
 51
270.0
 73
     1
 72
     1
 10
222.5775583792783
 20
-1640.04487084919
 11
231.6064542146364
 21
-1640.04487084919
 72
     1
 10
231.6064542146364
 20
-1640.04487084919
 11
232.0595715530117
 21
-1625.545116021181
 72
     2
 10
235.413454214636
 20
-1622.54487084919
 40
4.5
 50
138.1854968655467
 51
180.0
 73
     0
 72
     1
 10
230.9134542146362
 20
-1622.54487084919
 11
230.9134542146362
 21
-1620.54487084919
 72
     2
 10
233.413454214636
 20
-1620.54487084919
 40
2.5
 50
180.0
 51
270.0
 73
     0
 72
     1
 10
233.413454214636
 20
-1618.04487084919
 11
233.5427068371844
 21
-1618.04487084919
 72
     2
 10
233.5427068371844
 20
-1616.54487084919
 40
1.5
 50
270.0
 51
362.0000000000034
 73
     1
 72
     1
 10
235.0417930777132
 20
-1616.492521604136
 11
232.9471562668482
 21
-1556.509971352488
 72
     2
 10
231.9477654398293
 20
-1556.54487084919
 40
1.0
 50
2.000000000003953
 51
90.0
 73
     1
 72
     1
 10
231.9477654398293
 20
-1555.54487084919
 11
229.8791429894436
 21
-1555.54487084919
 72
     2
 10
229.8791429894436
 20
-1556.54487084919
 40
1.0
 50
90.0
 51
177.999999999997
 73
     1
 72
     1
 10
228.8797521624242
 20
-1556.509971352487
 11
226.9867183061915
 21
-1610.719368332703
 72
     2
 10
221.9897641710959
 20
-1610.54487084919
 40
5.0
 50
1.999999999998382
 51
90.0
 73
     0
 72
     1
 10
221.9897641710959
 20
-1615.54487084919
 11
211.6365954632433
 21
-1615.54487084919
 72
     1
 10
211.6369066884363
 20
-1615.54487084919
 11
206.7418980886719
 21
-1615.54487084919
 72
     1
 10
206.7418980886719
 20
-1615.54487084919
 11
207.2418980886719
 21
-1615.54487084919
 72
     2
 10
207.2418980886719
 20
-1610.54487084919
 40
5.0
 50
90.0
 51
178.0000000000016
 73
     0
 72
     1
 10
202.2449439535762
 20
-1610.719368332703
 11
201.0353025370446
 21
-1569.079770345892
 72
     1
 10
201.0353025370446
 20
-1569.079770345892
 11
200.0027024024262
 21
-1533.009971352487
 97
        0
 92
        0
 93
       12
 72
     2
 10
208.9134542146362
 20
-1572.54487084919
 40
0.5
 50
2.000000000003953
 51
90.0
 73
     1
 72
     1
 10
208.9134542146362
 20
-1572.04487084919
 11
203.6631496281457
 21
-1572.04487084919
 72
     2
 10
203.6631496281457
 20
-1571.54487084919
 40
0.5
 50
90.0
 51
177.9999999999961
 73
     0
 72
     1
 10
203.1634542146362
 20
-1571.562320597541
 11
203.1273147278648
 21
-1570.527421100838
 72
     2
 10
202.6276193143553
 20
-1570.54487084919
 40
0.5
 50
2.000000000003953
 51
90.0
 73
     1
 72
     1
 10
202.6276193143553
 20
-1570.04487084919
 11
202.0346933640635
 21
-1570.04487084919
 72
     2
 10
202.0346933640635
 20
-1569.04487084919
 40
1.0
 50
90.0
 51
178.0000000000091
 73
     0
 72
     1
 10
201.0353025370446
 20
-1569.079770345892
 11
202.2449439535762
 21
-1610.719368332703
 72
     2
 10
207.2418980886719
 20
-1610.54487084919
 40
5.0
 50
181.9999999999984
 51
270.0
 73
     1
 72
     1
 10
207.2418980886719
 20
-1615.54487084919
 11
211.6369066884363
 21
-1615.54487084919
 72
     2
 10
211.6365954632433
 20
-1614.54487084919
 40
1.0
 50
90.0
 51
178.00000000001
 73
     0
 72
     1
 10
210.6372046362239
 20
-1614.579770345892
 11
209.4131496281457
 21
-1572.527421100839
 97
        0
 92
        0
 93
       28
 72
     2
 10
302.8791429894432
 20
-1621.04487084919
 40
1.0
 50
182.0000000000039
 51
270.0
 73
     0
 72
     1
 10
302.8791429894432
 20
-1620.04487084919
 11
315.5849330371279
 21
-1620.04487084919
 72
     2
 10
315.5849330371279
 20
-1610.54487084919
 40
9.5
 50
270.0
 51
358.3185364728253
 73
     1
 72
     1
 10
325.0808423894327
 20
-1610.823628042474
 11
326.6346912321101
 21
-1558.04487084919
 72
     1
 10
326.6346912321101
 20
-1558.04487084919
 11
326.6364005440737
 21
-1558.01532213377
 72
     2
 10
327.6359638854387
 20
-1558.04487084919
 40
1.0
 50
181.6932631501279
 51
242.7661253627942
 73
     0
 72
     2
 10
326.7207165026321
 20
-1556.266578907954
 40
1.0
 50
297.233874637235
 51
358.0000000000091
 73
     1
 72
     1
 10
327.720107329651
 20
-1556.301478404656
 11
328.6695822844708
 21
-1543.04487084919
 72
     1
 10
328.6695822844708
 20
-1543.04487084919
 11
327.7951974334831
 21
-1533.035902914608
 72
     1
 10
327.7961002291431
 20
-1533.035823930223
 11
322.8497002695426
 21
-1533.468577851953
 72
     1
 10
322.8497002695426
 20
-1533.468577851953
 11
320.5819644756962
 21
-1610.719368332703
 72
     2
 10
315.5850103406005
 20
-1610.54487084919
 40
5.0
 50
1.999999999998382
 51
90.0
 73
     0
 72
     1
 10
315.5850103406005
 20
-1615.54487084919
 11
300.8371442581765
 21
-1615.54487084919
 72
     2
 10
300.8371442581765
 20
-1610.54487084919
 40
5.0
 50
90.0
 51
178.0000000000016
 73
     0
 72
     1
 10
295.8401901230809
 20
-1610.719368332703
 11
293.9471562668482
 21
-1556.509971352487
 72
     2
 10
292.9477654398288
 20
-1556.54487084919
 40
1.0
 50
2.000000000003044
 51
90.0
 73
     1
 72
     1
 10
292.9477654398288
 20
-1555.54487084919
 11
290.8791429894432
 21
-1555.54487084919
 72
     2
 10
290.8791429894432
 20
-1556.54487084919
 40
1.0
 50
90.0
 51
177.9999999999961
 73
     1
 72
     1
 10
289.8797521624242
 20
-1556.509971352488
 11
287.7851153515589
 21
-1616.492521604137
 72
     2
 10
289.2842015920878
 20
-1616.54487084919
 40
1.5
 50
177.9999999999967
 51
270.0
 73
     1
 72
     1
 10
289.2842015920878
 20
-1618.04487084919
 11
289.4134542146362
 21
-1618.04487084919
 72
     2
 10
289.4134542146362
 20
-1620.54487084919
 40
2.5
 50
270.0
 51
360.0
 73
     0
 72
     1
 10
291.9134542146362
 20
-1620.54487084919
 11
291.9134542146362
 21
-1622.54487084919
 72
     2
 10
287.4134542146362
 20
-1622.54487084919
 40
4.5
 50
0.0
 51
41.81450313445333
 73
     0
 72
     1
 10
290.7673368762607
 20
-1625.545116021181
 11
291.220454214636
 21
-1640.04487084919
 72
     1
 10
291.220454214636
 20
-1640.04487084919
 11
300.2493500499941
 21
-1640.04487084919
 72
     2
 10
300.2493500499941
 20
-1639.04487084919
 40
1.0
 50
270.0
 51
357.999999999997
 73
     1
 72
     1
 10
301.248740877013
 20
-1639.079770345893
 11
301.8797521624242
 21
-1621.009971352488
 97
        0
 75
     0
 76
     0
 52
135.0
 41
3.0
 77
     0
 78
     1
 53
135.0
 43
0.0
 44
0.0
 45
-2.121320343559643
 46
-2.121320343559642
 79
     0
 98
        1
 10
0.0
 20
0.0
  0
DIMENSION
  5
33F
330
1F
100
AcDbEntity
  8
1
  6
ByBlock
 62
     3
100
AcDbDimension
  2
_D8
 10
328.6695822844708
 20
-1672.374556939199
 30
0.0
 11
261.4134542146368
 21
-1668.374556939199
 31
0.0
 70
   160
  1
φ１３５
 71
     5
 42
-1.0
 52
90.0
  3
DIMSTYEX_16
100
AcDbAlignedDimension
 13
194.1573261448027
 23
-1543.044870849226
 33
0.0
 14
328.6695822844708
 24
-1543.04487084919
 34
0.0
100
AcDbRotatedDimension
1001
ACAD
1000
DSTYLE
1002
{
1070
   343
1005
88
1070
   344
1005
88
1070
    43
1040
108.9163935631128
1070
   173
1070
     1
1070
   272
1070
     3
1070
   340
1005
83
1070
   140
1040
3.584
1002
}
  0
DIMENSION
  5
34C
330
1F
100
AcDbEntity
  8
1
  6
ByBlock
 62
     3
100
AcDbDimension
  2
_D9
 10
118.0386069467108
 20
-1532.044870849226
 30
0.0
 11
114.0386069467108
 21
-1586.044870849208
 31
0.0
 70
   160
 71
     5
 42
-1.0
 52
90.0
  3
DIMSTYEX_15
100
AcDbAlignedDimension
 13
222.5775583792782
 23
-1640.04487084919
 33
0.0
 14
196.028465493109
 24
-1532.044870849226
 34
0.0
 50
90.0
100
AcDbRotatedDimension
1001
ACAD
1000
DSTYLE
1002
{
1070
   343
1005
88
1070
   344
1005
88
1070
    43
1040
0.0
1070
   173
1070
     1
1070
   272
1070
     3
1070
   340
1005
83
1070
   140
1040
3.584
1002
}
  0
HATCH
  5
34D
330
1F
100
AcDbEntity
  8
1
  6
Continuous
 62
     7
100
AcDbHatch
 10
0.0
 20
0.0
 30
0.0
210
0.0
220
0.0
230
1.0
  2
_U
 70
     0
 71
     0
 91
        1
 92
        0
 93
        6
 72
     1
 10
322.9974178287671
 20
-1528.4365550524
 11
327.3600540308662
 21
-1528.054873841629
 72
     1
 10
327.3600540308662
 20
-1528.054873841629
 11
327.1768459478594
 21
-1525.957715106444
 72
     2
 10
326.1806512497678
 20
-1526.044870849191
 40
1.0
 50
5.000000000000595
 51
90.0
 73
     1
 72
     1
 10
326.1806512497678
 20
-1525.04487084919
 11
324.0680422403075
 21
-1525.04487084919
 72
     2
 10
324.0680422403075
 20
-1526.04487084919
 40
1.0
 50
90.0
 51
177.9999999999961
 73
     1
 72
     1
 10
323.0686514132885
 20
-1526.009971352487
 11
322.9974178287671
 21
-1528.4365550524
 97
        0
 75
     0
 76
     0
 52
135.0
 41
3.0
 77
     0
 78
     1
 53
135.0
 43
0.0
 44
0.0
 45
-2.121320343559643
 46
-2.121320343559642
 79
     0
 98
        1
 10
0.0
 20
0.0
  0
INSERT
  5
406
330
1F
100
AcDbEntity
  8
1
  6
Continuous
 62
     7
100
AcDbBlockReference
  2
BLK3
 10
261.4134542146361
 20
-1555.54487084919
 30
0.0
  0
ENDSEC
  0
SECTION
  2
OBJECTS
  0
DICTIONARY
  5
C
330
0
100
AcDbDictionary
281
     1
  3
ACAD_GROUP
350
D
  3
ACAD_LAYOUT
350
1A
  3
ACAD_MATERIAL
350
43
  3
ACAD_MLEADERSTYLE
350
6B
  3
ACAD_MLINESTYLE
350
17
  3
ACAD_PLOTSETTINGS
350
19
  3
ACAD_PLOTSTYLENAME
350
E
  3
ACAD_SCALELIST
350
47
  3
ACAD_TABLESTYLE
350
69
  3
ACAD_VISUALSTYLE
350
2A
  3
AcDbVariableDictionary
350
416
  0
DICTIONARY
  5
41D
330
8
100
AcDbDictionary
280
     1
281
     1
  3
ACAD_XREC_ROUNDTRIP
360
41E
  0
DICTIONARY
  5
D
102
{ACAD_REACTORS
330
C
102
}
330
C
100
AcDbDictionary
281
     1
  0
DICTIONARY
  5
1A
102
{ACAD_REACTORS
330
C
102
}
330
C
100
AcDbDictionary
281
     1
  3
Layout1
350
1E
  3
Model
350
22
  0
DICTIONARY
  5
43
102
{ACAD_REACTORS
330
C
102
}
330
C
100
AcDbDictionary
281
     1
  3
ByBlock
350
45
  3
ByLayer
350
44
  3
Global
350
46
  0
DICTIONARY
  5
6B
102
{ACAD_REACTORS
330
C
102
}
330
C
100
AcDbDictionary
281
     1
  3
Standard
350
6C
  0
DICTIONARY
  5
17
102
{ACAD_REACTORS
330
C
102
}
330
C
100
AcDbDictionary
281
     1
  3
Standard
350
18
  0
DICTIONARY
  5
19
102
{ACAD_REACTORS
330
C
102
}
330
C
100
AcDbDictionary
281
     1
  0
ACDBDICTIONARYWDFLT
  5
E
102
{ACAD_REACTORS
330
C
102
}
330
C
100
AcDbDictionary
281
     1
  3
Normal
350
F
100
AcDbDictionaryWithDefault
340
F
  0
DICTIONARY
  5
47
102
{ACAD_REACTORS
330
C
102
}
330
C
100
AcDbDictionary
281
     1
  3
A0
350
48
  3
A1
350
49
  3
A2
350
4A
  3
A3
350
4B
  3
A4
350
4C
  3
A5
350
4D
  3
A6
350
4E
  3
A7
350
4F
  3
A8
350
50
  3
A9
350
51
  3
B0
350
52
  3
B1
350
53
  3
B2
350
54
  3
B3
350
55
  3
B4
350
56
  3
B5
350
57
  3
B6
350
58
  3
B7
350
59
  3
B8
350
5A
  3
B9
350
5B
  3
C0
350
5C
  3
C1
350
5D
  3
C2
350
5E
  3
C3
350
5F
  3
C4
350
60
  3
C5
350
61
  3
C6
350
62
  3
C7
350
63
  3
C8
350
64
  3
C9
350
65
  3
D0
350
66
  3
D1
350
67
  3
D2
350
68
  0
DICTIONARY
  5
69
102
{ACAD_REACTORS
330
C
102
}
330
C
100
AcDbDictionary
281
     1
  3
Standard
350
6A
  0
DICTIONARY
  5
2A
102
{ACAD_REACTORS
330
C
102
}
330
C
100
AcDbDictionary
281
     1
  3
2dWireframe
350
2F
  3
Basic
350
32
  3
Brighten
350
36
  3
ColorChange
350
3A
  3
Conceptual
350
34
  3
Dim
350
35
  3
EdgeColorOff
350
3D
  3
Facepattern
350
39
  3
Flat
350
2B
  3
FlatWithEdges
350
2C
  3
Gouraud
350
2D
  3
GouraudWithEdges
350
2E
  3
Hidden
350
31
  3
JitterOff
350
3B
  3
Linepattern
350
38
  3
OverhangOff
350
3C
  3
Realistic
350
33
  3
Shaded
350
42
  3
Shaded with edges
350
41
  3
Shades of Gray
350
3E
  3
Sketchy
350
3F
  3
Thicken
350
37
  3
Wireframe
350
30
  3
X-Ray
350
40
  0
DICTIONARY
  5
416
102
{ACAD_REACTORS
330
C
102
}
330
C
100
AcDbDictionary
281
     1
  3
CANNOSCALE
350
41F
  3
CMLEADERSTYLE
350
418
  3
CTABLESTYLE
350
417
  3
DIMASSOC
350
41B
  3
HIDETEXT
350
41C
  3
MSLTSCALE
350
420
  0
XRECORD
  5
41E
102
{ACAD_REACTORS
330
41D
102
}
330
41D
100
AcDbXrecord
280
     1
102
VTR_0.000_0.000_1.000_1.000_VISUALSTYLE
340
2F
102
VTR_0.000_0.000_1.000_1.000_GRIDDISPLAY
 70
     3
102
VTR_0.000_0.000_1.000_1.000_GRIDMAJOR
 70
     5
102
VTR_0.000_0.000_1.000_1.000_DEFAULTLIGHTING
280
     1
102
VTR_0.000_0.000_1.000_1.000_DEFAULTLIGHTINGTYPE
 70
     1
102
VTR_0.000_0.000_1.000_1.000_BRIGHTNESS
141
0.0
102
VTR_0.000_0.000_1.000_1.000_CONTRAST
142
0.0
  0
LAYOUT
  5
1E
102
{ACAD_REACTORS
330
1A
102
}
330
1A
100
AcDbPlotSettings
  1

  2
none_device
  4

  6

 40
0.0
 41
0.0
 42
0.0
 43
0.0
 44
0.0
 45
0.0
 46
0.0
 47
0.0
 48
0.0
 49
0.0
140
0.0
141
0.0
142
1.0
143
1.0
 70
   688
 72
     0
 73
     0
 74
     5
  7

 75
    16
147
1.0
148
0.0
149
0.0
100
AcDbLayout
  1
Layout1
 70
     1
 71
     1
 10
0.0
 20
0.0
 11
12.0
 21
9.0
 12
0.0
 22
0.0
 32
0.0
 14
1.000000000000000E+20
 24
1.000000000000000E+20
 34
1.000000000000000E+20
 15
-1.000000000000000E+20
 25
-1.000000000000000E+20
 35
-1.000000000000000E+20
146
0.0
 13
0.0
 23
0.0
 33
0.0
 16
1.0
 26
0.0
 36
0.0
 17
0.0
 27
1.0
 37
0.0
 76
     0
330
1B
  0
LAYOUT
  5
22
102
{ACAD_REACTORS
330
1A
102
}
330
1A
100
AcDbPlotSettings
  1

  2
none_device
  4
Letter_(8.50_x_11.00_Inches)
  6

 40
6.35
 41
6.35
 42
6.35000508
 43
6.35000508
 44
215.9
 45
279.4
 46
0.0
 47
0.0
 48
0.0
 49
0.0
140
0.0
141
0.0
142
1.0
143
1.0
 70
  1712
 72
     0
 73
     0
 74
     0
  7

 75
     0
147
1.0
148
0.0
149
0.0
100
AcDbLayout
  1
Model
 70
     1
 71
     0
 10
-21.96614993617709
 20
-1879.991621020336
 11
532.0338500638229
 21
-1079.991621020336
 12
-21.96614993617709
 22
-1239.830167942637
 32
0.0
 14
-21.96614993617709
 24
-1879.991621020336
 34
0.0
 15
532.0338500638229
 25
-1079.991621020336
 35
0.0
146
0.0
 13
0.0
 23
0.0
 33
0.0
 16
1.0
 26
0.0
 36
0.0
 17
0.0
 27
1.0
 37
0.0
 76
     0
330
1F
331
29
  0
MATERIAL
  5
45
102
{ACAD_REACTORS
330
43
102
}
102
{ACAD_XDICTIONARY
360
453
102
}
330
43
100
AcDbMaterial
  1
ByBlock
  0
MATERIAL
  5
44
102
{ACAD_REACTORS
330
43
102
}
102
{ACAD_XDICTIONARY
360
451
102
}
330
43
100
AcDbMaterial
  1
ByLayer
  0
MATERIAL
  5
46
102
{ACAD_REACTORS
330
43
102
}
102
{ACAD_XDICTIONARY
360
455
102
}
330
43
100
AcDbMaterial
  1
Global
  0
MLEADERSTYLE
  5
6C
102
{ACAD_REACTORS
330
6B
102
}
102
{ACAD_XDICTIONARY
360
458
102
}
330
6B
100
AcDbMLeaderStyle
170
     2
171
     1
172
     0
 90
        2
 40
0.0
 41
0.0
173
     1
 91
-1056964608
340
14
 92
       -2
290
     1
 42
0.09
291
     1
 43
0.36
  3
Standard
341
0
 44
0.18
300

342
11
174
     1
178
     6
175
     1
176
     0
 93
-1056964608
 45
0.18
292
     0
297
     0
 46
0.18
343
0
 94
-1056964608
 47
1.0
 49
1.0
140
1.0
293
     1
141
0.0
294
     1
177
     0
142
1.0
295
     0
296
     0
143
0.125
1001
ACAD_MLEADERVER
1070
     2
  0
MLINESTYLE
  5
18
102
{ACAD_REACTORS
330
17
102
}
330
17
100
AcDbMlineStyle
  2
Standard
 70
     0
  3

 62
   256
 51
90.0
 52
90.0
 71
     2
 49
0.5
 62
   256
  6
BYLAYER
 49
-0.5
 62
   256
  6
BYLAYER
  0
ACDBPLACEHOLDER
  5
F
102
{ACAD_REACTORS
330
E
102
}
330
E
  0
SCALE
  5
48
102
{ACAD_REACTORS
330
47
102
}
330
47
100
AcDbScale
 70
     0
300
1:1
140
1.0
141
1.0
290
     1
  0
SCALE
  5
49
102
{ACAD_REACTORS
330
47
102
}
330
47
100
AcDbScale
 70
     0
300
1:2
140
1.0
141
2.0
290
     0
  0
SCALE
  5
4A
102
{ACAD_REACTORS
330
47
102
}
330
47
100
AcDbScale
 70
     0
300
1:4
140
1.0
141
4.0
290
     0
  0
SCALE
  5
4B
102
{ACAD_REACTORS
330
47
102
}
330
47
100
AcDbScale
 70
     0
300
1:5
140
1.0
141
5.0
290
     0
  0
SCALE
  5
4C
102
{ACAD_REACTORS
330
47
102
}
330
47
100
AcDbScale
 70
     0
300
1:8
140
1.0
141
8.0
290
     0
  0
SCALE
  5
4D
102
{ACAD_REACTORS
330
47
102
}
330
47
100
AcDbScale
 70
     0
300
1:10
140
1.0
141
10.0
290
     0
  0
SCALE
  5
4E
102
{ACAD_REACTORS
330
47
102
}
330
47
100
AcDbScale
 70
     0
300
1:16
140
1.0
141
16.0
290
     0
  0
SCALE
  5
4F
102
{ACAD_REACTORS
330
47
102
}
330
47
100
AcDbScale
 70
     0
300
1:20
140
1.0
141
20.0
290
     0
  0
SCALE
  5
50
102
{ACAD_REACTORS
330
47
102
}
330
47
100
AcDbScale
 70
     0
300
1:30
140
1.0
141
30.0
290
     0
  0
SCALE
  5
51
102
{ACAD_REACTORS
330
47
102
}
330
47
100
AcDbScale
 70
     0
300
1:40
140
1.0
141
40.0
290
     0
  0
SCALE
  5
52
102
{ACAD_REACTORS
330
47
102
}
330
47
100
AcDbScale
 70
     0
300
1:50
140
1.0
141
50.0
290
     0
  0
SCALE
  5
53
102
{ACAD_REACTORS
330
47
102
}
330
47
100
AcDbScale
 70
     0
300
1:100
140
1.0
141
100.0
290
     0
  0
SCALE
  5
54
102
{ACAD_REACTORS
330
47
102
}
330
47
100
AcDbScale
 70
     0
300
2:1
140
2.0
141
1.0
290
     0
  0
SCALE
  5
55
102
{ACAD_REACTORS
330
47
102
}
330
47
100
AcDbScale
 70
     0
300
4:1
140
4.0
141
1.0
290
     0
  0
SCALE
  5
56
102
{ACAD_REACTORS
330
47
102
}
330
47
100
AcDbScale
 70
     0
300
8:1
140
8.0
141
1.0
290
     0
  0
SCALE
  5
57
102
{ACAD_REACTORS
330
47
102
}
330
47
100
AcDbScale
 70
     0
300
10:1
140
10.0
141
1.0
290
     0
  0
SCALE
  5
58
102
{ACAD_REACTORS
330
47
102
}
330
47
100
AcDbScale
 70
     0
300
100:1
140
100.0
141
1.0
290
     0
  0
SCALE
  5
59
102
{ACAD_REACTORS
330
47
102
}
330
47
100
AcDbScale
 70
     0
300
1/128" = 1'-0"
140
0.0078125
141
12.0
290
     0
  0
SCALE
  5
5A
102
{ACAD_REACTORS
330
47
102
}
330
47
100
AcDbScale
 70
     0
300
1/64" = 1'-0"
140
0.015625
141
12.0
290
     0
  0
SCALE
  5
5B
102
{ACAD_REACTORS
330
47
102
}
330
47
100
AcDbScale
 70
     0
300
1/32" = 1'-0"
140
0.03125
141
12.0
290
     0
  0
SCALE
  5
5C
102
{ACAD_REACTORS
330
47
102
}
330
47
100
AcDbScale
 70
     0
300
1/16" = 1'-0"
140
0.0625
141
12.0
290
     0
  0
SCALE
  5
5D
102
{ACAD_REACTORS
330
47
102
}
330
47
100
AcDbScale
 70
     0
300
3/32" = 1'-0"
140
0.09375
141
12.0
290
     0
  0
SCALE
  5
5E
102
{ACAD_REACTORS
330
47
102
}
330
47
100
AcDbScale
 70
     0
300
1/8" = 1'-0"
140
0.125
141
12.0
290
     0
  0
SCALE
  5
5F
102
{ACAD_REACTORS
330
47
102
}
330
47
100
AcDbScale
 70
     0
300
3/16" = 1'-0"
140
0.1875
141
12.0
290
     0
  0
SCALE
  5
60
102
{ACAD_REACTORS
330
47
102
}
330
47
100
AcDbScale
 70
     0
300
1/4" = 1'-0"
140
0.25
141
12.0
290
     0
  0
SCALE
  5
61
102
{ACAD_REACTORS
330
47
102
}
330
47
100
AcDbScale
 70
     0
300
3/8" = 1'-0"
140
0.375
141
12.0
290
     0
  0
SCALE
  5
62
102
{ACAD_REACTORS
330
47
102
}
330
47
100
AcDbScale
 70
     0
300
1/2" = 1'-0"
140
0.5
141
12.0
290
     0
  0
SCALE
  5
63
102
{ACAD_REACTORS
330
47
102
}
330
47
100
AcDbScale
 70
     0
300
3/4" = 1'-0"
140
0.75
141
12.0
290
     0
  0
SCALE
  5
64
102
{ACAD_REACTORS
330
47
102
}
330
47
100
AcDbScale
 70
     0
300
1" = 1'-0"
140
1.0
141
12.0
290
     0
  0
SCALE
  5
65
102
{ACAD_REACTORS
330
47
102
}
330
47
100
AcDbScale
 70
     0
300
1-1/2" = 1'-0"
140
1.5
141
12.0
290
     0
  0
SCALE
  5
66
102
{ACAD_REACTORS
330
47
102
}
330
47
100
AcDbScale
 70
     0
300
3" = 1'-0"
140
3.0
141
12.0
290
     0
  0
SCALE
  5
67
102
{ACAD_REACTORS
330
47
102
}
330
47
100
AcDbScale
 70
     0
300
6" = 1'-0"
140
6.0
141
12.0
290
     0
  0
SCALE
  5
68
102
{ACAD_REACTORS
330
47
102
}
330
47
100
AcDbScale
 70
     0
300
1'-0" = 1'-0"
140
12.0
141
12.0
290
     0
  0
TABLESTYLE
  5
6A
102
{ACAD_REACTORS
330
69
102
}
330
69
100
AcDbTableStyle
  3
Standard
 70
     0
 71
     0
 40
0.06
 41
0.06
280
     0
281
     0
  7
Standard
140
0.18
170
     2
 62
     0
 63
   257
283
     0
274
    -2
284
     1
 64
     0
275
    -2
285
     1
 65
     0
276
    -2
286
     1
 66
     0
277
    -2
287
     1
 67
     0
278
    -2
288
     1
 68
     0
279
    -2
289
     1
 69
     0
  7
Standard
140
0.25
170
     5
 62
     0
 63
   257
283
     0
274
    -2
284
     1
 64
     0
275
    -2
285
     1
 65
     0
276
    -2
286
     1
 66
     0
277
    -2
287
     1
 67
     0
278
    -2
288
     1
 68
     0
279
    -2
289
     1
 69
     0
  7
Standard
140
0.18
170
     5
 62
     0
 63
   257
283
     0
274
    -2
284
     1
 64
     0
275
    -2
285
     1
 65
     0
276
    -2
286
     1
 66
     0
277
    -2
287
     1
 67
     0
278
    -2
288
     1
 68
     0
279
    -2
289
     1
 69
     0
  0
VISUALSTYLE
  5
2F
102
{ACAD_REACTORS
330
2A
102
}
102
{ACAD_XDICTIONARY
360
429
102
}
330
2A
100
AcDbVisualStyle
  2
2dWireframe
 70
     4
 71
     0
 72
     2
 73
     0
 90
        0
 40
0.6
 41
30.0
 62
     5
 63
     7
 74
     1
 91
        4
 64
     7
 65
   257
 75
     1
175
     1
 42
1.0
 92
        0
 66
   257
 43
1.0
 76
     1
 77
     6
 78
     2
 67
     7
 79
     5
170
     0
171
     0
290
     0
174
     0
 93
        1
 44
0.0
173
     0
291
     0
 45
0.0
1001
ACAD
1000
AcDbSavedByObjectVersion
1070
     0
  0
VISUALSTYLE
  5
32
102
{ACAD_REACTORS
330
2A
102
}
102
{ACAD_XDICTIONARY
360
42F
102
}
330
2A
100
AcDbVisualStyle
  2
Basic
 70
     7
 71
     1
 72
     0
 73
     1
 90
        0
 40
0.6
 41
30.0
 62
     5
 63
     7
 74
     0
 91
        4
 64
     7
 65
   257
 75
     1
175
     1
 42
1.0
 92
        8
 66
     7
 43
1.0
 76
     1
 77
     6
 78
     2
 67
     7
 79
     5
170
     0
171
     0
290
     0
174
     0
 93
        1
 44
0.0
173
     0
291
     1
 45
0.0
1001
ACAD
1000
AcDbSavedByObjectVersion
1070
     0
  0
VISUALSTYLE
  5
36
102
{ACAD_REACTORS
330
2A
102
}
102
{ACAD_XDICTIONARY
360
437
102
}
330
2A
100
AcDbVisualStyle
  2
Brighten
 70
    12
 71
     2
 72
     2
 73
     0
 90
        0
 40
0.6
 41
30.0
 62
     5
 63
     7
 74
     1
 91
        4
 64
     7
 65
   257
 75
     1
175
     1
 42
1.0
 92
        8
 66
     7
 43
1.0
 76
     1
 77
     6
 78
     2
 67
     7
 79
     5
170
     0
171
     0
290
     0
174
     0
 93
        1
 44
50.0
173
     0
291
     1
 45
0.0
1001
ACAD
1000
AcDbSavedByObjectVersion
1070
     0
  0
VISUALSTYLE
  5
3A
102
{ACAD_REACTORS
330
2A
102
}
102
{ACAD_XDICTIONARY
360
43F
102
}
330
2A
100
AcDbVisualStyle
  2
ColorChange
 70
    16
 71
     2
 72
     2
 73
     3
 90
        0
 40
0.6
 41
30.0
 62
     5
 63
     8
 74
     1
 91
        4
 64
     7
 65
   257
 75
     1
175
     1
 42
1.0
 92
        8
 66
     8
 43
1.0
 76
     1
 77
     6
 78
     2
 67
     7
 79
     5
170
     0
171
     0
290
     0
174
     0
 93
        1
 44
0.0
173
     0
291
     1
 45
0.0
1001
ACAD
1000
AcDbSavedByObjectVersion
1070
     0
  0
VISUALSTYLE
  5
34
102
{ACAD_REACTORS
330
2A
102
}
102
{ACAD_XDICTIONARY
360
433
102
}
330
2A
100
AcDbVisualStyle
  2
Conceptual
 70
     9
 71
     3
 72
     2
 73
     0
 90
        0
 40
0.6
 41
30.0
 62
     5
 63
     7
 74
     2
 91
        2
 64
     7
 65
   257
 75
     1
175
     1
 42
179.0
 92
        8
 66
     7
 43
1.0
 76
     1
 77
     6
 78
     2
 67
     7
 79
     3
170
     0
171
     0
290
     0
174
     0
 93
        1
 44
0.0
173
     0
291
     0
 45
0.0
1001
ACAD
1000
AcDbSavedByObjectVersion
1070
     0
  0
VISUALSTYLE
  5
35
102
{ACAD_REACTORS
330
2A
102
}
102
{ACAD_XDICTIONARY
360
435
102
}
330
2A
100
AcDbVisualStyle
  2
Dim
 70
    11
 71
     2
 72
     2
 73
     0
 90
        0
 40
0.6
 41
30.0
 62
     5
 63
     7
 74
     1
 91
        4
 64
     7
 65
   257
 75
     1
175
     1
 42
1.0
 92
        8
 66
     7
 43
1.0
 76
     1
 77
     6
 78
     2
 67
     7
 79
     5
170
     0
171
     0
290
     0
174
     0
 93
        1
 44
-50.0
173
     0
291
     1
 45
0.0
1001
ACAD
1000
AcDbSavedByObjectVersion
1070
     0
  0
VISUALSTYLE
  5
3D
102
{ACAD_REACTORS
330
2A
102
}
102
{ACAD_XDICTIONARY
360
445
102
}
330
2A
100
AcDbVisualStyle
  2
EdgeColorOff
 70
    22
 71
     2
 72
     2
 73
     0
 90
        0
 40
0.6
 41
30.0
 62
     5
 63
     7
 74
     1
 91
        4
 64
     7
 65
   257
 75
     1
175
     1
 42
1.0
 92
        8
 66
     7
 43
1.0
 76
     1
 77
     6
 78
     2
 67
     7
 79
     5
170
     0
171
     0
290
     0
174
     0
 93
        1
 44
0.0
173
     0
291
     1
 45
0.0
1001
ACAD
1000
AcDbSavedByObjectVersion
1070
     0
  0
VISUALSTYLE
  5
39
102
{ACAD_REACTORS
330
2A
102
}
102
{ACAD_XDICTIONARY
360
43D
102
}
330
2A
100
AcDbVisualStyle
  2
Facepattern
 70
    15
 71
     2
 72
     2
 73
     0
 90
        0
 40
0.6
 41
30.0
 62
     5
 63
     7
 74
     1
 91
        4
 64
     7
 65
   257
 75
     1
175
     1
 42
1.0
 92
        8
 66
     7
 43
1.0
 76
     1
 77
     6
 78
     2
 67
     7
 79
     5
170
     0
171
     0
290
     0
174
     0
 93
        1
 44
0.0
173
     0
291
     1
 45
0.0
1001
ACAD
1000
AcDbSavedByObjectVersion
1070
     0
  0
VISUALSTYLE
  5
2B
102
{ACAD_REACTORS
330
2A
102
}
102
{ACAD_XDICTIONARY
360
421
102
}
330
2A
100
AcDbVisualStyle
  2
Flat
 70
     0
 71
     2
 72
     1
 73
     1
 90
        2
 40
0.6
 41
30.0
 62
     5
 63
     7
 74
     0
 91
        0
 64
     7
 65
   257
 75
     1
175
     1
 42
1.0
 92
        8
 66
     7
 43
1.0
 76
     1
 77
     6
 78
     2
 67
     7
 79
     5
170
     0
171
     0
290
     0
174
     0
 93
       13
 44
0.0
173
     0
291
     1
 45
0.0
1001
ACAD
1000
AcDbSavedByObjectVersion
1070
     0
  0
VISUALSTYLE
  5
2C
102
{ACAD_REACTORS
330
2A
102
}
102
{ACAD_XDICTIONARY
360
423
102
}
330
2A
100
AcDbVisualStyle
  2
FlatWithEdges
 70
     1
 71
     2
 72
     1
 73
     1
 90
        2
 40
0.6
 41
30.0
 62
     5
 63
     7
 74
     1
 91
        0
 64
     7
 65
   257
 75
     1
175
     1
 42
1.0
 92
        0
 66
   257
 43
1.0
 76
     1
 77
     6
 78
     2
 67
     7
 79
     5
170
     0
171
     0
290
     0
174
     0
 93
       13
 44
0.0
173
     0
291
     1
 45
0.0
1001
ACAD
1000
AcDbSavedByObjectVersion
1070
     0
  0
VISUALSTYLE
  5
2D
102
{ACAD_REACTORS
330
2A
102
}
102
{ACAD_XDICTIONARY
360
425
102
}
330
2A
100
AcDbVisualStyle
  2
Gouraud
 70
     2
 71
     2
 72
     2
 73
     1
 90
        2
 40
0.6
 41
30.0
 62
     5
 63
     7
 74
     0
 91
        0
 64
     7
 65
   257
 75
     1
175
     1
 42
1.0
 92
        0
 66
     7
 43
1.0
 76
     1
 77
     6
 78
     2
 67
     7
 79
     5
170
     0
171
     0
290
     0
174
     0
 93
       13
 44
0.0
173
     0
291
     1
 45
0.0
1001
ACAD
1000
AcDbSavedByObjectVersion
1070
     0
  0
VISUALSTYLE
  5
2E
102
{ACAD_REACTORS
330
2A
102
}
102
{ACAD_XDICTIONARY
360
427
102
}
330
2A
100
AcDbVisualStyle
  2
GouraudWithEdges
 70
     3
 71
     2
 72
     2
 73
     1
 90
        2
 40
0.6
 41
30.0
 62
     5
 63
     7
 74
     1
 91
        0
 64
     7
 65
   257
 75
     1
175
     1
 42
1.0
 92
        0
 66
   257
 43
1.0
 76
     1
 77
     6
 78
     2
 67
     7
 79
     5
170
     0
171
     0
290
     0
174
     0
 93
       13
 44
0.0
173
     0
291
     1
 45
0.0
1001
ACAD
1000
AcDbSavedByObjectVersion
1070
     0
  0
VISUALSTYLE
  5
31
102
{ACAD_REACTORS
330
2A
102
}
102
{ACAD_XDICTIONARY
360
42D
102
}
330
2A
100
AcDbVisualStyle
  2
Hidden
 70
     6
 71
     1
 72
     2
 73
     2
 90
        0
 40
0.6
 41
30.0
 62
     5
 63
     7
 74
     2
 91
        2
 64
     7
 65
   257
 75
     2
175
     1
 42
40.0
 92
        0
 66
   257
 43
1.0
 76
     1
 77
     6
 78
     2
 67
     7
 79
     3
170
     0
171
     0
290
     0
174
     0
 93
        1
 44
0.0
173
     0
291
     0
 45
0.0
1001
ACAD
1000
AcDbSavedByObjectVersion
1070
     0
  0
VISUALSTYLE
  5
3B
102
{ACAD_REACTORS
330
2A
102
}
102
{ACAD_XDICTIONARY
360
441
102
}
330
2A
100
AcDbVisualStyle
  2
JitterOff
 70
    20
 71
     2
 72
     2
 73
     0
 90
        0
 40
0.6
 41
30.0
 62
     5
 63
     7
 74
     1
 91
        4
 64
     7
 65
   257
 75
     1
175
     1
 42
1.0
 92
       10
 66
     7
 43
1.0
 76
     1
 77
     6
 78
     2
 67
     7
 79
     5
170
     0
171
     0
290
     0
174
     0
 93
        1
 44
0.0
173
     0
291
     1
 45
0.0
1001
ACAD
1000
AcDbSavedByObjectVersion
1070
     0
  0
VISUALSTYLE
  5
38
102
{ACAD_REACTORS
330
2A
102
}
102
{ACAD_XDICTIONARY
360
43B
102
}
330
2A
100
AcDbVisualStyle
  2
Linepattern
 70
    14
 71
     2
 72
     2
 73
     0
 90
        0
 40
0.6
 41
30.0
 62
     5
 63
     7
 74
     1
 91
        4
 64
     7
 65
   257
 75
     7
175
     7
 42
1.0
 92
        8
 66
     7
 43
1.0
 76
     1
 77
     6
 78
     2
 67
     7
 79
     5
170
     0
171
     0
290
     0
174
     0
 93
        1
 44
0.0
173
     0
291
     1
 45
0.0
1001
ACAD
1000
AcDbSavedByObjectVersion
1070
     0
  0
VISUALSTYLE
  5
3C
102
{ACAD_REACTORS
330
2A
102
}
102
{ACAD_XDICTIONARY
360
443
102
}
330
2A
100
AcDbVisualStyle
  2
OverhangOff
 70
    21
 71
     2
 72
     2
 73
     0
 90
        0
 40
0.6
 41
30.0
 62
     5
 63
     7
 74
     1
 91
        4
 64
     7
 65
   257
 75
     1
175
     1
 42
1.0
 92
        9
 66
     7
 43
1.0
 76
     1
 77
     6
 78
     2
 67
     7
 79
     5
170
     0
171
     0
290
     0
174
     0
 93
        1
 44
0.0
173
     0
291
     1
 45
0.0
1001
ACAD
1000
AcDbSavedByObjectVersion
1070
     0
  0
VISUALSTYLE
  5
33
102
{ACAD_REACTORS
330
2A
102
}
102
{ACAD_XDICTIONARY
360
431
102
}
330
2A
100
AcDbVisualStyle
  2
Realistic
 70
     8
 71
     2
 72
     3
 73
     0
 90
        2
 40
0.6
 41
30.0
 62
     5
 63
     7
 74
     0
 91
        0
 64
     7
 65
   257
 75
     1
175
     1
 42
1.0
 92
        8
 66
   257
 43
1.0
 76
     1
 77
     6
 78
     2
 67
     7
 79
     3
170
     0
171
     0
290
     0
174
     0
 93
       13
 44
0.0
173
     0
291
     0
 45
0.0
1001
ACAD
1000
AcDbSavedByObjectVersion
1070
     0
  0
VISUALSTYLE
  5
42
102
{ACAD_REACTORS
330
2A
102
}
102
{ACAD_XDICTIONARY
360
44F
102
}
330
2A
100
AcDbVisualStyle
  2
Shaded
 70
    27
 71
     2
 72
     2
 73
     1
 90
        2
 40
0.6
 41
30.0
 62
     5
 63
     7
 74
     0
 91
        4
 64
     7
 65
   257
 75
     1
175
     1
 42
1.0
 92
        8
 66
   257
 43
1.0
 76
     1
 77
     6
 78
     2
 67
     8
 79
     3
170
     0
171
     0
290
     0
174
     0
 93
        5
 44
0.0
173
     0
291
     0
 45
0.0
1001
ACAD
1000
AcDbSavedByObjectVersion
1070
     0
  0
VISUALSTYLE
  5
41
102
{ACAD_REACTORS
330
2A
102
}
102
{ACAD_XDICTIONARY
360
44D
102
}
330
2A
100
AcDbVisualStyle
  2
Shaded with edges
 70
    26
 71
     2
 72
     2
 73
     1
 90
        2
 40
0.6
 41
30.0
 62
     5
 63
     7
 74
     1
 91
       10
 64
     7
 65
   257
 75
     2
175
     1
 42
1.0
 92
        8
 66
   257
 43
1.0
 76
     1
 77
     6
 78
     2
 67
     7
 79
     3
170
     0
171
     0
290
     0
174
     0
 93
        5
 44
0.0
173
     0
291
     0
 45
0.0
1001
ACAD
1000
AcDbSavedByObjectVersion
1070
     0
  0
VISUALSTYLE
  5
3E
102
{ACAD_REACTORS
330
2A
102
}
102
{ACAD_XDICTIONARY
360
447
102
}
330
2A
100
AcDbVisualStyle
  2
Shades of Gray
 70
    23
 71
     2
 72
     2
 73
     3
 90
        0
 40
0.6
 41
30.0
 62
     5
 63
     7
 74
     2
 91
        2
 64
     7
 65
     7
 75
     1
175
     1
 42
40.0
 92
        8
 66
     7
 43
1.0
 76
     1
 77
     6
 78
     2
 67
     7
 79
     3
170
     0
171
     0
290
     0
174
     0
 93
        1
 44
0.0
173
     0
291
     0
 45
0.0
1001
ACAD
1000
AcDbSavedByObjectVersion
1070
     0
  0
VISUALSTYLE
  5
3F
102
{ACAD_REACTORS
330
2A
102
}
102
{ACAD_XDICTIONARY
360
449
102
}
330
2A
100
AcDbVisualStyle
  2
Sketchy
 70
    24
 71
     1
 72
     2
 73
     2
 90
        0
 40
0.6
 41
30.0
 62
     5
 63
     7
 74
     2
 91
        2
 64
     7
 65
     7
 75
     1
175
     1
 42
40.0
 92
       11
 66
     7
 43
1.0
 76
     1
 77
     6
 78
     2
 67
     7
 79
     6
170
     0
171
     0
290
     0
174
     0
 93
        1
 44
0.0
173
     0
291
     0
 45
0.0
1001
ACAD
1000
AcDbSavedByObjectVersion
1070
     0
  0
VISUALSTYLE
  5
37
102
{ACAD_REACTORS
330
2A
102
}
102
{ACAD_XDICTIONARY
360
439
102
}
330
2A
100
AcDbVisualStyle
  2
Thicken
 70
    13
 71
     2
 72
     2
 73
     0
 90
        0
 40
0.6
 41
30.0
 62
     5
 63
     7
 74
     1
 91
        4
 64
     7
 65
   257
 75
     1
175
     1
 42
1.0
 92
       12
 66
     7
 43
1.0
 76
     1
 77
     6
 78
     2
 67
     7
 79
     5
170
     0
171
     0
290
     0
174
     0
 93
        1
 44
0.0
173
     0
291
     1
 45
0.0
1001
ACAD
1000
AcDbSavedByObjectVersion
1070
     0
  0
VISUALSTYLE
  5
30
102
{ACAD_REACTORS
330
2A
102
}
102
{ACAD_XDICTIONARY
360
42B
102
}
330
2A
100
AcDbVisualStyle
  2
Wireframe
 70
     5
 71
     0
 72
     2
 73
     0
 90
        0
 40
0.6
 41
30.0
 62
     5
 63
     7
 74
     1
 91
        4
 64
     7
 65
   257
 75
     1
175
     1
 42
1.0
 92
        0
 66
   257
 43
1.0
 76
     1
 77
     6
 78
     2
 67
     7
 79
     3
170
     0
171
     0
290
     0
174
     0
 93
        1
 44
0.0
173
     0
291
     0
 45
0.0
1001
ACAD
1000
AcDbSavedByObjectVersion
1070
     0
  0
VISUALSTYLE
  5
40
102
{ACAD_REACTORS
330
2A
102
}
102
{ACAD_XDICTIONARY
360
44B
102
}
330
2A
100
AcDbVisualStyle
  2
X-Ray
 70
    25
 71
     2
 72
     2
 73
     1
 90
        1
 40
0.5
 41
30.0
 62
     5
 63
     7
 74
     1
 91
        0
 64
     7
 65
   257
 75
     1
175
     1
 42
1.0
 92
        8
 66
     7
 43
1.0
 76
     1
 77
     6
 78
     2
 67
     7
 79
     3
170
     0
171
     0
290
     0
174
     0
 93
       13
 44
0.0
173
     0
291
     0
 45
0.0
1001
ACAD
1000
AcDbSavedByObjectVersion
1070
     0
  0
DICTIONARYVAR
  5
41F
102
{ACAD_REACTORS
330
416
102
}
330
416
100
DictionaryVariables
280
     0
  1
1:1
  0
DICTIONARYVAR
  5
418
102
{ACAD_REACTORS
330
416
102
}
330
416
100
DictionaryVariables
280
     0
  1
Standard
  0
DICTIONARYVAR
  5
417
102
{ACAD_REACTORS
330
416
102
}
330
416
100
DictionaryVariables
280
     0
  1
Standard
  0
DICTIONARYVAR
  5
41B
102
{ACAD_REACTORS
330
416
102
}
330
416
100
DictionaryVariables
280
     0
  1
2
  0
DICTIONARYVAR
  5
41C
102
{ACAD_REACTORS
330
416
102
}
330
416
100
DictionaryVariables
280
     0
  1
1
  0
DICTIONARYVAR
  5
420
102
{ACAD_REACTORS
330
416
102
}
330
416
100
DictionaryVariables
280
     0
  1
1
  0
DICTIONARY
  5
453
330
45
100
AcDbDictionary
280
     1
281
     1
  3
ACAD_XREC_ROUNDTRIP
360
454
  0
DICTIONARY
  5
451
330
44
100
AcDbDictionary
280
     1
281
     1
  3
ACAD_XREC_ROUNDTRIP
360
452
  0
DICTIONARY
  5
455
330
46
100
AcDbDictionary
280
     1
281
     1
  3
ACAD_XREC_ROUNDTRIP
360
456
  0
DICTIONARY
  5
458
330
6C
100
AcDbDictionary
280
     1
281
     1
  3
ACAD_XREC_ROUNDTRIP
360
459
  0
DICTIONARY
  5
429
330
2F
100
AcDbDictionary
280
     1
281
     1
  3
ACAD_XREC_ROUNDTRIP
360
42A
  0
DICTIONARY
  5
42F
330
32
100
AcDbDictionary
280
     1
281
     1
  3
ACAD_XREC_ROUNDTRIP
360
430
  0
DICTIONARY
  5
437
330
36
100
AcDbDictionary
280
     1
281
     1
  3
ACAD_XREC_ROUNDTRIP
360
438
  0
DICTIONARY
  5
43F
330
3A
100
AcDbDictionary
280
     1
281
     1
  3
ACAD_XREC_ROUNDTRIP
360
440
  0
DICTIONARY
  5
433
330
34
100
AcDbDictionary
280
     1
281
     1
  3
ACAD_XREC_ROUNDTRIP
360
434
  0
DICTIONARY
  5
435
330
35
100
AcDbDictionary
280
     1
281
     1
  3
ACAD_XREC_ROUNDTRIP
360
436
  0
DICTIONARY
  5
445
330
3D
100
AcDbDictionary
280
     1
281
     1
  3
ACAD_XREC_ROUNDTRIP
360
446
  0
DICTIONARY
  5
43D
330
39
100
AcDbDictionary
280
     1
281
     1
  3
ACAD_XREC_ROUNDTRIP
360
43E
  0
DICTIONARY
  5
421
330
2B
100
AcDbDictionary
280
     1
281
     1
  3
ACAD_XREC_ROUNDTRIP
360
422
  0
DICTIONARY
  5
423
330
2C
100
AcDbDictionary
280
     1
281
     1
  3
ACAD_XREC_ROUNDTRIP
360
424
  0
DICTIONARY
  5
425
330
2D
100
AcDbDictionary
280
     1
281
     1
  3
ACAD_XREC_ROUNDTRIP
360
426
  0
DICTIONARY
  5
427
330
2E
100
AcDbDictionary
280
     1
281
     1
  3
ACAD_XREC_ROUNDTRIP
360
428
  0
DICTIONARY
  5
42D
330
31
100
AcDbDictionary
280
     1
281
     1
  3
ACAD_XREC_ROUNDTRIP
360
42E
  0
DICTIONARY
  5
441
330
3B
100
AcDbDictionary
280
     1
281
     1
  3
ACAD_XREC_ROUNDTRIP
360
442
  0
DICTIONARY
  5
43B
330
38
100
AcDbDictionary
280
     1
281
     1
  3
ACAD_XREC_ROUNDTRIP
360
43C
  0
DICTIONARY
  5
443
330
3C
100
AcDbDictionary
280
     1
281
     1
  3
ACAD_XREC_ROUNDTRIP
360
444
  0
DICTIONARY
  5
431
330
33
100
AcDbDictionary
280
     1
281
     1
  3
ACAD_XREC_ROUNDTRIP
360
432
  0
DICTIONARY
  5
44F
330
42
100
AcDbDictionary
280
     1
281
     1
  3
ACAD_XREC_ROUNDTRIP
360
450
  0
DICTIONARY
  5
44D
330
41
100
AcDbDictionary
280
     1
281
     1
  3
ACAD_XREC_ROUNDTRIP
360
44E
  0
DICTIONARY
  5
447
330
3E
100
AcDbDictionary
280
     1
281
     1
  3
ACAD_XREC_ROUNDTRIP
360
448
  0
DICTIONARY
  5
449
330
3F
100
AcDbDictionary
280
     1
281
     1
  3
ACAD_XREC_ROUNDTRIP
360
44A
  0
DICTIONARY
  5
439
330
37
100
AcDbDictionary
280
     1
281
     1
  3
ACAD_XREC_ROUNDTRIP
360
43A
  0
DICTIONARY
  5
42B
330
30
100
AcDbDictionary
280
     1
281
     1
  3
ACAD_XREC_ROUNDTRIP
360
42C
  0
DICTIONARY
  5
44B
330
40
100
AcDbDictionary
280
     1
281
     1
  3
ACAD_XREC_ROUNDTRIP
360
44C
  0
XRECORD
  5
454
102
{ACAD_REACTORS
330
453
102
}
330
453
100
AcDbXrecord
280
     1
102
MATERIAL
148
0.0
149
0.0
149
0.0
 93
        0
 94
      127
282
     0
 72
     1
 77
     1
171
     1
175
     1
179
     1
273
     0
  0
XRECORD
  5
452
102
{ACAD_REACTORS
330
451
102
}
330
451
100
AcDbXrecord
280
     1
102
MATERIAL
148
0.0
149
0.0
149
0.0
 93
        0
 94
      127
282
     0
 72
     1
 77
     1
171
     1
175
     1
179
     1
273
     0
  0
XRECORD
  5
456
102
{ACAD_REACTORS
330
455
102
}
330
455
100
AcDbXrecord
280
     1
102
MATERIAL
148
0.0
149
0.0
149
0.0
 93
        0
 94
      127
282
     0
 72
     1
 77
     1
171
     1
175
     1
179
     1
273
     0
  0
XRECORD
  5
459
102
{ACAD_REACTORS
330
458
102
}
330
458
100
AcDbXrecord
280
     1
102
ACAD_ROUNDTRIP_2010_MLEADER_STYLE
  0
XRECORD
  5
42A
102
{ACAD_REACTORS
330
429
102
}
330
429
100
AcDbXrecord
280
     1
102
RTVSPropertyOp0
 70
     1
102
RTVSPropertyOp1
 70
     1
102
RTVSPropertyOp2
 70
     1
102
RTVSPropertyOp3
 70
     1
102
RTVSPropertyOp4
 70
     1
102
RTVSPropertyOp5
 70
     1
102
RTVSPropertyOp6
 70
     1
102
RTVSPropertyOp7
 70
     1
102
RTVSPropertyOp8
 70
     1
102
RTVSPropertyOp9
 70
     1
102
RTVSPropertyOp10
 70
     1
102
RTVSPropertyOp11
 70
     1
102
RTVSPropertyOp12
 70
     1
102
RTVSPropertyOp13
 70
     1
102
RTVSPropertyOp14
 70
     1
102
RTVSPropertyOp15
 70
     1
102
RTVSPropertyOp16
 70
     1
102
RTVSPropertyOp17
 70
     1
102
RTVSPropertyOp18
 70
     1
102
RTVSPropertyOp19
 70
     1
102
RTVSPropertyOp20
 70
     1
102
RTVSPropertyOp21
 70
     1
102
RTVSPropertyOp22
 70
     1
102
RTVSPropertyOp23
 70
     1
102
RTVSPropertyOp24
 70
     1
102
RTVSPropertyOp25
 70
     1
102
RTVSPropertyOp26
 70
     1
102
RTVSPropertyOp27
 70
     1
102
RTVSPropertyOp28
 70
     1
102
RTVSPropertyOp29
 70
     1
102
RTVSPropertyOp30
 70
     1
102
RTVSPropertyOp31
 70
     1
102
RTVSPropertyOp32
 70
     1
102
RTVSPropertyOp33
 70
     1
102
RTVSPropertyOp34
 70
     1
102
RTVSPropertyOp35
 70
     1
102
RTVSPropertyOp36
 70
     1
102
RTVSPropertyOp37
 70
     1
102
RTVSPropertyOp38
 70
     1
102
RTVSPropertyOp39
 70
     1
102
RTVSPropertyOp40
 70
     1
102
RTVSPropertyOp41
 70
     1
102
RTVSPropertyOp42
 70
     1
102
RTVSPropertyOp43
 70
     1
102
RTVSPropertyOp44
 70
     1
102
RTVSPropertyOp45
 70
     1
102
RTVSPropertyOp46
 70
     1
102
RTVSPropertyOp47
 70
     1
102
RTVSPropertyOp48
 70
     1
102
RTVSPropertyOp49
 70
     1
102
RTVSPropertyOp50
 70
     1
102
RTVSPropertyOp51
 70
     0
102
RTVSPropertyOp52
 70
     0
102
RTVSPropertyOp53
 70
     1
102
RTVSPropertyOp54
 70
     1
102
RTVSPropertyOp55
 70
     1
102
RTVSPropertyOp56
 70
     1
102
RTVSPropertyOp57
 70
     1
102
RTVSPost2010Prop28
280
     1
102
RTVSPost2010PropOp28
 70
     1
102
RTVSPost2010Prop29
280
     1
102
RTVSPost2010PropOp29
 70
     1
102
RTVSPost2010Prop30
280
     0
102
RTVSPost2010PropOp30
 70
     1
102
RTVSPost2010Prop31
280
     0
102
RTVSPost2010PropOp31
 70
     1
102
RTVSPost2010Prop32
280
     0
102
RTVSPost2010PropOp32
 70
     1
102
RTVSPost2010Prop33
280
     0
102
RTVSPost2010PropOp33
 70
     1
102
RTVSPost2010Prop34
280
     0
102
RTVSPost2010PropOp34
 70
     1
102
RTVSPost2010Prop35
280
     0
102
RTVSPost2010PropOp35
 70
     1
102
RTVSPost2010Prop36
280
     0
102
RTVSPost2010PropOp36
 70
     1
102
RTVSPost2010Prop37
 90
       50
102
RTVSPost2010PropOp37
 70
     1
102
RTVSPost2010Prop38
140
0.0
102
RTVSPost2010PropOp38
 70
     1
102
RTVSPost2010Prop39
140
1.0
102
RTVSPost2010PropOp39
 70
     1
102
RTVSPost2010Prop40
 90
        0
102
RTVSPost2010PropOp40
 70
     1
102
RTVSPost2010Prop41ColorIndex
 90
       18
102
RTVSPost2010Prop41ColorRGB
 90
        0
102
RTVSPost2010PropOp41
 70
     1
102
RTVSPost2010Prop42
 90
       50
102
RTVSPost2010PropOp42
 70
     1
102
RTVSPost2010Prop43
 90
        3
102
RTVSPost2010PropOp43
 70
     1
102
RTVSPost2010Prop44ColorIndex
 90
        5
102
RTVSPost2010Prop44ColorRGB
 90
      255
102
RTVSPost2010PropOp44
 70
     1
102
RTVSPost2010Prop45
280
     0
102
RTVSPost2010PropOp45
 70
     1
102
RTVSPost2010Prop46
 90
       50
102
RTVSPost2010PropOp46
 70
     1
102
RTVSPost2010Prop47
 90
       50
102
RTVSPost2010PropOp47
 70
     1
102
RTVSPost2010Prop48
 90
       50
102
RTVSPost2010PropOp48
 70
     1
102
RTVSPost2010Prop49
280
     0
102
RTVSPost2010PropOp49
 70
     1
102
RTVSPost2010Prop50
 90
       50
102
RTVSPost2010PropOp50
 70
     1
102
RTVSPost2010Prop51ColorIndex
 90
      256
102
RTVSPost2010Prop51ColorRGB
 90
-16777216
102
RTVSPost2010PropOp51
 70
     0
102
RTVSPost2010Prop52
140
1.0
102
RTVSPost2010PropOp52
 70
     0
102
RTVSPost2010Prop53
 90
        2
102
RTVSPost2010PropOp53
 70
     1
102
RTVSPost2010Prop54
  1
strokes_ogs.tif
102
RTVSPost2010PropOp54
 70
     1
102
RTVSPost2010Prop55
280
     0
102
RTVSPost2010PropOp55
 70
     1
102
RTVSPost2010Prop56
140
1.0
102
RTVSPost2010PropOp56
 70
     1
102
RTVSPost2010Prop57
140
1.0
102
RTVSPost2010PropOp57
 70
     1
  0
XRECORD
  5
430
102
{ACAD_REACTORS
330
42F
102
}
330
42F
100
AcDbXrecord
280
     1
102
RTVSPropertyOp0
 70
     1
102
RTVSPropertyOp1
 70
     1
102
RTVSPropertyOp2
 70
     1
102
RTVSPropertyOp3
 70
     1
102
RTVSPropertyOp4
 70
     1
102
RTVSPropertyOp5
 70
     1
102
RTVSPropertyOp6
 70
     1
102
RTVSPropertyOp7
 70
     1
102
RTVSPropertyOp8
 70
     1
102
RTVSPropertyOp9
 70
     1
102
RTVSPropertyOp10
 70
     1
102
RTVSPropertyOp11
 70
     1
102
RTVSPropertyOp12
 70
     1
102
RTVSPropertyOp13
 70
     1
102
RTVSPropertyOp14
 70
     1
102
RTVSPropertyOp15
 70
     1
102
RTVSPropertyOp16
 70
     1
102
RTVSPropertyOp17
 70
     1
102
RTVSPropertyOp18
 70
     1
102
RTVSPropertyOp19
 70
     1
102
RTVSPropertyOp20
 70
     1
102
RTVSPropertyOp21
 70
     1
102
RTVSPropertyOp22
 70
     1
102
RTVSPropertyOp23
 70
     1
102
RTVSPropertyOp24
 70
     1
102
RTVSPropertyOp25
 70
     1
102
RTVSPropertyOp26
 70
     1
102
RTVSPropertyOp27
 70
     1
102
RTVSPropertyOp28
 70
     1
102
RTVSPropertyOp29
 70
     1
102
RTVSPropertyOp30
 70
     1
102
RTVSPropertyOp31
 70
     1
102
RTVSPropertyOp32
 70
     1
102
RTVSPropertyOp33
 70
     1
102
RTVSPropertyOp34
 70
     1
102
RTVSPropertyOp35
 70
     1
102
RTVSPropertyOp36
 70
     1
102
RTVSPropertyOp37
 70
     1
102
RTVSPropertyOp38
 70
     1
102
RTVSPropertyOp39
 70
     1
102
RTVSPropertyOp40
 70
     1
102
RTVSPropertyOp41
 70
     1
102
RTVSPropertyOp42
 70
     1
102
RTVSPropertyOp43
 70
     1
102
RTVSPropertyOp44
 70
     1
102
RTVSPropertyOp45
 70
     1
102
RTVSPropertyOp46
 70
     1
102
RTVSPropertyOp47
 70
     1
102
RTVSPropertyOp48
 70
     1
102
RTVSPropertyOp49
 70
     1
102
RTVSPropertyOp50
 70
     1
102
RTVSPropertyOp51
 70
     0
102
RTVSPropertyOp52
 70
     0
102
RTVSPropertyOp53
 70
     1
102
RTVSPropertyOp54
 70
     1
102
RTVSPropertyOp55
 70
     1
102
RTVSPropertyOp56
 70
     1
102
RTVSPropertyOp57
 70
     1
102
RTVSPost2010Prop28
280
     0
102
RTVSPost2010PropOp28
 70
     1
102
RTVSPost2010Prop29
280
     1
102
RTVSPost2010PropOp29
 70
     1
102
RTVSPost2010Prop30
280
     1
102
RTVSPost2010PropOp30
 70
     1
102
RTVSPost2010Prop31
280
     0
102
RTVSPost2010PropOp31
 70
     1
102
RTVSPost2010Prop32
280
     0
102
RTVSPost2010PropOp32
 70
     1
102
RTVSPost2010Prop33
280
     0
102
RTVSPost2010PropOp33
 70
     1
102
RTVSPost2010Prop34
280
     0
102
RTVSPost2010PropOp34
 70
     1
102
RTVSPost2010Prop35
280
     0
102
RTVSPost2010PropOp35
 70
     1
102
RTVSPost2010Prop36
280
     0
102
RTVSPost2010PropOp36
 70
     1
102
RTVSPost2010Prop37
 90
       50
102
RTVSPost2010PropOp37
 70
     1
102
RTVSPost2010Prop38
140
0.0
102
RTVSPost2010PropOp38
 70
     1
102
RTVSPost2010Prop39
140
1.0
102
RTVSPost2010PropOp39
 70
     1
102
RTVSPost2010Prop40
 90
        0
102
RTVSPost2010PropOp40
 70
     1
102
RTVSPost2010Prop41ColorIndex
 90
       18
102
RTVSPost2010Prop41ColorRGB
 90
        0
102
RTVSPost2010PropOp41
 70
     1
102
RTVSPost2010Prop42
 90
       50
102
RTVSPost2010PropOp42
 70
     1
102
RTVSPost2010Prop43
 90
        3
102
RTVSPost2010PropOp43
 70
     1
102
RTVSPost2010Prop44ColorIndex
 90
        5
102
RTVSPost2010Prop44ColorRGB
 90
      255
102
RTVSPost2010PropOp44
 70
     1
102
RTVSPost2010Prop45
280
     0
102
RTVSPost2010PropOp45
 70
     1
102
RTVSPost2010Prop46
 90
       50
102
RTVSPost2010PropOp46
 70
     1
102
RTVSPost2010Prop47
 90
       50
102
RTVSPost2010PropOp47
 70
     1
102
RTVSPost2010Prop48
 90
       50
102
RTVSPost2010PropOp48
 70
     1
102
RTVSPost2010Prop49
280
     0
102
RTVSPost2010PropOp49
 70
     1
102
RTVSPost2010Prop50
 90
       50
102
RTVSPost2010PropOp50
 70
     1
102
RTVSPost2010Prop51ColorIndex
 90
      256
102
RTVSPost2010Prop51ColorRGB
 90
-16777216
102
RTVSPost2010PropOp51
 70
     0
102
RTVSPost2010Prop52
140
1.0
102
RTVSPost2010PropOp52
 70
     0
102
RTVSPost2010Prop53
 90
        2
102
RTVSPost2010PropOp53
 70
     1
102
RTVSPost2010Prop54
  1
strokes_ogs.tif
102
RTVSPost2010PropOp54
 70
     1
102
RTVSPost2010Prop55
280
     0
102
RTVSPost2010PropOp55
 70
     1
102
RTVSPost2010Prop56
140
1.0
102
RTVSPost2010PropOp56
 70
     1
102
RTVSPost2010Prop57
140
1.0
102
RTVSPost2010PropOp57
 70
     1
  0
XRECORD
  5
438
102
{ACAD_REACTORS
330
437
102
}
330
437
100
AcDbXrecord
280
     1
102
RTVSPropertyOp0
 70
     1
102
RTVSPropertyOp1
 70
     1
102
RTVSPropertyOp2
 70
     1
102
RTVSPropertyOp3
 70
     1
102
RTVSPropertyOp4
 70
     1
102
RTVSPropertyOp5
 70
     1
102
RTVSPropertyOp6
 70
     1
102
RTVSPropertyOp7
 70
     1
102
RTVSPropertyOp8
 70
     1
102
RTVSPropertyOp9
 70
     1
102
RTVSPropertyOp10
 70
     1
102
RTVSPropertyOp11
 70
     1
102
RTVSPropertyOp12
 70
     1
102
RTVSPropertyOp13
 70
     1
102
RTVSPropertyOp14
 70
     1
102
RTVSPropertyOp15
 70
     1
102
RTVSPropertyOp16
 70
     1
102
RTVSPropertyOp17
 70
     1
102
RTVSPropertyOp18
 70
     1
102
RTVSPropertyOp19
 70
     1
102
RTVSPropertyOp20
 70
     1
102
RTVSPropertyOp21
 70
     1
102
RTVSPropertyOp22
 70
     1
102
RTVSPropertyOp23
 70
     1
102
RTVSPropertyOp24
 70
     1
102
RTVSPropertyOp25
 70
     1
102
RTVSPropertyOp26
 70
     1
102
RTVSPropertyOp27
 70
     1
102
RTVSPropertyOp28
 70
     1
102
RTVSPropertyOp29
 70
     1
102
RTVSPropertyOp30
 70
     1
102
RTVSPropertyOp31
 70
     1
102
RTVSPropertyOp32
 70
     1
102
RTVSPropertyOp33
 70
     1
102
RTVSPropertyOp34
 70
     1
102
RTVSPropertyOp35
 70
     1
102
RTVSPropertyOp36
 70
     1
102
RTVSPropertyOp37
 70
     1
102
RTVSPropertyOp38
 70
     1
102
RTVSPropertyOp39
 70
     1
102
RTVSPropertyOp40
 70
     1
102
RTVSPropertyOp41
 70
     1
102
RTVSPropertyOp42
 70
     1
102
RTVSPropertyOp43
 70
     1
102
RTVSPropertyOp44
 70
     1
102
RTVSPropertyOp45
 70
     1
102
RTVSPropertyOp46
 70
     1
102
RTVSPropertyOp47
 70
     1
102
RTVSPropertyOp48
 70
     1
102
RTVSPropertyOp49
 70
     1
102
RTVSPropertyOp50
 70
     1
102
RTVSPropertyOp51
 70
     0
102
RTVSPropertyOp52
 70
     0
102
RTVSPropertyOp53
 70
     1
102
RTVSPropertyOp54
 70
     1
102
RTVSPropertyOp55
 70
     1
102
RTVSPropertyOp56
 70
     1
102
RTVSPropertyOp57
 70
     1
102
RTVSPost2010Prop28
280
     0
102
RTVSPost2010PropOp28
 70
     1
102
RTVSPost2010Prop29
280
     1
102
RTVSPost2010PropOp29
 70
     1
102
RTVSPost2010Prop30
280
     1
102
RTVSPost2010PropOp30
 70
     1
102
RTVSPost2010Prop31
280
     0
102
RTVSPost2010PropOp31
 70
     1
102
RTVSPost2010Prop32
280
     0
102
RTVSPost2010PropOp32
 70
     1
102
RTVSPost2010Prop33
280
     0
102
RTVSPost2010PropOp33
 70
     1
102
RTVSPost2010Prop34
280
     0
102
RTVSPost2010PropOp34
 70
     1
102
RTVSPost2010Prop35
280
     0
102
RTVSPost2010PropOp35
 70
     1
102
RTVSPost2010Prop36
280
     0
102
RTVSPost2010PropOp36
 70
     1
102
RTVSPost2010Prop37
 90
       50
102
RTVSPost2010PropOp37
 70
     1
102
RTVSPost2010Prop38
140
0.0
102
RTVSPost2010PropOp38
 70
     1
102
RTVSPost2010Prop39
140
1.0
102
RTVSPost2010PropOp39
 70
     1
102
RTVSPost2010Prop40
 90
        0
102
RTVSPost2010PropOp40
 70
     1
102
RTVSPost2010Prop41ColorIndex
 90
       18
102
RTVSPost2010Prop41ColorRGB
 90
        0
102
RTVSPost2010PropOp41
 70
     1
102
RTVSPost2010Prop42
 90
       50
102
RTVSPost2010PropOp42
 70
     1
102
RTVSPost2010Prop43
 90
        3
102
RTVSPost2010PropOp43
 70
     1
102
RTVSPost2010Prop44ColorIndex
 90
        5
102
RTVSPost2010Prop44ColorRGB
 90
      255
102
RTVSPost2010PropOp44
 70
     1
102
RTVSPost2010Prop45
280
     0
102
RTVSPost2010PropOp45
 70
     1
102
RTVSPost2010Prop46
 90
       50
102
RTVSPost2010PropOp46
 70
     1
102
RTVSPost2010Prop47
 90
       50
102
RTVSPost2010PropOp47
 70
     1
102
RTVSPost2010Prop48
 90
       50
102
RTVSPost2010PropOp48
 70
     1
102
RTVSPost2010Prop49
280
     0
102
RTVSPost2010PropOp49
 70
     1
102
RTVSPost2010Prop50
 90
       50
102
RTVSPost2010PropOp50
 70
     1
102
RTVSPost2010Prop51ColorIndex
 90
      256
102
RTVSPost2010Prop51ColorRGB
 90
-16777216
102
RTVSPost2010PropOp51
 70
     0
102
RTVSPost2010Prop52
140
1.0
102
RTVSPost2010PropOp52
 70
     0
102
RTVSPost2010Prop53
 90
        2
102
RTVSPost2010PropOp53
 70
     1
102
RTVSPost2010Prop54
  1
strokes_ogs.tif
102
RTVSPost2010PropOp54
 70
     1
102
RTVSPost2010Prop55
280
     0
102
RTVSPost2010PropOp55
 70
     1
102
RTVSPost2010Prop56
140
1.0
102
RTVSPost2010PropOp56
 70
     1
102
RTVSPost2010Prop57
140
1.0
102
RTVSPost2010PropOp57
 70
     1
  0
XRECORD
  5
440
102
{ACAD_REACTORS
330
43F
102
}
330
43F
100
AcDbXrecord
280
     1
102
RTVSPropertyOp0
 70
     1
102
RTVSPropertyOp1
 70
     1
102
RTVSPropertyOp2
 70
     1
102
RTVSPropertyOp3
 70
     1
102
RTVSPropertyOp4
 70
     1
102
RTVSPropertyOp5
 70
     1
102
RTVSPropertyOp6
 70
     1
102
RTVSPropertyOp7
 70
     1
102
RTVSPropertyOp8
 70
     1
102
RTVSPropertyOp9
 70
     1
102
RTVSPropertyOp10
 70
     1
102
RTVSPropertyOp11
 70
     1
102
RTVSPropertyOp12
 70
     1
102
RTVSPropertyOp13
 70
     1
102
RTVSPropertyOp14
 70
     1
102
RTVSPropertyOp15
 70
     1
102
RTVSPropertyOp16
 70
     1
102
RTVSPropertyOp17
 70
     1
102
RTVSPropertyOp18
 70
     1
102
RTVSPropertyOp19
 70
     1
102
RTVSPropertyOp20
 70
     1
102
RTVSPropertyOp21
 70
     1
102
RTVSPropertyOp22
 70
     1
102
RTVSPropertyOp23
 70
     1
102
RTVSPropertyOp24
 70
     1
102
RTVSPropertyOp25
 70
     1
102
RTVSPropertyOp26
 70
     1
102
RTVSPropertyOp27
 70
     1
102
RTVSPropertyOp28
 70
     1
102
RTVSPropertyOp29
 70
     1
102
RTVSPropertyOp30
 70
     1
102
RTVSPropertyOp31
 70
     1
102
RTVSPropertyOp32
 70
     1
102
RTVSPropertyOp33
 70
     1
102
RTVSPropertyOp34
 70
     1
102
RTVSPropertyOp35
 70
     1
102
RTVSPropertyOp36
 70
     1
102
RTVSPropertyOp37
 70
     1
102
RTVSPropertyOp38
 70
     1
102
RTVSPropertyOp39
 70
     1
102
RTVSPropertyOp40
 70
     1
102
RTVSPropertyOp41
 70
     1
102
RTVSPropertyOp42
 70
     1
102
RTVSPropertyOp43
 70
     1
102
RTVSPropertyOp44
 70
     1
102
RTVSPropertyOp45
 70
     1
102
RTVSPropertyOp46
 70
     1
102
RTVSPropertyOp47
 70
     1
102
RTVSPropertyOp48
 70
     1
102
RTVSPropertyOp49
 70
     1
102
RTVSPropertyOp50
 70
     1
102
RTVSPropertyOp51
 70
     0
102
RTVSPropertyOp52
 70
     0
102
RTVSPropertyOp53
 70
     1
102
RTVSPropertyOp54
 70
     1
102
RTVSPropertyOp55
 70
     1
102
RTVSPropertyOp56
 70
     1
102
RTVSPropertyOp57
 70
     1
102
RTVSPost2010Prop28
280
     0
102
RTVSPost2010PropOp28
 70
     1
102
RTVSPost2010Prop29
280
     1
102
RTVSPost2010PropOp29
 70
     1
102
RTVSPost2010Prop30
280
     1
102
RTVSPost2010PropOp30
 70
     1
102
RTVSPost2010Prop31
280
     0
102
RTVSPost2010PropOp31
 70
     1
102
RTVSPost2010Prop32
280
     0
102
RTVSPost2010PropOp32
 70
     1
102
RTVSPost2010Prop33
280
     0
102
RTVSPost2010PropOp33
 70
     1
102
RTVSPost2010Prop34
280
     0
102
RTVSPost2010PropOp34
 70
     1
102
RTVSPost2010Prop35
280
     0
102
RTVSPost2010PropOp35
 70
     1
102
RTVSPost2010Prop36
280
     0
102
RTVSPost2010PropOp36
 70
     1
102
RTVSPost2010Prop37
 90
       50
102
RTVSPost2010PropOp37
 70
     1
102
RTVSPost2010Prop38
140
0.0
102
RTVSPost2010PropOp38
 70
     1
102
RTVSPost2010Prop39
140
1.0
102
RTVSPost2010PropOp39
 70
     1
102
RTVSPost2010Prop40
 90
        0
102
RTVSPost2010PropOp40
 70
     1
102
RTVSPost2010Prop41ColorIndex
 90
       18
102
RTVSPost2010Prop41ColorRGB
 90
        0
102
RTVSPost2010PropOp41
 70
     1
102
RTVSPost2010Prop42
 90
       50
102
RTVSPost2010PropOp42
 70
     1
102
RTVSPost2010Prop43
 90
        3
102
RTVSPost2010PropOp43
 70
     1
102
RTVSPost2010Prop44ColorIndex
 90
        5
102
RTVSPost2010Prop44ColorRGB
 90
      255
102
RTVSPost2010PropOp44
 70
     1
102
RTVSPost2010Prop45
280
     0
102
RTVSPost2010PropOp45
 70
     1
102
RTVSPost2010Prop46
 90
       50
102
RTVSPost2010PropOp46
 70
     1
102
RTVSPost2010Prop47
 90
       50
102
RTVSPost2010PropOp47
 70
     1
102
RTVSPost2010Prop48
 90
       50
102
RTVSPost2010PropOp48
 70
     1
102
RTVSPost2010Prop49
280
     0
102
RTVSPost2010PropOp49
 70
     1
102
RTVSPost2010Prop50
 90
       50
102
RTVSPost2010PropOp50
 70
     1
102
RTVSPost2010Prop51ColorIndex
 90
      256
102
RTVSPost2010Prop51ColorRGB
 90
-16777216
102
RTVSPost2010PropOp51
 70
     0
102
RTVSPost2010Prop52
140
1.0
102
RTVSPost2010PropOp52
 70
     0
102
RTVSPost2010Prop53
 90
        2
102
RTVSPost2010PropOp53
 70
     1
102
RTVSPost2010Prop54
  1
strokes_ogs.tif
102
RTVSPost2010PropOp54
 70
     1
102
RTVSPost2010Prop55
280
     0
102
RTVSPost2010PropOp55
 70
     1
102
RTVSPost2010Prop56
140
1.0
102
RTVSPost2010PropOp56
 70
     1
102
RTVSPost2010Prop57
140
1.0
102
RTVSPost2010PropOp57
 70
     1
  0
XRECORD
  5
434
102
{ACAD_REACTORS
330
433
102
}
330
433
100
AcDbXrecord
280
     1
102
RTVSPropertyOp0
 70
     1
102
RTVSPropertyOp1
 70
     1
102
RTVSPropertyOp2
 70
     1
102
RTVSPropertyOp3
 70
     1
102
RTVSPropertyOp4
 70
     1
102
RTVSPropertyOp5
 70
     1
102
RTVSPropertyOp6
 70
     1
102
RTVSPropertyOp7
 70
     1
102
RTVSPropertyOp8
 70
     1
102
RTVSPropertyOp9
 70
     1
102
RTVSPropertyOp10
 70
     1
102
RTVSPropertyOp11
 70
     1
102
RTVSPropertyOp12
 70
     1
102
RTVSPropertyOp13
 70
     1
102
RTVSPropertyOp14
 70
     1
102
RTVSPropertyOp15
 70
     1
102
RTVSPropertyOp16
 70
     1
102
RTVSPropertyOp17
 70
     1
102
RTVSPropertyOp18
 70
     1
102
RTVSPropertyOp19
 70
     1
102
RTVSPropertyOp20
 70
     1
102
RTVSPropertyOp21
 70
     1
102
RTVSPropertyOp22
 70
     1
102
RTVSPropertyOp23
 70
     1
102
RTVSPropertyOp24
 70
     1
102
RTVSPropertyOp25
 70
     1
102
RTVSPropertyOp26
 70
     1
102
RTVSPropertyOp27
 70
     1
102
RTVSPropertyOp28
 70
     1
102
RTVSPropertyOp29
 70
     1
102
RTVSPropertyOp30
 70
     1
102
RTVSPropertyOp31
 70
     1
102
RTVSPropertyOp32
 70
     1
102
RTVSPropertyOp33
 70
     1
102
RTVSPropertyOp34
 70
     1
102
RTVSPropertyOp35
 70
     1
102
RTVSPropertyOp36
 70
     1
102
RTVSPropertyOp37
 70
     1
102
RTVSPropertyOp38
 70
     1
102
RTVSPropertyOp39
 70
     1
102
RTVSPropertyOp40
 70
     1
102
RTVSPropertyOp41
 70
     1
102
RTVSPropertyOp42
 70
     1
102
RTVSPropertyOp43
 70
     1
102
RTVSPropertyOp44
 70
     1
102
RTVSPropertyOp45
 70
     1
102
RTVSPropertyOp46
 70
     1
102
RTVSPropertyOp47
 70
     1
102
RTVSPropertyOp48
 70
     1
102
RTVSPropertyOp49
 70
     1
102
RTVSPropertyOp50
 70
     1
102
RTVSPropertyOp51
 70
     0
102
RTVSPropertyOp52
 70
     0
102
RTVSPropertyOp53
 70
     1
102
RTVSPropertyOp54
 70
     1
102
RTVSPropertyOp55
 70
     1
102
RTVSPropertyOp56
 70
     1
102
RTVSPropertyOp57
 70
     1
102
RTVSPost2010Prop28
280
     0
102
RTVSPost2010PropOp28
 70
     1
102
RTVSPost2010Prop29
280
     1
102
RTVSPost2010PropOp29
 70
     1
102
RTVSPost2010Prop30
280
     1
102
RTVSPost2010PropOp30
 70
     1
102
RTVSPost2010Prop31
280
     0
102
RTVSPost2010PropOp31
 70
     1
102
RTVSPost2010Prop32
280
     0
102
RTVSPost2010PropOp32
 70
     1
102
RTVSPost2010Prop33
280
     0
102
RTVSPost2010PropOp33
 70
     1
102
RTVSPost2010Prop34
280
     0
102
RTVSPost2010PropOp34
 70
     1
102
RTVSPost2010Prop35
280
     0
102
RTVSPost2010PropOp35
 70
     1
102
RTVSPost2010Prop36
280
     0
102
RTVSPost2010PropOp36
 70
     1
102
RTVSPost2010Prop37
 90
       50
102
RTVSPost2010PropOp37
 70
     1
102
RTVSPost2010Prop38
140
0.0
102
RTVSPost2010PropOp38
 70
     1
102
RTVSPost2010Prop39
140
1.0
102
RTVSPost2010PropOp39
 70
     1
102
RTVSPost2010Prop40
 90
        0
102
RTVSPost2010PropOp40
 70
     1
102
RTVSPost2010Prop41ColorIndex
 90
       18
102
RTVSPost2010Prop41ColorRGB
 90
        0
102
RTVSPost2010PropOp41
 70
     1
102
RTVSPost2010Prop42
 90
       50
102
RTVSPost2010PropOp42
 70
     1
102
RTVSPost2010Prop43
 90
        3
102
RTVSPost2010PropOp43
 70
     1
102
RTVSPost2010Prop44ColorIndex
 90
        5
102
RTVSPost2010Prop44ColorRGB
 90
      255
102
RTVSPost2010PropOp44
 70
     1
102
RTVSPost2010Prop45
280
     0
102
RTVSPost2010PropOp45
 70
     1
102
RTVSPost2010Prop46
 90
       50
102
RTVSPost2010PropOp46
 70
     1
102
RTVSPost2010Prop47
 90
       50
102
RTVSPost2010PropOp47
 70
     1
102
RTVSPost2010Prop48
 90
       50
102
RTVSPost2010PropOp48
 70
     1
102
RTVSPost2010Prop49
280
     0
102
RTVSPost2010PropOp49
 70
     1
102
RTVSPost2010Prop50
 90
       50
102
RTVSPost2010PropOp50
 70
     1
102
RTVSPost2010Prop51ColorIndex
 90
      256
102
RTVSPost2010Prop51ColorRGB
 90
-16777216
102
RTVSPost2010PropOp51
 70
     0
102
RTVSPost2010Prop52
140
1.0
102
RTVSPost2010PropOp52
 70
     0
102
RTVSPost2010Prop53
 90
        2
102
RTVSPost2010PropOp53
 70
     1
102
RTVSPost2010Prop54
  1
strokes_ogs.tif
102
RTVSPost2010PropOp54
 70
     1
102
RTVSPost2010Prop55
280
     0
102
RTVSPost2010PropOp55
 70
     1
102
RTVSPost2010Prop56
140
1.0
102
RTVSPost2010PropOp56
 70
     1
102
RTVSPost2010Prop57
140
1.0
102
RTVSPost2010PropOp57
 70
     1
  0
XRECORD
  5
436
102
{ACAD_REACTORS
330
435
102
}
330
435
100
AcDbXrecord
280
     1
102
RTVSPropertyOp0
 70
     1
102
RTVSPropertyOp1
 70
     1
102
RTVSPropertyOp2
 70
     1
102
RTVSPropertyOp3
 70
     1
102
RTVSPropertyOp4
 70
     1
102
RTVSPropertyOp5
 70
     1
102
RTVSPropertyOp6
 70
     1
102
RTVSPropertyOp7
 70
     1
102
RTVSPropertyOp8
 70
     1
102
RTVSPropertyOp9
 70
     1
102
RTVSPropertyOp10
 70
     1
102
RTVSPropertyOp11
 70
     1
102
RTVSPropertyOp12
 70
     1
102
RTVSPropertyOp13
 70
     1
102
RTVSPropertyOp14
 70
     1
102
RTVSPropertyOp15
 70
     1
102
RTVSPropertyOp16
 70
     1
102
RTVSPropertyOp17
 70
     1
102
RTVSPropertyOp18
 70
     1
102
RTVSPropertyOp19
 70
     1
102
RTVSPropertyOp20
 70
     1
102
RTVSPropertyOp21
 70
     1
102
RTVSPropertyOp22
 70
     1
102
RTVSPropertyOp23
 70
     1
102
RTVSPropertyOp24
 70
     1
102
RTVSPropertyOp25
 70
     1
102
RTVSPropertyOp26
 70
     1
102
RTVSPropertyOp27
 70
     1
102
RTVSPropertyOp28
 70
     1
102
RTVSPropertyOp29
 70
     1
102
RTVSPropertyOp30
 70
     1
102
RTVSPropertyOp31
 70
     1
102
RTVSPropertyOp32
 70
     1
102
RTVSPropertyOp33
 70
     1
102
RTVSPropertyOp34
 70
     1
102
RTVSPropertyOp35
 70
     1
102
RTVSPropertyOp36
 70
     1
102
RTVSPropertyOp37
 70
     1
102
RTVSPropertyOp38
 70
     1
102
RTVSPropertyOp39
 70
     1
102
RTVSPropertyOp40
 70
     1
102
RTVSPropertyOp41
 70
     1
102
RTVSPropertyOp42
 70
     1
102
RTVSPropertyOp43
 70
     1
102
RTVSPropertyOp44
 70
     1
102
RTVSPropertyOp45
 70
     1
102
RTVSPropertyOp46
 70
     1
102
RTVSPropertyOp47
 70
     1
102
RTVSPropertyOp48
 70
     1
102
RTVSPropertyOp49
 70
     1
102
RTVSPropertyOp50
 70
     1
102
RTVSPropertyOp51
 70
     0
102
RTVSPropertyOp52
 70
     0
102
RTVSPropertyOp53
 70
     1
102
RTVSPropertyOp54
 70
     1
102
RTVSPropertyOp55
 70
     1
102
RTVSPropertyOp56
 70
     1
102
RTVSPropertyOp57
 70
     1
102
RTVSPost2010Prop28
280
     0
102
RTVSPost2010PropOp28
 70
     1
102
RTVSPost2010Prop29
280
     1
102
RTVSPost2010PropOp29
 70
     1
102
RTVSPost2010Prop30
280
     1
102
RTVSPost2010PropOp30
 70
     1
102
RTVSPost2010Prop31
280
     0
102
RTVSPost2010PropOp31
 70
     1
102
RTVSPost2010Prop32
280
     0
102
RTVSPost2010PropOp32
 70
     1
102
RTVSPost2010Prop33
280
     0
102
RTVSPost2010PropOp33
 70
     1
102
RTVSPost2010Prop34
280
     0
102
RTVSPost2010PropOp34
 70
     1
102
RTVSPost2010Prop35
280
     0
102
RTVSPost2010PropOp35
 70
     1
102
RTVSPost2010Prop36
280
     0
102
RTVSPost2010PropOp36
 70
     1
102
RTVSPost2010Prop37
 90
       50
102
RTVSPost2010PropOp37
 70
     1
102
RTVSPost2010Prop38
140
0.0
102
RTVSPost2010PropOp38
 70
     1
102
RTVSPost2010Prop39
140
1.0
102
RTVSPost2010PropOp39
 70
     1
102
RTVSPost2010Prop40
 90
        0
102
RTVSPost2010PropOp40
 70
     1
102
RTVSPost2010Prop41ColorIndex
 90
       18
102
RTVSPost2010Prop41ColorRGB
 90
        0
102
RTVSPost2010PropOp41
 70
     1
102
RTVSPost2010Prop42
 90
       50
102
RTVSPost2010PropOp42
 70
     1
102
RTVSPost2010Prop43
 90
        3
102
RTVSPost2010PropOp43
 70
     1
102
RTVSPost2010Prop44ColorIndex
 90
        5
102
RTVSPost2010Prop44ColorRGB
 90
      255
102
RTVSPost2010PropOp44
 70
     1
102
RTVSPost2010Prop45
280
     0
102
RTVSPost2010PropOp45
 70
     1
102
RTVSPost2010Prop46
 90
       50
102
RTVSPost2010PropOp46
 70
     1
102
RTVSPost2010Prop47
 90
       50
102
RTVSPost2010PropOp47
 70
     1
102
RTVSPost2010Prop48
 90
       50
102
RTVSPost2010PropOp48
 70
     1
102
RTVSPost2010Prop49
280
     0
102
RTVSPost2010PropOp49
 70
     1
102
RTVSPost2010Prop50
 90
       50
102
RTVSPost2010PropOp50
 70
     1
102
RTVSPost2010Prop51ColorIndex
 90
      256
102
RTVSPost2010Prop51ColorRGB
 90
-16777216
102
RTVSPost2010PropOp51
 70
     0
102
RTVSPost2010Prop52
140
1.0
102
RTVSPost2010PropOp52
 70
     0
102
RTVSPost2010Prop53
 90
        2
102
RTVSPost2010PropOp53
 70
     1
102
RTVSPost2010Prop54
  1
strokes_ogs.tif
102
RTVSPost2010PropOp54
 70
     1
102
RTVSPost2010Prop55
280
     0
102
RTVSPost2010PropOp55
 70
     1
102
RTVSPost2010Prop56
140
1.0
102
RTVSPost2010PropOp56
 70
     1
102
RTVSPost2010Prop57
140
1.0
102
RTVSPost2010PropOp57
 70
     1
  0
XRECORD
  5
446
102
{ACAD_REACTORS
330
445
102
}
330
445
100
AcDbXrecord
280
     1
102
RTVSPropertyOp0
 70
     0
102
RTVSPropertyOp1
 70
     0
102
RTVSPropertyOp2
 70
     0
102
RTVSPropertyOp3
 70
     0
102
RTVSPropertyOp4
 70
     0
102
RTVSPropertyOp5
 70
     0
102
RTVSPropertyOp6
 70
     0
102
RTVSPropertyOp7
 70
     0
102
RTVSPropertyOp8
 70
     0
102
RTVSPropertyOp9
 70
     0
102
RTVSPropertyOp10
 70
     0
102
RTVSPropertyOp11
 70
     0
102
RTVSPropertyOp12
 70
     0
102
RTVSPropertyOp13
 70
     0
102
RTVSPropertyOp14
 70
     2
102
RTVSPropertyOp15
 70
     0
102
RTVSPropertyOp16
 70
     0
102
RTVSPropertyOp17
 70
     0
102
RTVSPropertyOp18
 70
     0
102
RTVSPropertyOp19
 70
     0
102
RTVSPropertyOp20
 70
     0
102
RTVSPropertyOp21
 70
     0
102
RTVSPropertyOp22
 70
     0
102
RTVSPropertyOp23
 70
     0
102
RTVSPropertyOp24
 70
     0
102
RTVSPropertyOp25
 70
     0
102
RTVSPropertyOp26
 70
     0
102
RTVSPropertyOp27
 70
     0
102
RTVSPropertyOp28
 70
     0
102
RTVSPropertyOp29
 70
     0
102
RTVSPropertyOp30
 70
     0
102
RTVSPropertyOp31
 70
     0
102
RTVSPropertyOp32
 70
     0
102
RTVSPropertyOp33
 70
     0
102
RTVSPropertyOp34
 70
     0
102
RTVSPropertyOp35
 70
     0
102
RTVSPropertyOp36
 70
     0
102
RTVSPropertyOp37
 70
     0
102
RTVSPropertyOp38
 70
     0
102
RTVSPropertyOp39
 70
     0
102
RTVSPropertyOp40
 70
     0
102
RTVSPropertyOp41
 70
     0
102
RTVSPropertyOp42
 70
     0
102
RTVSPropertyOp43
 70
     0
102
RTVSPropertyOp44
 70
     0
102
RTVSPropertyOp45
 70
     0
102
RTVSPropertyOp46
 70
     0
102
RTVSPropertyOp47
 70
     0
102
RTVSPropertyOp48
 70
     0
102
RTVSPropertyOp49
 70
     0
102
RTVSPropertyOp50
 70
     0
102
RTVSPropertyOp51
 70
     0
102
RTVSPropertyOp52
 70
     0
102
RTVSPropertyOp53
 70
     0
102
RTVSPropertyOp54
 70
     0
102
RTVSPropertyOp55
 70
     0
102
RTVSPropertyOp56
 70
     0
102
RTVSPropertyOp57
 70
     0
102
RTVSPost2010Prop28
280
     0
102
RTVSPost2010PropOp28
 70
     0
102
RTVSPost2010Prop29
280
     1
102
RTVSPost2010PropOp29
 70
     0
102
RTVSPost2010Prop30
280
     1
102
RTVSPost2010PropOp30
 70
     0
102
RTVSPost2010Prop31
280
     0
102
RTVSPost2010PropOp31
 70
     0
102
RTVSPost2010Prop32
280
     0
102
RTVSPost2010PropOp32
 70
     0
102
RTVSPost2010Prop33
280
     0
102
RTVSPost2010PropOp33
 70
     0
102
RTVSPost2010Prop34
280
     0
102
RTVSPost2010PropOp34
 70
     0
102
RTVSPost2010Prop35
280
     0
102
RTVSPost2010PropOp35
 70
     0
102
RTVSPost2010Prop36
280
     0
102
RTVSPost2010PropOp36
 70
     0
102
RTVSPost2010Prop37
 90
       50
102
RTVSPost2010PropOp37
 70
     0
102
RTVSPost2010Prop38
140
0.0
102
RTVSPost2010PropOp38
 70
     0
102
RTVSPost2010Prop39
140
1.0
102
RTVSPost2010PropOp39
 70
     0
102
RTVSPost2010Prop40
 90
        0
102
RTVSPost2010PropOp40
 70
     0
102
RTVSPost2010Prop41ColorIndex
 90
       18
102
RTVSPost2010Prop41ColorRGB
 90
        0
102
RTVSPost2010PropOp41
 70
     0
102
RTVSPost2010Prop42
 90
       50
102
RTVSPost2010PropOp42
 70
     0
102
RTVSPost2010Prop43
 90
        3
102
RTVSPost2010PropOp43
 70
     0
102
RTVSPost2010Prop44ColorIndex
 90
        5
102
RTVSPost2010Prop44ColorRGB
 90
      255
102
RTVSPost2010PropOp44
 70
     0
102
RTVSPost2010Prop45
280
     0
102
RTVSPost2010PropOp45
 70
     0
102
RTVSPost2010Prop46
 90
       50
102
RTVSPost2010PropOp46
 70
     0
102
RTVSPost2010Prop47
 90
       50
102
RTVSPost2010PropOp47
 70
     0
102
RTVSPost2010Prop48
 90
       50
102
RTVSPost2010PropOp48
 70
     0
102
RTVSPost2010Prop49
280
     0
102
RTVSPost2010PropOp49
 70
     0
102
RTVSPost2010Prop50
 90
       50
102
RTVSPost2010PropOp50
 70
     0
102
RTVSPost2010Prop51ColorIndex
 90
      256
102
RTVSPost2010Prop51ColorRGB
 90
-16777216
102
RTVSPost2010PropOp51
 70
     0
102
RTVSPost2010Prop52
140
1.0
102
RTVSPost2010PropOp52
 70
     0
102
RTVSPost2010Prop53
 90
        2
102
RTVSPost2010PropOp53
 70
     0
102
RTVSPost2010Prop54
  1
strokes_ogs.tif
102
RTVSPost2010PropOp54
 70
     0
102
RTVSPost2010Prop55
280
     0
102
RTVSPost2010PropOp55
 70
     0
102
RTVSPost2010Prop56
140
1.0
102
RTVSPost2010PropOp56
 70
     0
102
RTVSPost2010Prop57
140
1.0
102
RTVSPost2010PropOp57
 70
     0
  0
XRECORD
  5
43E
102
{ACAD_REACTORS
330
43D
102
}
330
43D
100
AcDbXrecord
280
     1
102
RTVSPropertyOp0
 70
     1
102
RTVSPropertyOp1
 70
     1
102
RTVSPropertyOp2
 70
     1
102
RTVSPropertyOp3
 70
     1
102
RTVSPropertyOp4
 70
     1
102
RTVSPropertyOp5
 70
     1
102
RTVSPropertyOp6
 70
     1
102
RTVSPropertyOp7
 70
     1
102
RTVSPropertyOp8
 70
     1
102
RTVSPropertyOp9
 70
     1
102
RTVSPropertyOp10
 70
     1
102
RTVSPropertyOp11
 70
     1
102
RTVSPropertyOp12
 70
     1
102
RTVSPropertyOp13
 70
     1
102
RTVSPropertyOp14
 70
     1
102
RTVSPropertyOp15
 70
     1
102
RTVSPropertyOp16
 70
     1
102
RTVSPropertyOp17
 70
     1
102
RTVSPropertyOp18
 70
     1
102
RTVSPropertyOp19
 70
     1
102
RTVSPropertyOp20
 70
     1
102
RTVSPropertyOp21
 70
     1
102
RTVSPropertyOp22
 70
     1
102
RTVSPropertyOp23
 70
     1
102
RTVSPropertyOp24
 70
     1
102
RTVSPropertyOp25
 70
     1
102
RTVSPropertyOp26
 70
     1
102
RTVSPropertyOp27
 70
     1
102
RTVSPropertyOp28
 70
     1
102
RTVSPropertyOp29
 70
     1
102
RTVSPropertyOp30
 70
     1
102
RTVSPropertyOp31
 70
     1
102
RTVSPropertyOp32
 70
     1
102
RTVSPropertyOp33
 70
     1
102
RTVSPropertyOp34
 70
     1
102
RTVSPropertyOp35
 70
     1
102
RTVSPropertyOp36
 70
     1
102
RTVSPropertyOp37
 70
     1
102
RTVSPropertyOp38
 70
     1
102
RTVSPropertyOp39
 70
     1
102
RTVSPropertyOp40
 70
     1
102
RTVSPropertyOp41
 70
     1
102
RTVSPropertyOp42
 70
     1
102
RTVSPropertyOp43
 70
     1
102
RTVSPropertyOp44
 70
     1
102
RTVSPropertyOp45
 70
     1
102
RTVSPropertyOp46
 70
     1
102
RTVSPropertyOp47
 70
     1
102
RTVSPropertyOp48
 70
     1
102
RTVSPropertyOp49
 70
     1
102
RTVSPropertyOp50
 70
     1
102
RTVSPropertyOp51
 70
     0
102
RTVSPropertyOp52
 70
     0
102
RTVSPropertyOp53
 70
     1
102
RTVSPropertyOp54
 70
     1
102
RTVSPropertyOp55
 70
     1
102
RTVSPropertyOp56
 70
     1
102
RTVSPropertyOp57
 70
     1
102
RTVSPost2010Prop28
280
     0
102
RTVSPost2010PropOp28
 70
     1
102
RTVSPost2010Prop29
280
     1
102
RTVSPost2010PropOp29
 70
     1
102
RTVSPost2010Prop30
280
     1
102
RTVSPost2010PropOp30
 70
     1
102
RTVSPost2010Prop31
280
     0
102
RTVSPost2010PropOp31
 70
     1
102
RTVSPost2010Prop32
280
     0
102
RTVSPost2010PropOp32
 70
     1
102
RTVSPost2010Prop33
280
     0
102
RTVSPost2010PropOp33
 70
     1
102
RTVSPost2010Prop34
280
     0
102
RTVSPost2010PropOp34
 70
     1
102
RTVSPost2010Prop35
280
     0
102
RTVSPost2010PropOp35
 70
     1
102
RTVSPost2010Prop36
280
     0
102
RTVSPost2010PropOp36
 70
     1
102
RTVSPost2010Prop37
 90
       50
102
RTVSPost2010PropOp37
 70
     1
102
RTVSPost2010Prop38
140
0.0
102
RTVSPost2010PropOp38
 70
     1
102
RTVSPost2010Prop39
140
1.0
102
RTVSPost2010PropOp39
 70
     1
102
RTVSPost2010Prop40
 90
        0
102
RTVSPost2010PropOp40
 70
     1
102
RTVSPost2010Prop41ColorIndex
 90
       18
102
RTVSPost2010Prop41ColorRGB
 90
        0
102
RTVSPost2010PropOp41
 70
     1
102
RTVSPost2010Prop42
 90
       50
102
RTVSPost2010PropOp42
 70
     1
102
RTVSPost2010Prop43
 90
        3
102
RTVSPost2010PropOp43
 70
     1
102
RTVSPost2010Prop44ColorIndex
 90
        5
102
RTVSPost2010Prop44ColorRGB
 90
      255
102
RTVSPost2010PropOp44
 70
     1
102
RTVSPost2010Prop45
280
     0
102
RTVSPost2010PropOp45
 70
     1
102
RTVSPost2010Prop46
 90
       50
102
RTVSPost2010PropOp46
 70
     1
102
RTVSPost2010Prop47
 90
       50
102
RTVSPost2010PropOp47
 70
     1
102
RTVSPost2010Prop48
 90
       50
102
RTVSPost2010PropOp48
 70
     1
102
RTVSPost2010Prop49
280
     0
102
RTVSPost2010PropOp49
 70
     1
102
RTVSPost2010Prop50
 90
       50
102
RTVSPost2010PropOp50
 70
     1
102
RTVSPost2010Prop51ColorIndex
 90
      256
102
RTVSPost2010Prop51ColorRGB
 90
-16777216
102
RTVSPost2010PropOp51
 70
     0
102
RTVSPost2010Prop52
140
1.0
102
RTVSPost2010PropOp52
 70
     0
102
RTVSPost2010Prop53
 90
        2
102
RTVSPost2010PropOp53
 70
     1
102
RTVSPost2010Prop54
  1
strokes_ogs.tif
102
RTVSPost2010PropOp54
 70
     1
102
RTVSPost2010Prop55
280
     0
102
RTVSPost2010PropOp55
 70
     1
102
RTVSPost2010Prop56
140
1.0
102
RTVSPost2010PropOp56
 70
     1
102
RTVSPost2010Prop57
140
1.0
102
RTVSPost2010PropOp57
 70
     1
  0
XRECORD
  5
422
102
{ACAD_REACTORS
330
421
102
}
330
421
100
AcDbXrecord
280
     1
102
RTVSPropertyOp0
 70
     1
102
RTVSPropertyOp1
 70
     1
102
RTVSPropertyOp2
 70
     1
102
RTVSPropertyOp3
 70
     1
102
RTVSPropertyOp4
 70
     1
102
RTVSPropertyOp5
 70
     1
102
RTVSPropertyOp6
 70
     1
102
RTVSPropertyOp7
 70
     1
102
RTVSPropertyOp8
 70
     1
102
RTVSPropertyOp9
 70
     1
102
RTVSPropertyOp10
 70
     1
102
RTVSPropertyOp11
 70
     1
102
RTVSPropertyOp12
 70
     1
102
RTVSPropertyOp13
 70
     1
102
RTVSPropertyOp14
 70
     1
102
RTVSPropertyOp15
 70
     1
102
RTVSPropertyOp16
 70
     1
102
RTVSPropertyOp17
 70
     1
102
RTVSPropertyOp18
 70
     1
102
RTVSPropertyOp19
 70
     1
102
RTVSPropertyOp20
 70
     1
102
RTVSPropertyOp21
 70
     1
102
RTVSPropertyOp22
 70
     1
102
RTVSPropertyOp23
 70
     1
102
RTVSPropertyOp24
 70
     1
102
RTVSPropertyOp25
 70
     1
102
RTVSPropertyOp26
 70
     1
102
RTVSPropertyOp27
 70
     1
102
RTVSPropertyOp28
 70
     1
102
RTVSPropertyOp29
 70
     1
102
RTVSPropertyOp30
 70
     1
102
RTVSPropertyOp31
 70
     1
102
RTVSPropertyOp32
 70
     1
102
RTVSPropertyOp33
 70
     1
102
RTVSPropertyOp34
 70
     1
102
RTVSPropertyOp35
 70
     1
102
RTVSPropertyOp36
 70
     1
102
RTVSPropertyOp37
 70
     1
102
RTVSPropertyOp38
 70
     1
102
RTVSPropertyOp39
 70
     1
102
RTVSPropertyOp40
 70
     1
102
RTVSPropertyOp41
 70
     1
102
RTVSPropertyOp42
 70
     1
102
RTVSPropertyOp43
 70
     1
102
RTVSPropertyOp44
 70
     1
102
RTVSPropertyOp45
 70
     1
102
RTVSPropertyOp46
 70
     1
102
RTVSPropertyOp47
 70
     1
102
RTVSPropertyOp48
 70
     1
102
RTVSPropertyOp49
 70
     1
102
RTVSPropertyOp50
 70
     1
102
RTVSPropertyOp51
 70
     0
102
RTVSPropertyOp52
 70
     0
102
RTVSPropertyOp53
 70
     1
102
RTVSPropertyOp54
 70
     1
102
RTVSPropertyOp55
 70
     1
102
RTVSPropertyOp56
 70
     1
102
RTVSPropertyOp57
 70
     1
102
RTVSPost2010Prop28
280
     0
102
RTVSPost2010PropOp28
 70
     1
102
RTVSPost2010Prop29
280
     1
102
RTVSPost2010PropOp29
 70
     1
102
RTVSPost2010Prop30
280
     1
102
RTVSPost2010PropOp30
 70
     1
102
RTVSPost2010Prop31
280
     0
102
RTVSPost2010PropOp31
 70
     1
102
RTVSPost2010Prop32
280
     0
102
RTVSPost2010PropOp32
 70
     1
102
RTVSPost2010Prop33
280
     0
102
RTVSPost2010PropOp33
 70
     1
102
RTVSPost2010Prop34
280
     0
102
RTVSPost2010PropOp34
 70
     1
102
RTVSPost2010Prop35
280
     0
102
RTVSPost2010PropOp35
 70
     1
102
RTVSPost2010Prop36
280
     0
102
RTVSPost2010PropOp36
 70
     1
102
RTVSPost2010Prop37
 90
       50
102
RTVSPost2010PropOp37
 70
     1
102
RTVSPost2010Prop38
140
0.0
102
RTVSPost2010PropOp38
 70
     1
102
RTVSPost2010Prop39
140
1.0
102
RTVSPost2010PropOp39
 70
     1
102
RTVSPost2010Prop40
 90
        0
102
RTVSPost2010PropOp40
 70
     1
102
RTVSPost2010Prop41ColorIndex
 90
       18
102
RTVSPost2010Prop41ColorRGB
 90
        0
102
RTVSPost2010PropOp41
 70
     1
102
RTVSPost2010Prop42
 90
       50
102
RTVSPost2010PropOp42
 70
     1
102
RTVSPost2010Prop43
 90
        3
102
RTVSPost2010PropOp43
 70
     1
102
RTVSPost2010Prop44ColorIndex
 90
        5
102
RTVSPost2010Prop44ColorRGB
 90
      255
102
RTVSPost2010PropOp44
 70
     1
102
RTVSPost2010Prop45
280
     0
102
RTVSPost2010PropOp45
 70
     1
102
RTVSPost2010Prop46
 90
       50
102
RTVSPost2010PropOp46
 70
     1
102
RTVSPost2010Prop47
 90
       50
102
RTVSPost2010PropOp47
 70
     1
102
RTVSPost2010Prop48
 90
       50
102
RTVSPost2010PropOp48
 70
     1
102
RTVSPost2010Prop49
280
     0
102
RTVSPost2010PropOp49
 70
     1
102
RTVSPost2010Prop50
 90
       50
102
RTVSPost2010PropOp50
 70
     1
102
RTVSPost2010Prop51ColorIndex
 90
      256
102
RTVSPost2010Prop51ColorRGB
 90
-16777216
102
RTVSPost2010PropOp51
 70
     0
102
RTVSPost2010Prop52
140
1.0
102
RTVSPost2010PropOp52
 70
     0
102
RTVSPost2010Prop53
 90
        2
102
RTVSPost2010PropOp53
 70
     1
102
RTVSPost2010Prop54
  1
strokes_ogs.tif
102
RTVSPost2010PropOp54
 70
     1
102
RTVSPost2010Prop55
280
     0
102
RTVSPost2010PropOp55
 70
     1
102
RTVSPost2010Prop56
140
1.0
102
RTVSPost2010PropOp56
 70
     1
102
RTVSPost2010Prop57
140
1.0
102
RTVSPost2010PropOp57
 70
     1
  0
XRECORD
  5
424
102
{ACAD_REACTORS
330
423
102
}
330
423
100
AcDbXrecord
280
     1
102
RTVSPropertyOp0
 70
     1
102
RTVSPropertyOp1
 70
     1
102
RTVSPropertyOp2
 70
     1
102
RTVSPropertyOp3
 70
     1
102
RTVSPropertyOp4
 70
     1
102
RTVSPropertyOp5
 70
     1
102
RTVSPropertyOp6
 70
     1
102
RTVSPropertyOp7
 70
     1
102
RTVSPropertyOp8
 70
     1
102
RTVSPropertyOp9
 70
     1
102
RTVSPropertyOp10
 70
     1
102
RTVSPropertyOp11
 70
     1
102
RTVSPropertyOp12
 70
     1
102
RTVSPropertyOp13
 70
     1
102
RTVSPropertyOp14
 70
     1
102
RTVSPropertyOp15
 70
     1
102
RTVSPropertyOp16
 70
     1
102
RTVSPropertyOp17
 70
     1
102
RTVSPropertyOp18
 70
     1
102
RTVSPropertyOp19
 70
     1
102
RTVSPropertyOp20
 70
     1
102
RTVSPropertyOp21
 70
     1
102
RTVSPropertyOp22
 70
     1
102
RTVSPropertyOp23
 70
     1
102
RTVSPropertyOp24
 70
     1
102
RTVSPropertyOp25
 70
     1
102
RTVSPropertyOp26
 70
     1
102
RTVSPropertyOp27
 70
     1
102
RTVSPropertyOp28
 70
     1
102
RTVSPropertyOp29
 70
     1
102
RTVSPropertyOp30
 70
     1
102
RTVSPropertyOp31
 70
     1
102
RTVSPropertyOp32
 70
     1
102
RTVSPropertyOp33
 70
     1
102
RTVSPropertyOp34
 70
     1
102
RTVSPropertyOp35
 70
     1
102
RTVSPropertyOp36
 70
     1
102
RTVSPropertyOp37
 70
     1
102
RTVSPropertyOp38
 70
     1
102
RTVSPropertyOp39
 70
     1
102
RTVSPropertyOp40
 70
     1
102
RTVSPropertyOp41
 70
     1
102
RTVSPropertyOp42
 70
     1
102
RTVSPropertyOp43
 70
     1
102
RTVSPropertyOp44
 70
     1
102
RTVSPropertyOp45
 70
     1
102
RTVSPropertyOp46
 70
     1
102
RTVSPropertyOp47
 70
     1
102
RTVSPropertyOp48
 70
     1
102
RTVSPropertyOp49
 70
     1
102
RTVSPropertyOp50
 70
     1
102
RTVSPropertyOp51
 70
     0
102
RTVSPropertyOp52
 70
     0
102
RTVSPropertyOp53
 70
     1
102
RTVSPropertyOp54
 70
     1
102
RTVSPropertyOp55
 70
     1
102
RTVSPropertyOp56
 70
     1
102
RTVSPropertyOp57
 70
     1
102
RTVSPost2010Prop28
280
     0
102
RTVSPost2010PropOp28
 70
     1
102
RTVSPost2010Prop29
280
     1
102
RTVSPost2010PropOp29
 70
     1
102
RTVSPost2010Prop30
280
     1
102
RTVSPost2010PropOp30
 70
     1
102
RTVSPost2010Prop31
280
     0
102
RTVSPost2010PropOp31
 70
     1
102
RTVSPost2010Prop32
280
     0
102
RTVSPost2010PropOp32
 70
     1
102
RTVSPost2010Prop33
280
     0
102
RTVSPost2010PropOp33
 70
     1
102
RTVSPost2010Prop34
280
     0
102
RTVSPost2010PropOp34
 70
     1
102
RTVSPost2010Prop35
280
     0
102
RTVSPost2010PropOp35
 70
     1
102
RTVSPost2010Prop36
280
     0
102
RTVSPost2010PropOp36
 70
     1
102
RTVSPost2010Prop37
 90
       50
102
RTVSPost2010PropOp37
 70
     1
102
RTVSPost2010Prop38
140
0.0
102
RTVSPost2010PropOp38
 70
     1
102
RTVSPost2010Prop39
140
1.0
102
RTVSPost2010PropOp39
 70
     1
102
RTVSPost2010Prop40
 90
        0
102
RTVSPost2010PropOp40
 70
     1
102
RTVSPost2010Prop41ColorIndex
 90
       18
102
RTVSPost2010Prop41ColorRGB
 90
        0
102
RTVSPost2010PropOp41
 70
     1
102
RTVSPost2010Prop42
 90
       50
102
RTVSPost2010PropOp42
 70
     1
102
RTVSPost2010Prop43
 90
        3
102
RTVSPost2010PropOp43
 70
     1
102
RTVSPost2010Prop44ColorIndex
 90
        5
102
RTVSPost2010Prop44ColorRGB
 90
      255
102
RTVSPost2010PropOp44
 70
     1
102
RTVSPost2010Prop45
280
     0
102
RTVSPost2010PropOp45
 70
     1
102
RTVSPost2010Prop46
 90
       50
102
RTVSPost2010PropOp46
 70
     1
102
RTVSPost2010Prop47
 90
       50
102
RTVSPost2010PropOp47
 70
     1
102
RTVSPost2010Prop48
 90
       50
102
RTVSPost2010PropOp48
 70
     1
102
RTVSPost2010Prop49
280
     0
102
RTVSPost2010PropOp49
 70
     1
102
RTVSPost2010Prop50
 90
       50
102
RTVSPost2010PropOp50
 70
     1
102
RTVSPost2010Prop51ColorIndex
 90
      256
102
RTVSPost2010Prop51ColorRGB
 90
-16777216
102
RTVSPost2010PropOp51
 70
     0
102
RTVSPost2010Prop52
140
1.0
102
RTVSPost2010PropOp52
 70
     0
102
RTVSPost2010Prop53
 90
        2
102
RTVSPost2010PropOp53
 70
     1
102
RTVSPost2010Prop54
  1
strokes_ogs.tif
102
RTVSPost2010PropOp54
 70
     1
102
RTVSPost2010Prop55
280
     0
102
RTVSPost2010PropOp55
 70
     1
102
RTVSPost2010Prop56
140
1.0
102
RTVSPost2010PropOp56
 70
     1
102
RTVSPost2010Prop57
140
1.0
102
RTVSPost2010PropOp57
 70
     1
  0
XRECORD
  5
426
102
{ACAD_REACTORS
330
425
102
}
330
425
100
AcDbXrecord
280
     1
102
RTVSPropertyOp0
 70
     1
102
RTVSPropertyOp1
 70
     1
102
RTVSPropertyOp2
 70
     1
102
RTVSPropertyOp3
 70
     1
102
RTVSPropertyOp4
 70
     1
102
RTVSPropertyOp5
 70
     1
102
RTVSPropertyOp6
 70
     1
102
RTVSPropertyOp7
 70
     1
102
RTVSPropertyOp8
 70
     1
102
RTVSPropertyOp9
 70
     1
102
RTVSPropertyOp10
 70
     1
102
RTVSPropertyOp11
 70
     1
102
RTVSPropertyOp12
 70
     1
102
RTVSPropertyOp13
 70
     1
102
RTVSPropertyOp14
 70
     1
102
RTVSPropertyOp15
 70
     1
102
RTVSPropertyOp16
 70
     1
102
RTVSPropertyOp17
 70
     1
102
RTVSPropertyOp18
 70
     1
102
RTVSPropertyOp19
 70
     1
102
RTVSPropertyOp20
 70
     1
102
RTVSPropertyOp21
 70
     1
102
RTVSPropertyOp22
 70
     1
102
RTVSPropertyOp23
 70
     1
102
RTVSPropertyOp24
 70
     1
102
RTVSPropertyOp25
 70
     1
102
RTVSPropertyOp26
 70
     1
102
RTVSPropertyOp27
 70
     1
102
RTVSPropertyOp28
 70
     1
102
RTVSPropertyOp29
 70
     1
102
RTVSPropertyOp30
 70
     1
102
RTVSPropertyOp31
 70
     1
102
RTVSPropertyOp32
 70
     1
102
RTVSPropertyOp33
 70
     1
102
RTVSPropertyOp34
 70
     1
102
RTVSPropertyOp35
 70
     1
102
RTVSPropertyOp36
 70
     1
102
RTVSPropertyOp37
 70
     1
102
RTVSPropertyOp38
 70
     1
102
RTVSPropertyOp39
 70
     1
102
RTVSPropertyOp40
 70
     1
102
RTVSPropertyOp41
 70
     1
102
RTVSPropertyOp42
 70
     1
102
RTVSPropertyOp43
 70
     1
102
RTVSPropertyOp44
 70
     1
102
RTVSPropertyOp45
 70
     1
102
RTVSPropertyOp46
 70
     1
102
RTVSPropertyOp47
 70
     1
102
RTVSPropertyOp48
 70
     1
102
RTVSPropertyOp49
 70
     1
102
RTVSPropertyOp50
 70
     1
102
RTVSPropertyOp51
 70
     0
102
RTVSPropertyOp52
 70
     0
102
RTVSPropertyOp53
 70
     1
102
RTVSPropertyOp54
 70
     1
102
RTVSPropertyOp55
 70
     1
102
RTVSPropertyOp56
 70
     1
102
RTVSPropertyOp57
 70
     1
102
RTVSPost2010Prop28
280
     0
102
RTVSPost2010PropOp28
 70
     1
102
RTVSPost2010Prop29
280
     1
102
RTVSPost2010PropOp29
 70
     1
102
RTVSPost2010Prop30
280
     1
102
RTVSPost2010PropOp30
 70
     1
102
RTVSPost2010Prop31
280
     0
102
RTVSPost2010PropOp31
 70
     1
102
RTVSPost2010Prop32
280
     0
102
RTVSPost2010PropOp32
 70
     1
102
RTVSPost2010Prop33
280
     0
102
RTVSPost2010PropOp33
 70
     1
102
RTVSPost2010Prop34
280
     0
102
RTVSPost2010PropOp34
 70
     1
102
RTVSPost2010Prop35
280
     0
102
RTVSPost2010PropOp35
 70
     1
102
RTVSPost2010Prop36
280
     0
102
RTVSPost2010PropOp36
 70
     1
102
RTVSPost2010Prop37
 90
       50
102
RTVSPost2010PropOp37
 70
     1
102
RTVSPost2010Prop38
140
0.0
102
RTVSPost2010PropOp38
 70
     1
102
RTVSPost2010Prop39
140
1.0
102
RTVSPost2010PropOp39
 70
     1
102
RTVSPost2010Prop40
 90
        0
102
RTVSPost2010PropOp40
 70
     1
102
RTVSPost2010Prop41ColorIndex
 90
       18
102
RTVSPost2010Prop41ColorRGB
 90
        0
102
RTVSPost2010PropOp41
 70
     1
102
RTVSPost2010Prop42
 90
       50
102
RTVSPost2010PropOp42
 70
     1
102
RTVSPost2010Prop43
 90
        3
102
RTVSPost2010PropOp43
 70
     1
102
RTVSPost2010Prop44ColorIndex
 90
        5
102
RTVSPost2010Prop44ColorRGB
 90
      255
102
RTVSPost2010PropOp44
 70
     1
102
RTVSPost2010Prop45
280
     0
102
RTVSPost2010PropOp45
 70
     1
102
RTVSPost2010Prop46
 90
       50
102
RTVSPost2010PropOp46
 70
     1
102
RTVSPost2010Prop47
 90
       50
102
RTVSPost2010PropOp47
 70
     1
102
RTVSPost2010Prop48
 90
       50
102
RTVSPost2010PropOp48
 70
     1
102
RTVSPost2010Prop49
280
     0
102
RTVSPost2010PropOp49
 70
     1
102
RTVSPost2010Prop50
 90
       50
102
RTVSPost2010PropOp50
 70
     1
102
RTVSPost2010Prop51ColorIndex
 90
      256
102
RTVSPost2010Prop51ColorRGB
 90
-16777216
102
RTVSPost2010PropOp51
 70
     0
102
RTVSPost2010Prop52
140
1.0
102
RTVSPost2010PropOp52
 70
     0
102
RTVSPost2010Prop53
 90
        2
102
RTVSPost2010PropOp53
 70
     1
102
RTVSPost2010Prop54
  1
strokes_ogs.tif
102
RTVSPost2010PropOp54
 70
     1
102
RTVSPost2010Prop55
280
     0
102
RTVSPost2010PropOp55
 70
     1
102
RTVSPost2010Prop56
140
1.0
102
RTVSPost2010PropOp56
 70
     1
102
RTVSPost2010Prop57
140
1.0
102
RTVSPost2010PropOp57
 70
     1
  0
XRECORD
  5
428
102
{ACAD_REACTORS
330
427
102
}
330
427
100
AcDbXrecord
280
     1
102
RTVSPropertyOp0
 70
     1
102
RTVSPropertyOp1
 70
     1
102
RTVSPropertyOp2
 70
     1
102
RTVSPropertyOp3
 70
     1
102
RTVSPropertyOp4
 70
     1
102
RTVSPropertyOp5
 70
     1
102
RTVSPropertyOp6
 70
     1
102
RTVSPropertyOp7
 70
     1
102
RTVSPropertyOp8
 70
     1
102
RTVSPropertyOp9
 70
     1
102
RTVSPropertyOp10
 70
     1
102
RTVSPropertyOp11
 70
     1
102
RTVSPropertyOp12
 70
     1
102
RTVSPropertyOp13
 70
     1
102
RTVSPropertyOp14
 70
     1
102
RTVSPropertyOp15
 70
     1
102
RTVSPropertyOp16
 70
     1
102
RTVSPropertyOp17
 70
     1
102
RTVSPropertyOp18
 70
     1
102
RTVSPropertyOp19
 70
     1
102
RTVSPropertyOp20
 70
     1
102
RTVSPropertyOp21
 70
     1
102
RTVSPropertyOp22
 70
     1
102
RTVSPropertyOp23
 70
     1
102
RTVSPropertyOp24
 70
     1
102
RTVSPropertyOp25
 70
     1
102
RTVSPropertyOp26
 70
     1
102
RTVSPropertyOp27
 70
     1
102
RTVSPropertyOp28
 70
     1
102
RTVSPropertyOp29
 70
     1
102
RTVSPropertyOp30
 70
     1
102
RTVSPropertyOp31
 70
     1
102
RTVSPropertyOp32
 70
     1
102
RTVSPropertyOp33
 70
     1
102
RTVSPropertyOp34
 70
     1
102
RTVSPropertyOp35
 70
     1
102
RTVSPropertyOp36
 70
     1
102
RTVSPropertyOp37
 70
     1
102
RTVSPropertyOp38
 70
     1
102
RTVSPropertyOp39
 70
     1
102
RTVSPropertyOp40
 70
     1
102
RTVSPropertyOp41
 70
     1
102
RTVSPropertyOp42
 70
     1
102
RTVSPropertyOp43
 70
     1
102
RTVSPropertyOp44
 70
     1
102
RTVSPropertyOp45
 70
     1
102
RTVSPropertyOp46
 70
     1
102
RTVSPropertyOp47
 70
     1
102
RTVSPropertyOp48
 70
     1
102
RTVSPropertyOp49
 70
     1
102
RTVSPropertyOp50
 70
     1
102
RTVSPropertyOp51
 70
     0
102
RTVSPropertyOp52
 70
     0
102
RTVSPropertyOp53
 70
     1
102
RTVSPropertyOp54
 70
     1
102
RTVSPropertyOp55
 70
     1
102
RTVSPropertyOp56
 70
     1
102
RTVSPropertyOp57
 70
     1
102
RTVSPost2010Prop28
280
     0
102
RTVSPost2010PropOp28
 70
     1
102
RTVSPost2010Prop29
280
     1
102
RTVSPost2010PropOp29
 70
     1
102
RTVSPost2010Prop30
280
     1
102
RTVSPost2010PropOp30
 70
     1
102
RTVSPost2010Prop31
280
     0
102
RTVSPost2010PropOp31
 70
     1
102
RTVSPost2010Prop32
280
     0
102
RTVSPost2010PropOp32
 70
     1
102
RTVSPost2010Prop33
280
     0
102
RTVSPost2010PropOp33
 70
     1
102
RTVSPost2010Prop34
280
     0
102
RTVSPost2010PropOp34
 70
     1
102
RTVSPost2010Prop35
280
     0
102
RTVSPost2010PropOp35
 70
     1
102
RTVSPost2010Prop36
280
     0
102
RTVSPost2010PropOp36
 70
     1
102
RTVSPost2010Prop37
 90
       50
102
RTVSPost2010PropOp37
 70
     1
102
RTVSPost2010Prop38
140
0.0
102
RTVSPost2010PropOp38
 70
     1
102
RTVSPost2010Prop39
140
1.0
102
RTVSPost2010PropOp39
 70
     1
102
RTVSPost2010Prop40
 90
        0
102
RTVSPost2010PropOp40
 70
     1
102
RTVSPost2010Prop41ColorIndex
 90
       18
102
RTVSPost2010Prop41ColorRGB
 90
        0
102
RTVSPost2010PropOp41
 70
     1
102
RTVSPost2010Prop42
 90
       50
102
RTVSPost2010PropOp42
 70
     1
102
RTVSPost2010Prop43
 90
        3
102
RTVSPost2010PropOp43
 70
     1
102
RTVSPost2010Prop44ColorIndex
 90
        5
102
RTVSPost2010Prop44ColorRGB
 90
      255
102
RTVSPost2010PropOp44
 70
     1
102
RTVSPost2010Prop45
280
     0
102
RTVSPost2010PropOp45
 70
     1
102
RTVSPost2010Prop46
 90
       50
102
RTVSPost2010PropOp46
 70
     1
102
RTVSPost2010Prop47
 90
       50
102
RTVSPost2010PropOp47
 70
     1
102
RTVSPost2010Prop48
 90
       50
102
RTVSPost2010PropOp48
 70
     1
102
RTVSPost2010Prop49
280
     0
102
RTVSPost2010PropOp49
 70
     1
102
RTVSPost2010Prop50
 90
       50
102
RTVSPost2010PropOp50
 70
     1
102
RTVSPost2010Prop51ColorIndex
 90
      256
102
RTVSPost2010Prop51ColorRGB
 90
-16777216
102
RTVSPost2010PropOp51
 70
     0
102
RTVSPost2010Prop52
140
1.0
102
RTVSPost2010PropOp52
 70
     0
102
RTVSPost2010Prop53
 90
        2
102
RTVSPost2010PropOp53
 70
     1
102
RTVSPost2010Prop54
  1
strokes_ogs.tif
102
RTVSPost2010PropOp54
 70
     1
102
RTVSPost2010Prop55
280
     0
102
RTVSPost2010PropOp55
 70
     1
102
RTVSPost2010Prop56
140
1.0
102
RTVSPost2010PropOp56
 70
     1
102
RTVSPost2010Prop57
140
1.0
102
RTVSPost2010PropOp57
 70
     1
  0
XRECORD
  5
42E
102
{ACAD_REACTORS
330
42D
102
}
330
42D
100
AcDbXrecord
280
     1
102
RTVSPropertyOp0
 70
     1
102
RTVSPropertyOp1
 70
     1
102
RTVSPropertyOp2
 70
     1
102
RTVSPropertyOp3
 70
     1
102
RTVSPropertyOp4
 70
     1
102
RTVSPropertyOp5
 70
     1
102
RTVSPropertyOp6
 70
     1
102
RTVSPropertyOp7
 70
     1
102
RTVSPropertyOp8
 70
     1
102
RTVSPropertyOp9
 70
     1
102
RTVSPropertyOp10
 70
     1
102
RTVSPropertyOp11
 70
     1
102
RTVSPropertyOp12
 70
     1
102
RTVSPropertyOp13
 70
     1
102
RTVSPropertyOp14
 70
     1
102
RTVSPropertyOp15
 70
     1
102
RTVSPropertyOp16
 70
     1
102
RTVSPropertyOp17
 70
     1
102
RTVSPropertyOp18
 70
     1
102
RTVSPropertyOp19
 70
     1
102
RTVSPropertyOp20
 70
     1
102
RTVSPropertyOp21
 70
     1
102
RTVSPropertyOp22
 70
     1
102
RTVSPropertyOp23
 70
     1
102
RTVSPropertyOp24
 70
     1
102
RTVSPropertyOp25
 70
     1
102
RTVSPropertyOp26
 70
     1
102
RTVSPropertyOp27
 70
     1
102
RTVSPropertyOp28
 70
     1
102
RTVSPropertyOp29
 70
     1
102
RTVSPropertyOp30
 70
     1
102
RTVSPropertyOp31
 70
     1
102
RTVSPropertyOp32
 70
     1
102
RTVSPropertyOp33
 70
     1
102
RTVSPropertyOp34
 70
     1
102
RTVSPropertyOp35
 70
     1
102
RTVSPropertyOp36
 70
     1
102
RTVSPropertyOp37
 70
     1
102
RTVSPropertyOp38
 70
     1
102
RTVSPropertyOp39
 70
     1
102
RTVSPropertyOp40
 70
     1
102
RTVSPropertyOp41
 70
     1
102
RTVSPropertyOp42
 70
     1
102
RTVSPropertyOp43
 70
     1
102
RTVSPropertyOp44
 70
     1
102
RTVSPropertyOp45
 70
     1
102
RTVSPropertyOp46
 70
     1
102
RTVSPropertyOp47
 70
     1
102
RTVSPropertyOp48
 70
     1
102
RTVSPropertyOp49
 70
     1
102
RTVSPropertyOp50
 70
     1
102
RTVSPropertyOp51
 70
     0
102
RTVSPropertyOp52
 70
     0
102
RTVSPropertyOp53
 70
     1
102
RTVSPropertyOp54
 70
     1
102
RTVSPropertyOp55
 70
     1
102
RTVSPropertyOp56
 70
     1
102
RTVSPropertyOp57
 70
     1
102
RTVSPost2010Prop28
280
     0
102
RTVSPost2010PropOp28
 70
     1
102
RTVSPost2010Prop29
280
     1
102
RTVSPost2010PropOp29
 70
     1
102
RTVSPost2010Prop30
280
     1
102
RTVSPost2010PropOp30
 70
     1
102
RTVSPost2010Prop31
280
     0
102
RTVSPost2010PropOp31
 70
     1
102
RTVSPost2010Prop32
280
     0
102
RTVSPost2010PropOp32
 70
     1
102
RTVSPost2010Prop33
280
     0
102
RTVSPost2010PropOp33
 70
     1
102
RTVSPost2010Prop34
280
     0
102
RTVSPost2010PropOp34
 70
     1
102
RTVSPost2010Prop35
280
     0
102
RTVSPost2010PropOp35
 70
     1
102
RTVSPost2010Prop36
280
     0
102
RTVSPost2010PropOp36
 70
     1
102
RTVSPost2010Prop37
 90
       50
102
RTVSPost2010PropOp37
 70
     1
102
RTVSPost2010Prop38
140
0.0
102
RTVSPost2010PropOp38
 70
     1
102
RTVSPost2010Prop39
140
1.0
102
RTVSPost2010PropOp39
 70
     1
102
RTVSPost2010Prop40
 90
        0
102
RTVSPost2010PropOp40
 70
     1
102
RTVSPost2010Prop41ColorIndex
 90
       18
102
RTVSPost2010Prop41ColorRGB
 90
        0
102
RTVSPost2010PropOp41
 70
     1
102
RTVSPost2010Prop42
 90
       50
102
RTVSPost2010PropOp42
 70
     1
102
RTVSPost2010Prop43
 90
        3
102
RTVSPost2010PropOp43
 70
     1
102
RTVSPost2010Prop44ColorIndex
 90
        5
102
RTVSPost2010Prop44ColorRGB
 90
      255
102
RTVSPost2010PropOp44
 70
     1
102
RTVSPost2010Prop45
280
     0
102
RTVSPost2010PropOp45
 70
     1
102
RTVSPost2010Prop46
 90
       50
102
RTVSPost2010PropOp46
 70
     1
102
RTVSPost2010Prop47
 90
       50
102
RTVSPost2010PropOp47
 70
     1
102
RTVSPost2010Prop48
 90
       50
102
RTVSPost2010PropOp48
 70
     1
102
RTVSPost2010Prop49
280
     0
102
RTVSPost2010PropOp49
 70
     1
102
RTVSPost2010Prop50
 90
       50
102
RTVSPost2010PropOp50
 70
     1
102
RTVSPost2010Prop51ColorIndex
 90
      256
102
RTVSPost2010Prop51ColorRGB
 90
-16777216
102
RTVSPost2010PropOp51
 70
     0
102
RTVSPost2010Prop52
140
1.0
102
RTVSPost2010PropOp52
 70
     0
102
RTVSPost2010Prop53
 90
        2
102
RTVSPost2010PropOp53
 70
     1
102
RTVSPost2010Prop54
  1
strokes_ogs.tif
102
RTVSPost2010PropOp54
 70
     1
102
RTVSPost2010Prop55
280
     0
102
RTVSPost2010PropOp55
 70
     1
102
RTVSPost2010Prop56
140
1.0
102
RTVSPost2010PropOp56
 70
     1
102
RTVSPost2010Prop57
140
1.0
102
RTVSPost2010PropOp57
 70
     1
  0
XRECORD
  5
442
102
{ACAD_REACTORS
330
441
102
}
330
441
100
AcDbXrecord
280
     1
102
RTVSPropertyOp0
 70
     0
102
RTVSPropertyOp1
 70
     0
102
RTVSPropertyOp2
 70
     0
102
RTVSPropertyOp3
 70
     0
102
RTVSPropertyOp4
 70
     0
102
RTVSPropertyOp5
 70
     0
102
RTVSPropertyOp6
 70
     0
102
RTVSPropertyOp7
 70
     0
102
RTVSPropertyOp8
 70
     0
102
RTVSPropertyOp9
 70
     0
102
RTVSPropertyOp10
 70
     0
102
RTVSPropertyOp11
 70
     0
102
RTVSPropertyOp12
 70
     0
102
RTVSPropertyOp13
 70
     0
102
RTVSPropertyOp14
 70
     2
102
RTVSPropertyOp15
 70
     0
102
RTVSPropertyOp16
 70
     0
102
RTVSPropertyOp17
 70
     0
102
RTVSPropertyOp18
 70
     0
102
RTVSPropertyOp19
 70
     0
102
RTVSPropertyOp20
 70
     0
102
RTVSPropertyOp21
 70
     0
102
RTVSPropertyOp22
 70
     0
102
RTVSPropertyOp23
 70
     0
102
RTVSPropertyOp24
 70
     0
102
RTVSPropertyOp25
 70
     0
102
RTVSPropertyOp26
 70
     0
102
RTVSPropertyOp27
 70
     0
102
RTVSPropertyOp28
 70
     0
102
RTVSPropertyOp29
 70
     0
102
RTVSPropertyOp30
 70
     0
102
RTVSPropertyOp31
 70
     0
102
RTVSPropertyOp32
 70
     0
102
RTVSPropertyOp33
 70
     0
102
RTVSPropertyOp34
 70
     0
102
RTVSPropertyOp35
 70
     0
102
RTVSPropertyOp36
 70
     0
102
RTVSPropertyOp37
 70
     0
102
RTVSPropertyOp38
 70
     0
102
RTVSPropertyOp39
 70
     0
102
RTVSPropertyOp40
 70
     0
102
RTVSPropertyOp41
 70
     0
102
RTVSPropertyOp42
 70
     0
102
RTVSPropertyOp43
 70
     0
102
RTVSPropertyOp44
 70
     0
102
RTVSPropertyOp45
 70
     0
102
RTVSPropertyOp46
 70
     0
102
RTVSPropertyOp47
 70
     0
102
RTVSPropertyOp48
 70
     0
102
RTVSPropertyOp49
 70
     0
102
RTVSPropertyOp50
 70
     0
102
RTVSPropertyOp51
 70
     0
102
RTVSPropertyOp52
 70
     0
102
RTVSPropertyOp53
 70
     0
102
RTVSPropertyOp54
 70
     0
102
RTVSPropertyOp55
 70
     0
102
RTVSPropertyOp56
 70
     0
102
RTVSPropertyOp57
 70
     0
102
RTVSPost2010Prop28
280
     0
102
RTVSPost2010PropOp28
 70
     0
102
RTVSPost2010Prop29
280
     1
102
RTVSPost2010PropOp29
 70
     0
102
RTVSPost2010Prop30
280
     1
102
RTVSPost2010PropOp30
 70
     0
102
RTVSPost2010Prop31
280
     0
102
RTVSPost2010PropOp31
 70
     0
102
RTVSPost2010Prop32
280
     0
102
RTVSPost2010PropOp32
 70
     0
102
RTVSPost2010Prop33
280
     0
102
RTVSPost2010PropOp33
 70
     0
102
RTVSPost2010Prop34
280
     0
102
RTVSPost2010PropOp34
 70
     0
102
RTVSPost2010Prop35
280
     0
102
RTVSPost2010PropOp35
 70
     0
102
RTVSPost2010Prop36
280
     0
102
RTVSPost2010PropOp36
 70
     0
102
RTVSPost2010Prop37
 90
       50
102
RTVSPost2010PropOp37
 70
     0
102
RTVSPost2010Prop38
140
0.0
102
RTVSPost2010PropOp38
 70
     0
102
RTVSPost2010Prop39
140
1.0
102
RTVSPost2010PropOp39
 70
     0
102
RTVSPost2010Prop40
 90
        0
102
RTVSPost2010PropOp40
 70
     0
102
RTVSPost2010Prop41ColorIndex
 90
       18
102
RTVSPost2010Prop41ColorRGB
 90
        0
102
RTVSPost2010PropOp41
 70
     0
102
RTVSPost2010Prop42
 90
       50
102
RTVSPost2010PropOp42
 70
     0
102
RTVSPost2010Prop43
 90
        3
102
RTVSPost2010PropOp43
 70
     0
102
RTVSPost2010Prop44ColorIndex
 90
        5
102
RTVSPost2010Prop44ColorRGB
 90
      255
102
RTVSPost2010PropOp44
 70
     0
102
RTVSPost2010Prop45
280
     0
102
RTVSPost2010PropOp45
 70
     0
102
RTVSPost2010Prop46
 90
       50
102
RTVSPost2010PropOp46
 70
     0
102
RTVSPost2010Prop47
 90
       50
102
RTVSPost2010PropOp47
 70
     0
102
RTVSPost2010Prop48
 90
       50
102
RTVSPost2010PropOp48
 70
     0
102
RTVSPost2010Prop49
280
     0
102
RTVSPost2010PropOp49
 70
     0
102
RTVSPost2010Prop50
 90
       50
102
RTVSPost2010PropOp50
 70
     0
102
RTVSPost2010Prop51ColorIndex
 90
      256
102
RTVSPost2010Prop51ColorRGB
 90
-16777216
102
RTVSPost2010PropOp51
 70
     0
102
RTVSPost2010Prop52
140
1.0
102
RTVSPost2010PropOp52
 70
     0
102
RTVSPost2010Prop53
 90
        2
102
RTVSPost2010PropOp53
 70
     0
102
RTVSPost2010Prop54
  1
strokes_ogs.tif
102
RTVSPost2010PropOp54
 70
     0
102
RTVSPost2010Prop55
280
     0
102
RTVSPost2010PropOp55
 70
     0
102
RTVSPost2010Prop56
140
1.0
102
RTVSPost2010PropOp56
 70
     0
102
RTVSPost2010Prop57
140
1.0
102
RTVSPost2010PropOp57
 70
     0
  0
XRECORD
  5
43C
102
{ACAD_REACTORS
330
43B
102
}
330
43B
100
AcDbXrecord
280
     1
102
RTVSPropertyOp0
 70
     1
102
RTVSPropertyOp1
 70
     1
102
RTVSPropertyOp2
 70
     1
102
RTVSPropertyOp3
 70
     1
102
RTVSPropertyOp4
 70
     1
102
RTVSPropertyOp5
 70
     1
102
RTVSPropertyOp6
 70
     1
102
RTVSPropertyOp7
 70
     1
102
RTVSPropertyOp8
 70
     1
102
RTVSPropertyOp9
 70
     1
102
RTVSPropertyOp10
 70
     1
102
RTVSPropertyOp11
 70
     1
102
RTVSPropertyOp12
 70
     1
102
RTVSPropertyOp13
 70
     1
102
RTVSPropertyOp14
 70
     1
102
RTVSPropertyOp15
 70
     1
102
RTVSPropertyOp16
 70
     1
102
RTVSPropertyOp17
 70
     1
102
RTVSPropertyOp18
 70
     1
102
RTVSPropertyOp19
 70
     1
102
RTVSPropertyOp20
 70
     1
102
RTVSPropertyOp21
 70
     1
102
RTVSPropertyOp22
 70
     1
102
RTVSPropertyOp23
 70
     1
102
RTVSPropertyOp24
 70
     1
102
RTVSPropertyOp25
 70
     1
102
RTVSPropertyOp26
 70
     1
102
RTVSPropertyOp27
 70
     1
102
RTVSPropertyOp28
 70
     1
102
RTVSPropertyOp29
 70
     1
102
RTVSPropertyOp30
 70
     1
102
RTVSPropertyOp31
 70
     1
102
RTVSPropertyOp32
 70
     1
102
RTVSPropertyOp33
 70
     1
102
RTVSPropertyOp34
 70
     1
102
RTVSPropertyOp35
 70
     1
102
RTVSPropertyOp36
 70
     1
102
RTVSPropertyOp37
 70
     1
102
RTVSPropertyOp38
 70
     1
102
RTVSPropertyOp39
 70
     1
102
RTVSPropertyOp40
 70
     1
102
RTVSPropertyOp41
 70
     1
102
RTVSPropertyOp42
 70
     1
102
RTVSPropertyOp43
 70
     1
102
RTVSPropertyOp44
 70
     1
102
RTVSPropertyOp45
 70
     1
102
RTVSPropertyOp46
 70
     1
102
RTVSPropertyOp47
 70
     1
102
RTVSPropertyOp48
 70
     1
102
RTVSPropertyOp49
 70
     1
102
RTVSPropertyOp50
 70
     1
102
RTVSPropertyOp51
 70
     0
102
RTVSPropertyOp52
 70
     0
102
RTVSPropertyOp53
 70
     1
102
RTVSPropertyOp54
 70
     1
102
RTVSPropertyOp55
 70
     1
102
RTVSPropertyOp56
 70
     1
102
RTVSPropertyOp57
 70
     1
102
RTVSPost2010Prop28
280
     0
102
RTVSPost2010PropOp28
 70
     1
102
RTVSPost2010Prop29
280
     1
102
RTVSPost2010PropOp29
 70
     1
102
RTVSPost2010Prop30
280
     1
102
RTVSPost2010PropOp30
 70
     1
102
RTVSPost2010Prop31
280
     0
102
RTVSPost2010PropOp31
 70
     1
102
RTVSPost2010Prop32
280
     0
102
RTVSPost2010PropOp32
 70
     1
102
RTVSPost2010Prop33
280
     0
102
RTVSPost2010PropOp33
 70
     1
102
RTVSPost2010Prop34
280
     0
102
RTVSPost2010PropOp34
 70
     1
102
RTVSPost2010Prop35
280
     0
102
RTVSPost2010PropOp35
 70
     1
102
RTVSPost2010Prop36
280
     0
102
RTVSPost2010PropOp36
 70
     1
102
RTVSPost2010Prop37
 90
       50
102
RTVSPost2010PropOp37
 70
     1
102
RTVSPost2010Prop38
140
0.0
102
RTVSPost2010PropOp38
 70
     1
102
RTVSPost2010Prop39
140
1.0
102
RTVSPost2010PropOp39
 70
     1
102
RTVSPost2010Prop40
 90
        0
102
RTVSPost2010PropOp40
 70
     1
102
RTVSPost2010Prop41ColorIndex
 90
       18
102
RTVSPost2010Prop41ColorRGB
 90
        0
102
RTVSPost2010PropOp41
 70
     1
102
RTVSPost2010Prop42
 90
       50
102
RTVSPost2010PropOp42
 70
     1
102
RTVSPost2010Prop43
 90
        3
102
RTVSPost2010PropOp43
 70
     1
102
RTVSPost2010Prop44ColorIndex
 90
        5
102
RTVSPost2010Prop44ColorRGB
 90
      255
102
RTVSPost2010PropOp44
 70
     1
102
RTVSPost2010Prop45
280
     0
102
RTVSPost2010PropOp45
 70
     1
102
RTVSPost2010Prop46
 90
       50
102
RTVSPost2010PropOp46
 70
     1
102
RTVSPost2010Prop47
 90
       50
102
RTVSPost2010PropOp47
 70
     1
102
RTVSPost2010Prop48
 90
       50
102
RTVSPost2010PropOp48
 70
     1
102
RTVSPost2010Prop49
280
     0
102
RTVSPost2010PropOp49
 70
     1
102
RTVSPost2010Prop50
 90
       50
102
RTVSPost2010PropOp50
 70
     1
102
RTVSPost2010Prop51ColorIndex
 90
      256
102
RTVSPost2010Prop51ColorRGB
 90
-16777216
102
RTVSPost2010PropOp51
 70
     0
102
RTVSPost2010Prop52
140
1.0
102
RTVSPost2010PropOp52
 70
     0
102
RTVSPost2010Prop53
 90
        2
102
RTVSPost2010PropOp53
 70
     1
102
RTVSPost2010Prop54
  1
strokes_ogs.tif
102
RTVSPost2010PropOp54
 70
     1
102
RTVSPost2010Prop55
280
     0
102
RTVSPost2010PropOp55
 70
     1
102
RTVSPost2010Prop56
140
1.0
102
RTVSPost2010PropOp56
 70
     1
102
RTVSPost2010Prop57
140
1.0
102
RTVSPost2010PropOp57
 70
     1
  0
XRECORD
  5
444
102
{ACAD_REACTORS
330
443
102
}
330
443
100
AcDbXrecord
280
     1
102
RTVSPropertyOp0
 70
     0
102
RTVSPropertyOp1
 70
     0
102
RTVSPropertyOp2
 70
     0
102
RTVSPropertyOp3
 70
     0
102
RTVSPropertyOp4
 70
     0
102
RTVSPropertyOp5
 70
     0
102
RTVSPropertyOp6
 70
     0
102
RTVSPropertyOp7
 70
     0
102
RTVSPropertyOp8
 70
     0
102
RTVSPropertyOp9
 70
     0
102
RTVSPropertyOp10
 70
     0
102
RTVSPropertyOp11
 70
     0
102
RTVSPropertyOp12
 70
     0
102
RTVSPropertyOp13
 70
     0
102
RTVSPropertyOp14
 70
     2
102
RTVSPropertyOp15
 70
     0
102
RTVSPropertyOp16
 70
     0
102
RTVSPropertyOp17
 70
     0
102
RTVSPropertyOp18
 70
     0
102
RTVSPropertyOp19
 70
     0
102
RTVSPropertyOp20
 70
     0
102
RTVSPropertyOp21
 70
     0
102
RTVSPropertyOp22
 70
     0
102
RTVSPropertyOp23
 70
     0
102
RTVSPropertyOp24
 70
     0
102
RTVSPropertyOp25
 70
     0
102
RTVSPropertyOp26
 70
     0
102
RTVSPropertyOp27
 70
     0
102
RTVSPropertyOp28
 70
     0
102
RTVSPropertyOp29
 70
     0
102
RTVSPropertyOp30
 70
     0
102
RTVSPropertyOp31
 70
     0
102
RTVSPropertyOp32
 70
     0
102
RTVSPropertyOp33
 70
     0
102
RTVSPropertyOp34
 70
     0
102
RTVSPropertyOp35
 70
     0
102
RTVSPropertyOp36
 70
     0
102
RTVSPropertyOp37
 70
     0
102
RTVSPropertyOp38
 70
     0
102
RTVSPropertyOp39
 70
     0
102
RTVSPropertyOp40
 70
     0
102
RTVSPropertyOp41
 70
     0
102
RTVSPropertyOp42
 70
     0
102
RTVSPropertyOp43
 70
     0
102
RTVSPropertyOp44
 70
     0
102
RTVSPropertyOp45
 70
     0
102
RTVSPropertyOp46
 70
     0
102
RTVSPropertyOp47
 70
     0
102
RTVSPropertyOp48
 70
     0
102
RTVSPropertyOp49
 70
     0
102
RTVSPropertyOp50
 70
     0
102
RTVSPropertyOp51
 70
     0
102
RTVSPropertyOp52
 70
     0
102
RTVSPropertyOp53
 70
     0
102
RTVSPropertyOp54
 70
     0
102
RTVSPropertyOp55
 70
     0
102
RTVSPropertyOp56
 70
     0
102
RTVSPropertyOp57
 70
     0
102
RTVSPost2010Prop28
280
     0
102
RTVSPost2010PropOp28
 70
     0
102
RTVSPost2010Prop29
280
     1
102
RTVSPost2010PropOp29
 70
     0
102
RTVSPost2010Prop30
280
     1
102
RTVSPost2010PropOp30
 70
     0
102
RTVSPost2010Prop31
280
     0
102
RTVSPost2010PropOp31
 70
     0
102
RTVSPost2010Prop32
280
     0
102
RTVSPost2010PropOp32
 70
     0
102
RTVSPost2010Prop33
280
     0
102
RTVSPost2010PropOp33
 70
     0
102
RTVSPost2010Prop34
280
     0
102
RTVSPost2010PropOp34
 70
     0
102
RTVSPost2010Prop35
280
     0
102
RTVSPost2010PropOp35
 70
     0
102
RTVSPost2010Prop36
280
     0
102
RTVSPost2010PropOp36
 70
     0
102
RTVSPost2010Prop37
 90
       50
102
RTVSPost2010PropOp37
 70
     0
102
RTVSPost2010Prop38
140
0.0
102
RTVSPost2010PropOp38
 70
     0
102
RTVSPost2010Prop39
140
1.0
102
RTVSPost2010PropOp39
 70
     0
102
RTVSPost2010Prop40
 90
        0
102
RTVSPost2010PropOp40
 70
     0
102
RTVSPost2010Prop41ColorIndex
 90
       18
102
RTVSPost2010Prop41ColorRGB
 90
        0
102
RTVSPost2010PropOp41
 70
     0
102
RTVSPost2010Prop42
 90
       50
102
RTVSPost2010PropOp42
 70
     0
102
RTVSPost2010Prop43
 90
        3
102
RTVSPost2010PropOp43
 70
     0
102
RTVSPost2010Prop44ColorIndex
 90
        5
102
RTVSPost2010Prop44ColorRGB
 90
      255
102
RTVSPost2010PropOp44
 70
     0
102
RTVSPost2010Prop45
280
     0
102
RTVSPost2010PropOp45
 70
     0
102
RTVSPost2010Prop46
 90
       50
102
RTVSPost2010PropOp46
 70
     0
102
RTVSPost2010Prop47
 90
       50
102
RTVSPost2010PropOp47
 70
     0
102
RTVSPost2010Prop48
 90
       50
102
RTVSPost2010PropOp48
 70
     0
102
RTVSPost2010Prop49
280
     0
102
RTVSPost2010PropOp49
 70
     0
102
RTVSPost2010Prop50
 90
       50
102
RTVSPost2010PropOp50
 70
     0
102
RTVSPost2010Prop51ColorIndex
 90
      256
102
RTVSPost2010Prop51ColorRGB
 90
-16777216
102
RTVSPost2010PropOp51
 70
     0
102
RTVSPost2010Prop52
140
1.0
102
RTVSPost2010PropOp52
 70
     0
102
RTVSPost2010Prop53
 90
        2
102
RTVSPost2010PropOp53
 70
     0
102
RTVSPost2010Prop54
  1
strokes_ogs.tif
102
RTVSPost2010PropOp54
 70
     0
102
RTVSPost2010Prop55
280
     0
102
RTVSPost2010PropOp55
 70
     0
102
RTVSPost2010Prop56
140
1.0
102
RTVSPost2010PropOp56
 70
     0
102
RTVSPost2010Prop57
140
1.0
102
RTVSPost2010PropOp57
 70
     0
  0
XRECORD
  5
432
102
{ACAD_REACTORS
330
431
102
}
330
431
100
AcDbXrecord
280
     1
102
RTVSPropertyOp0
 70
     1
102
RTVSPropertyOp1
 70
     1
102
RTVSPropertyOp2
 70
     1
102
RTVSPropertyOp3
 70
     1
102
RTVSPropertyOp4
 70
     1
102
RTVSPropertyOp5
 70
     1
102
RTVSPropertyOp6
 70
     1
102
RTVSPropertyOp7
 70
     1
102
RTVSPropertyOp8
 70
     1
102
RTVSPropertyOp9
 70
     1
102
RTVSPropertyOp10
 70
     1
102
RTVSPropertyOp11
 70
     1
102
RTVSPropertyOp12
 70
     1
102
RTVSPropertyOp13
 70
     1
102
RTVSPropertyOp14
 70
     1
102
RTVSPropertyOp15
 70
     1
102
RTVSPropertyOp16
 70
     1
102
RTVSPropertyOp17
 70
     1
102
RTVSPropertyOp18
 70
     1
102
RTVSPropertyOp19
 70
     1
102
RTVSPropertyOp20
 70
     1
102
RTVSPropertyOp21
 70
     1
102
RTVSPropertyOp22
 70
     1
102
RTVSPropertyOp23
 70
     1
102
RTVSPropertyOp24
 70
     1
102
RTVSPropertyOp25
 70
     1
102
RTVSPropertyOp26
 70
     1
102
RTVSPropertyOp27
 70
     1
102
RTVSPropertyOp28
 70
     1
102
RTVSPropertyOp29
 70
     1
102
RTVSPropertyOp30
 70
     1
102
RTVSPropertyOp31
 70
     1
102
RTVSPropertyOp32
 70
     1
102
RTVSPropertyOp33
 70
     1
102
RTVSPropertyOp34
 70
     1
102
RTVSPropertyOp35
 70
     1
102
RTVSPropertyOp36
 70
     1
102
RTVSPropertyOp37
 70
     1
102
RTVSPropertyOp38
 70
     1
102
RTVSPropertyOp39
 70
     1
102
RTVSPropertyOp40
 70
     1
102
RTVSPropertyOp41
 70
     1
102
RTVSPropertyOp42
 70
     1
102
RTVSPropertyOp43
 70
     1
102
RTVSPropertyOp44
 70
     1
102
RTVSPropertyOp45
 70
     1
102
RTVSPropertyOp46
 70
     1
102
RTVSPropertyOp47
 70
     1
102
RTVSPropertyOp48
 70
     1
102
RTVSPropertyOp49
 70
     1
102
RTVSPropertyOp50
 70
     1
102
RTVSPropertyOp51
 70
     0
102
RTVSPropertyOp52
 70
     0
102
RTVSPropertyOp53
 70
     1
102
RTVSPropertyOp54
 70
     1
102
RTVSPropertyOp55
 70
     1
102
RTVSPropertyOp56
 70
     1
102
RTVSPropertyOp57
 70
     1
102
RTVSPost2010Prop28
280
     0
102
RTVSPost2010PropOp28
 70
     1
102
RTVSPost2010Prop29
280
     1
102
RTVSPost2010PropOp29
 70
     1
102
RTVSPost2010Prop30
280
     1
102
RTVSPost2010PropOp30
 70
     1
102
RTVSPost2010Prop31
280
     0
102
RTVSPost2010PropOp31
 70
     1
102
RTVSPost2010Prop32
280
     0
102
RTVSPost2010PropOp32
 70
     1
102
RTVSPost2010Prop33
280
     0
102
RTVSPost2010PropOp33
 70
     1
102
RTVSPost2010Prop34
280
     0
102
RTVSPost2010PropOp34
 70
     1
102
RTVSPost2010Prop35
280
     0
102
RTVSPost2010PropOp35
 70
     1
102
RTVSPost2010Prop36
280
     0
102
RTVSPost2010PropOp36
 70
     1
102
RTVSPost2010Prop37
 90
       50
102
RTVSPost2010PropOp37
 70
     1
102
RTVSPost2010Prop38
140
0.0
102
RTVSPost2010PropOp38
 70
     1
102
RTVSPost2010Prop39
140
1.0
102
RTVSPost2010PropOp39
 70
     1
102
RTVSPost2010Prop40
 90
        0
102
RTVSPost2010PropOp40
 70
     1
102
RTVSPost2010Prop41ColorIndex
 90
       18
102
RTVSPost2010Prop41ColorRGB
 90
        0
102
RTVSPost2010PropOp41
 70
     1
102
RTVSPost2010Prop42
 90
       50
102
RTVSPost2010PropOp42
 70
     1
102
RTVSPost2010Prop43
 90
        3
102
RTVSPost2010PropOp43
 70
     1
102
RTVSPost2010Prop44ColorIndex
 90
        5
102
RTVSPost2010Prop44ColorRGB
 90
      255
102
RTVSPost2010PropOp44
 70
     1
102
RTVSPost2010Prop45
280
     0
102
RTVSPost2010PropOp45
 70
     1
102
RTVSPost2010Prop46
 90
       50
102
RTVSPost2010PropOp46
 70
     1
102
RTVSPost2010Prop47
 90
       50
102
RTVSPost2010PropOp47
 70
     1
102
RTVSPost2010Prop48
 90
       50
102
RTVSPost2010PropOp48
 70
     1
102
RTVSPost2010Prop49
280
     0
102
RTVSPost2010PropOp49
 70
     1
102
RTVSPost2010Prop50
 90
       50
102
RTVSPost2010PropOp50
 70
     1
102
RTVSPost2010Prop51ColorIndex
 90
      256
102
RTVSPost2010Prop51ColorRGB
 90
-16777216
102
RTVSPost2010PropOp51
 70
     0
102
RTVSPost2010Prop52
140
1.0
102
RTVSPost2010PropOp52
 70
     0
102
RTVSPost2010Prop53
 90
        2
102
RTVSPost2010PropOp53
 70
     1
102
RTVSPost2010Prop54
  1
strokes_ogs.tif
102
RTVSPost2010PropOp54
 70
     1
102
RTVSPost2010Prop55
280
     0
102
RTVSPost2010PropOp55
 70
     1
102
RTVSPost2010Prop56
140
1.0
102
RTVSPost2010PropOp56
 70
     1
102
RTVSPost2010Prop57
140
1.0
102
RTVSPost2010PropOp57
 70
     1
  0
XRECORD
  5
450
102
{ACAD_REACTORS
330
44F
102
}
330
44F
100
AcDbXrecord
280
     1
102
RTVSPropertyOp0
 70
     1
102
RTVSPropertyOp1
 70
     1
102
RTVSPropertyOp2
 70
     1
102
RTVSPropertyOp3
 70
     1
102
RTVSPropertyOp4
 70
     1
102
RTVSPropertyOp5
 70
     1
102
RTVSPropertyOp6
 70
     1
102
RTVSPropertyOp7
 70
     1
102
RTVSPropertyOp8
 70
     1
102
RTVSPropertyOp9
 70
     1
102
RTVSPropertyOp10
 70
     1
102
RTVSPropertyOp11
 70
     1
102
RTVSPropertyOp12
 70
     1
102
RTVSPropertyOp13
 70
     1
102
RTVSPropertyOp14
 70
     1
102
RTVSPropertyOp15
 70
     1
102
RTVSPropertyOp16
 70
     1
102
RTVSPropertyOp17
 70
     1
102
RTVSPropertyOp18
 70
     1
102
RTVSPropertyOp19
 70
     1
102
RTVSPropertyOp20
 70
     1
102
RTVSPropertyOp21
 70
     1
102
RTVSPropertyOp22
 70
     1
102
RTVSPropertyOp23
 70
     1
102
RTVSPropertyOp24
 70
     1
102
RTVSPropertyOp25
 70
     1
102
RTVSPropertyOp26
 70
     1
102
RTVSPropertyOp27
 70
     1
102
RTVSPropertyOp28
 70
     1
102
RTVSPropertyOp29
 70
     1
102
RTVSPropertyOp30
 70
     1
102
RTVSPropertyOp31
 70
     1
102
RTVSPropertyOp32
 70
     1
102
RTVSPropertyOp33
 70
     1
102
RTVSPropertyOp34
 70
     1
102
RTVSPropertyOp35
 70
     1
102
RTVSPropertyOp36
 70
     1
102
RTVSPropertyOp37
 70
     1
102
RTVSPropertyOp38
 70
     1
102
RTVSPropertyOp39
 70
     1
102
RTVSPropertyOp40
 70
     1
102
RTVSPropertyOp41
 70
     1
102
RTVSPropertyOp42
 70
     1
102
RTVSPropertyOp43
 70
     1
102
RTVSPropertyOp44
 70
     1
102
RTVSPropertyOp45
 70
     1
102
RTVSPropertyOp46
 70
     1
102
RTVSPropertyOp47
 70
     1
102
RTVSPropertyOp48
 70
     1
102
RTVSPropertyOp49
 70
     1
102
RTVSPropertyOp50
 70
     1
102
RTVSPropertyOp51
 70
     0
102
RTVSPropertyOp52
 70
     0
102
RTVSPropertyOp53
 70
     1
102
RTVSPropertyOp54
 70
     1
102
RTVSPropertyOp55
 70
     1
102
RTVSPropertyOp56
 70
     1
102
RTVSPropertyOp57
 70
     1
102
RTVSPost2010Prop28
280
     0
102
RTVSPost2010PropOp28
 70
     1
102
RTVSPost2010Prop29
280
     1
102
RTVSPost2010PropOp29
 70
     1
102
RTVSPost2010Prop30
280
     1
102
RTVSPost2010PropOp30
 70
     1
102
RTVSPost2010Prop31
280
     0
102
RTVSPost2010PropOp31
 70
     1
102
RTVSPost2010Prop32
280
     0
102
RTVSPost2010PropOp32
 70
     1
102
RTVSPost2010Prop33
280
     0
102
RTVSPost2010PropOp33
 70
     1
102
RTVSPost2010Prop34
280
     0
102
RTVSPost2010PropOp34
 70
     1
102
RTVSPost2010Prop35
280
     0
102
RTVSPost2010PropOp35
 70
     1
102
RTVSPost2010Prop36
280
     0
102
RTVSPost2010PropOp36
 70
     1
102
RTVSPost2010Prop37
 90
       50
102
RTVSPost2010PropOp37
 70
     1
102
RTVSPost2010Prop38
140
0.0
102
RTVSPost2010PropOp38
 70
     1
102
RTVSPost2010Prop39
140
1.0
102
RTVSPost2010PropOp39
 70
     1
102
RTVSPost2010Prop40
 90
        0
102
RTVSPost2010PropOp40
 70
     1
102
RTVSPost2010Prop41ColorIndex
 90
       18
102
RTVSPost2010Prop41ColorRGB
 90
        0
102
RTVSPost2010PropOp41
 70
     1
102
RTVSPost2010Prop42
 90
       50
102
RTVSPost2010PropOp42
 70
     1
102
RTVSPost2010Prop43
 90
        3
102
RTVSPost2010PropOp43
 70
     1
102
RTVSPost2010Prop44ColorIndex
 90
        5
102
RTVSPost2010Prop44ColorRGB
 90
      255
102
RTVSPost2010PropOp44
 70
     1
102
RTVSPost2010Prop45
280
     0
102
RTVSPost2010PropOp45
 70
     1
102
RTVSPost2010Prop46
 90
       50
102
RTVSPost2010PropOp46
 70
     1
102
RTVSPost2010Prop47
 90
       50
102
RTVSPost2010PropOp47
 70
     1
102
RTVSPost2010Prop48
 90
       50
102
RTVSPost2010PropOp48
 70
     1
102
RTVSPost2010Prop49
280
     0
102
RTVSPost2010PropOp49
 70
     1
102
RTVSPost2010Prop50
 90
       50
102
RTVSPost2010PropOp50
 70
     1
102
RTVSPost2010Prop51ColorIndex
 90
      256
102
RTVSPost2010Prop51ColorRGB
 90
-16777216
102
RTVSPost2010PropOp51
 70
     0
102
RTVSPost2010Prop52
140
1.0
102
RTVSPost2010PropOp52
 70
     0
102
RTVSPost2010Prop53
 90
        2
102
RTVSPost2010PropOp53
 70
     1
102
RTVSPost2010Prop54
  1
strokes_ogs.tif
102
RTVSPost2010PropOp54
 70
     1
102
RTVSPost2010Prop55
280
     0
102
RTVSPost2010PropOp55
 70
     1
102
RTVSPost2010Prop56
140
1.0
102
RTVSPost2010PropOp56
 70
     1
102
RTVSPost2010Prop57
140
1.0
102
RTVSPost2010PropOp57
 70
     1
  0
XRECORD
  5
44E
102
{ACAD_REACTORS
330
44D
102
}
330
44D
100
AcDbXrecord
280
     1
102
RTVSPropertyOp0
 70
     1
102
RTVSPropertyOp1
 70
     1
102
RTVSPropertyOp2
 70
     1
102
RTVSPropertyOp3
 70
     1
102
RTVSPropertyOp4
 70
     1
102
RTVSPropertyOp5
 70
     1
102
RTVSPropertyOp6
 70
     1
102
RTVSPropertyOp7
 70
     1
102
RTVSPropertyOp8
 70
     1
102
RTVSPropertyOp9
 70
     1
102
RTVSPropertyOp10
 70
     1
102
RTVSPropertyOp11
 70
     1
102
RTVSPropertyOp12
 70
     1
102
RTVSPropertyOp13
 70
     1
102
RTVSPropertyOp14
 70
     1
102
RTVSPropertyOp15
 70
     1
102
RTVSPropertyOp16
 70
     1
102
RTVSPropertyOp17
 70
     1
102
RTVSPropertyOp18
 70
     1
102
RTVSPropertyOp19
 70
     1
102
RTVSPropertyOp20
 70
     1
102
RTVSPropertyOp21
 70
     1
102
RTVSPropertyOp22
 70
     1
102
RTVSPropertyOp23
 70
     1
102
RTVSPropertyOp24
 70
     1
102
RTVSPropertyOp25
 70
     1
102
RTVSPropertyOp26
 70
     1
102
RTVSPropertyOp27
 70
     1
102
RTVSPropertyOp28
 70
     1
102
RTVSPropertyOp29
 70
     1
102
RTVSPropertyOp30
 70
     1
102
RTVSPropertyOp31
 70
     1
102
RTVSPropertyOp32
 70
     1
102
RTVSPropertyOp33
 70
     1
102
RTVSPropertyOp34
 70
     1
102
RTVSPropertyOp35
 70
     1
102
RTVSPropertyOp36
 70
     1
102
RTVSPropertyOp37
 70
     1
102
RTVSPropertyOp38
 70
     1
102
RTVSPropertyOp39
 70
     1
102
RTVSPropertyOp40
 70
     1
102
RTVSPropertyOp41
 70
     1
102
RTVSPropertyOp42
 70
     1
102
RTVSPropertyOp43
 70
     1
102
RTVSPropertyOp44
 70
     1
102
RTVSPropertyOp45
 70
     1
102
RTVSPropertyOp46
 70
     1
102
RTVSPropertyOp47
 70
     1
102
RTVSPropertyOp48
 70
     1
102
RTVSPropertyOp49
 70
     1
102
RTVSPropertyOp50
 70
     1
102
RTVSPropertyOp51
 70
     0
102
RTVSPropertyOp52
 70
     0
102
RTVSPropertyOp53
 70
     1
102
RTVSPropertyOp54
 70
     1
102
RTVSPropertyOp55
 70
     1
102
RTVSPropertyOp56
 70
     1
102
RTVSPropertyOp57
 70
     1
102
RTVSPost2010Prop28
280
     0
102
RTVSPost2010PropOp28
 70
     1
102
RTVSPost2010Prop29
280
     1
102
RTVSPost2010PropOp29
 70
     1
102
RTVSPost2010Prop30
280
     1
102
RTVSPost2010PropOp30
 70
     1
102
RTVSPost2010Prop31
280
     0
102
RTVSPost2010PropOp31
 70
     1
102
RTVSPost2010Prop32
280
     0
102
RTVSPost2010PropOp32
 70
     1
102
RTVSPost2010Prop33
280
     0
102
RTVSPost2010PropOp33
 70
     1
102
RTVSPost2010Prop34
280
     0
102
RTVSPost2010PropOp34
 70
     1
102
RTVSPost2010Prop35
280
     0
102
RTVSPost2010PropOp35
 70
     1
102
RTVSPost2010Prop36
280
     0
102
RTVSPost2010PropOp36
 70
     1
102
RTVSPost2010Prop37
 90
       50
102
RTVSPost2010PropOp37
 70
     1
102
RTVSPost2010Prop38
140
0.0
102
RTVSPost2010PropOp38
 70
     1
102
RTVSPost2010Prop39
140
1.0
102
RTVSPost2010PropOp39
 70
     1
102
RTVSPost2010Prop40
 90
        0
102
RTVSPost2010PropOp40
 70
     1
102
RTVSPost2010Prop41ColorIndex
 90
       18
102
RTVSPost2010Prop41ColorRGB
 90
        0
102
RTVSPost2010PropOp41
 70
     1
102
RTVSPost2010Prop42
 90
       50
102
RTVSPost2010PropOp42
 70
     1
102
RTVSPost2010Prop43
 90
        3
102
RTVSPost2010PropOp43
 70
     1
102
RTVSPost2010Prop44ColorIndex
 90
        5
102
RTVSPost2010Prop44ColorRGB
 90
      255
102
RTVSPost2010PropOp44
 70
     1
102
RTVSPost2010Prop45
280
     0
102
RTVSPost2010PropOp45
 70
     1
102
RTVSPost2010Prop46
 90
       50
102
RTVSPost2010PropOp46
 70
     1
102
RTVSPost2010Prop47
 90
       50
102
RTVSPost2010PropOp47
 70
     1
102
RTVSPost2010Prop48
 90
       50
102
RTVSPost2010PropOp48
 70
     1
102
RTVSPost2010Prop49
280
     0
102
RTVSPost2010PropOp49
 70
     1
102
RTVSPost2010Prop50
 90
       50
102
RTVSPost2010PropOp50
 70
     1
102
RTVSPost2010Prop51ColorIndex
 90
      256
102
RTVSPost2010Prop51ColorRGB
 90
-16777216
102
RTVSPost2010PropOp51
 70
     0
102
RTVSPost2010Prop52
140
1.0
102
RTVSPost2010PropOp52
 70
     0
102
RTVSPost2010Prop53
 90
        2
102
RTVSPost2010PropOp53
 70
     1
102
RTVSPost2010Prop54
  1
strokes_ogs.tif
102
RTVSPost2010PropOp54
 70
     1
102
RTVSPost2010Prop55
280
     0
102
RTVSPost2010PropOp55
 70
     1
102
RTVSPost2010Prop56
140
1.0
102
RTVSPost2010PropOp56
 70
     1
102
RTVSPost2010Prop57
140
1.0
102
RTVSPost2010PropOp57
 70
     1
  0
XRECORD
  5
448
102
{ACAD_REACTORS
330
447
102
}
330
447
100
AcDbXrecord
280
     1
102
RTVSPropertyOp0
 70
     1
102
RTVSPropertyOp1
 70
     1
102
RTVSPropertyOp2
 70
     1
102
RTVSPropertyOp3
 70
     1
102
RTVSPropertyOp4
 70
     1
102
RTVSPropertyOp5
 70
     1
102
RTVSPropertyOp6
 70
     1
102
RTVSPropertyOp7
 70
     1
102
RTVSPropertyOp8
 70
     1
102
RTVSPropertyOp9
 70
     1
102
RTVSPropertyOp10
 70
     1
102
RTVSPropertyOp11
 70
     1
102
RTVSPropertyOp12
 70
     1
102
RTVSPropertyOp13
 70
     1
102
RTVSPropertyOp14
 70
     1
102
RTVSPropertyOp15
 70
     1
102
RTVSPropertyOp16
 70
     1
102
RTVSPropertyOp17
 70
     1
102
RTVSPropertyOp18
 70
     1
102
RTVSPropertyOp19
 70
     1
102
RTVSPropertyOp20
 70
     1
102
RTVSPropertyOp21
 70
     1
102
RTVSPropertyOp22
 70
     1
102
RTVSPropertyOp23
 70
     1
102
RTVSPropertyOp24
 70
     1
102
RTVSPropertyOp25
 70
     1
102
RTVSPropertyOp26
 70
     1
102
RTVSPropertyOp27
 70
     1
102
RTVSPropertyOp28
 70
     1
102
RTVSPropertyOp29
 70
     1
102
RTVSPropertyOp30
 70
     1
102
RTVSPropertyOp31
 70
     1
102
RTVSPropertyOp32
 70
     1
102
RTVSPropertyOp33
 70
     1
102
RTVSPropertyOp34
 70
     1
102
RTVSPropertyOp35
 70
     1
102
RTVSPropertyOp36
 70
     1
102
RTVSPropertyOp37
 70
     1
102
RTVSPropertyOp38
 70
     1
102
RTVSPropertyOp39
 70
     1
102
RTVSPropertyOp40
 70
     1
102
RTVSPropertyOp41
 70
     1
102
RTVSPropertyOp42
 70
     1
102
RTVSPropertyOp43
 70
     1
102
RTVSPropertyOp44
 70
     1
102
RTVSPropertyOp45
 70
     1
102
RTVSPropertyOp46
 70
     1
102
RTVSPropertyOp47
 70
     1
102
RTVSPropertyOp48
 70
     1
102
RTVSPropertyOp49
 70
     1
102
RTVSPropertyOp50
 70
     1
102
RTVSPropertyOp51
 70
     0
102
RTVSPropertyOp52
 70
     0
102
RTVSPropertyOp53
 70
     1
102
RTVSPropertyOp54
 70
     1
102
RTVSPropertyOp55
 70
     1
102
RTVSPropertyOp56
 70
     1
102
RTVSPropertyOp57
 70
     1
102
RTVSPost2010Prop28
280
     0
102
RTVSPost2010PropOp28
 70
     1
102
RTVSPost2010Prop29
280
     1
102
RTVSPost2010PropOp29
 70
     1
102
RTVSPost2010Prop30
280
     1
102
RTVSPost2010PropOp30
 70
     1
102
RTVSPost2010Prop31
280
     0
102
RTVSPost2010PropOp31
 70
     1
102
RTVSPost2010Prop32
280
     0
102
RTVSPost2010PropOp32
 70
     1
102
RTVSPost2010Prop33
280
     0
102
RTVSPost2010PropOp33
 70
     1
102
RTVSPost2010Prop34
280
     0
102
RTVSPost2010PropOp34
 70
     1
102
RTVSPost2010Prop35
280
     0
102
RTVSPost2010PropOp35
 70
     1
102
RTVSPost2010Prop36
280
     0
102
RTVSPost2010PropOp36
 70
     1
102
RTVSPost2010Prop37
 90
       50
102
RTVSPost2010PropOp37
 70
     1
102
RTVSPost2010Prop38
140
0.0
102
RTVSPost2010PropOp38
 70
     1
102
RTVSPost2010Prop39
140
1.0
102
RTVSPost2010PropOp39
 70
     1
102
RTVSPost2010Prop40
 90
        0
102
RTVSPost2010PropOp40
 70
     1
102
RTVSPost2010Prop41ColorIndex
 90
       18
102
RTVSPost2010Prop41ColorRGB
 90
        0
102
RTVSPost2010PropOp41
 70
     1
102
RTVSPost2010Prop42
 90
       50
102
RTVSPost2010PropOp42
 70
     1
102
RTVSPost2010Prop43
 90
        3
102
RTVSPost2010PropOp43
 70
     1
102
RTVSPost2010Prop44ColorIndex
 90
        5
102
RTVSPost2010Prop44ColorRGB
 90
      255
102
RTVSPost2010PropOp44
 70
     1
102
RTVSPost2010Prop45
280
     0
102
RTVSPost2010PropOp45
 70
     1
102
RTVSPost2010Prop46
 90
       50
102
RTVSPost2010PropOp46
 70
     1
102
RTVSPost2010Prop47
 90
       50
102
RTVSPost2010PropOp47
 70
     1
102
RTVSPost2010Prop48
 90
       50
102
RTVSPost2010PropOp48
 70
     1
102
RTVSPost2010Prop49
280
     0
102
RTVSPost2010PropOp49
 70
     1
102
RTVSPost2010Prop50
 90
       50
102
RTVSPost2010PropOp50
 70
     1
102
RTVSPost2010Prop51ColorIndex
 90
      256
102
RTVSPost2010Prop51ColorRGB
 90
-16777216
102
RTVSPost2010PropOp51
 70
     0
102
RTVSPost2010Prop52
140
1.0
102
RTVSPost2010PropOp52
 70
     0
102
RTVSPost2010Prop53
 90
        2
102
RTVSPost2010PropOp53
 70
     1
102
RTVSPost2010Prop54
  1
strokes_ogs.tif
102
RTVSPost2010PropOp54
 70
     1
102
RTVSPost2010Prop55
280
     0
102
RTVSPost2010PropOp55
 70
     1
102
RTVSPost2010Prop56
140
1.0
102
RTVSPost2010PropOp56
 70
     1
102
RTVSPost2010Prop57
140
1.0
102
RTVSPost2010PropOp57
 70
     1
  0
XRECORD
  5
44A
102
{ACAD_REACTORS
330
449
102
}
330
449
100
AcDbXrecord
280
     1
102
RTVSPropertyOp0
 70
     1
102
RTVSPropertyOp1
 70
     1
102
RTVSPropertyOp2
 70
     1
102
RTVSPropertyOp3
 70
     1
102
RTVSPropertyOp4
 70
     1
102
RTVSPropertyOp5
 70
     1
102
RTVSPropertyOp6
 70
     1
102
RTVSPropertyOp7
 70
     1
102
RTVSPropertyOp8
 70
     1
102
RTVSPropertyOp9
 70
     1
102
RTVSPropertyOp10
 70
     1
102
RTVSPropertyOp11
 70
     1
102
RTVSPropertyOp12
 70
     1
102
RTVSPropertyOp13
 70
     1
102
RTVSPropertyOp14
 70
     1
102
RTVSPropertyOp15
 70
     1
102
RTVSPropertyOp16
 70
     1
102
RTVSPropertyOp17
 70
     1
102
RTVSPropertyOp18
 70
     1
102
RTVSPropertyOp19
 70
     1
102
RTVSPropertyOp20
 70
     1
102
RTVSPropertyOp21
 70
     1
102
RTVSPropertyOp22
 70
     1
102
RTVSPropertyOp23
 70
     1
102
RTVSPropertyOp24
 70
     1
102
RTVSPropertyOp25
 70
     1
102
RTVSPropertyOp26
 70
     1
102
RTVSPropertyOp27
 70
     1
102
RTVSPropertyOp28
 70
     1
102
RTVSPropertyOp29
 70
     1
102
RTVSPropertyOp30
 70
     1
102
RTVSPropertyOp31
 70
     1
102
RTVSPropertyOp32
 70
     1
102
RTVSPropertyOp33
 70
     1
102
RTVSPropertyOp34
 70
     1
102
RTVSPropertyOp35
 70
     1
102
RTVSPropertyOp36
 70
     1
102
RTVSPropertyOp37
 70
     1
102
RTVSPropertyOp38
 70
     1
102
RTVSPropertyOp39
 70
     1
102
RTVSPropertyOp40
 70
     1
102
RTVSPropertyOp41
 70
     1
102
RTVSPropertyOp42
 70
     1
102
RTVSPropertyOp43
 70
     1
102
RTVSPropertyOp44
 70
     1
102
RTVSPropertyOp45
 70
     1
102
RTVSPropertyOp46
 70
     1
102
RTVSPropertyOp47
 70
     1
102
RTVSPropertyOp48
 70
     1
102
RTVSPropertyOp49
 70
     1
102
RTVSPropertyOp50
 70
     1
102
RTVSPropertyOp51
 70
     0
102
RTVSPropertyOp52
 70
     0
102
RTVSPropertyOp53
 70
     1
102
RTVSPropertyOp54
 70
     1
102
RTVSPropertyOp55
 70
     1
102
RTVSPropertyOp56
 70
     1
102
RTVSPropertyOp57
 70
     1
102
RTVSPost2010Prop28
280
     0
102
RTVSPost2010PropOp28
 70
     1
102
RTVSPost2010Prop29
280
     1
102
RTVSPost2010PropOp29
 70
     1
102
RTVSPost2010Prop30
280
     1
102
RTVSPost2010PropOp30
 70
     1
102
RTVSPost2010Prop31
280
     0
102
RTVSPost2010PropOp31
 70
     1
102
RTVSPost2010Prop32
280
     0
102
RTVSPost2010PropOp32
 70
     1
102
RTVSPost2010Prop33
280
     0
102
RTVSPost2010PropOp33
 70
     1
102
RTVSPost2010Prop34
280
     0
102
RTVSPost2010PropOp34
 70
     1
102
RTVSPost2010Prop35
280
     0
102
RTVSPost2010PropOp35
 70
     1
102
RTVSPost2010Prop36
280
     0
102
RTVSPost2010PropOp36
 70
     1
102
RTVSPost2010Prop37
 90
       50
102
RTVSPost2010PropOp37
 70
     1
102
RTVSPost2010Prop38
140
0.0
102
RTVSPost2010PropOp38
 70
     1
102
RTVSPost2010Prop39
140
1.0
102
RTVSPost2010PropOp39
 70
     1
102
RTVSPost2010Prop40
 90
        0
102
RTVSPost2010PropOp40
 70
     1
102
RTVSPost2010Prop41ColorIndex
 90
       18
102
RTVSPost2010Prop41ColorRGB
 90
        0
102
RTVSPost2010PropOp41
 70
     1
102
RTVSPost2010Prop42
 90
       50
102
RTVSPost2010PropOp42
 70
     1
102
RTVSPost2010Prop43
 90
        3
102
RTVSPost2010PropOp43
 70
     1
102
RTVSPost2010Prop44ColorIndex
 90
        5
102
RTVSPost2010Prop44ColorRGB
 90
      255
102
RTVSPost2010PropOp44
 70
     1
102
RTVSPost2010Prop45
280
     0
102
RTVSPost2010PropOp45
 70
     1
102
RTVSPost2010Prop46
 90
       50
102
RTVSPost2010PropOp46
 70
     1
102
RTVSPost2010Prop47
 90
       50
102
RTVSPost2010PropOp47
 70
     1
102
RTVSPost2010Prop48
 90
       50
102
RTVSPost2010PropOp48
 70
     1
102
RTVSPost2010Prop49
280
     0
102
RTVSPost2010PropOp49
 70
     1
102
RTVSPost2010Prop50
 90
       50
102
RTVSPost2010PropOp50
 70
     1
102
RTVSPost2010Prop51ColorIndex
 90
      256
102
RTVSPost2010Prop51ColorRGB
 90
-16777216
102
RTVSPost2010PropOp51
 70
     0
102
RTVSPost2010Prop52
140
1.0
102
RTVSPost2010PropOp52
 70
     0
102
RTVSPost2010Prop53
 90
        2
102
RTVSPost2010PropOp53
 70
     1
102
RTVSPost2010Prop54
  1
strokes_ogs.tif
102
RTVSPost2010PropOp54
 70
     1
102
RTVSPost2010Prop55
280
     0
102
RTVSPost2010PropOp55
 70
     1
102
RTVSPost2010Prop56
140
1.0
102
RTVSPost2010PropOp56
 70
     1
102
RTVSPost2010Prop57
140
1.0
102
RTVSPost2010PropOp57
 70
     1
  0
XRECORD
  5
43A
102
{ACAD_REACTORS
330
439
102
}
330
439
100
AcDbXrecord
280
     1
102
RTVSPropertyOp0
 70
     1
102
RTVSPropertyOp1
 70
     1
102
RTVSPropertyOp2
 70
     1
102
RTVSPropertyOp3
 70
     1
102
RTVSPropertyOp4
 70
     1
102
RTVSPropertyOp5
 70
     1
102
RTVSPropertyOp6
 70
     1
102
RTVSPropertyOp7
 70
     1
102
RTVSPropertyOp8
 70
     1
102
RTVSPropertyOp9
 70
     1
102
RTVSPropertyOp10
 70
     1
102
RTVSPropertyOp11
 70
     1
102
RTVSPropertyOp12
 70
     1
102
RTVSPropertyOp13
 70
     1
102
RTVSPropertyOp14
 70
     1
102
RTVSPropertyOp15
 70
     1
102
RTVSPropertyOp16
 70
     1
102
RTVSPropertyOp17
 70
     1
102
RTVSPropertyOp18
 70
     1
102
RTVSPropertyOp19
 70
     1
102
RTVSPropertyOp20
 70
     1
102
RTVSPropertyOp21
 70
     1
102
RTVSPropertyOp22
 70
     1
102
RTVSPropertyOp23
 70
     1
102
RTVSPropertyOp24
 70
     1
102
RTVSPropertyOp25
 70
     1
102
RTVSPropertyOp26
 70
     1
102
RTVSPropertyOp27
 70
     1
102
RTVSPropertyOp28
 70
     1
102
RTVSPropertyOp29
 70
     1
102
RTVSPropertyOp30
 70
     1
102
RTVSPropertyOp31
 70
     1
102
RTVSPropertyOp32
 70
     1
102
RTVSPropertyOp33
 70
     1
102
RTVSPropertyOp34
 70
     1
102
RTVSPropertyOp35
 70
     1
102
RTVSPropertyOp36
 70
     1
102
RTVSPropertyOp37
 70
     1
102
RTVSPropertyOp38
 70
     1
102
RTVSPropertyOp39
 70
     1
102
RTVSPropertyOp40
 70
     1
102
RTVSPropertyOp41
 70
     1
102
RTVSPropertyOp42
 70
     1
102
RTVSPropertyOp43
 70
     1
102
RTVSPropertyOp44
 70
     1
102
RTVSPropertyOp45
 70
     1
102
RTVSPropertyOp46
 70
     1
102
RTVSPropertyOp47
 70
     1
102
RTVSPropertyOp48
 70
     1
102
RTVSPropertyOp49
 70
     1
102
RTVSPropertyOp50
 70
     1
102
RTVSPropertyOp51
 70
     0
102
RTVSPropertyOp52
 70
     0
102
RTVSPropertyOp53
 70
     1
102
RTVSPropertyOp54
 70
     1
102
RTVSPropertyOp55
 70
     1
102
RTVSPropertyOp56
 70
     1
102
RTVSPropertyOp57
 70
     1
102
RTVSPost2010Prop28
280
     0
102
RTVSPost2010PropOp28
 70
     1
102
RTVSPost2010Prop29
280
     1
102
RTVSPost2010PropOp29
 70
     1
102
RTVSPost2010Prop30
280
     1
102
RTVSPost2010PropOp30
 70
     1
102
RTVSPost2010Prop31
280
     0
102
RTVSPost2010PropOp31
 70
     1
102
RTVSPost2010Prop32
280
     0
102
RTVSPost2010PropOp32
 70
     1
102
RTVSPost2010Prop33
280
     0
102
RTVSPost2010PropOp33
 70
     1
102
RTVSPost2010Prop34
280
     0
102
RTVSPost2010PropOp34
 70
     1
102
RTVSPost2010Prop35
280
     0
102
RTVSPost2010PropOp35
 70
     1
102
RTVSPost2010Prop36
280
     0
102
RTVSPost2010PropOp36
 70
     1
102
RTVSPost2010Prop37
 90
       50
102
RTVSPost2010PropOp37
 70
     1
102
RTVSPost2010Prop38
140
0.0
102
RTVSPost2010PropOp38
 70
     1
102
RTVSPost2010Prop39
140
1.0
102
RTVSPost2010PropOp39
 70
     1
102
RTVSPost2010Prop40
 90
        0
102
RTVSPost2010PropOp40
 70
     1
102
RTVSPost2010Prop41ColorIndex
 90
       18
102
RTVSPost2010Prop41ColorRGB
 90
        0
102
RTVSPost2010PropOp41
 70
     1
102
RTVSPost2010Prop42
 90
       50
102
RTVSPost2010PropOp42
 70
     1
102
RTVSPost2010Prop43
 90
        3
102
RTVSPost2010PropOp43
 70
     1
102
RTVSPost2010Prop44ColorIndex
 90
        5
102
RTVSPost2010Prop44ColorRGB
 90
      255
102
RTVSPost2010PropOp44
 70
     1
102
RTVSPost2010Prop45
280
     0
102
RTVSPost2010PropOp45
 70
     1
102
RTVSPost2010Prop46
 90
       50
102
RTVSPost2010PropOp46
 70
     1
102
RTVSPost2010Prop47
 90
       50
102
RTVSPost2010PropOp47
 70
     1
102
RTVSPost2010Prop48
 90
       50
102
RTVSPost2010PropOp48
 70
     1
102
RTVSPost2010Prop49
280
     0
102
RTVSPost2010PropOp49
 70
     1
102
RTVSPost2010Prop50
 90
       50
102
RTVSPost2010PropOp50
 70
     1
102
RTVSPost2010Prop51ColorIndex
 90
      256
102
RTVSPost2010Prop51ColorRGB
 90
-16777216
102
RTVSPost2010PropOp51
 70
     0
102
RTVSPost2010Prop52
140
1.0
102
RTVSPost2010PropOp52
 70
     0
102
RTVSPost2010Prop53
 90
        2
102
RTVSPost2010PropOp53
 70
     1
102
RTVSPost2010Prop54
  1
strokes_ogs.tif
102
RTVSPost2010PropOp54
 70
     1
102
RTVSPost2010Prop55
280
     0
102
RTVSPost2010PropOp55
 70
     1
102
RTVSPost2010Prop56
140
1.0
102
RTVSPost2010PropOp56
 70
     1
102
RTVSPost2010Prop57
140
1.0
102
RTVSPost2010PropOp57
 70
     1
  0
XRECORD
  5
42C
102
{ACAD_REACTORS
330
42B
102
}
330
42B
100
AcDbXrecord
280
     1
102
RTVSPropertyOp0
 70
     1
102
RTVSPropertyOp1
 70
     1
102
RTVSPropertyOp2
 70
     1
102
RTVSPropertyOp3
 70
     1
102
RTVSPropertyOp4
 70
     1
102
RTVSPropertyOp5
 70
     1
102
RTVSPropertyOp6
 70
     1
102
RTVSPropertyOp7
 70
     1
102
RTVSPropertyOp8
 70
     1
102
RTVSPropertyOp9
 70
     1
102
RTVSPropertyOp10
 70
     1
102
RTVSPropertyOp11
 70
     1
102
RTVSPropertyOp12
 70
     1
102
RTVSPropertyOp13
 70
     1
102
RTVSPropertyOp14
 70
     1
102
RTVSPropertyOp15
 70
     1
102
RTVSPropertyOp16
 70
     1
102
RTVSPropertyOp17
 70
     1
102
RTVSPropertyOp18
 70
     1
102
RTVSPropertyOp19
 70
     1
102
RTVSPropertyOp20
 70
     1
102
RTVSPropertyOp21
 70
     1
102
RTVSPropertyOp22
 70
     1
102
RTVSPropertyOp23
 70
     1
102
RTVSPropertyOp24
 70
     1
102
RTVSPropertyOp25
 70
     1
102
RTVSPropertyOp26
 70
     1
102
RTVSPropertyOp27
 70
     1
102
RTVSPropertyOp28
 70
     1
102
RTVSPropertyOp29
 70
     1
102
RTVSPropertyOp30
 70
     1
102
RTVSPropertyOp31
 70
     1
102
RTVSPropertyOp32
 70
     1
102
RTVSPropertyOp33
 70
     1
102
RTVSPropertyOp34
 70
     1
102
RTVSPropertyOp35
 70
     1
102
RTVSPropertyOp36
 70
     1
102
RTVSPropertyOp37
 70
     1
102
RTVSPropertyOp38
 70
     1
102
RTVSPropertyOp39
 70
     1
102
RTVSPropertyOp40
 70
     1
102
RTVSPropertyOp41
 70
     1
102
RTVSPropertyOp42
 70
     1
102
RTVSPropertyOp43
 70
     1
102
RTVSPropertyOp44
 70
     1
102
RTVSPropertyOp45
 70
     1
102
RTVSPropertyOp46
 70
     1
102
RTVSPropertyOp47
 70
     1
102
RTVSPropertyOp48
 70
     1
102
RTVSPropertyOp49
 70
     1
102
RTVSPropertyOp50
 70
     1
102
RTVSPropertyOp51
 70
     0
102
RTVSPropertyOp52
 70
     0
102
RTVSPropertyOp53
 70
     1
102
RTVSPropertyOp54
 70
     1
102
RTVSPropertyOp55
 70
     1
102
RTVSPropertyOp56
 70
     1
102
RTVSPropertyOp57
 70
     1
102
RTVSPost2010Prop28
280
     0
102
RTVSPost2010PropOp28
 70
     1
102
RTVSPost2010Prop29
280
     1
102
RTVSPost2010PropOp29
 70
     1
102
RTVSPost2010Prop30
280
     1
102
RTVSPost2010PropOp30
 70
     1
102
RTVSPost2010Prop31
280
     0
102
RTVSPost2010PropOp31
 70
     1
102
RTVSPost2010Prop32
280
     0
102
RTVSPost2010PropOp32
 70
     1
102
RTVSPost2010Prop33
280
     0
102
RTVSPost2010PropOp33
 70
     1
102
RTVSPost2010Prop34
280
     0
102
RTVSPost2010PropOp34
 70
     1
102
RTVSPost2010Prop35
280
     0
102
RTVSPost2010PropOp35
 70
     1
102
RTVSPost2010Prop36
280
     0
102
RTVSPost2010PropOp36
 70
     1
102
RTVSPost2010Prop37
 90
       50
102
RTVSPost2010PropOp37
 70
     1
102
RTVSPost2010Prop38
140
0.0
102
RTVSPost2010PropOp38
 70
     1
102
RTVSPost2010Prop39
140
1.0
102
RTVSPost2010PropOp39
 70
     1
102
RTVSPost2010Prop40
 90
        0
102
RTVSPost2010PropOp40
 70
     1
102
RTVSPost2010Prop41ColorIndex
 90
       18
102
RTVSPost2010Prop41ColorRGB
 90
        0
102
RTVSPost2010PropOp41
 70
     1
102
RTVSPost2010Prop42
 90
       50
102
RTVSPost2010PropOp42
 70
     1
102
RTVSPost2010Prop43
 90
        3
102
RTVSPost2010PropOp43
 70
     1
102
RTVSPost2010Prop44ColorIndex
 90
        5
102
RTVSPost2010Prop44ColorRGB
 90
      255
102
RTVSPost2010PropOp44
 70
     1
102
RTVSPost2010Prop45
280
     0
102
RTVSPost2010PropOp45
 70
     1
102
RTVSPost2010Prop46
 90
       50
102
RTVSPost2010PropOp46
 70
     1
102
RTVSPost2010Prop47
 90
       50
102
RTVSPost2010PropOp47
 70
     1
102
RTVSPost2010Prop48
 90
       50
102
RTVSPost2010PropOp48
 70
     1
102
RTVSPost2010Prop49
280
     0
102
RTVSPost2010PropOp49
 70
     1
102
RTVSPost2010Prop50
 90
       50
102
RTVSPost2010PropOp50
 70
     1
102
RTVSPost2010Prop51ColorIndex
 90
      256
102
RTVSPost2010Prop51ColorRGB
 90
-16777216
102
RTVSPost2010PropOp51
 70
     0
102
RTVSPost2010Prop52
140
1.0
102
RTVSPost2010PropOp52
 70
     0
102
RTVSPost2010Prop53
 90
        2
102
RTVSPost2010PropOp53
 70
     1
102
RTVSPost2010Prop54
  1
strokes_ogs.tif
102
RTVSPost2010PropOp54
 70
     1
102
RTVSPost2010Prop55
280
     0
102
RTVSPost2010PropOp55
 70
     1
102
RTVSPost2010Prop56
140
1.0
102
RTVSPost2010PropOp56
 70
     1
102
RTVSPost2010Prop57
140
1.0
102
RTVSPost2010PropOp57
 70
     1
  0
XRECORD
  5
44C
102
{ACAD_REACTORS
330
44B
102
}
330
44B
100
AcDbXrecord
280
     1
102
RTVSPropertyOp0
 70
     1
102
RTVSPropertyOp1
 70
     1
102
RTVSPropertyOp2
 70
     1
102
RTVSPropertyOp3
 70
     1
102
RTVSPropertyOp4
 70
     1
102
RTVSPropertyOp5
 70
     1
102
RTVSPropertyOp6
 70
     1
102
RTVSPropertyOp7
 70
     1
102
RTVSPropertyOp8
 70
     1
102
RTVSPropertyOp9
 70
     1
102
RTVSPropertyOp10
 70
     1
102
RTVSPropertyOp11
 70
     1
102
RTVSPropertyOp12
 70
     1
102
RTVSPropertyOp13
 70
     1
102
RTVSPropertyOp14
 70
     1
102
RTVSPropertyOp15
 70
     1
102
RTVSPropertyOp16
 70
     1
102
RTVSPropertyOp17
 70
     1
102
RTVSPropertyOp18
 70
     1
102
RTVSPropertyOp19
 70
     1
102
RTVSPropertyOp20
 70
     1
102
RTVSPropertyOp21
 70
     1
102
RTVSPropertyOp22
 70
     1
102
RTVSPropertyOp23
 70
     1
102
RTVSPropertyOp24
 70
     1
102
RTVSPropertyOp25
 70
     1
102
RTVSPropertyOp26
 70
     1
102
RTVSPropertyOp27
 70
     1
102
RTVSPropertyOp28
 70
     1
102
RTVSPropertyOp29
 70
     1
102
RTVSPropertyOp30
 70
     1
102
RTVSPropertyOp31
 70
     1
102
RTVSPropertyOp32
 70
     1
102
RTVSPropertyOp33
 70
     1
102
RTVSPropertyOp34
 70
     1
102
RTVSPropertyOp35
 70
     1
102
RTVSPropertyOp36
 70
     1
102
RTVSPropertyOp37
 70
     1
102
RTVSPropertyOp38
 70
     1
102
RTVSPropertyOp39
 70
     1
102
RTVSPropertyOp40
 70
     1
102
RTVSPropertyOp41
 70
     1
102
RTVSPropertyOp42
 70
     1
102
RTVSPropertyOp43
 70
     1
102
RTVSPropertyOp44
 70
     1
102
RTVSPropertyOp45
 70
     1
102
RTVSPropertyOp46
 70
     1
102
RTVSPropertyOp47
 70
     1
102
RTVSPropertyOp48
 70
     1
102
RTVSPropertyOp49
 70
     1
102
RTVSPropertyOp50
 70
     1
102
RTVSPropertyOp51
 70
     0
102
RTVSPropertyOp52
 70
     0
102
RTVSPropertyOp53
 70
     1
102
RTVSPropertyOp54
 70
     1
102
RTVSPropertyOp55
 70
     1
102
RTVSPropertyOp56
 70
     1
102
RTVSPropertyOp57
 70
     1
102
RTVSPost2010Prop28
280
     0
102
RTVSPost2010PropOp28
 70
     1
102
RTVSPost2010Prop29
280
     1
102
RTVSPost2010PropOp29
 70
     1
102
RTVSPost2010Prop30
280
     1
102
RTVSPost2010PropOp30
 70
     1
102
RTVSPost2010Prop31
280
     0
102
RTVSPost2010PropOp31
 70
     1
102
RTVSPost2010Prop32
280
     0
102
RTVSPost2010PropOp32
 70
     1
102
RTVSPost2010Prop33
280
     0
102
RTVSPost2010PropOp33
 70
     1
102
RTVSPost2010Prop34
280
     0
102
RTVSPost2010PropOp34
 70
     1
102
RTVSPost2010Prop35
280
     0
102
RTVSPost2010PropOp35
 70
     1
102
RTVSPost2010Prop36
280
     0
102
RTVSPost2010PropOp36
 70
     1
102
RTVSPost2010Prop37
 90
       50
102
RTVSPost2010PropOp37
 70
     1
102
RTVSPost2010Prop38
140
0.0
102
RTVSPost2010PropOp38
 70
     1
102
RTVSPost2010Prop39
140
1.0
102
RTVSPost2010PropOp39
 70
     1
102
RTVSPost2010Prop40
 90
        0
102
RTVSPost2010PropOp40
 70
     1
102
RTVSPost2010Prop41ColorIndex
 90
       18
102
RTVSPost2010Prop41ColorRGB
 90
        0
102
RTVSPost2010PropOp41
 70
     1
102
RTVSPost2010Prop42
 90
       50
102
RTVSPost2010PropOp42
 70
     1
102
RTVSPost2010Prop43
 90
        3
102
RTVSPost2010PropOp43
 70
     1
102
RTVSPost2010Prop44ColorIndex
 90
        5
102
RTVSPost2010Prop44ColorRGB
 90
      255
102
RTVSPost2010PropOp44
 70
     1
102
RTVSPost2010Prop45
280
     0
102
RTVSPost2010PropOp45
 70
     1
102
RTVSPost2010Prop46
 90
       50
102
RTVSPost2010PropOp46
 70
     1
102
RTVSPost2010Prop47
 90
       50
102
RTVSPost2010PropOp47
 70
     1
102
RTVSPost2010Prop48
 90
       50
102
RTVSPost2010PropOp48
 70
     1
102
RTVSPost2010Prop49
280
     0
102
RTVSPost2010PropOp49
 70
     1
102
RTVSPost2010Prop50
 90
       50
102
RTVSPost2010PropOp50
 70
     1
102
RTVSPost2010Prop51ColorIndex
 90
      256
102
RTVSPost2010Prop51ColorRGB
 90
-16777216
102
RTVSPost2010PropOp51
 70
     0
102
RTVSPost2010Prop52
140
1.0
102
RTVSPost2010PropOp52
 70
     0
102
RTVSPost2010Prop53
 90
        2
102
RTVSPost2010PropOp53
 70
     1
102
RTVSPost2010Prop54
  1
strokes_ogs.tif
102
RTVSPost2010PropOp54
 70
     1
102
RTVSPost2010Prop55
280
     0
102
RTVSPost2010PropOp55
 70
     1
102
RTVSPost2010Prop56
140
1.0
102
RTVSPost2010PropOp56
 70
     1
102
RTVSPost2010Prop57
140
1.0
102
RTVSPost2010PropOp57
 70
     1
  0
ENDSEC
  0
EOF
