  0
SECTION
  2
HEADER
  9
$ACADVER
  1
AC1015
  9
$ACADMAINTVER
 70
     6
  9
$DWGCODEPAGE
  3
ANSI_932
  9
$INSBASE
 10
33.03586822729419
 20
-1385.945203260498
 30
0.0
  9
$EXTMIN
 10
-21.96614993617709
 20
-1879.991621020336
 30
0.0
  9
$EXTMAX
 10
532.0338500638229
 20
-1079.991621020336
 30
0.0
  9
$LIMMIN
 10
-21.96614993617709
 20
-1879.991621020336
  9
$LIMMAX
 10
532.0338500638229
 20
-1079.991621020336
  9
$ORTHOMODE
 70
     0
  9
$REGENMODE
 70
     0
  9
$FILLMODE
 70
     1
  9
$QTEXTMODE
 70
     0
  9
$MIRRTEXT
 70
     1
  9
$LTSCALE
 40
2.0
  9
$ATTMODE
 70
     1
  9
$TEXTSIZE
 40
8.0
  9
$TRACEWID
 40
0.05
  9
$TEXTSTYLE
  7
Standard
  9
$CLAYER
  8
1
  9
$CELTYPE
  6
Continuous
  9
$CECOLOR
 62
     7
  9
$CELTSCALE
 40
1.0
  9
$DISPSILH
 70
     0
  9
$DIMSCALE
 40
2.0
  9
$DIMASZ
 40
2.0
  9
$DIMEXO
 40
1.0
  9
$DIMDLI
 40
7.0
  9
$DIMRND
 40
0.0
  9
$DIMDLE
 40
1.0
  9
$DIMEXE
 40
1.0
  9
$DIMTP
 40
0.0
  9
$DIMTM
 40
0.0
  9
$DIMTXT
 40
4.0
  9
$DIMCEN
 40
0.09
  9
$DIMTSZ
 40
0.0
  9
$DIMTOL
 70
     0
  9
$DIMLIM
 70
     0
  9
$DIMTIH
 70
     0
  9
$DIMTOH
 70
     0
  9
$DIMSE1
 70
     0
  9
$DIMSE2
 70
     0
  9
$DIMTAD
 70
     1
  9
$DIMZIN
 70
     8
  9
$DIMBLK
  1
OPEN30
  9
$DIMASO
 70
     1
  9
$DIMSHO
 70
     0
  9
$DIMPOST
  1

  9
$DIMAPOST
  1

  9
$DIMALT
 70
     0
  9
$DIMALTD
 70
     3
  9
$DIMALTF
 40
25.4
  9
$DIMLFAC
 40
1.0
  9
$DIMTOFL
 70
     0
  9
$DIMTVP
 40
0.0
  9
$DIMTIX
 70
     0
  9
$DIMSOXD
 70
     0
  9
$DIMSAH
 70
     0
  9
$DIMBLK1
  1
OPEN30
  9
$DIMBLK2
  1
OPEN30
  9
$DIMSTYLE
  2
Standard
  9
$DIMCLRD
 70
     3
  9
$DIMCLRE
 70
     3
  9
$DIMCLRT
 70
     2
  9
$DIMTFAC
 40
0.5
  9
$DIMGAP
 40
0.0
  9
$DIMJUST
 70
     0
  9
$DIMSD1
 70
     0
  9
$DIMSD2
 70
     0
  9
$DIMTOLJ
 70
     1
  9
$DIMTZIN
 70
     0
  9
$DIMALTZ
 70
     0
  9
$DIMALTTZ
 70
     0
  9
$DIMUPT
 70
     0
  9
$DIMDEC
 70
     3
  9
$DIMTDEC
 70
     3
  9
$DIMALTU
 70
     2
  9
$DIMALTTD
 70
     2
  9
$DIMTXSTY
  7
DIMSTANDARD
  9
$DIMAUNIT
 70
     0
  9
$DIMADEC
 70
     3
  9
$DIMALTRND
 40
0.0
  9
$DIMAZIN
 70
     2
  9
$DIMDSEP
 70
    46
  9
$DIMATFIT
 70
     3
  9
$DIMFRAC
 70
     0
  9
$DIMLDRBLK
  1

  9
$DIMLUNIT
 70
     2
  9
$DIMLWD
 70
    -1
  9
$DIMLWE
 70
    -1
  9
$DIMTMOVE
 70
     0
  9
$LUNITS
 70
     2
  9
$LUPREC
 70
     4
  9
$SKETCHINC
 40
0.1
  9
$FILLETRAD
 40
0.0
  9
$AUNITS
 70
     0
  9
$AUPREC
 70
     0
  9
$MENU
  1
ACAD
  9
$ELEVATION
 40
0.0
  9
$PELEVATION
 40
0.0
  9
$THICKNESS
 40
0.0
  9
$LIMCHECK
 70
     0
  9
$CHAMFERA
 40
0.0
  9
$CHAMFERB
 40
0.0
  9
$CHAMFERC
 40
0.0
  9
$CHAMFERD
 40
0.0
  9
$SKPOLY
 70
     0
  9
$TDCREATE
 40
2419147.375
  9
$TDUCREATE
 40
2419147.0
  9
$TDUPDATE
 40
2457700.42333191
  9
$TDUUPDATE
 40
2457700.04833191
  9
$TDINDWG
 40
0.0
  9
$TDUSRTIMER
 40
0.0
  9
$USRTIMER
 70
     1
  9
$ANGBASE
 50
0.0
  9
$ANGDIR
 70
     0
  9
$PDMODE
 70
    65
  9
$PDSIZE
 40
0.2
  9
$PLINEWID
 40
0.0
  9
$SPLFRAME
 70
     0
  9
$SPLINETYPE
 70
     6
  9
$SPLINESEGS
 70
     8
  9
$HANDSEED
  5
46E
  9
$SURFTAB1
 70
     6
  9
$SURFTAB2
 70
     6
  9
$SURFTYPE
 70
     6
  9
$SURFU
 70
     6
  9
$SURFV
 70
     6
  9
$UCSBASE
  2

  9
$UCSNAME
  2

  9
$UCSORG
 10
0.0
 20
0.0
 30
0.0
  9
$UCSXDIR
 10
1.0
 20
0.0
 30
0.0
  9
$UCSYDIR
 10
0.0
 20
1.0
 30
0.0
  9
$UCSORTHOREF
  2

  9
$UCSORTHOVIEW
 70
     0
  9
$UCSORGTOP
 10
0.0
 20
0.0
 30
0.0
  9
$UCSORGBOTTOM
 10
0.0
 20
0.0
 30
0.0
  9
$UCSORGLEFT
 10
0.0
 20
0.0
 30
0.0
  9
$UCSORGRIGHT
 10
0.0
 20
0.0
 30
0.0
  9
$UCSORGFRONT
 10
0.0
 20
0.0
 30
0.0
  9
$UCSORGBACK
 10
0.0
 20
0.0
 30
0.0
  9
$PUCSBASE
  2

  9
$PUCSNAME
  2

  9
$PUCSORG
 10
0.0
 20
0.0
 30
0.0
  9
$PUCSXDIR
 10
1.0
 20
0.0
 30
0.0
  9
$PUCSYDIR
 10
0.0
 20
1.0
 30
0.0
  9
$PUCSORTHOREF
  2

  9
$PUCSORTHOVIEW
 70
     0
  9
$PUCSORGTOP
 10
0.0
 20
0.0
 30
0.0
  9
$PUCSORGBOTTOM
 10
0.0
 20
0.0
 30
0.0
  9
$PUCSORGLEFT
 10
0.0
 20
0.0
 30
0.0
  9
$PUCSORGRIGHT
 10
0.0
 20
0.0
 30
0.0
  9
$PUCSORGFRONT
 10
0.0
 20
0.0
 30
0.0
  9
$PUCSORGBACK
 10
0.0
 20
0.0
 30
0.0
  9
$USERI1
 70
     0
  9
$USERI2
 70
     0
  9
$USERI3
 70
     0
  9
$USERI4
 70
     0
  9
$USERI5
 70
     0
  9
$USERR1
 40
0.0
  9
$USERR2
 40
0.0
  9
$USERR3
 40
0.0
  9
$USERR4
 40
0.0
  9
$USERR5
 40
0.0
  9
$WORLDVIEW
 70
     1
  9
$SHADEDGE
 70
     3
  9
$SHADEDIF
 70
    70
  9
$TILEMODE
 70
     1
  9
$MAXACTVP
 70
    64
  9
$PINSBASE
 10
0.0
 20
0.0
 30
0.0
  9
$PLIMCHECK
 70
     0
  9
$PEXTMIN
 10
1.000000000000000E+20
 20
1.000000000000000E+20
 30
1.000000000000000E+20
  9
$PEXTMAX
 10
-1.000000000000000E+20
 20
-1.000000000000000E+20
 30
-1.000000000000000E+20
  9
$PLIMMIN
 10
0.0
 20
0.0
  9
$PLIMMAX
 10
12.0
 20
9.0
  9
$UNITMODE
 70
     0
  9
$VISRETAIN
 70
     1
  9
$PLINEGEN
 70
     0
  9
$PSLTSCALE
 70
     1
  9
$TREEDEPTH
 70
  3020
  9
$CMLSTYLE
  2
Standard
  9
$CMLJUST
 70
     0
  9
$CMLSCALE
 40
1.0
  9
$PROXYGRAPHICS
 70
     1
  9
$MEASUREMENT
 70
     0
  9
$CELWEIGHT
370
    -1
  9
$ENDCAPS
280
     0
  9
$JOINSTYLE
280
     0
  9
$LWDISPLAY
290
     0
  9
$INSUNITS
 70
     1
  9
$HYPERLINKBASE
  1

  9
$STYLESHEET
  1

  9
$XEDIT
290
     1
  9
$CEPSNTYPE
380
     0
  9
$PSTYLEMODE
290
     1
  9
$FINGERPRINTGUID
  2
{112E976E-0287-4020-8703-18D053C5252C}
  9
$VERSIONGUID
  2
{FAEB1C32-E019-11D5-929B-00C0DF256EC4}
  9
$EXTNAMES
290
     1
  9
$PSVPSCALE
 40
0.0
  9
$OLESTARTUP
290
     0
  0
ENDSEC
  0
SECTION
  2
CLASSES
  0
CLASS
  1
ACDBDICTIONARYWDFLT
  2
AcDbDictionaryWithDefault
  3
ObjectDBX Classes
 90
        0
280
     0
281
     0
  0
CLASS
  1
VISUALSTYLE
  2
AcDbVisualStyle
  3
ObjectDBX Classes
 90
     4095
280
     0
281
     0
  0
CLASS
  1
MATERIAL
  2
AcDbMaterial
  3
ObjectDBX Classes
 90
     1153
280
     0
281
     0
  0
CLASS
  1
SCALE
  2
AcDbScale
  3
ObjectDBX Classes
 90
     1153
280
     0
281
     0
  0
CLASS
  1
TABLESTYLE
  2
AcDbTableStyle
  3
ObjectDBX Classes
 90
     4095
280
     0
281
     0
  0
CLASS
  1
MLEADERSTYLE
  2
AcDbMLeaderStyle
  3
ACDB_MLEADERSTYLE_CLASS
 90
     4095
280
     0
281
     0
  0
CLASS
  1
SUN
  2
AcDbSun
  3
SCENEOE
 90
     1153
280
     0
281
     0
  0
CLASS
  1
DICTIONARYVAR
  2
AcDbDictionaryVar
  3
ObjectDBX Classes
 90
        0
280
     0
281
     0
  0
CLASS
  1
ACDBPLACEHOLDER
  2
AcDbPlaceHolder
  3
ObjectDBX Classes
 90
        0
280
     0
281
     0
  0
CLASS
  1
LAYOUT
  2
AcDbLayout
  3
ObjectDBX Classes
 90
        0
280
     0
281
     0
  0
ENDSEC
  0
SECTION
  2
TABLES
  0
TABLE
  2
VPORT
  5
8
102
{ACAD_XDICTIONARY
360
431
102
}
330
0
100
AcDbSymbolTable
 70
     1
  0
VPORT
  5
29
330
8
100
AcDbSymbolTableRecord
100
AcDbViewportTableRecord
  2
*Active
 70
     0
 10
0.0
 20
0.0
 11
1.0
 21
1.0
 12
277.0
 22
400.0
 13
0.0
 23
0.0
 14
0.5
 24
0.5
 15
0.5
 25
0.5
 16
0.0
 26
0.0
 36
1.0
 17
0.0
 27
0.0
 37
0.0
 40
800.0
 41
0.6925
 42
50.0
 43
0.0
 44
0.0
 50
0.0
 51
0.0
 71
     0
 72
   100
 73
     1
 74
     3
 75
     0
 76
     0
 77
     0
 78
     0
281
     0
 65
     1
110
0.0
120
0.0
130
0.0
111
1.0
121
0.0
131
0.0
112
0.0
122
1.0
132
0.0
 79
     0
146
0.0
  0
ENDTAB
  0
TABLE
  2
LTYPE
  5
5
330
0
100
AcDbSymbolTable
 70
    17
  0
LTYPE
  5
14
330
5
100
AcDbSymbolTableRecord
100
AcDbLinetypeTableRecord
  2
ByBlock
 70
     0
  3

 72
    65
 73
     0
 40
0.0
  0
LTYPE
  5
15
330
5
100
AcDbSymbolTableRecord
100
AcDbLinetypeTableRecord
  2
ByLayer
 70
     0
  3

 72
    65
 73
     0
 40
0.0
  0
LTYPE
  5
16
330
5
100
AcDbSymbolTableRecord
100
AcDbLinetypeTableRecord
  2
Continuous
 70
     0
  3
Solid line
 72
    65
 73
     0
 40
0.0
  0
LTYPE
  5
6E
330
5
100
AcDbSymbolTableRecord
100
AcDbLinetypeTableRecord
  2
DIVIDE
 70
     0
  3
Divide ____ . . ____ . . ____ . . ____ . . ____
 72
    65
 73
     6
 40
1.25
 49
0.5
 74
     0
 49
-0.25
 74
     0
 49
0.0
 74
     0
 49
-0.25
 74
     0
 49
0.0
 74
     0
 49
-0.25
 74
     0
  0
LTYPE
  5
6F
330
5
100
AcDbSymbolTableRecord
100
AcDbLinetypeTableRecord
  2
HIDDEN
 70
     0
  3
Hidden __ __ __ __ __ __ __ __ __ __ __ __ __ _
 72
    65
 73
     2
 40
9.525
 49
6.35
 74
     0
 49
-3.175
 74
     0
  0
LTYPE
  5
70
330
5
100
AcDbSymbolTableRecord
100
AcDbLinetypeTableRecord
  2
HIDDEN2
 70
     0
  3
Hidden (.5x) _ _ _ _ _ _ _ _ _ _ _ _ _ _ _ _ _
 72
    65
 73
     2
 40
4.7625
 49
3.175
 74
     0
 49
-1.5875
 74
     0
  0
LTYPE
  5
71
330
5
100
AcDbSymbolTableRecord
100
AcDbLinetypeTableRecord
  2
CENTER2
 70
     0
  3
Center (.5x) ___ _ ___ _ ___ _ ___ _ ___ _ ___
 72
    65
 73
     4
 40
28.575
 49
19.05
 74
     0
 49
-3.175
 74
     0
 49
3.175
 74
     0
 49
-3.175
 74
     0
  0
LTYPE
  5
72
330
5
100
AcDbSymbolTableRecord
100
AcDbLinetypeTableRecord
  2
PHANTOM2
 70
     0
  3
Phantom (.5x) ___ _ _ ___ _ _ ___ _ _ ___ _ _
 72
    65
 73
     6
 40
31.75
 49
15.875
 74
     0
 49
-3.175
 74
     0
 49
3.175
 74
     0
 49
-3.175
 74
     0
 49
3.175
 74
     0
 49
-3.175
 74
     0
  0
LTYPE
  5
73
330
5
100
AcDbSymbolTableRecord
100
AcDbLinetypeTableRecord
  2
DASHED
 70
     0
  3
Dashed __ __ __ __ __ __ __ __ __ __ __ __ __ _
 72
    65
 73
     2
 40
19.05
 49
12.7
 74
     0
 49
-6.35
 74
     0
  0
LTYPE
  5
74
330
5
100
AcDbSymbolTableRecord
100
AcDbLinetypeTableRecord
  2
CENTER
 70
     0
  3
Center ____ _ ____ _ ____ _ ____ _ ____ _ ____
 72
    65
 73
     4
 40
50.8
 49
31.75
 74
     0
 49
-6.35
 74
     0
 49
6.35
 74
     0
 49
-6.35
 74
     0
  0
LTYPE
  5
75
330
5
100
AcDbSymbolTableRecord
100
AcDbLinetypeTableRecord
  2
PHANTOM
 70
     0
  3
Phantom ______  __  __  ______  __  __  ______
 72
    65
 73
     6
 40
63.5
 49
31.75
 74
     0
 49
-6.35
 74
     0
 49
6.35
 74
     0
 49
-6.35
 74
     0
 49
6.35
 74
     0
 49
-6.35
 74
     0
  0
LTYPE
  5
76
330
5
100
AcDbSymbolTableRecord
100
AcDbLinetypeTableRecord
  2
BORDER2
 70
     0
  3
Border (.5x) __.__.__.__.__.__.__.__.__.__.__.
 72
    65
 73
     6
 40
22.225
 49
6.35
 74
     0
 49
-3.175
 74
     0
 49
6.35
 74
     0
 49
-3.175
 74
     0
 49
0.0
 74
     0
 49
-3.175
 74
     0
  0
LTYPE
  5
77
330
5
100
AcDbSymbolTableRecord
100
AcDbLinetypeTableRecord
  2
HIDDENX2
 70
     0
  3
Hidden (2x) ____ ____ ____ ____ ____ ____ ____
 72
    65
 73
     2
 40
19.05
 49
12.7
 74
     0
 49
-6.35
 74
     0
  0
LTYPE
  5
78
330
5
100
AcDbSymbolTableRecord
100
AcDbLinetypeTableRecord
  2
DOTX2
 70
     0
  3
Dot (2x) .  .  .  .  .  .  .  .  .  .  .  .  . 
 72
    65
 73
     2
 40
12.7
 49
0.0
 74
     0
 49
-12.7
 74
     0
  0
LTYPE
  5
79
330
5
100
AcDbSymbolTableRecord
100
AcDbLinetypeTableRecord
  2
DASHDOTX2
 70
     0
  3
Dash dot (2x) ____  .  ____  .  ____  .  ___
 72
    65
 73
     4
 40
50.8
 49
25.4
 74
     0
 49
-12.7
 74
     0
 49
0.0
 74
     0
 49
-12.7
 74
     0
  0
LTYPE
  5
7A
330
5
100
AcDbSymbolTableRecord
100
AcDbLinetypeTableRecord
  2
DIVIDEX2
 70
     0
  3
Divide (2x) ________  .  .  ________  .  .  _
 72
    65
 73
     6
 40
63.5
 49
25.4
 74
     0
 49
-12.7
 74
     0
 49
0.0
 74
     0
 49
-12.7
 74
     0
 49
0.0
 74
     0
 49
-12.7
 74
     0
  0
LTYPE
  5
7B
330
5
100
AcDbSymbolTableRecord
100
AcDbLinetypeTableRecord
  2
DASHEDX2
 70
     0
  3
Dashed (2x) ____  ____  ____  ____  ____  ___
 72
    65
 73
     2
 40
38.1
 49
25.4
 74
     0
 49
-12.7
 74
     0
  0
LTYPE
  5
7C
330
5
100
AcDbSymbolTableRecord
100
AcDbLinetypeTableRecord
  2
CENTERX2
 70
     0
  3
Center (2x) ________  __  ________  __  _____
 72
    65
 73
     4
 40
101.6
 49
63.5
 74
     0
 49
-12.7
 74
     0
 49
12.7
 74
     0
 49
-12.7
 74
     0
  0
LTYPE
  5
7D
330
5
100
AcDbSymbolTableRecord
100
AcDbLinetypeTableRecord
  2
PHANTOMX2
 70
     0
  3
Phantom (2x) ____________    ____    ____   _
 72
    65
 73
     6
 40
127.0
 49
63.5
 74
     0
 49
-12.7
 74
     0
 49
12.7
 74
     0
 49
-12.7
 74
     0
 49
12.7
 74
     0
 49
-12.7
 74
     0
  0
ENDTAB
  0
TABLE
  2
LAYER
  5
2
330
0
100
AcDbSymbolTable
 70
     6
  0
LAYER
  5
10
330
2
100
AcDbSymbolTableRecord
100
AcDbLayerTableRecord
  2
0
 70
     0
 62
     7
  6
Continuous
370
    -3
390
F
  0
LAYER
  5
7E
330
2
100
AcDbSymbolTableRecord
100
AcDbLayerTableRecord
  2
1
 70
     0
 62
     7
  6
Continuous
370
     0
390
F
  0
LAYER
  5
7F
330
2
100
AcDbSymbolTableRecord
100
AcDbLayerTableRecord
  2
2
 70
     0
 62
     7
  6
Continuous
370
     0
390
F
  0
LAYER
  5
80
330
2
100
AcDbSymbolTableRecord
100
AcDbLayerTableRecord
  2
4
 70
     0
 62
     7
  6
Continuous
370
     0
390
F
  0
LAYER
  5
81
330
2
100
AcDbSymbolTableRecord
100
AcDbLayerTableRecord
  2
6
 70
     0
 62
     7
  6
Continuous
370
     0
390
F
  0
LAYER
  5
82
330
2
100
AcDbSymbolTableRecord
100
AcDbLayerTableRecord
  2
DEFPOINTS
 70
     0
 62
     3
  6
DIVIDE
290
     0
370
     0
390
F
  0
ENDTAB
  0
TABLE
  2
STYLE
  5
3
330
0
100
AcDbSymbolTable
 70
     9
  0
STYLE
  5
11
330
3
100
AcDbSymbolTableRecord
100
AcDbTextStyleTableRecord
  2
Standard
 70
     0
 40
0.0
 41
0.8
 50
0.0
 71
     0
 42
8.0
  3
MONOTXT.shx
  4
EXTFONT.shx
  0
STYLE
  5
83
330
3
100
AcDbSymbolTableRecord
100
AcDbTextStyleTableRecord
  2
DIMSTANDARD
 70
     0
 40
0.0
 41
0.75
 50
0.0
 71
     0
 42
8.0
  3
MONOTXT.shx
  4
EXTFONT.shx
  0
STYLE
  5
BB
330
3
100
AcDbSymbolTableRecord
100
AcDbTextStyleTableRecord
  2
MTSTANDARD
 70
     0
 40
0.0
 41
1.0
 50
0.0
 71
     0
 42
8.0
  3
MONOTXT.shx
  4
EXTFONT.shx
  0
STYLE
  5
BC
330
3
100
AcDbSymbolTableRecord
100
AcDbTextStyleTableRecord
  2
MTSTANDARD1
 70
     0
 40
0.0
 41
1.0
 50
0.0
 71
     0
 42
8.0
  3
MONOTXT.shx
  4
EXTFONT.shx
  0
STYLE
  5
C6
330
3
100
AcDbSymbolTableRecord
100
AcDbTextStyleTableRecord
  2
MTSTANDARD2
 70
     0
 40
0.0
 41
1.0
 50
0.0
 71
     0
 42
8.0
  3
MONOTXT.shx
  4
EXTFONT.shx
  0
STYLE
  5
F2
330
3
100
AcDbSymbolTableRecord
100
AcDbTextStyleTableRecord
  2
MTSTANDARD3
 70
     0
 40
0.0
 41
1.0
 50
0.0
 71
     0
 42
8.0
  3
MONOTXT.shx
  4
EXTFONT.shx
  0
STYLE
  5
F4
330
3
100
AcDbSymbolTableRecord
100
AcDbTextStyleTableRecord
  2
MTSTANDARD4
 70
     0
 40
0.0
 41
1.0
 50
0.0
 71
     0
 42
8.0
  3
MONOTXT.shx
  4
EXTFONT.shx
  0
STYLE
  5
13A
330
3
100
AcDbSymbolTableRecord
100
AcDbTextStyleTableRecord
  2
MTSTANDARD5
 70
     0
 40
0.0
 41
1.0
 50
0.0
 71
     0
 42
8.0
  3
MONOTXT.shx
  4
EXTFONT.shx
  0
STYLE
  5
207
330
3
100
AcDbSymbolTableRecord
100
AcDbTextStyleTableRecord
  2
MTSTANDARD6
 70
     0
 40
0.0
 41
0.75
 50
0.0
 71
     0
 42
8.0
  3
MONOTXT.shx
  4
EXTFONT.shx
  0
ENDTAB
  0
TABLE
  2
VIEW
  5
6
330
0
100
AcDbSymbolTable
 70
     0
  0
ENDTAB
  0
TABLE
  2
UCS
  5
7
330
0
100
AcDbSymbolTable
 70
     0
  0
ENDTAB
  0
TABLE
  2
APPID
  5
9
330
0
100
AcDbSymbolTable
 70
     2
  0
APPID
  5
12
330
9
100
AcDbSymbolTableRecord
100
AcDbRegAppTableRecord
  2
ACAD
 70
     0
  0
APPID
  5
46B
330
9
100
AcDbSymbolTableRecord
100
AcDbRegAppTableRecord
  2
ACAD_MLEADERVER
 70
     0
  0
ENDTAB
  0
TABLE
  2
DIMSTYLE
  5
A
330
0
100
AcDbSymbolTable
 70
    18
100
AcDbDimStyleTable
  0
DIMSTYLE
105
27
330
A
100
AcDbSymbolTableRecord
100
AcDbDimStyleTableRecord
  2
Standard
 70
     0
 40
2.0
 41
2.0
 42
1.0
 43
7.0
 44
1.0
 73
     0
 74
     0
 77
     3
 78
     8
 79
     2
140
4.0
141
0.0
146
0.5
147
0.0
176
     3
177
     3
271
     3
178
     2
179
     3
271
     3
340
11
342
88
371
    -1
372
    -1
  0
DIMSTYLE
105
20C
102
{ACAD_REACTORS
330
20D
102
}
330
A
100
AcDbSymbolTableRecord
100
AcDbDimStyleTableRecord
  2
DIMSTYEX_1
 70
     0
 40
2.0
 41
2.0
 42
1.0
 43
2.969960569123145
 44
1.0
 73
     0
 74
     0
 77
     3
 78
     8
 79
     2
140
3.584
141
0.0
146
0.5
147
0.0
173
     1
176
     3
177
     3
271
     3
178
     2
179
     3
271
     3
272
     3
340
83
342
88
343
88
344
88
371
    -1
372
    -1
  0
DIMSTYLE
105
21A
102
{ACAD_REACTORS
330
21B
102
}
330
A
100
AcDbSymbolTableRecord
100
AcDbDimStyleTableRecord
  2
DIMSTYEX_2
 70
     0
 40
2.0
 41
2.0
 42
1.0
 43
0.0
 44
1.0
 73
     0
 74
     0
 77
     3
 78
     8
 79
     2
140
3.584
141
0.0
146
0.5
147
0.0
173
     1
176
     3
177
     3
271
     3
178
     2
179
     3
271
     3
272
     3
340
83
342
88
343
88
344
88
371
    -1
372
    -1
  0
DIMSTYLE
105
228
102
{ACAD_REACTORS
330
229
102
}
330
A
100
AcDbSymbolTableRecord
100
AcDbDimStyleTableRecord
  2
DIMSTYEX_3
 70
     0
 40
2.0
 41
2.0
 42
1.0
 43
8.125952544037972
 44
1.0
 73
     0
 74
     0
 77
     3
 78
     8
 79
     2
140
3.584
141
0.0
146
0.5
147
0.0
173
     1
176
     3
177
     3
271
     3
178
     2
179
     3
271
     3
272
     3
340
83
342
88
343
88
344
88
371
    -1
372
    -1
  0
DIMSTYLE
105
236
102
{ACAD_REACTORS
330
237
102
}
330
A
100
AcDbSymbolTableRecord
100
AcDbDimStyleTableRecord
  2
DIMSTYEX_4
 70
     0
 40
2.0
 41
2.0
 42
1.0
 43
35.94648480651438
 44
1.0
 73
     0
 74
     0
 77
     3
 78
     8
 79
     2
140
3.584
141
0.0
146
0.5
147
0.0
173
     1
176
     3
177
     3
271
     3
178
     2
179
     3
271
     3
272
     3
340
83
342
88
343
88
344
88
371
    -1
372
    -1
  0
DIMSTYLE
105
23D
330
A
100
AcDbSymbolTableRecord
100
AcDbDimStyleTableRecord
  2
DIMSTYEX_5
 70
     0
 40
2.0
 41
2.0
 42
1.0
 43
7.0
 44
1.0
 73
     0
 74
     0
 77
     3
 78
     8
 79
     2
140
4.0
141
0.0
146
0.5
147
0.0
176
     3
177
     3
271
     3
178
     2
179
     3
271
     3
340
11
341
88
342
88
371
    -1
372
    -1
  0
DIMSTYLE
105
245
330
A
100
AcDbSymbolTableRecord
100
AcDbDimStyleTableRecord
  2
DIMSTYEX_6
 70
     0
 40
2.0
 41
2.0
 42
1.0
 43
7.0
 44
1.0
 73
     0
 74
     0
 77
     3
 78
     8
 79
     2
140
4.0
141
0.0
146
0.5
147
0.0
176
     3
177
     3
271
     3
178
     2
179
     3
271
     3
340
11
341
88
342
88
371
    -1
372
    -1
  0
DIMSTYLE
105
24D
330
A
100
AcDbSymbolTableRecord
100
AcDbDimStyleTableRecord
  2
DIMSTYEX_7
 70
     0
 40
2.0
 41
2.0
 42
1.0
 43
7.0
 44
1.0
 73
     0
 74
     0
 77
     3
 78
     8
 79
     2
140
4.0
141
0.0
146
0.5
147
0.0
176
     3
177
     3
271
     3
178
     2
179
     3
271
     3
340
11
341
88
342
88
371
    -1
372
    -1
  0
DIMSTYLE
105
267
330
A
100
AcDbSymbolTableRecord
100
AcDbDimStyleTableRecord
  2
DIMSTYEX_8
 70
     0
 40
2.0
 41
2.0
 42
1.0
 43
7.0
 44
1.0
 73
     0
 74
     0
 77
     3
 78
     8
 79
     2
140
4.0
141
0.0
146
0.5
147
0.0
176
     7
177
     7
271
     3
178
     2
179
     3
271
     3
340
11
341
88
342
88
371
    -1
372
    -1
  0
DIMSTYLE
105
275
102
{ACAD_REACTORS
330
276
102
}
330
A
100
AcDbSymbolTableRecord
100
AcDbDimStyleTableRecord
  2
DIMSTYEX_9
 70
     0
 40
2.0
 41
2.0
 42
1.0
 43
0.0
 44
1.0
 73
     0
 74
     0
 77
     3
 78
     8
 79
     2
140
3.584
141
0.0
146
0.5
147
1.0
173
     1
176
     3
177
     3
271
     3
178
     2
179
     3
271
     3
272
     3
340
83
342
88
343
88
344
88
371
    -1
372
    -1
  0
DIMSTYLE
105
300
102
{ACAD_REACTORS
330
301
102
}
330
A
100
AcDbSymbolTableRecord
100
AcDbDimStyleTableRecord
  2
DIMSTYEX_10
 70
     0
 40
2.0
 41
2.0
 42
1.0
 43
14.0
 44
1.0
 73
     0
 74
     0
 75
     1
 77
     1
 78
     8
 79
     2
140
3.584
141
0.0
146
0.5
147
0.0
173
     1
176
     3
177
     3
271
     3
178
     2
179
     3
271
     3
272
     3
281
     1
340
83
342
88
343
AE
344
88
371
    -1
372
    -1
  0
DIMSTYLE
105
30E
102
{ACAD_REACTORS
330
30F
102
}
330
A
100
AcDbSymbolTableRecord
100
AcDbDimStyleTableRecord
  2
DIMSTYEX_11
 70
     0
 40
2.0
 41
2.0
 42
1.0
 43
7.0
 44
1.0
 73
     0
 74
     0
 77
     3
 78
     8
 79
     2
140
3.584
141
0.0
146
0.5
147
0.0
173
     1
176
     3
177
     3
271
     3
178
     2
179
     3
271
     3
272
     3
340
83
342
88
343
88
344
88
371
    -1
372
    -1
  0
DIMSTYLE
105
332
102
{ACAD_REACTORS
330
333
102
}
330
A
100
AcDbSymbolTableRecord
100
AcDbDimStyleTableRecord
  2
DIMSTYEX_12
 70
     0
 40
2.0
 41
2.0
 42
1.0
 43
7.0
 44
1.0
 73
     0
 74
     0
 75
     1
 77
     1
 78
     8
 79
     2
140
3.584
141
0.0
146
0.5
147
0.0
173
     1
176
     3
177
     3
271
     3
178
     2
179
     3
271
     3
272
     3
281
     1
340
83
342
88
343
AE
344
88
371
    -1
372
    -1
  0
DIMSTYLE
105
339
330
A
100
AcDbSymbolTableRecord
100
AcDbDimStyleTableRecord
  2
DIMSTYEX_13
 70
     0
 40
2.0
 41
2.0
 42
1.0
 43
7.0
 44
1.0
 73
     0
 74
     0
 77
     3
 78
     8
 79
     2
140
4.0
141
0.0
146
0.5
147
0.0
176
     3
177
     3
271
     3
178
     2
179
     3
271
     3
340
11
341
88
342
88
371
    -1
372
    -1
  0
DIMSTYLE
105
341
330
A
100
AcDbSymbolTableRecord
100
AcDbDimStyleTableRecord
  2
DIMSTYEX_14
 70
     0
 40
2.0
 41
2.0
 42
1.0
 43
7.0
 44
1.0
 73
     0
 74
     0
 77
     3
 78
     8
 79
     2
140
4.0
141
0.0
146
0.5
147
0.0
176
     3
177
     3
271
     3
178
     2
179
     3
271
     3
340
11
341
88
342
88
371
    -1
372
    -1
  0
DIMSTYLE
105
349
330
A
100
AcDbSymbolTableRecord
100
AcDbDimStyleTableRecord
  2
DIMSTYEX_15
 70
     0
 40
2.0
 41
2.0
 42
1.0
 43
7.0
 44
1.0
 73
     0
 74
     0
 77
     3
 78
     8
 79
     2
140
4.0
141
0.0
146
0.5
147
0.0
176
     3
177
     3
271
     3
178
     2
179
     3
271
     3
340
11
341
88
342
88
371
    -1
372
    -1
  0
DIMSTYLE
105
351
330
A
100
AcDbSymbolTableRecord
100
AcDbDimStyleTableRecord
  2
DIMSTYEX_16
 70
     0
 40
2.0
 41
2.0
 42
1.0
 43
7.0
 44
1.0
 73
     0
 74
     0
 77
     3
 78
     8
 79
     2
140
4.0
141
0.0
146
0.5
147
0.0
176
     3
177
     3
271
     3
178
     2
179
     3
271
     3
340
11
341
88
342
88
371
    -1
372
    -1
  0
DIMSTYLE
105
360
102
{ACAD_REACTORS
330
361
102
}
330
A
100
AcDbSymbolTableRecord
100
AcDbDimStyleTableRecord
  2
DIMSTYEX_17
 70
     0
 40
2.0
 41
2.0
 42
1.0
 43
1.00383588451183
 44
1.0
 73
     0
 74
     0
 77
     3
 78
     8
 79
     2
140
3.584
141
0.0
146
0.5
147
0.0
173
     1
176
     3
177
     3
271
     3
178
     2
179
     3
271
     3
272
     3
340
83
342
88
343
88
344
88
371
    -1
372
    -1
  0
ENDTAB
  0
TABLE
  2
BLOCK_RECORD
  5
1
330
0
100
AcDbSymbolTable
 70
    38
  0
BLOCK_RECORD
  5
1F
330
1
100
AcDbSymbolTableRecord
100
AcDbBlockTableRecord
  2
*Model_Space
340
22
  0
BLOCK_RECORD
  5
1B
330
1
100
AcDbSymbolTableRecord
100
AcDbBlockTableRecord
  2
*Paper_Space
340
1E
  0
BLOCK_RECORD
  5
84
330
1
100
AcDbSymbolTableRecord
100
AcDbBlockTableRecord
  2
_SMALL
340
0
  0
BLOCK_RECORD
  5
88
330
1
100
AcDbSymbolTableRecord
100
AcDbBlockTableRecord
  2
_OPEN30
340
0
102
{BLKREFS
331
205
331
206
331
214
331
215
331
222
331
223
331
230
331
231
331
26F
331
270
331
2FB
331
308
331
309
331
32D
331
35A
331
35B
102
}
  0
BLOCK_RECORD
  5
8E
330
1
100
AcDbSymbolTableRecord
100
AcDbBlockTableRecord
  2
_OBLIQUE
340
0
  0
BLOCK_RECORD
  5
92
330
1
100
AcDbSymbolTableRecord
100
AcDbBlockTableRecord
  2
_DOT
340
0
  0
BLOCK_RECORD
  5
96
330
1
100
AcDbSymbolTableRecord
100
AcDbBlockTableRecord
  2
_DOTSMALL
340
0
  0
BLOCK_RECORD
  5
9A
330
1
100
AcDbSymbolTableRecord
100
AcDbBlockTableRecord
  2
_DATUMFILLED
340
0
  0
BLOCK_RECORD
  5
9E
330
1
100
AcDbSymbolTableRecord
100
AcDbBlockTableRecord
  2
DATUMFILLED2
340
0
  0
BLOCK_RECORD
  5
A2
330
1
100
AcDbSymbolTableRecord
100
AcDbBlockTableRecord
  2
_DATUMBLANK
340
0
  0
BLOCK_RECORD
  5
A8
330
1
100
AcDbSymbolTableRecord
100
AcDbBlockTableRecord
  2
DATUMBLANK2
340
0
  0
BLOCK_RECORD
  5
AE
330
1
100
AcDbSymbolTableRecord
100
AcDbBlockTableRecord
  2
_NONE
340
0
  0
BLOCK_RECORD
  5
B4
330
1
100
AcDbSymbolTableRecord
100
AcDbBlockTableRecord
  2
BLK0
340
0
102
{BLKREFS
331
D4
102
}
  0
BLOCK_RECORD
  5
110
330
1
100
AcDbSymbolTableRecord
100
AcDbBlockTableRecord
  2
MAKR0
340
0
102
{BLKREFS
331
115
102
}
  0
BLOCK_RECORD
  5
116
330
1
100
AcDbSymbolTableRecord
100
AcDbBlockTableRecord
  2
MAKR1
340
0
102
{BLKREFS
331
11B
102
}
  0
BLOCK_RECORD
  5
129
330
1
100
AcDbSymbolTableRecord
100
AcDbBlockTableRecord
  2
MAKR2
340
0
102
{BLKREFS
331
12E
102
}
  0
BLOCK_RECORD
  5
134
330
1
100
AcDbSymbolTableRecord
100
AcDbBlockTableRecord
  2
MAKR3
340
0
102
{BLKREFS
331
139
102
}
  0
BLOCK_RECORD
  5
13F
330
1
100
AcDbSymbolTableRecord
100
AcDbBlockTableRecord
  2
MAKR4
340
0
102
{BLKREFS
331
144
102
}
  0
BLOCK_RECORD
  5
149
330
1
100
AcDbSymbolTableRecord
100
AcDbBlockTableRecord
  2
MAKR5
340
0
102
{BLKREFS
331
14E
102
}
  0
BLOCK_RECORD
  5
153
330
1
100
AcDbSymbolTableRecord
100
AcDbBlockTableRecord
  2
MAKR6
340
0
102
{BLKREFS
331
158
102
}
  0
BLOCK_RECORD
  5
1FF
330
1
100
AcDbSymbolTableRecord
100
AcDbBlockTableRecord
  2
_D1
340
0
  0
BLOCK_RECORD
  5
20E
330
1
100
AcDbSymbolTableRecord
100
AcDbBlockTableRecord
  2
_D2
340
0
  0
BLOCK_RECORD
  5
21C
330
1
100
AcDbSymbolTableRecord
100
AcDbBlockTableRecord
  2
_D3
340
0
  0
BLOCK_RECORD
  5
22A
330
1
100
AcDbSymbolTableRecord
100
AcDbBlockTableRecord
  2
_D4
340
0
  0
BLOCK_RECORD
  5
238
330
1
100
AcDbSymbolTableRecord
100
AcDbBlockTableRecord
  2
BALN0
340
0
102
{BLKREFS
331
23F
102
}
  0
BLOCK_RECORD
  5
240
330
1
100
AcDbSymbolTableRecord
100
AcDbBlockTableRecord
  2
BALN1
340
0
102
{BLKREFS
331
247
102
}
  0
BLOCK_RECORD
  5
248
330
1
100
AcDbSymbolTableRecord
100
AcDbBlockTableRecord
  2
BALN2
340
0
102
{BLKREFS
331
24F
102
}
  0
BLOCK_RECORD
  5
255
330
1
100
AcDbSymbolTableRecord
100
AcDbBlockTableRecord
  2
BLK1
340
0
102
{BLKREFS
331
265
102
}
  0
BLOCK_RECORD
  5
269
330
1
100
AcDbSymbolTableRecord
100
AcDbBlockTableRecord
  2
_D5
340
0
  0
BLOCK_RECORD
  5
277
330
1
100
AcDbSymbolTableRecord
100
AcDbBlockTableRecord
  2
BLK2
340
0
102
{BLKREFS
331
2CE
102
}
  0
BLOCK_RECORD
  5
2F6
330
1
100
AcDbSymbolTableRecord
100
AcDbBlockTableRecord
  2
_D6
340
0
  0
BLOCK_RECORD
  5
302
330
1
100
AcDbSymbolTableRecord
100
AcDbBlockTableRecord
  2
_D7
340
0
  0
BLOCK_RECORD
  5
328
330
1
100
AcDbSymbolTableRecord
100
AcDbBlockTableRecord
  2
_D8
340
0
  0
BLOCK_RECORD
  5
334
330
1
100
AcDbSymbolTableRecord
100
AcDbBlockTableRecord
  2
BALN3
340
0
102
{BLKREFS
331
33B
102
}
  0
BLOCK_RECORD
  5
33C
330
1
100
AcDbSymbolTableRecord
100
AcDbBlockTableRecord
  2
BALN4
340
0
102
{BLKREFS
331
343
102
}
  0
BLOCK_RECORD
  5
344
330
1
100
AcDbSymbolTableRecord
100
AcDbBlockTableRecord
  2
BALN5
340
0
102
{BLKREFS
331
34B
102
}
  0
BLOCK_RECORD
  5
34C
330
1
100
AcDbSymbolTableRecord
100
AcDbBlockTableRecord
  2
BALN6
340
0
102
{BLKREFS
331
353
102
}
  0
BLOCK_RECORD
  5
354
330
1
100
AcDbSymbolTableRecord
100
AcDbBlockTableRecord
  2
_D9
340
0
  0
BLOCK_RECORD
  5
362
330
1
100
AcDbSymbolTableRecord
100
AcDbBlockTableRecord
  2
BLK3
340
0
102
{BLKREFS
331
41A
102
}
  0
ENDTAB
  0
ENDSEC
  0
SECTION
  2
BLOCKS
  0
BLOCK
  5
20
330
1F
100
AcDbEntity
  8
0
100
AcDbBlockBegin
  2
*Model_Space
 70
     0
 10
0.0
 20
0.0
 30
0.0
  3
*Model_Space
  1

  0
ENDBLK
  5
21
330
1F
100
AcDbEntity
  8
0
100
AcDbBlockEnd
  0
BLOCK
  5
1C
330
1B
100
AcDbEntity
 67
     1
  8
0
100
AcDbBlockBegin
  2
*Paper_Space
 70
     0
 10
0.0
 20
0.0
 30
0.0
  3
*Paper_Space
  1

  0
ENDBLK
  5
1D
330
1B
100
AcDbEntity
 67
     1
  8
0
100
AcDbBlockEnd
  0
BLOCK
  5
85
330
84
100
AcDbEntity
  8
0
100
AcDbBlockBegin
  2
_SMALL
 70
     0
 10
0.0
 20
0.0
 30
0.0
  3
_SMALL
  1

  0
CIRCLE
  5
87
330
84
100
AcDbEntity
  8
0
  6
ByBlock
 62
     0
370
    -2
100
AcDbCircle
 10
0.0
 20
0.0
 30
0.0
 40
0.1666666666
  0
CIRCLE
  5
41B
330
84
100
AcDbEntity
  8
0
  6
ByBlock
 62
     0
370
    -2
100
AcDbCircle
 10
0.0
 20
0.0
 30
0.0
 40
0.1666666666
  0
ENDBLK
  5
86
330
84
100
AcDbEntity
  8
0
100
AcDbBlockEnd
  0
BLOCK
  5
89
330
88
100
AcDbEntity
  8
0
100
AcDbBlockBegin
  2
_OPEN30
 70
     0
 10
0.0
 20
0.0
 30
0.0
  3
_OPEN30
  1

  0
LINE
  5
8B
330
88
100
AcDbEntity
  8
0
  6
ByBlock
 62
     0
370
    -2
100
AcDbLine
 10
-1.0
 20
0.26794919
 30
0.0
 11
0.0
 21
0.0
 31
0.0
  0
LINE
  5
8C
330
88
100
AcDbEntity
  8
0
  6
ByBlock
 62
     0
370
    -2
100
AcDbLine
 10
0.0
 20
0.0
 30
0.0
 11
-1.0
 21
-0.26794919
 31
0.0
  0
LINE
  5
8D
330
88
100
AcDbEntity
  8
0
  6
ByBlock
 62
     0
370
    -2
100
AcDbLine
 10
0.0
 20
0.0
 30
0.0
 11
-1.0
 21
0.0
 31
0.0
  0
LINE
  5
41C
330
88
100
AcDbEntity
  8
0
  6
ByBlock
 62
     0
370
    -2
100
AcDbLine
 10
-1.0
 20
0.26794919
 30
0.0
 11
0.0
 21
0.0
 31
0.0
  0
LINE
  5
41D
330
88
100
AcDbEntity
  8
0
  6
ByBlock
 62
     0
370
    -2
100
AcDbLine
 10
0.0
 20
0.0
 30
0.0
 11
-1.0
 21
-0.26794919
 31
0.0
  0
LINE
  5
41E
330
88
100
AcDbEntity
  8
0
  6
ByBlock
 62
     0
370
    -2
100
AcDbLine
 10
0.0
 20
0.0
 30
0.0
 11
-1.0
 21
0.0
 31
0.0
  0
ENDBLK
  5
8A
330
88
100
AcDbEntity
  8
0
100
AcDbBlockEnd
  0
BLOCK
  5
8F
330
8E
100
AcDbEntity
  8
0
100
AcDbBlockBegin
  2
_OBLIQUE
 70
     0
 10
0.0
 20
0.0
 30
0.0
  3
_OBLIQUE
  1

  0
LINE
  5
91
330
8E
100
AcDbEntity
  8
0
  6
ByBlock
 62
     0
370
    -2
100
AcDbLine
 10
-0.5
 20
-0.5
 30
0.0
 11
0.5
 21
0.5
 31
0.0
  0
LINE
  5
41F
330
8E
100
AcDbEntity
  8
0
  6
ByBlock
 62
     0
370
    -2
100
AcDbLine
 10
-0.5
 20
-0.5
 30
0.0
 11
0.5
 21
0.5
 31
0.0
  0
ENDBLK
  5
90
330
8E
100
AcDbEntity
  8
0
100
AcDbBlockEnd
  0
BLOCK
  5
93
330
92
100
AcDbEntity
  8
0
100
AcDbBlockBegin
  2
_DOT
 70
     0
 10
0.0
 20
0.0
 30
0.0
  3
_DOT
  1

  0
LWPOLYLINE
  5
95
330
92
100
AcDbEntity
  8
0
  6
ByBlock
 62
     0
370
    -2
100
AcDbPolyline
 90
        2
 70
     1
 43
0.5
 10
-0.25
 20
0.0
 42
1.0
 10
0.25
 20
0.0
 42
1.0
  0
LWPOLYLINE
  5
420
330
92
100
AcDbEntity
  8
0
  6
ByBlock
 62
     0
370
    -2
100
AcDbPolyline
 90
        2
 70
     1
 43
0.5
 10
-0.25
 20
0.0
 42
1.0
 10
0.25
 20
0.0
 42
1.0
  0
ENDBLK
  5
94
330
92
100
AcDbEntity
  8
0
100
AcDbBlockEnd
  0
BLOCK
  5
97
330
96
100
AcDbEntity
  8
0
100
AcDbBlockBegin
  2
_DOTSMALL
 70
     0
 10
0.0
 20
0.0
 30
0.0
  3
_DOTSMALL
  1

  0
LWPOLYLINE
  5
99
330
96
100
AcDbEntity
  8
0
  6
ByBlock
 62
     0
370
    -2
100
AcDbPolyline
 90
        2
 70
     1
 43
0.5
 10
-0.0625
 20
0.0
 42
1.0
 10
0.0625
 20
0.0
 42
1.0
  0
LWPOLYLINE
  5
421
330
96
100
AcDbEntity
  8
0
  6
ByBlock
 62
     0
370
    -2
100
AcDbPolyline
 90
        2
 70
     1
 43
0.5
 10
-0.0625
 20
0.0
 42
1.0
 10
0.0625
 20
0.0
 42
1.0
  0
ENDBLK
  5
98
330
96
100
AcDbEntity
  8
0
100
AcDbBlockEnd
  0
BLOCK
  5
9B
330
9A
100
AcDbEntity
  8
0
100
AcDbBlockBegin
  2
_DATUMFILLED
 70
     0
 10
0.0
 20
0.0
 30
0.0
  3
_DATUMFILLED
  1

  0
SOLID
  5
9D
330
9A
100
AcDbEntity
  8
0
  6
ByBlock
 62
     0
370
    -2
100
AcDbTrace
 10
0.0
 20
0.57735027
 30
0.0
 11
-1.0
 21
0.0
 31
0.0
 12
0.0
 22
-0.57735027
 32
0.0
 13
0.0
 23
-0.57735027
 33
0.0
  0
SOLID
  5
422
330
9A
100
AcDbEntity
  8
0
  6
ByBlock
 62
     0
370
    -2
100
AcDbTrace
 10
0.0
 20
0.57735027
 30
0.0
 11
-1.0
 21
0.0
 31
0.0
 12
0.0
 22
-0.57735027
 32
0.0
 13
0.0
 23
-0.57735027
 33
0.0
  0
ENDBLK
  5
9C
330
9A
100
AcDbEntity
  8
0
100
AcDbBlockEnd
  0
BLOCK
  5
9F
330
9E
100
AcDbEntity
  8
0
100
AcDbBlockBegin
  2
DATUMFILLED2
 70
     0
 10
0.0
 20
0.0
 30
0.0
  3
DATUMFILLED2
  1

  0
SOLID
  5
A1
330
9E
100
AcDbEntity
  8
0
  6
ByBlock
 62
     0
370
    -2
100
AcDbTrace
 10
0.0
 20
1.0
 30
0.0
 11
-1.0
 21
0.0
 31
0.0
 12
0.0
 22
-1.0
 32
0.0
 13
0.0
 23
-1.0
 33
0.0
  0
SOLID
  5
423
330
9E
100
AcDbEntity
  8
0
  6
ByBlock
 62
     0
370
    -2
100
AcDbTrace
 10
0.0
 20
1.0
 30
0.0
 11
-1.0
 21
0.0
 31
0.0
 12
0.0
 22
-1.0
 32
0.0
 13
0.0
 23
-1.0
 33
0.0
  0
ENDBLK
  5
A0
330
9E
100
AcDbEntity
  8
0
100
AcDbBlockEnd
  0
BLOCK
  5
A3
330
A2
100
AcDbEntity
  8
0
100
AcDbBlockBegin
  2
_DATUMBLANK
 70
     0
 10
0.0
 20
0.0
 30
0.0
  3
_DATUMBLANK
  1

  0
LINE
  5
A5
330
A2
100
AcDbEntity
  8
0
  6
ByBlock
 62
     0
370
    -2
100
AcDbLine
 10
0.0
 20
0.57735027
 30
0.0
 11
-1.0
 21
0.0
 31
0.0
  0
LINE
  5
A6
330
A2
100
AcDbEntity
  8
0
  6
ByBlock
 62
     0
370
    -2
100
AcDbLine
 10
-1.0
 20
0.0
 30
0.0
 11
0.0
 21
-0.57735027
 31
0.0
  0
LINE
  5
A7
330
A2
100
AcDbEntity
  8
0
  6
ByBlock
 62
     0
370
    -2
100
AcDbLine
 10
0.0
 20
-0.57735027
 30
0.0
 11
0.0
 21
0.57735027
 31
0.0
  0
LINE
  5
424
330
A2
100
AcDbEntity
  8
0
  6
ByBlock
 62
     0
370
    -2
100
AcDbLine
 10
0.0
 20
0.57735027
 30
0.0
 11
-1.0
 21
0.0
 31
0.0
  0
LINE
  5
425
330
A2
100
AcDbEntity
  8
0
  6
ByBlock
 62
     0
370
    -2
100
AcDbLine
 10
-1.0
 20
0.0
 30
0.0
 11
0.0
 21
-0.57735027
 31
0.0
  0
LINE
  5
426
330
A2
100
AcDbEntity
  8
0
  6
ByBlock
 62
     0
370
    -2
100
AcDbLine
 10
0.0
 20
-0.57735027
 30
0.0
 11
0.0
 21
0.57735027
 31
0.0
  0
ENDBLK
  5
A4
330
A2
100
AcDbEntity
  8
0
100
AcDbBlockEnd
  0
BLOCK
  5
A9
330
A8
100
AcDbEntity
  8
0
100
AcDbBlockBegin
  2
DATUMBLANK2
 70
     0
 10
0.0
 20
0.0
 30
0.0
  3
DATUMBLANK2
  1

  0
LINE
  5
AB
330
A8
100
AcDbEntity
  8
0
  6
ByBlock
 62
     0
370
    -2
100
AcDbLine
 10
0.0
 20
1.0
 30
0.0
 11
-1.0
 21
0.0
 31
0.0
  0
LINE
  5
AC
330
A8
100
AcDbEntity
  8
0
  6
ByBlock
 62
     0
370
    -2
100
AcDbLine
 10
-1.0
 20
0.0
 30
0.0
 11
0.0
 21
-1.0
 31
0.0
  0
LINE
  5
AD
330
A8
100
AcDbEntity
  8
0
  6
ByBlock
 62
     0
370
    -2
100
AcDbLine
 10
0.0
 20
-1.0
 30
0.0
 11
0.0
 21
1.0
 31
0.0
  0
LINE
  5
427
330
A8
100
AcDbEntity
  8
0
  6
ByBlock
 62
     0
370
    -2
100
AcDbLine
 10
0.0
 20
1.0
 30
0.0
 11
-1.0
 21
0.0
 31
0.0
  0
LINE
  5
428
330
A8
100
AcDbEntity
  8
0
  6
ByBlock
 62
     0
370
    -2
100
AcDbLine
 10
-1.0
 20
0.0
 30
0.0
 11
0.0
 21
-1.0
 31
0.0
  0
LINE
  5
429
330
A8
100
AcDbEntity
  8
0
  6
ByBlock
 62
     0
370
    -2
100
AcDbLine
 10
0.0
 20
-1.0
 30
0.0
 11
0.0
 21
1.0
 31
0.0
  0
ENDBLK
  5
AA
330
A8
100
AcDbEntity
  8
0
100
AcDbBlockEnd
  0
BLOCK
  5
AF
330
AE
100
AcDbEntity
  8
0
100
AcDbBlockBegin
  2
_NONE
 70
     0
 10
0.0
 20
0.0
 30
0.0
  3
_NONE
  1

  0
ENDBLK
  5
B0
330
AE
100
AcDbEntity
  8
0
100
AcDbBlockEnd
  0
BLOCK
  5
B5
330
B4
100
AcDbEntity
  8
0
100
AcDbBlockBegin
  2
BLK0
 70
     0
 10
402.0339800638226
 20
-1825.991641020337
 30
0.0
  3
BLK0
  1

  0
LINE
  5
B7
330
B4
100
AcDbEntity
  8
1
  6
Continuous
 62
     7
100
AcDbLine
 10
368.0339800638226
 20
-1825.991641020337
 30
0.0
 11
368.0339800638226
 21
-1859.991641020337
 31
0.0
  0
LINE
  5
B8
330
B4
100
AcDbEntity
  8
1
  6
Continuous
 62
     7
100
AcDbLine
 10
358.0339900638223
 20
-1859.991641020337
 30
0.0
 11
358.0339900638223
 21
-1825.991641020337
 31
0.0
  0
LINE
  5
B9
330
B4
100
AcDbEntity
  8
1
  6
Continuous
 62
     7
100
AcDbLine
 10
324.0339900638226
 20
-1825.991641020337
 30
0.0
 11
324.0339900638226
 21
-1859.991641020337
 31
0.0
  0
LINE
  5
BA
330
B4
100
AcDbEntity
  8
1
  6
Continuous
 62
     7
100
AcDbLine
 10
314.0340000638225
 20
-1859.991641020337
 30
0.0
 11
314.0340000638225
 21
-1825.991641020337
 31
0.0
  0
MTEXT
  5
BD
330
B4
100
AcDbEntity
  8
1
  6
Continuous
 62
     7
100
AcDbMText
 10
315.5339950638224
 20
-1850.772539755229
 30
0.0
 40
7.0
 41
0.0
 71
     7
 72
     5
  1
{\fＭＳ 明朝|b0|i0|c128|p17;\W1.0;査}
  7
MTSTANDARD1
 73
     1
 44
0.8392857142857144
  0
MTEXT
  5
BE
330
B4
100
AcDbEntity
  8
1
  6
Continuous
 62
     7
100
AcDbMText
 10
359.5339850638225
 20
-1850.772539755229
 30
0.0
 40
7.0
 41
0.0
 71
     7
 72
     5
  1
{\fＭＳ 明朝|b0|i0|c128|p17;\W1.0;認}
  7
MTSTANDARD1
 73
     1
 44
0.8392857142857144
  0
MTEXT
  5
BF
330
B4
100
AcDbEntity
  8
1
  6
Continuous
 62
     7
100
AcDbMText
 10
359.5339850638225
 20
-1842.772547755229
 30
0.0
 40
7.0
 41
0.0
 71
     7
 72
     5
  1
{\fＭＳ 明朝|b0|i0|c128|p17;\W1.0;承}
  7
MTSTANDARD1
 73
     1
 44
0.8392857142857144
  0
MTEXT
  5
C0
330
B4
100
AcDbEntity
  8
1
  6
Continuous
 62
     7
100
AcDbMText
 10
315.5339950638224
 20
-1842.772547755229
 30
0.0
 40
7.0
 41
0.0
 71
     7
 72
     5
  1
{\fＭＳ 明朝|b0|i0|c128|p17;\W1.0;照}
  7
MTSTANDARD1
 73
     1
 44
0.8392857142857144
  0
CIRCLE
  5
C1
330
B4
100
AcDbEntity
  8
1
  6
Continuous
 62
     7
100
AcDbCircle
 10
296.9685730544766
 20
-1843.093510506318
 30
0.0
 40
16.0
  0
LINE
  5
C2
330
B4
100
AcDbEntity
  8
1
  6
Continuous
 62
     7
100
AcDbLine
 10
281.4766396696468
 20
-1839.093510506318
 30
0.0
 11
312.4605064393063
 21
-1839.093510506318
 31
0.0
  0
LINE
  5
C3
330
B4
100
AcDbEntity
  8
1
  6
Continuous
 62
     7
100
AcDbLine
 10
281.4766396696468
 20
-1847.093510506318
 30
0.0
 11
312.4605064393063
 21
-1847.093510506318
 31
0.0
  0
MTEXT
  5
C4
330
B4
100
AcDbEntity
  8
1
  6
Continuous
 62
     7
100
AcDbMText
 10
292.9685730544763
 20
-1837.093510506318
 30
0.0
 40
8.0
 41
0.0
 71
     7
 72
     5
  1
{\fＭＳ 明朝|b0|i0|c128|p17;\W1.0;笛}
  7
MTSTANDARD
 73
     1
 44
0.78125
  0
MTEXT
  5
C5
330
B4
100
AcDbEntity
  8
1
  6
Continuous
 62
     7
100
AcDbMText
 10
292.9685730544763
 20
-1857.093510506318
 30
0.0
 40
8.0
 41
0.0
 71
     7
 72
     5
  1
{\fＭＳ 明朝|b0|i0|c128|p17;\W1.0;木}
  7
MTSTANDARD
 73
     1
 44
0.78125
  0
MTEXT
  5
C7
330
B4
100
AcDbEntity
  8
1
  6
Continuous
 62
     7
100
AcDbMText
 10
284.4685730544763
 20
-1845.593510506318
 30
0.0
 40
5.0
 41
0.0
 71
     7
 72
     5
  1
{\fＭＳ 明朝|b0|i0|c128|p17;\W1.0;2015.04.08}
  7
MTSTANDARD2
 73
     1
 44
0.875
  0
CIRCLE
  5
C8
330
B4
100
AcDbEntity
  8
1
  6
Continuous
 62
     7
100
AcDbCircle
 10
341.043312493729
 20
-1843.093510506318
 30
0.0
 40
16.0
  0
LINE
  5
C9
330
B4
100
AcDbEntity
  8
1
  6
Continuous
 62
     7
100
AcDbLine
 10
325.5513791088993
 20
-1839.093510506318
 30
0.0
 11
356.5352458785587
 21
-1839.093510506318
 31
0.0
  0
LINE
  5
CA
330
B4
100
AcDbEntity
  8
1
  6
Continuous
 62
     7
100
AcDbLine
 10
325.5513791088993
 20
-1847.093510506318
 30
0.0
 11
356.5352458785587
 21
-1847.093510506318
 31
0.0
  0
CIRCLE
  5
CB
330
B4
100
AcDbEntity
  8
1
  6
Continuous
 62
     7
100
AcDbCircle
 10
385.1180519329814
 20
-1843.093510506318
 30
0.0
 40
16.0
  0
LINE
  5
CC
330
B4
100
AcDbEntity
  8
1
  6
Continuous
 62
     7
100
AcDbLine
 10
369.6261185481517
 20
-1839.093510506318
 30
0.0
 11
400.6099853178112
 21
-1839.093510506318
 31
0.0
  0
LINE
  5
CD
330
B4
100
AcDbEntity
  8
1
  6
Continuous
 62
     7
100
AcDbLine
 10
369.6261185481517
 20
-1847.093510506318
 30
0.0
 11
400.6099853178112
 21
-1847.093510506318
 31
0.0
  0
MTEXT
  5
CE
330
B4
100
AcDbEntity
  8
1
  6
Continuous
 62
     7
100
AcDbMText
 10
337.0433124937288
 20
-1837.093510506318
 30
0.0
 40
8.0
 41
0.0
 71
     7
 72
     5
  1
{\fＭＳ 明朝|b0|i0|c128|p17;\W1.0;野}
  7
MTSTANDARD
 73
     1
 44
0.78125
  0
MTEXT
  5
CF
330
B4
100
AcDbEntity
  8
1
  6
Continuous
 62
     7
100
AcDbMText
 10
337.0433124937288
 20
-1857.093510506318
 30
0.0
 40
8.0
 41
0.0
 71
     7
 72
     5
  1
{\fＭＳ 明朝|b0|i0|c128|p17;\W1.0;島}
  7
MTSTANDARD
 73
     1
 44
0.78125
  0
MTEXT
  5
D0
330
B4
100
AcDbEntity
  8
1
  6
Continuous
 62
     7
100
AcDbMText
 10
328.5433124937288
 20
-1845.593510506318
 30
0.0
 40
5.0
 41
0.0
 71
     7
 72
     5
  1
{\fＭＳ 明朝|b0|i0|c128|p17;\W1.0;2015.04.08}
  7
MTSTANDARD2
 73
     1
 44
0.875
  0
MTEXT
  5
D1
330
B4
100
AcDbEntity
  8
1
  6
Continuous
 62
     7
100
AcDbMText
 10
381.1180519329812
 20
-1837.093510506318
 30
0.0
 40
8.0
 41
0.0
 71
     7
 72
     5
  1
{\fＭＳ 明朝|b0|i0|c128|p17;\W1.0;野}
  7
MTSTANDARD
 73
     1
 44
0.78125
  0
MTEXT
  5
D2
330
B4
100
AcDbEntity
  8
1
  6
Continuous
 62
     7
100
AcDbMText
 10
381.1180519329812
 20
-1857.093510506318
 30
0.0
 40
8.0
 41
0.0
 71
     7
 72
     5
  1
{\fＭＳ 明朝|b0|i0|c128|p17;\W1.0;島}
  7
MTSTANDARD
 73
     1
 44
0.78125
  0
MTEXT
  5
D3
330
B4
100
AcDbEntity
  8
1
  6
Continuous
 62
     7
100
AcDbMText
 10
372.6180519329812
 20
-1845.593510506318
 30
0.0
 40
5.0
 41
0.0
 71
     7
 72
     5
  1
{\fＭＳ 明朝|b0|i0|c128|p17;\W1.0;2015.04.08}
  7
MTSTANDARD2
 73
     1
 44
0.875
  0
ENDBLK
  5
B6
330
B4
100
AcDbEntity
  8
0
100
AcDbBlockEnd
  0
BLOCK
  5
111
330
110
100
AcDbEntity
  8
0
100
AcDbBlockBegin
  2
MAKR0
 70
     0
 10
0.690962913739753
 20
-1742.182113848461
 30
0.0
  3
MAKR0
  1

  0
CIRCLE
  5
113
330
110
100
AcDbEntity
  8
1
  6
ByBlock
 62
     3
100
AcDbCircle
 10
0.690962913739753
 20
-1742.182113848461
 30
0.0
 40
7.0
  0
MTEXT
  5
114
330
110
100
AcDbEntity
  8
1
  6
Continuous
 62
     2
100
AcDbMText
 10
-1.309037086260247
 20
-1746.182113848461
 30
0.0
 40
8.0
 41
0.0
 71
     7
 72
     5
  1
{\fＭＳ ゴシック|b0|i0|c128|p49;\W1.0;1}
  7
MTSTANDARD
 73
     1
 44
0.78125
  0
ENDBLK
  5
112
330
110
100
AcDbEntity
  8
0
100
AcDbBlockEnd
  0
BLOCK
  5
117
330
116
100
AcDbEntity
  8
0
100
AcDbBlockBegin
  2
MAKR1
 70
     0
 10
0.690962913739753
 20
-1758.182113848461
 30
0.0
  3
MAKR1
  1

  0
CIRCLE
  5
119
330
116
100
AcDbEntity
  8
1
  6
ByBlock
 62
     3
100
AcDbCircle
 10
0.690962913739753
 20
-1758.182113848461
 30
0.0
 40
7.0
  0
MTEXT
  5
11A
330
116
100
AcDbEntity
  8
1
  6
Continuous
 62
     2
100
AcDbMText
 10
-1.309037086260247
 20
-1762.182113848461
 30
0.0
 40
8.0
 41
0.0
 71
     7
 72
     5
  1
{\fＭＳ ゴシック|b0|i0|c128|p49;\W1.0;2}
  7
MTSTANDARD
 73
     1
 44
0.78125
  0
ENDBLK
  5
118
330
116
100
AcDbEntity
  8
0
100
AcDbBlockEnd
  0
BLOCK
  5
12A
330
129
100
AcDbEntity
  8
0
100
AcDbBlockBegin
  2
MAKR2
 70
     0
 10
0.690962913739753
 20
-1774.182113848461
 30
0.0
  3
MAKR2
  1

  0
CIRCLE
  5
12C
330
129
100
AcDbEntity
  8
1
  6
ByBlock
 62
     3
100
AcDbCircle
 10
0.690962913739753
 20
-1774.182113848461
 30
0.0
 40
7.0
  0
MTEXT
  5
12D
330
129
100
AcDbEntity
  8
1
  6
Continuous
 62
     2
100
AcDbMText
 10
-1.309037086260247
 20
-1778.182113848461
 30
0.0
 40
8.0
 41
0.0
 71
     7
 72
     5
  1
{\fＭＳ ゴシック|b0|i0|c128|p49;\W1.0;3}
  7
MTSTANDARD
 73
     1
 44
0.78125
  0
ENDBLK
  5
12B
330
129
100
AcDbEntity
  8
0
100
AcDbBlockEnd
  0
BLOCK
  5
135
330
134
100
AcDbEntity
  8
0
100
AcDbBlockBegin
  2
MAKR3
 70
     0
 10
0.690962913739753
 20
-1790.182113848461
 30
0.0
  3
MAKR3
  1

  0
CIRCLE
  5
137
330
134
100
AcDbEntity
  8
1
  6
ByBlock
 62
     3
100
AcDbCircle
 10
0.690962913739753
 20
-1790.182113848461
 30
0.0
 40
7.0
  0
MTEXT
  5
138
330
134
100
AcDbEntity
  8
1
  6
Continuous
 62
     2
100
AcDbMText
 10
-1.309037086260247
 20
-1794.182113848461
 30
0.0
 40
8.0
 41
0.0
 71
     7
 72
     5
  1
{\fＭＳ ゴシック|b0|i0|c128|p49;\W1.0;4}
  7
MTSTANDARD
 73
     1
 44
0.78125
  0
ENDBLK
  5
136
330
134
100
AcDbEntity
  8
0
100
AcDbBlockEnd
  0
BLOCK
  5
140
330
13F
100
AcDbEntity
  8
0
100
AcDbBlockBegin
  2
MAKR4
 70
     0
 10
0.690962913739753
 20
-1806.182113848461
 30
0.0
  3
MAKR4
  1

  0
CIRCLE
  5
142
330
13F
100
AcDbEntity
  8
1
  6
ByBlock
 62
     3
100
AcDbCircle
 10
0.690962913739753
 20
-1806.182113848461
 30
0.0
 40
7.0
  0
MTEXT
  5
143
330
13F
100
AcDbEntity
  8
1
  6
Continuous
 62
     2
100
AcDbMText
 10
-1.309037086260247
 20
-1810.182113848461
 30
0.0
 40
8.0
 41
0.0
 71
     7
 72
     5
  1
{\fＭＳ ゴシック|b0|i0|c128|p49;\W1.0;5}
  7
MTSTANDARD
 73
     1
 44
0.78125
  0
ENDBLK
  5
141
330
13F
100
AcDbEntity
  8
0
100
AcDbBlockEnd
  0
BLOCK
  5
14A
330
149
100
AcDbEntity
  8
0
100
AcDbBlockBegin
  2
MAKR5
 70
     0
 10
0.690962913739753
 20
-1822.182113848461
 30
0.0
  3
MAKR5
  1

  0
CIRCLE
  5
14C
330
149
100
AcDbEntity
  8
1
  6
ByBlock
 62
     3
100
AcDbCircle
 10
0.690962913739753
 20
-1822.182113848461
 30
0.0
 40
7.0
  0
MTEXT
  5
14D
330
149
100
AcDbEntity
  8
1
  6
Continuous
 62
     2
100
AcDbMText
 10
-1.309037086260247
 20
-1826.182113848461
 30
0.0
 40
8.0
 41
0.0
 71
     7
 72
     5
  1
{\fＭＳ ゴシック|b0|i0|c128|p49;\W1.0;6}
  7
MTSTANDARD
 73
     1
 44
0.78125
  0
ENDBLK
  5
14B
330
149
100
AcDbEntity
  8
0
100
AcDbBlockEnd
  0
BLOCK
  5
154
330
153
100
AcDbEntity
  8
0
100
AcDbBlockBegin
  2
MAKR6
 70
     0
 10
0.690962913739753
 20
-1838.182113848461
 30
0.0
  3
MAKR6
  1

  0
CIRCLE
  5
156
330
153
100
AcDbEntity
  8
1
  6
ByBlock
 62
     3
100
AcDbCircle
 10
0.690962913739753
 20
-1838.182113848461
 30
0.0
 40
7.0
  0
MTEXT
  5
157
330
153
100
AcDbEntity
  8
1
  6
Continuous
 62
     2
100
AcDbMText
 10
-1.309037086260247
 20
-1842.182113848461
 30
0.0
 40
8.0
 41
0.0
 71
     7
 72
     5
  1
{\fＭＳ ゴシック|b0|i0|c128|p49;\W1.0;7}
  7
MTSTANDARD
 73
     1
 44
0.78125
  0
ENDBLK
  5
155
330
153
100
AcDbEntity
  8
0
100
AcDbBlockEnd
  0
BLOCK
  5
200
330
1FF
100
AcDbEntity
  8
0
100
AcDbBlockBegin
  2
_D1
 70
     0
 10
0.0
 20
0.0
 30
0.0
  3
_D1
  1

  0
LINE
  5
202
330
1FF
100
AcDbEntity
  8
1
  6
ByBlock
 62
     3
100
AcDbLine
 10
229.9919234376434
 20
-1676.961095065133
 30
0.0
 11
229.9919234376434
 21
-1694.89934648783
 31
0.0
  0
LINE
  5
203
330
1FF
100
AcDbEntity
  8
1
  6
ByBlock
 62
     3
100
AcDbLine
 10
229.9919234376434
 20
-1692.89934648783
 30
0.0
 11
289.6059234376432
 21
-1692.89934648783
 31
0.0
  0
LINE
  5
204
330
1FF
100
AcDbEntity
  8
1
  6
ByBlock
 62
     3
100
AcDbLine
 10
289.6059234376432
 20
-1676.961095065134
 30
0.0
 11
289.6059234376432
 21
-1694.89934648783
 31
0.0
  0
INSERT
  5
205
330
1FF
100
AcDbEntity
  8
1
  6
ByBlock
 62
     3
100
AcDbBlockReference
  2
_OPEN30
 10
229.9919234376434
 20
-1692.89934648783
 30
0.0
 41
3.939231012048822
 42
3.939231012048822
 43
3.939231012048822
 50
180.0
  0
INSERT
  5
206
330
1FF
100
AcDbEntity
  8
1
  6
ByBlock
 62
     3
100
AcDbBlockReference
  2
_OPEN30
 10
289.6059234376432
 20
-1692.89934648783
 30
0.0
 41
3.939231012048822
 42
3.939231012048822
 43
3.939231012048822
  0
MTEXT
  5
208
330
1FF
100
AcDbEntity
  8
1
  6
Continuous
 62
     2
100
AcDbMText
 10
249.7989234376433
 20
-1692.89934648783
 30
0.0
 40
8.0
 41
0.0
 71
     7
 72
     5
  1
Ｒｃ２
  7
MTSTANDARD6
 73
     1
 44
0.9375
  0
POINT
  5
209
330
1FF
100
AcDbEntity
  8
DEFPOINTS
  6
ByBlock
 62
     3
100
AcDbPoint
 10
229.9919234376434
 20
-1674.961095065133
 30
0.0
  0
POINT
  5
20A
330
1FF
100
AcDbEntity
  8
DEFPOINTS
  6
ByBlock
 62
     3
100
AcDbPoint
 10
289.6059234376432
 20
-1674.961095065134
 30
0.0
  0
POINT
  5
20B
330
1FF
100
AcDbEntity
  8
DEFPOINTS
  6
ByBlock
 62
     3
100
AcDbPoint
 10
289.6059234376432
 20
-1692.89934648783
 30
0.0
  0
ENDBLK
  5
201
330
1FF
100
AcDbEntity
  8
0
100
AcDbBlockEnd
  0
BLOCK
  5
20F
330
20E
100
AcDbEntity
  8
0
100
AcDbBlockBegin
  2
_D2
 70
     0
 10
0.0
 20
0.0
 30
0.0
  3
_D2
  1

  0
LINE
  5
211
330
20E
100
AcDbEntity
  8
1
  6
ByBlock
 62
     3
100
AcDbLine
 10
227.552884963056
 20
-1640.461095065133
 30
0.0
 11
251.3931483563052
 21
-1640.461095065133
 31
0.0
  0
LINE
  5
212
330
20E
100
AcDbEntity
  8
1
  6
ByBlock
 62
     3
100
AcDbLine
 10
249.3931483563052
 20
-1640.461095065133
 30
0.0
 11
249.3931483563052
 21
-1590.461095065133
 31
0.0
  0
LINE
  5
213
330
20E
100
AcDbEntity
  8
1
  6
ByBlock
 62
     3
100
AcDbLine
 10
237.6586566629658
 20
-1590.461095065133
 30
0.0
 11
251.3931483563052
 21
-1590.461095065133
 31
0.0
  0
INSERT
  5
214
330
20E
100
AcDbEntity
  8
1
  6
ByBlock
 62
     3
100
AcDbBlockReference
  2
_OPEN30
 10
249.3931483563052
 20
-1640.461095065133
 30
0.0
 41
3.939231012048822
 42
3.939231012048822
 43
3.939231012048822
 50
270.0
  0
INSERT
  5
215
330
20E
100
AcDbEntity
  8
1
  6
ByBlock
 62
     3
100
AcDbBlockReference
  2
_OPEN30
 10
249.3931483563052
 20
-1590.461095065133
 30
0.0
 41
3.939231012048822
 42
3.939231012048822
 43
3.939231012048822
 50
90.0
  0
MTEXT
  5
216
330
20E
100
AcDbEntity
  8
1
  6
Continuous
 62
     2
100
AcDbMText
 10
249.3931483563052
 20
-1621.961095065133
 30
0.0
 40
8.0
 41
0.0
 71
     7
 72
     5
  1
５０
  7
MTSTANDARD6
 11
0.0
 21
1.0
 31
0.0
 73
     1
 44
0.9375
  0
POINT
  5
217
330
20E
100
AcDbEntity
  8
DEFPOINTS
  6
ByBlock
 62
     3
100
AcDbPoint
 10
225.552884963056
 20
-1640.461095065133
 30
0.0
  0
POINT
  5
218
330
20E
100
AcDbEntity
  8
DEFPOINTS
  6
ByBlock
 62
     3
100
AcDbPoint
 10
235.6586566629658
 20
-1590.461095065133
 30
0.0
  0
POINT
  5
219
330
20E
100
AcDbEntity
  8
DEFPOINTS
  6
ByBlock
 62
     3
100
AcDbPoint
 10
249.3931483563052
 20
-1590.461095065133
 30
0.0
  0
ENDBLK
  5
210
330
20E
100
AcDbEntity
  8
0
100
AcDbBlockEnd
  0
BLOCK
  5
21D
330
21C
100
AcDbEntity
  8
0
100
AcDbBlockBegin
  2
_D3
 70
     0
 10
0.0
 20
0.0
 30
0.0
  3
_D3
  1

  0
LINE
  5
21F
330
21C
100
AcDbEntity
  8
1
  6
ByBlock
 62
     3
100
AcDbLine
 10
218.9630276022854
 20
-1674.961095065133
 30
0.0
 11
114.424076169718
 21
-1674.961095065133
 31
0.0
  0
LINE
  5
220
330
21C
100
AcDbEntity
  8
1
  6
ByBlock
 62
     3
100
AcDbLine
 10
116.424076169718
 20
-1674.961095065133
 30
0.0
 11
116.424076169718
 21
-1566.961095065132
 31
0.0
  0
LINE
  5
221
330
21C
100
AcDbEntity
  8
1
  6
ByBlock
 62
     3
100
AcDbLine
 10
140.2989234376392
 20
-1566.961095065132
 30
0.0
 11
114.424076169718
 21
-1566.961095065132
 31
0.0
  0
INSERT
  5
222
330
21C
100
AcDbEntity
  8
1
  6
ByBlock
 62
     3
100
AcDbBlockReference
  2
_OPEN30
 10
116.424076169718
 20
-1674.961095065133
 30
0.0
 41
3.939231012048822
 42
3.939231012048822
 43
3.939231012048822
 50
270.0
  0
INSERT
  5
223
330
21C
100
AcDbEntity
  8
1
  6
ByBlock
 62
     3
100
AcDbBlockReference
  2
_OPEN30
 10
116.424076169718
 20
-1566.961095065132
 30
0.0
 41
3.939231012048822
 42
3.939231012048822
 43
3.939231012048822
 50
90.0
  0
MTEXT
  5
224
330
21C
100
AcDbEntity
  8
1
  6
Continuous
 62
     2
100
AcDbMText
 10
116.424076169718
 20
-1630.961095065133
 30
0.0
 40
8.0
 41
0.0
 71
     7
 72
     5
  1
１０８
  7
MTSTANDARD6
 11
0.0
 21
1.0
 31
0.0
 73
     1
 44
0.9375
  0
POINT
  5
225
330
21C
100
AcDbEntity
  8
DEFPOINTS
  6
ByBlock
 62
     3
100
AcDbPoint
 10
220.9630276022854
 20
-1674.961095065133
 30
0.0
  0
POINT
  5
226
330
21C
100
AcDbEntity
  8
DEFPOINTS
  6
ByBlock
 62
     3
100
AcDbPoint
 10
142.2989234376392
 20
-1566.961095065132
 30
0.0
  0
POINT
  5
227
330
21C
100
AcDbEntity
  8
DEFPOINTS
  6
ByBlock
 62
     3
100
AcDbPoint
 10
116.424076169718
 20
-1566.961095065132
 30
0.0
  0
ENDBLK
  5
21E
330
21C
100
AcDbEntity
  8
0
100
AcDbBlockEnd
  0
BLOCK
  5
22B
330
22A
100
AcDbEntity
  8
0
100
AcDbBlockBegin
  2
_D4
 70
     0
 10
0.0
 20
0.0
 30
0.0
  3
_D4
  1

  0
LINE
  5
22D
330
22A
100
AcDbEntity
  8
1
  6
ByBlock
 62
     3
100
AcDbLine
 10
142.2989234376392
 20
-1564.961095065132
 30
0.0
 11
142.2989234376392
 21
-1430.184875697044
 31
0.0
  0
LINE
  5
22E
330
22A
100
AcDbEntity
  8
1
  6
ByBlock
 62
     3
100
AcDbLine
 10
142.2989234376392
 20
-1432.184875697044
 30
0.0
 11
377.2989234376476
 21
-1432.184875697044
 31
0.0
  0
LINE
  5
22F
330
22A
100
AcDbEntity
  8
1
  6
ByBlock
 62
     3
100
AcDbLine
 10
377.2989234376476
 20
-1564.961095065133
 30
0.0
 11
377.2989234376476
 21
-1430.184875697044
 31
0.0
  0
INSERT
  5
230
330
22A
100
AcDbEntity
  8
1
  6
ByBlock
 62
     3
100
AcDbBlockReference
  2
_OPEN30
 10
142.2989234376392
 20
-1432.184875697044
 30
0.0
 41
3.939231012048822
 42
3.939231012048822
 43
3.939231012048822
 50
180.0
  0
INSERT
  5
231
330
22A
100
AcDbEntity
  8
1
  6
ByBlock
 62
     3
100
AcDbBlockReference
  2
_OPEN30
 10
377.2989234376476
 20
-1432.184875697044
 30
0.0
 41
3.939231012048822
 42
3.939231012048822
 43
3.939231012048822
  0
MTEXT
  5
232
330
22A
100
AcDbEntity
  8
1
  6
Continuous
 62
     2
100
AcDbMText
 10
246.2989234376434
 20
-1432.184875697044
 30
0.0
 40
8.0
 41
0.0
 71
     7
 72
     5
  1
φ２３５
  7
MTSTANDARD6
 73
     1
 44
0.9375
  0
POINT
  5
233
330
22A
100
AcDbEntity
  8
DEFPOINTS
  6
ByBlock
 62
     3
100
AcDbPoint
 10
142.2989234376392
 20
-1566.961095065132
 30
0.0
  0
POINT
  5
234
330
22A
100
AcDbEntity
  8
DEFPOINTS
  6
ByBlock
 62
     3
100
AcDbPoint
 10
377.2989234376476
 20
-1566.961095065133
 30
0.0
  0
POINT
  5
235
330
22A
100
AcDbEntity
  8
DEFPOINTS
  6
ByBlock
 62
     3
100
AcDbPoint
 10
377.2989234376476
 20
-1432.184875697044
 30
0.0
  0
ENDBLK
  5
22C
330
22A
100
AcDbEntity
  8
0
100
AcDbBlockEnd
  0
BLOCK
  5
239
330
238
100
AcDbEntity
  8
0
100
AcDbBlockBegin
  2
BALN0
 70
     0
 10
0.0
 20
0.0
 30
0.0
  3
BALN0
  1

  0
CIRCLE
  5
23B
330
238
100
AcDbEntity
  8
1
  6
ByBlock
 62
     3
100
AcDbCircle
 10
31.92863491569926
 20
-14.48836679602118
 30
0.0
 40
8.0
  0
MTEXT
  5
23C
330
238
100
AcDbEntity
  8
1
  6
Continuous
 62
     2
100
AcDbMText
 10
29.92863491569926
 20
-18.48836679602118
 30
0.0
 40
8.0
 41
0.0
 71
     7
 72
     5
  1
{\fＭＳ ゴシック|b0|i0|c128|p49;\W1.0;5}
  7
MTSTANDARD
 73
     1
 44
0.9375
  0
LEADER
  5
23E
330
238
100
AcDbEntity
  8
1
  6
ByBlock
 62
     3
100
AcDbLeader
  3
DIMSTYEX_5
 76
     2
 10
0.0
 20
0.0
 30
0.0
 10
24.64358592112513
 20
-11.18260498568844
 30
0.0
1001
ACAD
1000
DSTYLE
1002
{
1070
   176
1070
     0
1002
}
  0
ENDBLK
  5
23A
330
238
100
AcDbEntity
  8
0
100
AcDbBlockEnd
  0
BLOCK
  5
241
330
240
100
AcDbEntity
  8
0
100
AcDbBlockBegin
  2
BALN1
 70
     0
 10
0.0
 20
0.0
 30
0.0
  3
BALN1
  1

  0
CIRCLE
  5
243
330
240
100
AcDbEntity
  8
1
  6
ByBlock
 62
     3
100
AcDbCircle
 10
44.0587874541003
 20
-6.071199191109372
 30
0.0
 40
8.0
  0
MTEXT
  5
244
330
240
100
AcDbEntity
  8
1
  6
Continuous
 62
     2
100
AcDbMText
 10
42.0587874541003
 20
-10.07119919110937
 30
0.0
 40
8.0
 41
0.0
 71
     7
 72
     5
  1
{\fＭＳ ゴシック|b0|i0|c128|p49;\W1.0;6}
  7
MTSTANDARD
 73
     1
 44
0.9375
  0
LEADER
  5
246
330
240
100
AcDbEntity
  8
1
  6
ByBlock
 62
     3
100
AcDbLeader
  3
DIMSTYEX_6
 76
     2
 10
0.0
 20
0.0
 30
0.0
 10
36.13367544931892
 20
-4.979137053834142
 30
0.0
1001
ACAD
1000
DSTYLE
1002
{
1070
   176
1070
     0
1002
}
  0
ENDBLK
  5
242
330
240
100
AcDbEntity
  8
0
100
AcDbBlockEnd
  0
BLOCK
  5
249
330
248
100
AcDbEntity
  8
0
100
AcDbBlockBegin
  2
BALN2
 70
     0
 10
0.0
 20
0.0
 30
0.0
  3
BALN2
  1

  0
CIRCLE
  5
24B
330
248
100
AcDbEntity
  8
1
  6
ByBlock
 62
     3
100
AcDbCircle
 10
19.89377690838649
 20
19.5677999102254
 30
0.0
 40
8.0
  0
MTEXT
  5
24C
330
248
100
AcDbEntity
  8
1
  6
Continuous
 62
     2
100
AcDbMText
 10
17.89377690838649
 20
15.5677999102254
 30
0.0
 40
8.0
 41
0.0
 71
     7
 72
     5
  1
{\fＭＳ ゴシック|b0|i0|c128|p49;\W1.0;7}
  7
MTSTANDARD
 73
     1
 44
0.9375
  0
LEADER
  5
24E
330
248
100
AcDbEntity
  8
1
  6
ByBlock
 62
     3
100
AcDbLeader
  3
DIMSTYEX_7
 76
     2
 10
0.0
 20
0.0
 30
0.0
 10
14.19038813885219
 20
13.95786617233241
 30
0.0
1001
ACAD
1000
DSTYLE
1002
{
1070
   176
1070
     0
1002
}
  0
ENDBLK
  5
24A
330
248
100
AcDbEntity
  8
0
100
AcDbBlockEnd
  0
BLOCK
  5
256
330
255
100
AcDbEntity
  8
0
100
AcDbBlockBegin
  2
BLK1
 70
     0
 10
259.7989234376433
 20
-1606.961095065133
 30
0.0
  3
BLK1
  1

  0
LINE
  5
258
330
255
100
AcDbEntity
  8
1
  6
PHANTOM2
 62
     7
100
AcDbLine
 10
316.7989234376449
 20
-1606.961095065133
 30
0.0
 11
309.7989234376433
 21
-1606.961095065133
 31
0.0
  0
LINE
  5
259
330
255
100
AcDbEntity
  8
1
  6
PHANTOM2
 62
     7
100
AcDbLine
 10
209.7989234376433
 20
-1606.961095065133
 30
0.0
 11
202.7989234376415
 21
-1606.961095065133
 31
0.0
  0
LINE
  5
25A
330
255
100
AcDbEntity
  8
1
  6
PHANTOM2
 62
     7
100
AcDbLine
 10
202.7989234376415
 20
-1560.761095064834
 30
0.0
 11
202.7989234376415
 21
-1606.961095065133
 31
0.0
  0
LINE
  5
25B
330
255
100
AcDbEntity
  8
1
  6
PHANTOM2
 62
     7
100
AcDbLine
 10
316.7989234376415
 20
-1560.761095065082
 30
0.0
 11
316.7989234376451
 21
-1606.961095065133
 31
0.0
  0
LINE
  5
25C
330
255
100
AcDbEntity
  8
1
  6
PHANTOM2
 62
     7
100
AcDbLine
 10
314.9161734376449
 20
-1552.961095065135
 30
0.0
 11
315.1599234376432
 21
-1560.761095065082
 31
0.0
  0
LINE
  5
25D
330
255
100
AcDbEntity
  8
1
  6
PHANTOM2
 62
     7
100
AcDbLine
 10
316.3951734376448
 20
-1552.961095065135
 30
0.0
 11
316.6389234376432
 21
-1560.761095065082
 31
0.0
  0
LINE
  5
25E
330
255
100
AcDbEntity
  8
1
  6
PHANTOM2
 62
     7
100
AcDbLine
 10
209.7989234376433
 20
-1524.961095065132
 30
0.0
 11
209.7989234376433
 21
-1606.961095065133
 31
0.0
  0
LINE
  5
25F
330
255
100
AcDbEntity
  8
1
  6
PHANTOM2
 62
     7
100
AcDbLine
 10
309.7989234376433
 20
-1552.961095065135
 30
0.0
 11
309.7989234376433
 21
-1606.961095065133
 31
0.0
  0
LINE
  5
260
330
255
100
AcDbEntity
  8
1
  6
PHANTOM2
 62
     7
100
AcDbLine
 10
316.7989234376299
 20
-1560.761095065082
 30
0.0
 11
315.1599234376432
 21
-1560.761095065082
 31
0.0
  0
LINE
  5
261
330
255
100
AcDbEntity
  8
1
  6
PHANTOM2
 62
     7
100
AcDbLine
 10
204.0776734376432
 20
-1524.961095065082
 30
0.0
 11
209.7989234376433
 21
-1524.961095065132
 31
0.0
  0
LINE
  5
262
330
255
100
AcDbEntity
  8
1
  6
PHANTOM2
 62
     7
100
AcDbLine
 10
205.5566734376417
 20
-1524.961095065132
 30
0.0
 11
204.4379234376434
 21
-1560.761095065082
 31
0.0
  0
LINE
  5
263
330
255
100
AcDbEntity
  8
1
  6
PHANTOM2
 62
     7
100
AcDbLine
 10
204.0776734376419
 20
-1524.961095065132
 30
0.0
 11
202.9589234376434
 21
-1560.761095065082
 31
0.0
  0
LINE
  5
264
330
255
100
AcDbEntity
  8
1
  6
PHANTOM2
 62
     7
100
AcDbLine
 10
202.7989234376567
 20
-1560.761095065082
 30
0.0
 11
204.4379234376434
 21
-1560.761095065082
 31
0.0
  0
ENDBLK
  5
257
330
255
100
AcDbEntity
  8
0
100
AcDbBlockEnd
  0
BLOCK
  5
26A
330
269
100
AcDbEntity
  8
0
100
AcDbBlockBegin
  2
_D5
 70
     0
 10
0.0
 20
0.0
 30
0.0
  3
_D5
  1

  0
LINE
  5
26C
330
269
100
AcDbEntity
  8
1
  6
ByBlock
 62
     3
100
AcDbLine
 10
140.2989234376392
 20
-1566.961095065132
 30
0.0
 11
114.4240761697179
 21
-1566.961095065132
 31
0.0
  0
LINE
  5
26D
330
269
100
AcDbEntity
  8
1
  6
ByBlock
 62
     3
100
AcDbLine
 10
116.4240761697179
 20
-1566.961095065132
 30
0.0
 11
116.4240761697179
 21
-1498.961095065089
 31
0.0
  0
LINE
  5
26E
330
269
100
AcDbEntity
  8
1
  6
ByBlock
 62
     3
100
AcDbLine
 10
163.7989234376359
 20
-1498.961095065089
 30
0.0
 11
114.4240761697179
 21
-1498.961095065089
 31
0.0
  0
INSERT
  5
26F
330
269
100
AcDbEntity
  8
1
  6
ByBlock
 62
     3
100
AcDbBlockReference
  2
_OPEN30
 10
116.4240761697179
 20
-1566.961095065132
 30
0.0
 41
3.939231012048822
 42
3.939231012048822
 43
3.939231012048822
 50
270.0
  0
INSERT
  5
270
330
269
100
AcDbEntity
  8
1
  6
ByBlock
 62
     3
100
AcDbBlockReference
  2
_OPEN30
 10
116.4240761697179
 20
-1498.961095065089
 30
0.0
 41
3.939231012048822
 42
3.939231012048822
 43
3.939231012048822
 50
90.0
  0
MTEXT
  5
271
330
269
100
AcDbEntity
  8
1
  6
Continuous
 62
     2
100
AcDbMText
 10
114.4240761697179
 20
-1574.461095065111
 30
0.0
 40
8.0
 41
0.0
 71
     7
 72
     5
  1
ＹＤＧ　Ｌ＝８２ｍｍの時\P（７０～１０２）
  7
MTSTANDARD6
 11
0.0
 21
1.0
 31
0.0
 73
     1
 44
0.9375
  0
POINT
  5
272
330
269
100
AcDbEntity
  8
DEFPOINTS
  6
ByBlock
 62
     3
100
AcDbPoint
 10
142.2989234376392
 20
-1566.961095065132
 30
0.0
  0
POINT
  5
273
330
269
100
AcDbEntity
  8
DEFPOINTS
  6
ByBlock
 62
     3
100
AcDbPoint
 10
165.7989234376359
 20
-1498.961095065089
 30
0.0
  0
POINT
  5
274
330
269
100
AcDbEntity
  8
DEFPOINTS
  6
ByBlock
 62
     3
100
AcDbPoint
 10
116.4240761697179
 20
-1498.961095065089
 30
0.0
  0
ENDBLK
  5
26B
330
269
100
AcDbEntity
  8
0
100
AcDbBlockEnd
  0
BLOCK
  5
278
330
277
100
AcDbEntity
  8
0
100
AcDbBlockBegin
  2
BLK2
 70
     0
 10
259.7989234376434
 20
-1253.505601033917
 30
0.0
  3
BLK2
  1

  0
CIRCLE
  5
27A
330
277
100
AcDbEntity
  8
1
  6
Continuous
 62
     7
100
AcDbCircle
 10
259.7989234376434
 20
-1253.505601033917
 30
0.0
 40
84.99999999992494
  0
CIRCLE
  5
27B
330
277
100
AcDbEntity
  8
1
  6
Continuous
 62
     7
100
AcDbCircle
 10
259.7989234376434
 20
-1253.505601033917
 30
0.0
 40
94.00000000000021
  0
CIRCLE
  5
27C
330
277
100
AcDbEntity
  8
1
  6
Continuous
 62
     7
100
AcDbCircle
 10
259.7989234376434
 20
-1253.505601033917
 30
0.0
 40
57.00000000000728
  0
CIRCLE
  5
27D
330
277
100
AcDbEntity
  8
1
  6
Continuous
 62
     7
100
AcDbCircle
 10
259.7989234376434
 20
-1253.505601033917
 30
0.0
 40
56.75000000000728
  0
ARC
  5
27E
330
277
100
AcDbEntity
  8
1
  6
Continuous
 62
     7
100
AcDbCircle
 10
259.7989234376434
 20
-1253.505601033917
 30
0.0
 40
52.75000000000001
100
AcDbArc
 50
126.2496475208811
 51
174.1495643479088
  0
ARC
  5
27F
330
277
100
AcDbEntity
  8
1
  6
Continuous
 62
     7
100
AcDbCircle
 10
259.7989234376434
 20
-1253.505601033917
 30
0.0
 40
52.75000000000001
100
AcDbArc
 50
66.2496475208809
 51
113.7503524791191
  0
ARC
  5
280
330
277
100
AcDbEntity
  8
1
  6
Continuous
 62
     7
100
AcDbCircle
 10
259.7989234376434
 20
-1253.505601033917
 30
0.0
 40
46.00000000000001
100
AcDbArc
 50
126.2496475208809
 51
173.7503524791189
  0
ARC
  5
281
330
277
100
AcDbEntity
  8
1
  6
Continuous
 62
     7
100
AcDbCircle
 10
259.7989234376434
 20
-1253.505601033917
 30
0.0
 40
46.00000000000001
100
AcDbArc
 50
66.2496475208808
 51
113.7503524791192
  0
ARC
  5
282
330
277
100
AcDbEntity
  8
1
  6
Continuous
 62
     7
100
AcDbCircle
 10
259.7989234376434
 20
-1253.505601033917
 30
0.0
 40
42.0
100
AcDbArc
 50
67.66835499077851
 51
112.3316450092214
  0
LINE
  5
283
330
277
100
AcDbEntity
  8
1
  6
Continuous
 62
     7
100
AcDbLine
 10
244.6002392840728
 20
-1218.505601033917
 30
0.0
 11
274.997607591214
 21
-1218.505601033917
 31
0.0
  0
LINE
  5
284
330
277
100
AcDbEntity
  8
1
  6
Continuous
 62
     7
100
AcDbLine
 10
232.8545362670285
 20
-1222.505601033917
 30
0.0
 11
254.2989234376432
 21
-1222.505601033917
 31
0.0
  0
LINE
  5
285
330
277
100
AcDbEntity
  8
1
  6
Continuous
 62
     7
100
AcDbLine
 10
254.2989234376432
 20
-1229.505601033917
 30
0.0
 11
232.8545362670285
 21
-1229.505601033917
 31
0.0
  0
ARC
  5
286
330
277
100
AcDbEntity
  8
1
  6
Continuous
 62
     7
100
AcDbCircle
 10
244.6002392840728
 20
-1216.505601033917
 30
0.0
 40
2.0
100
AcDbArc
 50
112.3316450092191
 51
270.0
  0
ARC
  5
287
330
277
100
AcDbEntity
  8
1
  6
Continuous
 62
     7
100
AcDbCircle
 10
254.2989234376432
 20
-1226.005601033917
 30
0.0
 40
3.500000000000139
100
AcDbArc
 50
270.0
 51
90.0
  0
LINE
  5
288
330
277
100
AcDbEntity
  8
1
  6
Continuous
 62
     7
100
AcDbLine
 10
225.0138691757913
 20
-1233.505601033917
 30
0.0
 11
254.2989234376432
 21
-1233.505601033917
 31
0.0
  0
LINE
  5
289
330
277
100
AcDbEntity
  8
1
  6
Continuous
 62
     7
100
AcDbLine
 10
254.2989234376432
 20
-1240.505601033917
 30
0.0
 11
225.0138691757913
 21
-1240.505601033917
 31
0.0
  0
ARC
  5
28A
330
277
100
AcDbEntity
  8
1
  6
Continuous
 62
     7
100
AcDbCircle
 10
254.2989234376432
 20
-1237.005601033917
 30
0.0
 40
3.500000000000139
100
AcDbArc
 50
270.0
 51
90.0
  0
LINE
  5
28B
330
277
100
AcDbEntity
  8
1
  6
Continuous
 62
     7
100
AcDbLine
 10
221.693805671128
 20
-1244.505601033917
 30
0.0
 11
254.2989234376432
 21
-1244.505601033917
 31
0.0
  0
LINE
  5
28C
330
277
100
AcDbEntity
  8
1
  6
Continuous
 62
     7
100
AcDbLine
 10
254.2989234376432
 20
-1251.505601033917
 30
0.0
 11
221.693805671128
 21
-1251.505601033917
 31
0.0
  0
ARC
  5
28D
330
277
100
AcDbEntity
  8
1
  6
Continuous
 62
     7
100
AcDbCircle
 10
254.2989234376432
 20
-1248.005601033917
 30
0.0
 40
3.500000000000139
100
AcDbArc
 50
270.0
 51
90.0
  0
ARC
  5
28E
330
277
100
AcDbEntity
  8
1
  6
Continuous
 62
     7
100
AcDbCircle
 10
232.8545362670285
 20
-1226.005601033917
 30
0.0
 40
3.5
100
AcDbArc
 50
90.0
 51
270.0
  0
ARC
  5
28F
330
277
100
AcDbEntity
  8
1
  6
Continuous
 62
     7
100
AcDbCircle
 10
225.0138691757913
 20
-1237.005601033917
 30
0.0
 40
3.5
100
AcDbArc
 50
90.0
 51
270.0
  0
ARC
  5
290
330
277
100
AcDbEntity
  8
1
  6
Continuous
 62
     7
100
AcDbCircle
 10
221.693805671128
 20
-1248.005601033917
 30
0.0
 40
3.5
100
AcDbArc
 50
90.0
 51
270.0
  0
ARC
  5
291
330
277
100
AcDbEntity
  8
1
  6
Continuous
 62
     7
100
AcDbCircle
 10
239.9130275993686
 20
-1208.312219088003
 30
0.0
 40
3.375000000000006
100
AcDbArc
 50
113.7503524791201
 51
293.750352479117
  0
ARC
  5
292
330
277
100
AcDbEntity
  8
1
  6
Continuous
 62
     7
100
AcDbCircle
 10
230.6032545086859
 20
-1213.687219088003
 30
0.0
 40
3.375000000000028
100
AcDbArc
 50
306.2496475208827
 51
126.2496475208827
  0
ARC
  5
293
330
277
100
AcDbEntity
  8
1
  6
Continuous
 62
     7
100
AcDbCircle
 10
210.7173586704113
 20
-1248.130601033917
 30
0.0
 40
3.375000000000047
100
AcDbArc
 50
180.0
 51
353.7503524791174
  0
ARC
  5
294
330
277
100
AcDbEntity
  8
1
  6
Continuous
 62
     7
100
AcDbCircle
 10
259.7989234376434
 20
-1253.505601033917
 30
0.0
 40
52.75000000000001
100
AcDbArc
 50
5.85043565209124
 51
53.75035247911892
  0
ARC
  5
295
330
277
100
AcDbEntity
  8
1
  6
Continuous
 62
     7
100
AcDbCircle
 10
259.7989234376434
 20
-1253.505601033917
 30
0.0
 40
46.00000000000001
100
AcDbArc
 50
6.249647520881369
 51
53.75035247911916
  0
LINE
  5
296
330
277
100
AcDbEntity
  8
1
  6
Continuous
 62
     7
100
AcDbLine
 10
286.7433106082582
 20
-1222.505601033917
 30
0.0
 11
265.2989234376436
 21
-1222.505601033917
 31
0.0
  0
LINE
  5
297
330
277
100
AcDbEntity
  8
1
  6
Continuous
 62
     7
100
AcDbLine
 10
265.2989234376436
 20
-1229.505601033917
 30
0.0
 11
286.7433106082582
 21
-1229.505601033917
 31
0.0
  0
ARC
  5
298
330
277
100
AcDbEntity
  8
1
  6
Continuous
 62
     7
100
AcDbCircle
 10
274.997607591214
 20
-1216.505601033917
 30
0.0
 40
2.0
100
AcDbArc
 50
270.0
 51
67.66835499077844
  0
ARC
  5
299
330
277
100
AcDbEntity
  8
1
  6
Continuous
 62
     7
100
AcDbCircle
 10
265.2989234376436
 20
-1226.005601033917
 30
0.0
 40
3.500000000000139
100
AcDbArc
 50
90.0
 51
270.0
  0
LINE
  5
29A
330
277
100
AcDbEntity
  8
1
  6
Continuous
 62
     7
100
AcDbLine
 10
294.5839776994955
 20
-1233.505601033917
 30
0.0
 11
265.2989234376436
 21
-1233.505601033917
 31
0.0
  0
LINE
  5
29B
330
277
100
AcDbEntity
  8
1
  6
Continuous
 62
     7
100
AcDbLine
 10
265.2989234376436
 20
-1240.505601033917
 30
0.0
 11
294.5839776994955
 21
-1240.505601033917
 31
0.0
  0
ARC
  5
29C
330
277
100
AcDbEntity
  8
1
  6
Continuous
 62
     7
100
AcDbCircle
 10
265.2989234376436
 20
-1237.005601033917
 30
0.0
 40
3.500000000000139
100
AcDbArc
 50
90.0
 51
270.0
  0
LINE
  5
29D
330
277
100
AcDbEntity
  8
1
  6
Continuous
 62
     7
100
AcDbLine
 10
297.9040412041588
 20
-1244.505601033917
 30
0.0
 11
265.2989234376436
 21
-1244.505601033917
 31
0.0
  0
LINE
  5
29E
330
277
100
AcDbEntity
  8
1
  6
Continuous
 62
     7
100
AcDbLine
 10
265.2989234376436
 20
-1251.505601033917
 30
0.0
 11
297.9040412041588
 21
-1251.505601033917
 31
0.0
  0
ARC
  5
29F
330
277
100
AcDbEntity
  8
1
  6
Continuous
 62
     7
100
AcDbCircle
 10
265.2989234376436
 20
-1248.005601033917
 30
0.0
 40
3.500000000000139
100
AcDbArc
 50
90.0
 51
270.0
  0
ARC
  5
2A0
330
277
100
AcDbEntity
  8
1
  6
Continuous
 62
     7
100
AcDbCircle
 10
286.7433106082582
 20
-1226.005601033917
 30
0.0
 40
3.5
100
AcDbArc
 50
270.0
 51
90.0
  0
ARC
  5
2A1
330
277
100
AcDbEntity
  8
1
  6
Continuous
 62
     7
100
AcDbCircle
 10
294.5839776994955
 20
-1237.005601033917
 30
0.0
 40
3.5
100
AcDbArc
 50
270.0
 51
90.0
  0
ARC
  5
2A2
330
277
100
AcDbEntity
  8
1
  6
Continuous
 62
     7
100
AcDbCircle
 10
297.9040412041588
 20
-1248.005601033917
 30
0.0
 40
3.5
100
AcDbArc
 50
270.0
 51
90.0
  0
ARC
  5
2A3
330
277
100
AcDbEntity
  8
1
  6
Continuous
 62
     7
100
AcDbCircle
 10
279.6848192759182
 20
-1208.312219088003
 30
0.0
 40
3.375000000000006
100
AcDbArc
 50
246.249647520883
 51
66.24964752087988
  0
ARC
  5
2A4
330
277
100
AcDbEntity
  8
1
  6
Continuous
 62
     7
100
AcDbCircle
 10
288.9945923666009
 20
-1213.687219088003
 30
0.0
 40
3.375000000000028
100
AcDbArc
 50
53.75035247911955
 51
233.750352479115
  0
ARC
  5
2A5
330
277
100
AcDbEntity
  8
1
  6
Continuous
 62
     7
100
AcDbCircle
 10
308.8804882048755
 20
-1248.130601033917
 30
0.0
 40
3.375000000000047
100
AcDbArc
 50
186.249647520875
 51
0.0
  0
ARC
  5
2A6
330
277
100
AcDbEntity
  8
1
  6
Continuous
 62
     7
100
AcDbCircle
 10
259.7989234376435
 20
-1253.505601033916
 30
0.0
 40
52.75000000000001
100
AcDbArc
 50
185.8504356520912
 51
233.7503524791189
  0
ARC
  5
2A7
330
277
100
AcDbEntity
  8
1
  6
Continuous
 62
     7
100
AcDbCircle
 10
259.7989234376435
 20
-1253.505601033916
 30
0.0
 40
52.75000000000001
100
AcDbArc
 50
246.2496475208809
 51
293.7503524791191
  0
ARC
  5
2A8
330
277
100
AcDbEntity
  8
1
  6
Continuous
 62
     7
100
AcDbCircle
 10
259.7989234376435
 20
-1253.505601033916
 30
0.0
 40
46.00000000000001
100
AcDbArc
 50
186.249647520881
 51
233.7503524791191
  0
ARC
  5
2A9
330
277
100
AcDbEntity
  8
1
  6
Continuous
 62
     7
100
AcDbCircle
 10
259.7989234376435
 20
-1253.505601033916
 30
0.0
 40
46.00000000000001
100
AcDbArc
 50
246.2496475208808
 51
293.7503524791192
  0
ARC
  5
2AA
330
277
100
AcDbEntity
  8
1
  6
Continuous
 62
     7
100
AcDbCircle
 10
259.7989234376435
 20
-1253.505601033916
 30
0.0
 40
42.0
100
AcDbArc
 50
247.6683549907786
 51
292.3316450092215
  0
LINE
  5
2AB
330
277
100
AcDbEntity
  8
1
  6
Continuous
 62
     7
100
AcDbLine
 10
244.6002392840726
 20
-1288.505601033916
 30
0.0
 11
274.9976075912139
 21
-1288.505601033916
 31
0.0
  0
LINE
  5
2AC
330
277
100
AcDbEntity
  8
1
  6
Continuous
 62
     7
100
AcDbLine
 10
232.8545362670287
 20
-1284.505601033916
 30
0.0
 11
254.2989234376431
 21
-1284.505601033916
 31
0.0
  0
LINE
  5
2AD
330
277
100
AcDbEntity
  8
1
  6
Continuous
 62
     7
100
AcDbLine
 10
254.2989234376431
 20
-1277.505601033916
 30
0.0
 11
232.8545362670287
 21
-1277.505601033916
 31
0.0
  0
ARC
  5
2AE
330
277
100
AcDbEntity
  8
1
  6
Continuous
 62
     7
100
AcDbCircle
 10
244.6002392840726
 20
-1290.505601033916
 30
0.0
 40
2.0
100
AcDbArc
 50
90.0
 51
247.6683549907869
  0
ARC
  5
2AF
330
277
100
AcDbEntity
  8
1
  6
Continuous
 62
     7
100
AcDbCircle
 10
254.2989234376431
 20
-1281.005601033916
 30
0.0
 40
3.500000000000139
100
AcDbArc
 50
270.0
 51
90.0
  0
LINE
  5
2B0
330
277
100
AcDbEntity
  8
1
  6
Continuous
 62
     7
100
AcDbLine
 10
225.0138691757914
 20
-1273.505601033916
 30
0.0
 11
254.2989234376431
 21
-1273.505601033916
 31
0.0
  0
LINE
  5
2B1
330
277
100
AcDbEntity
  8
1
  6
Continuous
 62
     7
100
AcDbLine
 10
254.2989234376431
 20
-1266.505601033916
 30
0.0
 11
225.0138691757914
 21
-1266.505601033916
 31
0.0
  0
ARC
  5
2B2
330
277
100
AcDbEntity
  8
1
  6
Continuous
 62
     7
100
AcDbCircle
 10
254.2989234376431
 20
-1270.005601033916
 30
0.0
 40
3.500000000000139
100
AcDbArc
 50
270.0
 51
90.0
  0
LINE
  5
2B3
330
277
100
AcDbEntity
  8
1
  6
Continuous
 62
     7
100
AcDbLine
 10
221.6938056711281
 20
-1262.505601033916
 30
0.0
 11
254.2989234376431
 21
-1262.505601033916
 31
0.0
  0
LINE
  5
2B4
330
277
100
AcDbEntity
  8
1
  6
Continuous
 62
     7
100
AcDbLine
 10
254.2989234376431
 20
-1255.505601033916
 30
0.0
 11
221.6938056711281
 21
-1255.505601033916
 31
0.0
  0
ARC
  5
2B5
330
277
100
AcDbEntity
  8
1
  6
Continuous
 62
     7
100
AcDbCircle
 10
254.2989234376431
 20
-1259.005601033916
 30
0.0
 40
3.500000000000139
100
AcDbArc
 50
270.0
 51
90.0
  0
ARC
  5
2B6
330
277
100
AcDbEntity
  8
1
  6
Continuous
 62
     7
100
AcDbCircle
 10
232.8545362670287
 20
-1281.005601033916
 30
0.0
 40
3.5
100
AcDbArc
 50
90.0
 51
270.0
  0
ARC
  5
2B7
330
277
100
AcDbEntity
  8
1
  6
Continuous
 62
     7
100
AcDbCircle
 10
225.0138691757914
 20
-1270.005601033916
 30
0.0
 40
3.5
100
AcDbArc
 50
90.0
 51
270.0
  0
ARC
  5
2B8
330
277
100
AcDbEntity
  8
1
  6
Continuous
 62
     7
100
AcDbCircle
 10
221.6938056711281
 20
-1259.005601033916
 30
0.0
 40
3.5
100
AcDbArc
 50
90.0
 51
270.0
  0
ARC
  5
2B9
330
277
100
AcDbEntity
  8
1
  6
Continuous
 62
     7
100
AcDbCircle
 10
239.9130275993687
 20
-1298.69898297983
 30
0.0
 40
3.375000000000006
100
AcDbArc
 50
66.24964752088299
 51
246.2496475208798
  0
ARC
  5
2BA
330
277
100
AcDbEntity
  8
1
  6
Continuous
 62
     7
100
AcDbCircle
 10
230.6032545086858
 20
-1293.32398297983
 30
0.0
 40
3.375000000000028
100
AcDbArc
 50
233.7503524791204
 51
53.75035247911416
  0
ARC
  5
2BB
330
277
100
AcDbEntity
  8
1
  6
Continuous
 62
     7
100
AcDbCircle
 10
210.7173586704114
 20
-1258.880601033916
 30
0.0
 40
3.375000000000047
100
AcDbArc
 50
6.249647520883062
 51
180.0
  0
ARC
  5
2BC
330
277
100
AcDbEntity
  8
1
  6
Continuous
 62
     7
100
AcDbCircle
 10
259.7989234376435
 20
-1253.505601033916
 30
0.0
 40
52.75000000000001
100
AcDbArc
 50
306.2496475208811
 51
354.1495643479087
  0
ARC
  5
2BD
330
277
100
AcDbEntity
  8
1
  6
Continuous
 62
     7
100
AcDbCircle
 10
259.7989234376435
 20
-1253.505601033916
 30
0.0
 40
46.00000000000001
100
AcDbArc
 50
306.2496475208808
 51
353.7503524791186
  0
LINE
  5
2BE
330
277
100
AcDbEntity
  8
1
  6
Continuous
 62
     7
100
AcDbLine
 10
286.7433106082584
 20
-1284.505601033916
 30
0.0
 11
265.2989234376435
 21
-1284.505601033916
 31
0.0
  0
LINE
  5
2BF
330
277
100
AcDbEntity
  8
1
  6
Continuous
 62
     7
100
AcDbLine
 10
265.2989234376435
 20
-1277.505601033916
 30
0.0
 11
286.7433106082584
 21
-1277.505601033916
 31
0.0
  0
ARC
  5
2C0
330
277
100
AcDbEntity
  8
1
  6
Continuous
 62
     7
100
AcDbCircle
 10
274.9976075912139
 20
-1290.505601033916
 30
0.0
 40
2.0
100
AcDbArc
 50
292.3316450092275
 51
90.0
  0
ARC
  5
2C1
330
277
100
AcDbEntity
  8
1
  6
Continuous
 62
     7
100
AcDbCircle
 10
265.2989234376435
 20
-1281.005601033916
 30
0.0
 40
3.500000000000139
100
AcDbArc
 50
90.0
 51
270.0
  0
LINE
  5
2C2
330
277
100
AcDbEntity
  8
1
  6
Continuous
 62
     7
100
AcDbLine
 10
294.5839776994956
 20
-1273.505601033916
 30
0.0
 11
265.2989234376435
 21
-1273.505601033916
 31
0.0
  0
LINE
  5
2C3
330
277
100
AcDbEntity
  8
1
  6
Continuous
 62
     7
100
AcDbLine
 10
265.2989234376435
 20
-1266.505601033916
 30
0.0
 11
294.5839776994956
 21
-1266.505601033916
 31
0.0
  0
ARC
  5
2C4
330
277
100
AcDbEntity
  8
1
  6
Continuous
 62
     7
100
AcDbCircle
 10
265.2989234376435
 20
-1270.005601033916
 30
0.0
 40
3.500000000000139
100
AcDbArc
 50
90.0
 51
270.0
  0
LINE
  5
2C5
330
277
100
AcDbEntity
  8
1
  6
Continuous
 62
     7
100
AcDbLine
 10
297.9040412041589
 20
-1262.505601033916
 30
0.0
 11
265.2989234376435
 21
-1262.505601033916
 31
0.0
  0
LINE
  5
2C6
330
277
100
AcDbEntity
  8
1
  6
Continuous
 62
     7
100
AcDbLine
 10
265.2989234376435
 20
-1255.505601033916
 30
0.0
 11
297.9040412041589
 21
-1255.505601033916
 31
0.0
  0
ARC
  5
2C7
330
277
100
AcDbEntity
  8
1
  6
Continuous
 62
     7
100
AcDbCircle
 10
265.2989234376435
 20
-1259.005601033916
 30
0.0
 40
3.500000000000139
100
AcDbArc
 50
90.0
 51
270.0
  0
ARC
  5
2C8
330
277
100
AcDbEntity
  8
1
  6
Continuous
 62
     7
100
AcDbCircle
 10
286.7433106082584
 20
-1281.005601033916
 30
0.0
 40
3.5
100
AcDbArc
 50
270.0
 51
90.0
  0
ARC
  5
2C9
330
277
100
AcDbEntity
  8
1
  6
Continuous
 62
     7
100
AcDbCircle
 10
294.5839776994956
 20
-1270.005601033916
 30
0.0
 40
3.5
100
AcDbArc
 50
270.0
 51
90.0
  0
ARC
  5
2CA
330
277
100
AcDbEntity
  8
1
  6
Continuous
 62
     7
100
AcDbCircle
 10
297.9040412041589
 20
-1259.005601033916
 30
0.0
 40
3.5
100
AcDbArc
 50
270.0
 51
90.0
  0
ARC
  5
2CB
330
277
100
AcDbEntity
  8
1
  6
Continuous
 62
     7
100
AcDbCircle
 10
279.6848192759183
 20
-1298.69898297983
 30
0.0
 40
3.375000000000006
100
AcDbArc
 50
293.7503524791202
 51
113.750352479117
  0
ARC
  5
2CC
330
277
100
AcDbEntity
  8
1
  6
Continuous
 62
     7
100
AcDbCircle
 10
288.9945923666008
 20
-1293.32398297983
 30
0.0
 40
3.375000000000028
100
AcDbArc
 50
126.2496475208819
 51
306.2496475208835
  0
ARC
  5
2CD
330
277
100
AcDbEntity
  8
1
  6
Continuous
 62
     7
100
AcDbCircle
 10
308.8804882048756
 20
-1258.880601033916
 30
0.0
 40
3.375000000000047
100
AcDbArc
 50
0.0
 51
173.7503524791254
  0
ENDBLK
  5
279
330
277
100
AcDbEntity
  8
0
100
AcDbBlockEnd
  0
BLOCK
  5
2F7
330
2F6
100
AcDbEntity
  8
0
100
AcDbBlockBegin
  2
_D6
 70
     0
 10
0.0
 20
0.0
 30
0.0
  3
_D6
  1

  0
LINE
  5
2F9
330
2F6
100
AcDbEntity
  8
1
  6
ByBlock
 62
     3
100
AcDbLine
 10
175.798923437642
 20
-1496.961095065132
 30
0.0
 11
175.798923437642
 21
-1456.737629671317
 31
0.0
  0
LINE
  5
2FA
330
2F6
100
AcDbEntity
  8
1
  6
ByBlock
 62
     3
100
AcDbLine
 10
175.798923437642
 20
-1458.737629671317
 30
0.0
 11
280.2989234376431
 21
-1458.737629671317
 31
0.0
  0
INSERT
  5
2FB
330
2F6
100
AcDbEntity
  8
1
  6
ByBlock
 62
     3
100
AcDbBlockReference
  2
_OPEN30
 10
175.798923437642
 20
-1458.737629671317
 30
0.0
 41
3.939231012048822
 42
3.939231012048822
 43
3.939231012048822
 50
180.0
  0
MTEXT
  5
2FC
330
2F6
100
AcDbEntity
  8
1
  6
Continuous
 62
     2
100
AcDbMText
 10
246.2989234376432
 20
-1458.737629671317
 30
0.0
 40
8.0
 41
0.0
 71
     7
 72
     5
  1
φ１６８
  7
MTSTANDARD6
 73
     1
 44
0.9375
  0
POINT
  5
2FD
330
2F6
100
AcDbEntity
  8
DEFPOINTS
  6
ByBlock
 62
     3
100
AcDbPoint
 10
175.798923437642
 20
-1458.737629671317
 30
0.0
  0
POINT
  5
2FE
330
2F6
100
AcDbEntity
  8
DEFPOINTS
  6
ByBlock
 62
     3
100
AcDbPoint
 10
175.798923437642
 20
-1498.961095065132
 30
0.0
  0
POINT
  5
2FF
330
2F6
100
AcDbEntity
  8
DEFPOINTS
  6
ByBlock
 62
     3
100
AcDbPoint
 10
343.7989234376443
 20
-1498.961095065139
 30
0.0
  0
ENDBLK
  5
2F8
330
2F6
100
AcDbEntity
  8
0
100
AcDbBlockEnd
  0
BLOCK
  5
303
330
302
100
AcDbEntity
  8
0
100
AcDbBlockBegin
  2
_D7
 70
     0
 10
0.0
 20
0.0
 30
0.0
  3
_D7
  1

  0
LINE
  5
305
330
302
100
AcDbEntity
  8
1
  6
ByBlock
 62
     3
100
AcDbLine
 10
165.7989234376359
 20
-1496.961095065089
 30
0.0
 11
165.7989234376359
 21
-1442.737629671317
 31
0.0
  0
LINE
  5
306
330
302
100
AcDbEntity
  8
1
  6
ByBlock
 62
     3
100
AcDbLine
 10
165.7989234376359
 20
-1444.737629671317
 30
0.0
 11
353.7989234376484
 21
-1444.737629671317
 31
0.0
  0
LINE
  5
307
330
302
100
AcDbEntity
  8
1
  6
ByBlock
 62
     3
100
AcDbLine
 10
353.7989234376484
 20
-1496.961095065112
 30
0.0
 11
353.7989234376483
 21
-1442.737629671317
 31
0.0
  0
INSERT
  5
308
330
302
100
AcDbEntity
  8
1
  6
ByBlock
 62
     3
100
AcDbBlockReference
  2
_OPEN30
 10
165.7989234376359
 20
-1444.737629671317
 30
0.0
 41
3.939231012048822
 42
3.939231012048822
 43
3.939231012048822
 50
180.0
  0
INSERT
  5
309
330
302
100
AcDbEntity
  8
1
  6
ByBlock
 62
     3
100
AcDbBlockReference
  2
_OPEN30
 10
353.7989234376484
 20
-1444.737629671317
 30
0.0
 41
3.939231012048822
 42
3.939231012048822
 43
3.939231012048822
  0
MTEXT
  5
30A
330
302
100
AcDbEntity
  8
1
  6
Continuous
 62
     2
100
AcDbMText
 10
246.2989234376421
 20
-1444.737629671317
 30
0.0
 40
8.0
 41
0.0
 71
     7
 72
     5
  1
φ１８８
  7
MTSTANDARD6
 73
     1
 44
0.9375
  0
POINT
  5
30B
330
302
100
AcDbEntity
  8
DEFPOINTS
  6
ByBlock
 62
     3
100
AcDbPoint
 10
165.7989234376359
 20
-1498.961095065089
 30
0.0
  0
POINT
  5
30C
330
302
100
AcDbEntity
  8
DEFPOINTS
  6
ByBlock
 62
     3
100
AcDbPoint
 10
353.7989234376484
 20
-1498.961095065112
 30
0.0
  0
POINT
  5
30D
330
302
100
AcDbEntity
  8
DEFPOINTS
  6
ByBlock
 62
     3
100
AcDbPoint
 10
353.7989234376484
 20
-1444.737629671317
 30
0.0
  0
ENDBLK
  5
304
330
302
100
AcDbEntity
  8
0
100
AcDbBlockEnd
  0
BLOCK
  5
329
330
328
100
AcDbEntity
  8
0
100
AcDbBlockBegin
  2
_D8
 70
     0
 10
0.0
 20
0.0
 30
0.0
  3
_D8
  1

  0
LINE
  5
32B
330
328
100
AcDbEntity
  8
1
  6
ByBlock
 62
     3
100
AcDbLine
 10
203.0489234376432
 20
-1496.961095065136
 30
0.0
 11
203.0489234376432
 21
-1470.737629671317
 31
0.0
  0
LINE
  5
32C
330
328
100
AcDbEntity
  8
1
  6
ByBlock
 62
     3
100
AcDbLine
 10
203.0489234376432
 20
-1472.737629671317
 30
0.0
 11
285.2989234376439
 21
-1472.737629671317
 31
0.0
  0
INSERT
  5
32D
330
328
100
AcDbEntity
  8
1
  6
ByBlock
 62
     3
100
AcDbBlockReference
  2
_OPEN30
 10
203.0489234376432
 20
-1472.737629671317
 30
0.0
 41
3.939231012048822
 42
3.939231012048822
 43
3.939231012048822
 50
180.0
  0
MTEXT
  5
32E
330
328
100
AcDbEntity
  8
1
  6
Continuous
 62
     2
100
AcDbMText
 10
241.2989234376439
 20
-1472.737629671317
 30
0.0
 40
8.0
 41
0.0
 71
     7
 72
     5
  1
φ１１３．５
  7
MTSTANDARD6
 73
     1
 44
0.9375
  0
POINT
  5
32F
330
328
100
AcDbEntity
  8
DEFPOINTS
  6
ByBlock
 62
     3
100
AcDbPoint
 10
203.0489234376432
 20
-1472.737629671317
 30
0.0
  0
POINT
  5
330
330
328
100
AcDbEntity
  8
DEFPOINTS
  6
ByBlock
 62
     3
100
AcDbPoint
 10
203.0489234376432
 20
-1498.961095065136
 30
0.0
  0
POINT
  5
331
330
328
100
AcDbEntity
  8
DEFPOINTS
  6
ByBlock
 62
     3
100
AcDbPoint
 10
316.5489234376445
 20
-1498.961095065136
 30
0.0
  0
ENDBLK
  5
32A
330
328
100
AcDbEntity
  8
0
100
AcDbBlockEnd
  0
BLOCK
  5
335
330
334
100
AcDbEntity
  8
0
100
AcDbBlockBegin
  2
BALN3
 70
     0
 10
0.0
 20
0.0
 30
0.0
  3
BALN3
  1

  0
CIRCLE
  5
337
330
334
100
AcDbEntity
  8
1
  6
ByBlock
 62
     3
100
AcDbCircle
 10
-13.38907238874367
 20
92.2222833032281
 30
0.0
 40
8.0
  0
MTEXT
  5
338
330
334
100
AcDbEntity
  8
1
  6
Continuous
 62
     2
100
AcDbMText
 10
-15.38907238874367
 20
88.2222833032281
 30
0.0
 40
8.0
 41
0.0
 71
     7
 72
     5
  1
{\fＭＳ ゴシック|b0|i0|c128|p49;\W1.0;4}
  7
MTSTANDARD
 73
     1
 44
0.9375
  0
LEADER
  5
33A
330
334
100
AcDbEntity
  8
1
  6
ByBlock
 62
     3
100
AcDbLeader
  3
DIMSTYEX_13
 76
     2
 10
0.0
 20
0.0
 30
0.0
 10
-12.23966192045555
 20
84.30528541416751
 30
0.0
1001
ACAD
1000
DSTYLE
1002
{
1070
   176
1070
     0
1002
}
  0
ENDBLK
  5
336
330
334
100
AcDbEntity
  8
0
100
AcDbBlockEnd
  0
BLOCK
  5
33D
330
33C
100
AcDbEntity
  8
0
100
AcDbBlockBegin
  2
BALN4
 70
     0
 10
0.0
 20
0.0
 30
0.0
  3
BALN4
  1

  0
CIRCLE
  5
33F
330
33C
100
AcDbEntity
  8
1
  6
ByBlock
 62
     3
100
AcDbCircle
 10
13.22314124860725
 20
86.76450507019263
 30
0.0
 40
8.0
  0
MTEXT
  5
340
330
33C
100
AcDbEntity
  8
1
  6
Continuous
 62
     2
100
AcDbMText
 10
11.22314124860725
 20
82.76450507019263
 30
0.0
 40
8.0
 41
0.0
 71
     7
 72
     5
  1
{\fＭＳ ゴシック|b0|i0|c128|p49;\W1.0;2}
  7
MTSTANDARD
 73
     1
 44
0.9375
  0
LEADER
  5
342
330
33C
100
AcDbEntity
  8
1
  6
ByBlock
 62
     3
100
AcDbLeader
  3
DIMSTYEX_14
 76
     2
 10
0.0
 20
0.0
 30
0.0
 10
12.01783717115586
 20
78.85582363262802
 30
0.0
1001
ACAD
1000
DSTYLE
1002
{
1070
   176
1070
     0
1002
}
  0
ENDBLK
  5
33E
330
33C
100
AcDbEntity
  8
0
100
AcDbBlockEnd
  0
BLOCK
  5
345
330
344
100
AcDbEntity
  8
0
100
AcDbBlockBegin
  2
BALN5
 70
     0
 10
0.0
 20
0.0
 30
0.0
  3
BALN5
  1

  0
CIRCLE
  5
347
330
344
100
AcDbEntity
  8
1
  6
ByBlock
 62
     3
100
AcDbCircle
 10
18.1068829244108
 20
86.1800615363536
 30
0.0
 40
8.0
  0
MTEXT
  5
348
330
344
100
AcDbEntity
  8
1
  6
Continuous
 62
     2
100
AcDbMText
 10
16.1068829244108
 20
82.1800615363536
 30
0.0
 40
8.0
 41
0.0
 71
     7
 72
     5
  1
{\fＭＳ ゴシック|b0|i0|c128|p49;\W1.0;3}
  7
MTSTANDARD
 73
     1
 44
0.9375
  0
LEADER
  5
34A
330
344
100
AcDbEntity
  8
1
  6
ByBlock
 62
     3
100
AcDbLeader
  3
DIMSTYEX_15
 76
     2
 10
0.0
 20
0.0
 30
0.0
 10
16.4619558927365
 20
78.35099932811518
 30
0.0
1001
ACAD
1000
DSTYLE
1002
{
1070
   176
1070
     0
1002
}
  0
ENDBLK
  5
346
330
344
100
AcDbEntity
  8
0
100
AcDbBlockEnd
  0
BLOCK
  5
34D
330
34C
100
AcDbEntity
  8
0
100
AcDbBlockBegin
  2
BALN6
 70
     0
 10
0.0
 20
0.0
 30
0.0
  3
BALN6
  1

  0
CIRCLE
  5
34F
330
34C
100
AcDbEntity
  8
1
  6
ByBlock
 62
     3
100
AcDbCircle
 10
-13.16666666666561
 20
-19.99999999999955
 30
0.0
 40
8.0
  0
MTEXT
  5
350
330
34C
100
AcDbEntity
  8
1
  6
Continuous
 62
     2
100
AcDbMText
 10
-15.16666666666561
 20
-23.99999999999955
 30
0.0
 40
8.0
 41
0.0
 71
     7
 72
     5
  1
{\fＭＳ ゴシック|b0|i0|c128|p49;\W1.0;1}
  7
MTSTANDARD
 73
     1
 44
0.9375
  0
LEADER
  5
352
330
34C
100
AcDbEntity
  8
1
  6
ByBlock
 62
     3
100
AcDbLeader
  3
DIMSTYEX_16
 76
     2
 10
0.0
 20
0.0
 30
0.0
 10
-8.767689463266636
 20
-13.31800931129186
 30
0.0
1001
ACAD
1000
DSTYLE
1002
{
1070
   176
1070
     0
1002
}
  0
ENDBLK
  5
34E
330
34C
100
AcDbEntity
  8
0
100
AcDbBlockEnd
  0
BLOCK
  5
355
330
354
100
AcDbEntity
  8
0
100
AcDbBlockBegin
  2
_D9
 70
     0
 10
0.0
 20
0.0
 30
0.0
  3
_D9
  1

  0
LINE
  5
357
330
354
100
AcDbEntity
  8
1
  6
ByBlock
 62
     3
100
AcDbLine
 10
163.7989234376359
 20
-1498.961095065089
 30
0.0
 11
127.3481187147068
 21
-1498.961095065089
 31
0.0
  0
LINE
  5
358
330
354
100
AcDbEntity
  8
1
  6
ByBlock
 62
     3
100
AcDbLine
 10
129.3481187147068
 20
-1498.961095065089
 30
0.0
 11
129.3481187147068
 21
-1552.961095065132
 31
0.0
  0
LINE
  5
359
330
354
100
AcDbEntity
  8
1
  6
ByBlock
 62
     3
100
AcDbLine
 10
193.6884979625397
 20
-1552.961095065132
 30
0.0
 11
127.3481187147068
 21
-1552.961095065132
 31
0.0
  0
INSERT
  5
35A
330
354
100
AcDbEntity
  8
1
  6
ByBlock
 62
     3
100
AcDbBlockReference
  2
_OPEN30
 10
129.3481187147068
 20
-1498.961095065089
 30
0.0
 41
3.939231012048822
 42
3.939231012048822
 43
3.939231012048822
 50
90.0
  0
INSERT
  5
35B
330
354
100
AcDbEntity
  8
1
  6
ByBlock
 62
     3
100
AcDbBlockReference
  2
_OPEN30
 10
129.3481187147068
 20
-1552.961095065132
 30
0.0
 41
3.939231012048822
 42
3.939231012048822
 43
3.939231012048822
 50
270.0
  0
MTEXT
  5
35C
330
354
100
AcDbEntity
  8
1
  6
Continuous
 62
     2
100
AcDbMText
 10
129.3481187147068
 20
-1532.461095065111
 30
0.0
 40
8.0
 41
0.0
 71
     7
 72
     5
  1
５４
  7
MTSTANDARD6
 11
0.0
 21
1.0
 31
0.0
 73
     1
 44
0.9375
  0
POINT
  5
35D
330
354
100
AcDbEntity
  8
DEFPOINTS
  6
ByBlock
 62
     3
100
AcDbPoint
 10
165.7989234376359
 20
-1498.961095065089
 30
0.0
  0
POINT
  5
35E
330
354
100
AcDbEntity
  8
DEFPOINTS
  6
ByBlock
 62
     3
100
AcDbPoint
 10
195.6884979625397
 20
-1552.961095065132
 30
0.0
  0
POINT
  5
35F
330
354
100
AcDbEntity
  8
DEFPOINTS
  6
ByBlock
 62
     3
100
AcDbPoint
 10
129.3481187147068
 20
-1552.961095065132
 30
0.0
  0
ENDBLK
  5
356
330
354
100
AcDbEntity
  8
0
100
AcDbBlockEnd
  0
BLOCK
  5
363
330
362
100
AcDbEntity
  8
0
100
AcDbBlockBegin
  2
BLK3
 70
     0
 10
259.7989234376432
 20
-1590.461095065134
 30
0.0
  3
BLK3
  1

  0
LINE
  5
365
330
362
100
AcDbEntity
  8
1
  6
Continuous
 62
     7
100
AcDbLine
 10
299.5247795110202
 20
-1595.507542102124
 30
0.0
 11
299.6049133772925
 21
-1595.538992544124
 31
0.0
  0
LINE
  5
366
330
362
100
AcDbEntity
  8
1
  6
Continuous
 62
     7
100
AcDbLine
 10
299.6049133772925
 20
-1595.538992544124
 30
0.0
 11
299.6832983107618
 21
-1595.573641090553
 31
0.0
  0
LINE
  5
367
330
362
100
AcDbEntity
  8
1
  6
Continuous
 62
     7
100
AcDbLine
 10
299.6832983107618
 20
-1595.573641090553
 30
0.0
 11
299.7581971085431
 21
-1595.614649266675
 31
0.0
  0
LINE
  5
368
330
362
100
AcDbEntity
  8
1
  6
Continuous
 62
     7
100
AcDbLine
 10
299.7581971085431
 20
-1595.614649266675
 30
0.0
 11
299.8284707325805
 21
-1595.663313250464
 31
0.0
  0
LINE
  5
369
330
362
100
AcDbEntity
  8
1
  6
Continuous
 62
     7
100
AcDbLine
 10
299.8284707325805
 20
-1595.663313250464
 30
0.0
 11
299.8938511823602
 21
-1595.718212932609
 31
0.0
  0
LINE
  5
36A
330
362
100
AcDbEntity
  8
1
  6
Continuous
 62
     7
100
AcDbLine
 10
299.8938511823602
 20
-1595.718212932609
 30
0.0
 11
299.9540651457194
 21
-1595.777861401249
 31
0.0
  0
LINE
  5
36B
330
362
100
AcDbEntity
  8
1
  6
Continuous
 62
     7
100
AcDbLine
 10
299.9540651457194
 20
-1595.777861401249
 30
0.0
 11
300.008486914145
 21
-1595.841473909488
 31
0.0
  0
LINE
  5
36C
330
362
100
AcDbEntity
  8
1
  6
Continuous
 62
     7
100
AcDbLine
 10
300.008486914145
 20
-1595.841473909488
 30
0.0
 11
300.0563640086764
 21
-1595.908269814917
 31
0.0
  0
LINE
  5
36D
330
362
100
AcDbEntity
  8
1
  6
Continuous
 62
     7
100
AcDbLine
 10
300.0563640086764
 20
-1595.908269814917
 30
0.0
 11
300.0967793288422
 21
-1595.975941193536
 31
0.0
  0
LINE
  5
36E
330
362
100
AcDbEntity
  8
1
  6
Continuous
 62
     7
100
AcDbLine
 10
300.0967793288422
 20
-1595.975941193536
 30
0.0
 11
300.1287207122462
 21
-1596.040765314046
 31
0.0
  0
LINE
  5
36F
330
362
100
AcDbEntity
  8
1
  6
Continuous
 62
     7
100
AcDbLine
 10
300.1287207122462
 20
-1596.040765314046
 30
0.0
 11
300.1511206935978
 21
-1596.095683661392
 31
0.0
  0
LINE
  5
370
330
362
100
AcDbEntity
  8
1
  6
Continuous
 62
     7
100
AcDbLine
 10
300.1511206935978
 20
-1596.095683661392
 30
0.0
 11
300.1643648353977
 21
-1596.135100597334
 31
0.0
  0
LINE
  5
371
330
362
100
AcDbEntity
  8
1
  6
Continuous
 62
     7
100
AcDbLine
 10
300.1643648353977
 20
-1596.135100597334
 30
0.0
 11
300.1703259823306
 21
-1596.155955233176
 31
0.0
  0
LINE
  5
372
330
362
100
AcDbEntity
  8
1
  6
Continuous
 62
     7
100
AcDbLine
 10
300.1703259823306
 20
-1596.155955233176
 30
0.0
 11
300.1710077707501
 21
-1596.158513978171
 31
0.0
  0
ARC
  5
373
330
362
100
AcDbEntity
  8
1
  6
Continuous
 62
     7
100
AcDbCircle
 10
251.3351871780431
 20
-1577.961095065134
 30
0.0
 40
1.000000000000002
100
AcDbArc
 50
90.0
 51
172.4947745055995
  0
LINE
  5
374
330
362
100
AcDbEntity
  8
1
  6
Continuous
 62
     7
100
AcDbLine
 10
248.797483153843
 20
-1589.591448067933
 30
0.0
 11
250.3437195312429
 21
-1577.830742062434
 31
0.0
  0
ARC
  5
375
330
362
100
AcDbEntity
  8
1
  6
Continuous
 62
     7
100
AcDbCircle
 10
247.8060155070432
 20
-1589.461095065134
 30
0.0
 40
1.000000000000004
100
AcDbArc
 50
270.0
 51
352.5100085351011
  0
LINE
  5
376
330
362
100
AcDbEntity
  8
1
  6
Continuous
 62
     7
100
AcDbLine
 10
306.7989234376431
 20
-1640.461095065134
 30
0.0
 11
301.796485260443
 21
-1640.461095065134
 31
0.0
  0
LINE
  5
377
330
362
100
AcDbEntity
  8
1
  6
Continuous
 62
     7
100
AcDbLine
 10
301.796485260443
 20
-1640.461095065134
 30
0.0
 11
300.258752685543
 21
-1596.426195568434
 31
0.0
  0
ARC
  5
378
330
362
100
AcDbEntity
  8
1
  6
Continuous
 62
     7
100
AcDbCircle
 10
299.2593618584431
 20
-1596.461095065134
 30
0.0
 40
1.000000000000028
100
AcDbArc
 50
2.000000000003953
 51
90.0
  0
LINE
  5
379
330
362
100
AcDbEntity
  8
1
  6
Continuous
 62
     7
100
AcDbLine
 10
299.2593618584431
 20
-1595.461095065134
 30
0.0
 11
294.439216059943
 21
-1595.461095065134
 31
0.0
  0
ARC
  5
37A
330
362
100
AcDbEntity
  8
1
  6
Continuous
 62
     7
100
AcDbCircle
 10
294.439216059943
 20
-1594.461095065134
 30
0.0
 40
1.000000000000003
100
AcDbArc
 50
181.999999999991
 51
270.0
  0
LINE
  5
37B
330
362
100
AcDbEntity
  8
1
  6
Continuous
 62
     7
100
AcDbLine
 10
293.4398252328431
 20
-1594.495994561833
 30
0.0
 11
293.3326254898432
 21
-1591.426195568434
 31
0.0
  0
ARC
  5
37C
330
362
100
AcDbEntity
  8
1
  6
Continuous
 62
     7
100
AcDbCircle
 10
292.3332346628429
 20
-1591.461095065134
 30
0.0
 40
1.0
100
AcDbArc
 50
2.000000000003044
 51
90.0
  0
LINE
  5
37D
330
362
100
AcDbEntity
  8
1
  6
Continuous
 62
     7
100
AcDbLine
 10
292.3332346628429
 20
-1590.461095065134
 30
0.0
 11
287.7360426005428
 21
-1590.461095065134
 31
0.0
  0
ARC
  5
37E
330
362
100
AcDbEntity
  8
1
  6
Continuous
 62
     7
100
AcDbCircle
 10
287.7360426005428
 20
-1589.461095065134
 30
0.0
 40
1.000000000000004
100
AcDbArc
 50
181.999999999991
 51
270.0
  0
LINE
  5
37F
330
362
100
AcDbEntity
  8
1
  6
Continuous
 62
     7
100
AcDbLine
 10
286.736651773543
 20
-1589.495994561833
 30
0.0
 11
286.3326254898432
 21
-1577.926195568434
 31
0.0
  0
ARC
  5
380
330
362
100
AcDbEntity
  8
1
  6
Continuous
 62
     7
100
AcDbCircle
 10
285.3332346628429
 20
-1577.961095065134
 30
0.0
 40
1.000000000000003
100
AcDbArc
 50
2.000000000003044
 51
90.0
  0
LINE
  5
381
330
362
100
AcDbEntity
  8
1
  6
HIDDEN
 62
     1
100
AcDbLine
 10
294.7505725236427
 20
-1576.961095065134
 30
0.0
 11
285.3332346628429
 21
-1576.961095065134
 31
0.0
  0
LINE
  5
382
330
362
100
AcDbEntity
  8
1
  6
Continuous
 62
     7
100
AcDbLine
 10
285.3332346628429
 20
-1576.961095065134
 30
0.0
 11
224.847274351643
 21
-1576.961095065134
 31
0.0
  0
ARC
  5
383
330
362
100
AcDbEntity
  8
1
  6
Continuous
 62
     7
100
AcDbCircle
 10
224.847274351643
 20
-1581.961095065134
 30
0.0
 40
5.000000000000002
100
AcDbArc
 50
90.0
 51
177.999999999999
  0
LINE
  5
384
330
362
100
AcDbEntity
  8
1
  6
Continuous
 62
     7
100
AcDbLine
 10
219.8503202165433
 20
-1581.786597581633
 30
0.0
 11
217.8013616148431
 21
-1640.461095065134
 31
0.0
  0
LINE
  5
385
330
362
100
AcDbEntity
  8
1
  6
Continuous
 62
     7
100
AcDbLine
 10
217.8013616148431
 20
-1640.461095065134
 30
0.0
 11
212.7989234376431
 21
-1640.461095065134
 31
0.0
  0
LINE
  5
386
330
362
100
AcDbEntity
  8
1
  6
Continuous
 62
     7
100
AcDbLine
 10
212.7989234376431
 20
-1640.461095065134
 30
0.0
 11
214.8876776779433
 21
-1580.646999594833
 31
0.0
  0
ARC
  5
387
330
362
100
AcDbEntity
  8
1
  6
Continuous
 62
     7
100
AcDbCircle
 10
223.8821951211428
 20
-1580.961095065134
 30
0.0
 40
9.0
100
AcDbArc
 50
90.0
 51
177.9999999999993
  0
LINE
  5
388
330
362
100
AcDbEntity
  8
1
  6
Continuous
 62
     7
100
AcDbLine
 10
223.8821951211428
 20
-1571.961095065134
 30
0.0
 11
245.3671836266429
 21
-1571.961095065134
 31
0.0
  0
ARC
  5
389
330
362
100
AcDbEntity
  8
1
  6
Continuous
 62
     7
100
AcDbCircle
 10
245.3671836266429
 20
-1568.961095065134
 30
0.0
 40
3.0
100
AcDbArc
 50
270.0
 51
335.5560452196047
  0
LINE
  5
38A
330
362
100
AcDbEntity
  8
1
  6
Continuous
 62
     7
100
AcDbLine
 10
248.0982830590431
 20
-1570.202503898033
 30
0.0
 11
251.499563816243
 21
-1562.719686232233
 31
0.0
  0
ARC
  5
38B
330
362
100
AcDbEntity
  8
1
  6
Continuous
 62
     7
100
AcDbCircle
 10
254.2306632486432
 20
-1563.961095065134
 30
0.0
 40
3.0
100
AcDbArc
 50
90.0
 51
155.5560452196007
  0
LINE
  5
38C
330
362
100
AcDbEntity
  8
1
  6
Continuous
 62
     7
100
AcDbLine
 10
254.2306632486432
 20
-1560.961095065134
 30
0.0
 11
265.3671836266429
 21
-1560.961095065134
 31
0.0
  0
ARC
  5
38D
330
362
100
AcDbEntity
  8
1
  6
Continuous
 62
     7
100
AcDbCircle
 10
265.3671836266429
 20
-1563.961095065134
 30
0.0
 40
3.0
100
AcDbArc
 50
24.44395478039929
 51
90.0
  0
LINE
  5
38E
330
362
100
AcDbEntity
  8
1
  6
Continuous
 62
     7
100
AcDbLine
 10
268.0982830590431
 20
-1562.719686232233
 30
0.0
 11
271.499563816243
 21
-1570.202503898033
 31
0.0
  0
ARC
  5
38F
330
362
100
AcDbEntity
  8
1
  6
Continuous
 62
     7
100
AcDbCircle
 10
274.2306632486432
 20
-1568.961095065134
 30
0.0
 40
3.000000000000004
100
AcDbArc
 50
204.4439547803953
 51
270.0
  0
LINE
  5
390
330
362
100
AcDbEntity
  8
1
  6
Continuous
 62
     7
100
AcDbLine
 10
274.2306632486432
 20
-1571.961095065134
 30
0.0
 11
295.7156517541428
 21
-1571.961095065134
 31
0.0
  0
ARC
  5
391
330
362
100
AcDbEntity
  8
1
  6
Continuous
 62
     7
100
AcDbCircle
 10
295.7156517541428
 20
-1580.961095065134
 30
0.0
 40
9.0
100
AcDbArc
 50
2.000000000000655
 51
90.0
  0
LINE
  5
392
330
362
100
AcDbEntity
  8
1
  6
Continuous
 62
     7
100
AcDbLine
 10
304.7101691973429
 20
-1580.646999594833
 30
0.0
 11
306.7989234376431
 21
-1640.461095065134
 31
0.0
  0
LINE
  5
393
330
362
100
AcDbEntity
  8
1
  6
Continuous
 62
     7
100
AcDbLine
 10
236.0902845694609
 20
-1590.461095065133
 30
0.0
 11
235.9702003634673
 21
-1589.157885505945
 31
0.0
  0
LINE
  5
394
330
362
100
AcDbEntity
  8
1
  6
Continuous
 62
     7
100
AcDbLine
 10
235.9702003634673
 20
-1589.157885505945
 30
0.0
 11
235.801195732028
 21
-1587.314932015856
 31
0.0
  0
LINE
  5
395
330
362
100
AcDbEntity
  8
1
  6
Continuous
 62
     7
100
AcDbLine
 10
235.801195732028
 20
-1587.314932015856
 30
0.0
 11
235.633019194562
 21
-1585.472065052758
 31
0.0
  0
LINE
  5
396
330
362
100
AcDbEntity
  8
1
  6
Continuous
 62
     7
100
AcDbLine
 10
235.633019194562
 20
-1585.472065052758
 30
0.0
 11
235.4656767673862
 21
-1583.629286335178
 31
0.0
  0
LINE
  5
397
330
362
100
AcDbEntity
  8
1
  6
Continuous
 62
     7
100
AcDbLine
 10
235.4656767673862
 20
-1583.629286335178
 30
0.0
 11
235.2991744668187
 21
-1581.786597581642
 31
0.0
  0
LINE
  5
398
330
362
100
AcDbEntity
  8
1
  6
Continuous
 62
     7
100
AcDbLine
 10
300.258752685543
 20
-1596.426195568434
 30
0.0
 11
300.2245150577431
 21
-1596.426195568434
 31
0.0
  0
LINE
  5
399
330
362
100
AcDbEntity
  8
1
  6
Continuous
 62
     7
100
AcDbLine
 10
301.796485260443
 20
-1640.461095065134
 30
0.0
 11
294.0449619122306
 21
-1640.461095065134
 31
0.0
  0
LINE
  5
39A
330
362
100
AcDbEntity
  8
1
  6
Continuous
 62
     7
100
AcDbLine
 10
225.5528849630558
 20
-1640.461095065134
 30
0.0
 11
217.8013616148431
 21
-1640.461095065134
 31
0.0
  0
LINE
  5
39B
330
362
100
AcDbEntity
  8
1
  6
Continuous
 62
     7
100
AcDbLine
 10
235.2991744668187
 20
-1581.786597581642
 30
0.0
 11
235.2813561019228
 21
-1581.418974627975
 31
0.0
  0
LINE
  5
39C
330
362
100
AcDbEntity
  8
1
  6
Continuous
 62
     7
100
AcDbLine
 10
235.2813561019228
 20
-1581.418974627975
 30
0.0
 11
235.2779992636882
 21
-1581.057198755797
 31
0.0
  0
LINE
  5
39D
330
362
100
AcDbEntity
  8
1
  6
Continuous
 62
     7
100
AcDbLine
 10
235.2779992636882
 20
-1581.057198755797
 30
0.0
 11
235.2888808061765
 21
-1580.701014246007
 31
0.0
  0
LINE
  5
39E
330
362
100
AcDbEntity
  8
1
  6
Continuous
 62
     7
100
AcDbLine
 10
235.2888808061765
 20
-1580.701014246007
 30
0.0
 11
235.31408105151
 21
-1580.3499443895
 31
0.0
  0
LINE
  5
39F
330
362
100
AcDbEntity
  8
1
  6
Continuous
 62
     7
100
AcDbLine
 10
235.31408105151
 20
-1580.3499443895
 30
0.0
 11
235.3534760172054
 21
-1580.006890464046
 31
0.0
  0
LINE
  5
3A0
330
362
100
AcDbEntity
  8
1
  6
Continuous
 62
     7
100
AcDbLine
 10
235.3534760172054
 20
-1580.006890464046
 30
0.0
 11
235.4066989472884
 21
-1579.675603065232
 31
0.0
  0
LINE
  5
3A1
330
362
100
AcDbEntity
  8
1
  6
Continuous
 62
     7
100
AcDbLine
 10
235.4066989472884
 20
-1579.675603065232
 30
0.0
 11
235.4732120008687
 21
-1579.358267967529
 31
0.0
  0
LINE
  5
3A2
330
362
100
AcDbEntity
  8
1
  6
Continuous
 62
     7
100
AcDbLine
 10
235.4732120008687
 20
-1579.358267967529
 30
0.0
 11
235.5529183198753
 21
-1579.054824122583
 31
0.0
  0
LINE
  5
3A3
330
362
100
AcDbEntity
  8
1
  6
Continuous
 62
     7
100
AcDbLine
 10
235.5529183198753
 20
-1579.054824122583
 30
0.0
 11
235.6460242312235
 21
-1578.765159157099
 31
0.0
  0
LINE
  5
3A4
330
362
100
AcDbEntity
  8
1
  6
Continuous
 62
     7
100
AcDbLine
 10
235.6460242312235
 20
-1578.765159157099
 30
0.0
 11
235.7516624934313
 21
-1578.492083854819
 31
0.0
  0
LINE
  5
3A5
330
362
100
AcDbEntity
  8
1
  6
Continuous
 62
     7
100
AcDbLine
 10
235.7516624934313
 20
-1578.492083854819
 30
0.0
 11
235.8685058331556
 21
-1578.239113604339
 31
0.0
  0
LINE
  5
3A6
330
362
100
AcDbEntity
  8
1
  6
Continuous
 62
     7
100
AcDbLine
 10
235.8685058331556
 20
-1578.239113604339
 30
0.0
 11
235.996077624677
 21
-1578.006730249909
 31
0.0
  0
LINE
  5
3A7
330
362
100
AcDbEntity
  8
1
  6
Continuous
 62
     7
100
AcDbLine
 10
235.996077624677
 20
-1578.006730249909
 30
0.0
 11
236.1344282672879
 21
-1577.794830327204
 31
0.0
  0
LINE
  5
3A8
330
362
100
AcDbEntity
  8
1
  6
Continuous
 62
     7
100
AcDbLine
 10
236.1344282672879
 20
-1577.794830327204
 30
0.0
 11
236.2834217400826
 21
-1577.60400570663
 31
0.0
  0
LINE
  5
3A9
330
362
100
AcDbEntity
  8
1
  6
Continuous
 62
     7
100
AcDbLine
 10
236.2834217400826
 20
-1577.60400570663
 30
0.0
 11
236.4416595903884
 21
-1577.43623139955
 31
0.0
  0
LINE
  5
3AA
330
362
100
AcDbEntity
  8
1
  6
Continuous
 62
     7
100
AcDbLine
 10
236.4416595903884
 20
-1577.43623139955
 30
0.0
 11
236.6072639907127
 21
-1577.293342036082
 31
0.0
  0
LINE
  5
3AB
330
362
100
AcDbEntity
  8
1
  6
Continuous
 62
     7
100
AcDbLine
 10
236.6072639907127
 20
-1577.293342036082
 30
0.0
 11
236.7797538484436
 21
-1577.175501098969
 31
0.0
  0
LINE
  5
3AC
330
362
100
AcDbEntity
  8
1
  6
Continuous
 62
     7
100
AcDbLine
 10
236.7797538484436
 20
-1577.175501098969
 30
0.0
 11
236.9594142420027
 21
-1577.082657411962
 31
0.0
  0
LINE
  5
3AD
330
362
100
AcDbEntity
  8
1
  6
Continuous
 62
     7
100
AcDbLine
 10
236.9594142420027
 20
-1577.082657411962
 30
0.0
 11
237.1459020261685
 21
-1577.015361466081
 31
0.0
  0
LINE
  5
3AE
330
362
100
AcDbEntity
  8
1
  6
Continuous
 62
     7
100
AcDbLine
 10
237.1459020261685
 20
-1577.015361466081
 30
0.0
 11
237.3372736644404
 21
-1576.974713042721
 31
0.0
  0
LINE
  5
3AF
330
362
100
AcDbEntity
  8
1
  6
Continuous
 62
     7
100
AcDbLine
 10
237.3372736644404
 20
-1576.974713042721
 30
0.0
 11
237.5326396830408
 21
-1576.961095065156
 31
0.0
  0
LINE
  5
3B0
330
362
100
AcDbEntity
  8
1
  6
Continuous
 62
     7
100
AcDbLine
 10
299.5256220732429
 20
-1595.507126285034
 30
0.0
 11
299.4166174584432
 21
-1595.479467881733
 31
0.0
  0
LINE
  5
3B1
330
362
100
AcDbEntity
  8
1
  6
Continuous
 62
     7
100
AcDbLine
 10
299.4166174584432
 20
-1595.479467881733
 30
0.0
 11
299.2259699281429
 21
-1595.461095065134
 31
0.0
  0
LINE
  5
3B2
330
362
100
AcDbEntity
  8
1
  6
Continuous
 62
     7
100
AcDbLine
 10
243.2372969848432
 20
-1577.926195568434
 30
0.0
 11
243.2498073659429
 21
-1577.736144010833
 31
0.0
  0
LINE
  5
3B3
330
362
100
AcDbEntity
  8
1
  6
Continuous
 62
     7
100
AcDbLine
 10
243.2498073659429
 20
-1577.736144010833
 30
0.0
 11
243.2802196695432
 21
-1577.554358422034
 31
0.0
  0
LINE
  5
3B4
330
362
100
AcDbEntity
  8
1
  6
Continuous
 62
     7
100
AcDbLine
 10
243.2802196695432
 20
-1577.554358422034
 30
0.0
 11
243.3274163762429
 21
-1577.387518628834
 31
0.0
  0
LINE
  5
3B5
330
362
100
AcDbEntity
  8
1
  6
Continuous
 62
     7
100
AcDbLine
 10
243.3274163762429
 20
-1577.387518628834
 30
0.0
 11
243.389663213143
 21
-1577.241755264834
 31
0.0
  0
LINE
  5
3B6
330
362
100
AcDbEntity
  8
1
  6
Continuous
 62
     7
100
AcDbLine
 10
243.389663213143
 20
-1577.241755264834
 30
0.0
 11
243.4646728808432
 21
-1577.122424497233
 31
0.0
  0
LINE
  5
3B7
330
362
100
AcDbEntity
  8
1
  6
Continuous
 62
     7
100
AcDbLine
 10
243.4646728808432
 20
-1577.122424497233
 30
0.0
 11
243.5496891016431
 21
-1577.033911210634
 31
0.0
  0
LINE
  5
3B8
330
362
100
AcDbEntity
  8
1
  6
Continuous
 62
     7
100
AcDbLine
 10
243.5496891016431
 20
-1577.033911210634
 30
0.0
 11
243.6415879006429
 21
-1576.979467881733
 31
0.0
  0
LINE
  5
3B9
330
362
100
AcDbEntity
  8
1
  6
Continuous
 62
     7
100
AcDbLine
 10
243.6415879006429
 20
-1576.979467881733
 30
0.0
 11
243.7369923983431
 21
-1576.961095065134
 31
0.0
  0
ELLIPSE
  5
3BA
330
362
100
AcDbEntity
  8
1
  6
Continuous
 62
     7
100
AcDbEllipse
 10
242.7443409449432
 20
-1577.961095065134
 30
0.0
 11
1.013931638939368
 21
-0.09778476618402047
 31
0.0
210
0.0
220
0.0
230
1.0
 40
0.0917384779
 41
1.071949132649259
 42
2.638190145274232
  0
ARC
  5
3BB
330
362
100
AcDbEntity
  8
1
  6
Continuous
 62
     7
100
AcDbCircle
 10
240.9422422267428
 20
-1577.878694484634
 30
0.0
 40
0.9195368576207673
100
AcDbArc
 50
3.000048100999482
 51
86.27999717049266
  0
LINE
  5
3BC
330
362
100
AcDbEntity
  8
1
  6
Continuous
 62
     7
100
AcDbLine
 10
249.8268478381431
 20
-1577.926195568434
 30
0.0
 11
243.2372969848432
 21
-1577.926195568434
 31
0.0
  0
LINE
  5
3BD
330
362
100
AcDbEntity
  8
1
  6
Continuous
 62
     7
100
AcDbLine
 10
249.8268478381431
 20
-1577.926195568434
 30
0.0
 11
249.8393582193428
 21
-1577.736144010833
 31
0.0
  0
LINE
  5
3BE
330
362
100
AcDbEntity
  8
1
  6
Continuous
 62
     7
100
AcDbLine
 10
249.8393582193428
 20
-1577.736144010833
 30
0.0
 11
249.8697705228431
 21
-1577.554358422034
 31
0.0
  0
LINE
  5
3BF
330
362
100
AcDbEntity
  8
1
  6
Continuous
 62
     7
100
AcDbLine
 10
249.8697705228431
 20
-1577.554358422034
 30
0.0
 11
249.9169672295432
 21
-1577.387518628834
 31
0.0
  0
LINE
  5
3C0
330
362
100
AcDbEntity
  8
1
  6
Continuous
 62
     7
100
AcDbLine
 10
249.9169672295432
 20
-1577.387518628834
 30
0.0
 11
249.9792140664429
 21
-1577.241755264834
 31
0.0
  0
LINE
  5
3C1
330
362
100
AcDbEntity
  8
1
  6
Continuous
 62
     7
100
AcDbLine
 10
249.9792140664429
 20
-1577.241755264834
 30
0.0
 11
250.0542237342432
 21
-1577.122424497233
 31
0.0
  0
LINE
  5
3C2
330
362
100
AcDbEntity
  8
1
  6
Continuous
 62
     7
100
AcDbLine
 10
250.0542237342432
 20
-1577.122424497233
 30
0.0
 11
250.139239954943
 21
-1577.033911210634
 31
0.0
  0
LINE
  5
3C3
330
362
100
AcDbEntity
  8
1
  6
Continuous
 62
     7
100
AcDbLine
 10
250.139239954943
 20
-1577.033911210634
 30
0.0
 11
250.2311387540429
 21
-1576.979467881733
 31
0.0
  0
LINE
  5
3C4
330
362
100
AcDbEntity
  8
1
  6
Continuous
 62
     7
100
AcDbLine
 10
250.2311387540429
 20
-1576.979467881733
 30
0.0
 11
250.3265432517431
 21
-1576.961095065134
 31
0.0
  0
LINE
  5
3C5
330
362
100
AcDbEntity
  8
1
  6
Continuous
 62
     7
100
AcDbLine
 10
241.8605188507429
 20
-1577.830568872934
 30
0.0
 11
238.3912561194432
 21
-1577.830568872934
 31
0.0
  0
ARC
  5
3C6
330
362
100
AcDbEntity
  8
1
  6
Continuous
 62
     7
100
AcDbCircle
 10
237.4729794955431
 20
-1577.878694484634
 30
0.0
 40
0.9195368576207901
100
AcDbArc
 50
3.000048101000964
 51
86.27999717052093
  0
LINE
  5
3C7
330
362
100
AcDbEntity
  8
1
  6
Continuous
 62
     7
100
AcDbLine
 10
243.2372969848432
 20
-1577.926195568434
 30
0.0
 11
244.354407618743
 21
-1589.495994561833
 31
0.0
  0
ARC
  5
3C8
330
362
100
AcDbEntity
  8
1
  6
Continuous
 62
     7
100
AcDbCircle
 10
243.1321385778431
 20
-1581.829257310334
 30
0.0
 40
7.763555995304718
100
AcDbArc
 50
268.9959397778978
 51
279.0581473358984
  0
LINE
  5
3C9
330
362
100
AcDbEntity
  8
1
  6
Continuous
 62
     7
100
AcDbLine
 10
242.996095768843
 20
-1589.591621257334
 30
0.0
 11
241.8605188507429
 21
-1577.830568872934
 31
0.0
  0
LINE
  5
3CA
330
362
100
AcDbEntity
  8
1
  6
Continuous
 62
     7
100
AcDbLine
 10
248.3057109205432
 20
-1589.495994561833
 30
0.0
 11
249.8268478381431
 21
-1577.926195568434
 31
0.0
  0
LINE
  5
3CB
330
362
100
AcDbEntity
  8
1
  6
Continuous
 62
     7
100
AcDbLine
 10
244.354407618743
 20
-1589.495994561833
 30
0.0
 11
248.3057109205432
 21
-1589.495994561833
 31
0.0
  0
ELLIPSE
  5
3CC
330
362
100
AcDbEntity
  8
1
  6
Continuous
 62
     7
100
AcDbEllipse
 10
270.6294725881428
 20
-1709.443292213034
 30
0.0
 11
-37.74364262753095
 21
329.7264105120536
 31
0.0
210
0.0
220
0.0
230
1.0
 40
0.0626506732
 41
1.16577231647522
 42
1.194454291272976
  0
LINE
  5
3CD
330
362
100
AcDbEntity
  8
1
  6
Continuous
 62
     7
100
AcDbLine
 10
238.3912561194423
 20
-1577.830568872936
 30
0.0
 11
238.2427333066124
 21
-1577.841472028461
 31
0.0
  0
LINE
  5
3CE
330
362
100
AcDbEntity
  8
1
  6
Continuous
 62
     7
100
AcDbLine
 10
238.2427333066124
 20
-1577.841472028461
 30
0.0
 11
238.0977222312261
 21
-1577.874001640733
 31
0.0
  0
LINE
  5
3CF
330
362
100
AcDbEntity
  8
1
  6
Continuous
 62
     7
100
AcDbLine
 10
238.0977222312261
 20
-1577.874001640733
 30
0.0
 11
237.9568785893801
 21
-1577.927828999158
 31
0.0
  0
LINE
  5
3D0
330
362
100
AcDbEntity
  8
1
  6
Continuous
 62
     7
100
AcDbLine
 10
237.9568785893801
 20
-1577.927828999158
 30
0.0
 11
237.8216418257442
 21
-1578.002063347635
 31
0.0
  0
LINE
  5
3D1
330
362
100
AcDbEntity
  8
1
  6
Continuous
 62
     7
100
AcDbLine
 10
237.8216418257442
 20
-1578.002063347635
 30
0.0
 11
237.6922585232836
 21
-1578.096254916572
 31
0.0
  0
LINE
  5
3D2
330
362
100
AcDbEntity
  8
1
  6
Continuous
 62
     7
100
AcDbLine
 10
237.6922585232836
 20
-1578.096254916572
 30
0.0
 11
237.5685130941109
 21
-1578.210429679389
 31
0.0
  0
LINE
  5
3D3
330
362
100
AcDbEntity
  8
1
  6
Continuous
 62
     7
100
AcDbLine
 10
237.5685130941109
 20
-1578.210429679389
 30
0.0
 11
237.4507652880978
 21
-1578.344452531205
 31
0.0
  0
LINE
  5
3D4
330
362
100
AcDbEntity
  8
1
  6
Continuous
 62
     7
100
AcDbLine
 10
237.4507652880978
 20
-1578.344452531205
 30
0.0
 11
237.3403984969989
 21
-1578.496876875648
 31
0.0
  0
LINE
  5
3D5
330
362
100
AcDbEntity
  8
1
  6
Continuous
 62
     7
100
AcDbLine
 10
237.3403984969989
 20
-1578.496876875648
 30
0.0
 11
237.2384409645109
 21
-1578.666141128384
 31
0.0
  0
LINE
  5
3D6
330
362
100
AcDbEntity
  8
1
  6
Continuous
 62
     7
100
AcDbLine
 10
237.2384409645109
 20
-1578.666141128384
 30
0.0
 11
237.1449992881042
 21
-1578.851776596492
 31
0.0
  0
LINE
  5
3D7
330
362
100
AcDbEntity
  8
1
  6
Continuous
 62
     7
100
AcDbLine
 10
237.1449992881042
 20
-1578.851776596492
 30
0.0
 11
237.0600483764668
 21
-1579.053868505667
 31
0.0
  0
LINE
  5
3D8
330
362
100
AcDbEntity
  8
1
  6
Continuous
 62
     7
100
AcDbLine
 10
237.0600483764668
 20
-1579.053868505667
 30
0.0
 11
236.9839501394766
 21
-1579.272053627006
 31
0.0
  0
LINE
  5
3D9
330
362
100
AcDbEntity
  8
1
  6
Continuous
 62
     7
100
AcDbLine
 10
236.9839501394766
 20
-1579.272053627006
 30
0.0
 11
236.9176673628133
 21
-1579.503563620225
 31
0.0
  0
LINE
  5
3DA
330
362
100
AcDbEntity
  8
1
  6
Continuous
 62
     7
100
AcDbLine
 10
236.9176673628133
 20
-1579.503563620225
 30
0.0
 11
236.8618301530922
 21
-1579.746177932507
 31
0.0
  0
LINE
  5
3DB
330
362
100
AcDbEntity
  8
1
  6
Continuous
 62
     7
100
AcDbLine
 10
236.8618301530922
 20
-1579.746177932507
 30
0.0
 11
236.8163087834781
 21
-1579.999981919202
 31
0.0
  0
LINE
  5
3DC
330
362
100
AcDbEntity
  8
1
  6
Continuous
 62
     7
100
AcDbLine
 10
236.8163087834781
 20
-1579.999981919202
 30
0.0
 11
236.7811996327612
 21
-1580.265032735004
 31
0.0
  0
LINE
  5
3DD
330
362
100
AcDbEntity
  8
1
  6
Continuous
 62
     7
100
AcDbLine
 10
236.7811996327612
 20
-1580.265032735004
 30
0.0
 11
236.756896332852
 21
-1580.539628786613
 31
0.0
  0
LINE
  5
3DE
330
362
100
AcDbEntity
  8
1
  6
Continuous
 62
     7
100
AcDbLine
 10
236.756896332852
 20
-1580.539628786613
 30
0.0
 11
236.7436403642649
 21
-1580.820781844585
 31
0.0
  0
LINE
  5
3DF
330
362
100
AcDbEntity
  8
1
  6
Continuous
 62
     7
100
AcDbLine
 10
236.7436403642649
 20
-1580.820781844585
 30
0.0
 11
236.7415032118336
 21
-1581.106164116788
 31
0.0
  0
LINE
  5
3E0
330
362
100
AcDbEntity
  8
1
  6
Continuous
 62
     7
100
AcDbLine
 10
236.7415032118336
 20
-1581.106164116788
 30
0.0
 11
236.7504557795231
 21
-1581.396156855839
 31
0.0
  0
LINE
  5
3E1
330
362
100
AcDbEntity
  8
1
  6
Continuous
 62
     7
100
AcDbLine
 10
236.7504557795231
 20
-1581.396156855839
 30
0.0
 11
236.7706990504756
 21
-1581.690970886125
 31
0.0
  0
LINE
  5
3E2
330
362
100
AcDbEntity
  8
1
  6
Continuous
 62
     7
100
AcDbLine
 10
240.6974997377432
 20
-1589.591621257334
 30
0.0
 11
242.996095768843
 21
-1589.591621257334
 31
0.0
  0
ELLIPSE
  5
3E3
330
362
100
AcDbEntity
  8
1
  6
Continuous
 62
     7
100
AcDbEllipse
 10
240.9255285525431
 20
-1591.591621257334
 30
0.0
 11
-0.3014998366102898
 21
1.99450194716951
 31
0.0
210
0.0
220
0.0
230
1.0
 40
0.4915284858
 41
6.209019454339612
 42
7.179063623500695
  0
LINE
  5
3E4
330
362
100
AcDbEntity
  8
1
  6
Continuous
 62
     7
100
AcDbLine
 10
244.354407618743
 20
-1589.495994561833
 30
0.0
 11
244.3418972376429
 21
-1589.686046119534
 31
0.0
  0
LINE
  5
3E5
330
362
100
AcDbEntity
  8
1
  6
Continuous
 62
     7
100
AcDbLine
 10
244.3418972376429
 20
-1589.686046119534
 30
0.0
 11
244.311484934043
 21
-1589.867831708234
 31
0.0
  0
LINE
  5
3E6
330
362
100
AcDbEntity
  8
1
  6
Continuous
 62
     7
100
AcDbLine
 10
244.311484934043
 20
-1589.867831708234
 30
0.0
 11
244.2642882274429
 21
-1590.034671501533
 31
0.0
  0
LINE
  5
3E7
330
362
100
AcDbEntity
  8
1
  6
Continuous
 62
     7
100
AcDbLine
 10
244.2642882274429
 20
-1590.034671501533
 30
0.0
 11
244.2020413904432
 21
-1590.180434865533
 31
0.0
  0
LINE
  5
3E8
330
362
100
AcDbEntity
  8
1
  6
Continuous
 62
     7
100
AcDbLine
 10
244.2020413904432
 20
-1590.180434865533
 30
0.0
 11
244.127031722743
 21
-1590.299765633134
 31
0.0
  0
ARC
  5
3E9
330
362
100
AcDbEntity
  8
1
  6
Continuous
 62
     7
100
AcDbCircle
 10
243.914372392743
 20
-1589.543495645733
 30
0.0
 40
0.9195368576207751
100
AcDbArc
 50
183.000048101001
 51
266.2799971704926
  0
LINE
  5
3EA
330
362
100
AcDbEntity
  8
1
  6
Continuous
 62
     7
100
AcDbLine
 10
247.8060155070432
 20
-1590.461095065134
 30
0.0
 11
247.901420004743
 21
-1590.442722248634
 31
0.0
  0
LINE
  5
3EB
330
362
100
AcDbEntity
  8
1
  6
Continuous
 62
     7
100
AcDbLine
 10
247.901420004743
 20
-1590.442722248634
 30
0.0
 11
247.9933188037429
 21
-1590.388278919733
 31
0.0
  0
LINE
  5
3EC
330
362
100
AcDbEntity
  8
1
  6
Continuous
 62
     7
100
AcDbLine
 10
247.9933188037429
 20
-1590.388278919733
 30
0.0
 11
248.0783350245432
 21
-1590.299765633134
 31
0.0
  0
LINE
  5
3ED
330
362
100
AcDbEntity
  8
1
  6
Continuous
 62
     7
100
AcDbLine
 10
248.0783350245432
 20
-1590.299765633134
 30
0.0
 11
248.1533446922429
 21
-1590.180434865533
 31
0.0
  0
LINE
  5
3EE
330
362
100
AcDbEntity
  8
1
  6
Continuous
 62
     7
100
AcDbLine
 10
248.1533446922429
 20
-1590.180434865533
 30
0.0
 11
248.2155915292431
 21
-1590.034671501533
 31
0.0
  0
LINE
  5
3EF
330
362
100
AcDbEntity
  8
1
  6
Continuous
 62
     7
100
AcDbLine
 10
248.2155915292431
 20
-1590.034671501533
 30
0.0
 11
248.2627882358432
 21
-1589.867831708234
 31
0.0
  0
LINE
  5
3F0
330
362
100
AcDbEntity
  8
1
  6
Continuous
 62
     7
100
AcDbLine
 10
248.2627882358432
 20
-1589.867831708234
 30
0.0
 11
248.293200539443
 21
-1589.686046119534
 31
0.0
  0
LINE
  5
3F1
330
362
100
AcDbEntity
  8
1
  6
Continuous
 62
     7
100
AcDbLine
 10
248.293200539443
 20
-1589.686046119534
 30
0.0
 11
248.3057109205432
 21
-1589.495994561833
 31
0.0
  0
LINE
  5
3F2
330
362
100
AcDbEntity
  8
1
  6
Continuous
 62
     7
100
AcDbLine
 10
243.8547122052431
 20
-1590.461095065134
 30
0.0
 11
247.8060155070432
 21
-1590.461095065134
 31
0.0
  0
ARC
  5
3F3
330
362
100
AcDbEntity
  8
1
  6
Continuous
 62
     7
100
AcDbCircle
 10
241.6157763616432
 20
-1589.543495645733
 30
0.0
 40
0.919536857620716
100
AcDbArc
 50
183.0000481009995
 51
266.2799971704917
  0
ARC
  5
3F4
330
362
100
AcDbEntity
  8
1
  6
Continuous
 62
     7
100
AcDbCircle
 10
236.4721010783431
 20
-1588.465964756133
 30
0.0
 40
6.781570812693679
100
AcDbArc
 50
87.47640525790136
 51
99.95984548990128
  0
LINE
  5
3F5
330
362
100
AcDbEntity
  8
1
  6
Continuous
 62
     8
100
AcDbLine
 10
300.1549066418909
 20
-1596.121444911382
 30
0.0
 11
300.1636352713525
 21
-1596.182842641867
 31
0.0
  0
LINE
  5
3F6
330
362
100
AcDbEntity
  8
1
  6
Continuous
 62
     8
100
AcDbLine
 10
300.1636352713525
 20
-1596.182842641867
 30
0.0
 11
300.1719824142895
 21
-1596.235037909194
 31
0.0
  0
LINE
  5
3F7
330
362
100
AcDbEntity
  8
1
  6
Continuous
 62
     8
100
AcDbLine
 10
300.1719824142895
 20
-1596.235037909194
 30
0.0
 11
300.1799426401956
 21
-1596.278827353995
 31
0.0
  0
LINE
  5
3F8
330
362
100
AcDbEntity
  8
1
  6
Continuous
 62
     8
100
AcDbLine
 10
300.1799426401956
 20
-1596.278827353995
 30
0.0
 11
300.1875688425455
 21
-1596.316558497486
 31
0.0
  0
LINE
  5
3F9
330
362
100
AcDbEntity
  8
1
  6
Continuous
 62
     8
100
AcDbLine
 10
300.1875688425455
 20
-1596.316558497486
 30
0.0
 11
300.1948779368316
 21
-1596.349778889495
 31
0.0
  0
LINE
  5
3FA
330
362
100
AcDbEntity
  8
1
  6
Continuous
 62
     8
100
AcDbLine
 10
300.1948779368316
 20
-1596.349778889495
 30
0.0
 11
300.2017758417845
 21
-1596.377568063847
 31
0.0
  0
LINE
  5
3FB
330
362
100
AcDbEntity
  8
1
  6
Continuous
 62
     8
100
AcDbLine
 10
300.2017758417845
 20
-1596.377568063847
 30
0.0
 11
300.2081471714321
 21
-1596.398531523512
 31
0.0
  0
LINE
  5
3FC
330
362
100
AcDbEntity
  8
1
  6
Continuous
 62
     8
100
AcDbLine
 10
300.2081471714321
 20
-1596.398531523512
 30
0.0
 11
300.2139446452841
 21
-1596.412129688721
 31
0.0
  0
LINE
  5
3FD
330
362
100
AcDbEntity
  8
1
  6
Continuous
 62
     8
100
AcDbLine
 10
300.2139446452841
 20
-1596.412129688721
 30
0.0
 11
300.2193323050531
 21
-1596.420475673655
 31
0.0
  0
LINE
  5
3FE
330
362
100
AcDbEntity
  8
1
  6
Continuous
 62
     8
100
AcDbLine
 10
300.2193323050531
 20
-1596.420475673655
 30
0.0
 11
300.2245150577808
 21
-1596.426195568453
 31
0.0
  0
ARC
  5
3FF
330
362
100
AcDbEntity
  8
1
  6
Continuous
 62
     8
100
AcDbCircle
 10
299.2253448851432
 20
-1596.460733931033
 30
0.0
 40
0.9997669389881347
100
AcDbArc
 50
1.97975764579641
 51
72.52154281591551
  0
ELLIPSE
  5
400
330
362
100
AcDbEntity
  8
1
  6
Continuous
 62
     8
100
AcDbEllipse
 10
249.317975616543
 20
-1577.961095065134
 30
0.0
 11
1.025745163479435
 21
0.1306515484807846
 31
0.0
210
0.0
220
0.0
230
1.0
 40
0.032975745
 41
5.227285087067939
 42
6.273630535639288
  0
ARC
  5
401
330
362
100
AcDbEntity
  8
1
  6
Continuous
 62
     8
100
AcDbCircle
 10
248.0892229577428
 20
-1591.925852082634
 30
0.0
 40
2.439482446980151
100
AcDbArc
 50
73.12215729439839
 51
84.90868014779217
  0
CIRCLE
  5
402
330
362
100
AcDbEntity
  8
1
  6
Continuous
 62
     7
100
AcDbCircle
 10
259.7989234376431
 20
-1567.961095065134
 30
0.0
 40
3.000000000000022
  0
HATCH
  5
403
330
362
100
AcDbEntity
  8
1
  6
Continuous
 62
     7
100
AcDbHatch
 10
0.0
 20
0.0
 30
0.0
210
0.0
220
0.0
230
1.0
  2
_U
 70
     0
 71
     0
 91
        2
 92
        0
 93
       28
 72
     1
 10
271.499563816243
 20
-1570.202503898033
 11
268.0982830590431
 21
-1562.719686232233
 72
     2
 10
265.3671836266429
 20
-1563.961095065134
 40
3.0
 50
24.44395478039929
 51
90.0
 73
     1
 72
     1
 10
265.3671836266429
 20
-1560.961095065134
 11
254.2306632486432
 21
-1560.961095065134
 72
     2
 10
254.2306632486432
 20
-1563.961095065134
 40
3.0
 50
90.0
 51
155.5560452196007
 73
     1
 72
     1
 10
251.499563816243
 20
-1562.719686232233
 11
248.0982830590431
 21
-1570.202503898033
 72
     2
 10
245.3671836266429
 20
-1568.961095065134
 40
3.0
 50
24.44395478039533
 51
90.0
 73
     0
 72
     1
 10
245.3671836266429
 20
-1571.961095065134
 11
223.8821951211428
 21
-1571.961095065134
 72
     2
 10
223.8821951211428
 20
-1580.961095065134
 40
9.0
 50
90.0
 51
177.9999999999993
 73
     1
 72
     1
 10
214.8876776779433
 20
-1580.646999594833
 11
212.7989234376431
 21
-1640.461095065134
 72
     1
 10
212.7989234376431
 20
-1640.461095065134
 11
217.8013616148431
 21
-1640.461095065134
 72
     1
 10
217.8013616148431
 20
-1640.461095065134
 11
219.8503202165433
 21
-1581.786597581633
 72
     2
 10
224.847274351643
 20
-1581.961095065134
 40
5.000000000000002
 50
182.000000000001
 51
270.0
 73
     0
 72
     1
 10
224.847274351643
 20
-1576.961095065134
 11
285.3332346628429
 21
-1576.961095065134
 72
     2
 10
285.3332346628429
 20
-1577.961095065134
 40
1.000000000000003
 50
270.0
 51
357.999999999997
 73
     0
 72
     1
 10
286.3326254898432
 20
-1577.926195568434
 11
286.736651773543
 21
-1589.495994561833
 72
     2
 10
287.7360426005428
 20
-1589.461095065134
 40
1.000000000000004
 50
181.999999999991
 51
270.0
 73
     1
 72
     1
 10
287.7360426005428
 20
-1590.461095065134
 11
292.3332346628429
 21
-1590.461095065134
 72
     2
 10
292.3332346628429
 20
-1591.461095065134
 40
1.0
 50
270.0
 51
357.999999999997
 73
     0
 72
     1
 10
293.3326254898432
 20
-1591.426195568434
 11
293.4398252328431
 21
-1594.495994561833
 72
     2
 10
294.439216059943
 20
-1594.461095065134
 40
1.000000000000003
 50
181.999999999991
 51
270.0
 73
     1
 72
     1
 10
294.439216059943
 20
-1595.461095065134
 11
299.2593618584431
 21
-1595.461095065134
 72
     2
 10
299.2593618584431
 20
-1596.461095065134
 40
1.000000000000028
 50
270.0
 51
357.9999999999961
 73
     0
 72
     1
 10
300.258752685543
 20
-1596.426195568434
 11
301.796485260443
 21
-1640.461095065134
 72
     1
 10
301.796485260443
 20
-1640.461095065134
 11
306.7989234376431
 21
-1640.461095065134
 72
     1
 10
306.7989234376431
 20
-1640.461095065134
 11
304.7101691973429
 21
-1580.646999594833
 72
     2
 10
295.7156517541428
 20
-1580.961095065134
 40
9.0
 50
2.000000000000655
 51
90.0
 73
     1
 72
     1
 10
295.7156517541428
 20
-1571.961095065134
 11
274.2306632486432
 21
-1571.961095065134
 72
     2
 10
274.2306632486432
 20
-1568.961095065134
 40
3.000000000000004
 50
90.0
 51
155.5560452196047
 73
     0
 97
        0
 92
        0
 93
        1
 72
     2
 10
259.7989234376431
 20
-1567.961095065134
 40
3.000000000000022
 50
0.0
 51
360.0
 73
     1
 97
        0
 75
     0
 76
     0
 52
45.00000000014619
 41
4.0
 77
     0
 78
     1
 53
45.00000000014619
 43
0.0
 44
0.0
 45
-2.828427124753407
 46
2.828427124738973
 79
     0
 98
        1
 10
0.0
 20
0.0
  0
LINE
  5
404
330
362
100
AcDbEntity
  8
1
  6
CENTER2
 62
     5
100
AcDbLine
 10
265.3980698202252
 20
-1567.961095065134
 30
0.0
 11
254.0357731716311
 21
-1567.961095065134
 31
0.0
  0
POINT
  5
405
330
362
100
AcDbEntity
  8
1
  6
Continuous
 62
     7
100
AcDbPoint
 10
286.2989234376321
 20
-1576.961095065134
 30
0.0
  0
POINT
  5
406
330
362
100
AcDbEntity
  8
1
  6
Continuous
 62
     7
100
AcDbPoint
 10
300.2250506333313
 20
-1595.461095065134
 30
0.0
  0
POINT
  5
407
330
362
100
AcDbEntity
  8
1
  6
Continuous
 62
     7
100
AcDbPoint
 10
293.4735272850442
 20
-1595.461095065134
 30
0.0
  0
POINT
  5
408
330
362
100
AcDbEntity
  8
1
  6
Continuous
 62
     7
100
AcDbPoint
 10
267.2989234376296
 20
-1560.961095065134
 30
0.0
  0
POINT
  5
409
330
362
100
AcDbEntity
  8
1
  6
Continuous
 62
     7
100
AcDbPoint
 10
272.2989234376565
 20
-1571.961095065134
 30
0.0
  0
POINT
  5
40A
330
362
100
AcDbEntity
  8
1
  6
Continuous
 62
     7
100
AcDbPoint
 10
252.2989234376562
 20
-1560.961095065134
 30
0.0
  0
POINT
  5
40B
330
362
100
AcDbEntity
  8
1
  6
Continuous
 62
     7
100
AcDbPoint
 10
247.2989234376294
 20
-1571.961095065134
 30
0.0
  0
ARC
  5
40C
330
362
100
AcDbEntity
  8
1
  6
HIDDEN
 62
     1
100
AcDbCircle
 10
294.7505725236427
 20
-1581.961095065134
 30
0.0
 40
5.000000000000002
100
AcDbArc
 50
2.000000000000985
 51
90.0
  0
LINE
  5
40D
330
362
100
AcDbEntity
  8
1
  6
HIDDEN
 62
     1
100
AcDbLine
 10
299.7475266587429
 20
-1581.786597581633
 30
0.0
 11
300.258752685543
 21
-1596.426195568434
 31
0.0
  0
LINE
  5
40E
330
362
100
AcDbEntity
  8
6
  6
Continuous
 62
     7
100
AcDbLine
 10
281.5900968037843
 20
-1566.461095065134
 30
0.0
 11
269.7989234376431
 21
-1566.461095065134
 31
0.0
  0
LINE
  5
40F
330
362
100
AcDbEntity
  8
6
  6
Continuous
 62
     7
100
AcDbLine
 10
262.4038470305289
 20
-1566.461095065134
 30
0.0
 11
259.5900968037843
 21
-1566.461095065134
 31
0.0
  0
LINE
  5
410
330
362
100
AcDbEntity
  8
6
  6
Continuous
 62
     7
100
AcDbLine
 10
281.5900968037843
 20
-1570.461095065134
 30
0.0
 11
271.6325870372701
 21
-1570.461095065134
 31
0.0
  0
CIRCLE
  5
411
330
362
100
AcDbEntity
  8
6
  6
Continuous
 62
     7
100
AcDbCircle
 10
259.5900968037843
 20
-1567.501676470644
 30
0.0
 40
1.0
  0
CIRCLE
  5
412
330
362
100
AcDbEntity
  8
6
  6
Continuous
 62
     7
100
AcDbCircle
 10
281.5900968037843
 20
-1569.461095065134
 30
0.0
 40
1.0
  0
ARC
  5
413
330
362
100
AcDbEntity
  8
6
  6
Continuous
 62
     7
100
AcDbCircle
 10
259.5900968037843
 20
-1569.461095065134
 30
0.0
 40
1.0
100
AcDbArc
 50
79.95857188423582
 51
280.367641442742
  0
ARC
  5
414
330
362
100
AcDbEntity
  8
6
  6
Continuous
 62
     7
100
AcDbCircle
 10
281.5900968037843
 20
-1567.461095065134
 30
0.0
 40
1.0
100
AcDbArc
 50
270.0
 51
90.0
  0
LINE
  5
415
330
362
100
AcDbEntity
  8
6
  6
Continuous
 62
     7
100
AcDbLine
 10
259.7700604351415
 20
-1570.444768329683
 30
0.0
 11
261.7165723223434
 21
-1570.268176068264
 31
0.0
  0
LINE
  5
416
330
362
100
AcDbEntity
  8
6
  6
Continuous
 62
     7
100
AcDbLine
 10
271.140784223728
 20
-1569.413188794521
 30
0.0
 11
281.6804481608945
 21
-1568.457005017022
 31
0.0
  0
LINE
  5
417
330
362
100
AcDbEntity
  8
6
  6
Continuous
 62
     7
100
AcDbLine
 10
259.5900968037843
 20
-1568.461095065134
 30
0.0
 11
262.7915957958419
 21
-1568.17064734136
 31
0.0
  0
LINE
  5
418
330
362
100
AcDbEntity
  8
6
  6
Continuous
 62
     7
100
AcDbLine
 10
270.2676972071943
 20
-1567.492397358146
 30
0.0
 11
281.68044816086
 21
-1566.457005017025
 31
0.0
  0
LINE
  5
419
330
362
100
AcDbEntity
  8
1
  6
Continuous
 62
     7
100
AcDbLine
 10
259.7700604351415
 20
-1570.444768329683
 30
0.0
 11
261.5463426283916
 21
-1570.444768329683
 31
0.0
  0
ENDBLK
  5
364
330
362
100
AcDbEntity
  8
0
100
AcDbBlockEnd
  0
ENDSEC
  0
SECTION
  2
ENTITIES
  0
LINE
  5
B1
330
1F
100
AcDbEntity
  8
1
  6
Continuous
 62
     7
100
AcDbLine
 10
-21.96614993617709
 20
-1079.991621020336
 30
0.0
 11
532.0338500638229
 21
-1079.991621020336
 31
0.0
  0
LINE
  5
B2
330
1F
100
AcDbEntity
  8
1
  6
Continuous
 62
     7
100
AcDbLine
 10
532.0338500638229
 20
-1079.991621020336
 30
0.0
 11
532.0338500638229
 21
-1879.991621020336
 31
0.0
  0
LINE
  5
B3
330
1F
100
AcDbEntity
  8
1
  6
Continuous
 62
     7
100
AcDbLine
 10
-21.96614993617709
 20
-1879.991621020336
 30
0.0
 11
-21.96614993617709
 21
-1079.991621020336
 31
0.0
  0
INSERT
  5
D4
330
1F
100
AcDbEntity
  8
1
  6
Continuous
 62
     0
100
AcDbBlockReference
  2
BLK0
 10
402.0339800638226
 20
-1825.991641020337
 30
0.0
  0
LINE
  5
D5
330
1F
100
AcDbEntity
  8
1
  6
Continuous
 62
     7
100
AcDbLine
 10
412.0339700638226
 20
-1803.991663020337
 30
0.0
 11
412.0339700638226
 21
-1879.991621020336
 31
0.0
  0
LINE
  5
D6
330
1F
100
AcDbEntity
  8
1
  6
Continuous
 62
     7
100
AcDbLine
 10
402.0339800638226
 20
-1879.991621020336
 30
0.0
 11
402.0339800638226
 21
-1803.991663020337
 31
0.0
  0
LINE
  5
D7
330
1F
100
AcDbEntity
  8
1
  6
Continuous
 62
     7
100
AcDbLine
 10
368.0339800638226
 20
-1825.991641020337
 30
0.0
 11
368.0339800638226
 21
-1859.991641020336
 31
0.0
  0
LINE
  5
D8
330
1F
100
AcDbEntity
  8
1
  6
Continuous
 62
     7
100
AcDbLine
 10
358.0339900638226
 20
-1859.991641020336
 30
0.0
 11
358.0339900638226
 21
-1825.991641020337
 31
0.0
  0
LINE
  5
D9
330
1F
100
AcDbEntity
  8
1
  6
Continuous
 62
     7
100
AcDbLine
 10
324.0339900638226
 20
-1825.991641020337
 30
0.0
 11
324.0339900638226
 21
-1859.991641020336
 31
0.0
  0
LINE
  5
DA
330
1F
100
AcDbEntity
  8
1
  6
Continuous
 62
     7
100
AcDbLine
 10
314.0340000638228
 20
-1859.991641020336
 30
0.0
 11
314.0340000638228
 21
-1825.991641020337
 31
0.0
  0
LINE
  5
DB
330
1F
100
AcDbEntity
  8
1
  6
Continuous
 62
     7
100
AcDbLine
 10
280.034000063823
 20
-1803.991663020337
 30
0.0
 11
280.0340000638228
 21
-1859.991641020336
 31
0.0
  0
LINE
  5
DC
330
1F
100
AcDbEntity
  8
1
  6
Continuous
 62
     7
100
AcDbLine
 10
512.0338700638229
 20
-1803.991663020337
 30
0.0
 11
512.0338700638229
 21
-1825.991641020337
 31
0.0
  0
LINE
  5
DD
330
1F
100
AcDbEntity
  8
1
  6
Continuous
 62
     7
100
AcDbLine
 10
502.0338800638228
 20
-1803.991663020337
 30
0.0
 11
502.0338800638228
 21
-1825.991641020337
 31
0.0
  0
LINE
  5
DE
330
1F
100
AcDbEntity
  8
1
  6
Continuous
 62
     7
100
AcDbLine
 10
512.0338700638229
 20
-1859.991641020336
 30
0.0
 11
512.0338700638229
 21
-1879.991621020336
 31
0.0
  0
LINE
  5
DF
330
1F
100
AcDbEntity
  8
1
  6
Continuous
 62
     7
100
AcDbLine
 10
502.0338800638228
 20
-1859.991641020336
 30
0.0
 11
502.0338800638228
 21
-1879.991621020336
 31
0.0
  0
LINE
  5
E0
330
1F
100
AcDbEntity
  8
1
  6
Continuous
 62
     7
100
AcDbLine
 10
484.0338980638226
 20
-1859.991641020336
 30
0.0
 11
484.0338980638226
 21
-1879.991621020336
 31
0.0
  0
LINE
  5
E1
330
1F
100
AcDbEntity
  8
1
  6
Continuous
 62
     7
100
AcDbLine
 10
270.0340100638227
 20
-1859.991641020336
 30
0.0
 11
532.0338500638229
 21
-1859.991641020336
 31
0.0
  0
LINE
  5
E2
330
1F
100
AcDbEntity
  8
1
  6
Continuous
 62
     7
100
AcDbLine
 10
532.0338500638229
 20
-1825.991641020337
 30
0.0
 11
270.0340100638227
 21
-1825.991641020337
 31
0.0
  0
LINE
  5
E3
330
1F
100
AcDbEntity
  8
1
  6
Continuous
 62
     7
100
AcDbLine
 10
270.0340100638227
 20
-1803.991663020337
 30
0.0
 11
532.0338500638229
 21
-1803.991663020337
 31
0.0
  0
LINE
  5
E4
330
1F
100
AcDbEntity
  8
1
  6
Continuous
 62
     7
100
AcDbLine
 10
270.0340100638227
 20
-1803.991663020337
 30
0.0
 11
270.0340100638227
 21
-1879.991621020336
 31
0.0
  0
LINE
  5
E5
330
1F
100
AcDbEntity
  8
1
  6
Continuous
 62
     7
100
AcDbLine
 10
280.034000063823
 20
-1803.991663020337
 30
0.0
 11
280.0340000638228
 21
-1859.991641020336
 31
0.0
  0
MTEXT
  5
E6
330
1F
100
AcDbEntity
  8
1
  6
Continuous
 62
     7
100
AcDbMText
 10
271.5340050638226
 20
-1814.491656020337
 30
0.0
 40
7.0
 41
0.0
 71
     7
 72
     5
  1
{\fＭＳ 明朝|b0|i0|c128|p17;\W1.0;図}
  7
MTSTANDARD1
 73
     1
 44
0.8392857142857144
  0
MTEXT
  5
E7
330
1F
100
AcDbEntity
  8
1
  6
Continuous
 62
     7
100
AcDbMText
 10
403.5339750638227
 20
-1870.491634020337
 30
0.0
 40
7.0
 41
0.0
 71
     7
 72
     5
  1
{\fＭＳ 明朝|b0|i0|c128|p17;\W1.0;図}
  7
MTSTANDARD1
 73
     1
 44
0.8392857142857144
  0
MTEXT
  5
E8
330
1F
100
AcDbEntity
  8
1
  6
Continuous
 62
     7
100
AcDbMText
 10
271.5340050638226
 20
-1822.491648020337
 30
0.0
 40
7.0
 41
0.0
 71
     7
 72
     5
  1
{\fＭＳ 明朝|b0|i0|c128|p17;\W1.0;名}
  7
MTSTANDARD1
 73
     1
 44
0.8392857142857144
  0
MTEXT
  5
E9
330
1F
100
AcDbEntity
  8
1
  6
Continuous
 62
     7
100
AcDbMText
 10
403.5339750638227
 20
-1878.491626020337
 30
0.0
 40
7.0
 41
0.0
 71
     7
 72
     5
  1
{\fＭＳ 明朝|b0|i0|c128|p17;\W1.0;番}
  7
MTSTANDARD1
 73
     1
 44
0.8392857142857144
  0
MTEXT
  5
EA
330
1F
100
AcDbEntity
  8
1
  6
Continuous
 62
     7
100
AcDbMText
 10
271.5340050638226
 20
-1842.772547755229
 30
0.0
 40
7.0
 41
0.0
 71
     7
 72
     5
  1
{\fＭＳ 明朝|b0|i0|c128|p17;\W1.0;設}
  7
MTSTANDARD1
 73
     1
 44
0.8392857142857144
  0
MTEXT
  5
EB
330
1F
100
AcDbEntity
  8
1
  6
Continuous
 62
     7
100
AcDbMText
 10
271.5340050638226
 20
-1850.772539755229
 30
0.0
 40
7.0
 41
0.0
 71
     7
 72
     5
  1
{\fＭＳ 明朝|b0|i0|c128|p17;\W1.0;計}
  7
MTSTANDARD1
 73
     1
 44
0.8392857142857144
  0
MTEXT
  5
EC
330
1F
100
AcDbEntity
  8
1
  6
Continuous
 62
     7
100
AcDbMText
 10
403.5339750638227
 20
-1814.491656020337
 30
0.0
 40
7.0
 41
0.0
 71
     7
 72
     5
  1
{\fＭＳ 明朝|b0|i0|c128|p17;\W1.0;符}
  7
MTSTANDARD1
 73
     1
 44
0.8392857142857144
  0
MTEXT
  5
ED
330
1F
100
AcDbEntity
  8
1
  6
Continuous
 62
     7
100
AcDbMText
 10
403.5339750638227
 20
-1822.491648020337
 30
0.0
 40
7.0
 41
0.0
 71
     7
 72
     5
  1
{\fＭＳ 明朝|b0|i0|c128|p17;\W1.0;号}
  7
MTSTANDARD1
 73
     1
 44
0.8392857142857144
  0
MTEXT
  5
EE
330
1F
100
AcDbEntity
  8
1
  6
Continuous
 62
     7
100
AcDbMText
 10
403.5339750638227
 20
-1842.772547755229
 30
0.0
 40
7.0
 41
0.0
 71
     7
 72
     5
  1
{\fＭＳ 明朝|b0|i0|c128|p17;\W1.0;記}
  7
MTSTANDARD1
 73
     1
 44
0.8392857142857144
  0
MTEXT
  5
EF
330
1F
100
AcDbEntity
  8
1
  6
Continuous
 62
     7
100
AcDbMText
 10
403.5339750638227
 20
-1850.772539755229
 30
0.0
 40
7.0
 41
0.0
 71
     7
 72
     5
  1
{\fＭＳ 明朝|b0|i0|c128|p17;\W1.0;事}
  7
MTSTANDARD1
 73
     1
 44
0.8392857142857144
  0
MTEXT
  5
F0
330
1F
100
AcDbEntity
  8
1
  6
Continuous
 62
     7
100
AcDbMText
 10
503.5338750638193
 20
-1814.491656020337
 30
0.0
 40
7.0
 41
0.0
 71
     7
 72
     5
  1
{\fＭＳ 明朝|b0|i0|c128|p17;\W1.0;縮}
  7
MTSTANDARD1
 73
     1
 44
0.8392857142857144
  0
MTEXT
  5
F1
330
1F
100
AcDbEntity
  8
1
  6
Continuous
 62
     7
100
AcDbMText
 10
503.5338750638193
 20
-1822.491648020337
 30
0.0
 40
7.0
 41
0.0
 71
     7
 72
     5
  1
{\fＭＳ 明朝|b0|i0|c128|p17;\W1.0;尺}
  7
MTSTANDARD1
 73
     1
 44
0.8392857142857144
  0
MTEXT
  5
F3
330
1F
100
AcDbEntity
  8
1
  6
Continuous
 62
     7
100
AcDbMText
 10
302.0340100638227
 20
-1874.491631020337
 30
0.0
 40
9.0
 41
0.0
 71
     7
 72
     5
  1
{\fＭＳ ゴシック|b0|i0|c128|p49;\W1.0;伊藤鉄工株式会社}
  7
MTSTANDARD3
 73
     1
 44
0.7916666666666667
  0
MTEXT
  5
F5
330
1F
100
AcDbEntity
  8
1
  6
Continuous
 62
     7
100
AcDbMText
 10
504.033875063823
 20
-1867.991636020337
 30
0.0
 40
6.0
 41
0.0
 71
     7
 72
     5
  1
{\fＭＳ 明朝|b0|i0|c128|p17;\W1.0;葉}
  7
MTSTANDARD4
 73
     1
 44
0.8333333333333334
  0
MTEXT
  5
F6
330
1F
100
AcDbEntity
  8
1
  6
Continuous
 62
     7
100
AcDbMText
 10
504.033875063823
 20
-1872.991631020337
 30
0.0
 40
6.0
 41
0.0
 71
     7
 72
     5
  1
{\fＭＳ 明朝|b0|i0|c128|p17;\W1.0;ノ}
  7
MTSTANDARD4
 73
     1
 44
0.8333333333333334
  0
MTEXT
  5
F7
330
1F
100
AcDbEntity
  8
1
  6
Continuous
 62
     7
100
AcDbMText
 10
504.033875063823
 20
-1877.991626020337
 30
0.0
 40
6.0
 41
0.0
 71
     7
 72
     5
  1
{\fＭＳ 明朝|b0|i0|c128|p17;\W1.0;内}
  7
MTSTANDARD4
 73
     1
 44
0.8333333333333334
  0
LINE
  5
F8
330
1F
100
AcDbEntity
  8
1
  6
Continuous
 62
     7
100
AcDbLine
 10
270.0340100638227
 20
-1803.991663020337
 30
0.0
 11
270.0340100638227
 21
-1879.991621020336
 31
0.0
  0
LINE
  5
F9
330
1F
100
AcDbEntity
  8
1
  6
Continuous
 62
     7
100
AcDbLine
 10
270.0340100638227
 20
-1803.991663020337
 30
0.0
 11
270.0340100638227
 21
-1879.991621020336
 31
0.0
  0
LINE
  5
FA
330
1F
100
AcDbEntity
  8
1
  6
Continuous
 62
     7
100
AcDbLine
 10
512.0338700638229
 20
-1879.991621020336
 30
0.0
 11
532.0338500638229
 21
-1859.991641020336
 31
0.0
  0
MTEXT
  5
FB
330
1F
100
AcDbEntity
  8
1
  6
Continuous
 62
     7
100
AcDbMText
 10
421.0339250638226
 20
-1818.991652020337
 30
0.0
 40
8.0
 41
0.0
 71
     7
 72
     5
  1
{\fＭＳ 明朝|b0|i0|c128|p17;\W1.0;Ｔ５ＢＹＤＲ－５０}
  7
MTSTANDARD
 73
     1
 44
1.171874999999988
  0
MTEXT
  5
FC
330
1F
100
AcDbEntity
  8
1
  6
Continuous
 62
     7
100
AcDbMText
 10
290.034006063825
 20
-1823.991652020337
 30
0.0
 40
8.0
 41
0.0
 71
     7
 72
     5
  1
{\fＭＳ 明朝|b0|i0|c128|p17;\W1.0;シート露出二重防水用\P排水金具付き床排水トラップ}
  7
MTSTANDARD
 73
     1
 44
0.78125
  0
MTEXT
  5
FD
330
1F
100
AcDbEntity
  8
1
  6
Continuous
 62
     7
100
AcDbMText
 10
517.5338600638229
 20
-1817.991652020337
 30
0.0
 40
6.0
 41
0.0
 71
     7
 72
     5
  1
{\fＭＳ 明朝|b0|i0|c128|p17;\W1.0;1/2}
  7
MTSTANDARD4
 73
     1
 44
1.354165520833317
  0
LINE
  5
FE
330
1F
100
AcDbEntity
  8
1
  6
Continuous
 62
     7
100
AcDbLine
 10
-21.96614993617709
 20
-1879.991621020336
 30
0.0
 11
532.0338500638229
 21
-1879.991621020336
 31
0.0
  0
LINE
  5
FF
330
1F
100
AcDbEntity
  8
1
  6
Continuous
 62
     7
100
AcDbLine
 10
532.0338500638229
 20
-1879.991621020336
 30
0.0
 11
532.0338500638229
 21
-1803.991663020337
 31
0.0
  0
MTEXT
  5
100
330
1F
100
AcDbEntity
  8
1
  6
Continuous
 62
     7
100
AcDbMText
 10
412.3302063601191
 20
-1874.031421541598
 30
0.0
 40
8.0
 41
0.0
 71
     7
 72
     5
  1
{\fＭＳ 明朝|b0|i0|c128|p17;\W1.0;Ｇ０１Ａ１５０４６}
  7
MTSTANDARD
 73
     1
 44
3.28125
  0
MTEXT
  5
101
330
1F
100
AcDbEntity
  8
1
  6
Continuous
 62
     7
100
AcDbMText
 10
97.1322567712023
 20
-1794.300268591294
 30
0.0
 40
8.0
 41
0.0
 71
     7
 72
     5
  1
{\fＭＳ 明朝|b0|i0|c128|p17;\W1.0;ポリエチレン}
  7
MTSTANDARD
 73
     1
 44
0.9375
  0
LINE
  5
102
330
1F
100
AcDbEntity
  8
1
  6
Continuous
 62
     7
100
AcDbLine
 10
-8.867743228799242
 20
-1734.300268591294
 30
0.0
 11
259.7989234376731
 21
-1734.300268591294
 31
0.0
  0
LINE
  5
103
330
1F
100
AcDbEntity
  8
1
  6
Continuous
 62
     7
100
AcDbLine
 10
241.1322567710061
 20
-1718.300268591294
 30
0.0
 11
241.1322567710414
 21
-1846.30026859125
 31
0.0
  0
LINE
  5
104
330
1F
100
AcDbEntity
  8
1
  6
Continuous
 62
     7
100
AcDbLine
 10
-8.867743228799242
 20
-1718.300268591294
 30
0.0
 11
-8.867743228798673
 21
-1846.300268591294
 31
0.0
  0
LINE
  5
105
330
1F
100
AcDbEntity
  8
1
  6
Continuous
 62
     7
100
AcDbLine
 10
-8.867743228799242
 20
-1718.300268591294
 30
0.0
 11
259.7989234376731
 21
-1718.300268591294
 31
0.0
  0
LINE
  5
106
330
1F
100
AcDbEntity
  8
1
  6
Continuous
 62
     7
100
AcDbLine
 10
-8.867743228799242
 20
-1750.300268591294
 30
0.0
 11
259.7989234376731
 21
-1750.300268591294
 31
0.0
  0
LINE
  5
107
330
1F
100
AcDbEntity
  8
1
  6
Continuous
 62
     7
100
AcDbLine
 10
-8.867743228799242
 20
-1766.300268591294
 30
0.0
 11
81.13225677120258
 21
-1766.300268591294
 31
0.0
  0
LINE
  5
108
330
1F
100
AcDbEntity
  8
1
  6
Continuous
 62
     7
100
AcDbLine
 10
241.1322567710061
 20
-1766.300268591294
 30
0.0
 11
259.7989234376731
 21
-1766.300268591294
 31
0.0
  0
LINE
  5
109
330
1F
100
AcDbEntity
  8
1
  6
Continuous
 62
     7
100
AcDbLine
 10
11.13225677120076
 20
-1718.300268591294
 30
0.0
 11
11.13225677120133
 21
-1846.300268591294
 31
0.0
  0
LINE
  5
10A
330
1F
100
AcDbEntity
  8
1
  6
Continuous
 62
     7
100
AcDbLine
 10
81.13225677120258
 20
-1846.300268591294
 30
0.0
 11
81.13225677120258
 21
-1718.300268591294
 31
0.0
  0
LINE
  5
10B
330
1F
100
AcDbEntity
  8
1
  6
Continuous
 62
     7
100
AcDbLine
 10
161.1322567712017
 20
-1718.300268591294
 30
0.0
 11
161.1322567712022
 21
-1846.300268591293
 31
0.0
  0
MTEXT
  5
10C
330
1F
100
AcDbEntity
  8
1
  6
Continuous
 62
     7
100
AcDbMText
 10
-6.867743228799242
 20
-1730.300268591294
 30
0.0
 40
8.0
 41
0.0
 71
     7
 72
     5
  1
{\fＭＳ 明朝|b0|i0|c128|p17;\W1.0;部番}
  7
MTSTANDARD
 73
     1
 44
0.9375
  0
MTEXT
  5
10D
330
1F
100
AcDbEntity
  8
1
  6
Continuous
 62
     7
100
AcDbMText
 10
34.13225677120167
 20
-1730.300268591294
 30
0.0
 40
8.0
 41
0.0
 71
     7
 72
     5
  1
{\fＭＳ 明朝|b0|i0|c128|p17;\W1.0;部品名}
  7
MTSTANDARD
 73
     1
 44
0.9375
  0
MTEXT
  5
10E
330
1F
100
AcDbEntity
  8
1
  6
Continuous
 62
     7
100
AcDbMText
 10
113.1322567712017
 20
-1730.300268591294
 30
0.0
 40
8.0
 41
0.0
 71
     7
 72
     5
  1
{\fＭＳ 明朝|b0|i0|c128|p17;\W1.0;材質}
  7
MTSTANDARD
 73
     1
 44
0.625
  0
MTEXT
  5
10F
330
1F
100
AcDbEntity
  8
1
  6
Continuous
 62
     7
100
AcDbMText
 10
193.1322567711039
 20
-1730.300268591294
 30
0.0
 40
8.0
 41
0.0
 71
     7
 72
     5
  1
{\fＭＳ 明朝|b0|i0|c128|p17;\W1.0;備考}
  7
MTSTANDARD
 73
     1
 44
0.9375
  0
INSERT
  5
115
330
1F
100
AcDbEntity
  8
1
  6
ByBlock
 62
     3
100
AcDbBlockReference
  2
MAKR0
 10
0.690962913739753
 20
-1742.182113848461
 30
0.0
  0
INSERT
  5
11B
330
1F
100
AcDbEntity
  8
1
  6
ByBlock
 62
     3
100
AcDbBlockReference
  2
MAKR1
 10
0.690962913739753
 20
-1758.182113848461
 30
0.0
  0
MTEXT
  5
11C
330
1F
100
AcDbEntity
  8
1
  6
Continuous
 62
     7
100
AcDbMText
 10
22.13225677120167
 20
-1746.300268591294
 30
0.0
 40
8.0
 41
0.0
 71
     7
 72
     5
  1
{\fＭＳ 明朝|b0|i0|c128|p17;\W1.0;排水金具本体}
  7
MTSTANDARD
 73
     1
 44
1.875
  0
MTEXT
  5
11D
330
1F
100
AcDbEntity
  8
1
  6
Continuous
 62
     7
100
AcDbMText
 10
103.1322567712017
 20
-1746.300268591294
 30
0.0
 40
8.0
 41
0.0
 71
     7
 72
     5
  1
{\fＭＳ 明朝|b0|i0|c128|p17;\W1.0;FC150鋳鉄}
  7
MTSTANDARD
 73
     1
 44
0.9375
  0
MTEXT
  5
11E
330
1F
100
AcDbEntity
  8
1
  6
Continuous
 62
     7
100
AcDbMText
 10
183.6322567711039
 20
-1745.800268591294
 30
0.0
 40
7.0
 41
0.0
 71
     7
 72
     5
  1
{\fＭＳ 明朝|b0|i0|c128|p17;\W1.0;錆止め塗装}
  7
MTSTANDARD1
 73
     1
 44
2.053571428571429
  0
MTEXT
  5
11F
330
1F
100
AcDbEntity
  8
1
  6
Continuous
 62
     7
100
AcDbMText
 10
-8.867743228799242
 20
-1714.20651134855
 30
0.0
 40
8.0
 41
0.0
 71
     7
 72
     5
  1
{\fＭＳ 明朝|b0|i0|c128|p17;\W1.0;●部品表}
  7
MTSTANDARD
 73
     1
 44
1.203125
  0
MTEXT
  5
120
330
1F
100
AcDbEntity
  8
1
  6
Continuous
 62
     7
100
AcDbMText
 10
42.13225677120167
 20
-1762.300268591294
 30
0.0
 40
8.0
 41
0.0
 71
     7
 72
     5
  1
{\fＭＳ 明朝|b0|i0|c128|p17;\W1.0;枠}
  7
MTSTANDARD
 73
     1
 44
1.875
  0
MTEXT
  5
121
330
1F
100
AcDbEntity
  8
1
  6
Continuous
 62
     7
100
AcDbMText
 10
113.1322567712023
 20
-1826.300268591294
 30
0.0
 40
8.0
 41
0.0
 71
     7
 72
     5
  1
{\fＭＳ 明朝|b0|i0|c128|p17;\W1.0;樹脂}
  7
MTSTANDARD
 73
     1
 44
0.9375
  0
MTEXT
  5
122
330
1F
100
AcDbEntity
  8
1
  6
Continuous
 62
     7
100
AcDbMText
 10
173.1322567711083
 20
-1776.96693525796
 30
0.0
 40
8.0
 41
0.0
 71
     7
 72
     5
  1
{\fＭＳ 明朝|b0|i0|c128|p17;\W1.0;ニッケル　\Pクロームメッキ}
  7
MTSTANDARD
 73
     1
 44
1.041666666666667
  0
LINE
  5
123
330
1F
100
AcDbEntity
  8
1
  6
Continuous
 62
     7
100
AcDbLine
 10
259.7989234376736
 20
-1718.300268591294
 30
0.0
 11
259.7989234377084
 21
-1846.300268591245
 31
0.0
  0
MTEXT
  5
124
330
1F
100
AcDbEntity
  8
1
  6
Continuous
 62
     7
100
AcDbMText
 10
242.4655901043387
 20
-1730.300268591294
 30
0.0
 40
8.0
 41
0.0
 71
     7
 72
     5
  1
{\fＭＳ 明朝|b0|i0|c128|p17;\W1.0;数量}
  7
MTSTANDARD
 73
     1
 44
0.9375
  0
MTEXT
  5
125
330
1F
100
AcDbEntity
  8
1
  6
Continuous
 62
     7
100
AcDbMText
 10
248.4655901043387
 20
-1746.300268591294
 30
0.0
 40
8.0
 41
0.0
 71
     7
 72
     5
  1
{\fＭＳ 明朝|b0|i0|c128|p17;\W1.0;1}
  7
MTSTANDARD
 73
     1
 44
0.9375
  0
MTEXT
  5
126
330
1F
100
AcDbEntity
  8
1
  6
Continuous
 62
     7
100
AcDbMText
 10
248.4655901043387
 20
-1762.300268591294
 30
0.0
 40
8.0
 41
0.0
 71
     7
 72
     5
  1
{\fＭＳ 明朝|b0|i0|c128|p17;\W1.0;1}
  7
MTSTANDARD
 73
     1
 44
0.9375
  0
LINE
  5
127
330
1F
100
AcDbEntity
  8
1
  6
Continuous
 62
     7
100
AcDbLine
 10
-8.867743228799242
 20
-1782.300268591294
 30
0.0
 11
241.1322567710061
 21
-1782.300268591294
 31
0.0
  0
LINE
  5
128
330
1F
100
AcDbEntity
  8
1
  6
Continuous
 62
     7
100
AcDbLine
 10
241.1322567710239
 20
-1782.300268591294
 30
0.0
 11
259.7989234376731
 21
-1782.300268591294
 31
0.0
  0
INSERT
  5
12E
330
1F
100
AcDbEntity
  8
1
  6
ByBlock
 62
     3
100
AcDbBlockReference
  2
MAKR2
 10
0.690962913739753
 20
-1774.182113848461
 30
0.0
  0
MTEXT
  5
12F
330
1F
100
AcDbEntity
  8
1
  6
Continuous
 62
     7
100
AcDbMText
 10
38.13225677120167
 20
-1778.300268591294
 30
0.0
 40
8.0
 41
0.0
 71
     7
 72
     5
  1
{\fＭＳ 明朝|b0|i0|c128|p17;\W1.0;目皿}
  7
MTSTANDARD
 73
     1
 44
1.875
  0
MTEXT
  5
130
330
1F
100
AcDbEntity
  8
1
  6
Continuous
 62
     7
100
AcDbMText
 10
197.6322567711039
 20
-1793.800268591294
 30
0.0
 40
7.0
 41
0.0
 71
     7
 72
     5
  1
{\fＭＳ 明朝|b0|i0|c128|p17;\W1.0;－}
  7
MTSTANDARD1
 73
     1
 44
1.026785714285714
  0
MTEXT
  5
131
330
1F
100
AcDbEntity
  8
1
  6
Continuous
 62
     7
100
AcDbMText
 10
248.4655901043387
 20
-1778.300268591294
 30
0.0
 40
8.0
 41
0.0
 71
     7
 72
     5
  1
{\fＭＳ 明朝|b0|i0|c128|p17;\W1.0;1}
  7
MTSTANDARD
 73
     1
 44
0.9375
  0
LINE
  5
132
330
1F
100
AcDbEntity
  8
1
  6
Continuous
 62
     7
100
AcDbLine
 10
-8.867743228799242
 20
-1798.300268591294
 30
0.0
 11
241.1322567710061
 21
-1798.300268591294
 31
0.0
  0
LINE
  5
133
330
1F
100
AcDbEntity
  8
1
  6
Continuous
 62
     7
100
AcDbLine
 10
241.1322567710282
 20
-1798.300268591294
 30
0.0
 11
259.7989234376731
 21
-1798.300268591294
 31
0.0
  0
INSERT
  5
139
330
1F
100
AcDbEntity
  8
1
  6
ByBlock
 62
     3
100
AcDbBlockReference
  2
MAKR3
 10
0.690962913739753
 20
-1790.182113848461
 30
0.0
  0
MTEXT
  5
13B
330
1F
100
AcDbEntity
  8
1
  6
Continuous
 62
     7
100
AcDbMText
 10
11.93225677120166
 20
-1794.100268591294
 30
0.0
 40
7.6
 41
0.0
 71
     7
 72
     5
  1
{\fＭＳ 明朝|b0|i0|c128|p17;\W1.0;スリップワッシャー}
  7
MTSTANDARD5
 73
     1
 44
1.940789473684211
  0
MTEXT
  5
13C
330
1F
100
AcDbEntity
  8
1
  6
Continuous
 62
     7
100
AcDbMText
 10
248.4655901043387
 20
-1794.300268591294
 30
0.0
 40
8.0
 41
0.0
 71
     7
 72
     5
  1
{\fＭＳ 明朝|b0|i0|c128|p17;\W1.0;1}
  7
MTSTANDARD
 73
     1
 44
0.9375
  0
LINE
  5
13D
330
1F
100
AcDbEntity
  8
1
  6
Continuous
 62
     7
100
AcDbLine
 10
-8.867743228799242
 20
-1814.300268591294
 30
0.0
 11
241.1322567710061
 21
-1814.300268591294
 31
0.0
  0
LINE
  5
13E
330
1F
100
AcDbEntity
  8
1
  6
Continuous
 62
     7
100
AcDbLine
 10
241.1322567710061
 20
-1814.300268591294
 30
0.0
 11
259.7989234376731
 21
-1814.300268591294
 31
0.0
  0
INSERT
  5
144
330
1F
100
AcDbEntity
  8
1
  6
ByBlock
 62
     3
100
AcDbBlockReference
  2
MAKR4
 10
0.690962913739753
 20
-1806.182113848461
 30
0.0
  0
MTEXT
  5
145
330
1F
100
AcDbEntity
  8
1
  6
Continuous
 62
     7
100
AcDbMText
 10
34.13225677120167
 20
-1810.300268591294
 30
0.0
 40
8.0
 41
0.0
 71
     7
 72
     5
  1
{\fＭＳ 明朝|b0|i0|c128|p17;\W1.0;本　体}
  7
MTSTANDARD
 73
     1
 44
1.875
  0
MTEXT
  5
146
330
1F
100
AcDbEntity
  8
1
  6
Continuous
 62
     7
100
AcDbMText
 10
101.1322567712022
 20
-1770.300268591294
 30
0.0
 40
8.0
 41
0.0
 71
     7
 72
     5
  1
{\fＭＳ 明朝|b0|i0|c128|p17;\W1.0;CAC202黄銅}
  7
MTSTANDARD
 73
     1
 44
1.5625
  0
MTEXT
  5
147
330
1F
100
AcDbEntity
  8
1
  6
Continuous
 62
     7
100
AcDbMText
 10
248.4655901043387
 20
-1810.300268591294
 30
0.0
 40
8.0
 41
0.0
 71
     7
 72
     5
  1
{\fＭＳ 明朝|b0|i0|c128|p17;\W1.0;1}
  7
MTSTANDARD
 73
     1
 44
0.9375
  0
LINE
  5
148
330
1F
100
AcDbEntity
  8
1
  6
Continuous
 62
     7
100
AcDbLine
 10
-8.867743228799242
 20
-1830.300268591294
 30
0.0
 11
259.7989234376731
 21
-1830.300268591294
 31
0.0
  0
INSERT
  5
14E
330
1F
100
AcDbEntity
  8
1
  6
ByBlock
 62
     3
100
AcDbBlockReference
  2
MAKR5
 10
0.690962913739753
 20
-1822.182113848461
 30
0.0
  0
MTEXT
  5
14F
330
1F
100
AcDbEntity
  8
1
  6
Continuous
 62
     7
100
AcDbMText
 10
42.13225677120167
 20
-1826.300268591294
 30
0.0
 40
8.0
 41
0.0
 71
     7
 72
     5
  1
{\fＭＳ 明朝|b0|i0|c128|p17;\W1.0;椀}
  7
MTSTANDARD
 73
     1
 44
1.875
  0
MTEXT
  5
150
330
1F
100
AcDbEntity
  8
1
  6
Continuous
 62
     7
100
AcDbMText
 10
248.4655901043387
 20
-1826.300268591294
 30
0.0
 40
8.0
 41
0.0
 71
     7
 72
     5
  1
{\fＭＳ 明朝|b0|i0|c128|p17;\W1.0;1}
  7
MTSTANDARD
 73
     1
 44
0.9375
  0
LINE
  5
151
330
1F
100
AcDbEntity
  8
1
  6
Continuous
 62
     7
100
AcDbLine
 10
-8.867743228799242
 20
-1846.300268591294
 30
0.0
 11
241.1322567710414
 21
-1846.300268591294
 31
0.0
  0
LINE
  5
152
330
1F
100
AcDbEntity
  8
1
  6
Continuous
 62
     7
100
AcDbLine
 10
241.1322567710414
 20
-1846.300268591294
 30
0.0
 11
259.7989234376731
 21
-1846.300268591294
 31
0.0
  0
INSERT
  5
158
330
1F
100
AcDbEntity
  8
1
  6
ByBlock
 62
     3
100
AcDbBlockReference
  2
MAKR6
 10
0.690962913739753
 20
-1838.182113848461
 30
0.0
  0
MTEXT
  5
159
330
1F
100
AcDbEntity
  8
1
  6
Continuous
 62
     7
100
AcDbMText
 10
38.13225677120167
 20
-1842.300268591294
 30
0.0
 40
8.0
 41
0.0
 71
     7
 72
     5
  1
{\fＭＳ 明朝|b0|i0|c128|p17;\W1.0;ビス}
  7
MTSTANDARD
 73
     1
 44
1.875
  0
MTEXT
  5
15A
330
1F
100
AcDbEntity
  8
1
  6
Continuous
 62
     7
100
AcDbMText
 10
105.1322567712017
 20
-1842.300268591294
 30
0.0
 40
8.0
 41
0.0
 71
     7
 72
     5
  1
{\fＭＳ 明朝|b0|i0|c128|p17;\W1.0;SWRM軟鋼}
  7
MTSTANDARD
 73
     1
 44
1.875
  0
MTEXT
  5
15B
330
1F
100
AcDbEntity
  8
1
  6
Continuous
 62
     7
100
AcDbMText
 10
176.6322567711039
 20
-1841.800268591294
 30
0.0
 40
7.0
 41
0.0
 71
     7
 72
     5
  1
{\fＭＳ 明朝|b0|i0|c128|p17;\W1.0;ユニクロメッキ}
  7
MTSTANDARD1
 73
     1
 44
2.053571428571429
  0
MTEXT
  5
15C
330
1F
100
AcDbEntity
  8
1
  6
Continuous
 62
     7
100
AcDbMText
 10
248.4655901043387
 20
-1842.300268591294
 30
0.0
 40
8.0
 41
0.0
 71
     7
 72
     5
  1
{\fＭＳ 明朝|b0|i0|c128|p17;\W1.0;3}
  7
MTSTANDARD
 73
     1
 44
0.9375
  0
MTEXT
  5
15D
330
1F
100
AcDbEntity
  8
1
  6
Continuous
 62
     7
100
AcDbMText
 10
103.132256771202
 20
-1810.300268591294
 30
0.0
 40
8.0
 41
0.0
 71
     7
 72
     5
  1
{\fＭＳ 明朝|b0|i0|c128|p17;\W1.0;FC150鋳鉄}
  7
MTSTANDARD
 73
     1
 44
0.9375
  0
MTEXT
  5
15E
330
1F
100
AcDbEntity
  8
1
  6
Continuous
 62
     7
100
AcDbMText
 10
197.6322567710862
 20
-1825.800268591294
 30
0.0
 40
7.0
 41
0.0
 71
     7
 72
     5
  1
{\fＭＳ 明朝|b0|i0|c128|p17;\W1.0;－}
  7
MTSTANDARD1
 73
     1
 44
1.026785714285714
  0
MTEXT
  5
15F
330
1F
100
AcDbEntity
  8
1
  6
Continuous
 62
     7
100
AcDbMText
 10
183.6322567710995
 20
-1809.800268591294
 30
0.0
 40
7.0
 41
0.0
 71
     7
 72
     5
  1
{\fＭＳ 明朝|b0|i0|c128|p17;\W1.0;錆止め塗装}
  7
MTSTANDARD1
 73
     1
 44
2.053571428571429
  0
MTEXT
  5
160
330
1F
100
AcDbEntity
  8
1
  6
Continuous
 62
     7
100
AcDbMText
 10
272.5506189140343
 20
-1787.385852063163
 30
0.0
 40
8.0
 41
0.0
 71
     7
 72
     5
  1
{\fＭＳ 明朝|b0|i0|c128|p17;\W1.0;●防水層用\P●流出口は管用テーパーねじ}
  7
MTSTANDARD
 73
     1
 44
0.9375
  0
LINE
  5
161
330
1F
100
AcDbEntity
  8
6
  6
CENTER2
 62
     7
100
AcDbLine
 10
259.7989234376432
 20
-1679.961095065133
 30
0.0
 11
259.7989234376432
 21
-1493.543566438375
 31
0.0
  0
LINE
  5
162
330
1F
100
AcDbEntity
  8
6
  6
Continuous
 62
     7
100
AcDbLine
 10
229.2989234376432
 20
-1655.461095065133
 30
0.0
 11
229.2989234376432
 21
-1657.461095065133
 31
0.0
  0
LINE
  5
163
330
1F
100
AcDbEntity
  8
6
  6
Continuous
 62
     7
100
AcDbLine
 10
233.7989234376431
 20
-1661.961095065133
 30
0.0
 11
259.7989234376432
 21
-1661.961095065133
 31
0.0
  0
LINE
  5
164
330
1F
100
AcDbEntity
  8
6
  6
Continuous
 62
     7
100
AcDbLine
 10
231.7989234376431
 20
-1652.961095065133
 30
0.0
 11
259.7989234376432
 21
-1652.961095065133
 31
0.0
  0
LINE
  5
165
330
1F
100
AcDbEntity
  8
6
  6
Continuous
 62
     7
100
AcDbLine
 10
229.9919234376434
 20
-1674.961095065133
 30
0.0
 11
230.4450407760186
 21
-1660.461340237124
 31
0.0
  0
LINE
  5
166
330
1F
100
AcDbEntity
  8
6
  6
Continuous
 62
     7
100
AcDbLine
 10
231.5646734376432
 20
-1674.961095065133
 30
0.0
 11
231.9828834222206
 21
-1661.578375558661
 31
0.0
  0
LINE
  5
167
330
1F
100
AcDbEntity
  8
6
  6
Continuous
 62
     7
100
AcDbLine
 10
220.9630276022854
 20
-1674.961095065133
 30
0.0
 11
259.7989234376432
 21
-1674.961095065133
 31
0.0
  0
ARC
  5
168
330
1F
100
AcDbEntity
  8
6
  6
Continuous
 62
     7
100
AcDbCircle
 10
231.7989234376431
 20
-1655.461095065133
 30
0.0
 40
2.5
100
AcDbArc
 50
90.0
 51
180.0
  0
ARC
  5
169
330
1F
100
AcDbEntity
  8
6
  6
Continuous
 62
     7
100
AcDbCircle
 10
233.7989234376431
 20
-1657.461095065133
 30
0.0
 40
4.5
100
AcDbArc
 50
246.1988007052884
 51
270.0
  0
ARC
  5
16A
330
1F
100
AcDbEntity
  8
6
  6
Continuous
 62
     7
100
AcDbCircle
 10
233.7989234376431
 20
-1657.461095065133
 30
0.0
 40
4.5
100
AcDbArc
 50
180.0
 51
246.1988007052884
  0
LINE
  5
16B
330
1F
100
AcDbEntity
  8
6
  6
Continuous
 62
     7
100
AcDbLine
 10
233.4272623007203
 20
-1651.40874582008
 30
0.0
 11
231.3326254898552
 21
-1591.426195568431
 31
0.0
  0
LINE
  5
16C
330
1F
100
AcDbEntity
  8
6
  6
Continuous
 62
     7
100
AcDbLine
 10
218.3332346628363
 20
-1654.961095065133
 30
0.0
 11
205.6274446151515
 21
-1654.961095065133
 31
0.0
  0
LINE
  5
16D
330
1F
100
AcDbEntity
  8
6
  6
Continuous
 62
     7
100
AcDbLine
 10
219.3326254898553
 20
-1655.926195568431
 30
0.0
 11
219.9636367752665
 21
-1673.995994561836
 31
0.0
  0
POINT
  5
16E
330
1F
100
AcDbEntity
  8
6
  6
Continuous
 62
     7
100
AcDbPoint
 10
219.2989234376433
 20
-1654.961095065133
 30
0.0
  0
ARC
  5
16F
330
1F
100
AcDbEntity
  8
6
  6
Continuous
 62
     7
100
AcDbCircle
 10
218.3332346628363
 20
-1655.961095065133
 30
0.0
 40
1.0
100
AcDbArc
 50
2.000000000003953
 51
90.0
  0
ARC
  5
170
330
1F
100
AcDbEntity
  8
6
  6
Continuous
 62
     7
100
AcDbCircle
 10
220.9630276022854
 20
-1673.961095065133
 30
0.0
 40
1.0
100
AcDbArc
 50
182.000000000003
 51
270.0
  0
LINE
  5
171
330
1F
100
AcDbEntity
  8
6
  6
Continuous
 62
     7
100
AcDbLine
 10
220.375233394103
 20
-1650.461095065133
 30
0.0
 11
210.0220646862504
 21
-1650.461095065133
 31
0.0
  0
LINE
  5
172
330
1F
100
AcDbEntity
  8
6
  6
HIDDEN2
 62
     7
100
AcDbLine
 10
210.0223759114434
 20
-1650.461095065133
 30
0.0
 11
205.1273673116789
 21
-1650.461095065133
 31
0.0
  0
LINE
  5
173
330
1F
100
AcDbEntity
  8
6
  6
HIDDEN2
 62
     7
100
AcDbLine
 10
200.6304131765833
 20
-1645.635592548646
 30
0.0
 11
199.4207717600517
 21
-1603.995994561836
 31
0.0
  0
LINE
  5
174
330
1F
100
AcDbEntity
  8
6
  6
Continuous
 62
     7
100
AcDbLine
 10
199.4207717600517
 20
-1603.995994561836
 30
0.0
 11
198.3881716254332
 21
-1567.92619556843
 31
0.0
  0
POINT
  5
175
330
1F
100
AcDbEntity
  8
6
  6
Continuous
 62
     7
100
AcDbPoint
 10
200.7989234376433
 20
-1650.461095065133
 30
0.0
  0
ARC
  5
176
330
1F
100
AcDbEntity
  8
6
  6
HIDDEN2
 62
     7
100
AcDbCircle
 10
205.6273673116789
 20
-1645.461095065133
 30
0.0
 40
5.0
100
AcDbArc
 50
181.9999999999984
 51
270.0
  0
ARC
  5
177
330
1F
100
AcDbEntity
  8
6
  6
Continuous
 62
     7
100
AcDbCircle
 10
231.9281760601914
 20
-1651.461095065133
 30
0.0
 40
1.5
100
AcDbArc
 50
270.0
 51
2.000000000003347
  0
LINE
  5
178
330
1F
100
AcDbEntity
  8
6
  6
Continuous
 62
     7
100
AcDbLine
 10
230.3332346628362
 20
-1590.461095065133
 30
0.0
 11
228.2646122124506
 21
-1590.461095065133
 31
0.0
  0
LINE
  5
179
330
1F
100
AcDbEntity
  8
6
  6
Continuous
 62
     7
100
AcDbLine
 10
227.2652213854312
 20
-1591.42619556843
 30
0.0
 11
225.3721875291986
 21
-1645.635592548646
 31
0.0
  0
POINT
  5
17A
330
1F
100
AcDbEntity
  8
6
  6
Continuous
 62
     7
100
AcDbPoint
 10
225.2036772681386
 20
-1650.461095065133
 30
0.0
  0
POINT
  5
17B
330
1F
100
AcDbEntity
  8
6
  6
Continuous
 62
     7
100
AcDbPoint
 10
227.2989234376432
 20
-1590.461095065133
 30
0.0
  0
POINT
  5
17C
330
1F
100
AcDbEntity
  8
6
  6
Continuous
 62
     7
100
AcDbPoint
 10
231.2989234376432
 20
-1590.461095065133
 30
0.0
  0
ARC
  5
17D
330
1F
100
AcDbEntity
  8
6
  6
Continuous
 62
     7
100
AcDbCircle
 10
220.375233394103
 20
-1645.461095065133
 30
0.0
 40
5.0
100
AcDbArc
 50
270.0
 51
358.0000000000016
  0
ARC
  5
17E
330
1F
100
AcDbEntity
  8
6
  6
Continuous
 62
     7
100
AcDbCircle
 10
230.3332346628362
 20
-1591.461095065133
 30
0.0
 40
1.0
100
AcDbArc
 50
2.000000000003953
 51
90.0
  0
ARC
  5
17F
330
1F
100
AcDbEntity
  8
6
  6
Continuous
 62
     7
100
AcDbCircle
 10
228.2646122124506
 20
-1591.461095065133
 30
0.0
 40
1.0
100
AcDbArc
 50
90.0
 51
177.999999999997
  0
LINE
  5
180
330
1F
100
AcDbEntity
  8
6
  6
Continuous
 62
     7
100
AcDbLine
 10
193.4177400180229
 20
-1567.873939322385
 30
0.0
 11
192.9556500161185
 21
-1573.155652212737
 31
0.0
  0
LINE
  5
181
330
1F
100
AcDbEntity
  8
6
  6
Continuous
 62
     7
100
AcDbLine
 10
194.413934716115
 20
-1566.961095065132
 30
0.0
 11
199.874908770677
 21
-1566.961095065132
 31
0.0
  0
LINE
  5
182
330
1F
100
AcDbEntity
  8
6
  6
Continuous
 62
     7
100
AcDbLine
 10
231.2989234376432
 20
-1590.461095065133
 30
0.0
 11
259.7989234376432
 21
-1590.461095065133
 31
0.0
  0
ARC
  5
183
330
1F
100
AcDbEntity
  8
1
  6
Continuous
 62
     7
100
AcDbCircle
 10
194.413934716115
 20
-1567.961095065132
 30
0.0
 40
1.0
100
AcDbArc
 50
90.0
 51
175.0000000000017
  0
ARC
  5
184
330
1F
100
AcDbEntity
  8
1
  6
Continuous
 62
     7
100
AcDbCircle
 10
197.3887807984138
 20
-1567.961095065132
 30
0.0
 40
1.0
100
AcDbArc
 50
2.000000000003044
 51
90.0
  0
LINE
  5
185
330
1F
100
AcDbEntity
  8
6
  6
Continuous
 62
     7
100
AcDbLine
 10
209.1038655239846
 20
-1650.461095065133
 30
0.0
 11
200.7989234376433
 21
-1650.461095065133
 31
0.0
  0
LINE
  5
186
330
1F
100
AcDbEntity
  8
6
  6
Continuous
 62
     7
100
AcDbLine
 10
200.7989234376433
 20
-1650.461095065133
 30
0.0
 11
200.7017950595333
 21
-1647.679702228604
 31
0.0
  0
LINE
  5
187
330
1F
100
AcDbEntity
  8
1
  6
Continuous
 62
     7
100
AcDbLine
 10
207.7986188511528
 20
-1607.443645316782
 30
0.0
 11
209.022673859231
 21
-1649.495994561836
 31
0.0
  0
LINE
  5
188
330
1F
100
AcDbEntity
  8
1
  6
Continuous
 62
     7
100
AcDbLine
 10
207.2989234376433
 20
-1606.961095065133
 30
0.0
 11
202.0317678250468
 21
-1606.961095065132
 31
0.0
  0
ARC
  5
189
330
1F
100
AcDbEntity
  8
1
  6
Continuous
 62
     7
100
AcDbCircle
 10
210.0220646862504
 20
-1649.461095065133
 30
0.0
 40
1.0
100
AcDbArc
 50
182.000000000003
 51
270.0
  0
LINE
  5
18A
330
1F
100
AcDbEntity
  8
1
  6
Continuous
 62
     7
100
AcDbLine
 10
201.5489234376433
 20
-1606.478544813485
 30
0.0
 11
201.5127839508719
 21
-1605.443645316782
 31
0.0
  0
LINE
  5
18B
330
1F
100
AcDbEntity
  8
1
  6
Continuous
 62
     7
100
AcDbLine
 10
201.0130885373624
 20
-1604.961095065133
 30
0.0
 11
200.4201625870706
 21
-1604.961095065133
 31
0.0
  0
ARC
  5
18C
330
1F
100
AcDbEntity
  8
1
  6
Continuous
 62
     7
100
AcDbCircle
 10
201.0130885373624
 20
-1605.461095065133
 30
0.0
 40
0.5
100
AcDbArc
 50
2.000000000003953
 51
90.0
  0
ARC
  5
18D
330
1F
100
AcDbEntity
  8
1
  6
Continuous
 62
     7
100
AcDbCircle
 10
207.2989234376433
 20
-1607.461095065133
 30
0.0
 40
0.5
100
AcDbArc
 50
2.000000000003953
 51
90.0
  0
ARC
  5
18E
330
1F
100
AcDbEntity
  8
1
  6
Continuous
 62
     7
100
AcDbCircle
 10
200.4201625870706
 20
-1603.961095065133
 30
0.0
 40
1.0
100
AcDbArc
 50
182.0000000000039
 51
270.0
  0
ARC
  5
18F
330
1F
100
AcDbEntity
  8
1
  6
Continuous
 62
     7
100
AcDbCircle
 10
202.0486188511528
 20
-1606.461095065133
 30
0.0
 40
0.5
100
AcDbArc
 50
182.0000000000039
 51
270.0
  0
LINE
  5
190
330
1F
100
AcDbEntity
  8
6
  6
Continuous
 62
     7
100
AcDbLine
 10
142.2989234376565
 20
-1566.961095065133
 30
0.0
 11
147.2989234376565
 21
-1567.223133961548
 31
0.0
  0
LINE
  5
191
330
1F
100
AcDbEntity
  8
6
  6
Continuous
 62
     7
100
AcDbLine
 10
147.2989234376565
 20
-1567.223133961548
 30
0.0
 11
155.8830553066396
 21
-1572.179184806865
 31
0.0
  0
LINE
  5
192
330
1F
100
AcDbEntity
  8
6
  6
Continuous
 62
     7
100
AcDbLine
 10
154.5686696758658
 20
-1576.616476331825
 30
0.0
 11
148.2373636009198
 21
-1572.961095065133
 31
0.0
  0
LINE
  5
193
330
1F
100
AcDbEntity
  8
1
  6
Continuous
 62
     7
100
AcDbLine
 10
143.7401865928314
 20
-1572.961095065133
 30
0.0
 11
148.2373636009198
 21
-1572.961095065133
 31
0.0
  0
LINE
  5
194
330
1F
100
AcDbEntity
  8
6
  6
Continuous
 62
     7
100
AcDbLine
 10
142.7439918947394
 20
-1572.048250807881
 30
0.0
 11
142.2989234376583
 21
-1566.961095065133
 31
0.0
  0
ARC
  5
195
330
1F
100
AcDbEntity
  8
1
  6
Continuous
 62
     7
100
AcDbCircle
 10
143.7401865928314
 20
-1571.961095065133
 30
0.0
 40
1.0
100
AcDbArc
 50
185.0000000000005
 51
270.0
  0
LINE
  5
196
330
1F
100
AcDbEntity
  8
1
  6
Continuous
 62
     7
100
AcDbLine
 10
155.8830553066396
 20
-1572.179184806865
 30
0.0
 11
191.9071193617838
 21
-1574.067126004745
 31
0.0
  0
LINE
  5
197
330
1F
100
AcDbEntity
  8
1
  6
Continuous
 62
     7
100
AcDbLine
 10
154.5686696758658
 20
-1576.616476331825
 30
0.0
 11
183.2233804900412
 21
-1578.118206091593
 31
0.0
  0
LINE
  5
198
330
1F
100
AcDbEntity
  8
1
  6
HIDDEN
 62
     1
100
AcDbLine
 10
183.2233804900412
 20
-1578.118206091593
 30
0.0
 11
189.5623222707327
 21
-1578.450415953324
 31
0.0
  0
LINE
  5
199
330
1F
100
AcDbEntity
  8
1
  6
Continuous
 62
     7
100
AcDbLine
 10
196.1315352628467
 20
-1645.739852258416
 30
0.0
 11
194.4847474738586
 21
-1589.641757057651
 31
0.0
  0
LINE
  5
19A
330
1F
100
AcDbEntity
  8
1
  6
HIDDEN
 62
     1
100
AcDbLine
 10
194.4847474738586
 20
-1589.641757057651
 30
0.0
 11
194.2984895170471
 21
-1583.296849314842
 31
0.0
  0
ARC
  5
19B
330
1F
100
AcDbEntity
  8
1
  6
HIDDEN
 62
     1
100
AcDbCircle
 10
189.300642489518
 20
-1583.443563627097
 30
0.0
 40
5.0
100
AcDbArc
 50
1.681463527177373
 51
86.99999999999964
  0
ARC
  5
19C
330
1F
100
AcDbEntity
  8
6
  6
Continuous
 62
     7
100
AcDbCircle
 10
191.9594553180269
 20
-1573.06849646999
 30
0.0
 40
1.0
100
AcDbArc
 50
266.9999999999953
 51
354.9999999999994
  0
ARC
  5
19D
330
1F
100
AcDbEntity
  8
1
  6
Continuous
 62
     7
100
AcDbCircle
 10
205.6274446151515
 20
-1645.461095065133
 30
0.0
 40
9.5
100
AcDbArc
 50
181.6814635271747
 51
270.0
  0
LINE
  5
19E
330
1F
100
AcDbEntity
  8
1
  6
Continuous
 62
     7
100
AcDbLine
 10
184.1706139393037
 20
-1579.087492763897
 30
0.0
 11
184.3027954619889
 21
-1583.590277939351
 31
0.0
  0
LINE
  5
19F
330
1F
100
AcDbEntity
  8
1
  6
Continuous
 62
     7
100
AcDbLine
 10
189.0389627083032
 20
-1588.43671130087
 30
0.0
 11
193.5375140245956
 21
-1588.672470385347
 31
0.0
  0
ARC
  5
1A0
330
1F
100
AcDbEntity
  8
1
  6
Continuous
 62
     7
100
AcDbCircle
 10
183.1710445337981
 20
-1579.116835626348
 30
0.0
 40
1.0
100
AcDbArc
 50
1.681463527177831
 51
86.9999999999939
  0
ARC
  5
1A1
330
1F
100
AcDbEntity
  8
1
  6
Continuous
 62
     7
100
AcDbCircle
 10
193.4851780683526
 20
-1589.671099920102
 30
0.0
 40
1.0
100
AcDbArc
 50
1.681463527177067
 51
86.99999999999527
  0
ARC
  5
1A2
330
1F
100
AcDbEntity
  8
1
  6
Continuous
 62
     7
100
AcDbCircle
 10
189.300642489518
 20
-1583.443563627097
 30
0.0
 40
5.0
100
AcDbArc
 50
181.6814635271774
 51
266.9999999999997
  0
LINE
  5
1A3
330
1F
100
AcDbEntity
  8
1
  6
Continuous
 62
     7
100
AcDbLine
 10
194.413934716115
 20
-1566.961095065132
 30
0.0
 11
142.2989234376433
 21
-1566.961095065132
 31
0.0
  0
LINE
  5
1A4
330
1F
100
AcDbEntity
  8
1
  6
Continuous
 62
     7
100
AcDbLine
 10
155.8830553066396
 20
-1572.179184806865
 30
0.0
 11
193.0435937866424
 21
-1572.179184806865
 31
0.0
  0
LINE
  5
1A5
330
1F
100
AcDbEntity
  8
1
  6
Continuous
 62
     7
100
AcDbLine
 10
147.2989234376565
 20
-1567.223133961548
 30
0.0
 11
193.7390914679477
 21
-1567.223133961548
 31
0.0
  0
HATCH
  5
1A6
330
1F
100
AcDbEntity
  8
1
  6
Continuous
 62
     7
100
AcDbHatch
 10
0.0
 20
0.0
 30
0.0
210
0.0
220
0.0
230
1.0
  2
_U
 70
     0
 71
     0
 91
        3
 92
        0
 93
       12
 72
     2
 10
207.2989234376433
 20
-1607.461095065133
 40
0.5
 50
2.000000000003953
 51
90.0
 73
     1
 72
     1
 10
207.2989234376433
 20
-1606.961095065133
 11
202.0486188511528
 21
-1606.961095065133
 72
     2
 10
202.0486188511528
 20
-1606.461095065133
 40
0.5
 50
90.0
 51
177.9999999999961
 73
     0
 72
     1
 10
201.5489234376433
 20
-1606.478544813485
 11
201.5127839508719
 21
-1605.443645316782
 72
     2
 10
201.0130885373624
 20
-1605.461095065133
 40
0.5
 50
2.000000000003953
 51
90.0
 73
     1
 72
     1
 10
201.0130885373624
 20
-1604.961095065133
 11
200.4201625870706
 21
-1604.961095065133
 72
     2
 10
200.4201625870706
 20
-1603.961095065133
 40
1.0
 50
90.0
 51
177.9999999999961
 73
     0
 72
     1
 10
199.4207717600517
 20
-1603.995994561836
 11
200.6304131765833
 21
-1645.635592548646
 72
     2
 10
205.6273673116789
 20
-1645.461095065133
 40
5.0
 50
181.9999999999984
 51
270.0
 73
     1
 72
     1
 10
205.6273673116789
 20
-1650.461095065133
 11
210.0223759114434
 21
-1650.461095065133
 72
     2
 10
210.0220646862504
 20
-1649.461095065133
 40
1.0
 50
90.0
 51
177.999999999997
 73
     0
 72
     1
 10
209.022673859231
 20
-1649.495994561836
 11
207.7986188511528
 21
-1607.443645316782
 97
        0
 92
        0
 93
       41
 72
     2
 10
197.3887807984138
 20
-1567.961095065132
 40
1.0
 50
2.000000000003044
 51
90.0
 73
     1
 72
     1
 10
197.3887807984138
 20
-1566.961095065132
 11
194.413934716115
 21
-1566.961095065132
 72
     2
 10
194.413934716115
 20
-1567.961095065132
 40
1.0
 50
90.0
 51
175.0000000000017
 73
     1
 72
     1
 10
193.4177400180229
 20
-1567.873939322385
 11
192.9556500161185
 21
-1573.155652212737
 72
     2
 10
191.9594553180269
 20
-1573.06849646999
 40
1.0
 50
5.000000000000595
 51
93.00000000000475
 73
     0
 72
     1
 10
191.9071193617838
 20
-1574.067126004745
 11
155.8830553066396
 21
-1572.179184806865
 72
     1
 10
155.8830553066396
 20
-1572.179184806865
 11
147.2989234376565
 21
-1567.223133961548
 72
     1
 10
147.2989234376565
 20
-1567.223133961548
 11
142.2989234376565
 21
-1566.961095065133
 72
     1
 10
142.2989234376583
 20
-1566.961095065133
 11
142.7439918947394
 21
-1572.048250807881
 72
     2
 10
143.7401865928314
 20
-1571.961095065133
 40
1.0
 50
185.0000000000005
 51
270.0
 73
     1
 72
     1
 10
143.7401865928314
 20
-1572.961095065133
 11
148.2373636009198
 21
-1572.961095065133
 72
     1
 10
148.2373636009198
 20
-1572.961095065133
 11
154.5686696758658
 21
-1576.616476331825
 72
     1
 10
154.5686696758658
 20
-1576.616476331825
 11
183.2233804900412
 21
-1578.118206091593
 72
     1
 10
183.2233804900412
 20
-1578.118206091593
 11
189.5623222707327
 21
-1578.450415953324
 72
     2
 10
189.300642489518
 20
-1583.443563627097
 40
5.0
 50
273.0000000000003
 51
358.3185364728226
 73
     0
 72
     1
 10
194.2984895170471
 20
-1583.296849314842
 11
194.4847474738586
 21
-1589.641757057651
 72
     1
 10
194.4847474738586
 20
-1589.641757057651
 11
196.1315352628467
 21
-1645.739852258416
 72
     2
 10
205.6274446151515
 20
-1645.461095065133
 40
9.5
 50
181.6814635271747
 51
270.0
 73
     1
 72
     1
 10
205.6274446151515
 20
-1654.961095065133
 11
218.3332346628363
 21
-1654.961095065133
 72
     2
 10
218.3332346628363
 20
-1655.961095065133
 40
1.0
 50
270.0
 51
357.9999999999961
 73
     0
 72
     1
 10
219.3326254898553
 20
-1655.926195568431
 11
219.9636367752665
 21
-1673.995994561836
 72
     2
 10
220.9630276022854
 20
-1673.961095065133
 40
1.0
 50
182.000000000003
 51
270.0
 73
     1
 72
     1
 10
220.9630276022854
 20
-1674.961095065133
 11
229.9919234376434
 21
-1674.961095065133
 72
     1
 10
229.9919234376434
 20
-1674.961095065133
 11
230.4450407760186
 21
-1660.461340237124
 72
     2
 10
233.7989234376431
 20
-1657.461095065133
 40
4.5
 50
138.1854968655436
 51
180.0
 73
     0
 72
     1
 10
229.2989234376432
 20
-1657.461095065133
 11
229.2989234376432
 21
-1655.461095065133
 72
     2
 10
231.7989234376431
 20
-1655.461095065133
 40
2.5
 50
180.0
 51
270.0
 73
     0
 72
     1
 10
231.7989234376431
 20
-1652.961095065133
 11
231.9281760601914
 21
-1652.961095065133
 72
     2
 10
231.9281760601914
 20
-1651.461095065133
 40
1.5
 50
270.0
 51
362.0000000000034
 73
     1
 72
     1
 10
233.4272623007203
 20
-1651.40874582008
 11
231.3326254898552
 21
-1591.426195568431
 72
     2
 10
230.3332346628362
 20
-1591.461095065133
 40
1.0
 50
2.000000000003953
 51
90.0
 73
     1
 72
     1
 10
230.3332346628362
 20
-1590.461095065133
 11
228.2646122124506
 21
-1590.461095065133
 72
     2
 10
228.2646122124506
 20
-1591.461095065133
 40
1.0
 50
90.0
 51
177.999999999997
 73
     1
 72
     1
 10
227.2652213854312
 20
-1591.42619556843
 11
225.3721875291986
 21
-1645.635592548646
 72
     2
 10
220.375233394103
 20
-1645.461095065133
 40
5.0
 50
1.999999999998382
 51
90.0
 73
     0
 72
     1
 10
220.375233394103
 20
-1650.461095065133
 11
210.0220646862504
 21
-1650.461095065133
 72
     1
 10
210.0223759114434
 20
-1650.461095065133
 11
205.1273673116789
 21
-1650.461095065133
 72
     1
 10
205.1273673116789
 20
-1650.461095065133
 11
205.6273673116789
 21
-1650.461095065133
 72
     2
 10
205.6273673116789
 20
-1645.461095065133
 40
5.0
 50
90.0
 51
178.0000000000016
 73
     0
 72
     1
 10
200.6304131765833
 20
-1645.635592548646
 11
199.4207717600517
 21
-1603.995994561836
 72
     1
 10
199.4207717600517
 20
-1603.995994561836
 11
198.3881716254332
 21
-1567.92619556843
 97
        0
 92
        0
 93
        8
 72
     1
 10
189.5623222707327
 20
-1578.450415953324
 11
183.2233804900412
 21
-1578.118206091593
 72
     2
 10
183.1710445337981
 20
-1579.116835626348
 40
1.0
 50
273.0000000000061
 51
358.3185364728222
 73
     0
 72
     1
 10
184.1706139393037
 20
-1579.087492763897
 11
184.3027954619889
 21
-1583.590277939351
 72
     2
 10
189.300642489518
 20
-1583.443563627097
 40
5.0
 50
181.6814635271774
 51
266.9999999999997
 73
     1
 72
     1
 10
189.0389627083032
 20
-1588.43671130087
 11
193.5375140245956
 21
-1588.672470385347
 72
     2
 10
193.4851780683526
 20
-1589.671099920102
 40
1.0
 50
273.0000000000047
 51
358.3185364728229
 73
     0
 72
     1
 10
194.4847474738586
 20
-1589.641757057651
 11
194.2984895170471
 21
-1583.296849314842
 72
     2
 10
189.300642489518
 20
-1583.443563627097
 40
5.0
 50
1.681463527177373
 51
86.99999999999964
 73
     1
 97
        0
 75
     0
 76
     0
 52
45.00000000014619
 41
3.0
 77
     0
 78
     1
 53
45.00000000014619
 43
0.0
 44
0.0
 45
-2.121320343565055
 46
2.12132034355423
 79
     0
 98
        1
 10
0.0
 20
0.0
  0
LINE
  5
1A7
330
1F
100
AcDbEntity
  8
1
  6
Continuous
 62
     7
100
AcDbLine
 10
198.3544695732208
 20
-1566.961095065132
 30
0.0
 11
199.874908770677
 21
-1566.961095065132
 31
0.0
  0
LINE
  5
1A8
330
1F
100
AcDbEntity
  8
1
  6
Continuous
 62
     7
100
AcDbLine
 10
196.5894057780407
 20
-1566.261498416516
 30
0.0
 11
198.3533809074289
 21
-1560.660691713749
 31
0.0
  0
LINE
  5
1A9
330
1F
100
AcDbEntity
  8
1
  6
Continuous
 62
     7
100
AcDbLine
 10
200.8558935845718
 20
-1566.155179569685
 30
0.0
 11
201.9219244728861
 21
-1560.76701056058
 31
0.0
  0
LINE
  5
1AA
330
1F
100
AcDbEntity
  8
1
  6
Continuous
 62
     7
100
AcDbLine
 10
202.0813721090063
 20
-1559.961095065133
 30
0.0
 11
199.3071931669843
 21
-1559.961095065133
 31
0.0
  0
LINE
  5
1AB
330
1F
100
AcDbEntity
  8
1
  6
Continuous
 62
     7
100
AcDbLine
 10
202.9029092867809
 20
-1559.961095065133
 30
0.0
 11
203.2839234376434
 21
-1559.961095065133
 31
0.0
  0
ARC
  5
1AC
330
1F
100
AcDbEntity
  8
1
  6
Continuous
 62
     7
100
AcDbCircle
 10
202.9029092867809
 20
-1560.961095065132
 30
0.0
 40
1.0
100
AcDbArc
 50
90.0
 51
168.8087521348427
  0
ARC
  5
1AD
330
1F
100
AcDbEntity
  8
1
  6
Continuous
 62
     7
100
AcDbCircle
 10
199.3071931669843
 20
-1560.961095065133
 30
0.0
 40
1.0
100
AcDbArc
 50
90.0
 51
162.5181690540945
  0
ARC
  5
1AE
330
1F
100
AcDbEntity
  8
1
  6
Continuous
 62
     7
100
AcDbCircle
 10
199.874908770677
 20
-1565.961095065132
 30
0.0
 40
1.0
100
AcDbArc
 50
270.0
 51
348.8087521348427
  0
ARC
  5
1AF
330
1F
100
AcDbEntity
  8
1
  6
Continuous
 62
     7
100
AcDbCircle
 10
195.6355935184852
 20
-1565.961095065133
 30
0.0
 40
1.0
100
AcDbArc
 50
270.0
 51
342.5181690540945
  0
POINT
  5
1B0
330
1F
100
AcDbEntity
  8
4
  6
Continuous
 62
     7
100
AcDbPoint
 10
226.2989234376432
 20
-1590.461095065133
 30
0.0
  0
POINT
  5
1B1
330
1F
100
AcDbEntity
  8
1
  6
Continuous
 62
     7
100
AcDbPoint
 10
205.9896273591817
 20
-1606.961095065133
 30
0.0
  0
POINT
  5
1B2
330
1F
100
AcDbEntity
  8
1
  6
Continuous
 62
     7
100
AcDbPoint
 10
201.9896273591817
 20
-1606.961095065133
 30
0.0
  0
LINE
  5
1B3
330
1F
100
AcDbEntity
  8
6
  6
Continuous
 62
     7
100
AcDbLine
 10
290.2989234376432
 20
-1655.461095065134
 30
0.0
 11
290.2989234376432
 21
-1657.461095065134
 31
0.0
  0
LINE
  5
1B4
330
1F
100
AcDbEntity
  8
6
  6
Continuous
 62
     7
100
AcDbLine
 10
285.7989234376434
 20
-1661.961095065134
 30
0.0
 11
259.7989234376432
 21
-1661.961095065134
 31
0.0
  0
LINE
  5
1B5
330
1F
100
AcDbEntity
  8
6
  6
Continuous
 62
     7
100
AcDbLine
 10
287.7989234376432
 20
-1652.961095065134
 30
0.0
 11
259.7989234376432
 21
-1652.961095065134
 31
0.0
  0
LINE
  5
1B6
330
1F
100
AcDbEntity
  8
6
  6
Continuous
 62
     7
100
AcDbLine
 10
289.6059234376432
 20
-1674.961095065134
 30
0.0
 11
289.1528060992679
 21
-1660.461340237124
 31
0.0
  0
LINE
  5
1B7
330
1F
100
AcDbEntity
  8
6
  6
Continuous
 62
     7
100
AcDbLine
 10
288.0331734376431
 20
-1674.961095065134
 30
0.0
 11
287.6149634530659
 21
-1661.578375558661
 31
0.0
  0
LINE
  5
1B8
330
1F
100
AcDbEntity
  8
6
  6
Continuous
 62
     7
100
AcDbLine
 10
298.6348192730013
 20
-1674.961095065134
 30
0.0
 11
259.7989234376432
 21
-1674.961095065134
 31
0.0
  0
ARC
  5
1B9
330
1F
100
AcDbEntity
  8
6
  6
Continuous
 62
     7
100
AcDbCircle
 10
287.7989234376432
 20
-1655.461095065134
 30
0.0
 40
2.5
100
AcDbArc
 50
0.0
 51
90.0
  0
ARC
  5
1BA
330
1F
100
AcDbEntity
  8
6
  6
Continuous
 62
     7
100
AcDbCircle
 10
285.7989234376434
 20
-1657.461095065134
 30
0.0
 40
4.5
100
AcDbArc
 50
270.0
 51
293.8011992947116
  0
ARC
  5
1BB
330
1F
100
AcDbEntity
  8
6
  6
Continuous
 62
     7
100
AcDbCircle
 10
285.7989234376434
 20
-1657.461095065134
 30
0.0
 40
4.5
100
AcDbArc
 50
293.8011992947116
 51
0.0
  0
LINE
  5
1BC
330
1F
100
AcDbEntity
  8
6
  6
Continuous
 62
     7
100
AcDbLine
 10
286.1705845745661
 20
-1651.40874582008
 30
0.0
 11
288.2652213854312
 21
-1591.426195568431
 31
0.0
  0
LINE
  5
1BD
330
1F
100
AcDbEntity
  8
6
  6
Continuous
 62
     7
100
AcDbLine
 10
301.2646122124503
 20
-1654.961095065134
 30
0.0
 11
313.9704022601351
 21
-1654.961095065134
 31
0.0
  0
LINE
  5
1BE
330
1F
100
AcDbEntity
  8
6
  6
Continuous
 62
     7
100
AcDbLine
 10
300.2652213854312
 20
-1655.926195568431
 30
0.0
 11
299.6342101000202
 21
-1673.995994561836
 31
0.0
  0
POINT
  5
1BF
330
1F
100
AcDbEntity
  8
6
  6
Continuous
 62
     7
100
AcDbPoint
 10
300.2989234376432
 20
-1654.961095065134
 30
0.0
  0
ARC
  5
1C0
330
1F
100
AcDbEntity
  8
6
  6
Continuous
 62
     7
100
AcDbCircle
 10
301.2646122124503
 20
-1655.961095065134
 30
0.0
 40
1.0
100
AcDbArc
 50
90.0
 51
177.9999999999965
  0
ARC
  5
1C1
330
1F
100
AcDbEntity
  8
6
  6
Continuous
 62
     7
100
AcDbCircle
 10
298.6348192730013
 20
-1673.961095065134
 30
0.0
 40
1.0
100
AcDbArc
 50
270.0
 51
357.9999999999965
  0
LINE
  5
1C2
330
1F
100
AcDbEntity
  8
6
  6
Continuous
 62
     7
100
AcDbLine
 10
299.2226134811835
 20
-1650.461095065134
 30
0.0
 11
313.9704795636077
 21
-1650.461095065134
 31
0.0
  0
LINE
  5
1C3
330
1F
100
AcDbEntity
  8
6
  6
Continuous
 62
     7
100
AcDbLine
 10
316.193396187891
 20
-1650.461095065134
 30
0.0
 11
318.7989234376432
 21
-1650.461095065134
 31
0.0
  0
LINE
  5
1C4
330
1F
100
AcDbEntity
  8
6
  6
Continuous
 62
     7
100
AcDbLine
 10
318.7989234376432
 20
-1650.461095065134
 30
0.0
 11
318.8960518157534
 21
-1647.679702228605
 31
0.0
  0
LINE
  5
1C5
330
1F
100
AcDbEntity
  8
6
  6
Continuous
 62
     7
100
AcDbLine
 10
318.9674336987034
 20
-1645.635592548646
 30
0.0
 11
321.4541206362957
 21
-1560.926195568431
 31
0.0
  0
POINT
  5
1C6
330
1F
100
AcDbEntity
  8
6
  6
Continuous
 62
     7
100
AcDbPoint
 10
318.7989234376432
 20
-1650.461095065134
 30
0.0
  0
ARC
  5
1C7
330
1F
100
AcDbEntity
  8
6
  6
Continuous
 62
     7
100
AcDbCircle
 10
313.9704795636077
 20
-1645.461095065134
 30
0.0
 40
5.0
100
AcDbArc
 50
270.0
 51
358.0000000000016
  0
ARC
  5
1C8
330
1F
100
AcDbEntity
  8
6
  6
Continuous
 62
     7
100
AcDbCircle
 10
287.6696708150948
 20
-1651.461095065134
 30
0.0
 40
1.5
100
AcDbArc
 50
177.9999999999964
 51
270.0
  0
LINE
  5
1C9
330
1F
100
AcDbEntity
  8
6
  6
Continuous
 62
     7
100
AcDbLine
 10
289.2646122124503
 20
-1590.461095065134
 30
0.0
 11
291.333234662836
 21
-1590.461095065134
 31
0.0
  0
LINE
  5
1CA
330
1F
100
AcDbEntity
  8
6
  6
Continuous
 62
     7
100
AcDbLine
 10
292.3326254898552
 20
-1591.426195568431
 30
0.0
 11
294.2256593460881
 21
-1645.635592548646
 31
0.0
  0
POINT
  5
1CB
330
1F
100
AcDbEntity
  8
6
  6
Continuous
 62
     7
100
AcDbPoint
 10
294.3941696071481
 20
-1650.461095065134
 30
0.0
  0
POINT
  5
1CC
330
1F
100
AcDbEntity
  8
6
  6
Continuous
 62
     7
100
AcDbPoint
 10
292.2989234376432
 20
-1590.461095065134
 30
0.0
  0
POINT
  5
1CD
330
1F
100
AcDbEntity
  8
6
  6
Continuous
 62
     7
100
AcDbPoint
 10
288.2989234376432
 20
-1590.461095065134
 30
0.0
  0
ARC
  5
1CE
330
1F
100
AcDbEntity
  8
6
  6
Continuous
 62
     7
100
AcDbCircle
 10
299.2226134811835
 20
-1645.461095065134
 30
0.0
 40
5.0
100
AcDbArc
 50
181.9999999999985
 51
270.0
  0
ARC
  5
1CF
330
1F
100
AcDbEntity
  8
6
  6
Continuous
 62
     7
100
AcDbCircle
 10
289.2646122124503
 20
-1591.461095065134
 30
0.0
 40
1.0
100
AcDbArc
 50
90.0
 51
177.9999999999965
  0
ARC
  5
1D0
330
1F
100
AcDbEntity
  8
6
  6
Continuous
 62
     7
100
AcDbCircle
 10
291.333234662836
 20
-1591.461095065133
 30
0.0
 40
1.0
100
AcDbArc
 50
2.000000000003499
 51
90.0
  0
LINE
  5
1D1
330
1F
100
AcDbEntity
  8
6
  6
Continuous
 62
     7
100
AcDbLine
 10
377.2989234376302
 20
-1566.961095065134
 30
0.0
 11
372.29892343763
 21
-1567.223133961549
 31
0.0
  0
LINE
  5
1D2
330
1F
100
AcDbEntity
  8
6
  6
Continuous
 62
     7
100
AcDbLine
 10
372.29892343763
 20
-1567.223133961549
 30
0.0
 11
363.7147915686471
 21
-1572.179184806865
 31
0.0
  0
LINE
  5
1D3
330
1F
100
AcDbEntity
  8
6
  6
Continuous
 62
     7
100
AcDbLine
 10
365.0291771994209
 20
-1576.616476331825
 30
0.0
 11
371.3604832743669
 21
-1572.961095065134
 31
0.0
  0
LINE
  5
1D4
330
1F
100
AcDbEntity
  8
6
  6
Continuous
 62
     7
100
AcDbLine
 10
325.7457907384118
 20
-1562.971074655707
 30
0.0
 11
321.3693410809953
 21
-1563.353964387223
 31
0.0
  0
LINE
  5
1D5
330
1F
100
AcDbEntity
  8
6
  6
Continuous
 62
     7
100
AcDbLine
 10
326.1815694521501
 20
-1567.952048146166
 30
0.0
 11
321.1935331518386
 21
-1568.388444775699
 31
0.0
  0
LINE
  5
1D6
330
1F
100
AcDbEntity
  8
6
  6
Continuous
 62
     7
100
AcDbLine
 10
325.7835291750216
 20
-1563.402426959981
 30
0.0
 11
321.3541161143305
 21
-1563.789950388865
 31
0.0
  0
LINE
  5
1D7
330
1F
100
AcDbEntity
  8
6
  6
Continuous
 62
     7
100
AcDbLine
 10
326.1438310155403
 20
-1567.520695841892
 30
0.0
 11
321.2087581185037
 21
-1567.952458774057
 31
0.0
  0
LINE
  5
1D8
330
1F
100
AcDbEntity
  8
6
  6
CENTER2
 62
     7
100
AcDbLine
 10
332.6983076081092
 20
-1564.872357840494
 30
0.0
 11
317.5684852189885
 21
-1566.196045780703
 31
0.0
  0
LINE
  5
1D9
330
1F
100
AcDbEntity
  8
6
  6
Continuous
 62
     7
100
AcDbLine
 10
325.5623151708666
 20
-1560.873939322387
 30
0.0
 11
326.6368503317437
 21
-1573.155932412367
 31
0.0
  0
LINE
  5
1DA
330
1F
100
AcDbEntity
  8
1
  6
Continuous
 62
     7
100
AcDbLine
 10
322.4535114633147
 20
-1559.961095065134
 30
0.0
 11
324.566120472775
 21
-1559.961095065134
 31
0.0
  0
LINE
  5
1DB
330
1F
100
AcDbEntity
  8
1
  6
Continuous
 62
     7
100
AcDbLine
 10
375.8576602824552
 20
-1572.961095065134
 30
0.0
 11
371.3604832743669
 21
-1572.961095065134
 31
0.0
  0
LINE
  5
1DC
330
1F
100
AcDbEntity
  8
6
  6
Continuous
 62
     7
100
AcDbLine
 10
376.8538549805471
 20
-1572.048250807881
 30
0.0
 11
377.2989234376282
 21
-1566.961095065134
 31
0.0
  0
ARC
  5
1DD
330
1F
100
AcDbEntity
  8
1
  6
Continuous
 62
     7
100
AcDbCircle
 10
375.8576602824552
 20
-1571.961095065134
 30
0.0
 40
1.0
100
AcDbArc
 50
270.0
 51
354.9999999999994
  0
LINE
  5
1DE
330
1F
100
AcDbEntity
  8
6
  6
Continuous
 62
     7
100
AcDbLine
 10
288.2989234376432
 20
-1590.461095065134
 30
0.0
 11
259.7989234376432
 21
-1590.461095065134
 31
0.0
  0
LINE
  5
1DF
330
1F
100
AcDbEntity
  8
1
  6
Continuous
 62
     7
100
AcDbLine
 10
331.6434103688868
 20
-1566.961095065133
 30
0.0
 11
377.2989234376432
 21
-1566.961095065133
 31
0.0
  0
ARC
  5
1E0
330
1F
100
AcDbEntity
  8
1
  6
Continuous
 62
     7
100
AcDbCircle
 10
322.4535114633147
 20
-1560.961095065133
 30
0.0
 40
1.0
100
AcDbArc
 50
90.0
 51
177.9999999999961
  0
ARC
  5
1E1
330
1F
100
AcDbEntity
  8
1
  6
Continuous
 62
     7
100
AcDbCircle
 10
324.566120472775
 20
-1560.961095065135
 30
0.0
 40
1.0
100
AcDbArc
 50
5.000000000000595
 51
90.0
  0
LINE
  5
1E2
330
1F
100
AcDbEntity
  8
1
  6
Continuous
 62
     7
100
AcDbLine
 10
363.7147915686471
 20
-1572.179184806865
 30
0.0
 11
327.6853809860783
 21
-1574.067406204374
 31
0.0
  0
LINE
  5
1E3
330
1F
100
AcDbEntity
  8
1
  6
Continuous
 62
     7
100
AcDbLine
 10
365.0291771994209
 20
-1576.616476331825
 30
0.0
 11
330.0355246045539
 21
-1578.450415953324
 31
0.0
  0
LINE
  5
1E4
330
1F
100
AcDbEntity
  8
1
  6
Continuous
 62
     7
100
AcDbLine
 10
323.4663116124399
 20
-1645.739852258417
 30
0.0
 11
325.2993573582398
 21
-1583.296849314843
 31
0.0
  0
ARC
  5
1E5
330
1F
100
AcDbEntity
  8
1
  6
Continuous
 62
     7
100
AcDbCircle
 10
330.2972043857687
 20
-1583.443563627097
 30
0.0
 40
5.0
100
AcDbArc
 50
93.00000000000036
 51
178.3185364728225
  0
ARC
  5
1E6
330
1F
100
AcDbEntity
  8
1
  6
Continuous
 62
     7
100
AcDbCircle
 10
313.9704022601351
 20
-1645.461095065134
 30
0.0
 40
9.5
100
AcDbArc
 50
270.0
 51
358.3185364728253
  0
LINE
  5
1E7
330
1F
100
AcDbEntity
  8
1
  6
Continuous
 62
     7
100
AcDbLine
 10
363.7147915686471
 20
-1572.179184806865
 30
0.0
 11
326.5513959891361
 21
-1572.179184806865
 31
0.0
  0
POINT
  5
1E8
330
1F
100
AcDbEntity
  8
1
  6
Continuous
 62
     7
100
AcDbPoint
 10
321.4824516467924
 20
-1559.961095065135
 30
0.0
  0
LINE
  5
1E9
330
1F
100
AcDbEntity
  8
1
  6
Continuous
 62
     7
100
AcDbLine
 10
372.29892343763
 20
-1567.223133961549
 30
0.0
 11
331.6663358017261
 21
-1567.223133961549
 31
0.0
  0
ARC
  5
1EA
330
1F
100
AcDbEntity
  8
1
  6
Continuous
 62
     7
100
AcDbCircle
 10
327.6330450298353
 20
-1573.068776669619
 30
0.0
 40
1.0
100
AcDbArc
 50
185.0000000000005
 51
273.0000000000061
  0
POINT
  5
1EB
330
1F
100
AcDbEntity
  8
1
  6
Continuous
 62
     7
100
AcDbPoint
 10
325.4824516467922
 20
-1559.961095065134
 30
0.0
  0
HATCH
  5
1EC
330
1F
100
AcDbEntity
  8
1
  6
Continuous
 62
     7
100
AcDbHatch
 10
0.0
 20
0.0
 30
0.0
210
0.0
220
0.0
230
1.0
  2
_U
 70
     0
 71
     0
 91
        2
 92
        0
 93
       34
 72
     1
 10
330.0355246045539
 20
-1578.450415953324
 11
365.0291771994209
 21
-1576.616476331825
 72
     1
 10
365.0291771994209
 20
-1576.616476331825
 11
371.3604832743669
 21
-1572.961095065134
 72
     1
 10
371.3604832743669
 20
-1572.961095065134
 11
375.8576602824552
 21
-1572.961095065134
 72
     2
 10
375.8576602824552
 20
-1571.961095065134
 40
1.0
 50
270.0
 51
354.9999999999994
 73
     1
 72
     1
 10
376.8538549805471
 20
-1572.048250807881
 11
377.2989234376282
 21
-1566.961095065134
 72
     1
 10
377.2989234376302
 20
-1566.961095065134
 11
372.29892343763
 21
-1567.223133961549
 72
     1
 10
372.29892343763
 20
-1567.223133961549
 11
363.7147915686471
 21
-1572.179184806865
 72
     1
 10
363.7147915686471
 20
-1572.179184806865
 11
327.6853809860783
 21
-1574.067406204374
 72
     2
 10
327.6330450298353
 20
-1573.068776669619
 40
1.0
 50
86.9999999999939
 51
174.9999999999994
 73
     0
 72
     1
 10
326.6368503317437
 20
-1573.155932412367
 11
326.1815694521502
 21
-1567.952048146166
 72
     1
 10
326.1815694521501
 20
-1567.952048146166
 11
321.2351694925496
 21
-1568.384802067896
 72
     1
 10
321.2351694925496
 20
-1568.384802067896
 11
318.9674336987034
 21
-1645.635592548646
 72
     2
 10
313.9704795636077
 20
-1645.461095065134
 40
5.0
 50
1.999999999998382
 51
90.0
 73
     0
 72
     1
 10
313.9704795636077
 20
-1650.461095065134
 11
299.2226134811835
 21
-1650.461095065134
 72
     2
 10
299.2226134811835
 20
-1645.461095065134
 40
5.0
 50
90.0
 51
178.0000000000015
 73
     0
 72
     1
 10
294.2256593460881
 20
-1645.635592548646
 11
292.3326254898552
 21
-1591.426195568431
 72
     2
 10
291.333234662836
 20
-1591.461095065133
 40
1.0
 50
2.000000000003499
 51
90.0
 73
     1
 72
     1
 10
291.333234662836
 20
-1590.461095065134
 11
289.2646122124503
 21
-1590.461095065134
 72
     2
 10
289.2646122124503
 20
-1591.461095065134
 40
1.0
 50
90.0
 51
177.9999999999965
 73
     1
 72
     1
 10
288.2652213854312
 20
-1591.426195568431
 11
286.1705845745661
 21
-1651.40874582008
 72
     2
 10
287.6696708150948
 20
-1651.461095065134
 40
1.5
 50
177.9999999999964
 51
270.0
 73
     1
 72
     1
 10
287.6696708150948
 20
-1652.961095065134
 11
287.7989234376432
 21
-1652.961095065134
 72
     2
 10
287.7989234376432
 20
-1655.461095065134
 40
2.5
 50
270.0
 51
360.0
 73
     0
 72
     1
 10
290.2989234376432
 20
-1655.461095065134
 11
290.2989234376432
 21
-1657.461095065134
 72
     2
 10
285.7989234376434
 20
-1657.461095065134
 40
4.5
 50
0.0
 51
41.81450313445117
 73
     0
 72
     1
 10
289.1528060992679
 20
-1660.461340237124
 11
289.6059234376432
 21
-1674.961095065134
 72
     1
 10
289.6059234376432
 20
-1674.961095065134
 11
298.6348192730013
 21
-1674.961095065134
 72
     2
 10
298.6348192730013
 20
-1673.961095065134
 40
1.0
 50
270.0
 51
357.9999999999965
 73
     1
 72
     1
 10
299.6342101000202
 20
-1673.995994561836
 11
300.2652213854312
 21
-1655.926195568431
 72
     2
 10
301.2646122124503
 20
-1655.961095065134
 40
1.0
 50
182.0000000000035
 51
270.0
 73
     0
 72
     1
 10
301.2646122124503
 20
-1654.961095065134
 11
313.9704022601351
 21
-1654.961095065134
 72
     2
 10
313.9704022601351
 20
-1645.461095065134
 40
9.5
 50
270.0
 51
358.3185364728253
 73
     1
 72
     1
 10
323.4663116124399
 20
-1645.739852258417
 11
325.2993573582398
 21
-1583.296849314843
 72
     2
 10
330.2972043857687
 20
-1583.443563627097
 40
5.0
 50
181.6814635271775
 51
266.9999999999997
 73
     0
 97
        0
 92
        0
 93
        6
 72
     2
 10
324.566120472775
 20
-1560.961095065135
 40
1.0
 50
5.000000000000595
 51
90.0
 73
     1
 72
     1
 10
324.566120472775
 20
-1559.961095065134
 11
322.4535114633147
 21
-1559.961095065134
 72
     2
 10
322.4535114633147
 20
-1560.961095065133
 40
1.0
 50
90.0
 51
177.9999999999961
 73
     1
 72
     1
 10
321.4541206362957
 20
-1560.926195568431
 11
321.3828870517743
 21
-1563.352779268344
 72
     1
 10
321.3828870517743
 20
-1563.352779268344
 11
325.7457907384118
 21
-1562.971074655707
 72
     1
 10
325.7457907384118
 20
-1562.971074655707
 11
325.5623151708666
 21
-1560.873939322387
 97
        0
 75
     0
 76
     0
 52
45.00000000014619
 41
3.0
 77
     0
 78
     1
 53
45.00000000014619
 43
0.0
 44
0.0
 45
-2.121320343565055
 46
2.12132034355423
 79
     0
 98
        1
 10
0.0
 20
0.0
  0
LINE
  5
1ED
330
1F
100
AcDbEntity
  8
6
  6
Continuous
 62
     7
100
AcDbLine
 10
327.7654999920573
 20
-1562.794372992395
 30
0.0
 11
318.2349053154135
 21
-1563.628191983262
 31
0.0
  0
LINE
  5
1EE
330
1F
100
AcDbEntity
  8
6
  6
Continuous
 62
     7
100
AcDbLine
 10
328.2012787057956
 20
-1567.775346482854
 30
0.0
 11
318.6706840291518
 21
-1568.60916547372
 31
0.0
  0
LINE
  5
1EF
330
1F
100
AcDbEntity
  8
6
  6
Continuous
 62
     7
100
AcDbLine
 10
318.2349053154135
 20
-1563.628191983262
 30
0.0
 11
317.8412914477496
 21
-1564.097282724145
 31
0.0
  0
LINE
  5
1F0
330
1F
100
AcDbEntity
  8
6
  6
Continuous
 62
     7
100
AcDbLine
 10
318.6706840291518
 20
-1568.60916547372
 30
0.0
 11
318.2015932882684
 21
-1568.215551606056
 31
0.0
  0
LINE
  5
1F1
330
1F
100
AcDbEntity
  8
6
  6
Continuous
 62
     7
100
AcDbLine
 10
317.8412914477496
 20
-1564.097282724145
 30
0.0
 11
318.2015932882684
 21
-1568.215551606056
 31
0.0
  0
LINE
  5
1F2
330
1F
100
AcDbEntity
  8
6
  6
Continuous
 62
     7
100
AcDbLine
 10
318.2349053154135
 20
-1563.628191983262
 30
0.0
 11
318.6706840291518
 21
-1568.60916547372
 31
0.0
  0
LINE
  5
1F3
330
1F
100
AcDbEntity
  8
6
  6
Continuous
 62
     7
100
AcDbLine
 10
327.803238428667
 20
-1563.225725296669
 30
0.0
 11
317.8412914477496
 21
-1564.097282724145
 31
0.0
  0
LINE
  5
1F4
330
1F
100
AcDbEntity
  8
6
  6
Continuous
 62
     7
100
AcDbLine
 10
328.1635402691858
 20
-1567.34399417858
 30
0.0
 11
318.2015932882684
 21
-1568.215551606056
 31
0.0
  0
LINE
  5
1F5
330
1F
100
AcDbEntity
  8
1
  6
Continuous
 62
     7
100
AcDbLine
 10
327.5808342166321
 20
-1560.683633520756
 30
0.0
 11
328.3859444812207
 21
-1569.886085954493
 31
0.0
  0
LINE
  5
1F6
330
1F
100
AcDbEntity
  8
1
  6
Continuous
 62
     7
100
AcDbLine
 10
327.5808342166321
 20
-1560.683633520756
 30
0.0
 11
330.5694183109075
 21
-1560.422166292513
 31
0.0
  0
LINE
  5
1F7
330
1F
100
AcDbEntity
  8
1
  6
Continuous
 62
     7
100
AcDbLine
 10
331.1681544430268
 20
-1561.528894975356
 30
0.0
 11
331.4700707922476
 21
-1564.979814638007
 31
0.0
  0
LINE
  5
1F8
330
1F
100
AcDbEntity
  8
1
  6
Continuous
 62
     7
100
AcDbLine
 10
328.3859444812207
 20
-1569.886085954493
 30
0.0
 11
331.374528575496
 21
-1569.62461872625
 31
0.0
  0
LINE
  5
1F9
330
1F
100
AcDbEntity
  8
1
  6
Continuous
 62
     7
100
AcDbLine
 10
331.7719871414683
 20
-1568.430734300659
 30
0.0
 11
331.4700707922476
 21
-1564.979814638007
 31
0.0
  0
ARC
  5
1FA
330
1F
100
AcDbEntity
  8
1
  6
Continuous
 62
     7
100
AcDbCircle
 10
330.194678869489
 20
-1568.568730893343
 30
0.0
 40
1.583333333333975
100
AcDbArc
 50
318.1735511072774
 51
51.82644889273924
  0
ARC
  5
1FB
330
1F
100
AcDbEntity
  8
1
  6
Continuous
 62
     7
100
AcDbCircle
 10
325.907983727905
 20
-1565.466434201682
 30
0.0
 40
5.583333333330427
100
AcDbArc
 50
340.5673023205371
 51
29.43269767946265
  0
ARC
  5
1FC
330
1F
100
AcDbEntity
  8
1
  6
Continuous
 62
     7
100
AcDbCircle
 10
329.5908461710476
 20
-1561.66689156804
 30
0.0
 40
1.583333333333975
100
AcDbArc
 50
318.1735511072652
 51
51.82644889272908
  0
LINE
  5
1FD
330
1F
100
AcDbEntity
  8
1
  6
Continuous
 62
     7
100
AcDbLine
 10
331.1732510093488
 20
-1567.324005617815
 30
0.0
 11
328.1846669150718
 21
-1567.585472846058
 31
0.0
  0
LINE
  5
1FE
330
1F
100
AcDbEntity
  8
1
  6
Continuous
 62
     7
100
AcDbLine
 10
327.7821117827794
 20
-1562.98424662919
 30
0.0
 11
330.7706958770546
 21
-1562.722779400948
 31
0.0
  0
DIMENSION
  5
20D
330
1F
100
AcDbEntity
  8
1
  6
ByBlock
 62
     3
100
AcDbDimension
  2
_D1
 10
289.6059234376432
 20
-1692.89934648783
 30
0.0
 11
259.7989234376433
 21
-1688.89934648783
 31
0.0
 70
   160
  1
Ｒｃ２
 71
     5
 42
-1.0
 52
90.0
  3
DIMSTYEX_1
100
AcDbAlignedDimension
 13
229.9919234376434
 23
-1674.961095065133
 33
0.0
 14
289.6059234376432
 24
-1674.961095065134
 34
0.0
100
AcDbRotatedDimension
1001
ACAD
1000
DSTYLE
1002
{
1070
   343
1005
88
1070
   344
1005
88
1070
    43
1040
2.969960569123145
1070
   173
1070
     1
1070
   272
1070
     3
1070
   340
1005
83
1070
   140
1040
3.584
1002
}
  0
DIMENSION
  5
21B
330
1F
100
AcDbEntity
  8
1
  6
ByBlock
 62
     3
100
AcDbDimension
  2
_D2
 10
249.3931483563052
 20
-1590.461095065133
 30
0.0
 11
245.3931483563052
 21
-1615.461095065133
 31
0.0
 70
   160
 71
     5
 42
-1.0
 52
90.0
  3
DIMSTYEX_2
100
AcDbAlignedDimension
 13
225.552884963056
 23
-1640.461095065133
 33
0.0
 14
235.6586566629658
 24
-1590.461095065133
 34
0.0
 50
90.0
100
AcDbRotatedDimension
1001
ACAD
1000
DSTYLE
1002
{
1070
   343
1005
88
1070
   344
1005
88
1070
    43
1040
0.0
1070
   173
1070
     1
1070
   272
1070
     3
1070
   340
1005
83
1070
   140
1040
3.584
1002
}
  0
DIMENSION
  5
229
330
1F
100
AcDbEntity
  8
1
  6
ByBlock
 62
     3
100
AcDbDimension
  2
_D3
 10
116.424076169718
 20
-1566.961095065132
 30
0.0
 11
112.424076169718
 21
-1620.961095065133
 31
0.0
 70
   160
 71
     5
 42
-1.0
 52
90.0
  3
DIMSTYEX_3
100
AcDbAlignedDimension
 13
220.9630276022854
 23
-1674.961095065133
 33
0.0
 14
142.2989234376392
 24
-1566.961095065132
 34
0.0
 50
90.0
100
AcDbRotatedDimension
1001
ACAD
1000
DSTYLE
1002
{
1070
   343
1005
88
1070
   344
1005
88
1070
    43
1040
8.125952544037972
1070
   173
1070
     1
1070
   272
1070
     3
1070
   340
1005
83
1070
   140
1040
3.584
1002
}
  0
DIMENSION
  5
237
330
1F
100
AcDbEntity
  8
1
  6
ByBlock
 62
     3
100
AcDbDimension
  2
_D4
 10
377.2989234376476
 20
-1432.184875697044
 30
0.0
 11
259.7989234376434
 21
-1428.184875697044
 31
0.0
 70
   160
  1
φ<>
 71
     5
 42
-1.0
 52
90.0
  3
DIMSTYEX_4
100
AcDbAlignedDimension
 13
142.2989234376392
 23
-1566.961095065132
 33
0.0
 14
377.2989234376476
 24
-1566.961095065133
 34
0.0
100
AcDbRotatedDimension
1001
ACAD
1000
DSTYLE
1002
{
1070
   343
1005
88
1070
   344
1005
88
1070
    43
1040
35.94648480651438
1070
   173
1070
     1
1070
   272
1070
     3
1070
   340
1005
83
1070
   140
1040
3.584
1002
}
  0
INSERT
  5
23F
330
1F
100
AcDbEntity
  8
1
  6
ByBlock
 62
     3
100
AcDbBlockReference
  2
BALN0
 10
320.5886273493796
 20
-1652.276452478219
 30
0.0
  0
INSERT
  5
247
330
1F
100
AcDbEntity
  8
1
  6
ByBlock
 62
     3
100
AcDbBlockReference
  2
BALN1
 10
305.0681953777909
 20
-1633.853907903728
 30
0.0
  0
INSERT
  5
24F
330
1F
100
AcDbEntity
  8
1
  6
ByBlock
 62
     3
100
AcDbBlockReference
  2
BALN2
 10
331.1681544430268
 20
-1561.528894975356
 30
0.0
  0
CIRCLE
  5
250
330
1F
100
AcDbEntity
  8
1
  6
Continuous
 62
     7
100
AcDbCircle
 10
259.7989234376434
 20
-1253.505601033917
 30
0.0
 40
117.5000000000001
  0
CIRCLE
  5
251
330
1F
100
AcDbEntity
  8
1
  6
Continuous
 62
     7
100
AcDbCircle
 10
259.7989234376434
 20
-1253.505601033917
 30
0.0
 40
112.4999999999866
  0
CIRCLE
  5
252
330
1F
100
AcDbEntity
  8
1
  6
Continuous
 62
     7
100
AcDbCircle
 10
259.7989234376434
 20
-1253.505601033917
 30
0.0
 40
103.9158681310037
  0
LINE
  5
253
330
1F
100
AcDbEntity
  8
1
  6
CENTER2
 62
     7
100
AcDbLine
 10
259.7989234376434
 20
-1383.505601033917
 30
0.0
 11
259.7989234376434
 21
-1123.505601033917
 31
0.0
  0
LINE
  5
254
330
1F
100
AcDbEntity
  8
1
  6
CENTER2
 62
     7
100
AcDbLine
 10
389.7989234376441
 20
-1253.505601033917
 30
0.0
 11
129.7989234376437
 21
-1253.505601033917
 31
0.0
  0
INSERT
  5
265
330
1F
100
AcDbEntity
  8
1
  6
Continuous
 62
     7
100
AcDbBlockReference
  2
BLK1
 10
259.7989234376433
 20
-1606.961095065133
 30
0.0
  0
MTEXT
  5
266
102
{ACAD_REACTORS
330
268
102
}
330
1F
100
AcDbEntity
  8
1
  6
Continuous
 62
     2
100
AcDbMText
 10
339.5489234376435
 20
-1615.280894058538
 30
0.0
 40
8.0
 41
0.0
 71
     7
 72
     5
  1
{\fＭＳ ゴシック|b0|i0|c128|p49;\W1.0;調節管（別途価格）\PYDG-100A MIN＝82ｍｍ}
  7
MTSTANDARD
 73
     1
 44
0.9375
  0
LEADER
  5
268
330
1F
100
AcDbEntity
  8
1
  6
Continuous
 62
     7
100
AcDbLeader
  3
DIMSTYEX_8
 73
     0
 74
     0
 76
     3
 10
316.7989234376433
 20
-1583.861095065108
 30
0.0
 10
339.5489234376435
 20
-1603.280894058538
 30
0.0
 10
340.5489234376435
 20
-1603.280894058538
 30
0.0
340
266
1001
ACAD
1000
DSTYLE
1002
{
1070
   176
1070
     0
1002
}
  0
DIMENSION
  5
276
330
1F
100
AcDbEntity
  8
1
  6
ByBlock
 62
     3
100
AcDbDimension
  2
_D5
 10
116.4240761697179
 20
-1498.961095065089
 30
0.0
 11
104.4240761697179
 21
-1532.961095065111
 31
0.0
 70
   160
  1
ＹＤＧ　Ｌ＝８２ｍｍの時\P（７０～１０２）
 71
     5
 42
-1.0
 52
90.0
  3
DIMSTYEX_9
100
AcDbAlignedDimension
 13
142.2989234376392
 23
-1566.961095065132
 33
0.0
 14
165.7989234376359
 24
-1498.961095065089
 34
0.0
 50
90.0
100
AcDbRotatedDimension
1001
ACAD
1000
DSTYLE
1002
{
1070
   343
1005
88
1070
   344
1005
88
1070
    43
1040
0.0
1070
   147
1040
1.0
1070
   173
1070
     1
1070
   272
1070
     3
1070
   340
1005
83
1070
   140
1040
3.584
1002
}
  0
INSERT
  5
2CE
330
1F
100
AcDbEntity
  8
1
  6
Continuous
 62
     7
100
AcDbBlockReference
  2
BLK2
 10
259.7989234376434
 20
-1253.505601033917
 30
0.0
  0
LINE
  5
2CF
330
1F
100
AcDbEntity
  8
1
  6
Continuous
 62
     7
100
AcDbLine
 10
259.7989234376432
 20
-1498.961095065136
 30
0.0
 11
165.7989234376432
 21
-1498.961095065132
 31
0.0
  0
LINE
  5
2D0
330
1F
100
AcDbEntity
  8
1
  6
Continuous
 62
     7
100
AcDbLine
 10
165.7989234376429
 20
-1498.961095065132
 30
0.0
 11
166.7989234376432
 21
-1504.961095065132
 31
0.0
  0
LINE
  5
2D1
330
1F
100
AcDbEntity
  8
1
  6
Continuous
 62
     7
100
AcDbLine
 10
166.7989234376432
 20
-1504.961095065132
 30
0.0
 11
175.7989234376429
 21
-1504.961095065132
 31
0.0
  0
LINE
  5
2D2
330
1F
100
AcDbEntity
  8
1
  6
Continuous
 62
     7
100
AcDbLine
 10
175.7989234376429
 20
-1504.961095065132
 30
0.0
 11
184.2989234376429
 21
-1510.961095065132
 31
0.0
  0
LINE
  5
2D3
330
1F
100
AcDbEntity
  8
1
  6
Continuous
 62
     7
100
AcDbLine
 10
184.2989234376429
 20
-1510.961095065132
 30
0.0
 11
190.7989234376429
 21
-1510.961095065132
 31
0.0
  0
LINE
  5
2D4
330
1F
100
AcDbEntity
  8
1
  6
Continuous
 62
     7
100
AcDbLine
 10
190.7989234376429
 20
-1510.961095065132
 30
0.0
 11
190.7989234376429
 21
-1522.961095065132
 31
0.0
  0
LINE
  5
2D5
330
1F
100
AcDbEntity
  8
1
  6
Continuous
 62
     7
100
AcDbLine
 10
193.7989234376432
 20
-1525.961095065132
 30
0.0
 11
194.6919247333068
 21
-1550.072130048055
 31
0.0
  0
LINE
  5
2D6
330
1F
100
AcDbEntity
  8
1
  6
Continuous
 62
     7
100
AcDbLine
 10
195.6884979625397
 20
-1552.961095065132
 30
0.0
 11
204.7629234376431
 21
-1552.961095065132
 31
0.0
  0
LINE
  5
2D7
330
1F
100
AcDbEntity
  8
1
  6
Continuous
 62
     7
100
AcDbLine
 10
174.7989234376432
 20
-1498.961095065089
 30
0.0
 11
184.7989234376432
 21
-1504.961095065089
 31
0.0
  0
LINE
  5
2D8
330
1F
100
AcDbEntity
  8
1
  6
Continuous
 62
     7
100
AcDbLine
 10
184.7989234376432
 20
-1504.961095065089
 30
0.0
 11
198.2989234376434
 21
-1504.961095065089
 31
0.0
  0
LINE
  5
2D9
330
1F
100
AcDbEntity
  8
1
  6
Continuous
 62
     7
100
AcDbLine
 10
191.7682272958568
 20
-1525.169323581327
 30
0.0
 11
192.6905534612392
 21
-1550.072130046661
 31
0.0
  0
LINE
  5
2DA
330
1F
100
AcDbEntity
  8
1
  6
Continuous
 62
     7
100
AcDbLine
 10
203.9714234376431
 20
-1530.961095065132
 30
0.0
 11
203.2839234376431
 21
-1552.961095065132
 31
0.0
  0
LINE
  5
2DB
330
1F
100
AcDbEntity
  8
1
  6
Continuous
 62
     7
100
AcDbLine
 10
205.4504234376431
 20
-1530.961095065132
 30
0.0
 11
204.7629234376431
 21
-1552.961095065132
 31
0.0
  0
LINE
  5
2DC
330
1F
100
AcDbEntity
  8
1
  6
Continuous
 62
     7
100
AcDbLine
 10
199.2989234376618
 20
-1519.961095065184
 30
0.0
 11
259.7989234376432
 21
-1519.96109506474
 31
0.0
  0
LINE
  5
2DD
330
1F
100
AcDbEntity
  8
1
  6
Continuous
 62
     7
100
AcDbLine
 10
204.7989234376432
 20
-1519.961095065132
 30
0.0
 11
204.7989234376432
 21
-1524.961095065132
 31
0.0
  0
LINE
  5
2DE
330
1F
100
AcDbEntity
  8
1
  6
Continuous
 62
     7
100
AcDbLine
 10
259.7989234376432
 20
-1524.961095065132
 30
0.0
 11
203.2989234376429
 21
-1524.961095065132
 31
0.0
  0
LINE
  5
2DF
330
1F
100
AcDbEntity
  8
1
  6
Continuous
 62
     7
100
AcDbLine
 10
203.2989234376429
 20
-1524.961095065132
 30
0.0
 11
203.2989234376429
 21
-1530.961095065132
 31
0.0
  0
LINE
  5
2E0
330
1F
100
AcDbEntity
  8
1
  6
Continuous
 62
     7
100
AcDbLine
 10
203.2989234376429
 20
-1530.961095065132
 30
0.0
 11
205.4504234376431
 21
-1530.961095065132
 31
0.0
  0
LINE
  5
2E1
330
1F
100
AcDbEntity
  8
1
  6
Continuous
 62
     7
100
AcDbLine
 10
198.2989234376434
 20
-1504.961095065089
 30
0.0
 11
198.2989234376434
 21
-1519.752382912536
 31
0.0
  0
LINE
  5
2E2
330
1F
100
AcDbEntity
  8
1
  6
Continuous
 62
     7
100
AcDbLine
 10
196.7989234376432
 20
-1517.461095065058
 30
0.0
 11
196.7989234376432
 21
-1504.961095065088
 31
0.0
  0
ARC
  5
2E3
330
1F
100
AcDbEntity
  8
1
  6
Continuous
 62
     7
100
AcDbCircle
 10
193.7989234376429
 20
-1522.961095065132
 30
0.0
 40
3.0
100
AcDbArc
 50
180.0
 51
270.0
  0
ARC
  5
2E4
330
1F
100
AcDbEntity
  8
1
  6
Continuous
 62
     7
100
AcDbCircle
 10
197.689869234525
 20
-1549.961095066528
 30
0.0
 40
3.0
100
AcDbArc
 50
182.1210963966634
 51
270.0
  0
ARC
  5
2E5
330
1F
100
AcDbEntity
  8
1
  6
Continuous
 62
     7
100
AcDbCircle
 10
195.6884979625397
 20
-1549.961095065132
 30
0.0
 40
3.0
100
AcDbArc
 50
182.1210963966616
 51
270.0
  0
LINE
  5
2E6
330
1F
100
AcDbEntity
  8
1
  6
Continuous
 62
     7
100
AcDbLine
 10
184.7989234376432
 20
-1504.961095065089
 30
0.0
 11
197.2989234376432
 21
-1504.961095065089
 31
0.0
  0
LINE
  5
2E7
330
1F
100
AcDbEntity
  8
1
  6
Continuous
 62
     7
100
AcDbLine
 10
197.2989234376432
 20
-1504.961095065089
 30
0.0
 11
197.2989234376432
 21
-1504.461095065088
 31
0.0
  0
LINE
  5
2E8
330
1F
100
AcDbEntity
  8
1
  6
Continuous
 62
     7
100
AcDbLine
 10
197.2989234376432
 20
-1504.461095065088
 30
0.0
 11
184.7989234376432
 21
-1504.461095065088
 31
0.0
  0
LINE
  5
2E9
330
1F
100
AcDbEntity
  8
1
  6
Continuous
 62
     7
100
AcDbLine
 10
184.7989234376432
 20
-1504.461095065088
 30
0.0
 11
184.7989234376432
 21
-1504.961095065089
 31
0.0
  0
HATCH
  5
2EA
330
1F
100
AcDbEntity
  8
2
  6
Continuous
 62
     7
100
AcDbHatch
 10
0.0
 20
0.0
 30
0.0
210
0.0
220
0.0
230
1.0
  2
_U
 70
     0
 71
     0
 91
        5
 92
        0
 93
        8
 72
     1
 10
198.2989234376434
 20
-1504.961095065089
 11
196.7989234376432
 21
-1504.961095065088
 72
     1
 10
196.7989234376432
 20
-1504.961095065088
 11
196.7989234376432
 21
-1516.961095066586
 72
     2
 10
199.7989234376432
 20
-1516.961095066586
 40
3.0
 50
180.0
 51
239.9999999999999
 73
     1
 72
     1
 10
198.2989234376434
 20
-1519.559171277939
 11
198.2989234376434
 21
-1516.961095065136
 72
     1
 10
198.2989234376434
 20
-1516.961095065136
 11
197.3989234376431
 21
-1516.961095065136
 72
     1
 10
197.3989234376431
 20
-1516.961095065136
 11
197.3989234376431
 21
-1507.961095065136
 72
     1
 10
197.3989234376431
 20
-1507.961095065136
 11
198.2989234376434
 21
-1507.961095065136
 72
     1
 10
198.2989234376434
 20
-1507.961095065136
 11
198.2989234376434
 21
-1504.961095065089
 97
        0
 92
        0
 93
        4
 72
     1
 10
198.2989234376434
 20
-1507.961095065136
 11
197.3989234376431
 21
-1507.961095065136
 72
     1
 10
197.3989234376431
 20
-1507.961095065136
 11
197.3989234376431
 21
-1516.961095065136
 72
     1
 10
197.3989234376431
 20
-1516.961095065136
 11
198.2989234376434
 21
-1516.961095065136
 72
     1
 10
198.2989234376434
 20
-1516.961095065136
 11
198.2989234376434
 21
-1507.961095065136
 97
        0
 92
        0
 93
        4
 72
     1
 10
205.4504234376429
 20
-1530.961095065132
 11
203.9714234376431
 21
-1530.961095065132
 72
     1
 10
203.9714234376431
 20
-1530.961095065132
 11
203.2839234376431
 21
-1552.961095065132
 72
     1
 10
203.2839234376431
 20
-1552.961095065132
 11
204.7629234376431
 21
-1552.961095065132
 72
     1
 10
204.7629234376431
 20
-1552.961095065132
 11
205.4504234376431
 21
-1530.961095065132
 97
        0
 92
        0
 93
        7
 72
     1
 10
203.9714234376431
 20
-1530.961095065132
 11
203.2989234376429
 21
-1530.961095065132
 72
     1
 10
203.2989234376429
 20
-1530.961095065132
 11
203.2989234376429
 21
-1525.961095065132
 72
     1
 10
203.2989234376429
 20
-1525.961095065132
 11
193.7989234376429
 21
-1525.961095065132
 72
     1
 10
193.7989234376432
 20
-1525.961095065132
 11
194.6919247333068
 21
-1550.072130048055
 72
     2
 10
197.689869234525
 20
-1549.961095066528
 40
3.0
 50
182.1210963966634
 51
270.0
 73
     1
 72
     1
 10
197.689869234525
 20
-1552.961095065132
 11
203.2839234376431
 21
-1552.961095065132
 72
     1
 10
203.2839234376431
 20
-1552.961095065132
 11
203.9714234376431
 21
-1530.961095065132
 97
        0
 92
        0
 93
       17
 72
     1
 10
165.7989234376432
 20
-1498.961095065132
 11
174.7989234376432
 21
-1498.961095065132
 72
     1
 10
174.7989234376432
 20
-1498.961095065089
 11
184.7989234376432
 21
-1504.961095065089
 72
     1
 10
184.7989234376432
 20
-1504.961095065089
 11
196.7989234376432
 21
-1504.961095065089
 72
     1
 10
196.7989234376432
 20
-1504.961095065088
 11
196.7989234376432
 21
-1516.961095066586
 72
     2
 10
199.7989234376432
 20
-1516.961095066586
 40
3.0
 50
180.0
 51
239.9999999999999
 73
     1
 72
     2
 10
199.7989234376432
 20
-1516.961095066586
 40
3.0
 50
239.9999999999999
 51
270.0000000003778
 73
     1
 72
     1
 10
199.7989234376629
 20
-1519.961095065184
 11
204.7989234376432
 21
-1519.961095065132
 72
     1
 10
204.7989234376432
 20
-1519.961095065132
 11
204.7989234376432
 21
-1524.961095065132
 72
     1
 10
204.7989234376432
 20
-1524.961095065132
 11
203.2989234376429
 21
-1524.961095065132
 72
     1
 10
203.2989234376429
 20
-1524.961095065132
 11
203.2989234376429
 21
-1525.961095065132
 72
     1
 10
203.2989234376429
 20
-1525.961095065132
 11
193.7989234376429
 21
-1525.961095065132
 72
     2
 10
193.7989234376429
 20
-1522.961095065132
 40
3.0
 50
90.0
 51
180.0
 73
     0
 72
     1
 10
190.7989234376429
 20
-1522.961095065132
 11
190.7989234376429
 21
-1510.961095065132
 72
     1
 10
190.7989234376429
 20
-1510.961095065132
 11
184.2989234376429
 21
-1510.961095065132
 72
     1
 10
184.2989234376429
 20
-1510.961095065132
 11
175.7989234376429
 21
-1504.961095065132
 72
     1
 10
175.7989234376429
 20
-1504.961095065132
 11
166.7989234376432
 21
-1504.961095065132
 72
     1
 10
166.7989234376432
 20
-1504.961095065132
 11
165.7989234376429
 21
-1498.961095065132
 97
        0
 75
     0
 76
     0
 52
45.00000000014619
 41
3.0
 77
     0
 78
     1
 53
45.00000000014619
 43
0.0
 44
0.0
 45
-2.121320343565055
 46
2.12132034355423
 79
     0
 98
        1
 10
0.0
 20
0.0
  0
LINE
  5
2EB
330
1F
100
AcDbEntity
  8
1
  6
Continuous
 62
     7
100
AcDbLine
 10
259.7989234376439
 20
-1498.961095065136
 30
0.0
 11
353.7989234376439
 21
-1498.961095065138
 31
0.0
  0
LINE
  5
2EC
330
1F
100
AcDbEntity
  8
1
  6
Continuous
 62
     7
100
AcDbLine
 10
353.7989234376443
 20
-1498.961095065138
 30
0.0
 11
352.7989234376434
 21
-1504.961095065138
 31
0.0
  0
LINE
  5
2ED
330
1F
100
AcDbEntity
  8
1
  6
Continuous
 62
     7
100
AcDbLine
 10
352.7989234376434
 20
-1504.961095065138
 30
0.0
 11
259.7989234376432
 21
-1504.961095065069
 31
0.0
  0
LINE
  5
2EE
330
1F
100
AcDbEntity
  8
1
  6
Continuous
 62
     7
100
AcDbLine
 10
343.7989234376439
 20
-1504.961095065137
 30
0.0
 11
335.2989234376434
 21
-1510.961095065137
 31
0.0
  0
LINE
  5
2EF
330
1F
100
AcDbEntity
  8
1
  6
Continuous
 62
     7
100
AcDbLine
 10
335.2989234376434
 20
-1510.961095065137
 30
0.0
 11
259.7989234376432
 21
-1510.961095065056
 31
0.0
  0
LINE
  5
2F0
330
1F
100
AcDbEntity
  8
1
  6
Continuous
 62
     7
100
AcDbLine
 10
328.7989234376434
 20
-1510.961095065136
 30
0.0
 11
328.7989234376425
 21
-1522.961095065136
 31
0.0
  0
LINE
  5
2F1
330
1F
100
AcDbEntity
  8
1
  6
Continuous
 62
     7
100
AcDbLine
 10
325.7989234376425
 20
-1525.961095065136
 30
0.0
 11
259.7989234376432
 21
-1525.961095065041
 31
0.0
  0
LINE
  5
2F2
330
1F
100
AcDbEntity
  8
1
  6
Continuous
 62
     7
100
AcDbLine
 10
325.7989234376425
 20
-1525.961095065136
 30
0.0
 11
324.9059221419772
 21
-1550.072130048059
 31
0.0
  0
LINE
  5
2F3
330
1F
100
AcDbEntity
  8
1
  6
Continuous
 62
     7
100
AcDbLine
 10
321.9079776407586
 20
-1552.961095065136
 30
0.0
 11
259.7989234376404
 21
-1552.961095065132
 31
0.0
  0
ARC
  5
2F4
330
1F
100
AcDbEntity
  8
1
  6
Continuous
 62
     7
100
AcDbCircle
 10
325.7989234376425
 20
-1522.961095065136
 30
0.0
 40
3.0
100
AcDbArc
 50
270.0
 51
0.0
  0
ARC
  5
2F5
330
1F
100
AcDbEntity
  8
1
  6
Continuous
 62
     7
100
AcDbCircle
 10
321.907977640759
 20
-1549.961095066532
 30
0.0
 40
3.0
100
AcDbArc
 50
269.9999999999913
 51
357.8789036033323
  0
DIMENSION
  5
301
330
1F
100
AcDbEntity
  8
1
  6
ByBlock
 62
     3
100
AcDbDimension
  2
_D6
 10
175.798923437642
 20
-1458.737629671317
 30
0.0
 11
259.7989234376432
 21
-1454.737629671317
 31
0.0
 70
   160
  1
φ<>
 71
     5
 42
-1.0
 52
90.0
  3
DIMSTYEX_10
100
AcDbAlignedDimension
 13
343.7989234376443
 23
-1498.961095065136
 33
0.0
 14
175.798923437642
 24
-1498.961095065132
 34
0.0
100
AcDbRotatedDimension
1001
ACAD
1000
DSTYLE
1002
{
1070
   343
1005
AE
1070
   344
1005
88
1070
    43
1040
14.0
1070
   173
1070
     1
1070
   281
1070
     1
1070
    75
1070
     1
1070
    77
1070
     1
1070
   272
1070
     3
1070
   340
1005
83
1070
   140
1040
3.584
1002
}
  0
DIMENSION
  5
30F
330
1F
100
AcDbEntity
  8
1
  6
ByBlock
 62
     3
100
AcDbDimension
  2
_D7
 10
353.7989234376484
 20
-1444.737629671317
 30
0.0
 11
259.7989234376421
 21
-1440.737629671317
 31
0.0
 70
   160
  1
φ<>
 71
     5
 42
-1.0
 52
90.0
  3
DIMSTYEX_11
100
AcDbAlignedDimension
 13
165.7989234376359
 23
-1498.961095065089
 33
0.0
 14
353.7989234376484
 24
-1498.961095065112
 34
0.0
100
AcDbRotatedDimension
1001
ACAD
1000
DSTYLE
1002
{
1070
   343
1005
88
1070
   344
1005
88
1070
   173
1070
     1
1070
   272
1070
     3
1070
   340
1005
83
1070
   140
1040
3.584
1002
}
  0
LINE
  5
310
330
1F
100
AcDbEntity
  8
1
  6
Continuous
 62
     7
100
AcDbLine
 10
288.4209899328295
 20
-1526.897738282675
 30
0.0
 11
289.3812991441284
 21
-1552.024451847037
 31
0.0
  0
LINE
  5
311
330
1F
100
AcDbEntity
  8
1
  6
Continuous
 62
     7
100
AcDbLine
 10
290.3492965366706
 20
-1526.899713367609
 30
0.0
 11
291.2793110850634
 21
-1552.0224767621
 31
0.0
  0
LINE
  5
312
330
1F
100
AcDbEntity
  8
1
  6
Continuous
 62
     7
100
AcDbLine
 10
297.16712804962
 20
-1526.905429112335
 30
0.0
 11
296.3246350397273
 21
-1552.016761017371
 31
0.0
  0
ARC
  5
313
330
1F
100
AcDbEntity
  8
1
  6
Continuous
 62
     7
100
AcDbCircle
 10
287.4229989919001
 20
-1526.961095064656
 30
0.0
 40
1.0
100
AcDbArc
 50
3.63250917887915
 51
90.0
  0
ARC
  5
314
330
1F
100
AcDbEntity
  8
1
  6
Continuous
 62
     7
100
AcDbCircle
 10
289.351182170845
 20
-1526.961095064656
 30
0.0
 40
1.0
100
AcDbArc
 50
3.51912438543268
 51
90.0
  0
ARC
  5
315
330
1F
100
AcDbEntity
  8
1
  6
Continuous
 62
     7
100
AcDbCircle
 10
298.1655774983912
 20
-1526.961095064656
 30
0.0
 40
1.0
100
AcDbArc
 50
90.0
 51
176.8089263911323
  0
ARC
  5
316
330
1F
100
AcDbEntity
  8
1
  6
Continuous
 62
     7
100
AcDbCircle
 10
292.277425450889
 20
-1551.961095065052
 30
0.0
 40
1.0
100
AcDbArc
 50
183.5191243854327
 51
270.0
  0
ARC
  5
317
330
1F
100
AcDbEntity
  8
1
  6
Continuous
 62
     7
100
AcDbCircle
 10
290.3792900850578
 20
-1551.961095065055
 30
0.0
 40
1.0
100
AcDbArc
 50
183.6325091788921
 51
270.0
  0
ARC
  5
318
330
1F
100
AcDbEntity
  8
1
  6
Continuous
 62
     7
100
AcDbCircle
 10
295.3261855909556
 20
-1551.961095065049
 30
0.0
 40
1.0
100
AcDbArc
 50
270.0
 51
356.8089263911337
  0
LINE
  5
319
330
1F
100
AcDbEntity
  8
1
  6
Continuous
 62
     7
100
AcDbLine
 10
175.7989234376432
 20
-1498.961095065136
 30
0.0
 11
184.7989234376432
 21
-1503.961095065136
 31
0.0
  0
LINE
  5
31A
330
1F
100
AcDbEntity
  8
1
  6
Continuous
 62
     7
100
AcDbLine
 10
184.7989234376432
 20
-1503.961095065136
 30
0.0
 11
197.2989234376432
 21
-1503.961095065136
 31
0.0
  0
LINE
  5
31B
330
1F
100
AcDbEntity
  8
1
  6
Continuous
 62
     7
100
AcDbLine
 10
197.2989234376432
 20
-1503.961095065136
 30
0.0
 11
197.2989234376432
 21
-1518.961095065136
 31
0.0
  0
LINE
  5
31C
330
1F
100
AcDbEntity
  8
1
  6
Continuous
 62
     7
100
AcDbLine
 10
197.2989234376432
 20
-1518.961095065136
 30
0.0
 11
259.7989234376432
 21
-1518.961095065136
 31
0.0
  0
LINE
  5
31D
330
1F
100
AcDbEntity
  8
1
  6
Continuous
 62
     7
100
AcDbLine
 10
202.7989234376432
 20
-1498.961095065136
 30
0.0
 11
202.7989234376429
 21
-1503.961095065136
 31
0.0
  0
LINE
  5
31E
330
1F
100
AcDbEntity
  8
1
  6
Continuous
 62
     7
100
AcDbLine
 10
202.7989234376429
 20
-1503.961095065136
 30
0.0
 11
259.7989234376432
 21
-1503.961095065136
 31
0.0
  0
LINE
  5
31F
330
1F
100
AcDbEntity
  8
1
  6
Continuous
 62
     7
100
AcDbLine
 10
205.498923437643
 20
-1503.961095065136
 30
0.0
 11
205.498923437643
 21
-1511.961095065136
 31
0.0
  0
LINE
  5
320
330
1F
100
AcDbEntity
  8
1
  6
Continuous
 62
     7
100
AcDbLine
 10
205.498923437643
 20
-1511.961095065136
 30
0.0
 11
201.7989234376429
 21
-1511.961095065136
 31
0.0
  0
LINE
  5
321
330
1F
100
AcDbEntity
  8
1
  6
Continuous
 62
     7
100
AcDbLine
 10
201.7989234376429
 20
-1511.961095065136
 30
0.0
 11
201.2989234376432
 21
-1518.961095065135
 31
0.0
  0
HATCH
  5
322
330
1F
100
AcDbEntity
  8
2
  6
Continuous
 62
     7
100
AcDbHatch
 10
0.0
 20
0.0
 30
0.0
210
0.0
220
0.0
230
1.0
  2
_U
 70
     0
 71
     0
 91
        2
 92
        0
 93
       12
 72
     1
 10
205.498923437643
 20
-1503.961095065136
 11
202.7989234376429
 21
-1503.961095065136
 72
     1
 10
202.7989234376429
 20
-1503.961095065136
 11
202.7989234376432
 21
-1498.961095065136
 72
     1
 10
202.7989234376484
 20
-1498.961095065136
 11
175.7989234376432
 21
-1498.961095065136
 72
     1
 10
175.7989234376432
 20
-1498.961095065136
 11
184.7989234376432
 21
-1503.961095065136
 72
     1
 10
184.7989234376432
 20
-1503.961095065136
 11
197.2989234376432
 21
-1503.961095065136
 72
     1
 10
197.2989234376432
 20
-1503.961095065136
 11
197.2989234376432
 21
-1504.961095065135
 72
     1
 10
197.2989234376432
 20
-1504.961095065135
 11
198.2989234376434
 21
-1504.961095065136
 72
     1
 10
198.2989234376434
 20
-1504.961095065136
 11
198.2989234376434
 21
-1518.961095065135
 72
     1
 10
198.2989234376434
 20
-1518.961095065135
 11
201.2989234376432
 21
-1518.961095065135
 72
     1
 10
201.2989234376432
 20
-1518.961095065135
 11
201.7989234376429
 21
-1511.961095065136
 72
     1
 10
201.7989234376429
 20
-1511.961095065136
 11
205.498923437643
 21
-1511.961095065136
 72
     1
 10
205.498923437643
 20
-1511.961095065136
 11
205.498923437643
 21
-1503.961095065136
 97
        0
 92
        0
 93
        4
 72
     1
 10
198.2989234376434
 20
-1504.961095065136
 11
197.2989234376432
 21
-1504.961095065135
 72
     1
 10
197.2989234376432
 20
-1504.961095065135
 11
197.2989234376432
 21
-1518.961095065136
 72
     1
 10
197.2989234376432
 20
-1518.961095065136
 11
198.2989234376434
 21
-1518.961095065135
 72
     1
 10
198.2989234376434
 20
-1518.961095065135
 11
198.2989234376434
 21
-1504.961095065136
 97
        0
 75
     0
 76
     0
 52
315.0
 41
3.0
 77
     0
 78
     1
 53
315.0
 43
0.0
 44
0.0
 45
2.121320343559643
 46
2.121320343559642
 79
     0
 98
        1
 10
0.0
 20
0.0
  0
LINE
  5
323
330
1F
100
AcDbEntity
  8
1
  6
Continuous
 62
     7
100
AcDbLine
 10
203.0489234376432
 20
-1498.961095065136
 30
0.0
 11
203.0489234376432
 21
-1503.961095065136
 31
0.0
  0
LINE
  5
324
330
1F
100
AcDbEntity
  8
1
  6
Continuous
 62
     7
100
AcDbLine
 10
206.0489234376429
 20
-1502.961095065136
 30
0.0
 11
259.7989234376432
 21
-1502.961095065136
 31
0.0
  0
ARC
  5
325
330
1F
100
AcDbEntity
  8
1
  6
Continuous
 62
     7
100
AcDbCircle
 10
206.0489234376429
 20
-1503.961095064838
 30
0.0
 40
1.0
100
AcDbArc
 50
90.0
 51
180.0
  0
HATCH
  5
326
330
1F
100
AcDbEntity
  8
2
  6
Continuous
 62
     7
100
AcDbHatch
 10
0.0
 20
0.0
 30
0.0
210
0.0
220
0.0
230
1.0
  2
_U
 70
     0
 71
     0
 91
        1
 92
        0
 93
        6
 72
     1
 10
259.7989234376432
 20
-1498.961095065182
 11
203.0489234376432
 21
-1498.961095065136
 72
     1
 10
203.0489234376432
 20
-1498.961095065136
 11
203.0489234376432
 21
-1503.961095065136
 72
     1
 10
203.0489234376432
 20
-1503.961095065136
 11
205.0489234376429
 21
-1503.961095065136
 72
     2
 10
206.0489234376429
 20
-1503.961095064838
 40
1.0
 50
180.0
 51
270.0
 73
     0
 72
     1
 10
206.0489234376429
 20
-1502.961095065136
 11
259.7989234376432
 21
-1502.961095065136
 72
     1
 10
259.7989234376432
 20
-1502.961095065136
 11
259.7989234376432
 21
-1498.961095065136
 97
        0
 75
     0
 76
     0
 52
45.00000000014619
 41
3.0
 77
     0
 78
     1
 53
45.00000000014619
 43
0.0
 44
0.0
 45
-2.121320343565055
 46
2.12132034355423
 79
     0
 98
        1
 10
0.0
 20
0.0
  0
ARC
  5
327
330
1F
100
AcDbEntity
  8
1
  6
Continuous
 62
     7
100
AcDbCircle
 10
199.2989234376432
 20
-1517.461095065058
 30
0.0
 40
2.5
100
AcDbArc
 50
180.0
 51
270.0000000004273
  0
DIMENSION
  5
333
330
1F
100
AcDbEntity
  8
1
  6
ByBlock
 62
     3
100
AcDbDimension
  2
_D8
 10
203.0489234376432
 20
-1472.737629671317
 30
0.0
 11
259.7989234376439
 21
-1468.737629671317
 31
0.0
 70
   160
  1
φ<>
 71
     5
 42
-1.0
 52
90.0
  3
DIMSTYEX_12
100
AcDbAlignedDimension
 13
316.5489234376445
 23
-1498.961095065136
 33
0.0
 14
203.0489234376432
 24
-1498.961095065136
 34
0.0
100
AcDbRotatedDimension
1001
ACAD
1000
DSTYLE
1002
{
1070
   343
1005
AE
1070
   344
1005
88
1070
   173
1070
     1
1070
   281
1070
     1
1070
    75
1070
     1
1070
    77
1070
     1
1070
   272
1070
     3
1070
   340
1005
83
1070
   140
1040
3.584
1002
}
  0
INSERT
  5
33B
330
1F
100
AcDbEntity
  8
1
  6
ByBlock
 62
     3
100
AcDbBlockReference
  2
BALN3
 10
189.1879958263868
 20
-1504.711095065089
 30
0.0
  0
INSERT
  5
343
330
1F
100
AcDbEntity
  8
1
  6
ByBlock
 62
     3
100
AcDbBlockReference
  2
BALN4
 10
196.7989234376432
 20
-1498.961095065134
 30
0.0
  0
INSERT
  5
34B
330
1F
100
AcDbEntity
  8
1
  6
ByBlock
 62
     3
100
AcDbBlockReference
  2
BALN5
 10
217.2503460647205
 20
-1498.961095065134
 30
0.0
  0
INSERT
  5
353
330
1F
100
AcDbEntity
  8
1
  6
ByBlock
 62
     3
100
AcDbBlockReference
  2
BALN6
 10
184.2989234376429
 20
-1510.961095065132
 30
0.0
  0
DIMENSION
  5
361
330
1F
100
AcDbEntity
  8
1
  6
ByBlock
 62
     3
100
AcDbDimension
  2
_D9
 10
129.3481187147068
 20
-1552.961095065132
 30
0.0
 11
125.3481187147068
 21
-1525.961095065111
 31
0.0
 70
   160
 71
     5
 42
-1.0
 52
90.0
  3
DIMSTYEX_17
100
AcDbAlignedDimension
 13
165.7989234376359
 23
-1498.961095065089
 33
0.0
 14
195.6884979625397
 24
-1552.961095065132
 34
0.0
 50
-90.0
100
AcDbRotatedDimension
1001
ACAD
1000
DSTYLE
1002
{
1070
   343
1005
88
1070
   344
1005
88
1070
    43
1040
1.00383588451183
1070
   173
1070
     1
1070
   272
1070
     3
1070
   340
1005
83
1070
   140
1040
3.584
1002
}
  0
INSERT
  5
41A
330
1F
100
AcDbEntity
  8
1
  6
Continuous
 62
     7
100
AcDbBlockReference
  2
BLK3
 10
259.7989234376432
 20
-1590.461095065134
 30
0.0
  0
ENDSEC
  0
SECTION
  2
OBJECTS
  0
DICTIONARY
  5
C
330
0
100
AcDbDictionary
281
     1
  3
ACAD_GROUP
350
D
  3
ACAD_LAYOUT
350
1A
  3
ACAD_MATERIAL
350
43
  3
ACAD_MLEADERSTYLE
350
6B
  3
ACAD_MLINESTYLE
350
17
  3
ACAD_PLOTSETTINGS
350
19
  3
ACAD_PLOTSTYLENAME
350
E
  3
ACAD_SCALELIST
350
47
  3
ACAD_TABLESTYLE
350
69
  3
ACAD_VISUALSTYLE
350
2A
  3
AcDbVariableDictionary
350
42A
  0
DICTIONARY
  5
431
330
8
100
AcDbDictionary
280
     1
281
     1
  3
ACAD_XREC_ROUNDTRIP
360
432
  0
DICTIONARY
  5
D
102
{ACAD_REACTORS
330
C
102
}
330
C
100
AcDbDictionary
281
     1
  0
DICTIONARY
  5
1A
102
{ACAD_REACTORS
330
C
102
}
330
C
100
AcDbDictionary
281
     1
  3
Layout1
350
1E
  3
Model
350
22
  0
DICTIONARY
  5
43
102
{ACAD_REACTORS
330
C
102
}
330
C
100
AcDbDictionary
281
     1
  3
ByBlock
350
45
  3
ByLayer
350
44
  3
Global
350
46
  0
DICTIONARY
  5
6B
102
{ACAD_REACTORS
330
C
102
}
330
C
100
AcDbDictionary
281
     1
  3
Standard
350
6C
  0
DICTIONARY
  5
17
102
{ACAD_REACTORS
330
C
102
}
330
C
100
AcDbDictionary
281
     1
  3
Standard
350
18
  0
DICTIONARY
  5
19
102
{ACAD_REACTORS
330
C
102
}
330
C
100
AcDbDictionary
281
     1
  0
ACDBDICTIONARYWDFLT
  5
E
102
{ACAD_REACTORS
330
C
102
}
330
C
100
AcDbDictionary
281
     1
  3
Normal
350
F
100
AcDbDictionaryWithDefault
340
F
  0
DICTIONARY
  5
47
102
{ACAD_REACTORS
330
C
102
}
330
C
100
AcDbDictionary
281
     1
  3
A0
350
48
  3
A1
350
49
  3
A2
350
4A
  3
A3
350
4B
  3
A4
350
4C
  3
A5
350
4D
  3
A6
350
4E
  3
A7
350
4F
  3
A8
350
50
  3
A9
350
51
  3
B0
350
52
  3
B1
350
53
  3
B2
350
54
  3
B3
350
55
  3
B4
350
56
  3
B5
350
57
  3
B6
350
58
  3
B7
350
59
  3
B8
350
5A
  3
B9
350
5B
  3
C0
350
5C
  3
C1
350
5D
  3
C2
350
5E
  3
C3
350
5F
  3
C4
350
60
  3
C5
350
61
  3
C6
350
62
  3
C7
350
63
  3
C8
350
64
  3
C9
350
65
  3
D0
350
66
  3
D1
350
67
  3
D2
350
68
  0
DICTIONARY
  5
69
102
{ACAD_REACTORS
330
C
102
}
330
C
100
AcDbDictionary
281
     1
  3
Standard
350
6A
  0
DICTIONARY
  5
2A
102
{ACAD_REACTORS
330
C
102
}
330
C
100
AcDbDictionary
281
     1
  3
2dWireframe
350
2F
  3
Basic
350
32
  3
Brighten
350
36
  3
ColorChange
350
3A
  3
Conceptual
350
34
  3
Dim
350
35
  3
EdgeColorOff
350
3D
  3
Facepattern
350
39
  3
Flat
350
2B
  3
FlatWithEdges
350
2C
  3
Gouraud
350
2D
  3
GouraudWithEdges
350
2E
  3
Hidden
350
31
  3
JitterOff
350
3B
  3
Linepattern
350
38
  3
OverhangOff
350
3C
  3
Realistic
350
33
  3
Shaded
350
42
  3
Shaded with edges
350
41
  3
Shades of Gray
350
3E
  3
Sketchy
350
3F
  3
Thicken
350
37
  3
Wireframe
350
30
  3
X-Ray
350
40
  0
DICTIONARY
  5
42A
102
{ACAD_REACTORS
330
C
102
}
330
C
100
AcDbDictionary
281
     1
  3
CANNOSCALE
350
433
  3
CMLEADERSTYLE
350
42C
  3
CTABLESTYLE
350
42B
  3
DIMASSOC
350
42F
  3
HIDETEXT
350
430
  3
MSLTSCALE
350
434
  0
XRECORD
  5
432
102
{ACAD_REACTORS
330
431
102
}
330
431
100
AcDbXrecord
280
     1
102
VTR_0.000_0.000_1.000_1.000_VISUALSTYLE
340
2F
102
VTR_0.000_0.000_1.000_1.000_GRIDDISPLAY
 70
     3
102
VTR_0.000_0.000_1.000_1.000_GRIDMAJOR
 70
     5
102
VTR_0.000_0.000_1.000_1.000_DEFAULTLIGHTING
280
     1
102
VTR_0.000_0.000_1.000_1.000_DEFAULTLIGHTINGTYPE
 70
     1
102
VTR_0.000_0.000_1.000_1.000_BRIGHTNESS
141
0.0
102
VTR_0.000_0.000_1.000_1.000_CONTRAST
142
0.0
  0
LAYOUT
  5
1E
102
{ACAD_REACTORS
330
1A
102
}
330
1A
100
AcDbPlotSettings
  1

  2
none_device
  4

  6

 40
0.0
 41
0.0
 42
0.0
 43
0.0
 44
0.0
 45
0.0
 46
0.0
 47
0.0
 48
0.0
 49
0.0
140
0.0
141
0.0
142
1.0
143
1.0
 70
   688
 72
     0
 73
     0
 74
     5
  7

 75
    16
147
1.0
148
0.0
149
0.0
100
AcDbLayout
  1
Layout1
 70
     1
 71
     1
 10
0.0
 20
0.0
 11
12.0
 21
9.0
 12
0.0
 22
0.0
 32
0.0
 14
1.000000000000000E+20
 24
1.000000000000000E+20
 34
1.000000000000000E+20
 15
-1.000000000000000E+20
 25
-1.000000000000000E+20
 35
-1.000000000000000E+20
146
0.0
 13
0.0
 23
0.0
 33
0.0
 16
1.0
 26
0.0
 36
0.0
 17
0.0
 27
1.0
 37
0.0
 76
     0
330
1B
  0
LAYOUT
  5
22
102
{ACAD_REACTORS
330
1A
102
}
330
1A
100
AcDbPlotSettings
  1

  2
none_device
  4
Letter_(8.50_x_11.00_Inches)
  6

 40
6.35
 41
6.35
 42
6.35000508
 43
6.35000508
 44
215.9
 45
279.4
 46
0.0
 47
0.0
 48
0.0
 49
0.0
140
0.0
141
0.0
142
1.0
143
1.0
 70
  1712
 72
     0
 73
     0
 74
     0
  7

 75
     0
147
1.0
148
0.0
149
0.0
100
AcDbLayout
  1
Model
 70
     1
 71
     0
 10
-21.96614993617709
 20
-1879.991621020336
 11
532.0338500638229
 21
-1079.991621020336
 12
33.03586822729419
 22
-1385.945203260498
 32
0.0
 14
-21.96614993617709
 24
-1879.991621020336
 34
0.0
 15
532.0338500638229
 25
-1079.991621020336
 35
0.0
146
0.0
 13
0.0
 23
0.0
 33
0.0
 16
1.0
 26
0.0
 36
0.0
 17
0.0
 27
1.0
 37
0.0
 76
     0
330
1F
331
29
  0
MATERIAL
  5
45
102
{ACAD_REACTORS
330
43
102
}
102
{ACAD_XDICTIONARY
360
467
102
}
330
43
100
AcDbMaterial
  1
ByBlock
  0
MATERIAL
  5
44
102
{ACAD_REACTORS
330
43
102
}
102
{ACAD_XDICTIONARY
360
465
102
}
330
43
100
AcDbMaterial
  1
ByLayer
  0
MATERIAL
  5
46
102
{ACAD_REACTORS
330
43
102
}
102
{ACAD_XDICTIONARY
360
469
102
}
330
43
100
AcDbMaterial
  1
Global
  0
MLEADERSTYLE
  5
6C
102
{ACAD_REACTORS
330
6B
102
}
102
{ACAD_XDICTIONARY
360
46C
102
}
330
6B
100
AcDbMLeaderStyle
170
     2
171
     1
172
     0
 90
        2
 40
0.0
 41
0.0
173
     1
 91
-1056964608
340
14
 92
       -2
290
     1
 42
0.09
291
     1
 43
0.36
  3
Standard
341
0
 44
0.18
300

342
11
174
     1
178
     6
175
     1
176
     0
 93
-1056964608
 45
0.18
292
     0
297
     0
 46
0.18
343
0
 94
-1056964608
 47
1.0
 49
1.0
140
1.0
293
     1
141
0.0
294
     1
177
     0
142
1.0
295
     0
296
     0
143
0.125
1001
ACAD_MLEADERVER
1070
     2
  0
MLINESTYLE
  5
18
102
{ACAD_REACTORS
330
17
102
}
330
17
100
AcDbMlineStyle
  2
Standard
 70
     0
  3

 62
   256
 51
90.0
 52
90.0
 71
     2
 49
0.5
 62
   256
  6
BYLAYER
 49
-0.5
 62
   256
  6
BYLAYER
  0
ACDBPLACEHOLDER
  5
F
102
{ACAD_REACTORS
330
E
102
}
330
E
  0
SCALE
  5
48
102
{ACAD_REACTORS
330
47
102
}
330
47
100
AcDbScale
 70
     0
300
1:1
140
1.0
141
1.0
290
     1
  0
SCALE
  5
49
102
{ACAD_REACTORS
330
47
102
}
330
47
100
AcDbScale
 70
     0
300
1:2
140
1.0
141
2.0
290
     0
  0
SCALE
  5
4A
102
{ACAD_REACTORS
330
47
102
}
330
47
100
AcDbScale
 70
     0
300
1:4
140
1.0
141
4.0
290
     0
  0
SCALE
  5
4B
102
{ACAD_REACTORS
330
47
102
}
330
47
100
AcDbScale
 70
     0
300
1:5
140
1.0
141
5.0
290
     0
  0
SCALE
  5
4C
102
{ACAD_REACTORS
330
47
102
}
330
47
100
AcDbScale
 70
     0
300
1:8
140
1.0
141
8.0
290
     0
  0
SCALE
  5
4D
102
{ACAD_REACTORS
330
47
102
}
330
47
100
AcDbScale
 70
     0
300
1:10
140
1.0
141
10.0
290
     0
  0
SCALE
  5
4E
102
{ACAD_REACTORS
330
47
102
}
330
47
100
AcDbScale
 70
     0
300
1:16
140
1.0
141
16.0
290
     0
  0
SCALE
  5
4F
102
{ACAD_REACTORS
330
47
102
}
330
47
100
AcDbScale
 70
     0
300
1:20
140
1.0
141
20.0
290
     0
  0
SCALE
  5
50
102
{ACAD_REACTORS
330
47
102
}
330
47
100
AcDbScale
 70
     0
300
1:30
140
1.0
141
30.0
290
     0
  0
SCALE
  5
51
102
{ACAD_REACTORS
330
47
102
}
330
47
100
AcDbScale
 70
     0
300
1:40
140
1.0
141
40.0
290
     0
  0
SCALE
  5
52
102
{ACAD_REACTORS
330
47
102
}
330
47
100
AcDbScale
 70
     0
300
1:50
140
1.0
141
50.0
290
     0
  0
SCALE
  5
53
102
{ACAD_REACTORS
330
47
102
}
330
47
100
AcDbScale
 70
     0
300
1:100
140
1.0
141
100.0
290
     0
  0
SCALE
  5
54
102
{ACAD_REACTORS
330
47
102
}
330
47
100
AcDbScale
 70
     0
300
2:1
140
2.0
141
1.0
290
     0
  0
SCALE
  5
55
102
{ACAD_REACTORS
330
47
102
}
330
47
100
AcDbScale
 70
     0
300
4:1
140
4.0
141
1.0
290
     0
  0
SCALE
  5
56
102
{ACAD_REACTORS
330
47
102
}
330
47
100
AcDbScale
 70
     0
300
8:1
140
8.0
141
1.0
290
     0
  0
SCALE
  5
57
102
{ACAD_REACTORS
330
47
102
}
330
47
100
AcDbScale
 70
     0
300
10:1
140
10.0
141
1.0
290
     0
  0
SCALE
  5
58
102
{ACAD_REACTORS
330
47
102
}
330
47
100
AcDbScale
 70
     0
300
100:1
140
100.0
141
1.0
290
     0
  0
SCALE
  5
59
102
{ACAD_REACTORS
330
47
102
}
330
47
100
AcDbScale
 70
     0
300
1/128" = 1'-0"
140
0.0078125
141
12.0
290
     0
  0
SCALE
  5
5A
102
{ACAD_REACTORS
330
47
102
}
330
47
100
AcDbScale
 70
     0
300
1/64" = 1'-0"
140
0.015625
141
12.0
290
     0
  0
SCALE
  5
5B
102
{ACAD_REACTORS
330
47
102
}
330
47
100
AcDbScale
 70
     0
300
1/32" = 1'-0"
140
0.03125
141
12.0
290
     0
  0
SCALE
  5
5C
102
{ACAD_REACTORS
330
47
102
}
330
47
100
AcDbScale
 70
     0
300
1/16" = 1'-0"
140
0.0625
141
12.0
290
     0
  0
SCALE
  5
5D
102
{ACAD_REACTORS
330
47
102
}
330
47
100
AcDbScale
 70
     0
300
3/32" = 1'-0"
140
0.09375
141
12.0
290
     0
  0
SCALE
  5
5E
102
{ACAD_REACTORS
330
47
102
}
330
47
100
AcDbScale
 70
     0
300
1/8" = 1'-0"
140
0.125
141
12.0
290
     0
  0
SCALE
  5
5F
102
{ACAD_REACTORS
330
47
102
}
330
47
100
AcDbScale
 70
     0
300
3/16" = 1'-0"
140
0.1875
141
12.0
290
     0
  0
SCALE
  5
60
102
{ACAD_REACTORS
330
47
102
}
330
47
100
AcDbScale
 70
     0
300
1/4" = 1'-0"
140
0.25
141
12.0
290
     0
  0
SCALE
  5
61
102
{ACAD_REACTORS
330
47
102
}
330
47
100
AcDbScale
 70
     0
300
3/8" = 1'-0"
140
0.375
141
12.0
290
     0
  0
SCALE
  5
62
102
{ACAD_REACTORS
330
47
102
}
330
47
100
AcDbScale
 70
     0
300
1/2" = 1'-0"
140
0.5
141
12.0
290
     0
  0
SCALE
  5
63
102
{ACAD_REACTORS
330
47
102
}
330
47
100
AcDbScale
 70
     0
300
3/4" = 1'-0"
140
0.75
141
12.0
290
     0
  0
SCALE
  5
64
102
{ACAD_REACTORS
330
47
102
}
330
47
100
AcDbScale
 70
     0
300
1" = 1'-0"
140
1.0
141
12.0
290
     0
  0
SCALE
  5
65
102
{ACAD_REACTORS
330
47
102
}
330
47
100
AcDbScale
 70
     0
300
1-1/2" = 1'-0"
140
1.5
141
12.0
290
     0
  0
SCALE
  5
66
102
{ACAD_REACTORS
330
47
102
}
330
47
100
AcDbScale
 70
     0
300
3" = 1'-0"
140
3.0
141
12.0
290
     0
  0
SCALE
  5
67
102
{ACAD_REACTORS
330
47
102
}
330
47
100
AcDbScale
 70
     0
300
6" = 1'-0"
140
6.0
141
12.0
290
     0
  0
SCALE
  5
68
102
{ACAD_REACTORS
330
47
102
}
330
47
100
AcDbScale
 70
     0
300
1'-0" = 1'-0"
140
12.0
141
12.0
290
     0
  0
TABLESTYLE
  5
6A
102
{ACAD_REACTORS
330
69
102
}
330
69
100
AcDbTableStyle
  3
Standard
 70
     0
 71
     0
 40
0.06
 41
0.06
280
     0
281
     0
  7
Standard
140
0.18
170
     2
 62
     0
 63
   257
283
     0
274
    -2
284
     1
 64
     0
275
    -2
285
     1
 65
     0
276
    -2
286
     1
 66
     0
277
    -2
287
     1
 67
     0
278
    -2
288
     1
 68
     0
279
    -2
289
     1
 69
     0
  7
Standard
140
0.25
170
     5
 62
     0
 63
   257
283
     0
274
    -2
284
     1
 64
     0
275
    -2
285
     1
 65
     0
276
    -2
286
     1
 66
     0
277
    -2
287
     1
 67
     0
278
    -2
288
     1
 68
     0
279
    -2
289
     1
 69
     0
  7
Standard
140
0.18
170
     5
 62
     0
 63
   257
283
     0
274
    -2
284
     1
 64
     0
275
    -2
285
     1
 65
     0
276
    -2
286
     1
 66
     0
277
    -2
287
     1
 67
     0
278
    -2
288
     1
 68
     0
279
    -2
289
     1
 69
     0
  0
VISUALSTYLE
  5
2F
102
{ACAD_REACTORS
330
2A
102
}
102
{ACAD_XDICTIONARY
360
43D
102
}
330
2A
100
AcDbVisualStyle
  2
2dWireframe
 70
     4
 71
     0
 72
     2
 73
     0
 90
        0
 40
0.6
 41
30.0
 62
     5
 63
     7
 74
     1
 91
        4
 64
     7
 65
   257
 75
     1
175
     1
 42
1.0
 92
        0
 66
   257
 43
1.0
 76
     1
 77
     6
 78
     2
 67
     7
 79
     5
170
     0
171
     0
290
     0
174
     0
 93
        1
 44
0.0
173
     0
291
     0
 45
0.0
1001
ACAD
1000
AcDbSavedByObjectVersion
1070
     0
  0
VISUALSTYLE
  5
32
102
{ACAD_REACTORS
330
2A
102
}
102
{ACAD_XDICTIONARY
360
443
102
}
330
2A
100
AcDbVisualStyle
  2
Basic
 70
     7
 71
     1
 72
     0
 73
     1
 90
        0
 40
0.6
 41
30.0
 62
     5
 63
     7
 74
     0
 91
        4
 64
     7
 65
   257
 75
     1
175
     1
 42
1.0
 92
        8
 66
     7
 43
1.0
 76
     1
 77
     6
 78
     2
 67
     7
 79
     5
170
     0
171
     0
290
     0
174
     0
 93
        1
 44
0.0
173
     0
291
     1
 45
0.0
1001
ACAD
1000
AcDbSavedByObjectVersion
1070
     0
  0
VISUALSTYLE
  5
36
102
{ACAD_REACTORS
330
2A
102
}
102
{ACAD_XDICTIONARY
360
44B
102
}
330
2A
100
AcDbVisualStyle
  2
Brighten
 70
    12
 71
     2
 72
     2
 73
     0
 90
        0
 40
0.6
 41
30.0
 62
     5
 63
     7
 74
     1
 91
        4
 64
     7
 65
   257
 75
     1
175
     1
 42
1.0
 92
        8
 66
     7
 43
1.0
 76
     1
 77
     6
 78
     2
 67
     7
 79
     5
170
     0
171
     0
290
     0
174
     0
 93
        1
 44
50.0
173
     0
291
     1
 45
0.0
1001
ACAD
1000
AcDbSavedByObjectVersion
1070
     0
  0
VISUALSTYLE
  5
3A
102
{ACAD_REACTORS
330
2A
102
}
102
{ACAD_XDICTIONARY
360
453
102
}
330
2A
100
AcDbVisualStyle
  2
ColorChange
 70
    16
 71
     2
 72
     2
 73
     3
 90
        0
 40
0.6
 41
30.0
 62
     5
 63
     8
 74
     1
 91
        4
 64
     7
 65
   257
 75
     1
175
     1
 42
1.0
 92
        8
 66
     8
 43
1.0
 76
     1
 77
     6
 78
     2
 67
     7
 79
     5
170
     0
171
     0
290
     0
174
     0
 93
        1
 44
0.0
173
     0
291
     1
 45
0.0
1001
ACAD
1000
AcDbSavedByObjectVersion
1070
     0
  0
VISUALSTYLE
  5
34
102
{ACAD_REACTORS
330
2A
102
}
102
{ACAD_XDICTIONARY
360
447
102
}
330
2A
100
AcDbVisualStyle
  2
Conceptual
 70
     9
 71
     3
 72
     2
 73
     0
 90
        0
 40
0.6
 41
30.0
 62
     5
 63
     7
 74
     2
 91
        2
 64
     7
 65
   257
 75
     1
175
     1
 42
179.0
 92
        8
 66
     7
 43
1.0
 76
     1
 77
     6
 78
     2
 67
     7
 79
     3
170
     0
171
     0
290
     0
174
     0
 93
        1
 44
0.0
173
     0
291
     0
 45
0.0
1001
ACAD
1000
AcDbSavedByObjectVersion
1070
     0
  0
VISUALSTYLE
  5
35
102
{ACAD_REACTORS
330
2A
102
}
102
{ACAD_XDICTIONARY
360
449
102
}
330
2A
100
AcDbVisualStyle
  2
Dim
 70
    11
 71
     2
 72
     2
 73
     0
 90
        0
 40
0.6
 41
30.0
 62
     5
 63
     7
 74
     1
 91
        4
 64
     7
 65
   257
 75
     1
175
     1
 42
1.0
 92
        8
 66
     7
 43
1.0
 76
     1
 77
     6
 78
     2
 67
     7
 79
     5
170
     0
171
     0
290
     0
174
     0
 93
        1
 44
-50.0
173
     0
291
     1
 45
0.0
1001
ACAD
1000
AcDbSavedByObjectVersion
1070
     0
  0
VISUALSTYLE
  5
3D
102
{ACAD_REACTORS
330
2A
102
}
102
{ACAD_XDICTIONARY
360
459
102
}
330
2A
100
AcDbVisualStyle
  2
EdgeColorOff
 70
    22
 71
     2
 72
     2
 73
     0
 90
        0
 40
0.6
 41
30.0
 62
     5
 63
     7
 74
     1
 91
        4
 64
     7
 65
   257
 75
     1
175
     1
 42
1.0
 92
        8
 66
     7
 43
1.0
 76
     1
 77
     6
 78
     2
 67
     7
 79
     5
170
     0
171
     0
290
     0
174
     0
 93
        1
 44
0.0
173
     0
291
     1
 45
0.0
1001
ACAD
1000
AcDbSavedByObjectVersion
1070
     0
  0
VISUALSTYLE
  5
39
102
{ACAD_REACTORS
330
2A
102
}
102
{ACAD_XDICTIONARY
360
451
102
}
330
2A
100
AcDbVisualStyle
  2
Facepattern
 70
    15
 71
     2
 72
     2
 73
     0
 90
        0
 40
0.6
 41
30.0
 62
     5
 63
     7
 74
     1
 91
        4
 64
     7
 65
   257
 75
     1
175
     1
 42
1.0
 92
        8
 66
     7
 43
1.0
 76
     1
 77
     6
 78
     2
 67
     7
 79
     5
170
     0
171
     0
290
     0
174
     0
 93
        1
 44
0.0
173
     0
291
     1
 45
0.0
1001
ACAD
1000
AcDbSavedByObjectVersion
1070
     0
  0
VISUALSTYLE
  5
2B
102
{ACAD_REACTORS
330
2A
102
}
102
{ACAD_XDICTIONARY
360
435
102
}
330
2A
100
AcDbVisualStyle
  2
Flat
 70
     0
 71
     2
 72
     1
 73
     1
 90
        2
 40
0.6
 41
30.0
 62
     5
 63
     7
 74
     0
 91
        0
 64
     7
 65
   257
 75
     1
175
     1
 42
1.0
 92
        8
 66
     7
 43
1.0
 76
     1
 77
     6
 78
     2
 67
     7
 79
     5
170
     0
171
     0
290
     0
174
     0
 93
       13
 44
0.0
173
     0
291
     1
 45
0.0
1001
ACAD
1000
AcDbSavedByObjectVersion
1070
     0
  0
VISUALSTYLE
  5
2C
102
{ACAD_REACTORS
330
2A
102
}
102
{ACAD_XDICTIONARY
360
437
102
}
330
2A
100
AcDbVisualStyle
  2
FlatWithEdges
 70
     1
 71
     2
 72
     1
 73
     1
 90
        2
 40
0.6
 41
30.0
 62
     5
 63
     7
 74
     1
 91
        0
 64
     7
 65
   257
 75
     1
175
     1
 42
1.0
 92
        0
 66
   257
 43
1.0
 76
     1
 77
     6
 78
     2
 67
     7
 79
     5
170
     0
171
     0
290
     0
174
     0
 93
       13
 44
0.0
173
     0
291
     1
 45
0.0
1001
ACAD
1000
AcDbSavedByObjectVersion
1070
     0
  0
VISUALSTYLE
  5
2D
102
{ACAD_REACTORS
330
2A
102
}
102
{ACAD_XDICTIONARY
360
439
102
}
330
2A
100
AcDbVisualStyle
  2
Gouraud
 70
     2
 71
     2
 72
     2
 73
     1
 90
        2
 40
0.6
 41
30.0
 62
     5
 63
     7
 74
     0
 91
        0
 64
     7
 65
   257
 75
     1
175
     1
 42
1.0
 92
        0
 66
     7
 43
1.0
 76
     1
 77
     6
 78
     2
 67
     7
 79
     5
170
     0
171
     0
290
     0
174
     0
 93
       13
 44
0.0
173
     0
291
     1
 45
0.0
1001
ACAD
1000
AcDbSavedByObjectVersion
1070
     0
  0
VISUALSTYLE
  5
2E
102
{ACAD_REACTORS
330
2A
102
}
102
{ACAD_XDICTIONARY
360
43B
102
}
330
2A
100
AcDbVisualStyle
  2
GouraudWithEdges
 70
     3
 71
     2
 72
     2
 73
     1
 90
        2
 40
0.6
 41
30.0
 62
     5
 63
     7
 74
     1
 91
        0
 64
     7
 65
   257
 75
     1
175
     1
 42
1.0
 92
        0
 66
   257
 43
1.0
 76
     1
 77
     6
 78
     2
 67
     7
 79
     5
170
     0
171
     0
290
     0
174
     0
 93
       13
 44
0.0
173
     0
291
     1
 45
0.0
1001
ACAD
1000
AcDbSavedByObjectVersion
1070
     0
  0
VISUALSTYLE
  5
31
102
{ACAD_REACTORS
330
2A
102
}
102
{ACAD_XDICTIONARY
360
441
102
}
330
2A
100
AcDbVisualStyle
  2
Hidden
 70
     6
 71
     1
 72
     2
 73
     2
 90
        0
 40
0.6
 41
30.0
 62
     5
 63
     7
 74
     2
 91
        2
 64
     7
 65
   257
 75
     2
175
     1
 42
40.0
 92
        0
 66
   257
 43
1.0
 76
     1
 77
     6
 78
     2
 67
     7
 79
     3
170
     0
171
     0
290
     0
174
     0
 93
        1
 44
0.0
173
     0
291
     0
 45
0.0
1001
ACAD
1000
AcDbSavedByObjectVersion
1070
     0
  0
VISUALSTYLE
  5
3B
102
{ACAD_REACTORS
330
2A
102
}
102
{ACAD_XDICTIONARY
360
455
102
}
330
2A
100
AcDbVisualStyle
  2
JitterOff
 70
    20
 71
     2
 72
     2
 73
     0
 90
        0
 40
0.6
 41
30.0
 62
     5
 63
     7
 74
     1
 91
        4
 64
     7
 65
   257
 75
     1
175
     1
 42
1.0
 92
       10
 66
     7
 43
1.0
 76
     1
 77
     6
 78
     2
 67
     7
 79
     5
170
     0
171
     0
290
     0
174
     0
 93
        1
 44
0.0
173
     0
291
     1
 45
0.0
1001
ACAD
1000
AcDbSavedByObjectVersion
1070
     0
  0
VISUALSTYLE
  5
38
102
{ACAD_REACTORS
330
2A
102
}
102
{ACAD_XDICTIONARY
360
44F
102
}
330
2A
100
AcDbVisualStyle
  2
Linepattern
 70
    14
 71
     2
 72
     2
 73
     0
 90
        0
 40
0.6
 41
30.0
 62
     5
 63
     7
 74
     1
 91
        4
 64
     7
 65
   257
 75
     7
175
     7
 42
1.0
 92
        8
 66
     7
 43
1.0
 76
     1
 77
     6
 78
     2
 67
     7
 79
     5
170
     0
171
     0
290
     0
174
     0
 93
        1
 44
0.0
173
     0
291
     1
 45
0.0
1001
ACAD
1000
AcDbSavedByObjectVersion
1070
     0
  0
VISUALSTYLE
  5
3C
102
{ACAD_REACTORS
330
2A
102
}
102
{ACAD_XDICTIONARY
360
457
102
}
330
2A
100
AcDbVisualStyle
  2
OverhangOff
 70
    21
 71
     2
 72
     2
 73
     0
 90
        0
 40
0.6
 41
30.0
 62
     5
 63
     7
 74
     1
 91
        4
 64
     7
 65
   257
 75
     1
175
     1
 42
1.0
 92
        9
 66
     7
 43
1.0
 76
     1
 77
     6
 78
     2
 67
     7
 79
     5
170
     0
171
     0
290
     0
174
     0
 93
        1
 44
0.0
173
     0
291
     1
 45
0.0
1001
ACAD
1000
AcDbSavedByObjectVersion
1070
     0
  0
VISUALSTYLE
  5
33
102
{ACAD_REACTORS
330
2A
102
}
102
{ACAD_XDICTIONARY
360
445
102
}
330
2A
100
AcDbVisualStyle
  2
Realistic
 70
     8
 71
     2
 72
     3
 73
     0
 90
        2
 40
0.6
 41
30.0
 62
     5
 63
     7
 74
     0
 91
        0
 64
     7
 65
   257
 75
     1
175
     1
 42
1.0
 92
        8
 66
   257
 43
1.0
 76
     1
 77
     6
 78
     2
 67
     7
 79
     3
170
     0
171
     0
290
     0
174
     0
 93
       13
 44
0.0
173
     0
291
     0
 45
0.0
1001
ACAD
1000
AcDbSavedByObjectVersion
1070
     0
  0
VISUALSTYLE
  5
42
102
{ACAD_REACTORS
330
2A
102
}
102
{ACAD_XDICTIONARY
360
463
102
}
330
2A
100
AcDbVisualStyle
  2
Shaded
 70
    27
 71
     2
 72
     2
 73
     1
 90
        2
 40
0.6
 41
30.0
 62
     5
 63
     7
 74
     0
 91
        4
 64
     7
 65
   257
 75
     1
175
     1
 42
1.0
 92
        8
 66
   257
 43
1.0
 76
     1
 77
     6
 78
     2
 67
     8
 79
     3
170
     0
171
     0
290
     0
174
     0
 93
        5
 44
0.0
173
     0
291
     0
 45
0.0
1001
ACAD
1000
AcDbSavedByObjectVersion
1070
     0
  0
VISUALSTYLE
  5
41
102
{ACAD_REACTORS
330
2A
102
}
102
{ACAD_XDICTIONARY
360
461
102
}
330
2A
100
AcDbVisualStyle
  2
Shaded with edges
 70
    26
 71
     2
 72
     2
 73
     1
 90
        2
 40
0.6
 41
30.0
 62
     5
 63
     7
 74
     1
 91
       10
 64
     7
 65
   257
 75
     2
175
     1
 42
1.0
 92
        8
 66
   257
 43
1.0
 76
     1
 77
     6
 78
     2
 67
     7
 79
     3
170
     0
171
     0
290
     0
174
     0
 93
        5
 44
0.0
173
     0
291
     0
 45
0.0
1001
ACAD
1000
AcDbSavedByObjectVersion
1070
     0
  0
VISUALSTYLE
  5
3E
102
{ACAD_REACTORS
330
2A
102
}
102
{ACAD_XDICTIONARY
360
45B
102
}
330
2A
100
AcDbVisualStyle
  2
Shades of Gray
 70
    23
 71
     2
 72
     2
 73
     3
 90
        0
 40
0.6
 41
30.0
 62
     5
 63
     7
 74
     2
 91
        2
 64
     7
 65
     7
 75
     1
175
     1
 42
40.0
 92
        8
 66
     7
 43
1.0
 76
     1
 77
     6
 78
     2
 67
     7
 79
     3
170
     0
171
     0
290
     0
174
     0
 93
        1
 44
0.0
173
     0
291
     0
 45
0.0
1001
ACAD
1000
AcDbSavedByObjectVersion
1070
     0
  0
VISUALSTYLE
  5
3F
102
{ACAD_REACTORS
330
2A
102
}
102
{ACAD_XDICTIONARY
360
45D
102
}
330
2A
100
AcDbVisualStyle
  2
Sketchy
 70
    24
 71
     1
 72
     2
 73
     2
 90
        0
 40
0.6
 41
30.0
 62
     5
 63
     7
 74
     2
 91
        2
 64
     7
 65
     7
 75
     1
175
     1
 42
40.0
 92
       11
 66
     7
 43
1.0
 76
     1
 77
     6
 78
     2
 67
     7
 79
     6
170
     0
171
     0
290
     0
174
     0
 93
        1
 44
0.0
173
     0
291
     0
 45
0.0
1001
ACAD
1000
AcDbSavedByObjectVersion
1070
     0
  0
VISUALSTYLE
  5
37
102
{ACAD_REACTORS
330
2A
102
}
102
{ACAD_XDICTIONARY
360
44D
102
}
330
2A
100
AcDbVisualStyle
  2
Thicken
 70
    13
 71
     2
 72
     2
 73
     0
 90
        0
 40
0.6
 41
30.0
 62
     5
 63
     7
 74
     1
 91
        4
 64
     7
 65
   257
 75
     1
175
     1
 42
1.0
 92
       12
 66
     7
 43
1.0
 76
     1
 77
     6
 78
     2
 67
     7
 79
     5
170
     0
171
     0
290
     0
174
     0
 93
        1
 44
0.0
173
     0
291
     1
 45
0.0
1001
ACAD
1000
AcDbSavedByObjectVersion
1070
     0
  0
VISUALSTYLE
  5
30
102
{ACAD_REACTORS
330
2A
102
}
102
{ACAD_XDICTIONARY
360
43F
102
}
330
2A
100
AcDbVisualStyle
  2
Wireframe
 70
     5
 71
     0
 72
     2
 73
     0
 90
        0
 40
0.6
 41
30.0
 62
     5
 63
     7
 74
     1
 91
        4
 64
     7
 65
   257
 75
     1
175
     1
 42
1.0
 92
        0
 66
   257
 43
1.0
 76
     1
 77
     6
 78
     2
 67
     7
 79
     3
170
     0
171
     0
290
     0
174
     0
 93
        1
 44
0.0
173
     0
291
     0
 45
0.0
1001
ACAD
1000
AcDbSavedByObjectVersion
1070
     0
  0
VISUALSTYLE
  5
40
102
{ACAD_REACTORS
330
2A
102
}
102
{ACAD_XDICTIONARY
360
45F
102
}
330
2A
100
AcDbVisualStyle
  2
X-Ray
 70
    25
 71
     2
 72
     2
 73
     1
 90
        1
 40
0.5
 41
30.0
 62
     5
 63
     7
 74
     1
 91
        0
 64
     7
 65
   257
 75
     1
175
     1
 42
1.0
 92
        8
 66
     7
 43
1.0
 76
     1
 77
     6
 78
     2
 67
     7
 79
     3
170
     0
171
     0
290
     0
174
     0
 93
       13
 44
0.0
173
     0
291
     0
 45
0.0
1001
ACAD
1000
AcDbSavedByObjectVersion
1070
     0
  0
DICTIONARYVAR
  5
433
102
{ACAD_REACTORS
330
42A
102
}
330
42A
100
DictionaryVariables
280
     0
  1
1:1
  0
DICTIONARYVAR
  5
42C
102
{ACAD_REACTORS
330
42A
102
}
330
42A
100
DictionaryVariables
280
     0
  1
Standard
  0
DICTIONARYVAR
  5
42B
102
{ACAD_REACTORS
330
42A
102
}
330
42A
100
DictionaryVariables
280
     0
  1
Standard
  0
DICTIONARYVAR
  5
42F
102
{ACAD_REACTORS
330
42A
102
}
330
42A
100
DictionaryVariables
280
     0
  1
2
  0
DICTIONARYVAR
  5
430
102
{ACAD_REACTORS
330
42A
102
}
330
42A
100
DictionaryVariables
280
     0
  1
1
  0
DICTIONARYVAR
  5
434
102
{ACAD_REACTORS
330
42A
102
}
330
42A
100
DictionaryVariables
280
     0
  1
1
  0
DICTIONARY
  5
467
330
45
100
AcDbDictionary
280
     1
281
     1
  3
ACAD_XREC_ROUNDTRIP
360
468
  0
DICTIONARY
  5
465
330
44
100
AcDbDictionary
280
     1
281
     1
  3
ACAD_XREC_ROUNDTRIP
360
466
  0
DICTIONARY
  5
469
330
46
100
AcDbDictionary
280
     1
281
     1
  3
ACAD_XREC_ROUNDTRIP
360
46A
  0
DICTIONARY
  5
46C
330
6C
100
AcDbDictionary
280
     1
281
     1
  3
ACAD_XREC_ROUNDTRIP
360
46D
  0
DICTIONARY
  5
43D
330
2F
100
AcDbDictionary
280
     1
281
     1
  3
ACAD_XREC_ROUNDTRIP
360
43E
  0
DICTIONARY
  5
443
330
32
100
AcDbDictionary
280
     1
281
     1
  3
ACAD_XREC_ROUNDTRIP
360
444
  0
DICTIONARY
  5
44B
330
36
100
AcDbDictionary
280
     1
281
     1
  3
ACAD_XREC_ROUNDTRIP
360
44C
  0
DICTIONARY
  5
453
330
3A
100
AcDbDictionary
280
     1
281
     1
  3
ACAD_XREC_ROUNDTRIP
360
454
  0
DICTIONARY
  5
447
330
34
100
AcDbDictionary
280
     1
281
     1
  3
ACAD_XREC_ROUNDTRIP
360
448
  0
DICTIONARY
  5
449
330
35
100
AcDbDictionary
280
     1
281
     1
  3
ACAD_XREC_ROUNDTRIP
360
44A
  0
DICTIONARY
  5
459
330
3D
100
AcDbDictionary
280
     1
281
     1
  3
ACAD_XREC_ROUNDTRIP
360
45A
  0
DICTIONARY
  5
451
330
39
100
AcDbDictionary
280
     1
281
     1
  3
ACAD_XREC_ROUNDTRIP
360
452
  0
DICTIONARY
  5
435
330
2B
100
AcDbDictionary
280
     1
281
     1
  3
ACAD_XREC_ROUNDTRIP
360
436
  0
DICTIONARY
  5
437
330
2C
100
AcDbDictionary
280
     1
281
     1
  3
ACAD_XREC_ROUNDTRIP
360
438
  0
DICTIONARY
  5
439
330
2D
100
AcDbDictionary
280
     1
281
     1
  3
ACAD_XREC_ROUNDTRIP
360
43A
  0
DICTIONARY
  5
43B
330
2E
100
AcDbDictionary
280
     1
281
     1
  3
ACAD_XREC_ROUNDTRIP
360
43C
  0
DICTIONARY
  5
441
330
31
100
AcDbDictionary
280
     1
281
     1
  3
ACAD_XREC_ROUNDTRIP
360
442
  0
DICTIONARY
  5
455
330
3B
100
AcDbDictionary
280
     1
281
     1
  3
ACAD_XREC_ROUNDTRIP
360
456
  0
DICTIONARY
  5
44F
330
38
100
AcDbDictionary
280
     1
281
     1
  3
ACAD_XREC_ROUNDTRIP
360
450
  0
DICTIONARY
  5
457
330
3C
100
AcDbDictionary
280
     1
281
     1
  3
ACAD_XREC_ROUNDTRIP
360
458
  0
DICTIONARY
  5
445
330
33
100
AcDbDictionary
280
     1
281
     1
  3
ACAD_XREC_ROUNDTRIP
360
446
  0
DICTIONARY
  5
463
330
42
100
AcDbDictionary
280
     1
281
     1
  3
ACAD_XREC_ROUNDTRIP
360
464
  0
DICTIONARY
  5
461
330
41
100
AcDbDictionary
280
     1
281
     1
  3
ACAD_XREC_ROUNDTRIP
360
462
  0
DICTIONARY
  5
45B
330
3E
100
AcDbDictionary
280
     1
281
     1
  3
ACAD_XREC_ROUNDTRIP
360
45C
  0
DICTIONARY
  5
45D
330
3F
100
AcDbDictionary
280
     1
281
     1
  3
ACAD_XREC_ROUNDTRIP
360
45E
  0
DICTIONARY
  5
44D
330
37
100
AcDbDictionary
280
     1
281
     1
  3
ACAD_XREC_ROUNDTRIP
360
44E
  0
DICTIONARY
  5
43F
330
30
100
AcDbDictionary
280
     1
281
     1
  3
ACAD_XREC_ROUNDTRIP
360
440
  0
DICTIONARY
  5
45F
330
40
100
AcDbDictionary
280
     1
281
     1
  3
ACAD_XREC_ROUNDTRIP
360
460
  0
XRECORD
  5
468
102
{ACAD_REACTORS
330
467
102
}
330
467
100
AcDbXrecord
280
     1
102
MATERIAL
148
0.0
149
0.0
149
0.0
 93
        0
 94
      127
282
     0
 72
     1
 77
     1
171
     1
175
     1
179
     1
273
     0
  0
XRECORD
  5
466
102
{ACAD_REACTORS
330
465
102
}
330
465
100
AcDbXrecord
280
     1
102
MATERIAL
148
0.0
149
0.0
149
0.0
 93
        0
 94
      127
282
     0
 72
     1
 77
     1
171
     1
175
     1
179
     1
273
     0
  0
XRECORD
  5
46A
102
{ACAD_REACTORS
330
469
102
}
330
469
100
AcDbXrecord
280
     1
102
MATERIAL
148
0.0
149
0.0
149
0.0
 93
        0
 94
      127
282
     0
 72
     1
 77
     1
171
     1
175
     1
179
     1
273
     0
  0
XRECORD
  5
46D
102
{ACAD_REACTORS
330
46C
102
}
330
46C
100
AcDbXrecord
280
     1
102
ACAD_ROUNDTRIP_2010_MLEADER_STYLE
  0
XRECORD
  5
43E
102
{ACAD_REACTORS
330
43D
102
}
330
43D
100
AcDbXrecord
280
     1
102
RTVSPropertyOp0
 70
     1
102
RTVSPropertyOp1
 70
     1
102
RTVSPropertyOp2
 70
     1
102
RTVSPropertyOp3
 70
     1
102
RTVSPropertyOp4
 70
     1
102
RTVSPropertyOp5
 70
     1
102
RTVSPropertyOp6
 70
     1
102
RTVSPropertyOp7
 70
     1
102
RTVSPropertyOp8
 70
     1
102
RTVSPropertyOp9
 70
     1
102
RTVSPropertyOp10
 70
     1
102
RTVSPropertyOp11
 70
     1
102
RTVSPropertyOp12
 70
     1
102
RTVSPropertyOp13
 70
     1
102
RTVSPropertyOp14
 70
     1
102
RTVSPropertyOp15
 70
     1
102
RTVSPropertyOp16
 70
     1
102
RTVSPropertyOp17
 70
     1
102
RTVSPropertyOp18
 70
     1
102
RTVSPropertyOp19
 70
     1
102
RTVSPropertyOp20
 70
     1
102
RTVSPropertyOp21
 70
     1
102
RTVSPropertyOp22
 70
     1
102
RTVSPropertyOp23
 70
     1
102
RTVSPropertyOp24
 70
     1
102
RTVSPropertyOp25
 70
     1
102
RTVSPropertyOp26
 70
     1
102
RTVSPropertyOp27
 70
     1
102
RTVSPropertyOp28
 70
     1
102
RTVSPropertyOp29
 70
     1
102
RTVSPropertyOp30
 70
     1
102
RTVSPropertyOp31
 70
     1
102
RTVSPropertyOp32
 70
     1
102
RTVSPropertyOp33
 70
     1
102
RTVSPropertyOp34
 70
     1
102
RTVSPropertyOp35
 70
     1
102
RTVSPropertyOp36
 70
     1
102
RTVSPropertyOp37
 70
     1
102
RTVSPropertyOp38
 70
     1
102
RTVSPropertyOp39
 70
     1
102
RTVSPropertyOp40
 70
     1
102
RTVSPropertyOp41
 70
     1
102
RTVSPropertyOp42
 70
     1
102
RTVSPropertyOp43
 70
     1
102
RTVSPropertyOp44
 70
     1
102
RTVSPropertyOp45
 70
     1
102
RTVSPropertyOp46
 70
     1
102
RTVSPropertyOp47
 70
     1
102
RTVSPropertyOp48
 70
     1
102
RTVSPropertyOp49
 70
     1
102
RTVSPropertyOp50
 70
     1
102
RTVSPropertyOp51
 70
     0
102
RTVSPropertyOp52
 70
     0
102
RTVSPropertyOp53
 70
     1
102
RTVSPropertyOp54
 70
     1
102
RTVSPropertyOp55
 70
     1
102
RTVSPropertyOp56
 70
     1
102
RTVSPropertyOp57
 70
     1
102
RTVSPost2010Prop28
280
     1
102
RTVSPost2010PropOp28
 70
     1
102
RTVSPost2010Prop29
280
     1
102
RTVSPost2010PropOp29
 70
     1
102
RTVSPost2010Prop30
280
     0
102
RTVSPost2010PropOp30
 70
     1
102
RTVSPost2010Prop31
280
     0
102
RTVSPost2010PropOp31
 70
     1
102
RTVSPost2010Prop32
280
     0
102
RTVSPost2010PropOp32
 70
     1
102
RTVSPost2010Prop33
280
     0
102
RTVSPost2010PropOp33
 70
     1
102
RTVSPost2010Prop34
280
     0
102
RTVSPost2010PropOp34
 70
     1
102
RTVSPost2010Prop35
280
     0
102
RTVSPost2010PropOp35
 70
     1
102
RTVSPost2010Prop36
280
     0
102
RTVSPost2010PropOp36
 70
     1
102
RTVSPost2010Prop37
 90
       50
102
RTVSPost2010PropOp37
 70
     1
102
RTVSPost2010Prop38
140
0.0
102
RTVSPost2010PropOp38
 70
     1
102
RTVSPost2010Prop39
140
1.0
102
RTVSPost2010PropOp39
 70
     1
102
RTVSPost2010Prop40
 90
        0
102
RTVSPost2010PropOp40
 70
     1
102
RTVSPost2010Prop41ColorIndex
 90
       18
102
RTVSPost2010Prop41ColorRGB
 90
        0
102
RTVSPost2010PropOp41
 70
     1
102
RTVSPost2010Prop42
 90
       50
102
RTVSPost2010PropOp42
 70
     1
102
RTVSPost2010Prop43
 90
        3
102
RTVSPost2010PropOp43
 70
     1
102
RTVSPost2010Prop44ColorIndex
 90
        5
102
RTVSPost2010Prop44ColorRGB
 90
      255
102
RTVSPost2010PropOp44
 70
     1
102
RTVSPost2010Prop45
280
     0
102
RTVSPost2010PropOp45
 70
     1
102
RTVSPost2010Prop46
 90
       50
102
RTVSPost2010PropOp46
 70
     1
102
RTVSPost2010Prop47
 90
       50
102
RTVSPost2010PropOp47
 70
     1
102
RTVSPost2010Prop48
 90
       50
102
RTVSPost2010PropOp48
 70
     1
102
RTVSPost2010Prop49
280
     0
102
RTVSPost2010PropOp49
 70
     1
102
RTVSPost2010Prop50
 90
       50
102
RTVSPost2010PropOp50
 70
     1
102
RTVSPost2010Prop51ColorIndex
 90
      256
102
RTVSPost2010Prop51ColorRGB
 90
-16777216
102
RTVSPost2010PropOp51
 70
     0
102
RTVSPost2010Prop52
140
1.0
102
RTVSPost2010PropOp52
 70
     0
102
RTVSPost2010Prop53
 90
        2
102
RTVSPost2010PropOp53
 70
     1
102
RTVSPost2010Prop54
  1
strokes_ogs.tif
102
RTVSPost2010PropOp54
 70
     1
102
RTVSPost2010Prop55
280
     0
102
RTVSPost2010PropOp55
 70
     1
102
RTVSPost2010Prop56
140
1.0
102
RTVSPost2010PropOp56
 70
     1
102
RTVSPost2010Prop57
140
1.0
102
RTVSPost2010PropOp57
 70
     1
  0
XRECORD
  5
444
102
{ACAD_REACTORS
330
443
102
}
330
443
100
AcDbXrecord
280
     1
102
RTVSPropertyOp0
 70
     1
102
RTVSPropertyOp1
 70
     1
102
RTVSPropertyOp2
 70
     1
102
RTVSPropertyOp3
 70
     1
102
RTVSPropertyOp4
 70
     1
102
RTVSPropertyOp5
 70
     1
102
RTVSPropertyOp6
 70
     1
102
RTVSPropertyOp7
 70
     1
102
RTVSPropertyOp8
 70
     1
102
RTVSPropertyOp9
 70
     1
102
RTVSPropertyOp10
 70
     1
102
RTVSPropertyOp11
 70
     1
102
RTVSPropertyOp12
 70
     1
102
RTVSPropertyOp13
 70
     1
102
RTVSPropertyOp14
 70
     1
102
RTVSPropertyOp15
 70
     1
102
RTVSPropertyOp16
 70
     1
102
RTVSPropertyOp17
 70
     1
102
RTVSPropertyOp18
 70
     1
102
RTVSPropertyOp19
 70
     1
102
RTVSPropertyOp20
 70
     1
102
RTVSPropertyOp21
 70
     1
102
RTVSPropertyOp22
 70
     1
102
RTVSPropertyOp23
 70
     1
102
RTVSPropertyOp24
 70
     1
102
RTVSPropertyOp25
 70
     1
102
RTVSPropertyOp26
 70
     1
102
RTVSPropertyOp27
 70
     1
102
RTVSPropertyOp28
 70
     1
102
RTVSPropertyOp29
 70
     1
102
RTVSPropertyOp30
 70
     1
102
RTVSPropertyOp31
 70
     1
102
RTVSPropertyOp32
 70
     1
102
RTVSPropertyOp33
 70
     1
102
RTVSPropertyOp34
 70
     1
102
RTVSPropertyOp35
 70
     1
102
RTVSPropertyOp36
 70
     1
102
RTVSPropertyOp37
 70
     1
102
RTVSPropertyOp38
 70
     1
102
RTVSPropertyOp39
 70
     1
102
RTVSPropertyOp40
 70
     1
102
RTVSPropertyOp41
 70
     1
102
RTVSPropertyOp42
 70
     1
102
RTVSPropertyOp43
 70
     1
102
RTVSPropertyOp44
 70
     1
102
RTVSPropertyOp45
 70
     1
102
RTVSPropertyOp46
 70
     1
102
RTVSPropertyOp47
 70
     1
102
RTVSPropertyOp48
 70
     1
102
RTVSPropertyOp49
 70
     1
102
RTVSPropertyOp50
 70
     1
102
RTVSPropertyOp51
 70
     0
102
RTVSPropertyOp52
 70
     0
102
RTVSPropertyOp53
 70
     1
102
RTVSPropertyOp54
 70
     1
102
RTVSPropertyOp55
 70
     1
102
RTVSPropertyOp56
 70
     1
102
RTVSPropertyOp57
 70
     1
102
RTVSPost2010Prop28
280
     0
102
RTVSPost2010PropOp28
 70
     1
102
RTVSPost2010Prop29
280
     1
102
RTVSPost2010PropOp29
 70
     1
102
RTVSPost2010Prop30
280
     1
102
RTVSPost2010PropOp30
 70
     1
102
RTVSPost2010Prop31
280
     0
102
RTVSPost2010PropOp31
 70
     1
102
RTVSPost2010Prop32
280
     0
102
RTVSPost2010PropOp32
 70
     1
102
RTVSPost2010Prop33
280
     0
102
RTVSPost2010PropOp33
 70
     1
102
RTVSPost2010Prop34
280
     0
102
RTVSPost2010PropOp34
 70
     1
102
RTVSPost2010Prop35
280
     0
102
RTVSPost2010PropOp35
 70
     1
102
RTVSPost2010Prop36
280
     0
102
RTVSPost2010PropOp36
 70
     1
102
RTVSPost2010Prop37
 90
       50
102
RTVSPost2010PropOp37
 70
     1
102
RTVSPost2010Prop38
140
0.0
102
RTVSPost2010PropOp38
 70
     1
102
RTVSPost2010Prop39
140
1.0
102
RTVSPost2010PropOp39
 70
     1
102
RTVSPost2010Prop40
 90
        0
102
RTVSPost2010PropOp40
 70
     1
102
RTVSPost2010Prop41ColorIndex
 90
       18
102
RTVSPost2010Prop41ColorRGB
 90
        0
102
RTVSPost2010PropOp41
 70
     1
102
RTVSPost2010Prop42
 90
       50
102
RTVSPost2010PropOp42
 70
     1
102
RTVSPost2010Prop43
 90
        3
102
RTVSPost2010PropOp43
 70
     1
102
RTVSPost2010Prop44ColorIndex
 90
        5
102
RTVSPost2010Prop44ColorRGB
 90
      255
102
RTVSPost2010PropOp44
 70
     1
102
RTVSPost2010Prop45
280
     0
102
RTVSPost2010PropOp45
 70
     1
102
RTVSPost2010Prop46
 90
       50
102
RTVSPost2010PropOp46
 70
     1
102
RTVSPost2010Prop47
 90
       50
102
RTVSPost2010PropOp47
 70
     1
102
RTVSPost2010Prop48
 90
       50
102
RTVSPost2010PropOp48
 70
     1
102
RTVSPost2010Prop49
280
     0
102
RTVSPost2010PropOp49
 70
     1
102
RTVSPost2010Prop50
 90
       50
102
RTVSPost2010PropOp50
 70
     1
102
RTVSPost2010Prop51ColorIndex
 90
      256
102
RTVSPost2010Prop51ColorRGB
 90
-16777216
102
RTVSPost2010PropOp51
 70
     0
102
RTVSPost2010Prop52
140
1.0
102
RTVSPost2010PropOp52
 70
     0
102
RTVSPost2010Prop53
 90
        2
102
RTVSPost2010PropOp53
 70
     1
102
RTVSPost2010Prop54
  1
strokes_ogs.tif
102
RTVSPost2010PropOp54
 70
     1
102
RTVSPost2010Prop55
280
     0
102
RTVSPost2010PropOp55
 70
     1
102
RTVSPost2010Prop56
140
1.0
102
RTVSPost2010PropOp56
 70
     1
102
RTVSPost2010Prop57
140
1.0
102
RTVSPost2010PropOp57
 70
     1
  0
XRECORD
  5
44C
102
{ACAD_REACTORS
330
44B
102
}
330
44B
100
AcDbXrecord
280
     1
102
RTVSPropertyOp0
 70
     1
102
RTVSPropertyOp1
 70
     1
102
RTVSPropertyOp2
 70
     1
102
RTVSPropertyOp3
 70
     1
102
RTVSPropertyOp4
 70
     1
102
RTVSPropertyOp5
 70
     1
102
RTVSPropertyOp6
 70
     1
102
RTVSPropertyOp7
 70
     1
102
RTVSPropertyOp8
 70
     1
102
RTVSPropertyOp9
 70
     1
102
RTVSPropertyOp10
 70
     1
102
RTVSPropertyOp11
 70
     1
102
RTVSPropertyOp12
 70
     1
102
RTVSPropertyOp13
 70
     1
102
RTVSPropertyOp14
 70
     1
102
RTVSPropertyOp15
 70
     1
102
RTVSPropertyOp16
 70
     1
102
RTVSPropertyOp17
 70
     1
102
RTVSPropertyOp18
 70
     1
102
RTVSPropertyOp19
 70
     1
102
RTVSPropertyOp20
 70
     1
102
RTVSPropertyOp21
 70
     1
102
RTVSPropertyOp22
 70
     1
102
RTVSPropertyOp23
 70
     1
102
RTVSPropertyOp24
 70
     1
102
RTVSPropertyOp25
 70
     1
102
RTVSPropertyOp26
 70
     1
102
RTVSPropertyOp27
 70
     1
102
RTVSPropertyOp28
 70
     1
102
RTVSPropertyOp29
 70
     1
102
RTVSPropertyOp30
 70
     1
102
RTVSPropertyOp31
 70
     1
102
RTVSPropertyOp32
 70
     1
102
RTVSPropertyOp33
 70
     1
102
RTVSPropertyOp34
 70
     1
102
RTVSPropertyOp35
 70
     1
102
RTVSPropertyOp36
 70
     1
102
RTVSPropertyOp37
 70
     1
102
RTVSPropertyOp38
 70
     1
102
RTVSPropertyOp39
 70
     1
102
RTVSPropertyOp40
 70
     1
102
RTVSPropertyOp41
 70
     1
102
RTVSPropertyOp42
 70
     1
102
RTVSPropertyOp43
 70
     1
102
RTVSPropertyOp44
 70
     1
102
RTVSPropertyOp45
 70
     1
102
RTVSPropertyOp46
 70
     1
102
RTVSPropertyOp47
 70
     1
102
RTVSPropertyOp48
 70
     1
102
RTVSPropertyOp49
 70
     1
102
RTVSPropertyOp50
 70
     1
102
RTVSPropertyOp51
 70
     0
102
RTVSPropertyOp52
 70
     0
102
RTVSPropertyOp53
 70
     1
102
RTVSPropertyOp54
 70
     1
102
RTVSPropertyOp55
 70
     1
102
RTVSPropertyOp56
 70
     1
102
RTVSPropertyOp57
 70
     1
102
RTVSPost2010Prop28
280
     0
102
RTVSPost2010PropOp28
 70
     1
102
RTVSPost2010Prop29
280
     1
102
RTVSPost2010PropOp29
 70
     1
102
RTVSPost2010Prop30
280
     1
102
RTVSPost2010PropOp30
 70
     1
102
RTVSPost2010Prop31
280
     0
102
RTVSPost2010PropOp31
 70
     1
102
RTVSPost2010Prop32
280
     0
102
RTVSPost2010PropOp32
 70
     1
102
RTVSPost2010Prop33
280
     0
102
RTVSPost2010PropOp33
 70
     1
102
RTVSPost2010Prop34
280
     0
102
RTVSPost2010PropOp34
 70
     1
102
RTVSPost2010Prop35
280
     0
102
RTVSPost2010PropOp35
 70
     1
102
RTVSPost2010Prop36
280
     0
102
RTVSPost2010PropOp36
 70
     1
102
RTVSPost2010Prop37
 90
       50
102
RTVSPost2010PropOp37
 70
     1
102
RTVSPost2010Prop38
140
0.0
102
RTVSPost2010PropOp38
 70
     1
102
RTVSPost2010Prop39
140
1.0
102
RTVSPost2010PropOp39
 70
     1
102
RTVSPost2010Prop40
 90
        0
102
RTVSPost2010PropOp40
 70
     1
102
RTVSPost2010Prop41ColorIndex
 90
       18
102
RTVSPost2010Prop41ColorRGB
 90
        0
102
RTVSPost2010PropOp41
 70
     1
102
RTVSPost2010Prop42
 90
       50
102
RTVSPost2010PropOp42
 70
     1
102
RTVSPost2010Prop43
 90
        3
102
RTVSPost2010PropOp43
 70
     1
102
RTVSPost2010Prop44ColorIndex
 90
        5
102
RTVSPost2010Prop44ColorRGB
 90
      255
102
RTVSPost2010PropOp44
 70
     1
102
RTVSPost2010Prop45
280
     0
102
RTVSPost2010PropOp45
 70
     1
102
RTVSPost2010Prop46
 90
       50
102
RTVSPost2010PropOp46
 70
     1
102
RTVSPost2010Prop47
 90
       50
102
RTVSPost2010PropOp47
 70
     1
102
RTVSPost2010Prop48
 90
       50
102
RTVSPost2010PropOp48
 70
     1
102
RTVSPost2010Prop49
280
     0
102
RTVSPost2010PropOp49
 70
     1
102
RTVSPost2010Prop50
 90
       50
102
RTVSPost2010PropOp50
 70
     1
102
RTVSPost2010Prop51ColorIndex
 90
      256
102
RTVSPost2010Prop51ColorRGB
 90
-16777216
102
RTVSPost2010PropOp51
 70
     0
102
RTVSPost2010Prop52
140
1.0
102
RTVSPost2010PropOp52
 70
     0
102
RTVSPost2010Prop53
 90
        2
102
RTVSPost2010PropOp53
 70
     1
102
RTVSPost2010Prop54
  1
strokes_ogs.tif
102
RTVSPost2010PropOp54
 70
     1
102
RTVSPost2010Prop55
280
     0
102
RTVSPost2010PropOp55
 70
     1
102
RTVSPost2010Prop56
140
1.0
102
RTVSPost2010PropOp56
 70
     1
102
RTVSPost2010Prop57
140
1.0
102
RTVSPost2010PropOp57
 70
     1
  0
XRECORD
  5
454
102
{ACAD_REACTORS
330
453
102
}
330
453
100
AcDbXrecord
280
     1
102
RTVSPropertyOp0
 70
     1
102
RTVSPropertyOp1
 70
     1
102
RTVSPropertyOp2
 70
     1
102
RTVSPropertyOp3
 70
     1
102
RTVSPropertyOp4
 70
     1
102
RTVSPropertyOp5
 70
     1
102
RTVSPropertyOp6
 70
     1
102
RTVSPropertyOp7
 70
     1
102
RTVSPropertyOp8
 70
     1
102
RTVSPropertyOp9
 70
     1
102
RTVSPropertyOp10
 70
     1
102
RTVSPropertyOp11
 70
     1
102
RTVSPropertyOp12
 70
     1
102
RTVSPropertyOp13
 70
     1
102
RTVSPropertyOp14
 70
     1
102
RTVSPropertyOp15
 70
     1
102
RTVSPropertyOp16
 70
     1
102
RTVSPropertyOp17
 70
     1
102
RTVSPropertyOp18
 70
     1
102
RTVSPropertyOp19
 70
     1
102
RTVSPropertyOp20
 70
     1
102
RTVSPropertyOp21
 70
     1
102
RTVSPropertyOp22
 70
     1
102
RTVSPropertyOp23
 70
     1
102
RTVSPropertyOp24
 70
     1
102
RTVSPropertyOp25
 70
     1
102
RTVSPropertyOp26
 70
     1
102
RTVSPropertyOp27
 70
     1
102
RTVSPropertyOp28
 70
     1
102
RTVSPropertyOp29
 70
     1
102
RTVSPropertyOp30
 70
     1
102
RTVSPropertyOp31
 70
     1
102
RTVSPropertyOp32
 70
     1
102
RTVSPropertyOp33
 70
     1
102
RTVSPropertyOp34
 70
     1
102
RTVSPropertyOp35
 70
     1
102
RTVSPropertyOp36
 70
     1
102
RTVSPropertyOp37
 70
     1
102
RTVSPropertyOp38
 70
     1
102
RTVSPropertyOp39
 70
     1
102
RTVSPropertyOp40
 70
     1
102
RTVSPropertyOp41
 70
     1
102
RTVSPropertyOp42
 70
     1
102
RTVSPropertyOp43
 70
     1
102
RTVSPropertyOp44
 70
     1
102
RTVSPropertyOp45
 70
     1
102
RTVSPropertyOp46
 70
     1
102
RTVSPropertyOp47
 70
     1
102
RTVSPropertyOp48
 70
     1
102
RTVSPropertyOp49
 70
     1
102
RTVSPropertyOp50
 70
     1
102
RTVSPropertyOp51
 70
     0
102
RTVSPropertyOp52
 70
     0
102
RTVSPropertyOp53
 70
     1
102
RTVSPropertyOp54
 70
     1
102
RTVSPropertyOp55
 70
     1
102
RTVSPropertyOp56
 70
     1
102
RTVSPropertyOp57
 70
     1
102
RTVSPost2010Prop28
280
     0
102
RTVSPost2010PropOp28
 70
     1
102
RTVSPost2010Prop29
280
     1
102
RTVSPost2010PropOp29
 70
     1
102
RTVSPost2010Prop30
280
     1
102
RTVSPost2010PropOp30
 70
     1
102
RTVSPost2010Prop31
280
     0
102
RTVSPost2010PropOp31
 70
     1
102
RTVSPost2010Prop32
280
     0
102
RTVSPost2010PropOp32
 70
     1
102
RTVSPost2010Prop33
280
     0
102
RTVSPost2010PropOp33
 70
     1
102
RTVSPost2010Prop34
280
     0
102
RTVSPost2010PropOp34
 70
     1
102
RTVSPost2010Prop35
280
     0
102
RTVSPost2010PropOp35
 70
     1
102
RTVSPost2010Prop36
280
     0
102
RTVSPost2010PropOp36
 70
     1
102
RTVSPost2010Prop37
 90
       50
102
RTVSPost2010PropOp37
 70
     1
102
RTVSPost2010Prop38
140
0.0
102
RTVSPost2010PropOp38
 70
     1
102
RTVSPost2010Prop39
140
1.0
102
RTVSPost2010PropOp39
 70
     1
102
RTVSPost2010Prop40
 90
        0
102
RTVSPost2010PropOp40
 70
     1
102
RTVSPost2010Prop41ColorIndex
 90
       18
102
RTVSPost2010Prop41ColorRGB
 90
        0
102
RTVSPost2010PropOp41
 70
     1
102
RTVSPost2010Prop42
 90
       50
102
RTVSPost2010PropOp42
 70
     1
102
RTVSPost2010Prop43
 90
        3
102
RTVSPost2010PropOp43
 70
     1
102
RTVSPost2010Prop44ColorIndex
 90
        5
102
RTVSPost2010Prop44ColorRGB
 90
      255
102
RTVSPost2010PropOp44
 70
     1
102
RTVSPost2010Prop45
280
     0
102
RTVSPost2010PropOp45
 70
     1
102
RTVSPost2010Prop46
 90
       50
102
RTVSPost2010PropOp46
 70
     1
102
RTVSPost2010Prop47
 90
       50
102
RTVSPost2010PropOp47
 70
     1
102
RTVSPost2010Prop48
 90
       50
102
RTVSPost2010PropOp48
 70
     1
102
RTVSPost2010Prop49
280
     0
102
RTVSPost2010PropOp49
 70
     1
102
RTVSPost2010Prop50
 90
       50
102
RTVSPost2010PropOp50
 70
     1
102
RTVSPost2010Prop51ColorIndex
 90
      256
102
RTVSPost2010Prop51ColorRGB
 90
-16777216
102
RTVSPost2010PropOp51
 70
     0
102
RTVSPost2010Prop52
140
1.0
102
RTVSPost2010PropOp52
 70
     0
102
RTVSPost2010Prop53
 90
        2
102
RTVSPost2010PropOp53
 70
     1
102
RTVSPost2010Prop54
  1
strokes_ogs.tif
102
RTVSPost2010PropOp54
 70
     1
102
RTVSPost2010Prop55
280
     0
102
RTVSPost2010PropOp55
 70
     1
102
RTVSPost2010Prop56
140
1.0
102
RTVSPost2010PropOp56
 70
     1
102
RTVSPost2010Prop57
140
1.0
102
RTVSPost2010PropOp57
 70
     1
  0
XRECORD
  5
448
102
{ACAD_REACTORS
330
447
102
}
330
447
100
AcDbXrecord
280
     1
102
RTVSPropertyOp0
 70
     1
102
RTVSPropertyOp1
 70
     1
102
RTVSPropertyOp2
 70
     1
102
RTVSPropertyOp3
 70
     1
102
RTVSPropertyOp4
 70
     1
102
RTVSPropertyOp5
 70
     1
102
RTVSPropertyOp6
 70
     1
102
RTVSPropertyOp7
 70
     1
102
RTVSPropertyOp8
 70
     1
102
RTVSPropertyOp9
 70
     1
102
RTVSPropertyOp10
 70
     1
102
RTVSPropertyOp11
 70
     1
102
RTVSPropertyOp12
 70
     1
102
RTVSPropertyOp13
 70
     1
102
RTVSPropertyOp14
 70
     1
102
RTVSPropertyOp15
 70
     1
102
RTVSPropertyOp16
 70
     1
102
RTVSPropertyOp17
 70
     1
102
RTVSPropertyOp18
 70
     1
102
RTVSPropertyOp19
 70
     1
102
RTVSPropertyOp20
 70
     1
102
RTVSPropertyOp21
 70
     1
102
RTVSPropertyOp22
 70
     1
102
RTVSPropertyOp23
 70
     1
102
RTVSPropertyOp24
 70
     1
102
RTVSPropertyOp25
 70
     1
102
RTVSPropertyOp26
 70
     1
102
RTVSPropertyOp27
 70
     1
102
RTVSPropertyOp28
 70
     1
102
RTVSPropertyOp29
 70
     1
102
RTVSPropertyOp30
 70
     1
102
RTVSPropertyOp31
 70
     1
102
RTVSPropertyOp32
 70
     1
102
RTVSPropertyOp33
 70
     1
102
RTVSPropertyOp34
 70
     1
102
RTVSPropertyOp35
 70
     1
102
RTVSPropertyOp36
 70
     1
102
RTVSPropertyOp37
 70
     1
102
RTVSPropertyOp38
 70
     1
102
RTVSPropertyOp39
 70
     1
102
RTVSPropertyOp40
 70
     1
102
RTVSPropertyOp41
 70
     1
102
RTVSPropertyOp42
 70
     1
102
RTVSPropertyOp43
 70
     1
102
RTVSPropertyOp44
 70
     1
102
RTVSPropertyOp45
 70
     1
102
RTVSPropertyOp46
 70
     1
102
RTVSPropertyOp47
 70
     1
102
RTVSPropertyOp48
 70
     1
102
RTVSPropertyOp49
 70
     1
102
RTVSPropertyOp50
 70
     1
102
RTVSPropertyOp51
 70
     0
102
RTVSPropertyOp52
 70
     0
102
RTVSPropertyOp53
 70
     1
102
RTVSPropertyOp54
 70
     1
102
RTVSPropertyOp55
 70
     1
102
RTVSPropertyOp56
 70
     1
102
RTVSPropertyOp57
 70
     1
102
RTVSPost2010Prop28
280
     0
102
RTVSPost2010PropOp28
 70
     1
102
RTVSPost2010Prop29
280
     1
102
RTVSPost2010PropOp29
 70
     1
102
RTVSPost2010Prop30
280
     1
102
RTVSPost2010PropOp30
 70
     1
102
RTVSPost2010Prop31
280
     0
102
RTVSPost2010PropOp31
 70
     1
102
RTVSPost2010Prop32
280
     0
102
RTVSPost2010PropOp32
 70
     1
102
RTVSPost2010Prop33
280
     0
102
RTVSPost2010PropOp33
 70
     1
102
RTVSPost2010Prop34
280
     0
102
RTVSPost2010PropOp34
 70
     1
102
RTVSPost2010Prop35
280
     0
102
RTVSPost2010PropOp35
 70
     1
102
RTVSPost2010Prop36
280
     0
102
RTVSPost2010PropOp36
 70
     1
102
RTVSPost2010Prop37
 90
       50
102
RTVSPost2010PropOp37
 70
     1
102
RTVSPost2010Prop38
140
0.0
102
RTVSPost2010PropOp38
 70
     1
102
RTVSPost2010Prop39
140
1.0
102
RTVSPost2010PropOp39
 70
     1
102
RTVSPost2010Prop40
 90
        0
102
RTVSPost2010PropOp40
 70
     1
102
RTVSPost2010Prop41ColorIndex
 90
       18
102
RTVSPost2010Prop41ColorRGB
 90
        0
102
RTVSPost2010PropOp41
 70
     1
102
RTVSPost2010Prop42
 90
       50
102
RTVSPost2010PropOp42
 70
     1
102
RTVSPost2010Prop43
 90
        3
102
RTVSPost2010PropOp43
 70
     1
102
RTVSPost2010Prop44ColorIndex
 90
        5
102
RTVSPost2010Prop44ColorRGB
 90
      255
102
RTVSPost2010PropOp44
 70
     1
102
RTVSPost2010Prop45
280
     0
102
RTVSPost2010PropOp45
 70
     1
102
RTVSPost2010Prop46
 90
       50
102
RTVSPost2010PropOp46
 70
     1
102
RTVSPost2010Prop47
 90
       50
102
RTVSPost2010PropOp47
 70
     1
102
RTVSPost2010Prop48
 90
       50
102
RTVSPost2010PropOp48
 70
     1
102
RTVSPost2010Prop49
280
     0
102
RTVSPost2010PropOp49
 70
     1
102
RTVSPost2010Prop50
 90
       50
102
RTVSPost2010PropOp50
 70
     1
102
RTVSPost2010Prop51ColorIndex
 90
      256
102
RTVSPost2010Prop51ColorRGB
 90
-16777216
102
RTVSPost2010PropOp51
 70
     0
102
RTVSPost2010Prop52
140
1.0
102
RTVSPost2010PropOp52
 70
     0
102
RTVSPost2010Prop53
 90
        2
102
RTVSPost2010PropOp53
 70
     1
102
RTVSPost2010Prop54
  1
strokes_ogs.tif
102
RTVSPost2010PropOp54
 70
     1
102
RTVSPost2010Prop55
280
     0
102
RTVSPost2010PropOp55
 70
     1
102
RTVSPost2010Prop56
140
1.0
102
RTVSPost2010PropOp56
 70
     1
102
RTVSPost2010Prop57
140
1.0
102
RTVSPost2010PropOp57
 70
     1
  0
XRECORD
  5
44A
102
{ACAD_REACTORS
330
449
102
}
330
449
100
AcDbXrecord
280
     1
102
RTVSPropertyOp0
 70
     1
102
RTVSPropertyOp1
 70
     1
102
RTVSPropertyOp2
 70
     1
102
RTVSPropertyOp3
 70
     1
102
RTVSPropertyOp4
 70
     1
102
RTVSPropertyOp5
 70
     1
102
RTVSPropertyOp6
 70
     1
102
RTVSPropertyOp7
 70
     1
102
RTVSPropertyOp8
 70
     1
102
RTVSPropertyOp9
 70
     1
102
RTVSPropertyOp10
 70
     1
102
RTVSPropertyOp11
 70
     1
102
RTVSPropertyOp12
 70
     1
102
RTVSPropertyOp13
 70
     1
102
RTVSPropertyOp14
 70
     1
102
RTVSPropertyOp15
 70
     1
102
RTVSPropertyOp16
 70
     1
102
RTVSPropertyOp17
 70
     1
102
RTVSPropertyOp18
 70
     1
102
RTVSPropertyOp19
 70
     1
102
RTVSPropertyOp20
 70
     1
102
RTVSPropertyOp21
 70
     1
102
RTVSPropertyOp22
 70
     1
102
RTVSPropertyOp23
 70
     1
102
RTVSPropertyOp24
 70
     1
102
RTVSPropertyOp25
 70
     1
102
RTVSPropertyOp26
 70
     1
102
RTVSPropertyOp27
 70
     1
102
RTVSPropertyOp28
 70
     1
102
RTVSPropertyOp29
 70
     1
102
RTVSPropertyOp30
 70
     1
102
RTVSPropertyOp31
 70
     1
102
RTVSPropertyOp32
 70
     1
102
RTVSPropertyOp33
 70
     1
102
RTVSPropertyOp34
 70
     1
102
RTVSPropertyOp35
 70
     1
102
RTVSPropertyOp36
 70
     1
102
RTVSPropertyOp37
 70
     1
102
RTVSPropertyOp38
 70
     1
102
RTVSPropertyOp39
 70
     1
102
RTVSPropertyOp40
 70
     1
102
RTVSPropertyOp41
 70
     1
102
RTVSPropertyOp42
 70
     1
102
RTVSPropertyOp43
 70
     1
102
RTVSPropertyOp44
 70
     1
102
RTVSPropertyOp45
 70
     1
102
RTVSPropertyOp46
 70
     1
102
RTVSPropertyOp47
 70
     1
102
RTVSPropertyOp48
 70
     1
102
RTVSPropertyOp49
 70
     1
102
RTVSPropertyOp50
 70
     1
102
RTVSPropertyOp51
 70
     0
102
RTVSPropertyOp52
 70
     0
102
RTVSPropertyOp53
 70
     1
102
RTVSPropertyOp54
 70
     1
102
RTVSPropertyOp55
 70
     1
102
RTVSPropertyOp56
 70
     1
102
RTVSPropertyOp57
 70
     1
102
RTVSPost2010Prop28
280
     0
102
RTVSPost2010PropOp28
 70
     1
102
RTVSPost2010Prop29
280
     1
102
RTVSPost2010PropOp29
 70
     1
102
RTVSPost2010Prop30
280
     1
102
RTVSPost2010PropOp30
 70
     1
102
RTVSPost2010Prop31
280
     0
102
RTVSPost2010PropOp31
 70
     1
102
RTVSPost2010Prop32
280
     0
102
RTVSPost2010PropOp32
 70
     1
102
RTVSPost2010Prop33
280
     0
102
RTVSPost2010PropOp33
 70
     1
102
RTVSPost2010Prop34
280
     0
102
RTVSPost2010PropOp34
 70
     1
102
RTVSPost2010Prop35
280
     0
102
RTVSPost2010PropOp35
 70
     1
102
RTVSPost2010Prop36
280
     0
102
RTVSPost2010PropOp36
 70
     1
102
RTVSPost2010Prop37
 90
       50
102
RTVSPost2010PropOp37
 70
     1
102
RTVSPost2010Prop38
140
0.0
102
RTVSPost2010PropOp38
 70
     1
102
RTVSPost2010Prop39
140
1.0
102
RTVSPost2010PropOp39
 70
     1
102
RTVSPost2010Prop40
 90
        0
102
RTVSPost2010PropOp40
 70
     1
102
RTVSPost2010Prop41ColorIndex
 90
       18
102
RTVSPost2010Prop41ColorRGB
 90
        0
102
RTVSPost2010PropOp41
 70
     1
102
RTVSPost2010Prop42
 90
       50
102
RTVSPost2010PropOp42
 70
     1
102
RTVSPost2010Prop43
 90
        3
102
RTVSPost2010PropOp43
 70
     1
102
RTVSPost2010Prop44ColorIndex
 90
        5
102
RTVSPost2010Prop44ColorRGB
 90
      255
102
RTVSPost2010PropOp44
 70
     1
102
RTVSPost2010Prop45
280
     0
102
RTVSPost2010PropOp45
 70
     1
102
RTVSPost2010Prop46
 90
       50
102
RTVSPost2010PropOp46
 70
     1
102
RTVSPost2010Prop47
 90
       50
102
RTVSPost2010PropOp47
 70
     1
102
RTVSPost2010Prop48
 90
       50
102
RTVSPost2010PropOp48
 70
     1
102
RTVSPost2010Prop49
280
     0
102
RTVSPost2010PropOp49
 70
     1
102
RTVSPost2010Prop50
 90
       50
102
RTVSPost2010PropOp50
 70
     1
102
RTVSPost2010Prop51ColorIndex
 90
      256
102
RTVSPost2010Prop51ColorRGB
 90
-16777216
102
RTVSPost2010PropOp51
 70
     0
102
RTVSPost2010Prop52
140
1.0
102
RTVSPost2010PropOp52
 70
     0
102
RTVSPost2010Prop53
 90
        2
102
RTVSPost2010PropOp53
 70
     1
102
RTVSPost2010Prop54
  1
strokes_ogs.tif
102
RTVSPost2010PropOp54
 70
     1
102
RTVSPost2010Prop55
280
     0
102
RTVSPost2010PropOp55
 70
     1
102
RTVSPost2010Prop56
140
1.0
102
RTVSPost2010PropOp56
 70
     1
102
RTVSPost2010Prop57
140
1.0
102
RTVSPost2010PropOp57
 70
     1
  0
XRECORD
  5
45A
102
{ACAD_REACTORS
330
459
102
}
330
459
100
AcDbXrecord
280
     1
102
RTVSPropertyOp0
 70
     0
102
RTVSPropertyOp1
 70
     0
102
RTVSPropertyOp2
 70
     0
102
RTVSPropertyOp3
 70
     0
102
RTVSPropertyOp4
 70
     0
102
RTVSPropertyOp5
 70
     0
102
RTVSPropertyOp6
 70
     0
102
RTVSPropertyOp7
 70
     0
102
RTVSPropertyOp8
 70
     0
102
RTVSPropertyOp9
 70
     0
102
RTVSPropertyOp10
 70
     0
102
RTVSPropertyOp11
 70
     0
102
RTVSPropertyOp12
 70
     0
102
RTVSPropertyOp13
 70
     0
102
RTVSPropertyOp14
 70
     2
102
RTVSPropertyOp15
 70
     0
102
RTVSPropertyOp16
 70
     0
102
RTVSPropertyOp17
 70
     0
102
RTVSPropertyOp18
 70
     0
102
RTVSPropertyOp19
 70
     0
102
RTVSPropertyOp20
 70
     0
102
RTVSPropertyOp21
 70
     0
102
RTVSPropertyOp22
 70
     0
102
RTVSPropertyOp23
 70
     0
102
RTVSPropertyOp24
 70
     0
102
RTVSPropertyOp25
 70
     0
102
RTVSPropertyOp26
 70
     0
102
RTVSPropertyOp27
 70
     0
102
RTVSPropertyOp28
 70
     0
102
RTVSPropertyOp29
 70
     0
102
RTVSPropertyOp30
 70
     0
102
RTVSPropertyOp31
 70
     0
102
RTVSPropertyOp32
 70
     0
102
RTVSPropertyOp33
 70
     0
102
RTVSPropertyOp34
 70
     0
102
RTVSPropertyOp35
 70
     0
102
RTVSPropertyOp36
 70
     0
102
RTVSPropertyOp37
 70
     0
102
RTVSPropertyOp38
 70
     0
102
RTVSPropertyOp39
 70
     0
102
RTVSPropertyOp40
 70
     0
102
RTVSPropertyOp41
 70
     0
102
RTVSPropertyOp42
 70
     0
102
RTVSPropertyOp43
 70
     0
102
RTVSPropertyOp44
 70
     0
102
RTVSPropertyOp45
 70
     0
102
RTVSPropertyOp46
 70
     0
102
RTVSPropertyOp47
 70
     0
102
RTVSPropertyOp48
 70
     0
102
RTVSPropertyOp49
 70
     0
102
RTVSPropertyOp50
 70
     0
102
RTVSPropertyOp51
 70
     0
102
RTVSPropertyOp52
 70
     0
102
RTVSPropertyOp53
 70
     0
102
RTVSPropertyOp54
 70
     0
102
RTVSPropertyOp55
 70
     0
102
RTVSPropertyOp56
 70
     0
102
RTVSPropertyOp57
 70
     0
102
RTVSPost2010Prop28
280
     0
102
RTVSPost2010PropOp28
 70
     0
102
RTVSPost2010Prop29
280
     1
102
RTVSPost2010PropOp29
 70
     0
102
RTVSPost2010Prop30
280
     1
102
RTVSPost2010PropOp30
 70
     0
102
RTVSPost2010Prop31
280
     0
102
RTVSPost2010PropOp31
 70
     0
102
RTVSPost2010Prop32
280
     0
102
RTVSPost2010PropOp32
 70
     0
102
RTVSPost2010Prop33
280
     0
102
RTVSPost2010PropOp33
 70
     0
102
RTVSPost2010Prop34
280
     0
102
RTVSPost2010PropOp34
 70
     0
102
RTVSPost2010Prop35
280
     0
102
RTVSPost2010PropOp35
 70
     0
102
RTVSPost2010Prop36
280
     0
102
RTVSPost2010PropOp36
 70
     0
102
RTVSPost2010Prop37
 90
       50
102
RTVSPost2010PropOp37
 70
     0
102
RTVSPost2010Prop38
140
0.0
102
RTVSPost2010PropOp38
 70
     0
102
RTVSPost2010Prop39
140
1.0
102
RTVSPost2010PropOp39
 70
     0
102
RTVSPost2010Prop40
 90
        0
102
RTVSPost2010PropOp40
 70
     0
102
RTVSPost2010Prop41ColorIndex
 90
       18
102
RTVSPost2010Prop41ColorRGB
 90
        0
102
RTVSPost2010PropOp41
 70
     0
102
RTVSPost2010Prop42
 90
       50
102
RTVSPost2010PropOp42
 70
     0
102
RTVSPost2010Prop43
 90
        3
102
RTVSPost2010PropOp43
 70
     0
102
RTVSPost2010Prop44ColorIndex
 90
        5
102
RTVSPost2010Prop44ColorRGB
 90
      255
102
RTVSPost2010PropOp44
 70
     0
102
RTVSPost2010Prop45
280
     0
102
RTVSPost2010PropOp45
 70
     0
102
RTVSPost2010Prop46
 90
       50
102
RTVSPost2010PropOp46
 70
     0
102
RTVSPost2010Prop47
 90
       50
102
RTVSPost2010PropOp47
 70
     0
102
RTVSPost2010Prop48
 90
       50
102
RTVSPost2010PropOp48
 70
     0
102
RTVSPost2010Prop49
280
     0
102
RTVSPost2010PropOp49
 70
     0
102
RTVSPost2010Prop50
 90
       50
102
RTVSPost2010PropOp50
 70
     0
102
RTVSPost2010Prop51ColorIndex
 90
      256
102
RTVSPost2010Prop51ColorRGB
 90
-16777216
102
RTVSPost2010PropOp51
 70
     0
102
RTVSPost2010Prop52
140
1.0
102
RTVSPost2010PropOp52
 70
     0
102
RTVSPost2010Prop53
 90
        2
102
RTVSPost2010PropOp53
 70
     0
102
RTVSPost2010Prop54
  1
strokes_ogs.tif
102
RTVSPost2010PropOp54
 70
     0
102
RTVSPost2010Prop55
280
     0
102
RTVSPost2010PropOp55
 70
     0
102
RTVSPost2010Prop56
140
1.0
102
RTVSPost2010PropOp56
 70
     0
102
RTVSPost2010Prop57
140
1.0
102
RTVSPost2010PropOp57
 70
     0
  0
XRECORD
  5
452
102
{ACAD_REACTORS
330
451
102
}
330
451
100
AcDbXrecord
280
     1
102
RTVSPropertyOp0
 70
     1
102
RTVSPropertyOp1
 70
     1
102
RTVSPropertyOp2
 70
     1
102
RTVSPropertyOp3
 70
     1
102
RTVSPropertyOp4
 70
     1
102
RTVSPropertyOp5
 70
     1
102
RTVSPropertyOp6
 70
     1
102
RTVSPropertyOp7
 70
     1
102
RTVSPropertyOp8
 70
     1
102
RTVSPropertyOp9
 70
     1
102
RTVSPropertyOp10
 70
     1
102
RTVSPropertyOp11
 70
     1
102
RTVSPropertyOp12
 70
     1
102
RTVSPropertyOp13
 70
     1
102
RTVSPropertyOp14
 70
     1
102
RTVSPropertyOp15
 70
     1
102
RTVSPropertyOp16
 70
     1
102
RTVSPropertyOp17
 70
     1
102
RTVSPropertyOp18
 70
     1
102
RTVSPropertyOp19
 70
     1
102
RTVSPropertyOp20
 70
     1
102
RTVSPropertyOp21
 70
     1
102
RTVSPropertyOp22
 70
     1
102
RTVSPropertyOp23
 70
     1
102
RTVSPropertyOp24
 70
     1
102
RTVSPropertyOp25
 70
     1
102
RTVSPropertyOp26
 70
     1
102
RTVSPropertyOp27
 70
     1
102
RTVSPropertyOp28
 70
     1
102
RTVSPropertyOp29
 70
     1
102
RTVSPropertyOp30
 70
     1
102
RTVSPropertyOp31
 70
     1
102
RTVSPropertyOp32
 70
     1
102
RTVSPropertyOp33
 70
     1
102
RTVSPropertyOp34
 70
     1
102
RTVSPropertyOp35
 70
     1
102
RTVSPropertyOp36
 70
     1
102
RTVSPropertyOp37
 70
     1
102
RTVSPropertyOp38
 70
     1
102
RTVSPropertyOp39
 70
     1
102
RTVSPropertyOp40
 70
     1
102
RTVSPropertyOp41
 70
     1
102
RTVSPropertyOp42
 70
     1
102
RTVSPropertyOp43
 70
     1
102
RTVSPropertyOp44
 70
     1
102
RTVSPropertyOp45
 70
     1
102
RTVSPropertyOp46
 70
     1
102
RTVSPropertyOp47
 70
     1
102
RTVSPropertyOp48
 70
     1
102
RTVSPropertyOp49
 70
     1
102
RTVSPropertyOp50
 70
     1
102
RTVSPropertyOp51
 70
     0
102
RTVSPropertyOp52
 70
     0
102
RTVSPropertyOp53
 70
     1
102
RTVSPropertyOp54
 70
     1
102
RTVSPropertyOp55
 70
     1
102
RTVSPropertyOp56
 70
     1
102
RTVSPropertyOp57
 70
     1
102
RTVSPost2010Prop28
280
     0
102
RTVSPost2010PropOp28
 70
     1
102
RTVSPost2010Prop29
280
     1
102
RTVSPost2010PropOp29
 70
     1
102
RTVSPost2010Prop30
280
     1
102
RTVSPost2010PropOp30
 70
     1
102
RTVSPost2010Prop31
280
     0
102
RTVSPost2010PropOp31
 70
     1
102
RTVSPost2010Prop32
280
     0
102
RTVSPost2010PropOp32
 70
     1
102
RTVSPost2010Prop33
280
     0
102
RTVSPost2010PropOp33
 70
     1
102
RTVSPost2010Prop34
280
     0
102
RTVSPost2010PropOp34
 70
     1
102
RTVSPost2010Prop35
280
     0
102
RTVSPost2010PropOp35
 70
     1
102
RTVSPost2010Prop36
280
     0
102
RTVSPost2010PropOp36
 70
     1
102
RTVSPost2010Prop37
 90
       50
102
RTVSPost2010PropOp37
 70
     1
102
RTVSPost2010Prop38
140
0.0
102
RTVSPost2010PropOp38
 70
     1
102
RTVSPost2010Prop39
140
1.0
102
RTVSPost2010PropOp39
 70
     1
102
RTVSPost2010Prop40
 90
        0
102
RTVSPost2010PropOp40
 70
     1
102
RTVSPost2010Prop41ColorIndex
 90
       18
102
RTVSPost2010Prop41ColorRGB
 90
        0
102
RTVSPost2010PropOp41
 70
     1
102
RTVSPost2010Prop42
 90
       50
102
RTVSPost2010PropOp42
 70
     1
102
RTVSPost2010Prop43
 90
        3
102
RTVSPost2010PropOp43
 70
     1
102
RTVSPost2010Prop44ColorIndex
 90
        5
102
RTVSPost2010Prop44ColorRGB
 90
      255
102
RTVSPost2010PropOp44
 70
     1
102
RTVSPost2010Prop45
280
     0
102
RTVSPost2010PropOp45
 70
     1
102
RTVSPost2010Prop46
 90
       50
102
RTVSPost2010PropOp46
 70
     1
102
RTVSPost2010Prop47
 90
       50
102
RTVSPost2010PropOp47
 70
     1
102
RTVSPost2010Prop48
 90
       50
102
RTVSPost2010PropOp48
 70
     1
102
RTVSPost2010Prop49
280
     0
102
RTVSPost2010PropOp49
 70
     1
102
RTVSPost2010Prop50
 90
       50
102
RTVSPost2010PropOp50
 70
     1
102
RTVSPost2010Prop51ColorIndex
 90
      256
102
RTVSPost2010Prop51ColorRGB
 90
-16777216
102
RTVSPost2010PropOp51
 70
     0
102
RTVSPost2010Prop52
140
1.0
102
RTVSPost2010PropOp52
 70
     0
102
RTVSPost2010Prop53
 90
        2
102
RTVSPost2010PropOp53
 70
     1
102
RTVSPost2010Prop54
  1
strokes_ogs.tif
102
RTVSPost2010PropOp54
 70
     1
102
RTVSPost2010Prop55
280
     0
102
RTVSPost2010PropOp55
 70
     1
102
RTVSPost2010Prop56
140
1.0
102
RTVSPost2010PropOp56
 70
     1
102
RTVSPost2010Prop57
140
1.0
102
RTVSPost2010PropOp57
 70
     1
  0
XRECORD
  5
436
102
{ACAD_REACTORS
330
435
102
}
330
435
100
AcDbXrecord
280
     1
102
RTVSPropertyOp0
 70
     1
102
RTVSPropertyOp1
 70
     1
102
RTVSPropertyOp2
 70
     1
102
RTVSPropertyOp3
 70
     1
102
RTVSPropertyOp4
 70
     1
102
RTVSPropertyOp5
 70
     1
102
RTVSPropertyOp6
 70
     1
102
RTVSPropertyOp7
 70
     1
102
RTVSPropertyOp8
 70
     1
102
RTVSPropertyOp9
 70
     1
102
RTVSPropertyOp10
 70
     1
102
RTVSPropertyOp11
 70
     1
102
RTVSPropertyOp12
 70
     1
102
RTVSPropertyOp13
 70
     1
102
RTVSPropertyOp14
 70
     1
102
RTVSPropertyOp15
 70
     1
102
RTVSPropertyOp16
 70
     1
102
RTVSPropertyOp17
 70
     1
102
RTVSPropertyOp18
 70
     1
102
RTVSPropertyOp19
 70
     1
102
RTVSPropertyOp20
 70
     1
102
RTVSPropertyOp21
 70
     1
102
RTVSPropertyOp22
 70
     1
102
RTVSPropertyOp23
 70
     1
102
RTVSPropertyOp24
 70
     1
102
RTVSPropertyOp25
 70
     1
102
RTVSPropertyOp26
 70
     1
102
RTVSPropertyOp27
 70
     1
102
RTVSPropertyOp28
 70
     1
102
RTVSPropertyOp29
 70
     1
102
RTVSPropertyOp30
 70
     1
102
RTVSPropertyOp31
 70
     1
102
RTVSPropertyOp32
 70
     1
102
RTVSPropertyOp33
 70
     1
102
RTVSPropertyOp34
 70
     1
102
RTVSPropertyOp35
 70
     1
102
RTVSPropertyOp36
 70
     1
102
RTVSPropertyOp37
 70
     1
102
RTVSPropertyOp38
 70
     1
102
RTVSPropertyOp39
 70
     1
102
RTVSPropertyOp40
 70
     1
102
RTVSPropertyOp41
 70
     1
102
RTVSPropertyOp42
 70
     1
102
RTVSPropertyOp43
 70
     1
102
RTVSPropertyOp44
 70
     1
102
RTVSPropertyOp45
 70
     1
102
RTVSPropertyOp46
 70
     1
102
RTVSPropertyOp47
 70
     1
102
RTVSPropertyOp48
 70
     1
102
RTVSPropertyOp49
 70
     1
102
RTVSPropertyOp50
 70
     1
102
RTVSPropertyOp51
 70
     0
102
RTVSPropertyOp52
 70
     0
102
RTVSPropertyOp53
 70
     1
102
RTVSPropertyOp54
 70
     1
102
RTVSPropertyOp55
 70
     1
102
RTVSPropertyOp56
 70
     1
102
RTVSPropertyOp57
 70
     1
102
RTVSPost2010Prop28
280
     0
102
RTVSPost2010PropOp28
 70
     1
102
RTVSPost2010Prop29
280
     1
102
RTVSPost2010PropOp29
 70
     1
102
RTVSPost2010Prop30
280
     1
102
RTVSPost2010PropOp30
 70
     1
102
RTVSPost2010Prop31
280
     0
102
RTVSPost2010PropOp31
 70
     1
102
RTVSPost2010Prop32
280
     0
102
RTVSPost2010PropOp32
 70
     1
102
RTVSPost2010Prop33
280
     0
102
RTVSPost2010PropOp33
 70
     1
102
RTVSPost2010Prop34
280
     0
102
RTVSPost2010PropOp34
 70
     1
102
RTVSPost2010Prop35
280
     0
102
RTVSPost2010PropOp35
 70
     1
102
RTVSPost2010Prop36
280
     0
102
RTVSPost2010PropOp36
 70
     1
102
RTVSPost2010Prop37
 90
       50
102
RTVSPost2010PropOp37
 70
     1
102
RTVSPost2010Prop38
140
0.0
102
RTVSPost2010PropOp38
 70
     1
102
RTVSPost2010Prop39
140
1.0
102
RTVSPost2010PropOp39
 70
     1
102
RTVSPost2010Prop40
 90
        0
102
RTVSPost2010PropOp40
 70
     1
102
RTVSPost2010Prop41ColorIndex
 90
       18
102
RTVSPost2010Prop41ColorRGB
 90
        0
102
RTVSPost2010PropOp41
 70
     1
102
RTVSPost2010Prop42
 90
       50
102
RTVSPost2010PropOp42
 70
     1
102
RTVSPost2010Prop43
 90
        3
102
RTVSPost2010PropOp43
 70
     1
102
RTVSPost2010Prop44ColorIndex
 90
        5
102
RTVSPost2010Prop44ColorRGB
 90
      255
102
RTVSPost2010PropOp44
 70
     1
102
RTVSPost2010Prop45
280
     0
102
RTVSPost2010PropOp45
 70
     1
102
RTVSPost2010Prop46
 90
       50
102
RTVSPost2010PropOp46
 70
     1
102
RTVSPost2010Prop47
 90
       50
102
RTVSPost2010PropOp47
 70
     1
102
RTVSPost2010Prop48
 90
       50
102
RTVSPost2010PropOp48
 70
     1
102
RTVSPost2010Prop49
280
     0
102
RTVSPost2010PropOp49
 70
     1
102
RTVSPost2010Prop50
 90
       50
102
RTVSPost2010PropOp50
 70
     1
102
RTVSPost2010Prop51ColorIndex
 90
      256
102
RTVSPost2010Prop51ColorRGB
 90
-16777216
102
RTVSPost2010PropOp51
 70
     0
102
RTVSPost2010Prop52
140
1.0
102
RTVSPost2010PropOp52
 70
     0
102
RTVSPost2010Prop53
 90
        2
102
RTVSPost2010PropOp53
 70
     1
102
RTVSPost2010Prop54
  1
strokes_ogs.tif
102
RTVSPost2010PropOp54
 70
     1
102
RTVSPost2010Prop55
280
     0
102
RTVSPost2010PropOp55
 70
     1
102
RTVSPost2010Prop56
140
1.0
102
RTVSPost2010PropOp56
 70
     1
102
RTVSPost2010Prop57
140
1.0
102
RTVSPost2010PropOp57
 70
     1
  0
XRECORD
  5
438
102
{ACAD_REACTORS
330
437
102
}
330
437
100
AcDbXrecord
280
     1
102
RTVSPropertyOp0
 70
     1
102
RTVSPropertyOp1
 70
     1
102
RTVSPropertyOp2
 70
     1
102
RTVSPropertyOp3
 70
     1
102
RTVSPropertyOp4
 70
     1
102
RTVSPropertyOp5
 70
     1
102
RTVSPropertyOp6
 70
     1
102
RTVSPropertyOp7
 70
     1
102
RTVSPropertyOp8
 70
     1
102
RTVSPropertyOp9
 70
     1
102
RTVSPropertyOp10
 70
     1
102
RTVSPropertyOp11
 70
     1
102
RTVSPropertyOp12
 70
     1
102
RTVSPropertyOp13
 70
     1
102
RTVSPropertyOp14
 70
     1
102
RTVSPropertyOp15
 70
     1
102
RTVSPropertyOp16
 70
     1
102
RTVSPropertyOp17
 70
     1
102
RTVSPropertyOp18
 70
     1
102
RTVSPropertyOp19
 70
     1
102
RTVSPropertyOp20
 70
     1
102
RTVSPropertyOp21
 70
     1
102
RTVSPropertyOp22
 70
     1
102
RTVSPropertyOp23
 70
     1
102
RTVSPropertyOp24
 70
     1
102
RTVSPropertyOp25
 70
     1
102
RTVSPropertyOp26
 70
     1
102
RTVSPropertyOp27
 70
     1
102
RTVSPropertyOp28
 70
     1
102
RTVSPropertyOp29
 70
     1
102
RTVSPropertyOp30
 70
     1
102
RTVSPropertyOp31
 70
     1
102
RTVSPropertyOp32
 70
     1
102
RTVSPropertyOp33
 70
     1
102
RTVSPropertyOp34
 70
     1
102
RTVSPropertyOp35
 70
     1
102
RTVSPropertyOp36
 70
     1
102
RTVSPropertyOp37
 70
     1
102
RTVSPropertyOp38
 70
     1
102
RTVSPropertyOp39
 70
     1
102
RTVSPropertyOp40
 70
     1
102
RTVSPropertyOp41
 70
     1
102
RTVSPropertyOp42
 70
     1
102
RTVSPropertyOp43
 70
     1
102
RTVSPropertyOp44
 70
     1
102
RTVSPropertyOp45
 70
     1
102
RTVSPropertyOp46
 70
     1
102
RTVSPropertyOp47
 70
     1
102
RTVSPropertyOp48
 70
     1
102
RTVSPropertyOp49
 70
     1
102
RTVSPropertyOp50
 70
     1
102
RTVSPropertyOp51
 70
     0
102
RTVSPropertyOp52
 70
     0
102
RTVSPropertyOp53
 70
     1
102
RTVSPropertyOp54
 70
     1
102
RTVSPropertyOp55
 70
     1
102
RTVSPropertyOp56
 70
     1
102
RTVSPropertyOp57
 70
     1
102
RTVSPost2010Prop28
280
     0
102
RTVSPost2010PropOp28
 70
     1
102
RTVSPost2010Prop29
280
     1
102
RTVSPost2010PropOp29
 70
     1
102
RTVSPost2010Prop30
280
     1
102
RTVSPost2010PropOp30
 70
     1
102
RTVSPost2010Prop31
280
     0
102
RTVSPost2010PropOp31
 70
     1
102
RTVSPost2010Prop32
280
     0
102
RTVSPost2010PropOp32
 70
     1
102
RTVSPost2010Prop33
280
     0
102
RTVSPost2010PropOp33
 70
     1
102
RTVSPost2010Prop34
280
     0
102
RTVSPost2010PropOp34
 70
     1
102
RTVSPost2010Prop35
280
     0
102
RTVSPost2010PropOp35
 70
     1
102
RTVSPost2010Prop36
280
     0
102
RTVSPost2010PropOp36
 70
     1
102
RTVSPost2010Prop37
 90
       50
102
RTVSPost2010PropOp37
 70
     1
102
RTVSPost2010Prop38
140
0.0
102
RTVSPost2010PropOp38
 70
     1
102
RTVSPost2010Prop39
140
1.0
102
RTVSPost2010PropOp39
 70
     1
102
RTVSPost2010Prop40
 90
        0
102
RTVSPost2010PropOp40
 70
     1
102
RTVSPost2010Prop41ColorIndex
 90
       18
102
RTVSPost2010Prop41ColorRGB
 90
        0
102
RTVSPost2010PropOp41
 70
     1
102
RTVSPost2010Prop42
 90
       50
102
RTVSPost2010PropOp42
 70
     1
102
RTVSPost2010Prop43
 90
        3
102
RTVSPost2010PropOp43
 70
     1
102
RTVSPost2010Prop44ColorIndex
 90
        5
102
RTVSPost2010Prop44ColorRGB
 90
      255
102
RTVSPost2010PropOp44
 70
     1
102
RTVSPost2010Prop45
280
     0
102
RTVSPost2010PropOp45
 70
     1
102
RTVSPost2010Prop46
 90
       50
102
RTVSPost2010PropOp46
 70
     1
102
RTVSPost2010Prop47
 90
       50
102
RTVSPost2010PropOp47
 70
     1
102
RTVSPost2010Prop48
 90
       50
102
RTVSPost2010PropOp48
 70
     1
102
RTVSPost2010Prop49
280
     0
102
RTVSPost2010PropOp49
 70
     1
102
RTVSPost2010Prop50
 90
       50
102
RTVSPost2010PropOp50
 70
     1
102
RTVSPost2010Prop51ColorIndex
 90
      256
102
RTVSPost2010Prop51ColorRGB
 90
-16777216
102
RTVSPost2010PropOp51
 70
     0
102
RTVSPost2010Prop52
140
1.0
102
RTVSPost2010PropOp52
 70
     0
102
RTVSPost2010Prop53
 90
        2
102
RTVSPost2010PropOp53
 70
     1
102
RTVSPost2010Prop54
  1
strokes_ogs.tif
102
RTVSPost2010PropOp54
 70
     1
102
RTVSPost2010Prop55
280
     0
102
RTVSPost2010PropOp55
 70
     1
102
RTVSPost2010Prop56
140
1.0
102
RTVSPost2010PropOp56
 70
     1
102
RTVSPost2010Prop57
140
1.0
102
RTVSPost2010PropOp57
 70
     1
  0
XRECORD
  5
43A
102
{ACAD_REACTORS
330
439
102
}
330
439
100
AcDbXrecord
280
     1
102
RTVSPropertyOp0
 70
     1
102
RTVSPropertyOp1
 70
     1
102
RTVSPropertyOp2
 70
     1
102
RTVSPropertyOp3
 70
     1
102
RTVSPropertyOp4
 70
     1
102
RTVSPropertyOp5
 70
     1
102
RTVSPropertyOp6
 70
     1
102
RTVSPropertyOp7
 70
     1
102
RTVSPropertyOp8
 70
     1
102
RTVSPropertyOp9
 70
     1
102
RTVSPropertyOp10
 70
     1
102
RTVSPropertyOp11
 70
     1
102
RTVSPropertyOp12
 70
     1
102
RTVSPropertyOp13
 70
     1
102
RTVSPropertyOp14
 70
     1
102
RTVSPropertyOp15
 70
     1
102
RTVSPropertyOp16
 70
     1
102
RTVSPropertyOp17
 70
     1
102
RTVSPropertyOp18
 70
     1
102
RTVSPropertyOp19
 70
     1
102
RTVSPropertyOp20
 70
     1
102
RTVSPropertyOp21
 70
     1
102
RTVSPropertyOp22
 70
     1
102
RTVSPropertyOp23
 70
     1
102
RTVSPropertyOp24
 70
     1
102
RTVSPropertyOp25
 70
     1
102
RTVSPropertyOp26
 70
     1
102
RTVSPropertyOp27
 70
     1
102
RTVSPropertyOp28
 70
     1
102
RTVSPropertyOp29
 70
     1
102
RTVSPropertyOp30
 70
     1
102
RTVSPropertyOp31
 70
     1
102
RTVSPropertyOp32
 70
     1
102
RTVSPropertyOp33
 70
     1
102
RTVSPropertyOp34
 70
     1
102
RTVSPropertyOp35
 70
     1
102
RTVSPropertyOp36
 70
     1
102
RTVSPropertyOp37
 70
     1
102
RTVSPropertyOp38
 70
     1
102
RTVSPropertyOp39
 70
     1
102
RTVSPropertyOp40
 70
     1
102
RTVSPropertyOp41
 70
     1
102
RTVSPropertyOp42
 70
     1
102
RTVSPropertyOp43
 70
     1
102
RTVSPropertyOp44
 70
     1
102
RTVSPropertyOp45
 70
     1
102
RTVSPropertyOp46
 70
     1
102
RTVSPropertyOp47
 70
     1
102
RTVSPropertyOp48
 70
     1
102
RTVSPropertyOp49
 70
     1
102
RTVSPropertyOp50
 70
     1
102
RTVSPropertyOp51
 70
     0
102
RTVSPropertyOp52
 70
     0
102
RTVSPropertyOp53
 70
     1
102
RTVSPropertyOp54
 70
     1
102
RTVSPropertyOp55
 70
     1
102
RTVSPropertyOp56
 70
     1
102
RTVSPropertyOp57
 70
     1
102
RTVSPost2010Prop28
280
     0
102
RTVSPost2010PropOp28
 70
     1
102
RTVSPost2010Prop29
280
     1
102
RTVSPost2010PropOp29
 70
     1
102
RTVSPost2010Prop30
280
     1
102
RTVSPost2010PropOp30
 70
     1
102
RTVSPost2010Prop31
280
     0
102
RTVSPost2010PropOp31
 70
     1
102
RTVSPost2010Prop32
280
     0
102
RTVSPost2010PropOp32
 70
     1
102
RTVSPost2010Prop33
280
     0
102
RTVSPost2010PropOp33
 70
     1
102
RTVSPost2010Prop34
280
     0
102
RTVSPost2010PropOp34
 70
     1
102
RTVSPost2010Prop35
280
     0
102
RTVSPost2010PropOp35
 70
     1
102
RTVSPost2010Prop36
280
     0
102
RTVSPost2010PropOp36
 70
     1
102
RTVSPost2010Prop37
 90
       50
102
RTVSPost2010PropOp37
 70
     1
102
RTVSPost2010Prop38
140
0.0
102
RTVSPost2010PropOp38
 70
     1
102
RTVSPost2010Prop39
140
1.0
102
RTVSPost2010PropOp39
 70
     1
102
RTVSPost2010Prop40
 90
        0
102
RTVSPost2010PropOp40
 70
     1
102
RTVSPost2010Prop41ColorIndex
 90
       18
102
RTVSPost2010Prop41ColorRGB
 90
        0
102
RTVSPost2010PropOp41
 70
     1
102
RTVSPost2010Prop42
 90
       50
102
RTVSPost2010PropOp42
 70
     1
102
RTVSPost2010Prop43
 90
        3
102
RTVSPost2010PropOp43
 70
     1
102
RTVSPost2010Prop44ColorIndex
 90
        5
102
RTVSPost2010Prop44ColorRGB
 90
      255
102
RTVSPost2010PropOp44
 70
     1
102
RTVSPost2010Prop45
280
     0
102
RTVSPost2010PropOp45
 70
     1
102
RTVSPost2010Prop46
 90
       50
102
RTVSPost2010PropOp46
 70
     1
102
RTVSPost2010Prop47
 90
       50
102
RTVSPost2010PropOp47
 70
     1
102
RTVSPost2010Prop48
 90
       50
102
RTVSPost2010PropOp48
 70
     1
102
RTVSPost2010Prop49
280
     0
102
RTVSPost2010PropOp49
 70
     1
102
RTVSPost2010Prop50
 90
       50
102
RTVSPost2010PropOp50
 70
     1
102
RTVSPost2010Prop51ColorIndex
 90
      256
102
RTVSPost2010Prop51ColorRGB
 90
-16777216
102
RTVSPost2010PropOp51
 70
     0
102
RTVSPost2010Prop52
140
1.0
102
RTVSPost2010PropOp52
 70
     0
102
RTVSPost2010Prop53
 90
        2
102
RTVSPost2010PropOp53
 70
     1
102
RTVSPost2010Prop54
  1
strokes_ogs.tif
102
RTVSPost2010PropOp54
 70
     1
102
RTVSPost2010Prop55
280
     0
102
RTVSPost2010PropOp55
 70
     1
102
RTVSPost2010Prop56
140
1.0
102
RTVSPost2010PropOp56
 70
     1
102
RTVSPost2010Prop57
140
1.0
102
RTVSPost2010PropOp57
 70
     1
  0
XRECORD
  5
43C
102
{ACAD_REACTORS
330
43B
102
}
330
43B
100
AcDbXrecord
280
     1
102
RTVSPropertyOp0
 70
     1
102
RTVSPropertyOp1
 70
     1
102
RTVSPropertyOp2
 70
     1
102
RTVSPropertyOp3
 70
     1
102
RTVSPropertyOp4
 70
     1
102
RTVSPropertyOp5
 70
     1
102
RTVSPropertyOp6
 70
     1
102
RTVSPropertyOp7
 70
     1
102
RTVSPropertyOp8
 70
     1
102
RTVSPropertyOp9
 70
     1
102
RTVSPropertyOp10
 70
     1
102
RTVSPropertyOp11
 70
     1
102
RTVSPropertyOp12
 70
     1
102
RTVSPropertyOp13
 70
     1
102
RTVSPropertyOp14
 70
     1
102
RTVSPropertyOp15
 70
     1
102
RTVSPropertyOp16
 70
     1
102
RTVSPropertyOp17
 70
     1
102
RTVSPropertyOp18
 70
     1
102
RTVSPropertyOp19
 70
     1
102
RTVSPropertyOp20
 70
     1
102
RTVSPropertyOp21
 70
     1
102
RTVSPropertyOp22
 70
     1
102
RTVSPropertyOp23
 70
     1
102
RTVSPropertyOp24
 70
     1
102
RTVSPropertyOp25
 70
     1
102
RTVSPropertyOp26
 70
     1
102
RTVSPropertyOp27
 70
     1
102
RTVSPropertyOp28
 70
     1
102
RTVSPropertyOp29
 70
     1
102
RTVSPropertyOp30
 70
     1
102
RTVSPropertyOp31
 70
     1
102
RTVSPropertyOp32
 70
     1
102
RTVSPropertyOp33
 70
     1
102
RTVSPropertyOp34
 70
     1
102
RTVSPropertyOp35
 70
     1
102
RTVSPropertyOp36
 70
     1
102
RTVSPropertyOp37
 70
     1
102
RTVSPropertyOp38
 70
     1
102
RTVSPropertyOp39
 70
     1
102
RTVSPropertyOp40
 70
     1
102
RTVSPropertyOp41
 70
     1
102
RTVSPropertyOp42
 70
     1
102
RTVSPropertyOp43
 70
     1
102
RTVSPropertyOp44
 70
     1
102
RTVSPropertyOp45
 70
     1
102
RTVSPropertyOp46
 70
     1
102
RTVSPropertyOp47
 70
     1
102
RTVSPropertyOp48
 70
     1
102
RTVSPropertyOp49
 70
     1
102
RTVSPropertyOp50
 70
     1
102
RTVSPropertyOp51
 70
     0
102
RTVSPropertyOp52
 70
     0
102
RTVSPropertyOp53
 70
     1
102
RTVSPropertyOp54
 70
     1
102
RTVSPropertyOp55
 70
     1
102
RTVSPropertyOp56
 70
     1
102
RTVSPropertyOp57
 70
     1
102
RTVSPost2010Prop28
280
     0
102
RTVSPost2010PropOp28
 70
     1
102
RTVSPost2010Prop29
280
     1
102
RTVSPost2010PropOp29
 70
     1
102
RTVSPost2010Prop30
280
     1
102
RTVSPost2010PropOp30
 70
     1
102
RTVSPost2010Prop31
280
     0
102
RTVSPost2010PropOp31
 70
     1
102
RTVSPost2010Prop32
280
     0
102
RTVSPost2010PropOp32
 70
     1
102
RTVSPost2010Prop33
280
     0
102
RTVSPost2010PropOp33
 70
     1
102
RTVSPost2010Prop34
280
     0
102
RTVSPost2010PropOp34
 70
     1
102
RTVSPost2010Prop35
280
     0
102
RTVSPost2010PropOp35
 70
     1
102
RTVSPost2010Prop36
280
     0
102
RTVSPost2010PropOp36
 70
     1
102
RTVSPost2010Prop37
 90
       50
102
RTVSPost2010PropOp37
 70
     1
102
RTVSPost2010Prop38
140
0.0
102
RTVSPost2010PropOp38
 70
     1
102
RTVSPost2010Prop39
140
1.0
102
RTVSPost2010PropOp39
 70
     1
102
RTVSPost2010Prop40
 90
        0
102
RTVSPost2010PropOp40
 70
     1
102
RTVSPost2010Prop41ColorIndex
 90
       18
102
RTVSPost2010Prop41ColorRGB
 90
        0
102
RTVSPost2010PropOp41
 70
     1
102
RTVSPost2010Prop42
 90
       50
102
RTVSPost2010PropOp42
 70
     1
102
RTVSPost2010Prop43
 90
        3
102
RTVSPost2010PropOp43
 70
     1
102
RTVSPost2010Prop44ColorIndex
 90
        5
102
RTVSPost2010Prop44ColorRGB
 90
      255
102
RTVSPost2010PropOp44
 70
     1
102
RTVSPost2010Prop45
280
     0
102
RTVSPost2010PropOp45
 70
     1
102
RTVSPost2010Prop46
 90
       50
102
RTVSPost2010PropOp46
 70
     1
102
RTVSPost2010Prop47
 90
       50
102
RTVSPost2010PropOp47
 70
     1
102
RTVSPost2010Prop48
 90
       50
102
RTVSPost2010PropOp48
 70
     1
102
RTVSPost2010Prop49
280
     0
102
RTVSPost2010PropOp49
 70
     1
102
RTVSPost2010Prop50
 90
       50
102
RTVSPost2010PropOp50
 70
     1
102
RTVSPost2010Prop51ColorIndex
 90
      256
102
RTVSPost2010Prop51ColorRGB
 90
-16777216
102
RTVSPost2010PropOp51
 70
     0
102
RTVSPost2010Prop52
140
1.0
102
RTVSPost2010PropOp52
 70
     0
102
RTVSPost2010Prop53
 90
        2
102
RTVSPost2010PropOp53
 70
     1
102
RTVSPost2010Prop54
  1
strokes_ogs.tif
102
RTVSPost2010PropOp54
 70
     1
102
RTVSPost2010Prop55
280
     0
102
RTVSPost2010PropOp55
 70
     1
102
RTVSPost2010Prop56
140
1.0
102
RTVSPost2010PropOp56
 70
     1
102
RTVSPost2010Prop57
140
1.0
102
RTVSPost2010PropOp57
 70
     1
  0
XRECORD
  5
442
102
{ACAD_REACTORS
330
441
102
}
330
441
100
AcDbXrecord
280
     1
102
RTVSPropertyOp0
 70
     1
102
RTVSPropertyOp1
 70
     1
102
RTVSPropertyOp2
 70
     1
102
RTVSPropertyOp3
 70
     1
102
RTVSPropertyOp4
 70
     1
102
RTVSPropertyOp5
 70
     1
102
RTVSPropertyOp6
 70
     1
102
RTVSPropertyOp7
 70
     1
102
RTVSPropertyOp8
 70
     1
102
RTVSPropertyOp9
 70
     1
102
RTVSPropertyOp10
 70
     1
102
RTVSPropertyOp11
 70
     1
102
RTVSPropertyOp12
 70
     1
102
RTVSPropertyOp13
 70
     1
102
RTVSPropertyOp14
 70
     1
102
RTVSPropertyOp15
 70
     1
102
RTVSPropertyOp16
 70
     1
102
RTVSPropertyOp17
 70
     1
102
RTVSPropertyOp18
 70
     1
102
RTVSPropertyOp19
 70
     1
102
RTVSPropertyOp20
 70
     1
102
RTVSPropertyOp21
 70
     1
102
RTVSPropertyOp22
 70
     1
102
RTVSPropertyOp23
 70
     1
102
RTVSPropertyOp24
 70
     1
102
RTVSPropertyOp25
 70
     1
102
RTVSPropertyOp26
 70
     1
102
RTVSPropertyOp27
 70
     1
102
RTVSPropertyOp28
 70
     1
102
RTVSPropertyOp29
 70
     1
102
RTVSPropertyOp30
 70
     1
102
RTVSPropertyOp31
 70
     1
102
RTVSPropertyOp32
 70
     1
102
RTVSPropertyOp33
 70
     1
102
RTVSPropertyOp34
 70
     1
102
RTVSPropertyOp35
 70
     1
102
RTVSPropertyOp36
 70
     1
102
RTVSPropertyOp37
 70
     1
102
RTVSPropertyOp38
 70
     1
102
RTVSPropertyOp39
 70
     1
102
RTVSPropertyOp40
 70
     1
102
RTVSPropertyOp41
 70
     1
102
RTVSPropertyOp42
 70
     1
102
RTVSPropertyOp43
 70
     1
102
RTVSPropertyOp44
 70
     1
102
RTVSPropertyOp45
 70
     1
102
RTVSPropertyOp46
 70
     1
102
RTVSPropertyOp47
 70
     1
102
RTVSPropertyOp48
 70
     1
102
RTVSPropertyOp49
 70
     1
102
RTVSPropertyOp50
 70
     1
102
RTVSPropertyOp51
 70
     0
102
RTVSPropertyOp52
 70
     0
102
RTVSPropertyOp53
 70
     1
102
RTVSPropertyOp54
 70
     1
102
RTVSPropertyOp55
 70
     1
102
RTVSPropertyOp56
 70
     1
102
RTVSPropertyOp57
 70
     1
102
RTVSPost2010Prop28
280
     0
102
RTVSPost2010PropOp28
 70
     1
102
RTVSPost2010Prop29
280
     1
102
RTVSPost2010PropOp29
 70
     1
102
RTVSPost2010Prop30
280
     1
102
RTVSPost2010PropOp30
 70
     1
102
RTVSPost2010Prop31
280
     0
102
RTVSPost2010PropOp31
 70
     1
102
RTVSPost2010Prop32
280
     0
102
RTVSPost2010PropOp32
 70
     1
102
RTVSPost2010Prop33
280
     0
102
RTVSPost2010PropOp33
 70
     1
102
RTVSPost2010Prop34
280
     0
102
RTVSPost2010PropOp34
 70
     1
102
RTVSPost2010Prop35
280
     0
102
RTVSPost2010PropOp35
 70
     1
102
RTVSPost2010Prop36
280
     0
102
RTVSPost2010PropOp36
 70
     1
102
RTVSPost2010Prop37
 90
       50
102
RTVSPost2010PropOp37
 70
     1
102
RTVSPost2010Prop38
140
0.0
102
RTVSPost2010PropOp38
 70
     1
102
RTVSPost2010Prop39
140
1.0
102
RTVSPost2010PropOp39
 70
     1
102
RTVSPost2010Prop40
 90
        0
102
RTVSPost2010PropOp40
 70
     1
102
RTVSPost2010Prop41ColorIndex
 90
       18
102
RTVSPost2010Prop41ColorRGB
 90
        0
102
RTVSPost2010PropOp41
 70
     1
102
RTVSPost2010Prop42
 90
       50
102
RTVSPost2010PropOp42
 70
     1
102
RTVSPost2010Prop43
 90
        3
102
RTVSPost2010PropOp43
 70
     1
102
RTVSPost2010Prop44ColorIndex
 90
        5
102
RTVSPost2010Prop44ColorRGB
 90
      255
102
RTVSPost2010PropOp44
 70
     1
102
RTVSPost2010Prop45
280
     0
102
RTVSPost2010PropOp45
 70
     1
102
RTVSPost2010Prop46
 90
       50
102
RTVSPost2010PropOp46
 70
     1
102
RTVSPost2010Prop47
 90
       50
102
RTVSPost2010PropOp47
 70
     1
102
RTVSPost2010Prop48
 90
       50
102
RTVSPost2010PropOp48
 70
     1
102
RTVSPost2010Prop49
280
     0
102
RTVSPost2010PropOp49
 70
     1
102
RTVSPost2010Prop50
 90
       50
102
RTVSPost2010PropOp50
 70
     1
102
RTVSPost2010Prop51ColorIndex
 90
      256
102
RTVSPost2010Prop51ColorRGB
 90
-16777216
102
RTVSPost2010PropOp51
 70
     0
102
RTVSPost2010Prop52
140
1.0
102
RTVSPost2010PropOp52
 70
     0
102
RTVSPost2010Prop53
 90
        2
102
RTVSPost2010PropOp53
 70
     1
102
RTVSPost2010Prop54
  1
strokes_ogs.tif
102
RTVSPost2010PropOp54
 70
     1
102
RTVSPost2010Prop55
280
     0
102
RTVSPost2010PropOp55
 70
     1
102
RTVSPost2010Prop56
140
1.0
102
RTVSPost2010PropOp56
 70
     1
102
RTVSPost2010Prop57
140
1.0
102
RTVSPost2010PropOp57
 70
     1
  0
XRECORD
  5
456
102
{ACAD_REACTORS
330
455
102
}
330
455
100
AcDbXrecord
280
     1
102
RTVSPropertyOp0
 70
     0
102
RTVSPropertyOp1
 70
     0
102
RTVSPropertyOp2
 70
     0
102
RTVSPropertyOp3
 70
     0
102
RTVSPropertyOp4
 70
     0
102
RTVSPropertyOp5
 70
     0
102
RTVSPropertyOp6
 70
     0
102
RTVSPropertyOp7
 70
     0
102
RTVSPropertyOp8
 70
     0
102
RTVSPropertyOp9
 70
     0
102
RTVSPropertyOp10
 70
     0
102
RTVSPropertyOp11
 70
     0
102
RTVSPropertyOp12
 70
     0
102
RTVSPropertyOp13
 70
     0
102
RTVSPropertyOp14
 70
     2
102
RTVSPropertyOp15
 70
     0
102
RTVSPropertyOp16
 70
     0
102
RTVSPropertyOp17
 70
     0
102
RTVSPropertyOp18
 70
     0
102
RTVSPropertyOp19
 70
     0
102
RTVSPropertyOp20
 70
     0
102
RTVSPropertyOp21
 70
     0
102
RTVSPropertyOp22
 70
     0
102
RTVSPropertyOp23
 70
     0
102
RTVSPropertyOp24
 70
     0
102
RTVSPropertyOp25
 70
     0
102
RTVSPropertyOp26
 70
     0
102
RTVSPropertyOp27
 70
     0
102
RTVSPropertyOp28
 70
     0
102
RTVSPropertyOp29
 70
     0
102
RTVSPropertyOp30
 70
     0
102
RTVSPropertyOp31
 70
     0
102
RTVSPropertyOp32
 70
     0
102
RTVSPropertyOp33
 70
     0
102
RTVSPropertyOp34
 70
     0
102
RTVSPropertyOp35
 70
     0
102
RTVSPropertyOp36
 70
     0
102
RTVSPropertyOp37
 70
     0
102
RTVSPropertyOp38
 70
     0
102
RTVSPropertyOp39
 70
     0
102
RTVSPropertyOp40
 70
     0
102
RTVSPropertyOp41
 70
     0
102
RTVSPropertyOp42
 70
     0
102
RTVSPropertyOp43
 70
     0
102
RTVSPropertyOp44
 70
     0
102
RTVSPropertyOp45
 70
     0
102
RTVSPropertyOp46
 70
     0
102
RTVSPropertyOp47
 70
     0
102
RTVSPropertyOp48
 70
     0
102
RTVSPropertyOp49
 70
     0
102
RTVSPropertyOp50
 70
     0
102
RTVSPropertyOp51
 70
     0
102
RTVSPropertyOp52
 70
     0
102
RTVSPropertyOp53
 70
     0
102
RTVSPropertyOp54
 70
     0
102
RTVSPropertyOp55
 70
     0
102
RTVSPropertyOp56
 70
     0
102
RTVSPropertyOp57
 70
     0
102
RTVSPost2010Prop28
280
     0
102
RTVSPost2010PropOp28
 70
     0
102
RTVSPost2010Prop29
280
     1
102
RTVSPost2010PropOp29
 70
     0
102
RTVSPost2010Prop30
280
     1
102
RTVSPost2010PropOp30
 70
     0
102
RTVSPost2010Prop31
280
     0
102
RTVSPost2010PropOp31
 70
     0
102
RTVSPost2010Prop32
280
     0
102
RTVSPost2010PropOp32
 70
     0
102
RTVSPost2010Prop33
280
     0
102
RTVSPost2010PropOp33
 70
     0
102
RTVSPost2010Prop34
280
     0
102
RTVSPost2010PropOp34
 70
     0
102
RTVSPost2010Prop35
280
     0
102
RTVSPost2010PropOp35
 70
     0
102
RTVSPost2010Prop36
280
     0
102
RTVSPost2010PropOp36
 70
     0
102
RTVSPost2010Prop37
 90
       50
102
RTVSPost2010PropOp37
 70
     0
102
RTVSPost2010Prop38
140
0.0
102
RTVSPost2010PropOp38
 70
     0
102
RTVSPost2010Prop39
140
1.0
102
RTVSPost2010PropOp39
 70
     0
102
RTVSPost2010Prop40
 90
        0
102
RTVSPost2010PropOp40
 70
     0
102
RTVSPost2010Prop41ColorIndex
 90
       18
102
RTVSPost2010Prop41ColorRGB
 90
        0
102
RTVSPost2010PropOp41
 70
     0
102
RTVSPost2010Prop42
 90
       50
102
RTVSPost2010PropOp42
 70
     0
102
RTVSPost2010Prop43
 90
        3
102
RTVSPost2010PropOp43
 70
     0
102
RTVSPost2010Prop44ColorIndex
 90
        5
102
RTVSPost2010Prop44ColorRGB
 90
      255
102
RTVSPost2010PropOp44
 70
     0
102
RTVSPost2010Prop45
280
     0
102
RTVSPost2010PropOp45
 70
     0
102
RTVSPost2010Prop46
 90
       50
102
RTVSPost2010PropOp46
 70
     0
102
RTVSPost2010Prop47
 90
       50
102
RTVSPost2010PropOp47
 70
     0
102
RTVSPost2010Prop48
 90
       50
102
RTVSPost2010PropOp48
 70
     0
102
RTVSPost2010Prop49
280
     0
102
RTVSPost2010PropOp49
 70
     0
102
RTVSPost2010Prop50
 90
       50
102
RTVSPost2010PropOp50
 70
     0
102
RTVSPost2010Prop51ColorIndex
 90
      256
102
RTVSPost2010Prop51ColorRGB
 90
-16777216
102
RTVSPost2010PropOp51
 70
     0
102
RTVSPost2010Prop52
140
1.0
102
RTVSPost2010PropOp52
 70
     0
102
RTVSPost2010Prop53
 90
        2
102
RTVSPost2010PropOp53
 70
     0
102
RTVSPost2010Prop54
  1
strokes_ogs.tif
102
RTVSPost2010PropOp54
 70
     0
102
RTVSPost2010Prop55
280
     0
102
RTVSPost2010PropOp55
 70
     0
102
RTVSPost2010Prop56
140
1.0
102
RTVSPost2010PropOp56
 70
     0
102
RTVSPost2010Prop57
140
1.0
102
RTVSPost2010PropOp57
 70
     0
  0
XRECORD
  5
450
102
{ACAD_REACTORS
330
44F
102
}
330
44F
100
AcDbXrecord
280
     1
102
RTVSPropertyOp0
 70
     1
102
RTVSPropertyOp1
 70
     1
102
RTVSPropertyOp2
 70
     1
102
RTVSPropertyOp3
 70
     1
102
RTVSPropertyOp4
 70
     1
102
RTVSPropertyOp5
 70
     1
102
RTVSPropertyOp6
 70
     1
102
RTVSPropertyOp7
 70
     1
102
RTVSPropertyOp8
 70
     1
102
RTVSPropertyOp9
 70
     1
102
RTVSPropertyOp10
 70
     1
102
RTVSPropertyOp11
 70
     1
102
RTVSPropertyOp12
 70
     1
102
RTVSPropertyOp13
 70
     1
102
RTVSPropertyOp14
 70
     1
102
RTVSPropertyOp15
 70
     1
102
RTVSPropertyOp16
 70
     1
102
RTVSPropertyOp17
 70
     1
102
RTVSPropertyOp18
 70
     1
102
RTVSPropertyOp19
 70
     1
102
RTVSPropertyOp20
 70
     1
102
RTVSPropertyOp21
 70
     1
102
RTVSPropertyOp22
 70
     1
102
RTVSPropertyOp23
 70
     1
102
RTVSPropertyOp24
 70
     1
102
RTVSPropertyOp25
 70
     1
102
RTVSPropertyOp26
 70
     1
102
RTVSPropertyOp27
 70
     1
102
RTVSPropertyOp28
 70
     1
102
RTVSPropertyOp29
 70
     1
102
RTVSPropertyOp30
 70
     1
102
RTVSPropertyOp31
 70
     1
102
RTVSPropertyOp32
 70
     1
102
RTVSPropertyOp33
 70
     1
102
RTVSPropertyOp34
 70
     1
102
RTVSPropertyOp35
 70
     1
102
RTVSPropertyOp36
 70
     1
102
RTVSPropertyOp37
 70
     1
102
RTVSPropertyOp38
 70
     1
102
RTVSPropertyOp39
 70
     1
102
RTVSPropertyOp40
 70
     1
102
RTVSPropertyOp41
 70
     1
102
RTVSPropertyOp42
 70
     1
102
RTVSPropertyOp43
 70
     1
102
RTVSPropertyOp44
 70
     1
102
RTVSPropertyOp45
 70
     1
102
RTVSPropertyOp46
 70
     1
102
RTVSPropertyOp47
 70
     1
102
RTVSPropertyOp48
 70
     1
102
RTVSPropertyOp49
 70
     1
102
RTVSPropertyOp50
 70
     1
102
RTVSPropertyOp51
 70
     0
102
RTVSPropertyOp52
 70
     0
102
RTVSPropertyOp53
 70
     1
102
RTVSPropertyOp54
 70
     1
102
RTVSPropertyOp55
 70
     1
102
RTVSPropertyOp56
 70
     1
102
RTVSPropertyOp57
 70
     1
102
RTVSPost2010Prop28
280
     0
102
RTVSPost2010PropOp28
 70
     1
102
RTVSPost2010Prop29
280
     1
102
RTVSPost2010PropOp29
 70
     1
102
RTVSPost2010Prop30
280
     1
102
RTVSPost2010PropOp30
 70
     1
102
RTVSPost2010Prop31
280
     0
102
RTVSPost2010PropOp31
 70
     1
102
RTVSPost2010Prop32
280
     0
102
RTVSPost2010PropOp32
 70
     1
102
RTVSPost2010Prop33
280
     0
102
RTVSPost2010PropOp33
 70
     1
102
RTVSPost2010Prop34
280
     0
102
RTVSPost2010PropOp34
 70
     1
102
RTVSPost2010Prop35
280
     0
102
RTVSPost2010PropOp35
 70
     1
102
RTVSPost2010Prop36
280
     0
102
RTVSPost2010PropOp36
 70
     1
102
RTVSPost2010Prop37
 90
       50
102
RTVSPost2010PropOp37
 70
     1
102
RTVSPost2010Prop38
140
0.0
102
RTVSPost2010PropOp38
 70
     1
102
RTVSPost2010Prop39
140
1.0
102
RTVSPost2010PropOp39
 70
     1
102
RTVSPost2010Prop40
 90
        0
102
RTVSPost2010PropOp40
 70
     1
102
RTVSPost2010Prop41ColorIndex
 90
       18
102
RTVSPost2010Prop41ColorRGB
 90
        0
102
RTVSPost2010PropOp41
 70
     1
102
RTVSPost2010Prop42
 90
       50
102
RTVSPost2010PropOp42
 70
     1
102
RTVSPost2010Prop43
 90
        3
102
RTVSPost2010PropOp43
 70
     1
102
RTVSPost2010Prop44ColorIndex
 90
        5
102
RTVSPost2010Prop44ColorRGB
 90
      255
102
RTVSPost2010PropOp44
 70
     1
102
RTVSPost2010Prop45
280
     0
102
RTVSPost2010PropOp45
 70
     1
102
RTVSPost2010Prop46
 90
       50
102
RTVSPost2010PropOp46
 70
     1
102
RTVSPost2010Prop47
 90
       50
102
RTVSPost2010PropOp47
 70
     1
102
RTVSPost2010Prop48
 90
       50
102
RTVSPost2010PropOp48
 70
     1
102
RTVSPost2010Prop49
280
     0
102
RTVSPost2010PropOp49
 70
     1
102
RTVSPost2010Prop50
 90
       50
102
RTVSPost2010PropOp50
 70
     1
102
RTVSPost2010Prop51ColorIndex
 90
      256
102
RTVSPost2010Prop51ColorRGB
 90
-16777216
102
RTVSPost2010PropOp51
 70
     0
102
RTVSPost2010Prop52
140
1.0
102
RTVSPost2010PropOp52
 70
     0
102
RTVSPost2010Prop53
 90
        2
102
RTVSPost2010PropOp53
 70
     1
102
RTVSPost2010Prop54
  1
strokes_ogs.tif
102
RTVSPost2010PropOp54
 70
     1
102
RTVSPost2010Prop55
280
     0
102
RTVSPost2010PropOp55
 70
     1
102
RTVSPost2010Prop56
140
1.0
102
RTVSPost2010PropOp56
 70
     1
102
RTVSPost2010Prop57
140
1.0
102
RTVSPost2010PropOp57
 70
     1
  0
XRECORD
  5
458
102
{ACAD_REACTORS
330
457
102
}
330
457
100
AcDbXrecord
280
     1
102
RTVSPropertyOp0
 70
     0
102
RTVSPropertyOp1
 70
     0
102
RTVSPropertyOp2
 70
     0
102
RTVSPropertyOp3
 70
     0
102
RTVSPropertyOp4
 70
     0
102
RTVSPropertyOp5
 70
     0
102
RTVSPropertyOp6
 70
     0
102
RTVSPropertyOp7
 70
     0
102
RTVSPropertyOp8
 70
     0
102
RTVSPropertyOp9
 70
     0
102
RTVSPropertyOp10
 70
     0
102
RTVSPropertyOp11
 70
     0
102
RTVSPropertyOp12
 70
     0
102
RTVSPropertyOp13
 70
     0
102
RTVSPropertyOp14
 70
     2
102
RTVSPropertyOp15
 70
     0
102
RTVSPropertyOp16
 70
     0
102
RTVSPropertyOp17
 70
     0
102
RTVSPropertyOp18
 70
     0
102
RTVSPropertyOp19
 70
     0
102
RTVSPropertyOp20
 70
     0
102
RTVSPropertyOp21
 70
     0
102
RTVSPropertyOp22
 70
     0
102
RTVSPropertyOp23
 70
     0
102
RTVSPropertyOp24
 70
     0
102
RTVSPropertyOp25
 70
     0
102
RTVSPropertyOp26
 70
     0
102
RTVSPropertyOp27
 70
     0
102
RTVSPropertyOp28
 70
     0
102
RTVSPropertyOp29
 70
     0
102
RTVSPropertyOp30
 70
     0
102
RTVSPropertyOp31
 70
     0
102
RTVSPropertyOp32
 70
     0
102
RTVSPropertyOp33
 70
     0
102
RTVSPropertyOp34
 70
     0
102
RTVSPropertyOp35
 70
     0
102
RTVSPropertyOp36
 70
     0
102
RTVSPropertyOp37
 70
     0
102
RTVSPropertyOp38
 70
     0
102
RTVSPropertyOp39
 70
     0
102
RTVSPropertyOp40
 70
     0
102
RTVSPropertyOp41
 70
     0
102
RTVSPropertyOp42
 70
     0
102
RTVSPropertyOp43
 70
     0
102
RTVSPropertyOp44
 70
     0
102
RTVSPropertyOp45
 70
     0
102
RTVSPropertyOp46
 70
     0
102
RTVSPropertyOp47
 70
     0
102
RTVSPropertyOp48
 70
     0
102
RTVSPropertyOp49
 70
     0
102
RTVSPropertyOp50
 70
     0
102
RTVSPropertyOp51
 70
     0
102
RTVSPropertyOp52
 70
     0
102
RTVSPropertyOp53
 70
     0
102
RTVSPropertyOp54
 70
     0
102
RTVSPropertyOp55
 70
     0
102
RTVSPropertyOp56
 70
     0
102
RTVSPropertyOp57
 70
     0
102
RTVSPost2010Prop28
280
     0
102
RTVSPost2010PropOp28
 70
     0
102
RTVSPost2010Prop29
280
     1
102
RTVSPost2010PropOp29
 70
     0
102
RTVSPost2010Prop30
280
     1
102
RTVSPost2010PropOp30
 70
     0
102
RTVSPost2010Prop31
280
     0
102
RTVSPost2010PropOp31
 70
     0
102
RTVSPost2010Prop32
280
     0
102
RTVSPost2010PropOp32
 70
     0
102
RTVSPost2010Prop33
280
     0
102
RTVSPost2010PropOp33
 70
     0
102
RTVSPost2010Prop34
280
     0
102
RTVSPost2010PropOp34
 70
     0
102
RTVSPost2010Prop35
280
     0
102
RTVSPost2010PropOp35
 70
     0
102
RTVSPost2010Prop36
280
     0
102
RTVSPost2010PropOp36
 70
     0
102
RTVSPost2010Prop37
 90
       50
102
RTVSPost2010PropOp37
 70
     0
102
RTVSPost2010Prop38
140
0.0
102
RTVSPost2010PropOp38
 70
     0
102
RTVSPost2010Prop39
140
1.0
102
RTVSPost2010PropOp39
 70
     0
102
RTVSPost2010Prop40
 90
        0
102
RTVSPost2010PropOp40
 70
     0
102
RTVSPost2010Prop41ColorIndex
 90
       18
102
RTVSPost2010Prop41ColorRGB
 90
        0
102
RTVSPost2010PropOp41
 70
     0
102
RTVSPost2010Prop42
 90
       50
102
RTVSPost2010PropOp42
 70
     0
102
RTVSPost2010Prop43
 90
        3
102
RTVSPost2010PropOp43
 70
     0
102
RTVSPost2010Prop44ColorIndex
 90
        5
102
RTVSPost2010Prop44ColorRGB
 90
      255
102
RTVSPost2010PropOp44
 70
     0
102
RTVSPost2010Prop45
280
     0
102
RTVSPost2010PropOp45
 70
     0
102
RTVSPost2010Prop46
 90
       50
102
RTVSPost2010PropOp46
 70
     0
102
RTVSPost2010Prop47
 90
       50
102
RTVSPost2010PropOp47
 70
     0
102
RTVSPost2010Prop48
 90
       50
102
RTVSPost2010PropOp48
 70
     0
102
RTVSPost2010Prop49
280
     0
102
RTVSPost2010PropOp49
 70
     0
102
RTVSPost2010Prop50
 90
       50
102
RTVSPost2010PropOp50
 70
     0
102
RTVSPost2010Prop51ColorIndex
 90
      256
102
RTVSPost2010Prop51ColorRGB
 90
-16777216
102
RTVSPost2010PropOp51
 70
     0
102
RTVSPost2010Prop52
140
1.0
102
RTVSPost2010PropOp52
 70
     0
102
RTVSPost2010Prop53
 90
        2
102
RTVSPost2010PropOp53
 70
     0
102
RTVSPost2010Prop54
  1
strokes_ogs.tif
102
RTVSPost2010PropOp54
 70
     0
102
RTVSPost2010Prop55
280
     0
102
RTVSPost2010PropOp55
 70
     0
102
RTVSPost2010Prop56
140
1.0
102
RTVSPost2010PropOp56
 70
     0
102
RTVSPost2010Prop57
140
1.0
102
RTVSPost2010PropOp57
 70
     0
  0
XRECORD
  5
446
102
{ACAD_REACTORS
330
445
102
}
330
445
100
AcDbXrecord
280
     1
102
RTVSPropertyOp0
 70
     1
102
RTVSPropertyOp1
 70
     1
102
RTVSPropertyOp2
 70
     1
102
RTVSPropertyOp3
 70
     1
102
RTVSPropertyOp4
 70
     1
102
RTVSPropertyOp5
 70
     1
102
RTVSPropertyOp6
 70
     1
102
RTVSPropertyOp7
 70
     1
102
RTVSPropertyOp8
 70
     1
102
RTVSPropertyOp9
 70
     1
102
RTVSPropertyOp10
 70
     1
102
RTVSPropertyOp11
 70
     1
102
RTVSPropertyOp12
 70
     1
102
RTVSPropertyOp13
 70
     1
102
RTVSPropertyOp14
 70
     1
102
RTVSPropertyOp15
 70
     1
102
RTVSPropertyOp16
 70
     1
102
RTVSPropertyOp17
 70
     1
102
RTVSPropertyOp18
 70
     1
102
RTVSPropertyOp19
 70
     1
102
RTVSPropertyOp20
 70
     1
102
RTVSPropertyOp21
 70
     1
102
RTVSPropertyOp22
 70
     1
102
RTVSPropertyOp23
 70
     1
102
RTVSPropertyOp24
 70
     1
102
RTVSPropertyOp25
 70
     1
102
RTVSPropertyOp26
 70
     1
102
RTVSPropertyOp27
 70
     1
102
RTVSPropertyOp28
 70
     1
102
RTVSPropertyOp29
 70
     1
102
RTVSPropertyOp30
 70
     1
102
RTVSPropertyOp31
 70
     1
102
RTVSPropertyOp32
 70
     1
102
RTVSPropertyOp33
 70
     1
102
RTVSPropertyOp34
 70
     1
102
RTVSPropertyOp35
 70
     1
102
RTVSPropertyOp36
 70
     1
102
RTVSPropertyOp37
 70
     1
102
RTVSPropertyOp38
 70
     1
102
RTVSPropertyOp39
 70
     1
102
RTVSPropertyOp40
 70
     1
102
RTVSPropertyOp41
 70
     1
102
RTVSPropertyOp42
 70
     1
102
RTVSPropertyOp43
 70
     1
102
RTVSPropertyOp44
 70
     1
102
RTVSPropertyOp45
 70
     1
102
RTVSPropertyOp46
 70
     1
102
RTVSPropertyOp47
 70
     1
102
RTVSPropertyOp48
 70
     1
102
RTVSPropertyOp49
 70
     1
102
RTVSPropertyOp50
 70
     1
102
RTVSPropertyOp51
 70
     0
102
RTVSPropertyOp52
 70
     0
102
RTVSPropertyOp53
 70
     1
102
RTVSPropertyOp54
 70
     1
102
RTVSPropertyOp55
 70
     1
102
RTVSPropertyOp56
 70
     1
102
RTVSPropertyOp57
 70
     1
102
RTVSPost2010Prop28
280
     0
102
RTVSPost2010PropOp28
 70
     1
102
RTVSPost2010Prop29
280
     1
102
RTVSPost2010PropOp29
 70
     1
102
RTVSPost2010Prop30
280
     1
102
RTVSPost2010PropOp30
 70
     1
102
RTVSPost2010Prop31
280
     0
102
RTVSPost2010PropOp31
 70
     1
102
RTVSPost2010Prop32
280
     0
102
RTVSPost2010PropOp32
 70
     1
102
RTVSPost2010Prop33
280
     0
102
RTVSPost2010PropOp33
 70
     1
102
RTVSPost2010Prop34
280
     0
102
RTVSPost2010PropOp34
 70
     1
102
RTVSPost2010Prop35
280
     0
102
RTVSPost2010PropOp35
 70
     1
102
RTVSPost2010Prop36
280
     0
102
RTVSPost2010PropOp36
 70
     1
102
RTVSPost2010Prop37
 90
       50
102
RTVSPost2010PropOp37
 70
     1
102
RTVSPost2010Prop38
140
0.0
102
RTVSPost2010PropOp38
 70
     1
102
RTVSPost2010Prop39
140
1.0
102
RTVSPost2010PropOp39
 70
     1
102
RTVSPost2010Prop40
 90
        0
102
RTVSPost2010PropOp40
 70
     1
102
RTVSPost2010Prop41ColorIndex
 90
       18
102
RTVSPost2010Prop41ColorRGB
 90
        0
102
RTVSPost2010PropOp41
 70
     1
102
RTVSPost2010Prop42
 90
       50
102
RTVSPost2010PropOp42
 70
     1
102
RTVSPost2010Prop43
 90
        3
102
RTVSPost2010PropOp43
 70
     1
102
RTVSPost2010Prop44ColorIndex
 90
        5
102
RTVSPost2010Prop44ColorRGB
 90
      255
102
RTVSPost2010PropOp44
 70
     1
102
RTVSPost2010Prop45
280
     0
102
RTVSPost2010PropOp45
 70
     1
102
RTVSPost2010Prop46
 90
       50
102
RTVSPost2010PropOp46
 70
     1
102
RTVSPost2010Prop47
 90
       50
102
RTVSPost2010PropOp47
 70
     1
102
RTVSPost2010Prop48
 90
       50
102
RTVSPost2010PropOp48
 70
     1
102
RTVSPost2010Prop49
280
     0
102
RTVSPost2010PropOp49
 70
     1
102
RTVSPost2010Prop50
 90
       50
102
RTVSPost2010PropOp50
 70
     1
102
RTVSPost2010Prop51ColorIndex
 90
      256
102
RTVSPost2010Prop51ColorRGB
 90
-16777216
102
RTVSPost2010PropOp51
 70
     0
102
RTVSPost2010Prop52
140
1.0
102
RTVSPost2010PropOp52
 70
     0
102
RTVSPost2010Prop53
 90
        2
102
RTVSPost2010PropOp53
 70
     1
102
RTVSPost2010Prop54
  1
strokes_ogs.tif
102
RTVSPost2010PropOp54
 70
     1
102
RTVSPost2010Prop55
280
     0
102
RTVSPost2010PropOp55
 70
     1
102
RTVSPost2010Prop56
140
1.0
102
RTVSPost2010PropOp56
 70
     1
102
RTVSPost2010Prop57
140
1.0
102
RTVSPost2010PropOp57
 70
     1
  0
XRECORD
  5
464
102
{ACAD_REACTORS
330
463
102
}
330
463
100
AcDbXrecord
280
     1
102
RTVSPropertyOp0
 70
     1
102
RTVSPropertyOp1
 70
     1
102
RTVSPropertyOp2
 70
     1
102
RTVSPropertyOp3
 70
     1
102
RTVSPropertyOp4
 70
     1
102
RTVSPropertyOp5
 70
     1
102
RTVSPropertyOp6
 70
     1
102
RTVSPropertyOp7
 70
     1
102
RTVSPropertyOp8
 70
     1
102
RTVSPropertyOp9
 70
     1
102
RTVSPropertyOp10
 70
     1
102
RTVSPropertyOp11
 70
     1
102
RTVSPropertyOp12
 70
     1
102
RTVSPropertyOp13
 70
     1
102
RTVSPropertyOp14
 70
     1
102
RTVSPropertyOp15
 70
     1
102
RTVSPropertyOp16
 70
     1
102
RTVSPropertyOp17
 70
     1
102
RTVSPropertyOp18
 70
     1
102
RTVSPropertyOp19
 70
     1
102
RTVSPropertyOp20
 70
     1
102
RTVSPropertyOp21
 70
     1
102
RTVSPropertyOp22
 70
     1
102
RTVSPropertyOp23
 70
     1
102
RTVSPropertyOp24
 70
     1
102
RTVSPropertyOp25
 70
     1
102
RTVSPropertyOp26
 70
     1
102
RTVSPropertyOp27
 70
     1
102
RTVSPropertyOp28
 70
     1
102
RTVSPropertyOp29
 70
     1
102
RTVSPropertyOp30
 70
     1
102
RTVSPropertyOp31
 70
     1
102
RTVSPropertyOp32
 70
     1
102
RTVSPropertyOp33
 70
     1
102
RTVSPropertyOp34
 70
     1
102
RTVSPropertyOp35
 70
     1
102
RTVSPropertyOp36
 70
     1
102
RTVSPropertyOp37
 70
     1
102
RTVSPropertyOp38
 70
     1
102
RTVSPropertyOp39
 70
     1
102
RTVSPropertyOp40
 70
     1
102
RTVSPropertyOp41
 70
     1
102
RTVSPropertyOp42
 70
     1
102
RTVSPropertyOp43
 70
     1
102
RTVSPropertyOp44
 70
     1
102
RTVSPropertyOp45
 70
     1
102
RTVSPropertyOp46
 70
     1
102
RTVSPropertyOp47
 70
     1
102
RTVSPropertyOp48
 70
     1
102
RTVSPropertyOp49
 70
     1
102
RTVSPropertyOp50
 70
     1
102
RTVSPropertyOp51
 70
     0
102
RTVSPropertyOp52
 70
     0
102
RTVSPropertyOp53
 70
     1
102
RTVSPropertyOp54
 70
     1
102
RTVSPropertyOp55
 70
     1
102
RTVSPropertyOp56
 70
     1
102
RTVSPropertyOp57
 70
     1
102
RTVSPost2010Prop28
280
     0
102
RTVSPost2010PropOp28
 70
     1
102
RTVSPost2010Prop29
280
     1
102
RTVSPost2010PropOp29
 70
     1
102
RTVSPost2010Prop30
280
     1
102
RTVSPost2010PropOp30
 70
     1
102
RTVSPost2010Prop31
280
     0
102
RTVSPost2010PropOp31
 70
     1
102
RTVSPost2010Prop32
280
     0
102
RTVSPost2010PropOp32
 70
     1
102
RTVSPost2010Prop33
280
     0
102
RTVSPost2010PropOp33
 70
     1
102
RTVSPost2010Prop34
280
     0
102
RTVSPost2010PropOp34
 70
     1
102
RTVSPost2010Prop35
280
     0
102
RTVSPost2010PropOp35
 70
     1
102
RTVSPost2010Prop36
280
     0
102
RTVSPost2010PropOp36
 70
     1
102
RTVSPost2010Prop37
 90
       50
102
RTVSPost2010PropOp37
 70
     1
102
RTVSPost2010Prop38
140
0.0
102
RTVSPost2010PropOp38
 70
     1
102
RTVSPost2010Prop39
140
1.0
102
RTVSPost2010PropOp39
 70
     1
102
RTVSPost2010Prop40
 90
        0
102
RTVSPost2010PropOp40
 70
     1
102
RTVSPost2010Prop41ColorIndex
 90
       18
102
RTVSPost2010Prop41ColorRGB
 90
        0
102
RTVSPost2010PropOp41
 70
     1
102
RTVSPost2010Prop42
 90
       50
102
RTVSPost2010PropOp42
 70
     1
102
RTVSPost2010Prop43
 90
        3
102
RTVSPost2010PropOp43
 70
     1
102
RTVSPost2010Prop44ColorIndex
 90
        5
102
RTVSPost2010Prop44ColorRGB
 90
      255
102
RTVSPost2010PropOp44
 70
     1
102
RTVSPost2010Prop45
280
     0
102
RTVSPost2010PropOp45
 70
     1
102
RTVSPost2010Prop46
 90
       50
102
RTVSPost2010PropOp46
 70
     1
102
RTVSPost2010Prop47
 90
       50
102
RTVSPost2010PropOp47
 70
     1
102
RTVSPost2010Prop48
 90
       50
102
RTVSPost2010PropOp48
 70
     1
102
RTVSPost2010Prop49
280
     0
102
RTVSPost2010PropOp49
 70
     1
102
RTVSPost2010Prop50
 90
       50
102
RTVSPost2010PropOp50
 70
     1
102
RTVSPost2010Prop51ColorIndex
 90
      256
102
RTVSPost2010Prop51ColorRGB
 90
-16777216
102
RTVSPost2010PropOp51
 70
     0
102
RTVSPost2010Prop52
140
1.0
102
RTVSPost2010PropOp52
 70
     0
102
RTVSPost2010Prop53
 90
        2
102
RTVSPost2010PropOp53
 70
     1
102
RTVSPost2010Prop54
  1
strokes_ogs.tif
102
RTVSPost2010PropOp54
 70
     1
102
RTVSPost2010Prop55
280
     0
102
RTVSPost2010PropOp55
 70
     1
102
RTVSPost2010Prop56
140
1.0
102
RTVSPost2010PropOp56
 70
     1
102
RTVSPost2010Prop57
140
1.0
102
RTVSPost2010PropOp57
 70
     1
  0
XRECORD
  5
462
102
{ACAD_REACTORS
330
461
102
}
330
461
100
AcDbXrecord
280
     1
102
RTVSPropertyOp0
 70
     1
102
RTVSPropertyOp1
 70
     1
102
RTVSPropertyOp2
 70
     1
102
RTVSPropertyOp3
 70
     1
102
RTVSPropertyOp4
 70
     1
102
RTVSPropertyOp5
 70
     1
102
RTVSPropertyOp6
 70
     1
102
RTVSPropertyOp7
 70
     1
102
RTVSPropertyOp8
 70
     1
102
RTVSPropertyOp9
 70
     1
102
RTVSPropertyOp10
 70
     1
102
RTVSPropertyOp11
 70
     1
102
RTVSPropertyOp12
 70
     1
102
RTVSPropertyOp13
 70
     1
102
RTVSPropertyOp14
 70
     1
102
RTVSPropertyOp15
 70
     1
102
RTVSPropertyOp16
 70
     1
102
RTVSPropertyOp17
 70
     1
102
RTVSPropertyOp18
 70
     1
102
RTVSPropertyOp19
 70
     1
102
RTVSPropertyOp20
 70
     1
102
RTVSPropertyOp21
 70
     1
102
RTVSPropertyOp22
 70
     1
102
RTVSPropertyOp23
 70
     1
102
RTVSPropertyOp24
 70
     1
102
RTVSPropertyOp25
 70
     1
102
RTVSPropertyOp26
 70
     1
102
RTVSPropertyOp27
 70
     1
102
RTVSPropertyOp28
 70
     1
102
RTVSPropertyOp29
 70
     1
102
RTVSPropertyOp30
 70
     1
102
RTVSPropertyOp31
 70
     1
102
RTVSPropertyOp32
 70
     1
102
RTVSPropertyOp33
 70
     1
102
RTVSPropertyOp34
 70
     1
102
RTVSPropertyOp35
 70
     1
102
RTVSPropertyOp36
 70
     1
102
RTVSPropertyOp37
 70
     1
102
RTVSPropertyOp38
 70
     1
102
RTVSPropertyOp39
 70
     1
102
RTVSPropertyOp40
 70
     1
102
RTVSPropertyOp41
 70
     1
102
RTVSPropertyOp42
 70
     1
102
RTVSPropertyOp43
 70
     1
102
RTVSPropertyOp44
 70
     1
102
RTVSPropertyOp45
 70
     1
102
RTVSPropertyOp46
 70
     1
102
RTVSPropertyOp47
 70
     1
102
RTVSPropertyOp48
 70
     1
102
RTVSPropertyOp49
 70
     1
102
RTVSPropertyOp50
 70
     1
102
RTVSPropertyOp51
 70
     0
102
RTVSPropertyOp52
 70
     0
102
RTVSPropertyOp53
 70
     1
102
RTVSPropertyOp54
 70
     1
102
RTVSPropertyOp55
 70
     1
102
RTVSPropertyOp56
 70
     1
102
RTVSPropertyOp57
 70
     1
102
RTVSPost2010Prop28
280
     0
102
RTVSPost2010PropOp28
 70
     1
102
RTVSPost2010Prop29
280
     1
102
RTVSPost2010PropOp29
 70
     1
102
RTVSPost2010Prop30
280
     1
102
RTVSPost2010PropOp30
 70
     1
102
RTVSPost2010Prop31
280
     0
102
RTVSPost2010PropOp31
 70
     1
102
RTVSPost2010Prop32
280
     0
102
RTVSPost2010PropOp32
 70
     1
102
RTVSPost2010Prop33
280
     0
102
RTVSPost2010PropOp33
 70
     1
102
RTVSPost2010Prop34
280
     0
102
RTVSPost2010PropOp34
 70
     1
102
RTVSPost2010Prop35
280
     0
102
RTVSPost2010PropOp35
 70
     1
102
RTVSPost2010Prop36
280
     0
102
RTVSPost2010PropOp36
 70
     1
102
RTVSPost2010Prop37
 90
       50
102
RTVSPost2010PropOp37
 70
     1
102
RTVSPost2010Prop38
140
0.0
102
RTVSPost2010PropOp38
 70
     1
102
RTVSPost2010Prop39
140
1.0
102
RTVSPost2010PropOp39
 70
     1
102
RTVSPost2010Prop40
 90
        0
102
RTVSPost2010PropOp40
 70
     1
102
RTVSPost2010Prop41ColorIndex
 90
       18
102
RTVSPost2010Prop41ColorRGB
 90
        0
102
RTVSPost2010PropOp41
 70
     1
102
RTVSPost2010Prop42
 90
       50
102
RTVSPost2010PropOp42
 70
     1
102
RTVSPost2010Prop43
 90
        3
102
RTVSPost2010PropOp43
 70
     1
102
RTVSPost2010Prop44ColorIndex
 90
        5
102
RTVSPost2010Prop44ColorRGB
 90
      255
102
RTVSPost2010PropOp44
 70
     1
102
RTVSPost2010Prop45
280
     0
102
RTVSPost2010PropOp45
 70
     1
102
RTVSPost2010Prop46
 90
       50
102
RTVSPost2010PropOp46
 70
     1
102
RTVSPost2010Prop47
 90
       50
102
RTVSPost2010PropOp47
 70
     1
102
RTVSPost2010Prop48
 90
       50
102
RTVSPost2010PropOp48
 70
     1
102
RTVSPost2010Prop49
280
     0
102
RTVSPost2010PropOp49
 70
     1
102
RTVSPost2010Prop50
 90
       50
102
RTVSPost2010PropOp50
 70
     1
102
RTVSPost2010Prop51ColorIndex
 90
      256
102
RTVSPost2010Prop51ColorRGB
 90
-16777216
102
RTVSPost2010PropOp51
 70
     0
102
RTVSPost2010Prop52
140
1.0
102
RTVSPost2010PropOp52
 70
     0
102
RTVSPost2010Prop53
 90
        2
102
RTVSPost2010PropOp53
 70
     1
102
RTVSPost2010Prop54
  1
strokes_ogs.tif
102
RTVSPost2010PropOp54
 70
     1
102
RTVSPost2010Prop55
280
     0
102
RTVSPost2010PropOp55
 70
     1
102
RTVSPost2010Prop56
140
1.0
102
RTVSPost2010PropOp56
 70
     1
102
RTVSPost2010Prop57
140
1.0
102
RTVSPost2010PropOp57
 70
     1
  0
XRECORD
  5
45C
102
{ACAD_REACTORS
330
45B
102
}
330
45B
100
AcDbXrecord
280
     1
102
RTVSPropertyOp0
 70
     1
102
RTVSPropertyOp1
 70
     1
102
RTVSPropertyOp2
 70
     1
102
RTVSPropertyOp3
 70
     1
102
RTVSPropertyOp4
 70
     1
102
RTVSPropertyOp5
 70
     1
102
RTVSPropertyOp6
 70
     1
102
RTVSPropertyOp7
 70
     1
102
RTVSPropertyOp8
 70
     1
102
RTVSPropertyOp9
 70
     1
102
RTVSPropertyOp10
 70
     1
102
RTVSPropertyOp11
 70
     1
102
RTVSPropertyOp12
 70
     1
102
RTVSPropertyOp13
 70
     1
102
RTVSPropertyOp14
 70
     1
102
RTVSPropertyOp15
 70
     1
102
RTVSPropertyOp16
 70
     1
102
RTVSPropertyOp17
 70
     1
102
RTVSPropertyOp18
 70
     1
102
RTVSPropertyOp19
 70
     1
102
RTVSPropertyOp20
 70
     1
102
RTVSPropertyOp21
 70
     1
102
RTVSPropertyOp22
 70
     1
102
RTVSPropertyOp23
 70
     1
102
RTVSPropertyOp24
 70
     1
102
RTVSPropertyOp25
 70
     1
102
RTVSPropertyOp26
 70
     1
102
RTVSPropertyOp27
 70
     1
102
RTVSPropertyOp28
 70
     1
102
RTVSPropertyOp29
 70
     1
102
RTVSPropertyOp30
 70
     1
102
RTVSPropertyOp31
 70
     1
102
RTVSPropertyOp32
 70
     1
102
RTVSPropertyOp33
 70
     1
102
RTVSPropertyOp34
 70
     1
102
RTVSPropertyOp35
 70
     1
102
RTVSPropertyOp36
 70
     1
102
RTVSPropertyOp37
 70
     1
102
RTVSPropertyOp38
 70
     1
102
RTVSPropertyOp39
 70
     1
102
RTVSPropertyOp40
 70
     1
102
RTVSPropertyOp41
 70
     1
102
RTVSPropertyOp42
 70
     1
102
RTVSPropertyOp43
 70
     1
102
RTVSPropertyOp44
 70
     1
102
RTVSPropertyOp45
 70
     1
102
RTVSPropertyOp46
 70
     1
102
RTVSPropertyOp47
 70
     1
102
RTVSPropertyOp48
 70
     1
102
RTVSPropertyOp49
 70
     1
102
RTVSPropertyOp50
 70
     1
102
RTVSPropertyOp51
 70
     0
102
RTVSPropertyOp52
 70
     0
102
RTVSPropertyOp53
 70
     1
102
RTVSPropertyOp54
 70
     1
102
RTVSPropertyOp55
 70
     1
102
RTVSPropertyOp56
 70
     1
102
RTVSPropertyOp57
 70
     1
102
RTVSPost2010Prop28
280
     0
102
RTVSPost2010PropOp28
 70
     1
102
RTVSPost2010Prop29
280
     1
102
RTVSPost2010PropOp29
 70
     1
102
RTVSPost2010Prop30
280
     1
102
RTVSPost2010PropOp30
 70
     1
102
RTVSPost2010Prop31
280
     0
102
RTVSPost2010PropOp31
 70
     1
102
RTVSPost2010Prop32
280
     0
102
RTVSPost2010PropOp32
 70
     1
102
RTVSPost2010Prop33
280
     0
102
RTVSPost2010PropOp33
 70
     1
102
RTVSPost2010Prop34
280
     0
102
RTVSPost2010PropOp34
 70
     1
102
RTVSPost2010Prop35
280
     0
102
RTVSPost2010PropOp35
 70
     1
102
RTVSPost2010Prop36
280
     0
102
RTVSPost2010PropOp36
 70
     1
102
RTVSPost2010Prop37
 90
       50
102
RTVSPost2010PropOp37
 70
     1
102
RTVSPost2010Prop38
140
0.0
102
RTVSPost2010PropOp38
 70
     1
102
RTVSPost2010Prop39
140
1.0
102
RTVSPost2010PropOp39
 70
     1
102
RTVSPost2010Prop40
 90
        0
102
RTVSPost2010PropOp40
 70
     1
102
RTVSPost2010Prop41ColorIndex
 90
       18
102
RTVSPost2010Prop41ColorRGB
 90
        0
102
RTVSPost2010PropOp41
 70
     1
102
RTVSPost2010Prop42
 90
       50
102
RTVSPost2010PropOp42
 70
     1
102
RTVSPost2010Prop43
 90
        3
102
RTVSPost2010PropOp43
 70
     1
102
RTVSPost2010Prop44ColorIndex
 90
        5
102
RTVSPost2010Prop44ColorRGB
 90
      255
102
RTVSPost2010PropOp44
 70
     1
102
RTVSPost2010Prop45
280
     0
102
RTVSPost2010PropOp45
 70
     1
102
RTVSPost2010Prop46
 90
       50
102
RTVSPost2010PropOp46
 70
     1
102
RTVSPost2010Prop47
 90
       50
102
RTVSPost2010PropOp47
 70
     1
102
RTVSPost2010Prop48
 90
       50
102
RTVSPost2010PropOp48
 70
     1
102
RTVSPost2010Prop49
280
     0
102
RTVSPost2010PropOp49
 70
     1
102
RTVSPost2010Prop50
 90
       50
102
RTVSPost2010PropOp50
 70
     1
102
RTVSPost2010Prop51ColorIndex
 90
      256
102
RTVSPost2010Prop51ColorRGB
 90
-16777216
102
RTVSPost2010PropOp51
 70
     0
102
RTVSPost2010Prop52
140
1.0
102
RTVSPost2010PropOp52
 70
     0
102
RTVSPost2010Prop53
 90
        2
102
RTVSPost2010PropOp53
 70
     1
102
RTVSPost2010Prop54
  1
strokes_ogs.tif
102
RTVSPost2010PropOp54
 70
     1
102
RTVSPost2010Prop55
280
     0
102
RTVSPost2010PropOp55
 70
     1
102
RTVSPost2010Prop56
140
1.0
102
RTVSPost2010PropOp56
 70
     1
102
RTVSPost2010Prop57
140
1.0
102
RTVSPost2010PropOp57
 70
     1
  0
XRECORD
  5
45E
102
{ACAD_REACTORS
330
45D
102
}
330
45D
100
AcDbXrecord
280
     1
102
RTVSPropertyOp0
 70
     1
102
RTVSPropertyOp1
 70
     1
102
RTVSPropertyOp2
 70
     1
102
RTVSPropertyOp3
 70
     1
102
RTVSPropertyOp4
 70
     1
102
RTVSPropertyOp5
 70
     1
102
RTVSPropertyOp6
 70
     1
102
RTVSPropertyOp7
 70
     1
102
RTVSPropertyOp8
 70
     1
102
RTVSPropertyOp9
 70
     1
102
RTVSPropertyOp10
 70
     1
102
RTVSPropertyOp11
 70
     1
102
RTVSPropertyOp12
 70
     1
102
RTVSPropertyOp13
 70
     1
102
RTVSPropertyOp14
 70
     1
102
RTVSPropertyOp15
 70
     1
102
RTVSPropertyOp16
 70
     1
102
RTVSPropertyOp17
 70
     1
102
RTVSPropertyOp18
 70
     1
102
RTVSPropertyOp19
 70
     1
102
RTVSPropertyOp20
 70
     1
102
RTVSPropertyOp21
 70
     1
102
RTVSPropertyOp22
 70
     1
102
RTVSPropertyOp23
 70
     1
102
RTVSPropertyOp24
 70
     1
102
RTVSPropertyOp25
 70
     1
102
RTVSPropertyOp26
 70
     1
102
RTVSPropertyOp27
 70
     1
102
RTVSPropertyOp28
 70
     1
102
RTVSPropertyOp29
 70
     1
102
RTVSPropertyOp30
 70
     1
102
RTVSPropertyOp31
 70
     1
102
RTVSPropertyOp32
 70
     1
102
RTVSPropertyOp33
 70
     1
102
RTVSPropertyOp34
 70
     1
102
RTVSPropertyOp35
 70
     1
102
RTVSPropertyOp36
 70
     1
102
RTVSPropertyOp37
 70
     1
102
RTVSPropertyOp38
 70
     1
102
RTVSPropertyOp39
 70
     1
102
RTVSPropertyOp40
 70
     1
102
RTVSPropertyOp41
 70
     1
102
RTVSPropertyOp42
 70
     1
102
RTVSPropertyOp43
 70
     1
102
RTVSPropertyOp44
 70
     1
102
RTVSPropertyOp45
 70
     1
102
RTVSPropertyOp46
 70
     1
102
RTVSPropertyOp47
 70
     1
102
RTVSPropertyOp48
 70
     1
102
RTVSPropertyOp49
 70
     1
102
RTVSPropertyOp50
 70
     1
102
RTVSPropertyOp51
 70
     0
102
RTVSPropertyOp52
 70
     0
102
RTVSPropertyOp53
 70
     1
102
RTVSPropertyOp54
 70
     1
102
RTVSPropertyOp55
 70
     1
102
RTVSPropertyOp56
 70
     1
102
RTVSPropertyOp57
 70
     1
102
RTVSPost2010Prop28
280
     0
102
RTVSPost2010PropOp28
 70
     1
102
RTVSPost2010Prop29
280
     1
102
RTVSPost2010PropOp29
 70
     1
102
RTVSPost2010Prop30
280
     1
102
RTVSPost2010PropOp30
 70
     1
102
RTVSPost2010Prop31
280
     0
102
RTVSPost2010PropOp31
 70
     1
102
RTVSPost2010Prop32
280
     0
102
RTVSPost2010PropOp32
 70
     1
102
RTVSPost2010Prop33
280
     0
102
RTVSPost2010PropOp33
 70
     1
102
RTVSPost2010Prop34
280
     0
102
RTVSPost2010PropOp34
 70
     1
102
RTVSPost2010Prop35
280
     0
102
RTVSPost2010PropOp35
 70
     1
102
RTVSPost2010Prop36
280
     0
102
RTVSPost2010PropOp36
 70
     1
102
RTVSPost2010Prop37
 90
       50
102
RTVSPost2010PropOp37
 70
     1
102
RTVSPost2010Prop38
140
0.0
102
RTVSPost2010PropOp38
 70
     1
102
RTVSPost2010Prop39
140
1.0
102
RTVSPost2010PropOp39
 70
     1
102
RTVSPost2010Prop40
 90
        0
102
RTVSPost2010PropOp40
 70
     1
102
RTVSPost2010Prop41ColorIndex
 90
       18
102
RTVSPost2010Prop41ColorRGB
 90
        0
102
RTVSPost2010PropOp41
 70
     1
102
RTVSPost2010Prop42
 90
       50
102
RTVSPost2010PropOp42
 70
     1
102
RTVSPost2010Prop43
 90
        3
102
RTVSPost2010PropOp43
 70
     1
102
RTVSPost2010Prop44ColorIndex
 90
        5
102
RTVSPost2010Prop44ColorRGB
 90
      255
102
RTVSPost2010PropOp44
 70
     1
102
RTVSPost2010Prop45
280
     0
102
RTVSPost2010PropOp45
 70
     1
102
RTVSPost2010Prop46
 90
       50
102
RTVSPost2010PropOp46
 70
     1
102
RTVSPost2010Prop47
 90
       50
102
RTVSPost2010PropOp47
 70
     1
102
RTVSPost2010Prop48
 90
       50
102
RTVSPost2010PropOp48
 70
     1
102
RTVSPost2010Prop49
280
     0
102
RTVSPost2010PropOp49
 70
     1
102
RTVSPost2010Prop50
 90
       50
102
RTVSPost2010PropOp50
 70
     1
102
RTVSPost2010Prop51ColorIndex
 90
      256
102
RTVSPost2010Prop51ColorRGB
 90
-16777216
102
RTVSPost2010PropOp51
 70
     0
102
RTVSPost2010Prop52
140
1.0
102
RTVSPost2010PropOp52
 70
     0
102
RTVSPost2010Prop53
 90
        2
102
RTVSPost2010PropOp53
 70
     1
102
RTVSPost2010Prop54
  1
strokes_ogs.tif
102
RTVSPost2010PropOp54
 70
     1
102
RTVSPost2010Prop55
280
     0
102
RTVSPost2010PropOp55
 70
     1
102
RTVSPost2010Prop56
140
1.0
102
RTVSPost2010PropOp56
 70
     1
102
RTVSPost2010Prop57
140
1.0
102
RTVSPost2010PropOp57
 70
     1
  0
XRECORD
  5
44E
102
{ACAD_REACTORS
330
44D
102
}
330
44D
100
AcDbXrecord
280
     1
102
RTVSPropertyOp0
 70
     1
102
RTVSPropertyOp1
 70
     1
102
RTVSPropertyOp2
 70
     1
102
RTVSPropertyOp3
 70
     1
102
RTVSPropertyOp4
 70
     1
102
RTVSPropertyOp5
 70
     1
102
RTVSPropertyOp6
 70
     1
102
RTVSPropertyOp7
 70
     1
102
RTVSPropertyOp8
 70
     1
102
RTVSPropertyOp9
 70
     1
102
RTVSPropertyOp10
 70
     1
102
RTVSPropertyOp11
 70
     1
102
RTVSPropertyOp12
 70
     1
102
RTVSPropertyOp13
 70
     1
102
RTVSPropertyOp14
 70
     1
102
RTVSPropertyOp15
 70
     1
102
RTVSPropertyOp16
 70
     1
102
RTVSPropertyOp17
 70
     1
102
RTVSPropertyOp18
 70
     1
102
RTVSPropertyOp19
 70
     1
102
RTVSPropertyOp20
 70
     1
102
RTVSPropertyOp21
 70
     1
102
RTVSPropertyOp22
 70
     1
102
RTVSPropertyOp23
 70
     1
102
RTVSPropertyOp24
 70
     1
102
RTVSPropertyOp25
 70
     1
102
RTVSPropertyOp26
 70
     1
102
RTVSPropertyOp27
 70
     1
102
RTVSPropertyOp28
 70
     1
102
RTVSPropertyOp29
 70
     1
102
RTVSPropertyOp30
 70
     1
102
RTVSPropertyOp31
 70
     1
102
RTVSPropertyOp32
 70
     1
102
RTVSPropertyOp33
 70
     1
102
RTVSPropertyOp34
 70
     1
102
RTVSPropertyOp35
 70
     1
102
RTVSPropertyOp36
 70
     1
102
RTVSPropertyOp37
 70
     1
102
RTVSPropertyOp38
 70
     1
102
RTVSPropertyOp39
 70
     1
102
RTVSPropertyOp40
 70
     1
102
RTVSPropertyOp41
 70
     1
102
RTVSPropertyOp42
 70
     1
102
RTVSPropertyOp43
 70
     1
102
RTVSPropertyOp44
 70
     1
102
RTVSPropertyOp45
 70
     1
102
RTVSPropertyOp46
 70
     1
102
RTVSPropertyOp47
 70
     1
102
RTVSPropertyOp48
 70
     1
102
RTVSPropertyOp49
 70
     1
102
RTVSPropertyOp50
 70
     1
102
RTVSPropertyOp51
 70
     0
102
RTVSPropertyOp52
 70
     0
102
RTVSPropertyOp53
 70
     1
102
RTVSPropertyOp54
 70
     1
102
RTVSPropertyOp55
 70
     1
102
RTVSPropertyOp56
 70
     1
102
RTVSPropertyOp57
 70
     1
102
RTVSPost2010Prop28
280
     0
102
RTVSPost2010PropOp28
 70
     1
102
RTVSPost2010Prop29
280
     1
102
RTVSPost2010PropOp29
 70
     1
102
RTVSPost2010Prop30
280
     1
102
RTVSPost2010PropOp30
 70
     1
102
RTVSPost2010Prop31
280
     0
102
RTVSPost2010PropOp31
 70
     1
102
RTVSPost2010Prop32
280
     0
102
RTVSPost2010PropOp32
 70
     1
102
RTVSPost2010Prop33
280
     0
102
RTVSPost2010PropOp33
 70
     1
102
RTVSPost2010Prop34
280
     0
102
RTVSPost2010PropOp34
 70
     1
102
RTVSPost2010Prop35
280
     0
102
RTVSPost2010PropOp35
 70
     1
102
RTVSPost2010Prop36
280
     0
102
RTVSPost2010PropOp36
 70
     1
102
RTVSPost2010Prop37
 90
       50
102
RTVSPost2010PropOp37
 70
     1
102
RTVSPost2010Prop38
140
0.0
102
RTVSPost2010PropOp38
 70
     1
102
RTVSPost2010Prop39
140
1.0
102
RTVSPost2010PropOp39
 70
     1
102
RTVSPost2010Prop40
 90
        0
102
RTVSPost2010PropOp40
 70
     1
102
RTVSPost2010Prop41ColorIndex
 90
       18
102
RTVSPost2010Prop41ColorRGB
 90
        0
102
RTVSPost2010PropOp41
 70
     1
102
RTVSPost2010Prop42
 90
       50
102
RTVSPost2010PropOp42
 70
     1
102
RTVSPost2010Prop43
 90
        3
102
RTVSPost2010PropOp43
 70
     1
102
RTVSPost2010Prop44ColorIndex
 90
        5
102
RTVSPost2010Prop44ColorRGB
 90
      255
102
RTVSPost2010PropOp44
 70
     1
102
RTVSPost2010Prop45
280
     0
102
RTVSPost2010PropOp45
 70
     1
102
RTVSPost2010Prop46
 90
       50
102
RTVSPost2010PropOp46
 70
     1
102
RTVSPost2010Prop47
 90
       50
102
RTVSPost2010PropOp47
 70
     1
102
RTVSPost2010Prop48
 90
       50
102
RTVSPost2010PropOp48
 70
     1
102
RTVSPost2010Prop49
280
     0
102
RTVSPost2010PropOp49
 70
     1
102
RTVSPost2010Prop50
 90
       50
102
RTVSPost2010PropOp50
 70
     1
102
RTVSPost2010Prop51ColorIndex
 90
      256
102
RTVSPost2010Prop51ColorRGB
 90
-16777216
102
RTVSPost2010PropOp51
 70
     0
102
RTVSPost2010Prop52
140
1.0
102
RTVSPost2010PropOp52
 70
     0
102
RTVSPost2010Prop53
 90
        2
102
RTVSPost2010PropOp53
 70
     1
102
RTVSPost2010Prop54
  1
strokes_ogs.tif
102
RTVSPost2010PropOp54
 70
     1
102
RTVSPost2010Prop55
280
     0
102
RTVSPost2010PropOp55
 70
     1
102
RTVSPost2010Prop56
140
1.0
102
RTVSPost2010PropOp56
 70
     1
102
RTVSPost2010Prop57
140
1.0
102
RTVSPost2010PropOp57
 70
     1
  0
XRECORD
  5
440
102
{ACAD_REACTORS
330
43F
102
}
330
43F
100
AcDbXrecord
280
     1
102
RTVSPropertyOp0
 70
     1
102
RTVSPropertyOp1
 70
     1
102
RTVSPropertyOp2
 70
     1
102
RTVSPropertyOp3
 70
     1
102
RTVSPropertyOp4
 70
     1
102
RTVSPropertyOp5
 70
     1
102
RTVSPropertyOp6
 70
     1
102
RTVSPropertyOp7
 70
     1
102
RTVSPropertyOp8
 70
     1
102
RTVSPropertyOp9
 70
     1
102
RTVSPropertyOp10
 70
     1
102
RTVSPropertyOp11
 70
     1
102
RTVSPropertyOp12
 70
     1
102
RTVSPropertyOp13
 70
     1
102
RTVSPropertyOp14
 70
     1
102
RTVSPropertyOp15
 70
     1
102
RTVSPropertyOp16
 70
     1
102
RTVSPropertyOp17
 70
     1
102
RTVSPropertyOp18
 70
     1
102
RTVSPropertyOp19
 70
     1
102
RTVSPropertyOp20
 70
     1
102
RTVSPropertyOp21
 70
     1
102
RTVSPropertyOp22
 70
     1
102
RTVSPropertyOp23
 70
     1
102
RTVSPropertyOp24
 70
     1
102
RTVSPropertyOp25
 70
     1
102
RTVSPropertyOp26
 70
     1
102
RTVSPropertyOp27
 70
     1
102
RTVSPropertyOp28
 70
     1
102
RTVSPropertyOp29
 70
     1
102
RTVSPropertyOp30
 70
     1
102
RTVSPropertyOp31
 70
     1
102
RTVSPropertyOp32
 70
     1
102
RTVSPropertyOp33
 70
     1
102
RTVSPropertyOp34
 70
     1
102
RTVSPropertyOp35
 70
     1
102
RTVSPropertyOp36
 70
     1
102
RTVSPropertyOp37
 70
     1
102
RTVSPropertyOp38
 70
     1
102
RTVSPropertyOp39
 70
     1
102
RTVSPropertyOp40
 70
     1
102
RTVSPropertyOp41
 70
     1
102
RTVSPropertyOp42
 70
     1
102
RTVSPropertyOp43
 70
     1
102
RTVSPropertyOp44
 70
     1
102
RTVSPropertyOp45
 70
     1
102
RTVSPropertyOp46
 70
     1
102
RTVSPropertyOp47
 70
     1
102
RTVSPropertyOp48
 70
     1
102
RTVSPropertyOp49
 70
     1
102
RTVSPropertyOp50
 70
     1
102
RTVSPropertyOp51
 70
     0
102
RTVSPropertyOp52
 70
     0
102
RTVSPropertyOp53
 70
     1
102
RTVSPropertyOp54
 70
     1
102
RTVSPropertyOp55
 70
     1
102
RTVSPropertyOp56
 70
     1
102
RTVSPropertyOp57
 70
     1
102
RTVSPost2010Prop28
280
     0
102
RTVSPost2010PropOp28
 70
     1
102
RTVSPost2010Prop29
280
     1
102
RTVSPost2010PropOp29
 70
     1
102
RTVSPost2010Prop30
280
     1
102
RTVSPost2010PropOp30
 70
     1
102
RTVSPost2010Prop31
280
     0
102
RTVSPost2010PropOp31
 70
     1
102
RTVSPost2010Prop32
280
     0
102
RTVSPost2010PropOp32
 70
     1
102
RTVSPost2010Prop33
280
     0
102
RTVSPost2010PropOp33
 70
     1
102
RTVSPost2010Prop34
280
     0
102
RTVSPost2010PropOp34
 70
     1
102
RTVSPost2010Prop35
280
     0
102
RTVSPost2010PropOp35
 70
     1
102
RTVSPost2010Prop36
280
     0
102
RTVSPost2010PropOp36
 70
     1
102
RTVSPost2010Prop37
 90
       50
102
RTVSPost2010PropOp37
 70
     1
102
RTVSPost2010Prop38
140
0.0
102
RTVSPost2010PropOp38
 70
     1
102
RTVSPost2010Prop39
140
1.0
102
RTVSPost2010PropOp39
 70
     1
102
RTVSPost2010Prop40
 90
        0
102
RTVSPost2010PropOp40
 70
     1
102
RTVSPost2010Prop41ColorIndex
 90
       18
102
RTVSPost2010Prop41ColorRGB
 90
        0
102
RTVSPost2010PropOp41
 70
     1
102
RTVSPost2010Prop42
 90
       50
102
RTVSPost2010PropOp42
 70
     1
102
RTVSPost2010Prop43
 90
        3
102
RTVSPost2010PropOp43
 70
     1
102
RTVSPost2010Prop44ColorIndex
 90
        5
102
RTVSPost2010Prop44ColorRGB
 90
      255
102
RTVSPost2010PropOp44
 70
     1
102
RTVSPost2010Prop45
280
     0
102
RTVSPost2010PropOp45
 70
     1
102
RTVSPost2010Prop46
 90
       50
102
RTVSPost2010PropOp46
 70
     1
102
RTVSPost2010Prop47
 90
       50
102
RTVSPost2010PropOp47
 70
     1
102
RTVSPost2010Prop48
 90
       50
102
RTVSPost2010PropOp48
 70
     1
102
RTVSPost2010Prop49
280
     0
102
RTVSPost2010PropOp49
 70
     1
102
RTVSPost2010Prop50
 90
       50
102
RTVSPost2010PropOp50
 70
     1
102
RTVSPost2010Prop51ColorIndex
 90
      256
102
RTVSPost2010Prop51ColorRGB
 90
-16777216
102
RTVSPost2010PropOp51
 70
     0
102
RTVSPost2010Prop52
140
1.0
102
RTVSPost2010PropOp52
 70
     0
102
RTVSPost2010Prop53
 90
        2
102
RTVSPost2010PropOp53
 70
     1
102
RTVSPost2010Prop54
  1
strokes_ogs.tif
102
RTVSPost2010PropOp54
 70
     1
102
RTVSPost2010Prop55
280
     0
102
RTVSPost2010PropOp55
 70
     1
102
RTVSPost2010Prop56
140
1.0
102
RTVSPost2010PropOp56
 70
     1
102
RTVSPost2010Prop57
140
1.0
102
RTVSPost2010PropOp57
 70
     1
  0
XRECORD
  5
460
102
{ACAD_REACTORS
330
45F
102
}
330
45F
100
AcDbXrecord
280
     1
102
RTVSPropertyOp0
 70
     1
102
RTVSPropertyOp1
 70
     1
102
RTVSPropertyOp2
 70
     1
102
RTVSPropertyOp3
 70
     1
102
RTVSPropertyOp4
 70
     1
102
RTVSPropertyOp5
 70
     1
102
RTVSPropertyOp6
 70
     1
102
RTVSPropertyOp7
 70
     1
102
RTVSPropertyOp8
 70
     1
102
RTVSPropertyOp9
 70
     1
102
RTVSPropertyOp10
 70
     1
102
RTVSPropertyOp11
 70
     1
102
RTVSPropertyOp12
 70
     1
102
RTVSPropertyOp13
 70
     1
102
RTVSPropertyOp14
 70
     1
102
RTVSPropertyOp15
 70
     1
102
RTVSPropertyOp16
 70
     1
102
RTVSPropertyOp17
 70
     1
102
RTVSPropertyOp18
 70
     1
102
RTVSPropertyOp19
 70
     1
102
RTVSPropertyOp20
 70
     1
102
RTVSPropertyOp21
 70
     1
102
RTVSPropertyOp22
 70
     1
102
RTVSPropertyOp23
 70
     1
102
RTVSPropertyOp24
 70
     1
102
RTVSPropertyOp25
 70
     1
102
RTVSPropertyOp26
 70
     1
102
RTVSPropertyOp27
 70
     1
102
RTVSPropertyOp28
 70
     1
102
RTVSPropertyOp29
 70
     1
102
RTVSPropertyOp30
 70
     1
102
RTVSPropertyOp31
 70
     1
102
RTVSPropertyOp32
 70
     1
102
RTVSPropertyOp33
 70
     1
102
RTVSPropertyOp34
 70
     1
102
RTVSPropertyOp35
 70
     1
102
RTVSPropertyOp36
 70
     1
102
RTVSPropertyOp37
 70
     1
102
RTVSPropertyOp38
 70
     1
102
RTVSPropertyOp39
 70
     1
102
RTVSPropertyOp40
 70
     1
102
RTVSPropertyOp41
 70
     1
102
RTVSPropertyOp42
 70
     1
102
RTVSPropertyOp43
 70
     1
102
RTVSPropertyOp44
 70
     1
102
RTVSPropertyOp45
 70
     1
102
RTVSPropertyOp46
 70
     1
102
RTVSPropertyOp47
 70
     1
102
RTVSPropertyOp48
 70
     1
102
RTVSPropertyOp49
 70
     1
102
RTVSPropertyOp50
 70
     1
102
RTVSPropertyOp51
 70
     0
102
RTVSPropertyOp52
 70
     0
102
RTVSPropertyOp53
 70
     1
102
RTVSPropertyOp54
 70
     1
102
RTVSPropertyOp55
 70
     1
102
RTVSPropertyOp56
 70
     1
102
RTVSPropertyOp57
 70
     1
102
RTVSPost2010Prop28
280
     0
102
RTVSPost2010PropOp28
 70
     1
102
RTVSPost2010Prop29
280
     1
102
RTVSPost2010PropOp29
 70
     1
102
RTVSPost2010Prop30
280
     1
102
RTVSPost2010PropOp30
 70
     1
102
RTVSPost2010Prop31
280
     0
102
RTVSPost2010PropOp31
 70
     1
102
RTVSPost2010Prop32
280
     0
102
RTVSPost2010PropOp32
 70
     1
102
RTVSPost2010Prop33
280
     0
102
RTVSPost2010PropOp33
 70
     1
102
RTVSPost2010Prop34
280
     0
102
RTVSPost2010PropOp34
 70
     1
102
RTVSPost2010Prop35
280
     0
102
RTVSPost2010PropOp35
 70
     1
102
RTVSPost2010Prop36
280
     0
102
RTVSPost2010PropOp36
 70
     1
102
RTVSPost2010Prop37
 90
       50
102
RTVSPost2010PropOp37
 70
     1
102
RTVSPost2010Prop38
140
0.0
102
RTVSPost2010PropOp38
 70
     1
102
RTVSPost2010Prop39
140
1.0
102
RTVSPost2010PropOp39
 70
     1
102
RTVSPost2010Prop40
 90
        0
102
RTVSPost2010PropOp40
 70
     1
102
RTVSPost2010Prop41ColorIndex
 90
       18
102
RTVSPost2010Prop41ColorRGB
 90
        0
102
RTVSPost2010PropOp41
 70
     1
102
RTVSPost2010Prop42
 90
       50
102
RTVSPost2010PropOp42
 70
     1
102
RTVSPost2010Prop43
 90
        3
102
RTVSPost2010PropOp43
 70
     1
102
RTVSPost2010Prop44ColorIndex
 90
        5
102
RTVSPost2010Prop44ColorRGB
 90
      255
102
RTVSPost2010PropOp44
 70
     1
102
RTVSPost2010Prop45
280
     0
102
RTVSPost2010PropOp45
 70
     1
102
RTVSPost2010Prop46
 90
       50
102
RTVSPost2010PropOp46
 70
     1
102
RTVSPost2010Prop47
 90
       50
102
RTVSPost2010PropOp47
 70
     1
102
RTVSPost2010Prop48
 90
       50
102
RTVSPost2010PropOp48
 70
     1
102
RTVSPost2010Prop49
280
     0
102
RTVSPost2010PropOp49
 70
     1
102
RTVSPost2010Prop50
 90
       50
102
RTVSPost2010PropOp50
 70
     1
102
RTVSPost2010Prop51ColorIndex
 90
      256
102
RTVSPost2010Prop51ColorRGB
 90
-16777216
102
RTVSPost2010PropOp51
 70
     0
102
RTVSPost2010Prop52
140
1.0
102
RTVSPost2010PropOp52
 70
     0
102
RTVSPost2010Prop53
 90
        2
102
RTVSPost2010PropOp53
 70
     1
102
RTVSPost2010Prop54
  1
strokes_ogs.tif
102
RTVSPost2010PropOp54
 70
     1
102
RTVSPost2010Prop55
280
     0
102
RTVSPost2010PropOp55
 70
     1
102
RTVSPost2010Prop56
140
1.0
102
RTVSPost2010PropOp56
 70
     1
102
RTVSPost2010Prop57
140
1.0
102
RTVSPost2010PropOp57
 70
     1
  0
ENDSEC
  0
EOF
