  0
SECTION
  2
HEADER
  9
$ACADVER
  1
AC1015
  9
$ACADMAINTVER
 70
     6
  9
$DWGCODEPAGE
  3
ANSI_932
  9
$INSBASE
 10
2420.309844678782
 20
-9996.852759237416
 30
0.0
  9
$EXTMIN
 10
2420.309844678782
 20
-11196.85275923742
 30
0.0
  9
$EXTMAX
 10
3326.327902113308
 20
-9996.852759237416
 30
0.0
  9
$LIMMIN
 10
2420.309844678782
 20
-11196.85275923742
  9
$LIMMAX
 10
3326.327902113308
 20
-9996.852759237416
  9
$ORTHOMODE
 70
     0
  9
$REGENMODE
 70
     0
  9
$FILLMODE
 70
     1
  9
$QTEXTMODE
 70
     0
  9
$MIRRTEXT
 70
     1
  9
$LTSCALE
 40
3.0
  9
$ATTMODE
 70
     1
  9
$TEXTSIZE
 40
15.0
  9
$TRACEWID
 40
0.05
  9
$TEXTSTYLE
  7
Standard
  9
$CLAYER
  8
1
  9
$CELTYPE
  6
Continuous
  9
$CECOLOR
 62
     7
  9
$CELTSCALE
 40
1.0
  9
$DISPSILH
 70
     0
  9
$DIMSCALE
 40
3.0
  9
$DIMASZ
 40
3.0
  9
$DIMEXO
 40
1.0
  9
$DIMDLI
 40
10.0
  9
$DIMRND
 40
0.0
  9
$DIMDLE
 40
1.0
  9
$DIMEXE
 40
1.0
  9
$DIMTP
 40
0.0
  9
$DIMTM
 40
0.0
  9
$DIMTXT
 40
3.5
  9
$DIMCEN
 40
0.09
  9
$DIMTSZ
 40
0.0
  9
$DIMTOL
 70
     0
  9
$DIMLIM
 70
     0
  9
$DIMTIH
 70
     0
  9
$DIMTOH
 70
     0
  9
$DIMSE1
 70
     0
  9
$DIMSE2
 70
     0
  9
$DIMTAD
 70
     1
  9
$DIMZIN
 70
     8
  9
$DIMBLK
  1
OPEN30
  9
$DIMASO
 70
     1
  9
$DIMSHO
 70
     0
  9
$DIMPOST
  1

  9
$DIMAPOST
  1

  9
$DIMALT
 70
     0
  9
$DIMALTD
 70
     3
  9
$DIMALTF
 40
25.4
  9
$DIMLFAC
 40
1.0
  9
$DIMTOFL
 70
     0
  9
$DIMTVP
 40
0.0
  9
$DIMTIX
 70
     0
  9
$DIMSOXD
 70
     0
  9
$DIMSAH
 70
     0
  9
$DIMBLK1
  1

  9
$DIMBLK2
  1

  9
$DIMSTYLE
  2
Standard
  9
$DIMCLRD
 70
     1
  9
$DIMCLRE
 70
     1
  9
$DIMCLRT
 70
     7
  9
$DIMTFAC
 40
0.5
  9
$DIMGAP
 40
1.0
  9
$DIMJUST
 70
     0
  9
$DIMSD1
 70
     0
  9
$DIMSD2
 70
     0
  9
$DIMTOLJ
 70
     1
  9
$DIMTZIN
 70
     0
  9
$DIMALTZ
 70
     0
  9
$DIMALTTZ
 70
     0
  9
$DIMUPT
 70
     0
  9
$DIMDEC
 70
     3
  9
$DIMTDEC
 70
     4
  9
$DIMALTU
 70
     2
  9
$DIMALTTD
 70
     2
  9
$DIMTXSTY
  7
Standard
  9
$DIMAUNIT
 70
     0
  9
$DIMADEC
 70
     3
  9
$DIMALTRND
 40
0.0
  9
$DIMAZIN
 70
     2
  9
$DIMDSEP
 70
    46
  9
$DIMATFIT
 70
     3
  9
$DIMFRAC
 70
     0
  9
$DIMLDRBLK
  1
OPEN30
  9
$DIMLUNIT
 70
     2
  9
$DIMLWD
 70
    -1
  9
$DIMLWE
 70
    -1
  9
$DIMTMOVE
 70
     0
  9
$LUNITS
 70
     2
  9
$LUPREC
 70
     4
  9
$SKETCHINC
 40
0.1
  9
$FILLETRAD
 40
0.0
  9
$AUNITS
 70
     0
  9
$AUPREC
 70
     0
  9
$MENU
  1
ACAD
  9
$ELEVATION
 40
0.0
  9
$PELEVATION
 40
0.0
  9
$THICKNESS
 40
0.0
  9
$LIMCHECK
 70
     0
  9
$CHAMFERA
 40
0.0
  9
$CHAMFERB
 40
0.0
  9
$CHAMFERC
 40
0.0
  9
$CHAMFERD
 40
0.0
  9
$SKPOLY
 70
     0
  9
$TDCREATE
 40
2419495.375
  9
$TDUCREATE
 40
2419495.0
  9
$TDUPDATE
 40
2460216.495747153
  9
$TDUUPDATE
 40
2460216.120747153
  9
$TDINDWG
 40
0.0
  9
$TDUSRTIMER
 40
0.0
  9
$USRTIMER
 70
     1
  9
$ANGBASE
 50
0.0
  9
$ANGDIR
 70
     0
  9
$PDMODE
 70
    65
  9
$PDSIZE
 40
0.2
  9
$PLINEWID
 40
0.0
  9
$SPLFRAME
 70
     0
  9
$SPLINETYPE
 70
     6
  9
$SPLINESEGS
 70
     8
  9
$HANDSEED
  5
459
  9
$SURFTAB1
 70
     6
  9
$SURFTAB2
 70
     6
  9
$SURFTYPE
 70
     6
  9
$SURFU
 70
     6
  9
$SURFV
 70
     6
  9
$UCSBASE
  2

  9
$UCSNAME
  2

  9
$UCSORG
 10
0.0
 20
0.0
 30
0.0
  9
$UCSXDIR
 10
1.0
 20
0.0
 30
0.0
  9
$UCSYDIR
 10
0.0
 20
1.0
 30
0.0
  9
$UCSORTHOREF
  2

  9
$UCSORTHOVIEW
 70
     0
  9
$UCSORGTOP
 10
0.0
 20
0.0
 30
0.0
  9
$UCSORGBOTTOM
 10
0.0
 20
0.0
 30
0.0
  9
$UCSORGLEFT
 10
0.0
 20
0.0
 30
0.0
  9
$UCSORGRIGHT
 10
0.0
 20
0.0
 30
0.0
  9
$UCSORGFRONT
 10
0.0
 20
0.0
 30
0.0
  9
$UCSORGBACK
 10
0.0
 20
0.0
 30
0.0
  9
$PUCSBASE
  2

  9
$PUCSNAME
  2

  9
$PUCSORG
 10
0.0
 20
0.0
 30
0.0
  9
$PUCSXDIR
 10
1.0
 20
0.0
 30
0.0
  9
$PUCSYDIR
 10
0.0
 20
1.0
 30
0.0
  9
$PUCSORTHOREF
  2

  9
$PUCSORTHOVIEW
 70
     0
  9
$PUCSORGTOP
 10
0.0
 20
0.0
 30
0.0
  9
$PUCSORGBOTTOM
 10
0.0
 20
0.0
 30
0.0
  9
$PUCSORGLEFT
 10
0.0
 20
0.0
 30
0.0
  9
$PUCSORGRIGHT
 10
0.0
 20
0.0
 30
0.0
  9
$PUCSORGFRONT
 10
0.0
 20
0.0
 30
0.0
  9
$PUCSORGBACK
 10
0.0
 20
0.0
 30
0.0
  9
$USERI1
 70
     0
  9
$USERI2
 70
     0
  9
$USERI3
 70
     0
  9
$USERI4
 70
     0
  9
$USERI5
 70
     0
  9
$USERR1
 40
0.0
  9
$USERR2
 40
0.0
  9
$USERR3
 40
0.0
  9
$USERR4
 40
0.0
  9
$USERR5
 40
0.0
  9
$WORLDVIEW
 70
     1
  9
$SHADEDGE
 70
     3
  9
$SHADEDIF
 70
    70
  9
$TILEMODE
 70
     1
  9
$MAXACTVP
 70
    64
  9
$PINSBASE
 10
0.0
 20
0.0
 30
0.0
  9
$PLIMCHECK
 70
     0
  9
$PEXTMIN
 10
1.000000000000000E+20
 20
1.000000000000000E+20
 30
1.000000000000000E+20
  9
$PEXTMAX
 10
-1.000000000000000E+20
 20
-1.000000000000000E+20
 30
-1.000000000000000E+20
  9
$PLIMMIN
 10
0.0
 20
0.0
  9
$PLIMMAX
 10
12.0
 20
9.0
  9
$UNITMODE
 70
     0
  9
$VISRETAIN
 70
     1
  9
$PLINEGEN
 70
     0
  9
$PSLTSCALE
 70
     1
  9
$TREEDEPTH
 70
  3020
  9
$CMLSTYLE
  2
Standard
  9
$CMLJUST
 70
     0
  9
$CMLSCALE
 40
1.0
  9
$PROXYGRAPHICS
 70
     1
  9
$MEASUREMENT
 70
     0
  9
$CELWEIGHT
370
    -1
  9
$ENDCAPS
280
     0
  9
$JOINSTYLE
280
     0
  9
$LWDISPLAY
290
     0
  9
$INSUNITS
 70
     1
  9
$HYPERLINKBASE
  1

  9
$STYLESHEET
  1

  9
$XEDIT
290
     1
  9
$CEPSNTYPE
380
     0
  9
$PSTYLEMODE
290
     1
  9
$FINGERPRINTGUID
  2
{566C1051-B536-43EB-9C51-44549FD25634}
  9
$VERSIONGUID
  2
{FAEB1C32-E019-11D5-929B-00C0DF256EC4}
  9
$EXTNAMES
290
     1
  9
$PSVPSCALE
 40
0.0
  9
$OLESTARTUP
290
     0
  0
ENDSEC
  0
SECTION
  2
CLASSES
  0
CLASS
  1
ACDBDICTIONARYWDFLT
  2
AcDbDictionaryWithDefault
  3
ObjectDBX Classes
 90
        0
280
     0
281
     0
  0
CLASS
  1
VISUALSTYLE
  2
AcDbVisualStyle
  3
ObjectDBX Classes
 90
     4095
280
     0
281
     0
  0
CLASS
  1
MATERIAL
  2
AcDbMaterial
  3
ObjectDBX Classes
 90
     1153
280
     0
281
     0
  0
CLASS
  1
SCALE
  2
AcDbScale
  3
ObjectDBX Classes
 90
     1153
280
     0
281
     0
  0
CLASS
  1
TABLESTYLE
  2
AcDbTableStyle
  3
ObjectDBX Classes
 90
     4095
280
     0
281
     0
  0
CLASS
  1
MLEADERSTYLE
  2
AcDbMLeaderStyle
  3
ACDB_MLEADERSTYLE_CLASS
 90
     4095
280
     0
281
     0
  0
CLASS
  1
SUN
  2
AcDbSun
  3
SCENEOE
 90
     1153
280
     0
281
     0
  0
CLASS
  1
DICTIONARYVAR
  2
AcDbDictionaryVar
  3
ObjectDBX Classes
 90
        0
280
     0
281
     0
  0
CLASS
  1
ACDBPLACEHOLDER
  2
AcDbPlaceHolder
  3
ObjectDBX Classes
 90
        0
280
     0
281
     0
  0
CLASS
  1
LAYOUT
  2
AcDbLayout
  3
ObjectDBX Classes
 90
        0
280
     0
281
     0
  0
ENDSEC
  0
SECTION
  2
TABLES
  0
TABLE
  2
VPORT
  5
8
102
{ACAD_XDICTIONARY
360
41C
102
}
330
0
100
AcDbSymbolTable
 70
     1
  0
VPORT
  5
29
330
8
100
AcDbSymbolTableRecord
100
AcDbViewportTableRecord
  2
*Active
 70
     0
 10
0.0
 20
0.0
 11
1.0
 21
1.0
 12
453.0090287172634
 22
600.0
 13
0.0
 23
0.0
 14
0.5
 24
0.5
 15
0.5
 25
0.5
 16
0.0
 26
0.0
 36
1.0
 17
0.0
 27
0.0
 37
0.0
 40
1200.0
 41
0.7550150478621056
 42
50.0
 43
0.0
 44
0.0
 50
0.0
 51
0.0
 71
     0
 72
   100
 73
     1
 74
     3
 75
     0
 76
     0
 77
     0
 78
     0
281
     0
 65
     1
110
0.0
120
0.0
130
0.0
111
1.0
121
0.0
131
0.0
112
0.0
122
1.0
132
0.0
 79
     0
146
0.0
  0
ENDTAB
  0
TABLE
  2
LTYPE
  5
5
330
0
100
AcDbSymbolTable
 70
    17
  0
LTYPE
  5
14
330
5
100
AcDbSymbolTableRecord
100
AcDbLinetypeTableRecord
  2
ByBlock
 70
     0
  3

 72
    65
 73
     0
 40
0.0
  0
LTYPE
  5
15
330
5
100
AcDbSymbolTableRecord
100
AcDbLinetypeTableRecord
  2
ByLayer
 70
     0
  3

 72
    65
 73
     0
 40
0.0
  0
LTYPE
  5
16
330
5
100
AcDbSymbolTableRecord
100
AcDbLinetypeTableRecord
  2
Continuous
 70
     0
  3
Solid line
 72
    65
 73
     0
 40
0.0
  0
LTYPE
  5
6E
330
5
100
AcDbSymbolTableRecord
100
AcDbLinetypeTableRecord
  2
DIVIDE
 70
     0
  3
Divide ____ . . ____ . . ____ . . ____ . . ____
 72
    65
 73
     6
 40
1.25
 49
0.5
 74
     0
 49
-0.25
 74
     0
 49
0.0
 74
     0
 49
-0.25
 74
     0
 49
0.0
 74
     0
 49
-0.25
 74
     0
  0
LTYPE
  5
6F
330
5
100
AcDbSymbolTableRecord
100
AcDbLinetypeTableRecord
  2
HIDDEN
 70
     0
  3
Hidden __ __ __ __ __ __ __ __ __ __ __ __ __ _
 72
    65
 73
     2
 40
9.525
 49
6.35
 74
     0
 49
-3.175
 74
     0
  0
LTYPE
  5
70
330
5
100
AcDbSymbolTableRecord
100
AcDbLinetypeTableRecord
  2
HIDDEN2
 70
     0
  3
Hidden (.5x) _ _ _ _ _ _ _ _ _ _ _ _ _ _ _ _ _
 72
    65
 73
     2
 40
4.7625
 49
3.175
 74
     0
 49
-1.5875
 74
     0
  0
LTYPE
  5
71
330
5
100
AcDbSymbolTableRecord
100
AcDbLinetypeTableRecord
  2
CENTER2
 70
     0
  3
Center (.5x) ___ _ ___ _ ___ _ ___ _ ___ _ ___
 72
    65
 73
     4
 40
28.575
 49
19.05
 74
     0
 49
-3.175
 74
     0
 49
3.175
 74
     0
 49
-3.175
 74
     0
  0
LTYPE
  5
72
330
5
100
AcDbSymbolTableRecord
100
AcDbLinetypeTableRecord
  2
PHANTOM2
 70
     0
  3
Phantom (.5x) ___ _ _ ___ _ _ ___ _ _ ___ _ _
 72
    65
 73
     6
 40
31.75
 49
15.875
 74
     0
 49
-3.175
 74
     0
 49
3.175
 74
     0
 49
-3.175
 74
     0
 49
3.175
 74
     0
 49
-3.175
 74
     0
  0
LTYPE
  5
73
330
5
100
AcDbSymbolTableRecord
100
AcDbLinetypeTableRecord
  2
DASHED
 70
     0
  3
Dashed __ __ __ __ __ __ __ __ __ __ __ __ __ _
 72
    65
 73
     2
 40
19.05
 49
12.7
 74
     0
 49
-6.35
 74
     0
  0
LTYPE
  5
74
330
5
100
AcDbSymbolTableRecord
100
AcDbLinetypeTableRecord
  2
CENTER
 70
     0
  3
Center ____ _ ____ _ ____ _ ____ _ ____ _ ____
 72
    65
 73
     4
 40
50.8
 49
31.75
 74
     0
 49
-6.35
 74
     0
 49
6.35
 74
     0
 49
-6.35
 74
     0
  0
LTYPE
  5
75
330
5
100
AcDbSymbolTableRecord
100
AcDbLinetypeTableRecord
  2
PHANTOM
 70
     0
  3
Phantom ______  __  __  ______  __  __  ______
 72
    65
 73
     6
 40
63.5
 49
31.75
 74
     0
 49
-6.35
 74
     0
 49
6.35
 74
     0
 49
-6.35
 74
     0
 49
6.35
 74
     0
 49
-6.35
 74
     0
  0
LTYPE
  5
76
330
5
100
AcDbSymbolTableRecord
100
AcDbLinetypeTableRecord
  2
BORDER2
 70
     0
  3
Border (.5x) __.__.__.__.__.__.__.__.__.__.__.
 72
    65
 73
     6
 40
22.225
 49
6.35
 74
     0
 49
-3.175
 74
     0
 49
6.35
 74
     0
 49
-3.175
 74
     0
 49
0.0
 74
     0
 49
-3.175
 74
     0
  0
LTYPE
  5
77
330
5
100
AcDbSymbolTableRecord
100
AcDbLinetypeTableRecord
  2
HIDDENX2
 70
     0
  3
Hidden (2x) ____ ____ ____ ____ ____ ____ ____
 72
    65
 73
     2
 40
19.05
 49
12.7
 74
     0
 49
-6.35
 74
     0
  0
LTYPE
  5
78
330
5
100
AcDbSymbolTableRecord
100
AcDbLinetypeTableRecord
  2
DOTX2
 70
     0
  3
Dot (2x) .  .  .  .  .  .  .  .  .  .  .  .  . 
 72
    65
 73
     2
 40
12.7
 49
0.0
 74
     0
 49
-12.7
 74
     0
  0
LTYPE
  5
79
330
5
100
AcDbSymbolTableRecord
100
AcDbLinetypeTableRecord
  2
DASHDOTX2
 70
     0
  3
Dash dot (2x) ____  .  ____  .  ____  .  ___
 72
    65
 73
     4
 40
50.8
 49
25.4
 74
     0
 49
-12.7
 74
     0
 49
0.0
 74
     0
 49
-12.7
 74
     0
  0
LTYPE
  5
7A
330
5
100
AcDbSymbolTableRecord
100
AcDbLinetypeTableRecord
  2
DIVIDEX2
 70
     0
  3
Divide (2x) ________  .  .  ________  .  .  _
 72
    65
 73
     6
 40
63.5
 49
25.4
 74
     0
 49
-12.7
 74
     0
 49
0.0
 74
     0
 49
-12.7
 74
     0
 49
0.0
 74
     0
 49
-12.7
 74
     0
  0
LTYPE
  5
7B
330
5
100
AcDbSymbolTableRecord
100
AcDbLinetypeTableRecord
  2
DASHEDX2
 70
     0
  3
Dashed (2x) ____  ____  ____  ____  ____  ___
 72
    65
 73
     2
 40
38.1
 49
25.4
 74
     0
 49
-12.7
 74
     0
  0
LTYPE
  5
7C
330
5
100
AcDbSymbolTableRecord
100
AcDbLinetypeTableRecord
  2
CENTERX2
 70
     0
  3
Center (2x) ________  __  ________  __  _____
 72
    65
 73
     4
 40
101.6
 49
63.5
 74
     0
 49
-12.7
 74
     0
 49
12.7
 74
     0
 49
-12.7
 74
     0
  0
LTYPE
  5
7D
330
5
100
AcDbSymbolTableRecord
100
AcDbLinetypeTableRecord
  2
PHANTOMX2
 70
     0
  3
Phantom (2x) ____________    ____    ____   _
 72
    65
 73
     6
 40
127.0
 49
63.5
 74
     0
 49
-12.7
 74
     0
 49
12.7
 74
     0
 49
-12.7
 74
     0
 49
12.7
 74
     0
 49
-12.7
 74
     0
  0
ENDTAB
  0
TABLE
  2
LAYER
  5
2
330
0
100
AcDbSymbolTable
 70
     6
  0
LAYER
  5
10
330
2
100
AcDbSymbolTableRecord
100
AcDbLayerTableRecord
  2
0
 70
     0
 62
     7
  6
Continuous
370
    -3
390
F
  0
LAYER
  5
7E
330
2
100
AcDbSymbolTableRecord
100
AcDbLayerTableRecord
  2
1
 70
     0
 62
     7
  6
Continuous
370
     0
390
F
  0
LAYER
  5
7F
330
2
100
AcDbSymbolTableRecord
100
AcDbLayerTableRecord
  2
2
 70
     0
 62
     7
  6
Continuous
370
     0
390
F
  0
LAYER
  5
80
330
2
100
AcDbSymbolTableRecord
100
AcDbLayerTableRecord
  2
14
 70
     0
 62
     7
  6
Continuous
370
     0
390
F
  0
LAYER
  5
81
330
2
100
AcDbSymbolTableRecord
100
AcDbLayerTableRecord
  2
15
 70
     0
 62
     7
  6
Continuous
370
     0
390
F
  0
LAYER
  5
82
330
2
100
AcDbSymbolTableRecord
100
AcDbLayerTableRecord
  2
DEFPOINTS
 70
     0
 62
     3
  6
DIVIDE
290
     0
370
     0
390
F
  0
ENDTAB
  0
TABLE
  2
STYLE
  5
3
330
0
100
AcDbSymbolTable
 70
    12
  0
STYLE
  5
11
330
3
100
AcDbSymbolTableRecord
100
AcDbTextStyleTableRecord
  2
Standard
 70
     0
 40
0.0
 41
0.8
 50
0.0
 71
     0
 42
15.0
  3
MONOTXT.shx
  4
EXTFONT.shx
  0
STYLE
  5
83
330
3
100
AcDbSymbolTableRecord
100
AcDbTextStyleTableRecord
  2
DIMSTANDARD
 70
     0
 40
0.0
 41
1.0
 50
0.0
 71
     0
 42
15.0
  3
MONOTXT.shx
  4
EXTFONT.shx
  0
STYLE
  5
264
330
3
100
AcDbSymbolTableRecord
100
AcDbTextStyleTableRecord
  2
MTSTANDARD
 70
     0
 40
0.0
 41
1.0
 50
0.0
 71
     0
 42
15.0
  3
MONOTXT.shx
  4
EXTFONT.shx
  0
STYLE
  5
265
330
3
100
AcDbSymbolTableRecord
100
AcDbTextStyleTableRecord
  2
MTSTANDARD1
 70
     0
 40
0.0
 41
0.875
 50
0.0
 71
     0
 42
15.0
  3
MONOTXT.shx
  4
EXTFONT.shx
  0
STYLE
  5
273
330
3
100
AcDbSymbolTableRecord
100
AcDbTextStyleTableRecord
  2
MTSTANDARD2
 70
     0
 40
0.0
 41
1.0
 50
0.0
 71
     0
 42
15.0
  3
MONOTXT.shx
  4
EXTFONT.shx
  0
STYLE
  5
302
330
3
100
AcDbSymbolTableRecord
100
AcDbTextStyleTableRecord
  2
MTSTANDARD3
 70
     0
 40
0.0
 41
0.75
 50
0.0
 71
     0
 42
15.0
  3
MONOTXT.shx
  4
EXTFONT.shx
  0
STYLE
  5
325
330
3
100
AcDbSymbolTableRecord
100
AcDbTextStyleTableRecord
  2
MTSTANDARD4
 70
     0
 40
0.0
 41
1.0
 50
0.0
 71
     0
 42
15.0
  3
MONOTXT.shx
  4
EXTFONT.shx
  0
STYLE
  5
335
330
3
100
AcDbSymbolTableRecord
100
AcDbTextStyleTableRecord
  2
MTSTANDARD5
 70
     0
 40
0.0
 41
1.0
 50
0.0
 71
     0
 42
15.0
  3
MONOTXT.shx
  4
EXTFONT.shx
  0
STYLE
  5
393
330
3
100
AcDbSymbolTableRecord
100
AcDbTextStyleTableRecord
  2
MTSTANDARD6
 70
     0
 40
0.0
 41
1.0
 50
0.0
 71
     0
 42
15.0
  3
MONOTXT.shx
  4
EXTFONT.shx
  0
STYLE
  5
3C5
330
3
100
AcDbSymbolTableRecord
100
AcDbTextStyleTableRecord
  2
MTSTANDARD7
 70
     0
 40
0.0
 41
0.7777777777777778
 50
0.0
 71
     0
 42
15.0
  3
MONOTXT.shx
  4
EXTFONT.shx
  0
STYLE
  5
3F3
330
3
100
AcDbSymbolTableRecord
100
AcDbTextStyleTableRecord
  2
MTSTANDARD8
 70
     0
 40
0.0
 41
1.0
 50
0.0
 71
     0
 42
15.0
  3
MONOTXT.shx
  4
EXTFONT.shx
  0
STYLE
  5
3F5
330
3
100
AcDbSymbolTableRecord
100
AcDbTextStyleTableRecord
  2
MTSTANDARD9
 70
     0
 40
0.0
 41
1.0
 50
0.0
 71
     0
 42
15.0
  3
MONOTXT.shx
  4
EXTFONT.shx
  0
ENDTAB
  0
TABLE
  2
VIEW
  5
6
330
0
100
AcDbSymbolTable
 70
     0
  0
ENDTAB
  0
TABLE
  2
UCS
  5
7
330
0
100
AcDbSymbolTable
 70
     0
  0
ENDTAB
  0
TABLE
  2
APPID
  5
9
330
0
100
AcDbSymbolTable
 70
     2
  0
APPID
  5
12
330
9
100
AcDbSymbolTableRecord
100
AcDbRegAppTableRecord
  2
ACAD
 70
     0
  0
APPID
  5
456
330
9
100
AcDbSymbolTableRecord
100
AcDbRegAppTableRecord
  2
ACAD_MLEADERVER
 70
     0
  0
ENDTAB
  0
TABLE
  2
DIMSTYLE
  5
A
330
0
100
AcDbSymbolTable
 70
     7
100
AcDbDimStyleTable
  0
DIMSTYLE
105
27
330
A
100
AcDbSymbolTableRecord
100
AcDbDimStyleTableRecord
  2
Standard
 70
     0
 40
3.0
 41
3.0
 42
1.0
 43
10.0
 44
1.0
 73
     0
 74
     0
 77
     3
 78
     8
 79
     2
140
3.5
141
0.0
146
0.5
147
1.0
176
     1
177
     1
271
     3
178
     7
179
     3
271
     3
340
11
342
88
371
    -1
372
    -1
  0
DIMSTYLE
105
267
330
A
100
AcDbSymbolTableRecord
100
AcDbDimStyleTableRecord
  2
DIMSTYEX_1
 70
     0
 40
3.0
 41
3.0
 42
1.0
 43
10.0
 44
1.0
 73
     0
 74
     0
 77
     3
 78
     8
 79
     2
140
3.5
141
0.0
146
0.5
147
1.0
176
     1
177
     1
271
     3
178
     7
179
     3
271
     3
340
11
341
88
342
88
371
    -1
372
    -1
  0
DIMSTYLE
105
278
102
{ACAD_REACTORS
330
279
330
288
330
295
330
2A2
330
2AF
330
2BC
330
2F7
102
}
330
A
100
AcDbSymbolTableRecord
100
AcDbDimStyleTableRecord
  2
DIMSTYEX_2
 70
     0
 40
3.0
 41
3.0
 42
1.0
 43
10.0
 44
1.0
 73
     0
 74
     0
 77
     3
 78
     8
 79
     2
140
3.136
141
0.0
146
0.5
147
1.0
173
     1
176
     1
177
     1
271
     3
178
     7
179
     3
271
     3
272
     3
340
83
342
88
343
88
344
88
371
    -1
372
    -1
  0
DIMSTYLE
105
2C7
102
{ACAD_REACTORS
330
2C8
330
2DA
102
}
330
A
100
AcDbSymbolTableRecord
100
AcDbDimStyleTableRecord
  2
DIMSTYEX_3
 70
     0
 40
3.0
 41
3.0
 42
1.0
 43
10.0
 44
1.0
 73
     0
 74
     0
 75
     1
 77
     1
 78
     8
 79
     2
140
3.136
141
0.0
146
0.5
147
1.0
173
     1
176
     1
177
     1
271
     3
178
     7
179
     3
271
     3
272
     3
281
     1
340
83
342
88
343
AE
344
88
371
    -1
372
    -1
  0
DIMSTYLE
105
2E9
102
{ACAD_REACTORS
330
2EA
102
}
330
A
100
AcDbSymbolTableRecord
100
AcDbDimStyleTableRecord
  2
DIMSTYEX_4
 70
     0
 40
3.0
 41
3.0
 42
1.0
 43
3.0
 44
1.0
 73
     0
 74
     0
 77
     3
 78
     8
 79
     2
140
3.136
141
0.0
146
0.5
147
2.0
173
     1
176
     1
177
     1
271
     3
178
     7
179
     3
271
     3
272
     3
340
83
342
88
343
88
344
88
371
    -1
372
    -1
  0
DIMSTYLE
105
37A
102
{ACAD_REACTORS
330
37B
330
38D
102
}
330
A
100
AcDbSymbolTableRecord
100
AcDbDimStyleTableRecord
  2
DIMSTYEX_5
 70
     0
 40
3.0
 41
2.0
 42
1.0
 43
7.0
 44
1.0
 73
     0
 74
     0
 77
     3
 78
     8
 79
     2
140
3.584
141
0.0
146
0.5
147
1.0
173
     1
176
     3
177
     3
271
     3
178
     2
179
     3
271
     3
272
     3
340
83
342
88
343
88
344
88
371
    -1
372
    -1
  0
DIMSTYLE
105
395
330
A
100
AcDbSymbolTableRecord
100
AcDbDimStyleTableRecord
  2
DIMSTYEX_6
 70
     0
 40
3.0
 41
2.0
 42
1.0
 43
10.0
 44
1.0
 73
     0
 74
     0
 77
     3
 78
     8
 79
     2
140
3.5
141
0.0
146
0.5
147
1.0
176
     3
177
     3
271
     3
178
     2
179
     3
271
     3
340
11
341
88
342
88
371
    -1
372
    -1
  0
ENDTAB
  0
TABLE
  2
BLOCK_RECORD
  5
1
330
0
100
AcDbSymbolTable
 70
    30
  0
BLOCK_RECORD
  5
1F
330
1
100
AcDbSymbolTableRecord
100
AcDbBlockTableRecord
  2
*Model_Space
340
22
  0
BLOCK_RECORD
  5
1B
330
1
100
AcDbSymbolTableRecord
100
AcDbBlockTableRecord
  2
*Paper_Space
340
1E
  0
BLOCK_RECORD
  5
84
330
1
100
AcDbSymbolTableRecord
100
AcDbBlockTableRecord
  2
_SMALL
340
0
  0
BLOCK_RECORD
  5
88
330
1
100
AcDbSymbolTableRecord
100
AcDbBlockTableRecord
  2
_OPEN30
340
0
102
{BLKREFS
331
26F
331
270
331
280
331
281
331
28D
331
28E
331
29A
331
29B
331
2A7
331
2A8
331
2B4
331
2B5
331
2C1
331
2D4
331
2E1
331
2E2
331
2EF
331
2F0
331
372
331
373
331
385
331
386
102
}
  0
BLOCK_RECORD
  5
8E
330
1
100
AcDbSymbolTableRecord
100
AcDbBlockTableRecord
  2
_OBLIQUE
340
0
  0
BLOCK_RECORD
  5
92
330
1
100
AcDbSymbolTableRecord
100
AcDbBlockTableRecord
  2
_DOT
340
0
  0
BLOCK_RECORD
  5
96
330
1
100
AcDbSymbolTableRecord
100
AcDbBlockTableRecord
  2
_DOTSMALL
340
0
  0
BLOCK_RECORD
  5
9A
330
1
100
AcDbSymbolTableRecord
100
AcDbBlockTableRecord
  2
_DATUMFILLED
340
0
  0
BLOCK_RECORD
  5
9E
330
1
100
AcDbSymbolTableRecord
100
AcDbBlockTableRecord
  2
DATUMFILLED2
340
0
  0
BLOCK_RECORD
  5
A2
330
1
100
AcDbSymbolTableRecord
100
AcDbBlockTableRecord
  2
_DATUMBLANK
340
0
  0
BLOCK_RECORD
  5
A8
330
1
100
AcDbSymbolTableRecord
100
AcDbBlockTableRecord
  2
DATUMBLANK2
340
0
  0
BLOCK_RECORD
  5
AE
330
1
100
AcDbSymbolTableRecord
100
AcDbBlockTableRecord
  2
_NONE
340
0
  0
BLOCK_RECORD
  5
26B
330
1
100
AcDbSymbolTableRecord
100
AcDbBlockTableRecord
  2
_D1
340
0
  0
BLOCK_RECORD
  5
27C
330
1
100
AcDbSymbolTableRecord
100
AcDbBlockTableRecord
  2
_D2
340
0
  0
BLOCK_RECORD
  5
289
330
1
100
AcDbSymbolTableRecord
100
AcDbBlockTableRecord
  2
_D3
340
0
  0
BLOCK_RECORD
  5
296
330
1
100
AcDbSymbolTableRecord
100
AcDbBlockTableRecord
  2
_D4
340
0
  0
BLOCK_RECORD
  5
2A3
330
1
100
AcDbSymbolTableRecord
100
AcDbBlockTableRecord
  2
_D5
340
0
  0
BLOCK_RECORD
  5
2B0
330
1
100
AcDbSymbolTableRecord
100
AcDbBlockTableRecord
  2
_D6
340
0
  0
BLOCK_RECORD
  5
2BD
330
1
100
AcDbSymbolTableRecord
100
AcDbBlockTableRecord
  2
_D7
340
0
  0
BLOCK_RECORD
  5
2C9
330
1
100
AcDbSymbolTableRecord
100
AcDbBlockTableRecord
  2
BALN0
340
0
102
{BLKREFS
331
2CF
102
}
  0
BLOCK_RECORD
  5
2D0
330
1
100
AcDbSymbolTableRecord
100
AcDbBlockTableRecord
  2
_D8
340
0
  0
BLOCK_RECORD
  5
2DB
330
1
100
AcDbSymbolTableRecord
100
AcDbBlockTableRecord
  2
_D9
340
0
  0
BLOCK_RECORD
  5
2EB
330
1
100
AcDbSymbolTableRecord
100
AcDbBlockTableRecord
  2
_D10
340
0
  0
BLOCK_RECORD
  5
32D
330
1
100
AcDbSymbolTableRecord
100
AcDbBlockTableRecord
  2
BLK0
340
0
102
{BLKREFS
331
337
102
}
  0
BLOCK_RECORD
  5
338
330
1
100
AcDbSymbolTableRecord
100
AcDbBlockTableRecord
  2
BLK1
340
0
102
{BLKREFS
331
340
102
}
  0
BLOCK_RECORD
  5
341
330
1
100
AcDbSymbolTableRecord
100
AcDbBlockTableRecord
  2
BLK2
340
0
102
{BLKREFS
331
349
102
}
  0
BLOCK_RECORD
  5
36E
330
1
100
AcDbSymbolTableRecord
100
AcDbBlockTableRecord
  2
_D11
340
0
  0
BLOCK_RECORD
  5
381
330
1
100
AcDbSymbolTableRecord
100
AcDbBlockTableRecord
  2
_D12
340
0
  0
BLOCK_RECORD
  5
38F
330
1
100
AcDbSymbolTableRecord
100
AcDbBlockTableRecord
  2
BALN1
340
0
102
{BLKREFS
331
397
102
}
  0
BLOCK_RECORD
  5
3B9
330
1
100
AcDbSymbolTableRecord
100
AcDbBlockTableRecord
  2
MAKR0
340
0
102
{BLKREFS
331
3BE
102
}
  0
BLOCK_RECORD
  5
3BF
330
1
100
AcDbSymbolTableRecord
100
AcDbBlockTableRecord
  2
MAKR1
340
0
102
{BLKREFS
331
3C4
102
}
  0
ENDTAB
  0
ENDSEC
  0
SECTION
  2
BLOCKS
  0
BLOCK
  5
20
330
1F
100
AcDbEntity
  8
0
100
AcDbBlockBegin
  2
*Model_Space
 70
     0
 10
0.0
 20
0.0
 30
0.0
  3
*Model_Space
  1

  0
ENDBLK
  5
21
330
1F
100
AcDbEntity
  8
0
100
AcDbBlockEnd
  0
BLOCK
  5
1C
330
1B
100
AcDbEntity
 67
     1
  8
0
100
AcDbBlockBegin
  2
*Paper_Space
 70
     0
 10
0.0
 20
0.0
 30
0.0
  3
*Paper_Space
  1

  0
ENDBLK
  5
1D
330
1B
100
AcDbEntity
 67
     1
  8
0
100
AcDbBlockEnd
  0
BLOCK
  5
85
330
84
100
AcDbEntity
  8
0
100
AcDbBlockBegin
  2
_SMALL
 70
     0
 10
0.0
 20
0.0
 30
0.0
  3
_SMALL
  1

  0
CIRCLE
  5
87
330
84
100
AcDbEntity
  8
0
  6
ByBlock
 62
     0
370
    -2
100
AcDbCircle
 10
0.0
 20
0.0
 30
0.0
 40
0.1666666666
  0
CIRCLE
  5
406
330
84
100
AcDbEntity
  8
0
  6
ByBlock
 62
     0
370
    -2
100
AcDbCircle
 10
0.0
 20
0.0
 30
0.0
 40
0.1666666666
  0
ENDBLK
  5
86
330
84
100
AcDbEntity
  8
0
100
AcDbBlockEnd
  0
BLOCK
  5
89
330
88
100
AcDbEntity
  8
0
100
AcDbBlockBegin
  2
_OPEN30
 70
     0
 10
0.0
 20
0.0
 30
0.0
  3
_OPEN30
  1

  0
LINE
  5
8B
330
88
100
AcDbEntity
  8
0
  6
ByBlock
 62
     0
370
    -2
100
AcDbLine
 10
-1.0
 20
0.26794919
 30
0.0
 11
0.0
 21
0.0
 31
0.0
  0
LINE
  5
8C
330
88
100
AcDbEntity
  8
0
  6
ByBlock
 62
     0
370
    -2
100
AcDbLine
 10
0.0
 20
0.0
 30
0.0
 11
-1.0
 21
-0.26794919
 31
0.0
  0
LINE
  5
8D
330
88
100
AcDbEntity
  8
0
  6
ByBlock
 62
     0
370
    -2
100
AcDbLine
 10
0.0
 20
0.0
 30
0.0
 11
-1.0
 21
0.0
 31
0.0
  0
LINE
  5
407
330
88
100
AcDbEntity
  8
0
  6
ByBlock
 62
     0
370
    -2
100
AcDbLine
 10
-1.0
 20
0.26794919
 30
0.0
 11
0.0
 21
0.0
 31
0.0
  0
LINE
  5
408
330
88
100
AcDbEntity
  8
0
  6
ByBlock
 62
     0
370
    -2
100
AcDbLine
 10
0.0
 20
0.0
 30
0.0
 11
-1.0
 21
-0.26794919
 31
0.0
  0
LINE
  5
409
330
88
100
AcDbEntity
  8
0
  6
ByBlock
 62
     0
370
    -2
100
AcDbLine
 10
0.0
 20
0.0
 30
0.0
 11
-1.0
 21
0.0
 31
0.0
  0
ENDBLK
  5
8A
330
88
100
AcDbEntity
  8
0
100
AcDbBlockEnd
  0
BLOCK
  5
8F
330
8E
100
AcDbEntity
  8
0
100
AcDbBlockBegin
  2
_OBLIQUE
 70
     0
 10
0.0
 20
0.0
 30
0.0
  3
_OBLIQUE
  1

  0
LINE
  5
91
330
8E
100
AcDbEntity
  8
0
  6
ByBlock
 62
     0
370
    -2
100
AcDbLine
 10
-0.5
 20
-0.5
 30
0.0
 11
0.5
 21
0.5
 31
0.0
  0
LINE
  5
40A
330
8E
100
AcDbEntity
  8
0
  6
ByBlock
 62
     0
370
    -2
100
AcDbLine
 10
-0.5
 20
-0.5
 30
0.0
 11
0.5
 21
0.5
 31
0.0
  0
ENDBLK
  5
90
330
8E
100
AcDbEntity
  8
0
100
AcDbBlockEnd
  0
BLOCK
  5
93
330
92
100
AcDbEntity
  8
0
100
AcDbBlockBegin
  2
_DOT
 70
     0
 10
0.0
 20
0.0
 30
0.0
  3
_DOT
  1

  0
LWPOLYLINE
  5
95
330
92
100
AcDbEntity
  8
0
  6
ByBlock
 62
     0
370
    -2
100
AcDbPolyline
 90
        2
 70
     1
 43
0.5
 10
-0.25
 20
0.0
 42
1.0
 10
0.25
 20
0.0
 42
1.0
  0
LWPOLYLINE
  5
40B
330
92
100
AcDbEntity
  8
0
  6
ByBlock
 62
     0
370
    -2
100
AcDbPolyline
 90
        2
 70
     1
 43
0.5
 10
-0.25
 20
0.0
 42
1.0
 10
0.25
 20
0.0
 42
1.0
  0
ENDBLK
  5
94
330
92
100
AcDbEntity
  8
0
100
AcDbBlockEnd
  0
BLOCK
  5
97
330
96
100
AcDbEntity
  8
0
100
AcDbBlockBegin
  2
_DOTSMALL
 70
     0
 10
0.0
 20
0.0
 30
0.0
  3
_DOTSMALL
  1

  0
LWPOLYLINE
  5
99
330
96
100
AcDbEntity
  8
0
  6
ByBlock
 62
     0
370
    -2
100
AcDbPolyline
 90
        2
 70
     1
 43
0.5
 10
-0.0625
 20
0.0
 42
1.0
 10
0.0625
 20
0.0
 42
1.0
  0
LWPOLYLINE
  5
40C
330
96
100
AcDbEntity
  8
0
  6
ByBlock
 62
     0
370
    -2
100
AcDbPolyline
 90
        2
 70
     1
 43
0.5
 10
-0.0625
 20
0.0
 42
1.0
 10
0.0625
 20
0.0
 42
1.0
  0
ENDBLK
  5
98
330
96
100
AcDbEntity
  8
0
100
AcDbBlockEnd
  0
BLOCK
  5
9B
330
9A
100
AcDbEntity
  8
0
100
AcDbBlockBegin
  2
_DATUMFILLED
 70
     0
 10
0.0
 20
0.0
 30
0.0
  3
_DATUMFILLED
  1

  0
SOLID
  5
9D
330
9A
100
AcDbEntity
  8
0
  6
ByBlock
 62
     0
370
    -2
100
AcDbTrace
 10
0.0
 20
0.57735027
 30
0.0
 11
-1.0
 21
0.0
 31
0.0
 12
0.0
 22
-0.57735027
 32
0.0
 13
0.0
 23
-0.57735027
 33
0.0
  0
SOLID
  5
40D
330
9A
100
AcDbEntity
  8
0
  6
ByBlock
 62
     0
370
    -2
100
AcDbTrace
 10
0.0
 20
0.57735027
 30
0.0
 11
-1.0
 21
0.0
 31
0.0
 12
0.0
 22
-0.57735027
 32
0.0
 13
0.0
 23
-0.57735027
 33
0.0
  0
ENDBLK
  5
9C
330
9A
100
AcDbEntity
  8
0
100
AcDbBlockEnd
  0
BLOCK
  5
9F
330
9E
100
AcDbEntity
  8
0
100
AcDbBlockBegin
  2
DATUMFILLED2
 70
     0
 10
0.0
 20
0.0
 30
0.0
  3
DATUMFILLED2
  1

  0
SOLID
  5
A1
330
9E
100
AcDbEntity
  8
0
  6
ByBlock
 62
     0
370
    -2
100
AcDbTrace
 10
0.0
 20
1.0
 30
0.0
 11
-1.0
 21
0.0
 31
0.0
 12
0.0
 22
-1.0
 32
0.0
 13
0.0
 23
-1.0
 33
0.0
  0
SOLID
  5
40E
330
9E
100
AcDbEntity
  8
0
  6
ByBlock
 62
     0
370
    -2
100
AcDbTrace
 10
0.0
 20
1.0
 30
0.0
 11
-1.0
 21
0.0
 31
0.0
 12
0.0
 22
-1.0
 32
0.0
 13
0.0
 23
-1.0
 33
0.0
  0
ENDBLK
  5
A0
330
9E
100
AcDbEntity
  8
0
100
AcDbBlockEnd
  0
BLOCK
  5
A3
330
A2
100
AcDbEntity
  8
0
100
AcDbBlockBegin
  2
_DATUMBLANK
 70
     0
 10
0.0
 20
0.0
 30
0.0
  3
_DATUMBLANK
  1

  0
LINE
  5
A5
330
A2
100
AcDbEntity
  8
0
  6
ByBlock
 62
     0
370
    -2
100
AcDbLine
 10
0.0
 20
0.57735027
 30
0.0
 11
-1.0
 21
0.0
 31
0.0
  0
LINE
  5
A6
330
A2
100
AcDbEntity
  8
0
  6
ByBlock
 62
     0
370
    -2
100
AcDbLine
 10
-1.0
 20
0.0
 30
0.0
 11
0.0
 21
-0.57735027
 31
0.0
  0
LINE
  5
A7
330
A2
100
AcDbEntity
  8
0
  6
ByBlock
 62
     0
370
    -2
100
AcDbLine
 10
0.0
 20
-0.57735027
 30
0.0
 11
0.0
 21
0.57735027
 31
0.0
  0
LINE
  5
40F
330
A2
100
AcDbEntity
  8
0
  6
ByBlock
 62
     0
370
    -2
100
AcDbLine
 10
0.0
 20
0.57735027
 30
0.0
 11
-1.0
 21
0.0
 31
0.0
  0
LINE
  5
410
330
A2
100
AcDbEntity
  8
0
  6
ByBlock
 62
     0
370
    -2
100
AcDbLine
 10
-1.0
 20
0.0
 30
0.0
 11
0.0
 21
-0.57735027
 31
0.0
  0
LINE
  5
411
330
A2
100
AcDbEntity
  8
0
  6
ByBlock
 62
     0
370
    -2
100
AcDbLine
 10
0.0
 20
-0.57735027
 30
0.0
 11
0.0
 21
0.57735027
 31
0.0
  0
ENDBLK
  5
A4
330
A2
100
AcDbEntity
  8
0
100
AcDbBlockEnd
  0
BLOCK
  5
A9
330
A8
100
AcDbEntity
  8
0
100
AcDbBlockBegin
  2
DATUMBLANK2
 70
     0
 10
0.0
 20
0.0
 30
0.0
  3
DATUMBLANK2
  1

  0
LINE
  5
AB
330
A8
100
AcDbEntity
  8
0
  6
ByBlock
 62
     0
370
    -2
100
AcDbLine
 10
0.0
 20
1.0
 30
0.0
 11
-1.0
 21
0.0
 31
0.0
  0
LINE
  5
AC
330
A8
100
AcDbEntity
  8
0
  6
ByBlock
 62
     0
370
    -2
100
AcDbLine
 10
-1.0
 20
0.0
 30
0.0
 11
0.0
 21
-1.0
 31
0.0
  0
LINE
  5
AD
330
A8
100
AcDbEntity
  8
0
  6
ByBlock
 62
     0
370
    -2
100
AcDbLine
 10
0.0
 20
-1.0
 30
0.0
 11
0.0
 21
1.0
 31
0.0
  0
LINE
  5
412
330
A8
100
AcDbEntity
  8
0
  6
ByBlock
 62
     0
370
    -2
100
AcDbLine
 10
0.0
 20
1.0
 30
0.0
 11
-1.0
 21
0.0
 31
0.0
  0
LINE
  5
413
330
A8
100
AcDbEntity
  8
0
  6
ByBlock
 62
     0
370
    -2
100
AcDbLine
 10
-1.0
 20
0.0
 30
0.0
 11
0.0
 21
-1.0
 31
0.0
  0
LINE
  5
414
330
A8
100
AcDbEntity
  8
0
  6
ByBlock
 62
     0
370
    -2
100
AcDbLine
 10
0.0
 20
-1.0
 30
0.0
 11
0.0
 21
1.0
 31
0.0
  0
ENDBLK
  5
AA
330
A8
100
AcDbEntity
  8
0
100
AcDbBlockEnd
  0
BLOCK
  5
AF
330
AE
100
AcDbEntity
  8
0
100
AcDbBlockBegin
  2
_NONE
 70
     0
 10
0.0
 20
0.0
 30
0.0
  3
_NONE
  1

  0
ENDBLK
  5
B0
330
AE
100
AcDbEntity
  8
0
100
AcDbBlockEnd
  0
BLOCK
  5
26C
330
26B
100
AcDbEntity
  8
0
100
AcDbBlockBegin
  2
_D1
 70
     0
 10
0.0
 20
0.0
 30
0.0
  3
_D1
  1

  0
LINE
  5
26E
330
26B
100
AcDbEntity
  8
1
  6
ByBlock
 62
     1
100
AcDbLine
 10
2701.371822194963
 20
-10929.11428595899
 30
0.0
 11
2951.371822194963
 21
-10929.11428595899
 31
0.0
  0
INSERT
  5
26F
330
26B
100
AcDbEntity
  8
1
  6
ByBlock
 62
     1
100
AcDbBlockReference
  2
_OPEN30
 10
2701.371822194963
 20
-10929.11428595899
 30
0.0
 41
8.863269777109963
 42
8.863269777109963
 43
8.863269777109963
 50
180.0
  0
INSERT
  5
270
330
26B
100
AcDbEntity
  8
1
  6
ByBlock
 62
     1
100
AcDbBlockReference
  2
_OPEN30
 10
2951.371822194963
 20
-10929.11428595899
 30
0.0
 41
8.863269777109963
 42
8.863269777109963
 43
8.863269777109963
  0
LINE
  5
271
330
26B
100
AcDbEntity
  8
1
  6
ByBlock
 62
     1
100
AcDbLine
 10
2701.371822194963
 20
-10822.11428591472
 30
0.0
 11
2701.371822194963
 21
-10932.11428595899
 31
0.0
  0
LINE
  5
272
330
26B
100
AcDbEntity
  8
1
  6
ByBlock
 62
     1
100
AcDbLine
 10
2951.371822194963
 20
-10822.11428634721
 30
0.0
 11
2951.371822194963
 21
-10932.11428595899
 31
0.0
  0
MTEXT
  5
274
330
26B
100
AcDbEntity
  8
1
  6
Continuous
 62
     7
100
AcDbMText
 10
2821.121822194963
 20
-10926.11428595899
 30
0.0
 40
10.5
 41
0.0
 71
     7
 72
     5
  1
Ｂ
  7
MTSTANDARD2
 73
     1
 44
0.8035714285714286
  0
POINT
  5
275
330
26B
100
AcDbEntity
  8
DEFPOINTS
  6
ByBlock
 62
     1
100
AcDbPoint
 10
2701.371822194963
 20
-10819.11428591472
 30
0.0
  0
POINT
  5
276
330
26B
100
AcDbEntity
  8
DEFPOINTS
  6
ByBlock
 62
     1
100
AcDbPoint
 10
2951.371822194963
 20
-10819.11428634721
 30
0.0
  0
POINT
  5
277
330
26B
100
AcDbEntity
  8
DEFPOINTS
  6
ByBlock
 62
     1
100
AcDbPoint
 10
2951.371822194963
 20
-10929.11428595899
 30
0.0
  0
ENDBLK
  5
26D
330
26B
100
AcDbEntity
  8
0
100
AcDbBlockEnd
  0
BLOCK
  5
27D
330
27C
100
AcDbEntity
  8
0
100
AcDbBlockBegin
  2
_D2
 70
     0
 10
0.0
 20
0.0
 30
0.0
  3
_D2
  1

  0
LINE
  5
27F
330
27C
100
AcDbEntity
  8
1
  6
ByBlock
 62
     1
100
AcDbLine
 10
2671.371822194963
 20
-10819.11428634721
 30
0.0
 11
2671.371822194963
 21
-10743.11428592029
 31
0.0
  0
INSERT
  5
280
330
27C
100
AcDbEntity
  8
1
  6
ByBlock
 62
     1
100
AcDbBlockReference
  2
_OPEN30
 10
2671.371822194963
 20
-10819.11428634721
 30
0.0
 41
8.863269777109963
 42
8.863269777109963
 43
8.863269777109963
 50
270.0
  0
INSERT
  5
281
330
27C
100
AcDbEntity
  8
1
  6
ByBlock
 62
     1
100
AcDbBlockReference
  2
_OPEN30
 10
2671.371822194963
 20
-10743.11428592029
 30
0.0
 41
8.863269777109963
 42
8.863269777109963
 43
8.863269777109963
 50
90.0
  0
LINE
  5
282
330
27C
100
AcDbEntity
  8
1
  6
ByBlock
 62
     1
100
AcDbLine
 10
2698.371822194963
 20
-10819.11428634721
 30
0.0
 11
2668.371822194963
 21
-10819.1142863472
 31
0.0
  0
LINE
  5
283
330
27C
100
AcDbEntity
  8
1
  6
ByBlock
 62
     1
100
AcDbLine
 10
2764.871822194961
 20
-10743.11428592029
 30
0.0
 11
2668.371822194963
 21
-10743.11428592029
 31
0.0
  0
MTEXT
  5
284
330
27C
100
AcDbEntity
  8
1
  6
Continuous
 62
     7
100
AcDbMText
 10
2668.371822194963
 20
-10791.61428613375
 30
0.0
 40
10.5
 41
0.0
 71
     7
 72
     5
  1
７６
  7
MTSTANDARD2
 11
0.0
 21
1.0
 31
0.0
 73
     1
 44
0.8035714285714286
  0
POINT
  5
285
330
27C
100
AcDbEntity
  8
DEFPOINTS
  6
ByBlock
 62
     1
100
AcDbPoint
 10
2701.371822194963
 20
-10819.11428634721
 30
0.0
  0
POINT
  5
286
330
27C
100
AcDbEntity
  8
DEFPOINTS
  6
ByBlock
 62
     1
100
AcDbPoint
 10
2767.871822194961
 20
-10743.11428592029
 30
0.0
  0
POINT
  5
287
330
27C
100
AcDbEntity
  8
DEFPOINTS
  6
ByBlock
 62
     1
100
AcDbPoint
 10
2671.371822194963
 20
-10743.11428592029
 30
0.0
  0
ENDBLK
  5
27E
330
27C
100
AcDbEntity
  8
0
100
AcDbBlockEnd
  0
BLOCK
  5
28A
330
289
100
AcDbEntity
  8
0
100
AcDbBlockBegin
  2
_D3
 70
     0
 10
0.0
 20
0.0
 30
0.0
  3
_D3
  1

  0
LINE
  5
28C
330
289
100
AcDbEntity
  8
1
  6
ByBlock
 62
     1
100
AcDbLine
 10
2641.371822194963
 20
-10819.11428634721
 30
0.0
 11
2641.371822194963
 21
-10451.11428635277
 31
0.0
  0
INSERT
  5
28D
330
289
100
AcDbEntity
  8
1
  6
ByBlock
 62
     1
100
AcDbBlockReference
  2
_OPEN30
 10
2641.371822194963
 20
-10819.11428634721
 30
0.0
 41
8.863269777109963
 42
8.863269777109963
 43
8.863269777109963
 50
270.0
  0
INSERT
  5
28E
330
289
100
AcDbEntity
  8
1
  6
ByBlock
 62
     1
100
AcDbBlockReference
  2
_OPEN30
 10
2641.371822194963
 20
-10451.11428635277
 30
0.0
 41
8.863269777109963
 42
8.863269777109963
 43
8.863269777109963
 50
90.0
  0
LINE
  5
28F
330
289
100
AcDbEntity
  8
1
  6
ByBlock
 62
     1
100
AcDbLine
 10
2698.371822194963
 20
-10819.11428634721
 30
0.0
 11
2638.371822194963
 21
-10819.11428634721
 31
0.0
  0
LINE
  5
290
330
289
100
AcDbEntity
  8
1
  6
ByBlock
 62
     1
100
AcDbLine
 10
2715.371822194963
 20
-10451.11428635277
 30
0.0
 11
2638.371822194963
 21
-10451.11428635277
 31
0.0
  0
MTEXT
  5
291
330
289
100
AcDbEntity
  8
1
  6
Continuous
 62
     7
100
AcDbMText
 10
2638.371822194963
 20
-10650.86428634999
 30
0.0
 40
10.5
 41
0.0
 71
     7
 72
     5
  1
３６８
  7
MTSTANDARD2
 11
0.0
 21
1.0
 31
0.0
 73
     1
 44
0.8035714285714286
  0
POINT
  5
292
330
289
100
AcDbEntity
  8
DEFPOINTS
  6
ByBlock
 62
     1
100
AcDbPoint
 10
2701.371822194963
 20
-10819.11428634721
 30
0.0
  0
POINT
  5
293
330
289
100
AcDbEntity
  8
DEFPOINTS
  6
ByBlock
 62
     1
100
AcDbPoint
 10
2718.371822194963
 20
-10451.11428635277
 30
0.0
  0
POINT
  5
294
330
289
100
AcDbEntity
  8
DEFPOINTS
  6
ByBlock
 62
     1
100
AcDbPoint
 10
2641.371822194963
 20
-10451.11428635277
 30
0.0
  0
ENDBLK
  5
28B
330
289
100
AcDbEntity
  8
0
100
AcDbBlockEnd
  0
BLOCK
  5
297
330
296
100
AcDbEntity
  8
0
100
AcDbBlockBegin
  2
_D4
 70
     0
 10
0.0
 20
0.0
 30
0.0
  3
_D4
  1

  0
LINE
  5
299
330
296
100
AcDbEntity
  8
1
  6
ByBlock
 62
     1
100
AcDbLine
 10
2611.371822194963
 20
-10819.11428634721
 30
0.0
 11
2611.371822194963
 21
-10319.11428635277
 31
0.0
  0
INSERT
  5
29A
330
296
100
AcDbEntity
  8
1
  6
ByBlock
 62
     1
100
AcDbBlockReference
  2
_OPEN30
 10
2611.371822194963
 20
-10819.11428634721
 30
0.0
 41
8.863269777109963
 42
8.863269777109963
 43
8.863269777109963
 50
270.0
  0
INSERT
  5
29B
330
296
100
AcDbEntity
  8
1
  6
ByBlock
 62
     1
100
AcDbBlockReference
  2
_OPEN30
 10
2611.371822194963
 20
-10319.11428635277
 30
0.0
 41
8.863269777109963
 42
8.863269777109963
 43
8.863269777109963
 50
90.0
  0
LINE
  5
29C
330
296
100
AcDbEntity
  8
1
  6
ByBlock
 62
     1
100
AcDbLine
 10
2698.371822194963
 20
-10819.11428634721
 30
0.0
 11
2608.371822194963
 21
-10819.11428634721
 31
0.0
  0
LINE
  5
29D
330
296
100
AcDbEntity
  8
1
  6
ByBlock
 62
     1
100
AcDbLine
 10
2733.371822194963
 20
-10319.11428635277
 30
0.0
 11
2608.371822194963
 21
-10319.11428635277
 31
0.0
  0
MTEXT
  5
29E
330
296
100
AcDbEntity
  8
1
  6
Continuous
 62
     7
100
AcDbMText
 10
2608.371822194963
 20
-10584.86428634999
 30
0.0
 40
10.5
 41
0.0
 71
     7
 72
     5
  1
５００
  7
MTSTANDARD2
 11
0.0
 21
1.0
 31
0.0
 73
     1
 44
0.8035714285714286
  0
POINT
  5
29F
330
296
100
AcDbEntity
  8
DEFPOINTS
  6
ByBlock
 62
     1
100
AcDbPoint
 10
2701.371822194963
 20
-10819.11428634721
 30
0.0
  0
POINT
  5
2A0
330
296
100
AcDbEntity
  8
DEFPOINTS
  6
ByBlock
 62
     1
100
AcDbPoint
 10
2736.371822194963
 20
-10319.11428635277
 30
0.0
  0
POINT
  5
2A1
330
296
100
AcDbEntity
  8
DEFPOINTS
  6
ByBlock
 62
     1
100
AcDbPoint
 10
2611.371822194963
 20
-10319.11428635277
 30
0.0
  0
ENDBLK
  5
298
330
296
100
AcDbEntity
  8
0
100
AcDbBlockEnd
  0
BLOCK
  5
2A4
330
2A3
100
AcDbEntity
  8
0
100
AcDbBlockBegin
  2
_D5
 70
     0
 10
0.0
 20
0.0
 30
0.0
  3
_D5
  1

  0
LINE
  5
2A6
330
2A3
100
AcDbEntity
  8
1
  6
ByBlock
 62
     1
100
AcDbLine
 10
2578.371822194963
 20
-10819.11428634721
 30
0.0
 11
2578.371822194963
 21
-10265.11428635277
 31
0.0
  0
INSERT
  5
2A7
330
2A3
100
AcDbEntity
  8
1
  6
ByBlock
 62
     1
100
AcDbBlockReference
  2
_OPEN30
 10
2578.371822194963
 20
-10819.11428634721
 30
0.0
 41
8.863269777109963
 42
8.863269777109963
 43
8.863269777109963
 50
270.0
  0
INSERT
  5
2A8
330
2A3
100
AcDbEntity
  8
1
  6
ByBlock
 62
     1
100
AcDbBlockReference
  2
_OPEN30
 10
2578.371822194963
 20
-10265.11428635277
 30
0.0
 41
8.863269777109963
 42
8.863269777109963
 43
8.863269777109963
 50
90.0
  0
LINE
  5
2A9
330
2A3
100
AcDbEntity
  8
1
  6
ByBlock
 62
     1
100
AcDbLine
 10
2698.371822194963
 20
-10819.11428634721
 30
0.0
 11
2575.371822194963
 21
-10819.11428634721
 31
0.0
  0
LINE
  5
2AA
330
2A3
100
AcDbEntity
  8
1
  6
ByBlock
 62
     1
100
AcDbLine
 10
2758.371822194962
 20
-10265.11428635277
 30
0.0
 11
2575.371822194963
 21
-10265.11428635277
 31
0.0
  0
MTEXT
  5
2AB
330
2A3
100
AcDbEntity
  8
1
  6
Continuous
 62
     7
100
AcDbMText
 10
2575.371822194963
 20
-10557.86428634999
 30
0.0
 40
10.5
 41
0.0
 71
     7
 72
     5
  1
５５４
  7
MTSTANDARD2
 11
0.0
 21
1.0
 31
0.0
 73
     1
 44
0.8035714285714286
  0
POINT
  5
2AC
330
2A3
100
AcDbEntity
  8
DEFPOINTS
  6
ByBlock
 62
     1
100
AcDbPoint
 10
2701.371822194963
 20
-10819.11428634721
 30
0.0
  0
POINT
  5
2AD
330
2A3
100
AcDbEntity
  8
DEFPOINTS
  6
ByBlock
 62
     1
100
AcDbPoint
 10
2761.371822194962
 20
-10265.11428635277
 30
0.0
  0
POINT
  5
2AE
330
2A3
100
AcDbEntity
  8
DEFPOINTS
  6
ByBlock
 62
     1
100
AcDbPoint
 10
2578.371822194963
 20
-10265.11428635277
 30
0.0
  0
ENDBLK
  5
2A5
330
2A3
100
AcDbEntity
  8
0
100
AcDbBlockEnd
  0
BLOCK
  5
2B1
330
2B0
100
AcDbEntity
  8
0
100
AcDbBlockBegin
  2
_D6
 70
     0
 10
0.0
 20
0.0
 30
0.0
  3
_D6
  1

  0
LINE
  5
2B3
330
2B0
100
AcDbEntity
  8
1
  6
ByBlock
 62
     1
100
AcDbLine
 10
2728.871822194963
 20
-10235.11428635277
 30
0.0
 11
2923.871822194963
 21
-10235.11428635277
 31
0.0
  0
INSERT
  5
2B4
330
2B0
100
AcDbEntity
  8
1
  6
ByBlock
 62
     1
100
AcDbBlockReference
  2
_OPEN30
 10
2728.871822194963
 20
-10235.11428635277
 30
0.0
 41
8.863269777109963
 42
8.863269777109963
 43
8.863269777109963
 50
180.0
  0
INSERT
  5
2B5
330
2B0
100
AcDbEntity
  8
1
  6
ByBlock
 62
     1
100
AcDbBlockReference
  2
_OPEN30
 10
2923.871822194963
 20
-10235.11428635277
 30
0.0
 41
8.863269777109963
 42
8.863269777109963
 43
8.863269777109963
  0
LINE
  5
2B6
330
2B0
100
AcDbEntity
  8
1
  6
ByBlock
 62
     1
100
AcDbLine
 10
2728.871822194963
 20
-10307.11428635277
 30
0.0
 11
2728.871822194963
 21
-10232.11428635277
 31
0.0
  0
LINE
  5
2B7
330
2B0
100
AcDbEntity
  8
1
  6
ByBlock
 62
     1
100
AcDbLine
 10
2923.871822194963
 20
-10307.11428635277
 30
0.0
 11
2923.871822194963
 21
-10232.11428635277
 31
0.0
  0
MTEXT
  5
2B8
330
2B0
100
AcDbEntity
  8
1
  6
Continuous
 62
     7
100
AcDbMText
 10
2821.121822194963
 20
-10232.11428635277
 30
0.0
 40
10.5
 41
0.0
 71
     7
 72
     5
  1
Ａ
  7
MTSTANDARD2
 73
     1
 44
0.8035714285714286
  0
POINT
  5
2B9
330
2B0
100
AcDbEntity
  8
DEFPOINTS
  6
ByBlock
 62
     1
100
AcDbPoint
 10
2728.871822194963
 20
-10310.11428635277
 30
0.0
  0
POINT
  5
2BA
330
2B0
100
AcDbEntity
  8
DEFPOINTS
  6
ByBlock
 62
     1
100
AcDbPoint
 10
2923.871822194963
 20
-10310.11428635277
 30
0.0
  0
POINT
  5
2BB
330
2B0
100
AcDbEntity
  8
DEFPOINTS
  6
ByBlock
 62
     1
100
AcDbPoint
 10
2923.871822194963
 20
-10235.11428635277
 30
0.0
  0
ENDBLK
  5
2B2
330
2B0
100
AcDbEntity
  8
0
100
AcDbBlockEnd
  0
BLOCK
  5
2BE
330
2BD
100
AcDbEntity
  8
0
100
AcDbBlockBegin
  2
_D7
 70
     0
 10
0.0
 20
0.0
 30
0.0
  3
_D7
  1

  0
LINE
  5
2C0
330
2BD
100
AcDbEntity
  8
1
  6
ByBlock
 62
     1
100
AcDbLine
 10
2926.371822194963
 20
-10899.11428595899
 30
0.0
 11
2810.621822194963
 21
-10899.11428595899
 31
0.0
  0
INSERT
  5
2C1
330
2BD
100
AcDbEntity
  8
1
  6
ByBlock
 62
     1
100
AcDbBlockReference
  2
_OPEN30
 10
2926.371822194963
 20
-10899.11428595899
 30
0.0
 41
8.863269777109963
 42
8.863269777109963
 43
8.863269777109963
  0
LINE
  5
2C2
330
2BD
100
AcDbEntity
  8
1
  6
ByBlock
 62
     1
100
AcDbLine
 10
2926.371822194963
 20
-10869.5189882964
 30
0.0
 11
2926.371822194963
 21
-10902.11428595899
 31
0.0
  0
MTEXT
  5
2C3
330
2BD
100
AcDbEntity
  8
1
  6
Continuous
 62
     7
100
AcDbMText
 10
2821.121822194963
 20
-10896.11428595899
 30
0.0
 40
10.5
 41
0.0
 71
     7
 72
     5
  1
Ｃ
  7
MTSTANDARD2
 73
     1
 44
0.8035714285714286
  0
POINT
  5
2C4
330
2BD
100
AcDbEntity
  8
DEFPOINTS
  6
ByBlock
 62
     1
100
AcDbPoint
 10
2926.371822194963
 20
-10899.11428595899
 30
0.0
  0
POINT
  5
2C5
330
2BD
100
AcDbEntity
  8
DEFPOINTS
  6
ByBlock
 62
     1
100
AcDbPoint
 10
2926.371822194963
 20
-10866.5189882964
 30
0.0
  0
POINT
  5
2C6
330
2BD
100
AcDbEntity
  8
DEFPOINTS
  6
ByBlock
 62
     1
100
AcDbPoint
 10
2726.371822194963
 20
-10861.21792435045
 30
0.0
  0
ENDBLK
  5
2BF
330
2BD
100
AcDbEntity
  8
0
100
AcDbBlockEnd
  0
BLOCK
  5
2CA
330
2C9
100
AcDbEntity
  8
0
100
AcDbBlockBegin
  2
BALN0
 70
     0
 10
0.0
 20
0.0
 30
0.0
  3
BALN0
  1

  0
CIRCLE
  5
2CC
330
2C9
100
AcDbEntity
  8
1
  6
ByBlock
 62
     1
100
AcDbCircle
 10
-53.01550387625048
 20
30.44624967593336
 30
0.0
 40
15.0
  0
MTEXT
  5
2CD
330
2C9
100
AcDbEntity
  8
1
  6
Continuous
 62
     7
100
AcDbMText
 10
-60.51550387625048
 20
22.94624967593336
 30
0.0
 40
15.0
 41
0.0
 71
     7
 72
     5
  1
１
  7
MTSTANDARD
 73
     1
 44
1.0
  0
LEADER
  5
2CE
330
2C9
100
AcDbEntity
  8
1
  6
ByBlock
 62
     1
100
AcDbLeader
  3
DIMSTYEX_1
 76
     2
 10
0.0
 20
0.0
 30
0.0
 10
-40.0079177689356
 20
22.97612894994847
 30
0.0
1001
ACAD
1000
DSTYLE
1002
{
1070
   176
1070
     0
1002
}
  0
ENDBLK
  5
2CB
330
2C9
100
AcDbEntity
  8
0
100
AcDbBlockEnd
  0
BLOCK
  5
2D1
330
2D0
100
AcDbEntity
  8
0
100
AcDbBlockBegin
  2
_D8
 70
     0
 10
0.0
 20
0.0
 30
0.0
  3
_D8
  1

  0
LINE
  5
2D3
330
2D0
100
AcDbEntity
  8
1
  6
ByBlock
 62
     1
100
AcDbLine
 10
2773.871822194959
 20
-10629.11428592029
 30
0.0
 11
2842.121822194962
 21
-10629.11428592029
 31
0.0
  0
INSERT
  5
2D4
330
2D0
100
AcDbEntity
  8
1
  6
ByBlock
 62
     1
100
AcDbBlockReference
  2
_OPEN30
 10
2773.871822194959
 20
-10629.11428592029
 30
0.0
 41
8.863269777109963
 42
8.863269777109963
 43
8.863269777109963
 50
180.0
  0
LINE
  5
2D5
330
2D0
100
AcDbEntity
  8
1
  6
ByBlock
 62
     1
100
AcDbLine
 10
2773.871822194959
 20
-10602.11428592029
 30
0.0
 11
2773.871822194959
 21
-10632.11428592029
 31
0.0
  0
MTEXT
  5
2D6
330
2D0
100
AcDbEntity
  8
1
  6
Continuous
 62
     7
100
AcDbMText
 10
2821.121822194963
 20
-10626.11428592029
 30
0.0
 40
10.5
 41
0.0
 71
     7
 72
     5
  1
ｄ
  7
MTSTANDARD2
 73
     1
 44
0.8035714285714286
  0
POINT
  5
2D7
330
2D0
100
AcDbEntity
  8
DEFPOINTS
  6
ByBlock
 62
     1
100
AcDbPoint
 10
2773.871822194959
 20
-10629.11428592029
 30
0.0
  0
POINT
  5
2D8
330
2D0
100
AcDbEntity
  8
DEFPOINTS
  6
ByBlock
 62
     1
100
AcDbPoint
 10
2773.871822194959
 20
-10599.11428592029
 30
0.0
  0
POINT
  5
2D9
330
2D0
100
AcDbEntity
  8
DEFPOINTS
  6
ByBlock
 62
     1
100
AcDbPoint
 10
2878.871822194966
 20
-10599.11428592029
 30
0.0
  0
ENDBLK
  5
2D2
330
2D0
100
AcDbEntity
  8
0
100
AcDbBlockEnd
  0
BLOCK
  5
2DC
330
2DB
100
AcDbEntity
  8
0
100
AcDbBlockBegin
  2
_D9
 70
     0
 10
0.0
 20
0.0
 30
0.0
  3
_D9
  1

  0
LINE
  5
2DE
330
2DB
100
AcDbEntity
  8
1
  6
ByBlock
 62
     1
100
AcDbLine
 10
2770.371822195014
 20
-10680.11428591472
 30
0.0
 11
2773.871822194959
 21
-10680.11428591472
 31
0.0
  0
LINE
  5
2DF
330
2DB
100
AcDbEntity
  8
1
  6
ByBlock
 62
     1
100
AcDbLine
 10
2773.871822194959
 20
-10680.11428591472
 30
0.0
 11
2791.871822194959
 21
-10680.11428591472
 31
0.0
  0
LINE
  5
2E0
330
2DB
100
AcDbEntity
  8
1
  6
ByBlock
 62
     1
100
AcDbLine
 10
2770.371822195014
 20
-10680.11428591472
 30
0.0
 11
2750.871822195014
 21
-10680.11428591472
 31
0.0
  0
INSERT
  5
2E1
330
2DB
100
AcDbEntity
  8
1
  6
ByBlock
 62
     1
100
AcDbBlockReference
  2
_OPEN30
 10
2770.371822195014
 20
-10680.11428591472
 30
0.0
 41
8.863269777109963
 42
8.863269777109963
 43
8.863269777109963
  0
INSERT
  5
2E2
330
2DB
100
AcDbEntity
  8
1
  6
ByBlock
 62
     1
100
AcDbBlockReference
  2
_OPEN30
 10
2773.871822194959
 20
-10680.11428591472
 30
0.0
 41
8.863269777109963
 42
8.863269777109963
 43
8.863269777109963
 50
180.0
  0
LINE
  5
2E3
330
2DB
100
AcDbEntity
  8
1
  6
ByBlock
 62
     1
100
AcDbLine
 10
2770.371822195013
 20
-10686.11428591472
 30
0.0
 11
2770.371822195013
 21
-10677.11428591472
 31
0.0
  0
LINE
  5
2E4
330
2DB
100
AcDbEntity
  8
1
  6
ByBlock
 62
     1
100
AcDbLine
 10
2773.871822194959
 20
-10686.11428591472
 30
0.0
 11
2773.871822194959
 21
-10677.11428591472
 31
0.0
  0
MTEXT
  5
2E5
330
2DB
100
AcDbEntity
  8
1
  6
Continuous
 62
     7
100
AcDbMText
 10
2750.871822195014
 20
-10677.11428591472
 30
0.0
 40
10.5
 41
0.0
 71
     7
 72
     5
  1
ｔ
  7
MTSTANDARD2
 73
     1
 44
0.8035714285714286
  0
POINT
  5
2E6
330
2DB
100
AcDbEntity
  8
DEFPOINTS
  6
ByBlock
 62
     1
100
AcDbPoint
 10
2770.371822195014
 20
-10689.11428591472
 30
0.0
  0
POINT
  5
2E7
330
2DB
100
AcDbEntity
  8
DEFPOINTS
  6
ByBlock
 62
     1
100
AcDbPoint
 10
2773.871822194959
 20
-10689.11428591472
 30
0.0
  0
POINT
  5
2E8
330
2DB
100
AcDbEntity
  8
DEFPOINTS
  6
ByBlock
 62
     1
100
AcDbPoint
 10
2773.871822194959
 20
-10680.11428591472
 30
0.0
  0
ENDBLK
  5
2DD
330
2DB
100
AcDbEntity
  8
0
100
AcDbBlockEnd
  0
BLOCK
  5
2EC
330
2EB
100
AcDbEntity
  8
0
100
AcDbBlockBegin
  2
_D10
 70
     0
 10
0.0
 20
0.0
 30
0.0
  3
_D10
  1

  0
LINE
  5
2EE
330
2EB
100
AcDbEntity
  8
1
  6
ByBlock
 62
     1
100
AcDbLine
 10
2804.871822190951
 20
-10265.11428635277
 30
0.0
 11
2804.871822190951
 21
-10309.11428635277
 31
0.0
  0
INSERT
  5
2EF
330
2EB
100
AcDbEntity
  8
1
  6
ByBlock
 62
     1
100
AcDbBlockReference
  2
_OPEN30
 10
2804.871822190951
 20
-10265.11428635277
 30
0.0
 41
8.863269777109963
 42
8.863269777109963
 43
8.863269777109963
 50
90.0
  0
INSERT
  5
2F0
330
2EB
100
AcDbEntity
  8
1
  6
ByBlock
 62
     1
100
AcDbBlockReference
  2
_OPEN30
 10
2804.871822190951
 20
-10309.11428635277
 30
0.0
 41
8.863269777109963
 42
8.863269777109963
 43
8.863269777109963
 50
270.0
  0
LINE
  5
2F1
330
2EB
100
AcDbEntity
  8
1
  6
ByBlock
 62
     1
100
AcDbLine
 10
2770.871822194963
 20
-10265.11428635277
 30
0.0
 11
2807.871822190951
 21
-10265.11428635277
 31
0.0
  0
LINE
  5
2F2
330
2EB
100
AcDbEntity
  8
1
  6
ByBlock
 62
     1
100
AcDbLine
 10
2777.871822194962
 20
-10309.11428635277
 30
0.0
 11
2807.871822190951
 21
-10309.11428635277
 31
0.0
  0
MTEXT
  5
2F3
330
2EB
100
AcDbEntity
  8
1
  6
Continuous
 62
     7
100
AcDbMText
 10
2801.871822190951
 20
-10297.61428635277
 30
0.0
 40
10.5
 41
0.0
 71
     7
 72
     5
  1
４４
  7
MTSTANDARD2
 11
0.0
 21
1.0
 31
0.0
 73
     1
 44
0.8035714285714286
  0
POINT
  5
2F4
330
2EB
100
AcDbEntity
  8
DEFPOINTS
  6
ByBlock
 62
     1
100
AcDbPoint
 10
2767.871822194963
 20
-10265.11428635277
 30
0.0
  0
POINT
  5
2F5
330
2EB
100
AcDbEntity
  8
DEFPOINTS
  6
ByBlock
 62
     1
100
AcDbPoint
 10
2774.871822194962
 20
-10309.11428635277
 30
0.0
  0
POINT
  5
2F6
330
2EB
100
AcDbEntity
  8
DEFPOINTS
  6
ByBlock
 62
     1
100
AcDbPoint
 10
2804.871822190951
 20
-10309.11428635277
 30
0.0
  0
ENDBLK
  5
2ED
330
2EB
100
AcDbEntity
  8
0
100
AcDbBlockEnd
  0
BLOCK
  5
32E
330
32D
100
AcDbEntity
  8
0
100
AcDbBlockBegin
  2
BLK0
 70
     0
 10
2898.849953666381
 20
-11141.62160364097
 30
0.0
  3
BLK0
  1

  0
CIRCLE
  5
330
330
32D
100
AcDbEntity
  8
1
  6
Continuous
 62
     7
100
AcDbCircle
 10
2898.849953666381
 20
-11141.62160364097
 30
0.0
 40
24.0
  0
LINE
  5
331
330
32D
100
AcDbEntity
  8
1
  6
Continuous
 62
     7
100
AcDbLine
 10
2875.612053589137
 20
-11135.62160364097
 30
0.0
 11
2922.087853743627
 21
-11135.62160364097
 31
0.0
  0
LINE
  5
332
330
32D
100
AcDbEntity
  8
1
  6
Continuous
 62
     7
100
AcDbLine
 10
2875.612053589137
 20
-11147.62160364097
 30
0.0
 11
2922.087853743627
 21
-11147.62160364097
 31
0.0
  0
MTEXT
  5
333
330
32D
100
AcDbEntity
  8
1
  6
Continuous
 62
     7
100
AcDbMText
 10
2892.849953666381
 20
-11132.62160364097
 30
0.0
 40
12.0
 41
0.0
 71
     7
 72
     5
  1
{\fＭＳ 明朝|b0|i0|c128|p17;\W1.0;橋}
  7
MTSTANDARD4
 73
     1
 44
0.78125
  0
MTEXT
  5
334
330
32D
100
AcDbEntity
  8
1
  6
Continuous
 62
     7
100
AcDbMText
 10
2892.849953666381
 20
-11162.62160364097
 30
0.0
 40
12.0
 41
0.0
 71
     7
 72
     5
  1
{\fＭＳ 明朝|b0|i0|c128|p17;\W1.0;本}
  7
MTSTANDARD4
 73
     1
 44
0.78125
  0
MTEXT
  5
336
330
32D
100
AcDbEntity
  8
1
  6
Continuous
 62
     7
100
AcDbMText
 10
2880.099953666381
 20
-11145.37160364097
 30
0.0
 40
7.5
 41
0.0
 71
     7
 72
     5
  1
{\fＭＳ 明朝|b0|i0|c128|p17;\W1.0;2007.02.14}
  7
MTSTANDARD5
 73
     1
 44
0.875
  0
ENDBLK
  5
32F
330
32D
100
AcDbEntity
  8
0
100
AcDbBlockEnd
  0
BLOCK
  5
339
330
338
100
AcDbEntity
  8
0
100
AcDbBlockBegin
  2
BLK1
 70
     0
 10
2965.455336473077
 20
-11141.62160364097
 30
0.0
  3
BLK1
  1

  0
CIRCLE
  5
33B
330
338
100
AcDbEntity
  8
1
  6
Continuous
 62
     7
100
AcDbCircle
 10
2965.455336473077
 20
-11141.62160364097
 30
0.0
 40
24.0
  0
LINE
  5
33C
330
338
100
AcDbEntity
  8
1
  6
Continuous
 62
     7
100
AcDbLine
 10
2942.217436395832
 20
-11135.62160364097
 30
0.0
 11
2988.693236550321
 21
-11135.62160364097
 31
0.0
  0
LINE
  5
33D
330
338
100
AcDbEntity
  8
1
  6
Continuous
 62
     7
100
AcDbLine
 10
2942.217436395832
 20
-11147.62160364097
 30
0.0
 11
2988.693236550321
 21
-11147.62160364097
 31
0.0
  0
MTEXT
  5
33E
330
338
100
AcDbEntity
  8
1
  6
Continuous
 62
     7
100
AcDbMText
 10
2959.455336473075
 20
-11132.62160364097
 30
0.0
 40
12.0
 41
0.0
 71
     7
 72
     5
  1
{\fＭＳ 明朝|b0|i0|c128|p17;\W1.0;野}
  7
MTSTANDARD4
 73
     1
 44
0.78125
  0
MTEXT
  5
33F
330
338
100
AcDbEntity
  8
1
  6
Continuous
 62
     7
100
AcDbMText
 10
2959.455336473075
 20
-11162.62160364097
 30
0.0
 40
12.0
 41
0.0
 71
     7
 72
     5
  1
{\fＭＳ 明朝|b0|i0|c128|p17;\W1.0;島}
  7
MTSTANDARD4
 73
     1
 44
0.78125
  0
ENDBLK
  5
33A
330
338
100
AcDbEntity
  8
0
100
AcDbBlockEnd
  0
BLOCK
  5
342
330
341
100
AcDbEntity
  8
0
100
AcDbBlockBegin
  2
BLK2
 70
     0
 10
3030.754731381601
 20
-11141.62160364097
 30
0.0
  3
BLK2
  1

  0
CIRCLE
  5
344
330
341
100
AcDbEntity
  8
1
  6
Continuous
 62
     7
100
AcDbCircle
 10
3030.754731381601
 20
-11141.62160364097
 30
0.0
 40
24.0
  0
LINE
  5
345
330
341
100
AcDbEntity
  8
1
  6
Continuous
 62
     7
100
AcDbLine
 10
3007.516831304355
 20
-11135.62160364097
 30
0.0
 11
3053.992631458845
 21
-11135.62160364097
 31
0.0
  0
LINE
  5
346
330
341
100
AcDbEntity
  8
1
  6
Continuous
 62
     7
100
AcDbLine
 10
3007.516831304355
 20
-11147.62160364097
 30
0.0
 11
3053.992631458845
 21
-11147.62160364097
 31
0.0
  0
MTEXT
  5
347
330
341
100
AcDbEntity
  8
1
  6
Continuous
 62
     7
100
AcDbMText
 10
3024.754731381601
 20
-11132.62160364097
 30
0.0
 40
12.0
 41
0.0
 71
     7
 72
     5
  1
{\fＭＳ 明朝|b0|i0|c128|p17;\W1.0;梅}
  7
MTSTANDARD4
 73
     1
 44
0.78125
  0
MTEXT
  5
348
330
341
100
AcDbEntity
  8
1
  6
Continuous
 62
     7
100
AcDbMText
 10
3024.754731381601
 20
-11162.62160364097
 30
0.0
 40
12.0
 41
0.0
 71
     7
 72
     5
  1
{\fＭＳ 明朝|b0|i0|c128|p17;\W1.0;村}
  7
MTSTANDARD4
 73
     1
 44
0.78125
  0
ENDBLK
  5
343
330
341
100
AcDbEntity
  8
0
100
AcDbBlockEnd
  0
BLOCK
  5
36F
330
36E
100
AcDbEntity
  8
0
100
AcDbBlockBegin
  2
_D11
 70
     0
 10
0.0
 20
0.0
 30
0.0
  3
_D11
  1

  0
LINE
  5
371
330
36E
100
AcDbEntity
  8
1
  6
ByBlock
 62
     3
100
AcDbLine
 10
2693.371822194963
 20
-10166.02272464129
 30
0.0
 11
2693.371822194963
 21
-10089.5227246413
 31
0.0
  0
INSERT
  5
372
330
36E
100
AcDbEntity
  8
1
  6
ByBlock
 62
     3
100
AcDbBlockReference
  2
_OPEN30
 10
2693.371822194963
 20
-10166.02272464129
 30
0.0
 41
5.908846518073915
 42
5.908846518073915
 43
5.908846518073915
 50
270.0
  0
INSERT
  5
373
330
36E
100
AcDbEntity
  8
1
  6
ByBlock
 62
     3
100
AcDbBlockReference
  2
_OPEN30
 10
2693.371822194963
 20
-10089.5227246413
 30
0.0
 41
5.908846518073915
 42
5.908846518073915
 43
5.908846518073915
 50
90.0
  0
LINE
  5
374
330
36E
100
AcDbEntity
  8
1
  6
ByBlock
 62
     3
100
AcDbLine
 10
2758.371822194963
 20
-10166.02272464129
 30
0.0
 11
2690.371822194963
 21
-10166.02272464129
 31
0.0
  0
LINE
  5
375
330
36E
100
AcDbEntity
  8
1
  6
ByBlock
 62
     3
100
AcDbLine
 10
2798.871822194963
 20
-10089.5227246413
 30
0.0
 11
2690.371822194963
 21
-10089.5227246413
 31
0.0
  0
MTEXT
  5
376
330
36E
100
AcDbEntity
  8
1
  6
Continuous
 62
     2
100
AcDbMText
 10
2690.371822194963
 20
-10132.27272464129
 30
0.0
 40
12.0
 41
0.0
 71
     7
 72
     5
  1
Ｈ
  7
MTSTANDARD3
 11
0.0
 21
1.0
 31
0.0
 73
     1
 44
0.9375
  0
POINT
  5
377
330
36E
100
AcDbEntity
  8
DEFPOINTS
  6
ByBlock
 62
     3
100
AcDbPoint
 10
2761.371822194963
 20
-10166.02272464129
 30
0.0
  0
POINT
  5
378
330
36E
100
AcDbEntity
  8
DEFPOINTS
  6
ByBlock
 62
     3
100
AcDbPoint
 10
2801.871822194963
 20
-10089.5227246413
 30
0.0
  0
POINT
  5
379
330
36E
100
AcDbEntity
  8
DEFPOINTS
  6
ByBlock
 62
     3
100
AcDbPoint
 10
2693.371822194963
 20
-10089.5227246413
 30
0.0
  0
ENDBLK
  5
370
330
36E
100
AcDbEntity
  8
0
100
AcDbBlockEnd
  0
BLOCK
  5
382
330
381
100
AcDbEntity
  8
0
100
AcDbBlockBegin
  2
_D12
 70
     0
 10
0.0
 20
0.0
 30
0.0
  3
_D12
  1

  0
LINE
  5
384
330
381
100
AcDbEntity
  8
1
  6
ByBlock
 62
     3
100
AcDbLine
 10
2728.371822194962
 20
-10068.5227246413
 30
0.0
 11
2924.371822194963
 21
-10068.5227246413
 31
0.0
  0
INSERT
  5
385
330
381
100
AcDbEntity
  8
1
  6
ByBlock
 62
     3
100
AcDbBlockReference
  2
_OPEN30
 10
2728.371822194962
 20
-10068.5227246413
 30
0.0
 41
5.90884651807346
 42
5.90884651807346
 43
5.90884651807346
 50
180.0
  0
INSERT
  5
386
330
381
100
AcDbEntity
  8
1
  6
ByBlock
 62
     3
100
AcDbBlockReference
  2
_OPEN30
 10
2924.371822194963
 20
-10068.5227246413
 30
0.0
 41
5.90884651807346
 42
5.90884651807346
 43
5.90884651807346
  0
LINE
  5
387
330
381
100
AcDbEntity
  8
1
  6
ByBlock
 62
     3
100
AcDbLine
 10
2728.371822194962
 20
-10141.02272464131
 30
0.0
 11
2728.371822194962
 21
-10065.5227246413
 31
0.0
  0
LINE
  5
388
330
381
100
AcDbEntity
  8
1
  6
ByBlock
 62
     3
100
AcDbLine
 10
2924.371822194963
 20
-10141.02272464131
 30
0.0
 11
2924.371822194963
 21
-10065.5227246413
 31
0.0
  0
MTEXT
  5
389
330
381
100
AcDbEntity
  8
1
  6
Continuous
 62
     2
100
AcDbMText
 10
2821.871822194963
 20
-10065.5227246413
 30
0.0
 40
12.0
 41
0.0
 71
     7
 72
     5
  1
Ｄ
  7
MTSTANDARD3
 73
     1
 44
0.9375
  0
POINT
  5
38A
330
381
100
AcDbEntity
  8
DEFPOINTS
  6
ByBlock
 62
     3
100
AcDbPoint
 10
2728.371822194962
 20
-10144.02272464131
 30
0.0
  0
POINT
  5
38B
330
381
100
AcDbEntity
  8
DEFPOINTS
  6
ByBlock
 62
     3
100
AcDbPoint
 10
2924.371822194963
 20
-10144.02272464131
 30
0.0
  0
POINT
  5
38C
330
381
100
AcDbEntity
  8
DEFPOINTS
  6
ByBlock
 62
     3
100
AcDbPoint
 10
2924.371822194963
 20
-10068.5227246413
 30
0.0
  0
ENDBLK
  5
383
330
381
100
AcDbEntity
  8
0
100
AcDbBlockEnd
  0
BLOCK
  5
390
330
38F
100
AcDbEntity
  8
0
100
AcDbBlockBegin
  2
BALN1
 70
     0
 10
0.0
 20
0.0
 30
0.0
  3
BALN1
  1

  0
CIRCLE
  5
392
330
38F
100
AcDbEntity
  8
1
  6
ByBlock
 62
     3
100
AcDbCircle
 10
22.95353355812949
 20
58.91406946586358
 30
0.0
 40
15.0
  0
MTEXT
  5
394
330
38F
100
AcDbEntity
  8
1
  6
Continuous
 62
     2
100
AcDbMText
 10
13.95353355812949
 20
49.91406946586358
 30
0.0
 40
18.0
 41
0.0
 71
     7
 72
     5
  1
{\fＭＳ 明朝|b0|i0|c128|p17;\W1.0;２}
  7
MTSTANDARD6
 73
     1
 44
0.7291666666666667
  0
LEADER
  5
396
330
38F
100
AcDbEntity
  8
1
  6
ByBlock
 62
     3
100
AcDbLeader
  3
DIMSTYEX_6
 76
     2
 10
0.0
 20
0.0
 30
0.0
 10
17.50808126730602
 20
44.93740858608383
 30
0.0
1001
ACAD
1000
DSTYLE
1002
{
1070
   176
1070
     0
1002
}
  0
ENDBLK
  5
391
330
38F
100
AcDbEntity
  8
0
100
AcDbBlockEnd
  0
BLOCK
  5
3BA
330
3B9
100
AcDbEntity
  8
0
100
AcDbBlockBegin
  2
MAKR0
 70
     0
 10
2443.118224606258
 20
-11124.85091698909
 30
0.0
  3
MAKR0
  1

  0
CIRCLE
  5
3BC
330
3B9
100
AcDbEntity
  8
14
  6
Continuous
 62
     3
100
AcDbCircle
 10
2443.118224606258
 20
-11124.85091698909
 30
0.0
 40
9.0
  0
MTEXT
  5
3BD
330
3B9
100
AcDbEntity
  8
14
  6
Continuous
 62
     2
100
AcDbMText
 10
2438.618224606258
 20
-11130.85091698909
 30
0.0
 40
12.0
 41
0.0
 71
     7
 72
     5
  1
１
  7
MTSTANDARD3
 73
     1
 44
0.8125
  0
ENDBLK
  5
3BB
330
3B9
100
AcDbEntity
  8
0
100
AcDbBlockEnd
  0
BLOCK
  5
3C0
330
3BF
100
AcDbEntity
  8
0
100
AcDbBlockBegin
  2
MAKR1
 70
     0
 10
2443.006631336899
 20
-11145.85091698909
 30
0.0
  3
MAKR1
  1

  0
CIRCLE
  5
3C2
330
3BF
100
AcDbEntity
  8
14
  6
Continuous
 62
     3
100
AcDbCircle
 10
2443.006631336899
 20
-11145.85091698909
 30
0.0
 40
9.0
  0
MTEXT
  5
3C3
330
3BF
100
AcDbEntity
  8
14
  6
Continuous
 62
     2
100
AcDbMText
 10
2438.506631336899
 20
-11151.85091698909
 30
0.0
 40
12.0
 41
0.0
 71
     7
 72
     5
  1
２
  7
MTSTANDARD3
 73
     1
 44
0.8125
  0
ENDBLK
  5
3C1
330
3BF
100
AcDbEntity
  8
0
100
AcDbBlockEnd
  0
ENDSEC
  0
SECTION
  2
ENTITIES
  0
LINE
  5
B1
330
1F
100
AcDbEntity
  8
1
  6
Continuous
 62
     7
100
AcDbLine
 10
2420.309844678782
 20
-9996.852759237416
 30
0.0
 11
3251.309844678782
 21
-9996.852759237416
 31
0.0
  0
LINE
  5
B2
330
1F
100
AcDbEntity
  8
1
  6
Continuous
 62
     7
100
AcDbLine
 10
3251.309844678782
 20
-9996.852759237416
 30
0.0
 11
3251.309844678782
 21
-11196.85275923742
 31
0.0
  0
LINE
  5
B3
330
1F
100
AcDbEntity
  8
1
  6
Continuous
 62
     7
100
AcDbLine
 10
2420.309844678782
 20
-11196.85275923742
 30
0.0
 11
2420.309844678782
 21
-9996.852759237416
 31
0.0
  0
LINE
  5
B4
330
1F
100
AcDbEntity
  8
1
  6
Continuous
 62
     7
100
AcDbLine
 10
2420.309844678782
 20
-11196.85275923742
 30
0.0
 11
3251.309844678782
 21
-11196.85275923742
 31
0.0
  0
LINE
  5
B5
330
1F
100
AcDbEntity
  8
1
  6
Continuous
 62
     7
100
AcDbLine
 10
2882.371822194965
 20
-10519.11428592029
 30
0.0
 11
2884.371822194963
 21
-10524.11428592029
 31
0.0
  0
LINE
  5
B6
330
1F
100
AcDbEntity
  8
1
  6
Continuous
 62
     7
100
AcDbLine
 10
2884.371822194963
 20
-10524.11428592029
 30
0.0
 11
2882.371822194965
 21
-10529.11428592029
 31
0.0
  0
LINE
  5
B7
330
1F
100
AcDbEntity
  8
1
  6
Continuous
 62
     7
100
AcDbLine
 10
2882.371822194965
 20
-10509.11428592029
 30
0.0
 11
2884.371822194963
 21
-10514.11428592029
 31
0.0
  0
LINE
  5
B8
330
1F
100
AcDbEntity
  8
1
  6
Continuous
 62
     7
100
AcDbLine
 10
2884.371822194963
 20
-10514.11428592029
 30
0.0
 11
2882.371822194965
 21
-10519.11428592029
 31
0.0
  0
LINE
  5
B9
330
1F
100
AcDbEntity
  8
1
  6
Continuous
 62
     7
100
AcDbLine
 10
2882.371822194965
 20
-10499.11428592029
 30
0.0
 11
2884.371822194963
 21
-10504.11428592029
 31
0.0
  0
LINE
  5
BA
330
1F
100
AcDbEntity
  8
1
  6
Continuous
 62
     7
100
AcDbLine
 10
2884.371822194963
 20
-10504.11428592029
 30
0.0
 11
2882.371822194965
 21
-10509.11428592029
 31
0.0
  0
LINE
  5
BB
330
1F
100
AcDbEntity
  8
1
  6
Continuous
 62
     7
100
AcDbLine
 10
2882.371822194965
 20
-10489.11428592029
 30
0.0
 11
2884.371822194963
 21
-10494.11428592029
 31
0.0
  0
LINE
  5
BC
330
1F
100
AcDbEntity
  8
1
  6
Continuous
 62
     7
100
AcDbLine
 10
2884.371822194963
 20
-10494.11428592029
 30
0.0
 11
2882.371822194965
 21
-10499.11428592029
 31
0.0
  0
LINE
  5
BD
330
1F
100
AcDbEntity
  8
1
  6
Continuous
 62
     7
100
AcDbLine
 10
2884.371822194963
 20
-10484.11428592029
 30
0.0
 11
2882.371822194965
 21
-10489.11428592029
 31
0.0
  0
LINE
  5
BE
330
1F
100
AcDbEntity
  8
1
  6
Continuous
 62
     7
100
AcDbLine
 10
2882.371822194965
 20
-10589.11428592029
 30
0.0
 11
2884.371822194963
 21
-10594.11428592029
 31
0.0
  0
LINE
  5
BF
330
1F
100
AcDbEntity
  8
1
  6
Continuous
 62
     7
100
AcDbLine
 10
2884.371822194963
 20
-10594.11428592029
 30
0.0
 11
2882.371822194965
 21
-10599.11428592029
 31
0.0
  0
LINE
  5
C0
330
1F
100
AcDbEntity
  8
1
  6
Continuous
 62
     7
100
AcDbLine
 10
2882.371822194965
 20
-10579.11428592029
 30
0.0
 11
2884.371822194963
 21
-10584.11428592029
 31
0.0
  0
LINE
  5
C1
330
1F
100
AcDbEntity
  8
1
  6
Continuous
 62
     7
100
AcDbLine
 10
2884.371822194963
 20
-10584.11428592029
 30
0.0
 11
2882.371822194965
 21
-10589.11428592029
 31
0.0
  0
LINE
  5
C2
330
1F
100
AcDbEntity
  8
1
  6
Continuous
 62
     7
100
AcDbLine
 10
2882.371822194965
 20
-10569.11428592029
 30
0.0
 11
2884.371822194963
 21
-10574.11428592029
 31
0.0
  0
LINE
  5
C3
330
1F
100
AcDbEntity
  8
1
  6
Continuous
 62
     7
100
AcDbLine
 10
2884.371822194963
 20
-10574.11428592029
 30
0.0
 11
2882.371822194965
 21
-10579.11428592029
 31
0.0
  0
LINE
  5
C4
330
1F
100
AcDbEntity
  8
1
  6
Continuous
 62
     7
100
AcDbLine
 10
2882.371822194965
 20
-10559.11428592029
 30
0.0
 11
2884.371822194963
 21
-10564.11428592029
 31
0.0
  0
LINE
  5
C5
330
1F
100
AcDbEntity
  8
1
  6
Continuous
 62
     7
100
AcDbLine
 10
2884.371822194963
 20
-10564.11428592029
 30
0.0
 11
2882.371822194965
 21
-10569.11428592029
 31
0.0
  0
LINE
  5
C6
330
1F
100
AcDbEntity
  8
1
  6
Continuous
 62
     7
100
AcDbLine
 10
2884.371822194963
 20
-10554.11428592029
 30
0.0
 11
2882.371822194965
 21
-10559.11428592029
 31
0.0
  0
LINE
  5
C7
330
1F
100
AcDbEntity
  8
1
  6
Continuous
 62
     7
100
AcDbLine
 10
2882.371822194965
 20
-10549.11428592029
 30
0.0
 11
2884.371822194963
 21
-10554.11428592029
 31
0.0
  0
LINE
  5
C8
330
1F
100
AcDbEntity
  8
1
  6
Continuous
 62
     7
100
AcDbLine
 10
2882.371822194965
 20
-10539.11428592029
 30
0.0
 11
2884.371822194963
 21
-10544.11428592029
 31
0.0
  0
LINE
  5
C9
330
1F
100
AcDbEntity
  8
1
  6
Continuous
 62
     7
100
AcDbLine
 10
2884.371822194963
 20
-10544.11428592029
 30
0.0
 11
2882.371822194965
 21
-10549.11428592029
 31
0.0
  0
LINE
  5
CA
330
1F
100
AcDbEntity
  8
1
  6
Continuous
 62
     7
100
AcDbLine
 10
2884.371822194963
 20
-10534.11428592029
 30
0.0
 11
2882.371822194965
 21
-10539.11428592029
 31
0.0
  0
LINE
  5
CB
330
1F
100
AcDbEntity
  8
1
  6
Continuous
 62
     7
100
AcDbLine
 10
2884.371822194963
 20
-10534.11428592029
 30
0.0
 11
2882.371822194965
 21
-10529.11428592029
 31
0.0
  0
LINE
  5
CC
330
1F
100
AcDbEntity
  8
1
  6
Continuous
 62
     7
100
AcDbLine
 10
2826.371822194965
 20
-10819.11428592029
 30
0.0
 11
2951.371822194963
 21
-10819.11428591472
 31
0.0
  0
LINE
  5
CD
330
1F
100
AcDbEntity
  8
1
  6
CENTER2
 62
     7
100
AcDbLine
 10
2826.371822194963
 20
-10077.35680598863
 30
0.0
 11
2826.371822194963
 21
-10863.86845632343
 31
0.0
  0
LINE
  5
CE
330
1F
100
AcDbEntity
  8
1
  6
HIDDEN2
 62
     7
100
AcDbLine
 10
2919.371822194958
 20
-10816.11428631531
 30
0.0
 11
2916.371822194961
 21
-10813.11428631531
 31
0.0
  0
LINE
  5
CF
330
1F
100
AcDbEntity
  8
1
  6
HIDDEN2
 62
     7
100
AcDbLine
 10
2919.371822194958
 20
-10816.11428631531
 30
0.0
 11
2933.371822194958
 21
-10816.11428631531
 31
0.0
  0
LINE
  5
D0
330
1F
100
AcDbEntity
  8
1
  6
HIDDEN2
 62
     7
100
AcDbLine
 10
2916.371822194961
 20
-10812.11428631531
 30
0.0
 11
2916.371822194958
 21
-10813.11428631531
 31
0.0
  0
POINT
  5
D1
330
1F
100
AcDbEntity
  8
1
  6
Continuous
 62
     7
100
AcDbPoint
 10
2936.371822194958
 20
-10813.11428631531
 30
0.0
  0
LINE
  5
D2
330
1F
100
AcDbEntity
  8
1
  6
HIDDEN2
 62
     7
100
AcDbLine
 10
2919.371822194958
 20
-10816.11428631531
 30
0.0
 11
2919.371822194958
 21
-10819.11428632418
 31
0.0
  0
LINE
  5
D3
330
1F
100
AcDbEntity
  8
1
  6
HIDDEN2
 62
     7
100
AcDbLine
 10
2933.371822194958
 20
-10816.11428631531
 30
0.0
 11
2933.371822194958
 21
-10819.11428632418
 31
0.0
  0
LINE
  5
D4
330
1F
100
AcDbEntity
  8
1
  6
HIDDEN2
 62
     7
100
AcDbLine
 10
2933.371822194958
 20
-10816.11428631531
 30
0.0
 11
2936.371822194958
 21
-10813.11428631531
 31
0.0
  0
LINE
  5
D5
330
1F
100
AcDbEntity
  8
1
  6
CENTER2
 62
     7
100
AcDbLine
 10
2926.371822194963
 20
-10822.74992792564
 30
0.0
 11
2926.371822194963
 21
-10809.07583935332
 31
0.0
  0
POINT
  5
D6
330
1F
100
AcDbEntity
  8
1
  6
Continuous
 62
     7
100
AcDbPoint
 10
2951.371822194963
 20
-10819.11428631531
 30
0.0
  0
LINE
  5
D7
330
1F
100
AcDbEntity
  8
1
  6
Continuous
 62
     7
100
AcDbLine
 10
2951.371822194963
 20
-10816.11428631531
 30
0.0
 11
2951.371822194963
 21
-10819.11428634721
 31
0.0
  0
POINT
  5
D8
330
1F
100
AcDbEntity
  8
1
  6
Continuous
 62
     7
100
AcDbPoint
 10
2882.371822194965
 20
-10699.11428592029
 30
0.0
  0
LINE
  5
D9
330
1F
100
AcDbEntity
  8
1
  6
Continuous
 62
     7
100
AcDbLine
 10
2951.371822194963
 20
-10816.11428631531
 30
0.0
 11
2931.371822194956
 21
-10812.11428631531
 31
0.0
  0
LINE
  5
DA
330
1F
100
AcDbEntity
  8
1
  6
Continuous
 62
     7
100
AcDbLine
 10
2931.371822194956
 20
-10812.11428631531
 30
0.0
 11
2826.371822194963
 21
-10812.1142863153
 31
0.0
  0
LINE
  5
DB
330
1F
100
AcDbEntity
  8
1
  6
Continuous
 62
     7
100
AcDbLine
 10
2882.371822194965
 20
-10699.11428592029
 30
0.0
 11
2888.371822194965
 21
-10739.61428592029
 31
0.0
  0
LINE
  5
DC
330
1F
100
AcDbEntity
  8
1
  6
Continuous
 62
     7
100
AcDbLine
 10
2888.371822194965
 20
-10739.61428592029
 30
0.0
 11
2898.598545528884
 21
-10798.84405859798
 31
0.0
  0
LINE
  5
DD
330
1F
100
AcDbEntity
  8
1
  6
Continuous
 62
     7
100
AcDbLine
 10
2910.61550452346
 20
-10811.03497662475
 30
0.0
 11
2916.371822195452
 21
-10812.11428631542
 31
0.0
  0
ARC
  5
DE
330
1F
100
AcDbEntity
  8
1
  6
Continuous
 62
     7
100
AcDbCircle
 10
2913.379832863849
 20
-10796.2918938798
 30
0.0
 40
15.0
100
AcDbArc
 50
189.7962099117349
 51
259.3803435010288
  0
LINE
  5
DF
330
1F
100
AcDbEntity
  8
1
  6
Continuous
 62
     7
100
AcDbLine
 10
2882.371822194967
 20
-10459.11428635277
 30
0.0
 11
2884.371822194967
 21
-10464.11428635277
 31
0.0
  0
LINE
  5
E0
330
1F
100
AcDbEntity
  8
1
  6
Continuous
 62
     7
100
AcDbLine
 10
2883.171822194967
 20
-10451.11428635277
 30
0.0
 11
2884.371822194967
 21
-10454.11428635277
 31
0.0
  0
LINE
  5
E1
330
1F
100
AcDbEntity
  8
1
  6
Continuous
 62
     7
100
AcDbLine
 10
2884.371822194967
 20
-10454.11428635277
 30
0.0
 11
2882.371822194967
 21
-10459.11428635277
 31
0.0
  0
LINE
  5
E2
330
1F
100
AcDbEntity
  8
1
  6
Continuous
 62
     7
100
AcDbLine
 10
2882.371822194965
 20
-10479.11428592029
 30
0.0
 11
2884.371822194963
 21
-10484.11428592029
 31
0.0
  0
LINE
  5
E3
330
1F
100
AcDbEntity
  8
1
  6
Continuous
 62
     7
100
AcDbLine
 10
2882.371822194965
 20
-10469.11428592029
 30
0.0
 11
2884.371822194963
 21
-10474.11428592029
 31
0.0
  0
LINE
  5
E4
330
1F
100
AcDbEntity
  8
1
  6
Continuous
 62
     7
100
AcDbLine
 10
2884.371822194963
 20
-10474.11428592029
 30
0.0
 11
2882.371822194965
 21
-10479.11428592029
 31
0.0
  0
LINE
  5
E5
330
1F
100
AcDbEntity
  8
1
  6
Continuous
 62
     7
100
AcDbLine
 10
2884.371822194963
 20
-10464.11428592029
 30
0.0
 11
2882.371822194965
 21
-10469.11428592029
 31
0.0
  0
LINE
  5
E6
330
1F
100
AcDbEntity
  8
1
  6
Continuous
 62
     7
100
AcDbLine
 10
2770.371822194959
 20
-10519.11428592029
 30
0.0
 11
2768.371822194961
 21
-10524.11428592029
 31
0.0
  0
LINE
  5
E7
330
1F
100
AcDbEntity
  8
1
  6
Continuous
 62
     7
100
AcDbLine
 10
2768.371822194961
 20
-10524.11428592029
 30
0.0
 11
2770.371822194959
 21
-10529.11428592029
 31
0.0
  0
LINE
  5
E8
330
1F
100
AcDbEntity
  8
1
  6
Continuous
 62
     7
100
AcDbLine
 10
2770.371822194959
 20
-10509.11428592029
 30
0.0
 11
2768.371822194961
 21
-10514.11428592029
 31
0.0
  0
LINE
  5
E9
330
1F
100
AcDbEntity
  8
1
  6
Continuous
 62
     7
100
AcDbLine
 10
2768.371822194961
 20
-10514.11428592029
 30
0.0
 11
2770.371822194959
 21
-10519.11428592029
 31
0.0
  0
LINE
  5
EA
330
1F
100
AcDbEntity
  8
1
  6
Continuous
 62
     7
100
AcDbLine
 10
2770.371822194959
 20
-10499.11428592029
 30
0.0
 11
2768.371822194961
 21
-10504.11428592029
 31
0.0
  0
LINE
  5
EB
330
1F
100
AcDbEntity
  8
1
  6
Continuous
 62
     7
100
AcDbLine
 10
2768.371822194961
 20
-10504.11428592029
 30
0.0
 11
2770.371822194959
 21
-10509.11428592029
 31
0.0
  0
LINE
  5
EC
330
1F
100
AcDbEntity
  8
1
  6
Continuous
 62
     7
100
AcDbLine
 10
2770.371822194959
 20
-10489.11428592029
 30
0.0
 11
2768.371822194961
 21
-10494.11428592029
 31
0.0
  0
LINE
  5
ED
330
1F
100
AcDbEntity
  8
1
  6
Continuous
 62
     7
100
AcDbLine
 10
2768.371822194961
 20
-10494.11428592029
 30
0.0
 11
2770.371822194959
 21
-10499.11428592029
 31
0.0
  0
LINE
  5
EE
330
1F
100
AcDbEntity
  8
1
  6
Continuous
 62
     7
100
AcDbLine
 10
2768.371822194961
 20
-10484.11428592029
 30
0.0
 11
2770.371822194959
 21
-10489.11428592029
 31
0.0
  0
LINE
  5
EF
330
1F
100
AcDbEntity
  8
1
  6
Continuous
 62
     7
100
AcDbLine
 10
2770.371822194959
 20
-10589.11428592029
 30
0.0
 11
2768.371822194961
 21
-10594.11428592029
 31
0.0
  0
LINE
  5
F0
330
1F
100
AcDbEntity
  8
1
  6
Continuous
 62
     7
100
AcDbLine
 10
2768.371822194961
 20
-10594.11428592029
 30
0.0
 11
2770.371822194959
 21
-10599.11428592029
 31
0.0
  0
LINE
  5
F1
330
1F
100
AcDbEntity
  8
1
  6
Continuous
 62
     7
100
AcDbLine
 10
2770.371822194959
 20
-10579.11428592029
 30
0.0
 11
2768.371822194961
 21
-10584.11428592029
 31
0.0
  0
LINE
  5
F2
330
1F
100
AcDbEntity
  8
1
  6
Continuous
 62
     7
100
AcDbLine
 10
2768.371822194961
 20
-10584.11428592029
 30
0.0
 11
2770.371822194959
 21
-10589.11428592029
 31
0.0
  0
LINE
  5
F3
330
1F
100
AcDbEntity
  8
1
  6
Continuous
 62
     7
100
AcDbLine
 10
2770.371822194959
 20
-10569.11428592029
 30
0.0
 11
2768.371822194961
 21
-10574.11428592029
 31
0.0
  0
LINE
  5
F4
330
1F
100
AcDbEntity
  8
1
  6
Continuous
 62
     7
100
AcDbLine
 10
2768.371822194961
 20
-10574.11428592029
 30
0.0
 11
2770.371822194959
 21
-10579.11428592029
 31
0.0
  0
LINE
  5
F5
330
1F
100
AcDbEntity
  8
1
  6
Continuous
 62
     7
100
AcDbLine
 10
2770.371822194959
 20
-10559.11428592029
 30
0.0
 11
2768.371822194961
 21
-10564.11428592029
 31
0.0
  0
LINE
  5
F6
330
1F
100
AcDbEntity
  8
1
  6
Continuous
 62
     7
100
AcDbLine
 10
2768.371822194961
 20
-10564.11428592029
 30
0.0
 11
2770.371822194959
 21
-10569.11428592029
 31
0.0
  0
LINE
  5
F7
330
1F
100
AcDbEntity
  8
1
  6
Continuous
 62
     7
100
AcDbLine
 10
2768.371822194961
 20
-10554.11428592029
 30
0.0
 11
2770.371822194959
 21
-10559.11428592029
 31
0.0
  0
LINE
  5
F8
330
1F
100
AcDbEntity
  8
1
  6
Continuous
 62
     7
100
AcDbLine
 10
2770.371822194959
 20
-10549.11428592029
 30
0.0
 11
2768.371822194961
 21
-10554.11428592029
 31
0.0
  0
LINE
  5
F9
330
1F
100
AcDbEntity
  8
1
  6
Continuous
 62
     7
100
AcDbLine
 10
2770.371822194959
 20
-10539.11428592029
 30
0.0
 11
2768.371822194961
 21
-10544.11428592029
 31
0.0
  0
LINE
  5
FA
330
1F
100
AcDbEntity
  8
1
  6
Continuous
 62
     7
100
AcDbLine
 10
2768.371822194961
 20
-10544.11428592029
 30
0.0
 11
2770.371822194959
 21
-10549.11428592029
 31
0.0
  0
LINE
  5
FB
330
1F
100
AcDbEntity
  8
1
  6
Continuous
 62
     7
100
AcDbLine
 10
2768.371822194961
 20
-10534.11428592029
 30
0.0
 11
2770.371822194959
 21
-10539.11428592029
 31
0.0
  0
LINE
  5
FC
330
1F
100
AcDbEntity
  8
1
  6
Continuous
 62
     7
100
AcDbLine
 10
2768.371822194961
 20
-10534.11428592029
 30
0.0
 11
2770.371822194959
 21
-10529.11428592029
 31
0.0
  0
LINE
  5
FD
330
1F
100
AcDbEntity
  8
1
  6
Continuous
 62
     7
100
AcDbLine
 10
2826.371822194959
 20
-10819.11428592029
 30
0.0
 11
2701.371822194963
 21
-10819.11428591472
 31
0.0
  0
POINT
  5
FE
330
1F
100
AcDbEntity
  8
1
  6
Continuous
 62
     7
100
AcDbPoint
 10
2767.871822194961
 20
-10819.11428592029
 30
0.0
  0
POINT
  5
FF
330
1F
100
AcDbEntity
  8
1
  6
Continuous
 62
     7
100
AcDbPoint
 10
2767.871822194961
 20
-10807.11428592029
 30
0.0
  0
ARC
  5
100
330
1F
100
AcDbEntity
  8
1
  6
Continuous
 62
     7
100
AcDbCircle
 10
2761.871822194958
 20
-10805.11428592029
 30
0.0
 40
2.0
100
AcDbArc
 50
180.0
 51
270.0
  0
LINE
  5
101
330
1F
100
AcDbEntity
  8
1
  6
Continuous
 62
     7
100
AcDbLine
 10
2767.871822194961
 20
-10809.11428592029
 30
0.0
 11
2767.871822194961
 21
-10819.11428592029
 31
0.0
  0
LINE
  5
102
330
1F
100
AcDbEntity
  8
1
  6
Continuous
 62
     7
100
AcDbLine
 10
2765.871822194959
 20
-10807.11428592029
 30
0.0
 11
2761.871822194958
 21
-10807.11428592029
 31
0.0
  0
ARC
  5
103
330
1F
100
AcDbEntity
  8
1
  6
Continuous
 62
     7
100
AcDbCircle
 10
2765.871822194959
 20
-10809.11428592029
 30
0.0
 40
2.0
100
AcDbArc
 50
0.0
 51
90.0
  0
LINE
  5
104
330
1F
100
AcDbEntity
  8
1
  6
Continuous
 62
     7
100
AcDbLine
 10
2765.871822194959
 20
-10807.11428592029
 30
0.0
 11
2826.371822194959
 21
-10807.11428592029
 31
0.0
  0
ARC
  5
105
330
1F
100
AcDbEntity
  8
1
  6
Continuous
 62
     7
100
AcDbCircle
 10
2768.871822194959
 20
-10744.11428592029
 30
0.0
 40
1.0
100
AcDbArc
 50
90.0
 51
180.0
  0
ARC
  5
106
330
1F
100
AcDbEntity
  8
1
  6
Continuous
 62
     7
100
AcDbCircle
 10
2761.871822194958
 20
-10792.11428592029
 30
0.0
 40
2.0
100
AcDbArc
 50
90.0
 51
180.0
  0
LINE
  5
107
330
1F
100
AcDbEntity
  8
1
  6
Continuous
 62
     7
100
AcDbLine
 10
2759.871822194959
 20
-10805.11428592029
 30
0.0
 11
2759.871822194959
 21
-10792.11428592029
 31
0.0
  0
LINE
  5
108
330
1F
100
AcDbEntity
  8
1
  6
Continuous
 62
     7
100
AcDbLine
 10
2765.871822194959
 20
-10790.11428592029
 30
0.0
 11
2761.871822194958
 21
-10790.11428592029
 31
0.0
  0
ARC
  5
109
330
1F
100
AcDbEntity
  8
1
  6
Continuous
 62
     7
100
AcDbCircle
 10
2765.871822194959
 20
-10788.11428592029
 30
0.0
 40
2.0
100
AcDbArc
 50
270.0
 51
0.0
  0
LINE
  5
10A
330
1F
100
AcDbEntity
  8
1
  6
Continuous
 62
     7
100
AcDbLine
 10
2765.871822194959
 20
-10790.11428592029
 30
0.0
 11
2826.371822194959
 21
-10790.11428592029
 31
0.0
  0
LINE
  5
10B
330
1F
100
AcDbEntity
  8
1
  6
Continuous
 62
     7
100
AcDbLine
 10
2767.871822194961
 20
-10744.11428592029
 30
0.0
 11
2767.871822194961
 21
-10788.11428592029
 31
0.0
  0
LINE
  5
10C
330
1F
100
AcDbEntity
  8
1
  6
Continuous
 62
     7
100
AcDbLine
 10
2776.371822194958
 20
-10743.11428592029
 30
0.0
 11
2768.871822194959
 21
-10743.11428592029
 31
0.0
  0
LINE
  5
10D
330
1F
100
AcDbEntity
  8
1
  6
Continuous
 62
     7
100
AcDbLine
 10
2783.371822194959
 20
-10740.52921445789
 30
0.0
 11
2783.371822194959
 21
-10761.11428592029
 31
0.0
  0
LINE
  5
10E
330
1F
100
AcDbEntity
  8
1
  6
Continuous
 62
     7
100
AcDbLine
 10
2783.371822194959
 20
-10761.11428592029
 30
0.0
 11
2777.371822194959
 21
-10761.11428592029
 31
0.0
  0
LINE
  5
10F
330
1F
100
AcDbEntity
  8
1
  6
Continuous
 62
     7
100
AcDbLine
 10
2777.371822194959
 20
-10744.11428592029
 30
0.0
 11
2777.371822194959
 21
-10761.11428592029
 31
0.0
  0
ARC
  5
110
330
1F
100
AcDbEntity
  8
1
  6
Continuous
 62
     7
100
AcDbCircle
 10
2776.371822194958
 20
-10744.11428592029
 30
0.0
 40
1.0
100
AcDbArc
 50
0.0
 51
90.0
  0
LINE
  5
111
330
1F
100
AcDbEntity
  8
1
  6
Continuous
 62
     7
100
AcDbLine
 10
2773.871822194959
 20
-10699.11428592029
 30
0.0
 11
2773.871822194959
 21
-10534.11428592029
 31
0.0
  0
POINT
  5
112
330
1F
100
AcDbEntity
  8
1
  6
Continuous
 62
     7
100
AcDbPoint
 10
2716.371822194967
 20
-10813.11428631531
 30
0.0
  0
POINT
  5
113
330
1F
100
AcDbEntity
  8
1
  6
Continuous
 62
     7
100
AcDbPoint
 10
2701.371822194963
 20
-10819.11428631531
 30
0.0
  0
LINE
  5
114
330
1F
100
AcDbEntity
  8
1
  6
Continuous
 62
     7
100
AcDbLine
 10
2701.371822194963
 20
-10816.11428631531
 30
0.0
 11
2701.371822194963
 21
-10819.11428634721
 31
0.0
  0
POINT
  5
115
330
1F
100
AcDbEntity
  8
1
  6
Continuous
 62
     7
100
AcDbPoint
 10
2777.371822194959
 20
-10743.11428592029
 30
0.0
  0
POINT
  5
116
330
1F
100
AcDbEntity
  8
1
  6
Continuous
 62
     7
100
AcDbPoint
 10
2767.871822194961
 20
-10743.11428592029
 30
0.0
  0
POINT
  5
117
330
1F
100
AcDbEntity
  8
1
  6
Continuous
 62
     7
100
AcDbPoint
 10
2767.871822194961
 20
-10790.11428592029
 30
0.0
  0
POINT
  5
118
330
1F
100
AcDbEntity
  8
1
  6
Continuous
 62
     7
100
AcDbPoint
 10
2759.871822194959
 20
-10790.11428592029
 30
0.0
  0
POINT
  5
119
330
1F
100
AcDbEntity
  8
1
  6
Continuous
 62
     7
100
AcDbPoint
 10
2783.371822194959
 20
-10738.11428592029
 30
0.0
  0
POINT
  5
11A
330
1F
100
AcDbEntity
  8
1
  6
Continuous
 62
     7
100
AcDbPoint
 10
2770.371822194959
 20
-10699.11428592029
 30
0.0
  0
LINE
  5
11B
330
1F
100
AcDbEntity
  8
1
  6
Continuous
 62
     7
100
AcDbLine
 10
2783.371822194959
 20
-10739.85726408394
 30
0.0
 11
2783.371822194959
 21
-10761.11428592029
 31
0.0
  0
POINT
  5
11C
330
1F
100
AcDbEntity
  8
1
  6
Continuous
 62
     7
100
AcDbPoint
 10
2768.607652496782
 20
-10738.11428592029
 30
0.0
  0
LINE
  5
11D
330
1F
100
AcDbEntity
  8
1
  6
Continuous
 62
     7
100
AcDbLine
 10
2770.211322987087
 20
-10726.23337160563
 30
0.0
 11
2773.871822194959
 21
-10699.11428592029
 31
0.0
  0
POINT
  5
11E
330
1F
100
AcDbEntity
  8
1
  6
Continuous
 62
     7
100
AcDbPoint
 10
2752.371822194961
 20
-10809.11428592029
 30
0.0
  0
LINE
  5
11F
330
1F
100
AcDbEntity
  8
1
  6
Continuous
 62
     7
100
AcDbLine
 10
2701.371822194963
 20
-10816.11428631531
 30
0.0
 11
2721.37182219497
 21
-10812.11428631531
 31
0.0
  0
LINE
  5
120
330
1F
100
AcDbEntity
  8
1
  6
Continuous
 62
     7
100
AcDbLine
 10
2721.37182219497
 20
-10812.11428631531
 30
0.0
 11
2736.371822194965
 21
-10812.11428631531
 31
0.0
  0
POINT
  5
121
330
1F
100
AcDbEntity
  8
1
  6
Continuous
 62
     7
100
AcDbPoint
 10
2767.871822194961
 20
-10807.11428592029
 30
0.0
  0
POINT
  5
122
330
1F
100
AcDbEntity
  8
1
  6
Continuous
 62
     7
100
AcDbPoint
 10
2759.871822194959
 20
-10807.11428592029
 30
0.0
  0
POINT
  5
123
330
1F
100
AcDbEntity
  8
1
  6
Continuous
 62
     7
100
AcDbPoint
 10
2764.371822194959
 20
-10739.61428592029
 30
0.0
  0
LINE
  5
124
330
1F
100
AcDbEntity
  8
1
  6
Continuous
 62
     7
100
AcDbLine
 10
2770.371822194959
 20
-10699.11428592029
 30
0.0
 11
2764.371822194959
 21
-10739.61428592029
 31
0.0
  0
LINE
  5
125
330
1F
100
AcDbEntity
  8
1
  6
Continuous
 62
     7
100
AcDbLine
 10
2764.371822194961
 20
-10739.61428592029
 30
0.0
 11
2754.14509886104
 21
-10798.84405859798
 31
0.0
  0
LINE
  5
126
330
1F
100
AcDbEntity
  8
1
  6
Continuous
 62
     7
100
AcDbLine
 10
2742.128139866464
 20
-10811.03497662475
 30
0.0
 11
2736.371822194472
 21
-10812.11428631542
 31
0.0
  0
ARC
  5
127
330
1F
100
AcDbEntity
  8
1
  6
Continuous
 62
     7
100
AcDbCircle
 10
2739.363811526076
 20
-10796.2918938798
 30
0.0
 40
15.0
100
AcDbArc
 50
280.6196564989712
 51
350.2037900882651
  0
LINE
  5
128
330
1F
100
AcDbEntity
  8
1
  6
Continuous
 62
     7
100
AcDbLine
 10
2736.371822194963
 20
-10322.11428635277
 30
0.0
 11
2736.371822194963
 21
-10319.11428635277
 31
0.0
  0
ARC
  5
129
330
1F
100
AcDbEntity
  8
1
  6
Continuous
 62
     7
100
AcDbCircle
 10
2739.371822194963
 20
-10322.11428635277
 30
0.0
 40
3.0
100
AcDbArc
 50
180.0
 51
270.0
  0
LINE
  5
12A
330
1F
100
AcDbEntity
  8
1
  6
Continuous
 62
     7
100
AcDbLine
 10
2770.371822194959
 20
-10330.11428635278
 30
0.0
 11
2770.371822194959
 21
-10359.11428635277
 31
0.0
  0
LINE
  5
12B
330
1F
100
AcDbEntity
  8
1
  6
Continuous
 62
     7
100
AcDbLine
 10
2765.371822194959
 20
-10325.11428635277
 30
0.0
 11
2739.371822194963
 21
-10325.11428635277
 31
0.0
  0
ARC
  5
12C
330
1F
100
AcDbEntity
  8
1
  6
HIDDEN2
 62
     7
100
AcDbCircle
 10
2755.371822194963
 20
-10320.11428635277
 30
0.0
 40
3.0
100
AcDbArc
 50
180.0
 51
270.0
  0
LINE
  5
12D
330
1F
100
AcDbEntity
  8
1
  6
Continuous
 62
     7
100
AcDbLine
 10
2750.559822194961
 20
-10319.11428635277
 30
0.0
 11
2750.559822194961
 21
-10325.11428635277
 31
0.0
  0
LINE
  5
12E
330
1F
100
AcDbEntity
  8
1
  6
Continuous
 62
     7
100
AcDbLine
 10
2742.183822194963
 20
-10319.11428635277
 30
0.0
 11
2742.183822194963
 21
-10325.11428635277
 31
0.0
  0
LINE
  5
12F
330
1F
100
AcDbEntity
  8
1
  6
Continuous
 62
     7
100
AcDbLine
 10
2751.371822194963
 20
-10319.11428635277
 30
0.0
 11
2751.371822194963
 21
-10325.11428635277
 31
0.0
  0
LINE
  5
130
330
1F
100
AcDbEntity
  8
1
  6
Continuous
 62
     7
100
AcDbLine
 10
2741.371822194963
 20
-10325.11428635277
 30
0.0
 11
2741.371822194963
 21
-10319.11428635277
 31
0.0
  0
LINE
  5
131
330
1F
100
AcDbEntity
  8
1
  6
Continuous
 62
     7
100
AcDbLine
 10
2770.371822194959
 20
-10459.11428635277
 30
0.0
 11
2768.371822194959
 21
-10464.11428635277
 31
0.0
  0
LINE
  5
132
330
1F
100
AcDbEntity
  8
1
  6
Continuous
 62
     7
100
AcDbLine
 10
2770.371822194959
 20
-10449.11428635277
 30
0.0
 11
2768.371822194959
 21
-10454.11428635277
 31
0.0
  0
LINE
  5
133
330
1F
100
AcDbEntity
  8
1
  6
Continuous
 62
     7
100
AcDbLine
 10
2768.371822194959
 20
-10454.11428635277
 30
0.0
 11
2770.371822194959
 21
-10459.11428635277
 31
0.0
  0
LINE
  5
134
330
1F
100
AcDbEntity
  8
1
  6
Continuous
 62
     7
100
AcDbLine
 10
2770.371822194959
 20
-10439.11428635277
 30
0.0
 11
2768.371822194959
 21
-10444.11428635277
 31
0.0
  0
LINE
  5
135
330
1F
100
AcDbEntity
  8
1
  6
Continuous
 62
     7
100
AcDbLine
 10
2768.371822194959
 20
-10444.11428635277
 30
0.0
 11
2770.371822194959
 21
-10449.11428635277
 31
0.0
  0
LINE
  5
136
330
1F
100
AcDbEntity
  8
1
  6
Continuous
 62
     7
100
AcDbLine
 10
2770.371822194959
 20
-10429.11428635277
 30
0.0
 11
2768.371822194959
 21
-10434.11428635277
 31
0.0
  0
LINE
  5
137
330
1F
100
AcDbEntity
  8
1
  6
Continuous
 62
     7
100
AcDbLine
 10
2768.371822194959
 20
-10434.11428635277
 30
0.0
 11
2770.371822194959
 21
-10439.11428635277
 31
0.0
  0
LINE
  5
138
330
1F
100
AcDbEntity
  8
1
  6
Continuous
 62
     7
100
AcDbLine
 10
2770.371822194959
 20
-10419.11428635277
 30
0.0
 11
2768.371822194959
 21
-10424.11428635277
 31
0.0
  0
LINE
  5
139
330
1F
100
AcDbEntity
  8
1
  6
Continuous
 62
     7
100
AcDbLine
 10
2768.371822194959
 20
-10424.11428635277
 30
0.0
 11
2770.371822194959
 21
-10429.11428635277
 31
0.0
  0
LINE
  5
13A
330
1F
100
AcDbEntity
  8
1
  6
Continuous
 62
     7
100
AcDbLine
 10
2770.371822194959
 20
-10409.11428635277
 30
0.0
 11
2768.371822194959
 21
-10414.11428635277
 31
0.0
  0
LINE
  5
13B
330
1F
100
AcDbEntity
  8
1
  6
Continuous
 62
     7
100
AcDbLine
 10
2768.371822194959
 20
-10414.11428635277
 30
0.0
 11
2770.371822194959
 21
-10419.11428635277
 31
0.0
  0
LINE
  5
13C
330
1F
100
AcDbEntity
  8
1
  6
Continuous
 62
     7
100
AcDbLine
 10
2770.371822194959
 20
-10399.11428635277
 30
0.0
 11
2768.371822194959
 21
-10404.11428635277
 31
0.0
  0
LINE
  5
13D
330
1F
100
AcDbEntity
  8
1
  6
Continuous
 62
     7
100
AcDbLine
 10
2768.371822194959
 20
-10404.11428635277
 30
0.0
 11
2770.371822194959
 21
-10409.11428635277
 31
0.0
  0
LINE
  5
13E
330
1F
100
AcDbEntity
  8
1
  6
Continuous
 62
     7
100
AcDbLine
 10
2770.371822194959
 20
-10389.11428635277
 30
0.0
 11
2768.371822194959
 21
-10394.11428635277
 31
0.0
  0
LINE
  5
13F
330
1F
100
AcDbEntity
  8
1
  6
Continuous
 62
     7
100
AcDbLine
 10
2768.371822194959
 20
-10394.11428635277
 30
0.0
 11
2770.371822194959
 21
-10399.11428635277
 31
0.0
  0
LINE
  5
140
330
1F
100
AcDbEntity
  8
1
  6
Continuous
 62
     7
100
AcDbLine
 10
2770.371822194959
 20
-10379.11428635277
 30
0.0
 11
2768.371822194959
 21
-10384.11428635277
 31
0.0
  0
LINE
  5
141
330
1F
100
AcDbEntity
  8
1
  6
Continuous
 62
     7
100
AcDbLine
 10
2768.371822194959
 20
-10384.11428635277
 30
0.0
 11
2770.371822194959
 21
-10389.11428635277
 31
0.0
  0
LINE
  5
142
330
1F
100
AcDbEntity
  8
1
  6
Continuous
 62
     7
100
AcDbLine
 10
2768.371822194959
 20
-10374.11428635277
 30
0.0
 11
2770.371822194959
 21
-10379.11428635277
 31
0.0
  0
LINE
  5
143
330
1F
100
AcDbEntity
  8
1
  6
Continuous
 62
     7
100
AcDbLine
 10
2768.371822194959
 20
-10364.11428635277
 30
0.0
 11
2770.371822194959
 21
-10359.11428635277
 31
0.0
  0
LINE
  5
144
330
1F
100
AcDbEntity
  8
1
  6
Continuous
 62
     7
100
AcDbLine
 10
2768.371822194959
 20
-10364.11428635277
 30
0.0
 11
2770.371822194959
 21
-10369.11428635277
 31
0.0
  0
LINE
  5
145
330
1F
100
AcDbEntity
  8
1
  6
Continuous
 62
     7
100
AcDbLine
 10
2768.371822194959
 20
-10374.11428635277
 30
0.0
 11
2770.371822194959
 21
-10369.11428635277
 31
0.0
  0
LINE
  5
146
330
1F
100
AcDbEntity
  8
1
  6
Continuous
 62
     7
100
AcDbLine
 10
2773.871822194959
 20
-10327.05920480555
 30
0.0
 11
2773.871822194959
 21
-10534.11428592029
 31
0.0
  0
LINE
  5
147
330
1F
100
AcDbEntity
  8
1
  6
Continuous
 62
     7
100
AcDbLine
 10
2770.371822194959
 20
-10479.11428592029
 30
0.0
 11
2768.371822194961
 21
-10484.11428592029
 31
0.0
  0
LINE
  5
148
330
1F
100
AcDbEntity
  8
1
  6
Continuous
 62
     7
100
AcDbLine
 10
2770.371822194959
 20
-10469.11428592029
 30
0.0
 11
2768.371822194961
 21
-10474.11428592029
 31
0.0
  0
LINE
  5
149
330
1F
100
AcDbEntity
  8
1
  6
Continuous
 62
     7
100
AcDbLine
 10
2768.371822194961
 20
-10474.11428592029
 30
0.0
 11
2770.371822194959
 21
-10479.11428592029
 31
0.0
  0
LINE
  5
14A
330
1F
100
AcDbEntity
  8
1
  6
Continuous
 62
     7
100
AcDbLine
 10
2768.371822194961
 20
-10464.11428592029
 30
0.0
 11
2770.371822194959
 21
-10469.11428592029
 31
0.0
  0
LINE
  5
14B
330
1F
100
AcDbEntity
  8
1
  6
Continuous
 62
     7
100
AcDbLine
 10
2736.371822194963
 20
-10319.11428635277
 30
0.0
 11
2776.871822194967
 21
-10319.11428635277
 31
0.0
  0
LINE
  5
14C
330
1F
100
AcDbEntity
  8
1
  6
HIDDEN2
 62
     7
100
AcDbLine
 10
2752.371822194963
 20
-10320.11428635277
 30
0.0
 11
2752.371822194963
 21
-10319.11428635277
 31
0.0
  0
POINT
  5
14D
330
1F
100
AcDbEntity
  8
1
  6
Continuous
 62
     7
100
AcDbPoint
 10
2768.877609917202
 20
-10736.11428592029
 30
0.0
  0
LINE
  5
14E
330
1F
100
AcDbEntity
  8
1
  6
Continuous
 62
     7
100
AcDbLine
 10
2778.754543513297
 20
-10737.47716558658
 30
0.0
 11
2781.645204072832
 21
-10737.87603659855
 31
0.0
  0
ARC
  5
14F
330
1F
100
AcDbEntity
  8
1
  6
Continuous
 62
     7
100
AcDbCircle
 10
2781.371822194959
 20
-10739.85726408394
 30
0.0
 40
2.0
100
AcDbArc
 50
0.0
 51
82.14358992321365
  0
ARC
  5
150
330
1F
100
AcDbEntity
  8
1
  6
Continuous
 62
     7
100
AcDbCircle
 10
2780.121452902657
 20
-10727.57102815964
 30
0.0
 40
10.0
100
AcDbArc
 50
172.3127502153859
 51
262.143589923224
  0
POINT
  5
151
330
1F
100
AcDbEntity
  8
1
  6
Continuous
 62
     7
100
AcDbPoint
 10
2888.371822194965
 20
-10739.61428592029
 30
0.0
  0
LINE
  5
152
330
1F
100
AcDbEntity
  8
1
  6
Continuous
 62
     7
100
AcDbLine
 10
2770.371822194959
 20
-10599.11428592029
 30
0.0
 11
2770.371822194959
 21
-10699.11428592029
 31
0.0
  0
LINE
  5
153
330
1F
100
AcDbEntity
  8
1
  6
Continuous
 62
     7
100
AcDbLine
 10
2882.371822194965
 20
-10599.11428592029
 30
0.0
 11
2882.371822194965
 21
-10699.11428592029
 31
0.0
  0
POINT
  5
154
330
1F
100
AcDbEntity
  8
1
  6
Continuous
 62
     7
100
AcDbPoint
 10
2736.371822194963
 20
-10325.11428635277
 30
0.0
  0
LINE
  5
155
330
1F
100
AcDbEntity
  8
1
  6
Continuous
 62
     7
100
AcDbLine
 10
2772.557592895909
 20
-10323.68058166296
 30
0.0
 11
2769.8580843142
 21
-10320.73566321019
 31
0.0
  0
LINE
  5
156
330
1F
100
AcDbEntity
  8
1
  6
Continuous
 62
     7
100
AcDbLine
 10
2769.58328461556
 20
-10329.31523840954
 30
0.0
 11
2766.624169168433
 21
-10326.08711246722
 31
0.0
  0
LINE
  5
157
330
1F
100
AcDbEntity
  8
1
  6
HIDDEN2
 62
     7
100
AcDbLine
 10
2765.292510180513
 20
-10323.11428635277
 30
0.0
 11
2755.371822194963
 21
-10323.11428635277
 31
0.0
  0
LINE
  5
158
330
1F
100
AcDbEntity
  8
1
  6
HIDDEN2
 62
     7
100
AcDbLine
 10
2767.503972601115
 20
-10324.08711246722
 30
0.0
 11
2769.58328461556
 21
-10326.35545284662
 31
0.0
  0
LINE
  5
159
330
1F
100
AcDbEntity
  8
1
  6
HIDDEN2
 62
     7
100
AcDbLine
 10
2770.371822194959
 20
-10328.38262673217
 30
0.0
 11
2770.371822194959
 21
-10330.17546122343
 31
0.0
  0
POINT
  5
15A
330
1F
100
AcDbEntity
  8
1
  6
HIDDEN2
 62
     7
100
AcDbPoint
 10
2766.612215329537
 20
-10323.11428635277
 30
0.0
  0
POINT
  5
15B
330
1F
100
AcDbEntity
  8
1
  6
HIDDEN2
 62
     7
100
AcDbPoint
 10
2765.732411896855
 20
-10325.11428635277
 30
0.0
  0
POINT
  5
15C
330
1F
100
AcDbEntity
  8
1
  6
HIDDEN2
 62
     7
100
AcDbPoint
 10
2770.371822194958
 20
-10330.17546122343
 30
0.0
  0
POINT
  5
15D
330
1F
100
AcDbEntity
  8
1
  6
HIDDEN2
 62
     7
100
AcDbPoint
 10
2770.371822194959
 20
-10327.2156756605
 30
0.0
  0
POINT
  5
15E
330
1F
100
AcDbEntity
  8
1
  6
HIDDEN2
 62
     7
100
AcDbPoint
 10
2773.871822194905
 20
-10325.11428635277
 30
0.0
  0
POINT
  5
15F
330
1F
100
AcDbEntity
  8
1
  6
HIDDEN2
 62
     7
100
AcDbPoint
 10
2768.371822194905
 20
-10319.11428635277
 30
0.0
  0
ARC
  5
160
330
1F
100
AcDbEntity
  8
1
  6
Continuous
 62
     7
100
AcDbCircle
 10
2764.41270674783
 20
-10328.11428635277
 30
0.0
 40
3.0
100
AcDbArc
 50
42.51044707799444
 51
90.0
  0
ARC
  5
161
330
1F
100
AcDbEntity
  8
1
  6
Continuous
 62
     7
100
AcDbCircle
 10
2767.371822194959
 20
-10331.34241229509
 30
0.0
 40
3.0
100
AcDbArc
 50
0.0
 51
42.51044707801792
  0
ARC
  5
162
330
1F
100
AcDbEntity
  8
1
  6
Continuous
 62
     7
100
AcDbCircle
 10
2768.871822194905
 20
-10327.05920480555
 30
0.0
 40
5.0
100
AcDbArc
 50
0.0
 51
42.51044707800469
  0
ARC
  5
163
330
1F
100
AcDbEntity
  8
1
  6
Continuous
 62
     7
100
AcDbCircle
 10
2766.172313613196
 20
-10324.11428635277
 30
0.0
 40
5.0
100
AcDbArc
 50
42.51044707800469
 51
90.0
  0
ARC
  5
164
330
1F
100
AcDbEntity
  8
1
  6
HIDDEN2
 62
     7
100
AcDbCircle
 10
2767.371822194959
 20
-10328.38262673217
 30
0.0
 40
3.0
100
AcDbArc
 50
0.0
 51
42.51044707801792
  0
ARC
  5
165
330
1F
100
AcDbEntity
  8
1
  6
HIDDEN2
 62
     7
100
AcDbCircle
 10
2765.292510180513
 20
-10326.11428635277
 30
0.0
 40
3.0
100
AcDbArc
 50
42.51044707799444
 51
90.0
  0
LINE
  5
166
330
1F
100
AcDbEntity
  8
1
  6
Continuous
 62
     7
100
AcDbLine
 10
2736.371822194963
 20
-10319.11428635277
 30
0.0
 11
2741.371822194963
 21
-10319.11428635277
 31
0.0
  0
POINT
  5
167
330
1F
100
AcDbEntity
  8
1
  6
Continuous
 62
     7
100
AcDbPoint
 10
2752.371822194958
 20
-10323.11428635277
 30
0.0
  0
POINT
  5
168
330
1F
100
AcDbEntity
  8
1
  6
Continuous
 62
     7
100
AcDbPoint
 10
2752.371822194963
 20
-10319.11428635277
 30
0.0
  0
POINT
  5
169
330
1F
100
AcDbEntity
  8
1
  6
Continuous
 62
     7
100
AcDbPoint
 10
2736.371822194963
 20
-10319.11428635277
 30
0.0
  0
POINT
  5
16A
330
1F
100
AcDbEntity
  8
1
  6
Continuous
 62
     7
100
AcDbPoint
 10
2768.371822194964
 20
-10319.11428635277
 30
0.0
  0
POINT
  5
16B
330
1F
100
AcDbEntity
  8
1
  6
Continuous
 62
     7
100
AcDbPoint
 10
2753.371822194964
 20
-10319.11428635277
 30
0.0
  0
POINT
  5
16C
330
1F
100
AcDbEntity
  8
1
  6
Continuous
 62
     7
100
AcDbPoint
 10
2736.371822194963
 20
-10319.11428635277
 30
0.0
  0
LINE
  5
16D
330
1F
100
AcDbEntity
  8
1
  6
Continuous
 62
     7
100
AcDbLine
 10
2736.371822194963
 20
-10316.11428635277
 30
0.0
 11
2739.371822194963
 21
-10316.11428635277
 31
0.0
  0
LINE
  5
16E
330
1F
100
AcDbEntity
  8
1
  6
Continuous
 62
     7
100
AcDbLine
 10
2739.371822194963
 20
-10316.11428635277
 30
0.0
 11
2739.371822194963
 21
-10319.11428635277
 31
0.0
  0
LINE
  5
16F
330
1F
100
AcDbEntity
  8
1
  6
Continuous
 62
     7
100
AcDbLine
 10
2736.371822194963
 20
-10319.11428635277
 30
0.0
 11
2736.371822194963
 21
-10316.11428635277
 31
0.0
  0
LINE
  5
170
330
1F
100
AcDbEntity
  8
1
  6
Continuous
 62
     7
100
AcDbLine
 10
2753.371822194964
 20
-10316.11428635277
 30
0.0
 11
2768.371822194964
 21
-10316.11428635277
 31
0.0
  0
LINE
  5
171
330
1F
100
AcDbEntity
  8
1
  6
Continuous
 62
     7
100
AcDbLine
 10
2768.371822194964
 20
-10316.11428635277
 30
0.0
 11
2768.371822194964
 21
-10319.11428635277
 31
0.0
  0
LINE
  5
172
330
1F
100
AcDbEntity
  8
1
  6
Continuous
 62
     7
100
AcDbLine
 10
2753.371822194964
 20
-10319.11428635277
 30
0.0
 11
2753.371822194964
 21
-10316.11428635277
 31
0.0
  0
LINE
  5
173
330
1F
100
AcDbEntity
  8
2
  6
Continuous
 62
     7
100
AcDbLine
 10
2774.871822194962
 20
-10309.11428635277
 30
0.0
 11
2767.871822194963
 21
-10309.11428635277
 31
0.0
  0
LINE
  5
174
330
1F
100
AcDbEntity
  8
2
  6
Continuous
 62
     7
100
AcDbLine
 10
2767.871822194963
 20
-10309.11428635277
 30
0.0
 11
2767.871822194963
 21
-10265.11428635277
 31
0.0
  0
LINE
  5
175
330
1F
100
AcDbEntity
  8
2
  6
Continuous
 62
     7
100
AcDbLine
 10
2767.871822194963
 20
-10265.11428635277
 30
0.0
 11
2761.371822194962
 21
-10265.11428635277
 31
0.0
  0
LINE
  5
176
330
1F
100
AcDbEntity
  8
2
  6
Continuous
 62
     7
100
AcDbLine
 10
2734.385700899369
 20
-10319.91299133814
 30
0.0
 11
2727.774782933515
 21
-10451.11428635277
 31
0.0
  0
LINE
  5
177
330
1F
100
AcDbEntity
  8
2
  6
Continuous
 62
     7
100
AcDbLine
 10
2738.380632728211
 20
-10316.11428635277
 30
0.0
 11
2741.371822194963
 21
-10316.11428635277
 31
0.0
  0
LINE
  5
178
330
1F
100
AcDbEntity
  8
2
  6
Continuous
 62
     7
100
AcDbLine
 10
2751.371822194963
 20
-10316.11428635277
 30
0.0
 11
2773.871822194966
 21
-10316.11428635277
 31
0.0
  0
ARC
  5
179
330
1F
100
AcDbEntity
  8
2
  6
Continuous
 62
     7
100
AcDbCircle
 10
2738.380632728211
 20
-10320.11428635277
 30
0.0
 40
4.0
100
AcDbArc
 50
90.0
 51
177.1154429174411
  0
POINT
  5
17A
330
1F
100
AcDbEntity
  8
2
  6
Continuous
 62
     7
100
AcDbPoint
 10
2734.577108514912
 20
-10316.11428635277
 30
0.0
  0
POINT
  5
17B
330
1F
100
AcDbEntity
  8
2
  6
Continuous
 62
     7
100
AcDbPoint
 10
2728.871822194963
 20
-10310.11428635277
 30
0.0
  0
POINT
  5
17C
330
1F
100
AcDbEntity
  8
2
  6
Continuous
 62
     7
100
AcDbPoint
 10
2826.371822194963
 20
-10265.11428635277
 30
0.0
  0
LINE
  5
17D
330
1F
100
AcDbEntity
  8
2
  6
Continuous
 62
     7
100
AcDbLine
 10
2774.871822194962
 20
-10309.11428635277
 30
0.0
 11
2826.371822194963
 21
-10309.11428635277
 31
0.0
  0
POINT
  5
17E
330
1F
100
AcDbEntity
  8
2
  6
Continuous
 62
     7
100
AcDbPoint
 10
2774.871822194962
 20
-10309.11428635277
 30
0.0
  0
POINT
  5
17F
330
1F
100
AcDbEntity
  8
2
  6
Continuous
 62
     7
100
AcDbPoint
 10
2767.871822194963
 20
-10309.11428635277
 30
0.0
  0
POINT
  5
180
330
1F
100
AcDbEntity
  8
2
  6
Continuous
 62
     7
100
AcDbPoint
 10
2767.871822194963
 20
-10265.11428635277
 30
0.0
  0
POINT
  5
181
330
1F
100
AcDbEntity
  8
2
  6
Continuous
 62
     7
100
AcDbPoint
 10
2761.371822194962
 20
-10265.11428635277
 30
0.0
  0
POINT
  5
182
330
1F
100
AcDbEntity
  8
2
  6
Continuous
 62
     7
100
AcDbPoint
 10
2759.371822194964
 20
-10310.11428635277
 30
0.0
  0
POINT
  5
183
330
1F
100
AcDbEntity
  8
2
  6
Continuous
 62
     7
100
AcDbPoint
 10
2759.549599972742
 20
-10306.11428635273
 30
0.0
  0
POINT
  5
184
330
1F
100
AcDbEntity
  8
2
  6
Continuous
 62
     7
100
AcDbPoint
 10
2719.371822194962
 20
-10439.11428635277
 30
0.0
  0
POINT
  5
185
330
1F
100
AcDbEntity
  8
2
  6
Continuous
 62
     7
100
AcDbPoint
 10
2722.371822194962
 20
-10439.11428635277
 30
0.0
  0
POINT
  5
186
330
1F
100
AcDbEntity
  8
2
  6
Continuous
 62
     7
100
AcDbPoint
 10
2718.371822194963
 20
-10451.11428635277
 30
0.0
  0
POINT
  5
187
330
1F
100
AcDbEntity
  8
2
  6
Continuous
 62
     7
100
AcDbPoint
 10
2727.774782933515
 20
-10451.11428635277
 30
0.0
  0
ARC
  5
188
330
1F
100
AcDbEntity
  8
2
  6
Continuous
 62
     7
100
AcDbCircle
 10
2757.636514527488
 20
-10304.11428635275
 30
0.0
 40
2.0
100
AcDbArc
 50
270.0
 51
357.4551956201557
  0
LINE
  5
189
330
1F
100
AcDbEntity
  8
2
  6
Continuous
 62
     7
100
AcDbLine
 10
2735.371822194964
 20
-10306.11428635277
 30
0.0
 11
2757.636514527488
 21
-10306.11428635277
 31
0.0
  0
ARC
  5
18A
330
1F
100
AcDbEntity
  8
2
  6
Continuous
 62
     7
100
AcDbCircle
 10
2735.371822194964
 20
-10308.11428635277
 30
0.0
 40
2.0
100
AcDbArc
 50
90.0
 51
180.0
  0
LINE
  5
18B
330
1F
100
AcDbEntity
  8
2
  6
Continuous
 62
     7
100
AcDbLine
 10
2733.371822194963
 20
-10309.51672528184
 30
0.0
 11
2733.371822194963
 21
-10308.11428635277
 31
0.0
  0
ARC
  5
18C
330
1F
100
AcDbEntity
  8
2
  6
HIDDEN
 62
     7
100
AcDbCircle
 10
2731.371822194962
 20
-10309.51672528184
 30
0.0
 40
2.0
100
AcDbArc
 50
300.7107903692268
 51
0.0
  0
LINE
  5
18D
330
1F
100
AcDbEntity
  8
2
  6
Continuous
 62
     7
100
AcDbLine
 10
2752.371822194965
 20
-10306.11428635277
 30
0.0
 11
2752.371822194965
 21
-10316.11428635277
 31
0.0
  0
LINE
  5
18E
330
1F
100
AcDbEntity
  8
2
  6
Continuous
 62
     7
100
AcDbLine
 10
2740.371822194965
 20
-10316.11428635277
 30
0.0
 11
2740.371822194962
 21
-10306.11428635277
 31
0.0
  0
LINE
  5
18F
330
1F
100
AcDbEntity
  8
2
  6
HIDDEN
 62
     7
100
AcDbLine
 10
2755.545651304456
 20
-10310.11428635277
 30
0.0
 11
2752.371822194965
 21
-10310.11428635277
 31
0.0
  0
ARC
  5
190
330
1F
100
AcDbEntity
  8
2
  6
HIDDEN
 62
     7
100
AcDbCircle
 10
2755.545651304456
 20
-10306.11428635277
 30
0.0
 40
4.0
100
AcDbArc
 50
270.0
 51
357.4551956201539
  0
LINE
  5
191
330
1F
100
AcDbEntity
  8
2
  6
Continuous
 62
     7
100
AcDbLine
 10
2759.634542140421
 20
-10304.20308757999
 30
0.0
 11
2761.371822194962
 21
-10265.11428635277
 31
0.0
  0
LINE
  5
192
330
1F
100
AcDbEntity
  8
2
  6
HIDDEN
 62
     7
100
AcDbLine
 10
2759.634542140421
 20
-10304.20308757999
 30
0.0
 11
2759.54170653032
 21
-10306.29188880726
 31
0.0
  0
LINE
  5
193
330
1F
100
AcDbEntity
  8
2
  6
HIDDEN
 62
     7
100
AcDbLine
 10
2740.371822194968
 20
-10310.11428635277
 30
0.0
 11
2736.478870621561
 21
-10310.11428635277
 31
0.0
  0
ARC
  5
194
330
1F
100
AcDbEntity
  8
2
  6
Continuous
 62
     7
100
AcDbCircle
 10
2736.478870621561
 20
-10318.11428635277
 30
0.0
 40
8.0
100
AcDbArc
 50
120.710790369203
 51
177.1154429174661
  0
ARC
  5
195
330
1F
100
AcDbEntity
  8
2
  6
HIDDEN
 62
     7
100
AcDbCircle
 10
2736.478870621561
 20
-10318.11428635277
 30
0.0
 40
8.0
100
AcDbArc
 50
90.0
 51
120.710790369203
  0
LINE
  5
196
330
1F
100
AcDbEntity
  8
2
  6
Continuous
 62
     7
100
AcDbLine
 10
2884.871822194963
 20
-10265.11428635277
 30
0.0
 11
2891.371822194961
 21
-10265.11428635277
 31
0.0
  0
POINT
  5
197
330
1F
100
AcDbEntity
  8
2
  6
Continuous
 62
     7
100
AcDbPoint
 10
2923.871822194963
 20
-10310.11428635277
 30
0.0
  0
POINT
  5
198
330
1F
100
AcDbEntity
  8
2
  6
Continuous
 62
     7
100
AcDbPoint
 10
2826.371822194963
 20
-10265.11428635277
 30
0.0
  0
LINE
  5
199
330
1F
100
AcDbEntity
  8
2
  6
Continuous
 62
     7
100
AcDbLine
 10
2934.371822194963
 20
-10451.11428635277
 30
0.0
 11
2826.371822194963
 21
-10451.11428635277
 31
0.0
  0
LINE
  5
19A
330
1F
100
AcDbEntity
  8
2
  6
Continuous
 62
     7
100
AcDbLine
 10
2884.871822194963
 20
-10265.11428635277
 30
0.0
 11
2826.371822194963
 21
-10265.11428635277
 31
0.0
  0
POINT
  5
19B
330
1F
100
AcDbEntity
  8
2
  6
Continuous
 62
     7
100
AcDbPoint
 10
2884.871822194963
 20
-10265.11428635277
 30
0.0
  0
POINT
  5
19C
330
1F
100
AcDbEntity
  8
2
  6
Continuous
 62
     7
100
AcDbPoint
 10
2891.371822194961
 20
-10265.11428635277
 30
0.0
  0
POINT
  5
19D
330
1F
100
AcDbEntity
  8
2
  6
Continuous
 62
     7
100
AcDbPoint
 10
2933.371822194961
 20
-10439.11428635277
 30
0.0
  0
POINT
  5
19E
330
1F
100
AcDbEntity
  8
2
  6
Continuous
 62
     7
100
AcDbPoint
 10
2930.371822194961
 20
-10439.11428635277
 30
0.0
  0
POINT
  5
19F
330
1F
100
AcDbEntity
  8
2
  6
Continuous
 62
     7
100
AcDbPoint
 10
2934.371822194963
 20
-10451.11428635277
 30
0.0
  0
ARC
  5
1A0
330
1F
100
AcDbEntity
  8
2
  6
Continuous
 62
     7
100
AcDbCircle
 10
2916.264773768365
 20
-10318.11428635277
 30
0.0
 40
8.0
100
AcDbArc
 50
2.884557082533854
 51
59.28920963079697
  0
ARC
  5
1A1
330
1F
100
AcDbEntity
  8
2
  6
Continuous
 62
     7
100
AcDbCircle
 10
2897.19799308547
 20
-10306.11428635277
 30
0.0
 40
4.0
100
AcDbArc
 50
182.5448043798461
 51
270.0
  0
ARC
  5
1A2
330
1F
100
AcDbEntity
  8
2
  6
Continuous
 62
     7
100
AcDbCircle
 10
2916.264773768365
 20
-10318.11428635277
 30
0.0
 40
8.0
100
AcDbArc
 50
59.28920963079697
 51
90.0
  0
LINE
  5
1A3
330
1F
100
AcDbEntity
  8
2
  6
Continuous
 62
     7
100
AcDbLine
 10
2893.201937859606
 20
-10306.29188880726
 30
0.0
 11
2891.371822194961
 21
-10265.11428635277
 31
0.0
  0
LINE
  5
1A4
330
1F
100
AcDbEntity
  8
2
  6
Continuous
 62
     7
100
AcDbLine
 10
2826.371822194963
 20
-10310.11428635277
 30
0.0
 11
2916.264773768365
 21
-10310.11428635277
 31
0.0
  0
LINE
  5
1A5
330
1F
100
AcDbEntity
  8
2
  6
Continuous
 62
     7
100
AcDbLine
 10
2722.419674098849
 20
-10438.16461010643
 30
0.0
 11
2728.48900696388
 21
-10317.71169632351
 31
0.0
  0
ARC
  5
1A6
330
1F
100
AcDbEntity
  8
2
  6
Continuous
 62
     7
100
AcDbCircle
 10
2721.420941141639
 20
-10438.11428635277
 30
0.0
 40
1.0
100
AcDbArc
 50
270.0
 51
357.1154429173631
  0
LINE
  5
1A7
330
1F
100
AcDbEntity
  8
2
  6
Continuous
 62
     7
100
AcDbLine
 10
2719.295409318284
 20
-10440.03124087292
 30
0.0
 11
2718.371822194963
 21
-10451.11428635277
 31
0.0
  0
LINE
  5
1A8
330
1F
100
AcDbEntity
  8
2
  6
Continuous
 62
     7
100
AcDbLine
 10
2720.29195507653
 20
-10439.11428635277
 30
0.0
 11
2721.420941141639
 21
-10439.11428635277
 31
0.0
  0
ARC
  5
1A9
330
1F
100
AcDbEntity
  8
2
  6
Continuous
 62
     7
100
AcDbCircle
 10
2720.29195507653
 20
-10440.11428635277
 30
0.0
 40
1.0
100
AcDbArc
 50
90.0
 51
175.2363583092478
  0
LINE
  5
1AA
330
1F
100
AcDbEntity
  8
2
  6
Continuous
 62
     7
100
AcDbLine
 10
2933.448235071642
 20
-10440.03124087292
 30
0.0
 11
2934.371822194963
 21
-10451.11428635277
 31
0.0
  0
LINE
  5
1AB
330
1F
100
AcDbEntity
  8
2
  6
Continuous
 62
     7
100
AcDbLine
 10
2932.451689313396
 20
-10439.11428635277
 30
0.0
 11
2826.371822194963
 21
-10439.11428635277
 31
0.0
  0
ARC
  5
1AC
330
1F
100
AcDbEntity
  8
2
  6
Continuous
 62
     7
100
AcDbCircle
 10
2932.451689313396
 20
-10440.11428635277
 30
0.0
 40
1.0
100
AcDbArc
 50
4.763641690752143
 51
90.0
  0
LINE
  5
1AD
330
1F
100
AcDbEntity
  8
2
  6
Continuous
 62
     7
100
AcDbLine
 10
2930.323970291077
 20
-10438.16461010643
 30
0.0
 11
2924.254637426046
 21
-10317.71169632351
 31
0.0
  0
ARC
  5
1AE
330
1F
100
AcDbEntity
  8
2
  6
Continuous
 62
     7
100
AcDbCircle
 10
2931.322703248287
 20
-10438.11428635277
 30
0.0
 40
1.0
100
AcDbArc
 50
182.8845570826369
 51
270.0
  0
LINE
  5
1AF
330
1F
100
AcDbEntity
  8
2
  6
Continuous
 62
     7
100
AcDbLine
 10
2893.505156501833
 20
-10268.06988573915
 30
0.0
 11
2895.331325445267
 21
-10309.15868696639
 31
0.0
  0
ARC
  5
1B0
330
1F
100
AcDbEntity
  8
2
  6
Continuous
 62
     7
100
AcDbCircle
 10
2892.506142695366
 20
-10268.11428635277
 30
0.0
 40
1.0
100
AcDbArc
 50
2.544804379896389
 51
90.0
  0
LINE
  5
1B1
330
1F
100
AcDbEntity
  8
2
  6
Continuous
 62
     7
100
AcDbLine
 10
2892.417253806479
 20
-10267.11428635277
 30
0.0
 11
2892.506142695366
 21
-10267.11428635277
 31
0.0
  0
ARC
  5
1B2
330
1F
100
AcDbEntity
  8
2
  6
Continuous
 62
     7
100
AcDbCircle
 10
2892.417253806479
 20
-10266.11428635277
 30
0.0
 40
1.0
100
AcDbArc
 50
182.5448043796882
 51
270.0
  0
LINE
  5
1B3
330
1F
100
AcDbEntity
  8
2
  6
Continuous
 62
     7
100
AcDbLine
 10
2831.405262334792
 20
-10310.11428635277
 30
0.0
 11
2833.062263199596
 21
-10306.11428635277
 31
0.0
  0
LINE
  5
1B4
330
1F
100
AcDbEntity
  8
2
  6
Continuous
 62
     7
100
AcDbLine
 10
2833.062263199596
 20
-10306.11428635277
 30
0.0
 11
2882.24105335041
 21
-10306.11428635277
 31
0.0
  0
LINE
  5
1B5
330
1F
100
AcDbEntity
  8
2
  6
Continuous
 62
     7
100
AcDbLine
 10
2882.24105335041
 20
-10306.11428635277
 30
0.0
 11
2883.366786561859
 21
-10310.11428635277
 31
0.0
  0
POINT
  5
1B6
330
1F
100
AcDbEntity
  8
2
  6
Continuous
 62
     7
100
AcDbPoint
 10
2866.371822194964
 20
-10306.11428635277
 30
0.0
  0
LINE
  5
1B7
330
1F
100
AcDbEntity
  8
1
  6
Continuous
 62
     7
100
AcDbLine
 10
2903.907129862439
 20
-10286.91428635277
 30
0.0
 11
2903.907129862439
 21
-10267.31428635277
 31
0.0
  0
LINE
  5
1B8
330
1F
100
AcDbEntity
  8
1
  6
Continuous
 62
     7
100
AcDbLine
 10
2903.907129862439
 20
-10267.31428635277
 30
0.0
 11
2910.00712986244
 21
-10267.31428635277
 31
0.0
  0
LINE
  5
1B9
330
1F
100
AcDbEntity
  8
1
  6
Continuous
 62
     7
100
AcDbLine
 10
2910.00712986244
 20
-10267.31428635277
 30
0.0
 11
2910.42578286244
 21
-10268.03941535277
 31
0.0
  0
LINE
  5
1BA
330
1F
100
AcDbEntity
  8
1
  6
Continuous
 62
     7
100
AcDbLine
 10
2910.90712986244
 20
-10269.83582535277
 30
0.0
 11
2910.90712986244
 21
-10284.39274735277
 31
0.0
  0
LINE
  5
1BB
330
1F
100
AcDbEntity
  8
1
  6
Continuous
 62
     7
100
AcDbLine
 10
2910.42578286244
 20
-10286.18915735277
 30
0.0
 11
2910.00712986244
 21
-10286.91428635277
 31
0.0
  0
LINE
  5
1BC
330
1F
100
AcDbEntity
  8
1
  6
Continuous
 62
     7
100
AcDbLine
 10
2910.00712986244
 20
-10286.91428635277
 30
0.0
 11
2903.907129862439
 21
-10286.91428635277
 31
0.0
  0
LINE
  5
1BD
330
1F
100
AcDbEntity
  8
1
  6
Continuous
 62
     7
100
AcDbLine
 10
2910.00712986244
 20
-10282.01428635277
 30
0.0
 11
2903.907129862439
 21
-10282.01428635277
 31
0.0
  0
LINE
  5
1BE
330
1F
100
AcDbEntity
  8
1
  6
Continuous
 62
     7
100
AcDbLine
 10
2910.00712986244
 20
-10272.21428635277
 30
0.0
 11
2903.907129862439
 21
-10272.21428635277
 31
0.0
  0
LINE
  5
1BF
330
1F
100
AcDbEntity
  8
1
  6
Continuous
 62
     7
100
AcDbLine
 10
2903.907129862439
 20
-10282.11428635277
 30
0.0
 11
2894.129352084661
 21
-10282.11428635277
 31
0.0
  0
LINE
  5
1C0
330
1F
100
AcDbEntity
  8
1
  6
Continuous
 62
     7
100
AcDbLine
 10
2893.684907640216
 20
-10272.11428635277
 30
0.0
 11
2903.907129862439
 21
-10272.11428635277
 31
0.0
  0
ARC
  5
1C1
330
1F
100
AcDbEntity
  8
1
  6
Continuous
 62
     7
100
AcDbCircle
 10
2907.314309862438
 20
-10284.39274735277
 30
0.0
 40
3.592819661189429
100
AcDbArc
 50
329.9999968805448
 51
41.45288296983952
  0
ARC
  5
1C2
330
1F
100
AcDbEntity
  8
1
  6
Continuous
 62
     7
100
AcDbCircle
 10
2907.314309862438
 20
-10269.83582535277
 30
0.0
 40
3.592820101385727
100
AcDbArc
 50
318.5471170301986
 51
30.00000311949995
  0
ARC
  5
1C3
330
1F
100
AcDbEntity
  8
1
  6
Continuous
 62
     7
100
AcDbCircle
 10
2897.11824097355
 20
-10277.11428635277
 30
0.0
 40
13.78888888888942
100
AcDbArc
 50
339.1845773750153
 51
20.81542262497766
  0
LINE
  5
1C4
330
1F
100
AcDbEntity
  8
1
  6
Continuous
 62
     7
100
AcDbLine
 10
2903.907129862439
 20
-10286.91428635277
 30
0.0
 11
2903.907129862439
 21
-10286.31428635277
 31
0.0
  0
LINE
  5
1C5
330
1F
100
AcDbEntity
  8
1
  6
Continuous
 62
     7
100
AcDbLine
 10
2903.907129862439
 20
-10267.91428635277
 30
0.0
 11
2903.907129862439
 21
-10267.31428635277
 31
0.0
  0
LINE
  5
1C6
330
1F
100
AcDbEntity
  8
1
  6
Continuous
 62
     7
100
AcDbLine
 10
2903.907129862439
 20
-10281.30228635277
 30
0.0
 11
2894.093263195772
 21
-10281.30228635277
 31
0.0
  0
LINE
  5
1C7
330
1F
100
AcDbEntity
  8
1
  6
Continuous
 62
     7
100
AcDbLine
 10
2903.907129862439
 20
-10272.92628635277
 30
0.0
 11
2893.720996529105
 21
-10272.92628635277
 31
0.0
  0
LINE
  5
1C8
330
1F
100
AcDbEntity
  8
1
  6
CENTER2
 62
     7
100
AcDbLine
 10
2915.907129862439
 20
-10277.11428635277
 30
0.0
 11
2888.907129862439
 21
-10277.11428635277
 31
0.0
  0
LINE
  5
1C9
330
1F
100
AcDbEntity
  8
1
  6
Continuous
 62
     7
100
AcDbLine
 10
2856.571822194962
 20
-10306.11428635277
 30
0.0
 11
2876.171822194963
 21
-10306.11428635277
 31
0.0
  0
LINE
  5
1CA
330
1F
100
AcDbEntity
  8
1
  6
Continuous
 62
     7
100
AcDbLine
 10
2876.171822194963
 20
-10306.11428635277
 30
0.0
 11
2876.171822194963
 21
-10299.01428635277
 31
0.0
  0
LINE
  5
1CB
330
1F
100
AcDbEntity
  8
1
  6
Continuous
 62
     7
100
AcDbLine
 10
2876.171822194963
 20
-10299.01428635277
 30
0.0
 11
2875.446693194963
 21
-10298.59563335277
 31
0.0
  0
LINE
  5
1CC
330
1F
100
AcDbEntity
  8
1
  6
Continuous
 62
     7
100
AcDbLine
 10
2873.650283194963
 20
-10298.11428635277
 30
0.0
 11
2859.093361194962
 21
-10298.11428635277
 31
0.0
  0
LINE
  5
1CD
330
1F
100
AcDbEntity
  8
1
  6
Continuous
 62
     7
100
AcDbLine
 10
2857.296951194962
 20
-10298.59563335277
 30
0.0
 11
2856.571822194962
 21
-10299.01428635277
 31
0.0
  0
LINE
  5
1CE
330
1F
100
AcDbEntity
  8
1
  6
Continuous
 62
     7
100
AcDbLine
 10
2856.571822194962
 20
-10299.01428635277
 30
0.0
 11
2856.571822194962
 21
-10306.11428635277
 31
0.0
  0
LINE
  5
1CF
330
1F
100
AcDbEntity
  8
1
  6
Continuous
 62
     7
100
AcDbLine
 10
2861.471822194962
 20
-10299.01428635277
 30
0.0
 11
2861.471822194962
 21
-10306.11428635277
 31
0.0
  0
LINE
  5
1D0
330
1F
100
AcDbEntity
  8
1
  6
Continuous
 62
     7
100
AcDbLine
 10
2871.271822194964
 20
-10299.01428635277
 30
0.0
 11
2871.271822194964
 21
-10306.11428635277
 31
0.0
  0
ARC
  5
1D1
330
1F
100
AcDbEntity
  8
1
  6
Continuous
 62
     7
100
AcDbCircle
 10
2859.093361194962
 20
-10301.70710635277
 30
0.0
 40
3.592820101385719
100
AcDbArc
 50
48.54711703016852
 51
120.0000031194966
  0
ARC
  5
1D2
330
1F
100
AcDbEntity
  8
1
  6
Continuous
 62
     7
100
AcDbCircle
 10
2873.650283194963
 20
-10301.70710635277
 30
0.0
 40
3.592819661189393
100
AcDbArc
 50
59.99999688051774
 51
131.4528829698587
  0
ARC
  5
1D3
330
1F
100
AcDbEntity
  8
1
  6
Continuous
 62
     7
100
AcDbCircle
 10
2866.371822194964
 20
-10311.90317524166
 30
0.0
 40
13.78888888888912
100
AcDbArc
 50
69.18457737502098
 51
110.8154226249896
  0
LINE
  5
1D4
330
1F
100
AcDbEntity
  8
1
  6
CENTER2
 62
     7
100
AcDbLine
 10
2866.371822194964
 20
-10311.11428635277
 30
0.0
 11
2866.371822194964
 21
-10288.92628635277
 31
0.0
  0
POINT
  5
1D5
330
1F
100
AcDbEntity
  8
2
  6
Continuous
 62
     7
100
AcDbPoint
 10
2746.371822194968
 20
-10306.11428635277
 30
0.0
  0
LINE
  5
1D6
330
1F
100
AcDbEntity
  8
1
  6
Continuous
 62
     7
100
AcDbLine
 10
2736.571822194968
 20
-10306.11428635277
 30
0.0
 11
2756.171822194967
 21
-10306.11428635277
 31
0.0
  0
LINE
  5
1D7
330
1F
100
AcDbEntity
  8
1
  6
Continuous
 62
     7
100
AcDbLine
 10
2756.171822194967
 20
-10306.11428635277
 30
0.0
 11
2756.171822194967
 21
-10299.01428635277
 31
0.0
  0
LINE
  5
1D8
330
1F
100
AcDbEntity
  8
1
  6
Continuous
 62
     7
100
AcDbLine
 10
2756.171822194967
 20
-10299.01428635277
 30
0.0
 11
2755.446693194969
 21
-10298.59563335277
 31
0.0
  0
LINE
  5
1D9
330
1F
100
AcDbEntity
  8
1
  6
Continuous
 62
     7
100
AcDbLine
 10
2753.650283194967
 20
-10298.11428635277
 30
0.0
 11
2739.093361194969
 21
-10298.11428635277
 31
0.0
  0
LINE
  5
1DA
330
1F
100
AcDbEntity
  8
1
  6
Continuous
 62
     7
100
AcDbLine
 10
2737.296951194969
 20
-10298.59563335277
 30
0.0
 11
2736.571822194968
 21
-10299.01428635277
 31
0.0
  0
LINE
  5
1DB
330
1F
100
AcDbEntity
  8
1
  6
Continuous
 62
     7
100
AcDbLine
 10
2736.571822194968
 20
-10299.01428635277
 30
0.0
 11
2736.571822194968
 21
-10306.11428635277
 31
0.0
  0
LINE
  5
1DC
330
1F
100
AcDbEntity
  8
1
  6
Continuous
 62
     7
100
AcDbLine
 10
2741.471822194968
 20
-10299.01428635277
 30
0.0
 11
2741.471822194968
 21
-10306.11428635277
 31
0.0
  0
LINE
  5
1DD
330
1F
100
AcDbEntity
  8
1
  6
Continuous
 62
     7
100
AcDbLine
 10
2751.271822194967
 20
-10299.01428635277
 30
0.0
 11
2751.271822194967
 21
-10306.11428635277
 31
0.0
  0
ARC
  5
1DE
330
1F
100
AcDbEntity
  8
1
  6
Continuous
 62
     7
100
AcDbCircle
 10
2739.093361194969
 20
-10301.70710635277
 30
0.0
 40
3.592820101385719
100
AcDbArc
 50
48.54711703014932
 51
120.0000031194966
  0
ARC
  5
1DF
330
1F
100
AcDbEntity
  8
1
  6
Continuous
 62
     7
100
AcDbCircle
 10
2753.650283194967
 20
-10301.70710635277
 30
0.0
 40
3.592819661189393
100
AcDbArc
 50
59.99999688046556
 51
131.4528829698261
  0
ARC
  5
1E0
330
1F
100
AcDbEntity
  8
1
  6
Continuous
 62
     7
100
AcDbCircle
 10
2746.371822194968
 20
-10311.90317524166
 30
0.0
 40
13.78888888888912
100
AcDbArc
 50
69.18457737502098
 51
110.815422624979
  0
LINE
  5
1E1
330
1F
100
AcDbEntity
  8
1
  6
CENTER2
 62
     7
100
AcDbLine
 10
2746.371822194968
 20
-10334.03190798335
 30
0.0
 11
2746.371822194968
 21
-10288.92628635277
 31
0.0
  0
LINE
  5
1E2
330
1F
100
AcDbEntity
  8
2
  6
Continuous
 62
     7
100
AcDbLine
 10
2718.371822194963
 20
-10451.11428635277
 30
0.0
 11
2769.571822194959
 21
-10451.11428635277
 31
0.0
  0
HATCH
  5
1E3
330
1F
100
AcDbEntity
  8
1
  6
Continuous
 62
     7
100
AcDbHatch
 10
0.0
 20
0.0
 30
0.0
210
0.0
220
0.0
230
1.0
  2
_U
 70
     0
 71
     0
 91
        1
 92
        0
 93
       15
 72
     1
 10
2722.419674098849
 20
-10438.16461010643
 11
2728.48900696388
 21
-10317.71169632351
 72
     2
 10
2736.478870621561
 20
-10318.11428635277
 40
8.0
 50
182.8845570825339
 51
239.2892096307969
 73
     0
 72
     2
 10
2731.371822194962
 20
-10309.51672528184
 40
2.0
 50
300.7107903692268
 51
360.0
 73
     1
 72
     1
 10
2733.371822194963
 20
-10309.51672528184
 11
2733.371822194963
 21
-10308.11428635277
 72
     2
 10
2735.371822194964
 20
-10308.11428635277
 40
2.0
 50
180.0
 51
270.0
 73
     0
 72
     1
 10
2735.371822194964
 20
-10306.11428635277
 11
2740.371822194968
 21
-10306.11428635277
 72
     1
 10
2740.371822194968
 20
-10306.11428635277
 11
2740.371822194968
 21
-10316.11428635277
 72
     1
 10
2740.371822194968
 20
-10316.11428635277
 11
2738.380632728211
 21
-10316.11428635277
 72
     2
 10
2738.380632728211
 20
-10320.11428635277
 40
4.0
 50
90.0
 51
177.1154429174411
 73
     1
 72
     1
 10
2734.385700899369
 20
-10319.91299133814
 11
2727.774782933515
 21
-10451.11428635277
 72
     1
 10
2727.774782933515
 20
-10451.11428635277
 11
2718.371822194963
 21
-10451.11428635277
 72
     1
 10
2718.371822194963
 20
-10451.11428635277
 11
2719.295409318284
 21
-10440.03124087292
 72
     2
 10
2720.29195507653
 20
-10440.11428635277
 40
1.0
 50
184.7636416907522
 51
270.0
 73
     0
 72
     1
 10
2720.29195507653
 20
-10439.11428635277
 11
2721.420941141639
 21
-10439.11428635277
 72
     2
 10
2721.420941141639
 20
-10438.11428635277
 40
1.0
 50
270.0
 51
357.1154429173631
 73
     1
 97
        0
 75
     0
 76
     0
 52
45.0
 41
3.0
 77
     0
 78
     1
 53
45.0
 43
0.0
 44
0.0
 45
-2.121320343559643
 46
2.121320343559643
 79
     0
 98
        1
 10
0.0
 20
0.0
  0
HATCH
  5
1E4
330
1F
100
AcDbEntity
  8
1
  6
Continuous
 62
     7
100
AcDbHatch
 10
0.0
 20
0.0
 30
0.0
210
0.0
220
0.0
230
1.0
  2
_U
 70
     0
 71
     0
 91
        1
 92
        0
 93
       11
 72
     1
 10
2752.371822194965
 20
-10310.11428635277
 11
2752.371822194965
 21
-10306.11428635277
 72
     1
 10
2752.371822194965
 20
-10306.11428635277
 11
2757.636514527488
 21
-10306.11428635277
 72
     2
 10
2757.636514527488
 20
-10304.11428635275
 40
2.0
 50
270.0
 51
357.4551956201557
 73
     1
 72
     1
 10
2759.634542140421
 20
-10304.20308757999
 11
2761.371822194962
 21
-10265.11428635277
 72
     1
 10
2761.371822194962
 20
-10265.11428635277
 11
2767.871822194963
 21
-10265.11428635277
 72
     1
 10
2767.871822194963
 20
-10265.11428635277
 11
2767.871822194963
 21
-10309.11428635277
 72
     1
 10
2767.871822194963
 20
-10309.11428635277
 11
2774.871822194962
 21
-10309.11428635277
 72
     1
 10
2774.871822194962
 20
-10309.11428635277
 11
2774.871822194965
 21
-10316.11428635277
 72
     1
 10
2774.871822194965
 20
-10316.11428635277
 11
2752.371822194965
 21
-10316.11428635277
 72
     1
 10
2752.371822194965
 20
-10316.11428635277
 11
2752.371822194965
 21
-10306.11428635277
 72
     1
 10
2752.371822194965
 20
-10306.11428635277
 11
2752.371822194965
 21
-10310.11428635277
 97
        0
 75
     0
 76
     0
 52
45.0
 41
3.0
 77
     0
 78
     1
 53
45.0
 43
0.0
 44
0.0
 45
-2.121320343559643
 46
2.121320343559643
 79
     0
 98
        1
 10
0.0
 20
0.0
  0
HATCH
  5
1E5
330
1F
100
AcDbEntity
  8
1
  6
Continuous
 62
     7
100
AcDbHatch
 10
0.0
 20
0.0
 30
0.0
210
0.0
220
0.0
230
1.0
  2
SOLID
 70
     1
 71
     0
 91
        2
 92
        0
 93
        5
 72
     1
 10
2739.371822194963
 20
-10316.11428635277
 11
2738.380632728211
 21
-10316.11428635277
 72
     2
 10
2738.380632728211
 20
-10320.11428635277
 40
4.0
 50
90.0
 51
120.1458323548955
 73
     1
 72
     1
 10
2736.371822194963
 20
-10316.65528646241
 11
2736.371822194963
 21
-10319.11428635277
 72
     1
 10
2736.371822194963
 20
-10319.11428635277
 11
2739.371822194963
 21
-10319.11428635277
 72
     1
 10
2739.371822194963
 20
-10319.11428635277
 11
2739.371822194963
 21
-10316.11428635277
 97
        0
 92
        0
 93
        4
 72
     1
 10
2768.371822194964
 20
-10316.11428635277
 11
2753.371822194964
 21
-10316.11428635277
 72
     1
 10
2753.371822194964
 20
-10316.11428635277
 11
2753.371822194964
 21
-10319.11428635277
 72
     1
 10
2753.371822194964
 20
-10319.11428635277
 11
2768.371822194964
 21
-10319.11428635277
 72
     1
 10
2768.371822194964
 20
-10319.11428635277
 11
2768.371822194964
 21
-10316.11428635277
 97
        0
 75
     0
 76
     1
 98
        1
 10
0.0
 20
0.0
  0
LINE
  5
1E6
330
1F
100
AcDbEntity
  8
1
  6
Continuous
 62
     7
100
AcDbLine
 10
2750.559822194959
 20
-10290.92628635277
 30
0.0
 11
2750.559822194959
 21
-10298.11428635277
 31
0.0
  0
LINE
  5
1E7
330
1F
100
AcDbEntity
  8
1
  6
Continuous
 62
     7
100
AcDbLine
 10
2750.559822194959
 20
-10306.11428635277
 30
0.0
 11
2750.559822194959
 21
-10325.92628635277
 31
0.0
  0
LINE
  5
1E8
330
1F
100
AcDbEntity
  8
1
  6
Continuous
 62
     7
100
AcDbLine
 10
2742.183822194958
 20
-10290.92628635277
 30
0.0
 11
2742.183822194958
 21
-10298.11428635277
 31
0.0
  0
LINE
  5
1E9
330
1F
100
AcDbEntity
  8
1
  6
Continuous
 62
     7
100
AcDbLine
 10
2742.183822194958
 20
-10306.11428635277
 30
0.0
 11
2742.183822194958
 21
-10325.92628635277
 31
0.0
  0
LINE
  5
1EA
330
1F
100
AcDbEntity
  8
1
  6
Continuous
 62
     7
100
AcDbLine
 10
2751.371822194958
 20
-10306.11428635277
 30
0.0
 11
2751.371822194959
 21
-10325.11428635277
 31
0.0
  0
LINE
  5
1EB
330
1F
100
AcDbEntity
  8
1
  6
Continuous
 62
     7
100
AcDbLine
 10
2741.371822194959
 20
-10325.11428635277
 30
0.0
 11
2741.371822194958
 21
-10306.11428635277
 31
0.0
  0
LINE
  5
1EC
330
1F
100
AcDbEntity
  8
1
  6
Continuous
 62
     7
100
AcDbLine
 10
2741.371822194958
 20
-10298.11428635277
 30
0.0
 11
2741.371822194958
 21
-10291.73828635277
 31
0.0
  0
LINE
  5
1ED
330
1F
100
AcDbEntity
  8
1
  6
Continuous
 62
     7
100
AcDbLine
 10
2751.371822194968
 20
-10291.73828635277
 30
0.0
 11
2750.559822194966
 21
-10290.92628635277
 31
0.0
  0
LINE
  5
1EE
330
1F
100
AcDbEntity
  8
1
  6
Continuous
 62
     7
100
AcDbLine
 10
2750.559822194966
 20
-10290.92628635277
 30
0.0
 11
2742.183822194967
 21
-10290.92628635277
 31
0.0
  0
LINE
  5
1EF
330
1F
100
AcDbEntity
  8
1
  6
Continuous
 62
     7
100
AcDbLine
 10
2742.183822194967
 20
-10290.92628635277
 30
0.0
 11
2741.371822194968
 21
-10291.73828635277
 31
0.0
  0
LINE
  5
1F0
330
1F
100
AcDbEntity
  8
1
  6
Continuous
 62
     7
100
AcDbLine
 10
2751.371822194968
 20
-10291.73828635277
 30
0.0
 11
2741.371822194968
 21
-10291.73828635277
 31
0.0
  0
LINE
  5
1F1
330
1F
100
AcDbEntity
  8
1
  6
Continuous
 62
     7
100
AcDbLine
 10
2751.371822194968
 20
-10298.11428635277
 30
0.0
 11
2751.371822194968
 21
-10291.73828635277
 31
0.0
  0
LINE
  5
1F2
330
1F
100
AcDbEntity
  8
1
  6
Continuous
 62
     7
100
AcDbLine
 10
2870.559822194955
 20
-10290.92628635277
 30
0.0
 11
2870.559822194955
 21
-10298.11428635277
 31
0.0
  0
LINE
  5
1F3
330
1F
100
AcDbEntity
  8
1
  6
Continuous
 62
     7
100
AcDbLine
 10
2862.183822194955
 20
-10290.92628635277
 30
0.0
 11
2862.183822194955
 21
-10298.11428635277
 31
0.0
  0
LINE
  5
1F4
330
1F
100
AcDbEntity
  8
1
  6
Continuous
 62
     7
100
AcDbLine
 10
2861.371822194955
 20
-10298.11428635277
 30
0.0
 11
2861.371822194955
 21
-10291.73828635277
 31
0.0
  0
LINE
  5
1F5
330
1F
100
AcDbEntity
  8
1
  6
Continuous
 62
     7
100
AcDbLine
 10
2871.371822194964
 20
-10291.73828635277
 30
0.0
 11
2870.559822194962
 21
-10290.92628635277
 31
0.0
  0
LINE
  5
1F6
330
1F
100
AcDbEntity
  8
1
  6
Continuous
 62
     7
100
AcDbLine
 10
2870.559822194962
 20
-10290.92628635277
 30
0.0
 11
2862.183822194964
 21
-10290.92628635277
 31
0.0
  0
LINE
  5
1F7
330
1F
100
AcDbEntity
  8
1
  6
Continuous
 62
     7
100
AcDbLine
 10
2862.183822194964
 20
-10290.92628635277
 30
0.0
 11
2861.371822194965
 21
-10291.73828635277
 31
0.0
  0
LINE
  5
1F8
330
1F
100
AcDbEntity
  8
1
  6
Continuous
 62
     7
100
AcDbLine
 10
2871.371822194964
 20
-10291.73828635277
 30
0.0
 11
2861.371822194965
 21
-10291.73828635277
 31
0.0
  0
LINE
  5
1F9
330
1F
100
AcDbEntity
  8
1
  6
Continuous
 62
     7
100
AcDbLine
 10
2871.371822194965
 20
-10298.11428635277
 30
0.0
 11
2871.371822194965
 21
-10291.73828635277
 31
0.0
  0
LINE
  5
1FA
330
1F
100
AcDbEntity
  8
1
  6
Continuous
 62
     7
100
AcDbLine
 10
2751.371822194968
 20
-10325.11428635277
 30
0.0
 11
2750.559822194966
 21
-10325.92628635277
 31
0.0
  0
LINE
  5
1FB
330
1F
100
AcDbEntity
  8
1
  6
Continuous
 62
     7
100
AcDbLine
 10
2750.559822194966
 20
-10325.92628635277
 30
0.0
 11
2742.183822194967
 21
-10325.92628635277
 31
0.0
  0
LINE
  5
1FC
330
1F
100
AcDbEntity
  8
1
  6
Continuous
 62
     7
100
AcDbLine
 10
2742.183822194967
 20
-10325.92628635277
 30
0.0
 11
2741.371822194968
 21
-10325.11428635277
 31
0.0
  0
LINE
  5
1FD
330
1F
100
AcDbEntity
  8
1
  6
HIDDEN2
 62
     7
100
AcDbLine
 10
2769.2213608487
 20
-10869.11428595882
 30
0.0
 11
2769.221360848896
 21
-10753.11428291979
 31
0.0
  0
LINE
  5
1FE
330
1F
100
AcDbEntity
  8
1
  6
HIDDEN2
 62
     7
100
AcDbLine
 10
2773.721360848689
 20
-10871.28591751415
 30
0.0
 11
2773.721360848689
 21
-10753.11428306303
 31
0.0
  0
ARC
  5
1FF
330
1F
100
AcDbEntity
  8
1
  6
HIDDEN2
 62
     7
100
AcDbCircle
 10
2854.94636084893
 20
-10922.57846956163
 30
0.0
 40
60.62136218639461
100
AcDbArc
 50
61.87683504845281
 51
118.1231649517733
  0
ARC
  5
200
330
1F
100
AcDbEntity
  8
1
  6
HIDDEN2
 62
     7
100
AcDbCircle
 10
2797.796360848481
 20
-10815.65010235571
 30
0.0
 40
60.62136218639461
100
AcDbArc
 50
241.8768350484532
 51
298.1231649517729
  0
ARC
  5
201
330
1F
100
AcDbEntity
  8
1
  6
HIDDEN2
 62
     7
100
AcDbCircle
 10
2854.94636084893
 20
-10815.65010235571
 30
0.0
 40
60.62136218639461
100
AcDbArc
 50
241.8768350482267
 51
298.1231649515472
  0
LINE
  5
202
330
1F
100
AcDbEntity
  8
1
  6
HIDDEN2
 62
     7
100
AcDbLine
 10
2883.521360848678
 20
-10869.1142859588
 30
0.0
 11
2883.521360848226
 21
-10753.11428473894
 31
0.0
  0
LINE
  5
203
330
1F
100
AcDbEntity
  8
1
  6
HIDDEN2
 62
     7
100
AcDbLine
 10
2879.021360848689
 20
-10866.94265440318
 30
0.0
 11
2879.021360848689
 21
-10753.11428473894
 31
0.0
  0
LINE
  5
204
330
1F
100
AcDbEntity
  8
1
  6
HIDDEN2
 62
     7
100
AcDbLine
 10
2826.371360848689
 20
-10753.11428473894
 30
0.0
 11
2783.371822194959
 21
-10753.11428612304
 31
0.0
  0
LINE
  5
205
330
1F
100
AcDbEntity
  8
1
  6
HIDDEN2
 62
     7
100
AcDbLine
 10
2777.371822194959
 20
-10753.11430656632
 30
0.0
 11
2769.143455017452
 21
-10753.11428447973
 31
0.0
  0
LINE
  5
206
330
1F
100
AcDbEntity
  8
1
  6
HIDDEN2
 62
     7
100
AcDbLine
 10
2826.371360848689
 20
-10753.11428473894
 30
0.0
 11
2883.521360813663
 21
-10753.11428657853
 31
0.0
  0
LINE
  5
207
330
1F
100
AcDbEntity
  8
1
  6
Continuous
 62
     7
100
AcDbLine
 10
2826.371822194963
 20
-10599.11428592029
 30
0.0
 11
2882.371822194965
 21
-10599.11428592029
 31
0.0
  0
LINE
  5
208
330
1F
100
AcDbEntity
  8
1
  6
Continuous
 62
     7
100
AcDbLine
 10
2884.371822194965
 20
-10594.11428592029
 30
0.0
 11
2826.371822194963
 21
-10594.11428592029
 31
0.0
  0
LINE
  5
209
330
1F
100
AcDbEntity
  8
1
  6
Continuous
 62
     7
100
AcDbLine
 10
2826.371822194963
 20
-10589.11428592029
 30
0.0
 11
2882.371822194965
 21
-10589.11428592029
 31
0.0
  0
LINE
  5
20A
330
1F
100
AcDbEntity
  8
1
  6
Continuous
 62
     7
100
AcDbLine
 10
2884.371822194965
 20
-10584.11428592029
 30
0.0
 11
2826.371822194963
 21
-10584.11428592029
 31
0.0
  0
LINE
  5
20B
330
1F
100
AcDbEntity
  8
1
  6
Continuous
 62
     7
100
AcDbLine
 10
2826.371822194963
 20
-10579.11428592029
 30
0.0
 11
2882.371822194965
 21
-10579.11428592029
 31
0.0
  0
LINE
  5
20C
330
1F
100
AcDbEntity
  8
1
  6
Continuous
 62
     7
100
AcDbLine
 10
2884.371822194965
 20
-10574.11428592029
 30
0.0
 11
2826.371822194963
 21
-10574.11428592029
 31
0.0
  0
LINE
  5
20D
330
1F
100
AcDbEntity
  8
1
  6
Continuous
 62
     7
100
AcDbLine
 10
2826.371822194963
 20
-10569.11428592029
 30
0.0
 11
2882.371822194965
 21
-10569.11428592029
 31
0.0
  0
LINE
  5
20E
330
1F
100
AcDbEntity
  8
1
  6
Continuous
 62
     7
100
AcDbLine
 10
2884.371822194965
 20
-10564.11428592029
 30
0.0
 11
2826.371822194963
 21
-10564.11428592029
 31
0.0
  0
LINE
  5
20F
330
1F
100
AcDbEntity
  8
1
  6
Continuous
 62
     7
100
AcDbLine
 10
2826.371822194963
 20
-10559.11428592029
 30
0.0
 11
2882.371822194965
 21
-10559.11428592029
 31
0.0
  0
LINE
  5
210
330
1F
100
AcDbEntity
  8
1
  6
Continuous
 62
     7
100
AcDbLine
 10
2884.371822194965
 20
-10554.11428592029
 30
0.0
 11
2826.371822194963
 21
-10554.11428592029
 31
0.0
  0
LINE
  5
211
330
1F
100
AcDbEntity
  8
1
  6
Continuous
 62
     7
100
AcDbLine
 10
2826.371822194963
 20
-10549.11428592029
 30
0.0
 11
2882.371822194965
 21
-10549.11428592029
 31
0.0
  0
LINE
  5
212
330
1F
100
AcDbEntity
  8
1
  6
Continuous
 62
     7
100
AcDbLine
 10
2884.371822194965
 20
-10544.11428592029
 30
0.0
 11
2826.371822194963
 21
-10544.11428592029
 31
0.0
  0
LINE
  5
213
330
1F
100
AcDbEntity
  8
1
  6
Continuous
 62
     7
100
AcDbLine
 10
2826.371822194963
 20
-10539.11428592029
 30
0.0
 11
2882.371822194965
 21
-10539.11428592029
 31
0.0
  0
LINE
  5
214
330
1F
100
AcDbEntity
  8
1
  6
Continuous
 62
     7
100
AcDbLine
 10
2884.371822194965
 20
-10534.11428592029
 30
0.0
 11
2826.371822194963
 21
-10534.11428592029
 31
0.0
  0
LINE
  5
215
330
1F
100
AcDbEntity
  8
1
  6
Continuous
 62
     7
100
AcDbLine
 10
2826.371822194963
 20
-10529.11428592029
 30
0.0
 11
2882.371822194965
 21
-10529.11428592029
 31
0.0
  0
LINE
  5
216
330
1F
100
AcDbEntity
  8
1
  6
Continuous
 62
     7
100
AcDbLine
 10
2884.371822194965
 20
-10524.11428592029
 30
0.0
 11
2826.371822194963
 21
-10524.11428592029
 31
0.0
  0
LINE
  5
217
330
1F
100
AcDbEntity
  8
1
  6
Continuous
 62
     7
100
AcDbLine
 10
2826.371822194963
 20
-10519.11428592029
 30
0.0
 11
2882.371822194965
 21
-10519.11428592029
 31
0.0
  0
LINE
  5
218
330
1F
100
AcDbEntity
  8
1
  6
Continuous
 62
     7
100
AcDbLine
 10
2884.371822194965
 20
-10514.11428592029
 30
0.0
 11
2826.371822194963
 21
-10514.11428592029
 31
0.0
  0
LINE
  5
219
330
1F
100
AcDbEntity
  8
1
  6
Continuous
 62
     7
100
AcDbLine
 10
2826.371822194963
 20
-10509.11428592029
 30
0.0
 11
2882.371822194965
 21
-10509.11428592029
 31
0.0
  0
LINE
  5
21A
330
1F
100
AcDbEntity
  8
1
  6
Continuous
 62
     7
100
AcDbLine
 10
2884.371822194965
 20
-10504.11428592029
 30
0.0
 11
2826.371822194963
 21
-10504.11428592029
 31
0.0
  0
LINE
  5
21B
330
1F
100
AcDbEntity
  8
1
  6
Continuous
 62
     7
100
AcDbLine
 10
2826.371822194963
 20
-10499.11428592029
 30
0.0
 11
2882.371822194965
 21
-10499.11428592029
 31
0.0
  0
LINE
  5
21C
330
1F
100
AcDbEntity
  8
1
  6
Continuous
 62
     7
100
AcDbLine
 10
2884.371822194965
 20
-10494.11428592029
 30
0.0
 11
2826.371822194963
 21
-10494.11428592029
 31
0.0
  0
LINE
  5
21D
330
1F
100
AcDbEntity
  8
1
  6
Continuous
 62
     7
100
AcDbLine
 10
2826.371822194963
 20
-10489.11428592029
 30
0.0
 11
2882.371822194965
 21
-10489.11428592029
 31
0.0
  0
LINE
  5
21E
330
1F
100
AcDbEntity
  8
1
  6
Continuous
 62
     7
100
AcDbLine
 10
2884.371822194965
 20
-10484.11428592029
 30
0.0
 11
2826.371822194963
 21
-10484.11428592029
 31
0.0
  0
LINE
  5
21F
330
1F
100
AcDbEntity
  8
1
  6
Continuous
 62
     7
100
AcDbLine
 10
2826.371822194963
 20
-10479.11428592029
 30
0.0
 11
2882.371822194965
 21
-10479.11428592029
 31
0.0
  0
LINE
  5
220
330
1F
100
AcDbEntity
  8
1
  6
Continuous
 62
     7
100
AcDbLine
 10
2884.371822194965
 20
-10474.11428592029
 30
0.0
 11
2826.371822194963
 21
-10474.11428592029
 31
0.0
  0
LINE
  5
221
330
1F
100
AcDbEntity
  8
1
  6
Continuous
 62
     7
100
AcDbLine
 10
2826.371822194963
 20
-10469.11428592029
 30
0.0
 11
2882.371822194965
 21
-10469.11428592029
 31
0.0
  0
LINE
  5
222
330
1F
100
AcDbEntity
  8
1
  6
Continuous
 62
     7
100
AcDbLine
 10
2884.371822194965
 20
-10464.11428592029
 30
0.0
 11
2826.371822194963
 21
-10464.11428592029
 31
0.0
  0
LINE
  5
223
330
1F
100
AcDbEntity
  8
1
  6
Continuous
 62
     7
100
AcDbLine
 10
2826.371822194963
 20
-10459.11428592029
 30
0.0
 11
2882.371822194965
 21
-10459.11428592029
 31
0.0
  0
LINE
  5
224
330
1F
100
AcDbEntity
  8
1
  6
Continuous
 62
     7
100
AcDbLine
 10
2884.371822194965
 20
-10454.11428592029
 30
0.0
 11
2826.371822194963
 21
-10454.11428592029
 31
0.0
  0
LINE
  5
225
330
1F
100
AcDbEntity
  8
1
  6
CENTER2
 62
     7
100
AcDbLine
 10
2926.371822194963
 20
-10874.84863668858
 30
0.0
 11
2926.371822194963
 21
-10809.07583932014
 31
0.0
  0
LINE
  5
226
330
1F
100
AcDbEntity
  8
1
  6
Continuous
 62
     7
100
AcDbLine
 10
2934.227027673058
 20
-10858.79971741293
 30
0.0
 11
2934.09093870867
 21
-10855.80280570356
 31
0.0
  0
LINE
  5
227
330
1F
100
AcDbEntity
  8
1
  6
Continuous
 62
     7
100
AcDbLine
 10
2934.000212732411
 20
-10853.80486456397
 30
0.0
 11
2933.909486756153
 21
-10851.80692342439
 31
0.0
  0
LINE
  5
228
330
1F
100
AcDbEntity
  8
1
  6
Continuous
 62
     7
100
AcDbLine
 10
2933.818760779895
 20
-10849.80898228481
 30
0.0
 11
2933.728034803637
 21
-10847.81104114523
 31
0.0
  0
LINE
  5
229
330
1F
100
AcDbEntity
  8
1
  6
Continuous
 62
     7
100
AcDbLine
 10
2933.637308827378
 20
-10845.81310000565
 30
0.0
 11
2933.546582851119
 21
-10843.81515886607
 31
0.0
  0
LINE
  5
22A
330
1F
100
AcDbEntity
  8
1
  6
Continuous
 62
     7
100
AcDbLine
 10
2933.371822194962
 20
-10866.5189882964
 30
0.0
 11
2933.371822194962
 21
-10858.83855206645
 31
0.0
  0
LINE
  5
22B
330
1F
100
AcDbEntity
  8
1
  6
Continuous
 62
     7
100
AcDbLine
 10
2933.371822194962
 20
-10841.89305579027
 30
0.0
 11
2933.371822194963
 21
-10819.11428588153
 31
0.0
  0
LINE
  5
22C
330
1F
100
AcDbEntity
  8
1
  6
Continuous
 62
     7
100
AcDbLine
 10
2927.733718969418
 20
-10859.09457683577
 30
0.0
 11
2934.227027673058
 21
-10858.79971741293
 31
0.0
  0
LINE
  5
22D
330
1F
100
AcDbEntity
  8
1
  6
Continuous
 62
     7
100
AcDbLine
 10
2933.371822194962
 20
-10866.5189882964
 30
0.0
 11
2919.371822194962
 21
-10866.5189882964
 31
0.0
  0
LINE
  5
22E
330
1F
100
AcDbEntity
  8
1
  6
Continuous
 62
     7
100
AcDbLine
 10
2931.039167502639
 20
-10858.94447729619
 30
0.0
 11
2931.621822194962
 21
-10866.5189882964
 31
0.0
  0
LINE
  5
22F
330
1F
100
AcDbEntity
  8
1
  6
Continuous
 62
     7
100
AcDbLine
 10
2925.871822194962
 20
-10840.11413600974
 30
0.0
 11
2926.871822194962
 21
-10840.11413600974
 31
0.0
  0
LINE
  5
230
330
1F
100
AcDbEntity
  8
1
  6
Continuous
 62
     7
100
AcDbLine
 10
2926.871822194962
 20
-10840.11413600974
 30
0.0
 11
2927.733718969418
 21
-10859.09457683577
 31
0.0
  0
LINE
  5
231
330
1F
100
AcDbEntity
  8
1
  6
Continuous
 62
     7
100
AcDbLine
 10
2927.597630005031
 20
-10856.0976651264
 30
0.0
 11
2934.09093870867
 21
-10855.80280570356
 31
0.0
  0
LINE
  5
232
330
1F
100
AcDbEntity
  8
1
  6
Continuous
 62
     7
100
AcDbLine
 10
2927.506904028772
 20
-10854.09972398681
 30
0.0
 11
2934.000212732411
 21
-10853.80486456397
 31
0.0
  0
LINE
  5
233
330
1F
100
AcDbEntity
  8
1
  6
Continuous
 62
     7
100
AcDbLine
 10
2927.416178052514
 20
-10852.10178284723
 30
0.0
 11
2933.909486756153
 21
-10851.80692342439
 31
0.0
  0
LINE
  5
234
330
1F
100
AcDbEntity
  8
1
  6
Continuous
 62
     7
100
AcDbLine
 10
2927.325452076255
 20
-10850.10384170765
 30
0.0
 11
2933.818760779895
 21
-10849.80898228481
 31
0.0
  0
LINE
  5
235
330
1F
100
AcDbEntity
  8
1
  6
Continuous
 62
     7
100
AcDbLine
 10
2927.234726099997
 20
-10848.10590056807
 30
0.0
 11
2933.728034803637
 21
-10847.81104114523
 31
0.0
  0
LINE
  5
236
330
1F
100
AcDbEntity
  8
1
  6
Continuous
 62
     7
100
AcDbLine
 10
2927.144000123738
 20
-10846.10795942849
 30
0.0
 11
2933.637308827378
 21
-10845.81310000565
 31
0.0
  0
LINE
  5
237
330
1F
100
AcDbEntity
  8
1
  6
Continuous
 62
     7
100
AcDbLine
 10
2927.05327414748
 20
-10844.11001828891
 30
0.0
 11
2933.546582851119
 21
-10843.81515886607
 31
0.0
  0
LINE
  5
238
330
1F
100
AcDbEntity
  8
1
  6
Continuous
 62
     7
100
AcDbLine
 10
2926.962548171221
 20
-10842.11207714933
 30
0.0
 11
2933.371822194962
 21
-10841.82103371897
 31
0.0
  0
ARC
  5
239
330
1F
100
AcDbEntity
  8
1
  6
Continuous
 62
     7
100
AcDbCircle
 10
2934.794803647884
 20
-10854.76981289267
 30
0.0
 40
1.25
100
AcDbArc
 50
129.4698976457876
 51
235.73010235417
  0
ARC
  5
23A
330
1F
100
AcDbEntity
  8
1
  6
Continuous
 62
     7
100
AcDbCircle
 10
2934.613351695367
 20
-10850.77393061351
 30
0.0
 40
1.25
100
AcDbArc
 50
129.4698976457876
 51
235.73010235417
  0
ARC
  5
23B
330
1F
100
AcDbEntity
  8
1
  6
Continuous
 62
     7
100
AcDbCircle
 10
2934.43189974285
 20
-10846.77804833434
 30
0.0
 40
1.25
100
AcDbArc
 50
129.4698976458406
 51
235.73010235417
  0
ARC
  5
23C
330
1F
100
AcDbEntity
  8
1
  6
Continuous
 62
     7
100
AcDbCircle
 10
2934.250447790333
 20
-10842.78216605518
 30
0.0
 40
1.25
100
AcDbArc
 50
134.6601753218072
 51
235.7301023541356
  0
LINE
  5
23D
330
1F
100
AcDbEntity
  8
1
  6
Continuous
 62
     7
100
AcDbLine
 10
2918.516616716867
 20
-10858.79971741293
 30
0.0
 11
2918.652705681255
 21
-10855.80280570356
 31
0.0
  0
LINE
  5
23E
330
1F
100
AcDbEntity
  8
1
  6
Continuous
 62
     7
100
AcDbLine
 10
2918.743431657514
 20
-10853.80486456397
 30
0.0
 11
2918.834157633772
 21
-10851.80692342439
 31
0.0
  0
LINE
  5
23F
330
1F
100
AcDbEntity
  8
1
  6
Continuous
 62
     7
100
AcDbLine
 10
2918.924883610031
 20
-10849.80898228481
 30
0.0
 11
2919.015609586289
 21
-10847.81104114523
 31
0.0
  0
LINE
  5
240
330
1F
100
AcDbEntity
  8
1
  6
Continuous
 62
     7
100
AcDbLine
 10
2919.106335562547
 20
-10845.81310000565
 30
0.0
 11
2919.197061538805
 21
-10843.81515886607
 31
0.0
  0
LINE
  5
241
330
1F
100
AcDbEntity
  8
1
  6
Continuous
 62
     7
100
AcDbLine
 10
2919.371822194962
 20
-10866.5189882964
 30
0.0
 11
2919.371822194962
 21
-10858.83855206645
 31
0.0
  0
LINE
  5
242
330
1F
100
AcDbEntity
  8
1
  6
Continuous
 62
     7
100
AcDbLine
 10
2919.371822194962
 20
-10841.89305579027
 30
0.0
 11
2919.371822194962
 21
-10819.11428588153
 31
0.0
  0
LINE
  5
243
330
1F
100
AcDbEntity
  8
1
  6
Continuous
 62
     7
100
AcDbLine
 10
2925.009925420507
 20
-10859.09457683577
 30
0.0
 11
2918.516616716867
 21
-10858.79971741293
 31
0.0
  0
LINE
  5
244
330
1F
100
AcDbEntity
  8
1
  6
Continuous
 62
     7
100
AcDbLine
 10
2921.704476887287
 20
-10858.94447729619
 30
0.0
 11
2921.121822194962
 21
-10866.5189882964
 31
0.0
  0
LINE
  5
245
330
1F
100
AcDbEntity
  8
1
  6
Continuous
 62
     7
100
AcDbLine
 10
2926.871822194962
 20
-10840.11413600974
 30
0.0
 11
2925.871822194962
 21
-10840.11413600974
 31
0.0
  0
LINE
  5
246
330
1F
100
AcDbEntity
  8
1
  6
Continuous
 62
     7
100
AcDbLine
 10
2925.871822194962
 20
-10840.11413600974
 30
0.0
 11
2925.009925420507
 21
-10859.09457683577
 31
0.0
  0
LINE
  5
247
330
1F
100
AcDbEntity
  8
1
  6
Continuous
 62
     7
100
AcDbLine
 10
2925.146014384894
 20
-10856.0976651264
 30
0.0
 11
2918.652705681255
 21
-10855.80280570356
 31
0.0
  0
LINE
  5
248
330
1F
100
AcDbEntity
  8
1
  6
Continuous
 62
     7
100
AcDbLine
 10
2925.236740361153
 20
-10854.09972398681
 30
0.0
 11
2918.743431657514
 21
-10853.80486456397
 31
0.0
  0
LINE
  5
249
330
1F
100
AcDbEntity
  8
1
  6
Continuous
 62
     7
100
AcDbLine
 10
2925.327466337411
 20
-10852.10178284723
 30
0.0
 11
2918.834157633772
 21
-10851.80692342439
 31
0.0
  0
LINE
  5
24A
330
1F
100
AcDbEntity
  8
1
  6
Continuous
 62
     7
100
AcDbLine
 10
2925.41819231367
 20
-10850.10384170765
 30
0.0
 11
2918.924883610031
 21
-10849.80898228481
 31
0.0
  0
LINE
  5
24B
330
1F
100
AcDbEntity
  8
1
  6
Continuous
 62
     7
100
AcDbLine
 10
2925.508918289928
 20
-10848.10590056807
 30
0.0
 11
2919.015609586289
 21
-10847.81104114523
 31
0.0
  0
LINE
  5
24C
330
1F
100
AcDbEntity
  8
1
  6
Continuous
 62
     7
100
AcDbLine
 10
2925.599644266187
 20
-10846.10795942849
 30
0.0
 11
2919.106335562547
 21
-10845.81310000565
 31
0.0
  0
LINE
  5
24D
330
1F
100
AcDbEntity
  8
1
  6
Continuous
 62
     7
100
AcDbLine
 10
2925.690370242445
 20
-10844.11001828891
 30
0.0
 11
2919.197061538805
 21
-10843.81515886607
 31
0.0
  0
LINE
  5
24E
330
1F
100
AcDbEntity
  8
1
  6
Continuous
 62
     7
100
AcDbLine
 10
2925.781096218704
 20
-10842.11207714933
 30
0.0
 11
2919.371822194962
 21
-10841.82103371897
 31
0.0
  0
ARC
  5
24F
330
1F
100
AcDbEntity
  8
1
  6
Continuous
 62
     7
100
AcDbCircle
 10
2917.948840742041
 20
-10854.76981289267
 30
0.0
 40
1.25
100
AcDbArc
 50
304.26989764583
 51
50.53010235421238
  0
ARC
  5
250
330
1F
100
AcDbEntity
  8
1
  6
Continuous
 62
     7
100
AcDbCircle
 10
2918.130292694558
 20
-10850.77393061351
 30
0.0
 40
1.25
100
AcDbArc
 50
304.26989764583
 51
50.53010235421238
  0
ARC
  5
251
330
1F
100
AcDbEntity
  8
1
  6
Continuous
 62
     7
100
AcDbCircle
 10
2918.311744647075
 20
-10846.77804833434
 30
0.0
 40
1.25
100
AcDbArc
 50
304.26989764583
 51
50.53010235415938
  0
ARC
  5
252
330
1F
100
AcDbEntity
  8
1
  6
Continuous
 62
     7
100
AcDbCircle
 10
2918.493196599592
 20
-10842.78216605518
 30
0.0
 40
1.25
100
AcDbArc
 50
304.26989764583
 51
45.33982467822248
  0
LINE
  5
253
330
1F
100
AcDbEntity
  8
1
  6
Continuous
 62
     7
100
AcDbLine
 10
2935.521822194963
 20
-10813.46428628213
 30
0.0
 11
2926.371822194963
 21
-10813.46428628213
 31
0.0
  0
LINE
  5
254
330
1F
100
AcDbEntity
  8
1
  6
Continuous
 62
     7
100
AcDbLine
 10
2926.371822194963
 20
-10813.46428628213
 30
0.0
 11
2917.221822194962
 21
-10813.46428628213
 31
0.0
  0
LINE
  5
255
330
1F
100
AcDbEntity
  8
1
  6
Continuous
 62
     7
100
AcDbLine
 10
2917.221822194962
 20
-10813.46428628213
 30
0.0
 11
2917.221822194962
 21
-10813.96428628213
 31
0.0
  0
LINE
  5
256
330
1F
100
AcDbEntity
  8
1
  6
Continuous
 62
     7
100
AcDbLine
 10
2921.371822194963
 20
-10818.11428628213
 30
0.0
 11
2931.371822194963
 21
-10818.11428628213
 31
0.0
  0
LINE
  5
257
330
1F
100
AcDbEntity
  8
1
  6
Continuous
 62
     7
100
AcDbLine
 10
2931.371822194963
 20
-10818.11428628213
 30
0.0
 11
2935.521822194963
 21
-10813.96428628213
 31
0.0
  0
LINE
  5
258
330
1F
100
AcDbEntity
  8
1
  6
Continuous
 62
     7
100
AcDbLine
 10
2935.521822194963
 20
-10813.96428628213
 30
0.0
 11
2935.521822194963
 21
-10813.46428628213
 31
0.0
  0
LINE
  5
259
330
1F
100
AcDbEntity
  8
1
  6
Continuous
 62
     7
100
AcDbLine
 10
2935.521822194963
 20
-10813.96428628213
 30
0.0
 11
2926.371822194963
 21
-10813.96428628213
 31
0.0
  0
LINE
  5
25A
330
1F
100
AcDbEntity
  8
1
  6
Continuous
 62
     7
100
AcDbLine
 10
2926.371822194963
 20
-10813.96428628213
 30
0.0
 11
2917.221822194962
 21
-10813.96428628213
 31
0.0
  0
LINE
  5
25B
330
1F
100
AcDbEntity
  8
1
  6
Continuous
 62
     7
100
AcDbLine
 10
2931.371822194963
 20
-10818.11428628213
 30
0.0
 11
2931.371822194963
 21
-10837.65228628213
 31
0.0
  0
LINE
  5
25C
330
1F
100
AcDbEntity
  8
1
  6
Continuous
 62
     7
100
AcDbLine
 10
2921.371822194963
 20
-10818.11428628213
 30
0.0
 11
2921.371822194963
 21
-10837.65228628213
 31
0.0
  0
LINE
  5
25D
330
1F
100
AcDbEntity
  8
1
  6
Continuous
 62
     7
100
AcDbLine
 10
2931.371822194963
 20
-10837.65228628213
 30
0.0
 11
2930.559822194962
 21
-10838.46428628213
 31
0.0
  0
LINE
  5
25E
330
1F
100
AcDbEntity
  8
1
  6
Continuous
 62
     7
100
AcDbLine
 10
2921.371822194963
 20
-10837.65228628213
 30
0.0
 11
2922.183822194963
 21
-10838.46428628213
 31
0.0
  0
LINE
  5
25F
330
1F
100
AcDbEntity
  8
1
  6
Continuous
 62
     7
100
AcDbLine
 10
2930.559822194962
 20
-10838.46428628213
 30
0.0
 11
2922.183822194963
 21
-10838.46428628213
 31
0.0
  0
LINE
  5
260
330
1F
100
AcDbEntity
  8
1
  6
Continuous
 62
     7
100
AcDbLine
 10
2931.371822194963
 20
-10837.65228628213
 30
0.0
 11
2921.371822194963
 21
-10837.65228628213
 31
0.0
  0
LINE
  5
261
330
1F
100
AcDbEntity
  8
1
  6
Continuous
 62
     3
100
AcDbLine
 10
2930.559822194962
 20
-10818.11428628213
 30
0.0
 11
2930.559822194962
 21
-10838.46428628213
 31
0.0
  0
LINE
  5
262
330
1F
100
AcDbEntity
  8
1
  6
Continuous
 62
     3
100
AcDbLine
 10
2922.183822194963
 20
-10818.11428628213
 30
0.0
 11
2922.183822194963
 21
-10838.46428628213
 31
0.0
  0
LINE
  5
263
330
1F
100
AcDbEntity
  8
1
  6
Continuous
 62
     7
100
AcDbLine
 10
2921.371822194963
 20
-10818.11428628213
 30
0.0
 11
2917.221822194962
 21
-10813.96428628213
 31
0.0
  0
MTEXT
  5
266
102
{ACAD_REACTORS
330
268
102
}
330
1F
100
AcDbEntity
  8
1
  6
Continuous
 62
     7
100
AcDbMText
 10
2977.371822595554
 20
-10758.11428591481
 30
0.0
 40
12.0
 41
0.0
 71
     7
 72
     5
  1
３－φ１４穴
  7
MTSTANDARD1
 73
     1
 44
1.09375
  0
LEADER
  5
268
330
1F
100
AcDbEntity
  8
1
  6
ByBlock
 62
     1
100
AcDbLeader
  3
DIMSTYEX_1
 73
     0
 74
     0
 76
     3
 10
2926.371822194963
 20
-10812.11428631541
 30
0.0
 10
2977.371822595554
 20
-10761.11428591481
 30
0.0
 10
2978.371822595554
 20
-10761.11428591481
 30
0.0
340
266
1001
ACAD
1000
DSTYLE
1002
{
1070
   176
1070
     0
1002
}
  0
MTEXT
  5
269
102
{ACAD_REACTORS
330
26A
102
}
330
1F
100
AcDbEntity
  8
1
  6
Continuous
 62
     7
100
AcDbMText
 10
2977.371822595554
 20
-10906.66379965714
 30
0.0
 40
12.0
 41
0.0
 71
     7
 72
     5
  1
※グリップアンカー\P皿ビス（Ｍ１０）\P（別販売）
  7
MTSTANDARD1
 73
     1
 44
1.09375
  0
LEADER
  5
26A
330
1F
100
AcDbEntity
  8
1
  6
ByBlock
 62
     1
100
AcDbLeader
  3
DIMSTYEX_1
 73
     0
 74
     0
 76
     3
 10
2931.371822194964
 20
-10837.65228631541
 30
0.0
 10
2977.371822595554
 20
-10867.66379965714
 30
0.0
 10
2978.371822595554
 20
-10867.66379965714
 30
0.0
340
269
1001
ACAD
1000
DSTYLE
1002
{
1070
   176
1070
     0
1002
}
  0
DIMENSION
  5
279
330
1F
100
AcDbEntity
  8
1
  6
ByBlock
 62
     1
100
AcDbDimension
  2
_D1
 10
2951.371822194963
 20
-10929.11428595899
 30
0.0
 11
2826.371822194963
 21
-10920.86428595899
 31
0.0
 70
   160
  1
Ｂ
 71
     5
 42
-1.0
 52
90.0
  3
DIMSTYEX_2
100
AcDbAlignedDimension
 13
2701.371822194963
 23
-10819.11428591472
 33
0.0
 14
2951.371822194963
 24
-10819.11428634721
 34
0.0
100
AcDbRotatedDimension
1001
ACAD
1000
DSTYLE
1002
{
1070
   343
1005
88
1070
   344
1005
88
1070
   173
1070
     1
1070
   272
1070
     3
1070
   340
1005
83
1070
   140
1040
3.136
1002
}
  0
HATCH
  5
27A
330
1F
100
AcDbEntity
  8
1
  6
CENTER2
 62
     7
100
AcDbHatch
 10
0.0
 20
0.0
 30
0.0
210
0.0
220
0.0
230
1.0
  2
SOLID
 70
     1
 71
     0
 91
        1
 92
        0
 93
        8
 72
     1
 10
2769.221360866989
 20
-10790.11428592029
 11
2765.871822194959
 21
-10790.11428592029
 72
     1
 10
2765.871822194959
 20
-10790.11428592029
 11
2761.871822194958
 21
-10790.11428592029
 72
     2
 10
2761.871822194958
 20
-10792.11428592029
 40
2.0
 50
90.0
 51
180.0
 73
     1
 72
     1
 10
2759.871822194959
 20
-10792.11428592029
 11
2759.871822194959
 21
-10805.11428592029
 72
     2
 10
2761.871822194958
 20
-10805.11428592029
 40
2.0
 50
180.0
 51
270.0
 73
     1
 72
     1
 10
2761.871822194958
 20
-10807.11428592029
 11
2765.871822194959
 21
-10807.11428592029
 72
     1
 10
2765.871822194959
 20
-10807.11428592029
 11
2769.221360866989
 21
-10807.11428592029
 72
     1
 10
2769.221360866989
 20
-10807.11428592029
 11
2769.221360866989
 21
-10790.11428592029
 97
        0
 75
     0
 76
     1
 98
        1
 10
0.0
 20
0.0
  0
HATCH
  5
27B
330
1F
100
AcDbEntity
  8
1
  6
Continuous
 62
     7
100
AcDbHatch
 10
0.0
 20
0.0
 30
0.0
210
0.0
220
0.0
230
1.0
  2
_U
 70
     0
 71
     0
 91
        3
 92
        0
 93
       91
 72
     2
 10
2765.871822194959
 20
-10809.11428592029
 40
2.0
 50
0.0
 51
90.0
 73
     1
 72
     1
 10
2765.871822194959
 20
-10807.11428592029
 11
2761.871822194958
 21
-10807.11428592029
 72
     2
 10
2761.871822194958
 20
-10805.11428592029
 40
2.0
 50
90.0
 51
180.0
 73
     0
 72
     1
 10
2759.871822194959
 20
-10805.11428592029
 11
2759.871822194959
 21
-10792.11428592029
 72
     2
 10
2761.871822194958
 20
-10792.11428592029
 40
2.0
 50
180.0
 51
270.0
 73
     0
 72
     1
 10
2761.871822194958
 20
-10790.11428592029
 11
2765.871822194959
 21
-10790.11428592029
 72
     2
 10
2765.871822194959
 20
-10788.11428592029
 40
2.0
 50
270.0
 51
360.0
 73
     1
 72
     1
 10
2767.871822194961
 20
-10788.11428592029
 11
2767.871822194961
 21
-10744.11428592029
 72
     2
 10
2768.871822194959
 20
-10744.11428592029
 40
1.0
 50
180.0
 51
270.0
 73
     0
 72
     1
 10
2768.871822194959
 20
-10743.11428592029
 11
2776.371822194958
 21
-10743.11428592029
 72
     2
 10
2776.371822194958
 20
-10744.11428592029
 40
1.0
 50
270.0
 51
360.0
 73
     0
 72
     1
 10
2777.371822194959
 20
-10744.11428592029
 11
2777.371822194959
 21
-10761.11428592029
 72
     1
 10
2777.371822194959
 20
-10761.11428592029
 11
2783.371822194959
 21
-10761.11428592029
 72
     1
 10
2783.371822194959
 20
-10761.11428592029
 11
2783.371822194959
 21
-10740.52921445789
 72
     1
 10
2783.371822194959
 20
-10740.52921445789
 11
2783.371822194959
 21
-10739.85726408394
 72
     2
 10
2781.371822194959
 20
-10739.85726408394
 40
2.0
 50
0.0
 51
82.14358992321365
 73
     1
 72
     1
 10
2781.645204072832
 20
-10737.87603659855
 11
2778.754543513297
 21
-10737.47716558658
 72
     2
 10
2780.121452902657
 20
-10727.57102815964
 40
10.0
 50
97.85641007677603
 51
187.6872497846141
 73
     0
 72
     1
 10
2770.211322987087
 20
-10726.23337160563
 11
2773.871822194959
 21
-10699.11428592029
 72
     1
 10
2773.871822194959
 20
-10699.11428592029
 11
2773.871822194959
 21
-10534.11428592029
 72
     1
 10
2773.871822194959
 20
-10534.11428592029
 11
2773.871822194959
 21
-10327.05920480555
 72
     2
 10
2768.871822194905
 20
-10327.05920480555
 40
5.0
 50
0.0
 51
42.51044707800469
 73
     1
 72
     1
 10
2772.557592895909
 20
-10323.68058166296
 11
2769.8580843142
 21
-10320.73566321019
 72
     2
 10
2766.172313613196
 20
-10324.11428635277
 40
5.0
 50
42.51044707800469
 51
90.0
 73
     1
 72
     1
 10
2766.172313613196
 20
-10319.11428635277
 11
2752.371822194963
 21
-10319.11428635277
 72
     1
 10
2752.371822194963
 20
-10319.11428635277
 11
2752.371822194963
 21
-10320.11428635277
 72
     2
 10
2755.371822194963
 20
-10320.11428635277
 40
3.0
 50
180.0
 51
270.0
 73
     1
 72
     1
 10
2755.371822194963
 20
-10323.11428635277
 11
2765.292510180513
 21
-10323.11428635277
 72
     2
 10
2765.292510180513
 20
-10326.11428635277
 40
3.0
 50
270.0
 51
317.4895529220055
 73
     0
 72
     1
 10
2767.503972601115
 20
-10324.08711246722
 11
2769.58328461556
 21
-10326.35545284662
 72
     2
 10
2767.371822194959
 20
-10328.38262673217
 40
3.0
 50
317.4895529219821
 51
360.0
 73
     0
 72
     1
 10
2770.371822194959
 20
-10328.38262673217
 11
2770.371822194959
 21
-10330.17546122343
 72
     1
 10
2770.371822194959
 20
-10330.17546122343
 11
2770.371822194959
 21
-10359.11428635277
 72
     1
 10
2770.371822194959
 20
-10359.11428635277
 11
2768.371822194959
 21
-10364.11428635277
 72
     1
 10
2768.371822194959
 20
-10364.11428635277
 11
2770.371822194959
 21
-10369.11428635277
 72
     1
 10
2770.371822194959
 20
-10369.11428635277
 11
2768.371822194959
 21
-10374.11428635277
 72
     1
 10
2768.371822194959
 20
-10374.11428635277
 11
2770.371822194959
 21
-10379.11428635277
 72
     1
 10
2770.371822194959
 20
-10379.11428635277
 11
2768.371822194959
 21
-10384.11428635277
 72
     1
 10
2768.371822194959
 20
-10384.11428635277
 11
2770.371822194959
 21
-10389.11428635277
 72
     1
 10
2770.371822194959
 20
-10389.11428635277
 11
2768.371822194959
 21
-10394.11428635277
 72
     1
 10
2768.371822194959
 20
-10394.11428635277
 11
2770.371822194959
 21
-10399.11428635277
 72
     1
 10
2770.371822194959
 20
-10399.11428635277
 11
2768.371822194959
 21
-10404.11428635277
 72
     1
 10
2768.371822194959
 20
-10404.11428635277
 11
2770.371822194959
 21
-10409.11428635277
 72
     1
 10
2770.371822194959
 20
-10409.11428635277
 11
2768.371822194959
 21
-10414.11428635277
 72
     1
 10
2768.371822194959
 20
-10414.11428635277
 11
2770.371822194959
 21
-10419.11428635277
 72
     1
 10
2770.371822194959
 20
-10419.11428635277
 11
2768.371822194959
 21
-10424.11428635277
 72
     1
 10
2768.371822194959
 20
-10424.11428635277
 11
2770.371822194959
 21
-10429.11428635277
 72
     1
 10
2770.371822194959
 20
-10429.11428635277
 11
2768.371822194959
 21
-10434.11428635277
 72
     1
 10
2768.371822194959
 20
-10434.11428635277
 11
2770.371822194959
 21
-10439.11428635277
 72
     1
 10
2770.371822194959
 20
-10439.11428635277
 11
2768.371822194959
 21
-10444.11428635277
 72
     1
 10
2768.371822194959
 20
-10444.11428635277
 11
2770.371822194959
 21
-10449.11428635277
 72
     1
 10
2770.371822194959
 20
-10449.11428635277
 11
2768.371822194959
 21
-10454.11428635277
 72
     1
 10
2768.371822194959
 20
-10454.11428635277
 11
2770.371822194959
 21
-10459.11428635277
 72
     1
 10
2770.371822194959
 20
-10459.11428635277
 11
2768.371822194959
 21
-10464.11428635277
 72
     1
 10
2768.371822194961
 20
-10464.11428592029
 11
2770.371822194959
 21
-10469.11428592029
 72
     1
 10
2770.371822194959
 20
-10469.11428592029
 11
2768.371822194961
 21
-10474.11428592029
 72
     1
 10
2768.371822194961
 20
-10474.11428592029
 11
2770.371822194959
 21
-10479.11428592029
 72
     1
 10
2770.371822194959
 20
-10479.11428592029
 11
2768.371822194961
 21
-10484.11428592029
 72
     1
 10
2768.371822194961
 20
-10484.11428592029
 11
2770.371822194959
 21
-10489.11428592029
 72
     1
 10
2770.371822194959
 20
-10489.11428592029
 11
2768.371822194961
 21
-10494.11428592029
 72
     1
 10
2768.371822194961
 20
-10494.11428592029
 11
2770.371822194959
 21
-10499.11428592029
 72
     1
 10
2770.371822194959
 20
-10499.11428592029
 11
2768.371822194961
 21
-10504.11428592029
 72
     1
 10
2768.371822194961
 20
-10504.11428592029
 11
2770.371822194959
 21
-10509.11428592029
 72
     1
 10
2770.371822194959
 20
-10509.11428592029
 11
2768.371822194961
 21
-10514.11428592029
 72
     1
 10
2768.371822194961
 20
-10514.11428592029
 11
2770.371822194959
 21
-10519.11428592029
 72
     1
 10
2770.371822194959
 20
-10519.11428592029
 11
2768.371822194961
 21
-10524.11428592029
 72
     1
 10
2768.371822194961
 20
-10524.11428592029
 11
2770.371822194959
 21
-10529.11428592029
 72
     1
 10
2770.371822194959
 20
-10529.11428592029
 11
2768.371822194961
 21
-10534.11428592029
 72
     1
 10
2768.371822194961
 20
-10534.11428592029
 11
2770.371822194959
 21
-10539.11428592029
 72
     1
 10
2770.371822194959
 20
-10539.11428592029
 11
2768.371822194961
 21
-10544.11428592029
 72
     1
 10
2768.371822194961
 20
-10544.11428592029
 11
2770.371822194959
 21
-10549.11428592029
 72
     1
 10
2770.371822194959
 20
-10549.11428592029
 11
2768.371822194961
 21
-10554.11428592029
 72
     1
 10
2768.371822194961
 20
-10554.11428592029
 11
2770.371822194959
 21
-10559.11428592029
 72
     1
 10
2770.371822194959
 20
-10559.11428592029
 11
2768.371822194961
 21
-10564.11428592029
 72
     1
 10
2768.371822194961
 20
-10564.11428592029
 11
2770.371822194959
 21
-10569.11428592029
 72
     1
 10
2770.371822194959
 20
-10569.11428592029
 11
2768.371822194961
 21
-10574.11428592029
 72
     1
 10
2768.371822194961
 20
-10574.11428592029
 11
2770.371822194959
 21
-10579.11428592029
 72
     1
 10
2770.371822194959
 20
-10579.11428592029
 11
2768.371822194961
 21
-10584.11428592029
 72
     1
 10
2768.371822194961
 20
-10584.11428592029
 11
2770.371822194959
 21
-10589.11428592029
 72
     1
 10
2770.371822194959
 20
-10589.11428592029
 11
2768.371822194961
 21
-10594.11428592029
 72
     1
 10
2768.371822194961
 20
-10594.11428592029
 11
2770.371822194959
 21
-10599.11428592029
 72
     1
 10
2770.371822194959
 20
-10599.11428592029
 11
2770.371822194959
 21
-10699.11428592029
 72
     1
 10
2770.371822194959
 20
-10699.11428592029
 11
2764.371822194959
 21
-10739.61428592029
 72
     1
 10
2764.371822194961
 20
-10739.61428592029
 11
2754.14509886104
 21
-10798.84405859798
 72
     2
 10
2739.363811526076
 20
-10796.2918938798
 40
15.0
 50
9.796209911734902
 51
79.38034350102888
 73
     0
 72
     1
 10
2742.128139866464
 20
-10811.03497662475
 11
2736.371822194472
 21
-10812.11428631542
 72
     1
 10
2736.371822194965
 20
-10812.11428631531
 11
2721.37182219497
 21
-10812.11428631531
 72
     1
 10
2721.37182219497
 20
-10812.11428631531
 11
2701.371822194963
 21
-10816.11428631531
 72
     1
 10
2701.371822194963
 20
-10816.11428631531
 11
2701.371822194963
 21
-10819.11428634721
 72
     1
 10
2701.371822194963
 20
-10819.11428591472
 11
2767.871822194961
 21
-10819.11428595905
 72
     1
 10
2767.871822194961
 20
-10819.11428592029
 11
2767.871822194961
 21
-10809.11428592029
 97
        0
 92
        0
 93
       14
 72
     2
 10
2765.292510180513
 20
-10326.11428635277
 40
3.0
 50
42.51044707799444
 51
90.0
 73
     1
 72
     1
 10
2765.292510180513
 20
-10323.11428635277
 11
2755.371822194963
 21
-10323.11428635277
 72
     2
 10
2755.371822194963
 20
-10320.11428635277
 40
3.0
 50
90.0
 51
180.0
 73
     0
 72
     1
 10
2752.371822194963
 20
-10320.11428635277
 11
2752.371822194963
 21
-10319.11428635277
 72
     1
 10
2752.371822194963
 20
-10319.11428635277
 11
2751.371822194963
 21
-10319.11428635277
 72
     1
 10
2751.371822194963
 20
-10319.11428635277
 11
2751.371822194963
 21
-10325.11428635277
 72
     1
 10
2751.371822194963
 20
-10325.11428635277
 11
2764.41270674783
 21
-10325.11428635277
 72
     2
 10
2764.41270674783
 20
-10328.11428635277
 40
3.0
 50
270.0
 51
317.4895529220055
 73
     0
 72
     1
 10
2766.624169168433
 20
-10326.08711246722
 11
2769.58328461556
 21
-10329.31523840954
 72
     2
 10
2767.371822194959
 20
-10331.34241229509
 40
3.0
 50
317.4895529219821
 51
360.0
 73
     0
 72
     1
 10
2770.371822194959
 20
-10331.34241229509
 11
2770.371822194959
 21
-10330.11428635278
 72
     1
 10
2770.371822194959
 20
-10330.11428635278
 11
2770.371822194959
 21
-10328.38262673217
 72
     2
 10
2767.371822194959
 20
-10328.38262673217
 40
3.0
 50
0.0
 51
42.51044707801792
 73
     1
 72
     1
 10
2769.58328461556
 20
-10326.35545284662
 11
2767.503972601115
 21
-10324.08711246722
 97
        0
 92
        0
 93
        5
 72
     1
 10
2741.371822194963
 20
-10319.11428635277
 11
2736.371822194963
 21
-10319.11428635277
 72
     1
 10
2736.371822194963
 20
-10319.11428635277
 11
2736.371822194963
 21
-10322.11428635277
 72
     2
 10
2739.371822194963
 20
-10322.11428635277
 40
3.0
 50
180.0
 51
270.0
 73
     1
 72
     1
 10
2739.371822194963
 20
-10325.11428635277
 11
2741.371822194466
 21
-10325.11428635277
 72
     1
 10
2741.371822194959
 20
-10325.11428635277
 11
2741.371822194963
 21
-10319.11428635277
 97
        0
 75
     0
 76
     0
 52
315.0
 41
3.0
 77
     0
 78
     1
 53
315.0
 43
0.0
 44
0.0
 45
2.121320343559643
 46
2.121320343559642
 79
     0
 98
        1
 10
0.0
 20
0.0
  0
DIMENSION
  5
288
330
1F
100
AcDbEntity
  8
1
  6
ByBlock
 62
     1
100
AcDbDimension
  2
_D2
 10
2671.371822194963
 20
-10743.11428592029
 30
0.0
 11
2663.121822194963
 21
-10781.11428613375
 31
0.0
 70
   160
 71
     5
 42
-1.0
 52
90.0
  3
DIMSTYEX_2
100
AcDbAlignedDimension
 13
2701.371822194963
 23
-10819.11428634721
 33
0.0
 14
2767.871822194961
 24
-10743.11428592029
 34
0.0
 50
90.0
100
AcDbRotatedDimension
1001
ACAD
1000
DSTYLE
1002
{
1070
   343
1005
88
1070
   344
1005
88
1070
   173
1070
     1
1070
   272
1070
     3
1070
   340
1005
83
1070
   140
1040
3.136
1002
}
  0
DIMENSION
  5
295
330
1F
100
AcDbEntity
  8
1
  6
ByBlock
 62
     1
100
AcDbDimension
  2
_D3
 10
2641.371822194963
 20
-10451.11428635277
 30
0.0
 11
2633.121822194963
 21
-10635.11428634999
 31
0.0
 70
   160
 71
     5
 42
-1.0
 52
90.0
  3
DIMSTYEX_2
100
AcDbAlignedDimension
 13
2701.371822194963
 23
-10819.11428634721
 33
0.0
 14
2718.371822194963
 24
-10451.11428635277
 34
0.0
 50
90.0
100
AcDbRotatedDimension
1001
ACAD
1000
DSTYLE
1002
{
1070
   343
1005
88
1070
   344
1005
88
1070
   173
1070
     1
1070
   272
1070
     3
1070
   340
1005
83
1070
   140
1040
3.136
1002
}
  0
DIMENSION
  5
2A2
330
1F
100
AcDbEntity
  8
1
  6
ByBlock
 62
     1
100
AcDbDimension
  2
_D4
 10
2611.371822194963
 20
-10319.11428635277
 30
0.0
 11
2603.121822194963
 21
-10569.11428634999
 31
0.0
 70
   160
 71
     5
 42
-1.0
 52
90.0
  3
DIMSTYEX_2
100
AcDbAlignedDimension
 13
2701.371822194963
 23
-10819.11428634721
 33
0.0
 14
2736.371822194963
 24
-10319.11428635277
 34
0.0
 50
90.0
100
AcDbRotatedDimension
1001
ACAD
1000
DSTYLE
1002
{
1070
   343
1005
88
1070
   344
1005
88
1070
   173
1070
     1
1070
   272
1070
     3
1070
   340
1005
83
1070
   140
1040
3.136
1002
}
  0
DIMENSION
  5
2AF
330
1F
100
AcDbEntity
  8
1
  6
ByBlock
 62
     1
100
AcDbDimension
  2
_D5
 10
2578.371822194963
 20
-10265.11428635277
 30
0.0
 11
2570.121822194963
 21
-10542.11428634999
 31
0.0
 70
   160
 71
     5
 42
-1.0
 52
90.0
  3
DIMSTYEX_2
100
AcDbAlignedDimension
 13
2701.371822194963
 23
-10819.11428634721
 33
0.0
 14
2761.371822194962
 24
-10265.11428635277
 34
0.0
 50
90.0
100
AcDbRotatedDimension
1001
ACAD
1000
DSTYLE
1002
{
1070
   343
1005
88
1070
   344
1005
88
1070
   173
1070
     1
1070
   272
1070
     3
1070
   340
1005
83
1070
   140
1040
3.136
1002
}
  0
DIMENSION
  5
2BC
330
1F
100
AcDbEntity
  8
1
  6
ByBlock
 62
     1
100
AcDbDimension
  2
_D6
 10
2923.871822194963
 20
-10235.11428635277
 30
0.0
 11
2826.371822194963
 21
-10226.86428635277
 31
0.0
 70
   160
  1
Ａ
 71
     5
 42
-1.0
 52
90.0
  3
DIMSTYEX_2
100
AcDbAlignedDimension
 13
2728.871822194963
 23
-10310.11428635277
 33
0.0
 14
2923.871822194963
 24
-10310.11428635277
 34
0.0
100
AcDbRotatedDimension
1001
ACAD
1000
DSTYLE
1002
{
1070
   343
1005
88
1070
   344
1005
88
1070
   173
1070
     1
1070
   272
1070
     3
1070
   340
1005
83
1070
   140
1040
3.136
1002
}
  0
DIMENSION
  5
2C8
330
1F
100
AcDbEntity
  8
1
  6
ByBlock
 62
     1
100
AcDbDimension
  2
_D7
 10
2926.371822194963
 20
-10899.11428595899
 30
0.0
 11
2826.371822194963
 21
-10890.86428595899
 31
0.0
 70
   160
  1
Ｃ
 71
     5
 42
-1.0
 52
90.0
  3
DIMSTYEX_3
100
AcDbAlignedDimension
 13
2726.371822194963
 23
-10863.86845632343
 33
0.0
 14
2926.371822194963
 24
-10866.5189882964
 34
0.0
 50
180.0
100
AcDbRotatedDimension
1001
ACAD
1000
DSTYLE
1002
{
1070
   343
1005
AE
1070
   344
1005
88
1070
   173
1070
     1
1070
   281
1070
     1
1070
    75
1070
     1
1070
    77
1070
     1
1070
   272
1070
     3
1070
   340
1005
83
1070
   140
1040
3.136
1002
}
  0
INSERT
  5
2CF
330
1F
100
AcDbEntity
  8
1
  6
ByBlock
 62
     1
100
AcDbBlockReference
  2
BALN0
 10
2770.371822194959
 20
-10599.11428592029
 30
0.0
  0
DIMENSION
  5
2DA
330
1F
100
AcDbEntity
  8
1
  6
ByBlock
 62
     1
100
AcDbDimension
  2
_D8
 10
2773.871822194959
 20
-10629.11428592029
 30
0.0
 11
2826.371822194963
 21
-10620.86428592029
 31
0.0
 70
   160
  1
ｄ
 71
     5
 42
-1.0
 52
90.0
  3
DIMSTYEX_3
100
AcDbAlignedDimension
 13
2878.871822194966
 23
-10599.11428592029
 33
0.0
 14
2773.871822194959
 24
-10599.11428592029
 34
0.0
100
AcDbRotatedDimension
1001
ACAD
1000
DSTYLE
1002
{
1070
   343
1005
AE
1070
   344
1005
88
1070
   173
1070
     1
1070
   281
1070
     1
1070
    75
1070
     1
1070
    77
1070
     1
1070
   272
1070
     3
1070
   340
1005
83
1070
   140
1040
3.136
1002
}
  0
DIMENSION
  5
2EA
330
1F
100
AcDbEntity
  8
1
  6
ByBlock
 62
     1
100
AcDbDimension
  2
_D9
 10
2773.871822194959
 20
-10680.11428591472
 30
0.0
 11
2761.371822195014
 21
-10677.11428591472
 31
0.0
 70
   160
  1
ｔ
 71
     5
 42
-1.0
 52
90.0
  3
DIMSTYEX_4
100
AcDbAlignedDimension
 13
2770.371822195014
 23
-10689.11428591472
 33
0.0
 14
2773.871822194959
 24
-10689.11428591472
 34
0.0
100
AcDbRotatedDimension
1001
ACAD
1000
DSTYLE
1002
{
1070
   343
1005
88
1070
   344
1005
88
1070
    43
1040
3.0
1070
   147
1040
2.0
1070
   173
1070
     1
1070
   272
1070
     3
1070
   340
1005
83
1070
   140
1040
3.136
1002
}
  0
DIMENSION
  5
2F7
330
1F
100
AcDbEntity
  8
1
  6
ByBlock
 62
     1
100
AcDbDimension
  2
_D10
 10
2804.871822190951
 20
-10309.11428635277
 30
0.0
 11
2796.621822190951
 21
-10287.11428635277
 31
0.0
 70
   160
 71
     5
 42
-1.0
 52
90.0
  3
DIMSTYEX_2
100
AcDbAlignedDimension
 13
2767.871822194963
 23
-10265.11428635277
 33
0.0
 14
2774.871822194962
 24
-10309.11428635277
 34
0.0
 50
-90.0
100
AcDbRotatedDimension
1001
ACAD
1000
DSTYLE
1002
{
1070
   343
1005
88
1070
   344
1005
88
1070
   173
1070
     1
1070
   272
1070
     3
1070
   340
1005
83
1070
   140
1040
3.136
1002
}
  0
LINE
  5
2F8
330
1F
100
AcDbEntity
  8
1
  6
Continuous
 62
     7
100
AcDbLine
 10
2773.871822194963
 20
-10316.11428635277
 30
0.0
 11
2778.871822194963
 21
-10321.11428635277
 31
0.0
  0
LINE
  5
2F9
330
1F
100
AcDbEntity
  8
1
  6
Continuous
 62
     7
100
AcDbLine
 10
2778.871822194963
 20
-10321.11428635277
 30
0.0
 11
2781.871822194963
 21
-10321.11428635277
 31
0.0
  0
LINE
  5
2FA
330
1F
100
AcDbEntity
  8
1
  6
Continuous
 62
     7
100
AcDbLine
 10
2781.871822194962
 20
-10321.11428635277
 30
0.0
 11
2776.871822194963
 21
-10309.11428635277
 31
0.0
  0
HATCH
  5
2FB
330
1F
100
AcDbEntity
  8
1
  6
Continuous
 62
     7
100
AcDbHatch
 10
0.0
 20
0.0
 30
0.0
210
0.0
220
0.0
230
1.0
  2
_U
 70
     0
 71
     0
 91
        1
 92
        0
 93
        6
 72
     1
 10
2776.871822194963
 20
-10309.11428635277
 11
2774.855623071189
 21
-10309.11428635277
 72
     1
 10
2774.855623071189
 20
-10309.11428635277
 11
2774.855623071192
 21
-10316.11428635277
 72
     1
 10
2774.855623071192
 20
-10316.11428635277
 11
2773.871822194963
 21
-10316.11428635277
 72
     1
 10
2773.871822194963
 20
-10316.11428635277
 11
2778.871822194963
 21
-10321.11428635277
 72
     1
 10
2778.871822194963
 20
-10321.11428635277
 11
2781.871822194963
 21
-10321.11428635277
 72
     1
 10
2781.871822194962
 20
-10321.11428635277
 11
2776.871822194963
 21
-10309.11428635277
 97
        0
 75
     0
 76
     0
 52
45.0
 41
3.0
 77
     0
 78
     1
 53
45.0
 43
0.0
 44
0.0
 45
-2.121320343559643
 46
2.121320343559643
 79
     0
 98
        1
 10
0.0
 20
0.0
  0
LINE
  5
2FC
330
1F
100
AcDbEntity
  8
1
  6
Continuous
 62
     7
100
AcDbLine
 10
2882.371822194965
 20
-10699.11428592029
 30
0.0
 11
2826.371822194963
 21
-10699.11428592029
 31
0.0
  0
LINE
  5
2FD
330
1F
100
AcDbEntity
  8
1
  6
Continuous
 62
     7
100
AcDbLine
 10
2781.871822194963
 20
-10321.11428635277
 30
0.0
 11
2826.371822194963
 21
-10321.11428635277
 31
0.0
  0
LINE
  5
2FE
330
1F
100
AcDbEntity
  8
1
  6
Continuous
 62
     7
100
AcDbLine
 10
2783.371822194959
 20
-10738.11428592029
 30
0.0
 11
2826.371822194963
 21
-10738.11428592029
 31
0.0
  0
LINE
  5
2FF
330
1F
100
AcDbEntity
  8
1
  6
Continuous
 62
     7
100
AcDbLine
 10
2783.371822194959
 20
-10761.11428592029
 30
0.0
 11
2826.371822194963
 21
-10761.11428592029
 31
0.0
  0
LINE
  5
300
330
1F
100
AcDbEntity
  8
1
  6
Continuous
 62
     7
100
AcDbLine
 10
2559.712182067821
 20
-10969.64799353116
 30
0.0
 11
3159.712181660032
 21
-10969.64799353116
 31
0.0
  0
LINE
  5
301
330
1F
100
AcDbEntity
  8
1
  6
Continuous
 62
     7
100
AcDbLine
 10
3159.712181660032
 20
-10990.64799353117
 30
0.0
 11
2559.712182067821
 21
-10990.64799353116
 31
0.0
  0
MTEXT
  5
303
330
1F
100
AcDbEntity
  8
1
  6
Continuous
 62
     7
100
AcDbMText
 10
2694.412182067821
 20
-10990.64799353116
 30
0.0
 40
12.0
 41
0.0
 71
     7
 72
     5
  1
呼　び
  7
MTSTANDARD3
 73
     1
 44
0.8125
  0
MTEXT
  5
304
330
1F
100
AcDbEntity
  8
1
  6
Continuous
 62
     7
100
AcDbMText
 10
3005.212182067821
 20
-10990.64799353116
 30
0.0
 40
12.0
 41
0.0
 71
     7
 72
     5
  1
ｔ
  7
MTSTANDARD3
 73
     1
 44
0.8125
  0
MTEXT
  5
305
330
1F
100
AcDbEntity
  8
1
  6
Continuous
 62
     7
100
AcDbMText
 10
2600.664337808014
 20
-10990.64799353116
 30
0.0
 40
12.0
 41
0.0
 71
     7
 72
     5
  1
符　　号
  7
MTSTANDARD3
 73
     1
 44
0.8125
  0
MTEXT
  5
306
330
1F
100
AcDbEntity
  8
1
  6
Continuous
 62
     7
100
AcDbMText
 10
2694.412181861963
 20
-11032.64799353115
 30
0.0
 40
12.0
 41
0.0
 71
     7
 72
     5
  1
１００
  7
MTSTANDARD3
 73
     1
 44
0.8125
  0
MTEXT
  5
307
330
1F
100
AcDbEntity
  8
1
  6
Continuous
 62
     7
100
AcDbMText
 10
2694.412181861963
 20
-11011.64799353115
 30
0.0
 40
12.0
 41
0.0
 71
     7
 72
     5
  1
　８０
  7
MTSTANDARD3
 73
     1
 44
0.8125
  0
LINE
  5
308
330
1F
100
AcDbEntity
  8
1
  6
Continuous
 62
     7
100
AcDbLine
 10
2679.712181861963
 20
-11011.64799353115
 30
0.0
 11
3159.712181454175
 21
-11011.64799353115
 31
0.0
  0
LINE
  5
309
330
1F
100
AcDbEntity
  8
1
  6
Continuous
 62
     7
100
AcDbLine
 10
3159.712181454175
 20
-11032.64799353115
 30
0.0
 11
2679.712181861963
 21
-11032.64799353115
 31
0.0
  0
MTEXT
  5
30A
330
1F
100
AcDbEntity
  8
1
  6
Continuous
 62
     7
100
AcDbMText
 10
2694.412181861963
 20
-11053.64799353111
 30
0.0
 40
12.0
 41
0.0
 71
     7
 72
     5
  1
１２５
  7
MTSTANDARD3
 73
     1
 44
0.8125
  0
LINE
  5
30B
330
1F
100
AcDbEntity
  8
1
  6
Continuous
 62
     7
100
AcDbLine
 10
2559.712181861965
 20
-11053.64799353117
 30
0.0
 11
3159.712181454175
 21
-11053.64799353122
 31
0.0
  0
LINE
  5
30C
330
1F
100
AcDbEntity
  8
1
  6
Continuous
 62
     7
100
AcDbLine
 10
2679.712181861963
 20
-11053.6479935315
 30
0.0
 11
2679.712181861963
 21
-10969.64799353116
 31
0.0
  0
LINE
  5
30D
330
1F
100
AcDbEntity
  8
1
  6
Continuous
 62
     7
100
AcDbLine
 10
2799.712181861963
 20
-11053.6479935315
 30
0.0
 11
2799.712181861963
 21
-10969.64799353116
 31
0.0
  0
LINE
  5
30E
330
1F
100
AcDbEntity
  8
1
  6
Continuous
 62
     7
100
AcDbLine
 10
2859.712181861963
 20
-11053.6479935315
 30
0.0
 11
2859.712181861963
 21
-10969.64799353116
 31
0.0
  0
LINE
  5
30F
330
1F
100
AcDbEntity
  8
1
  6
Continuous
 62
     7
100
AcDbLine
 10
2919.712181861963
 20
-11053.6479935315
 30
0.0
 11
2919.712181861963
 21
-10969.64799353116
 31
0.0
  0
LINE
  5
310
330
1F
100
AcDbEntity
  8
1
  6
Continuous
 62
     7
100
AcDbLine
 10
2979.712181863919
 20
-11053.6479935315
 30
0.0
 11
2979.712181862355
 21
-10969.64799353116
 31
0.0
  0
LINE
  5
311
330
1F
100
AcDbEntity
  8
1
  6
Continuous
 62
     7
100
AcDbLine
 10
3039.712181863919
 20
-11053.6479935315
 30
0.0
 11
3039.712181862355
 21
-10969.64799353116
 31
0.0
  0
MTEXT
  5
312
330
1F
100
AcDbEntity
  8
1
  6
Continuous
 62
     7
100
AcDbMText
 10
2599.012181861965
 20
-11028.14799353117
 30
0.0
 40
12.0
 41
0.0
 71
     7
 72
     5
  1
ＷＳＫ３
  7
MTSTANDARD3
 73
     1
 44
0.8125
  0
LINE
  5
313
330
1F
100
AcDbEntity
  8
1
  6
Continuous
 62
     7
100
AcDbLine
 10
2559.712181861964
 20
-10969.64799353116
 30
0.0
 11
2559.712181861965
 21
-11053.64799353117
 31
0.0
  0
MTEXT
  5
314
330
1F
100
AcDbEntity
  8
1
  6
Continuous
 62
     7
100
AcDbMText
 10
2765.212182067821
 20
-10990.64799353116
 30
0.0
 40
12.0
 41
0.0
 71
     7
 72
     5
  1
ｄ
  7
MTSTANDARD3
 73
     1
 44
0.8125
  0
MTEXT
  5
315
330
1F
100
AcDbEntity
  8
1
  6
Continuous
 62
     7
100
AcDbMText
 10
2754.412181861963
 20
-11032.64799353115
 30
0.0
 40
12.0
 41
0.0
 71
     7
 72
     5
  1
１０５
  7
MTSTANDARD3
 73
     1
 44
0.8125
  0
MTEXT
  5
316
330
1F
100
AcDbEntity
  8
1
  6
Continuous
 62
     7
100
AcDbMText
 10
2754.412181861963
 20
-11011.64799353115
 30
0.0
 40
12.0
 41
0.0
 71
     7
 72
     5
  1
　８１
  7
MTSTANDARD3
 73
     1
 44
0.8125
  0
MTEXT
  5
317
330
1F
100
AcDbEntity
  8
1
  6
Continuous
 62
     7
100
AcDbMText
 10
2754.412181861963
 20
-11053.64799353111
 30
0.0
 40
12.0
 41
0.0
 71
     7
 72
     5
  1
１３１
  7
MTSTANDARD3
 73
     1
 44
0.8125
  0
LINE
  5
318
330
1F
100
AcDbEntity
  8
1
  6
Continuous
 62
     7
100
AcDbLine
 10
2739.712181861963
 20
-11053.6479935315
 30
0.0
 11
2739.712181861963
 21
-10969.64799353116
 31
0.0
  0
MTEXT
  5
319
330
1F
100
AcDbEntity
  8
1
  6
Continuous
 62
     7
100
AcDbMText
 10
2825.212182067821
 20
-10990.64799353116
 30
0.0
 40
12.0
 41
0.0
 71
     7
 72
     5
  1
Ａ
  7
MTSTANDARD3
 73
     1
 44
0.8125
  0
MTEXT
  5
31A
330
1F
100
AcDbEntity
  8
1
  6
Continuous
 62
     7
100
AcDbMText
 10
2885.212182067821
 20
-10990.64799353116
 30
0.0
 40
12.0
 41
0.0
 71
     7
 72
     5
  1
Ｂ
  7
MTSTANDARD3
 73
     1
 44
0.8125
  0
MTEXT
  5
31B
330
1F
100
AcDbEntity
  8
1
  6
Continuous
 62
     7
100
AcDbMText
 10
2945.212182067821
 20
-10990.64799353116
 30
0.0
 40
12.0
 41
0.0
 71
     7
 72
     5
  1
Ｃ
  7
MTSTANDARD3
 73
     1
 44
0.8125
  0
MTEXT
  5
31C
330
1F
100
AcDbEntity
  8
1
  6
Continuous
 62
     7
100
AcDbMText
 10
2814.412181861963
 20
-11011.64799353115
 30
0.0
 40
12.0
 41
0.0
 71
     7
 72
     5
  1
１７０
  7
MTSTANDARD3
 73
     1
 44
0.8125
  0
MTEXT
  5
31D
330
1F
100
AcDbEntity
  8
1
  6
Continuous
 62
     7
100
AcDbMText
 10
2814.412181861963
 20
-11032.64799353115
 30
0.0
 40
12.0
 41
0.0
 71
     7
 72
     5
  1
１９５
  7
MTSTANDARD3
 73
     1
 44
0.8125
  0
MTEXT
  5
31E
330
1F
100
AcDbEntity
  8
1
  6
Continuous
 62
     7
100
AcDbMText
 10
2874.412181861963
 20
-11011.64799353115
 30
0.0
 40
12.0
 41
0.0
 71
     7
 72
     5
  1
２３０
  7
MTSTANDARD3
 73
     1
 44
0.8125
  0
MTEXT
  5
31F
330
1F
100
AcDbEntity
  8
1
  6
Continuous
 62
     7
100
AcDbMText
 10
2874.412181861963
 20
-11032.64799353115
 30
0.0
 40
12.0
 41
0.0
 71
     7
 72
     5
  1
２５０
  7
MTSTANDARD3
 73
     1
 44
0.8125
  0
MTEXT
  5
320
330
1F
100
AcDbEntity
  8
1
  6
Continuous
 62
     7
100
AcDbMText
 10
2814.412181861963
 20
-11053.64799353111
 30
0.0
 40
12.0
 41
0.0
 71
     7
 72
     5
  1
２２２
  7
MTSTANDARD3
 73
     1
 44
0.8125
  0
MTEXT
  5
321
330
1F
100
AcDbEntity
  8
1
  6
Continuous
 62
     7
100
AcDbMText
 10
2874.412181861963
 20
-11053.64799353111
 30
0.0
 40
12.0
 41
0.0
 71
     7
 72
     5
  1
２８０
  7
MTSTANDARD3
 73
     1
 44
0.8125
  0
MTEXT
  5
322
330
1F
100
AcDbEntity
  8
1
  6
Continuous
 62
     7
100
AcDbMText
 10
2934.412181861962
 20
-11011.64799353115
 30
0.0
 40
12.0
 41
0.0
 71
     7
 72
     5
  1
１８０
  7
MTSTANDARD3
 73
     1
 44
0.8125
  0
MTEXT
  5
323
330
1F
100
AcDbEntity
  8
1
  6
Continuous
 62
     7
100
AcDbMText
 10
2934.412181861962
 20
-11032.64799353115
 30
0.0
 40
12.0
 41
0.0
 71
     7
 72
     5
  1
２００
  7
MTSTANDARD3
 73
     1
 44
0.8125
  0
MTEXT
  5
324
330
1F
100
AcDbEntity
  8
1
  6
Continuous
 62
     7
100
AcDbMText
 10
2934.412181861962
 20
-11053.64799353111
 30
0.0
 40
12.0
 41
0.0
 71
     7
 72
     5
  1
２３０
  7
MTSTANDARD3
 73
     1
 44
0.8125
  0
MTEXT
  5
326
330
1F
100
AcDbEntity
  8
1
  6
Continuous
 62
     7
100
AcDbMText
 10
3019.371200992653
 20
-10682.21316147563
 30
0.0
 40
12.0
 41
0.0
 71
     7
 72
     5
  1
{\fＭＳ 明朝|b0|i0|c128|p17;\W1.0;・防水層４５０ｍｍの高さまで\P　巻き上げが可能です。\P・養生シール付きです。\P・保護モルタルが厚い場合\P　（１００ｍｍ以上）に最適です。\P・通気管の立ち上げは\P　コンクリートスラブ上６５ｍｍが\P　適当です。}
  7
MTSTANDARD4
 73
     1
 44
0.8125
  0
MTEXT
  5
327
330
1F
100
AcDbEntity
  8
1
  6
Continuous
 62
     7
100
AcDbMText
 10
2926.560062178783
 20
-11153.02413733976
 30
0.0
 40
10.5
 41
0.0
 71
     7
 72
     5
  1
{\fＭＳ 明朝|b0|i0|c128|p17;\W1.0;査}
  7
MTSTANDARD2
 73
     1
 44
0.8392857142857144
  0
MTEXT
  5
328
330
1F
100
AcDbEntity
  8
1
  6
Continuous
 62
     7
100
AcDbMText
 10
2992.560047178782
 20
-11153.02413733976
 30
0.0
 40
10.5
 41
0.0
 71
     7
 72
     5
  1
{\fＭＳ 明朝|b0|i0|c128|p17;\W1.0;認}
  7
MTSTANDARD2
 73
     1
 44
0.8392857142857144
  0
MTEXT
  5
329
330
1F
100
AcDbEntity
  8
1
  6
Continuous
 62
     7
100
AcDbMText
 10
2992.560047178782
 20
-11141.02414933976
 30
0.0
 40
10.5
 41
0.0
 71
     7
 72
     5
  1
{\fＭＳ 明朝|b0|i0|c128|p17;\W1.0;承}
  7
MTSTANDARD2
 73
     1
 44
0.8392857142857144
  0
MTEXT
  5
32A
330
1F
100
AcDbEntity
  8
1
  6
Continuous
 62
     7
100
AcDbMText
 10
2860.560077178783
 20
-11141.02414933976
 30
0.0
 40
10.5
 41
0.0
 71
     7
 72
     5
  1
{\fＭＳ 明朝|b0|i0|c128|p17;\W1.0;設}
  7
MTSTANDARD2
 73
     1
 44
0.8392857142857144
  0
MTEXT
  5
32B
330
1F
100
AcDbEntity
  8
1
  6
Continuous
 62
     7
100
AcDbMText
 10
2860.560077178783
 20
-11153.02413733976
 30
0.0
 40
10.5
 41
0.0
 71
     7
 72
     5
  1
{\fＭＳ 明朝|b0|i0|c128|p17;\W1.0;計}
  7
MTSTANDARD2
 73
     1
 44
0.8392857142857144
  0
MTEXT
  5
32C
330
1F
100
AcDbEntity
  8
1
  6
Continuous
 62
     7
100
AcDbMText
 10
2926.560062178783
 20
-11141.02414933976
 30
0.0
 40
10.5
 41
0.0
 71
     7
 72
     5
  1
{\fＭＳ 明朝|b0|i0|c128|p17;\W1.0;照}
  7
MTSTANDARD2
 73
     1
 44
0.8392857142857144
  0
INSERT
  5
337
330
1F
100
AcDbEntity
  8
1
  6
Continuous
 62
     0
100
AcDbBlockReference
  2
BLK0
 10
2898.849953666381
 20
-11141.62160364097
 30
0.0
  0
INSERT
  5
340
330
1F
100
AcDbEntity
  8
1
  6
Continuous
 62
     0
100
AcDbBlockReference
  2
BLK1
 10
2965.455336473077
 20
-11141.62160364097
 30
0.0
  0
INSERT
  5
349
330
1F
100
AcDbEntity
  8
1
  6
Continuous
 62
     0
100
AcDbBlockReference
  2
BLK2
 10
3030.754731381601
 20
-11141.62160364097
 30
0.0
  0
MTEXT
  5
34A
330
1F
100
AcDbEntity
  8
1
  6
Continuous
 62
     7
100
AcDbMText
 10
2946.705336473075
 20
-11145.37160364097
 30
0.0
 40
7.5
 41
0.0
 71
     7
 72
     5
  1
{\fＭＳ 明朝|b0|i0|c128|p17;\W1.0;2007.02.14}
  7
MTSTANDARD5
 73
     1
 44
0.875
  0
MTEXT
  5
34B
330
1F
100
AcDbEntity
  8
1
  6
Continuous
 62
     7
100
AcDbMText
 10
3012.004731381601
 20
-11145.37160364097
 30
0.0
 40
7.5
 41
0.0
 71
     7
 72
     5
  1
{\fＭＳ 明朝|b0|i0|c128|p17;\W1.0;2007.02.14}
  7
MTSTANDARD5
 73
     1
 44
0.875
  0
LINE
  5
34C
330
1F
100
AcDbEntity
  8
1
  6
Continuous
 62
     7
100
AcDbLine
 10
2728.371822194962
 20
-10144.02272464154
 30
0.0
 11
2728.371822194963
 21
-10155.0227246413
 31
0.0
  0
LINE
  5
34D
330
1F
100
AcDbEntity
  8
1
  6
Continuous
 62
     7
100
AcDbLine
 10
2728.371822194963
 20
-10155.0227246413
 30
0.0
 11
2761.121822194964
 21
-10155.0227246413
 31
0.0
  0
LINE
  5
34E
330
1F
100
AcDbEntity
  8
1
  6
Continuous
 62
     7
100
AcDbLine
 10
2826.371822194963
 20
-10155.0227246413
 30
0.0
 11
2924.371822194963
 21
-10155.0227246413
 31
0.0
  0
LINE
  5
34F
330
1F
100
AcDbEntity
  8
1
  6
Continuous
 62
     7
100
AcDbLine
 10
2924.371822194963
 20
-10155.0227246413
 30
0.0
 11
2924.371822194963
 21
-10144.02272464131
 31
0.0
  0
LINE
  5
350
330
1F
100
AcDbEntity
  8
1
  6
Continuous
 62
     7
100
AcDbLine
 10
2801.871822194963
 20
-10089.5227246413
 30
0.0
 11
2804.871822194963
 21
-10089.5227246413
 31
0.0
  0
LINE
  5
351
330
1F
100
AcDbEntity
  8
1
  6
Continuous
 62
     7
100
AcDbLine
 10
2804.871822194963
 20
-10089.5227246413
 30
0.0
 11
2805.371822194963
 21
-10091.5227246413
 31
0.0
  0
LINE
  5
352
330
1F
100
AcDbEntity
  8
1
  6
Continuous
 62
     7
100
AcDbLine
 10
2805.371822194963
 20
-10091.5227246413
 30
0.0
 11
2826.371822194963
 21
-10091.5227246413
 31
0.0
  0
LINE
  5
353
330
1F
100
AcDbEntity
  8
1
  6
Continuous
 62
     7
100
AcDbLine
 10
2760.371822194966
 20
-10144.02272464131
 30
0.0
 11
2923.108666702573
 21
-10144.02272464131
 31
0.0
  0
LINE
  5
354
330
1F
100
AcDbEntity
  8
1
  6
Continuous
 62
     7
100
AcDbLine
 10
2923.108666702573
 20
-10144.02272464131
 30
0.0
 11
2924.371822194963
 21
-10144.02272464131
 31
0.0
  0
LINE
  5
355
330
1F
100
AcDbEntity
  8
1
  6
Continuous
 62
     7
100
AcDbLine
 10
2761.371822194963
 20
-10166.02272464129
 30
0.0
 11
2760.371822194966
 21
-10144.02272464131
 31
0.0
  0
LINE
  5
356
330
1F
100
AcDbEntity
  8
1
  6
Continuous
 62
     7
100
AcDbLine
 10
2771.371822194963
 20
-10144.02272464131
 30
0.0
 11
2772.293909151485
 21
-10144.94481159783
 31
0.0
  0
LINE
  5
357
330
1F
100
AcDbEntity
  8
1
  6
Continuous
 62
     7
100
AcDbLine
 10
2728.371822194962
 20
-10144.02272464154
 30
0.0
 11
2729.41329955323
 21
-10144.02272464154
 31
0.0
  0
LINE
  5
358
330
1F
100
AcDbEntity
  8
1
  6
Continuous
 62
     7
100
AcDbLine
 10
2801.871822194963
 20
-10089.5227246413
 30
0.0
 11
2801.371822194963
 21
-10092.03271741745
 31
0.0
  0
LINE
  5
359
330
1F
100
AcDbEntity
  8
1
  6
Continuous
 62
     7
100
AcDbLine
 10
2794.434288556633
 20
-10096.5227246413
 30
0.0
 11
2826.371822194963
 21
-10096.5227246413
 31
0.0
  0
LINE
  5
35A
330
1F
100
AcDbEntity
  8
1
  6
Continuous
 62
     7
100
AcDbLine
 10
2735.371822194964
 20
-10155.02272464123
 30
0.0
 11
2736.871822194964
 21
-10140.02272464123
 31
0.0
  0
ARC
  5
35B
330
1F
100
AcDbEntity
  8
1
  6
Continuous
 62
     7
100
AcDbCircle
 10
2794.934288556616
 20
-10157.0227246413
 30
0.0
 40
60.5
100
AcDbArc
 50
90.0
 51
163.6805965063955
  0
POINT
  5
35C
330
1F
100
AcDbEntity
  8
1
  6
Continuous
 62
     7
100
AcDbPoint
 10
2794.934288556616
 20
-10157.0227246413
 30
0.0
  0
ARC
  5
35D
330
1F
100
AcDbEntity
  8
1
  6
Continuous
 62
     7
100
AcDbCircle
 10
2794.934288556616
 20
-10157.0227246413
 30
0.0
 40
65.0
100
AcDbArc
 50
89.77256420719858
 51
167.0629380207393
  0
LINE
  5
35E
330
1F
100
AcDbEntity
  8
1
  6
Continuous
 62
     7
100
AcDbLine
 10
2801.371822194963
 20
-10092.03271741745
 30
0.0
 11
2794.676271511828
 21
-10092.02323674174
 31
0.0
  0
LINE
  5
35F
330
1F
100
AcDbEntity
  8
1
  6
Continuous
 62
     7
100
AcDbLine
 10
2850.871822194965
 20
-10089.5227246413
 30
0.0
 11
2847.871822194965
 21
-10089.5227246413
 31
0.0
  0
LINE
  5
360
330
1F
100
AcDbEntity
  8
1
  6
Continuous
 62
     7
100
AcDbLine
 10
2850.871822194965
 20
-10089.5227246413
 30
0.0
 11
2851.371822194965
 21
-10092.03271741745
 31
0.0
  0
ARC
  5
361
330
1F
100
AcDbEntity
  8
1
  6
Continuous
 62
     7
100
AcDbCircle
 10
2857.809355833313
 20
-10157.0227246413
 30
0.0
 40
65.0
100
AcDbArc
 50
12.93706197926132
 51
90.22743579280183
  0
LINE
  5
362
330
1F
100
AcDbEntity
  8
1
  6
Continuous
 62
     7
100
AcDbLine
 10
2851.371822194965
 20
-10092.03271741745
 30
0.0
 11
2858.0673728781
 21
-10092.02323674174
 31
0.0
  0
LINE
  5
363
330
1F
100
AcDbEntity
  8
1
  6
Continuous
 62
     7
100
AcDbLine
 10
2736.871822194964
 20
-10140.02272464123
 30
0.0
 11
2760.371822194963
 21
-10144.0227246413
 31
0.0
  0
LINE
  5
364
330
1F
100
AcDbEntity
  8
1
  6
Continuous
 62
     7
100
AcDbLine
 10
2804.871822194963
 20
-10089.5227246413
 30
0.0
 11
2847.871822194965
 21
-10089.5227246413
 31
0.0
  0
LINE
  5
365
330
1F
100
AcDbEntity
  8
1
  6
Continuous
 62
     7
100
AcDbLine
 10
2851.371822194965
 20
-10092.03271741745
 30
0.0
 11
2826.371822194963
 21
-10092.03271741745
 31
0.0
  0
POINT
  5
366
330
1F
100
AcDbEntity
  8
1
  6
Continuous
 62
     7
100
AcDbPoint
 10
2921.496089145677
 20
-10144.02272464131
 30
0.0
  0
ARC
  5
367
330
1F
100
AcDbEntity
  8
1
  6
Continuous
 62
     7
100
AcDbCircle
 10
2923.108666702573
 20
-10142.02272464131
 30
0.0
 40
2.0
100
AcDbArc
 50
192.9370619793034
 51
270.0
  0
LINE
  5
368
330
1F
100
AcDbEntity
  8
1
  6
Continuous
 62
     7
100
AcDbLine
 10
2892.371822194963
 20
-10166.02272464129
 30
0.0
 11
2761.371822194963
 21
-10166.02272464129
 31
0.0
  0
LINE
  5
369
330
1F
100
AcDbEntity
  8
1
  6
Continuous
 62
     7
100
AcDbLine
 10
2892.371822194963
 20
-10166.02272464129
 30
0.0
 11
2892.871822194962
 21
-10155.0227246413
 31
0.0
  0
LINE
  5
36A
330
1F
100
AcDbEntity
  8
1
  6
Continuous
 62
     7
100
AcDbLine
 10
2745.121822195022
 20
-10141.42697996041
 30
0.0
 11
2746.121822195022
 21
-10150.02272464123
 31
0.0
  0
LINE
  5
36B
330
1F
100
AcDbEntity
  8
1
  6
Continuous
 62
     7
100
AcDbLine
 10
2746.121822195022
 20
-10150.02272464123
 30
0.0
 11
2751.121822195022
 21
-10150.02272464123
 31
0.0
  0
LINE
  5
36C
330
1F
100
AcDbEntity
  8
1
  6
Continuous
 62
     7
100
AcDbLine
 10
2751.121822195022
 20
-10150.02272464123
 30
0.0
 11
2752.121822195022
 21
-10142.61846932213
 31
0.0
  0
LINE
  5
36D
330
1F
100
AcDbEntity
  8
1
  6
Continuous
 62
     7
100
AcDbLine
 10
2771.335822194963
 20
-10166.02272464129
 30
0.0
 11
2772.293909151485
 21
-10144.94481159783
 31
0.0
  0
DIMENSION
  5
37B
330
1F
100
AcDbEntity
  8
1
  6
ByBlock
 62
     3
100
AcDbDimension
  2
_D11
 10
2693.371822194963
 20
-10089.5227246413
 30
0.0
 11
2684.371822194963
 21
-10127.77272464129
 31
0.0
 70
   160
  1
Ｈ
 71
     5
 42
-1.0
 52
90.0
  3
DIMSTYEX_5
100
AcDbAlignedDimension
 13
2761.371822194963
 23
-10166.02272464129
 33
0.0
 14
2801.871822194963
 24
-10089.5227246413
 34
0.0
 50
90.0
100
AcDbRotatedDimension
1001
ACAD
1000
DSTYLE
1002
{
1070
    41
1040
2.0
1070
   343
1005
88
1070
   344
1005
88
1070
   176
1070
     3
1070
   177
1070
     3
1070
   178
1070
     2
1070
    43
1040
7.0
1070
   173
1070
     1
1070
   272
1070
     3
1070
   340
1005
83
1070
   140
1040
3.584
1002
}
  0
LINE
  5
37C
330
1F
100
AcDbEntity
  8
1
  6
Continuous
 62
     7
100
AcDbLine
 10
2728.371822194962
 20
-10155.0227246413
 30
0.0
 11
2728.371822194962
 21
-10144.02272464131
 31
0.0
  0
LINE
  5
37D
330
1F
100
AcDbEntity
  8
1
  6
Continuous
 62
     7
100
AcDbLine
 10
2729.634977687353
 20
-10144.02272464131
 30
0.0
 11
2728.371822194962
 21
-10144.02272464131
 31
0.0
  0
ARC
  5
37E
330
1F
100
AcDbEntity
  8
1
  6
Continuous
 62
     7
100
AcDbCircle
 10
2729.634977687353
 20
-10142.02272464131
 30
0.0
 40
2.0
100
AcDbArc
 50
270.0
 51
347.0629380206966
  0
LINE
  5
37F
330
1F
100
AcDbEntity
  8
1
  6
Continuous
 62
     7
100
AcDbLine
 10
2769.856822194963
 20
-10166.02272464129
 30
0.0
 11
2770.856822194963
 21
-10144.02272464131
 31
0.0
  0
HATCH
  5
380
330
1F
100
AcDbEntity
  8
1
  6
Continuous
 62
     7
100
AcDbHatch
 10
0.0
 20
0.0
 30
0.0
210
0.0
220
0.0
230
1.0
  2
_U
 70
     0
 71
     0
 91
        3
 92
        0
 93
        5
 72
     1
 10
2772.293909151485
 20
-10144.94481159783
 11
2771.371822194963
 21
-10144.02272464131
 72
     1
 10
2771.371822194963
 20
-10144.02272464131
 11
2760.371822194966
 21
-10144.02272464131
 72
     1
 10
2760.371822194966
 20
-10144.02272464131
 11
2761.371822194963
 21
-10166.02272464129
 72
     1
 10
2761.371822194963
 20
-10166.02272464129
 11
2771.335822194963
 21
-10166.02272464129
 72
     1
 10
2771.335822194963
 20
-10166.02272464129
 11
2772.293909151485
 21
-10144.94481159783
 97
        0
 92
        0
 93
        4
 72
     1
 10
2752.121822195022
 20
-10142.61846932213
 11
2745.121822195022
 21
-10141.42697996041
 72
     1
 10
2745.121822195022
 20
-10141.42697996041
 11
2746.121822195022
 21
-10150.02272464123
 72
     1
 10
2746.121822195022
 20
-10150.02272464123
 11
2751.121822195022
 21
-10150.02272464123
 72
     1
 10
2751.121822195022
 20
-10150.02272464123
 11
2752.121822195022
 21
-10142.61846932213
 97
        0
 92
        0
 93
       14
 72
     1
 10
2794.934288556616
 20
-10096.5227246413
 11
2826.371822194963
 21
-10096.5227246413
 72
     1
 10
2826.371822194963
 20
-10096.5227246413
 11
2826.371822194963
 21
-10091.5227246413
 72
     1
 10
2826.371822194963
 20
-10091.5227246413
 11
2805.371822194963
 21
-10091.5227246413
 72
     1
 10
2805.371822194963
 20
-10091.5227246413
 11
2804.871822194963
 21
-10089.5227246413
 72
     1
 10
2804.871822194963
 20
-10089.5227246413
 11
2801.871822194963
 21
-10089.5227246413
 72
     1
 10
2801.871822194963
 20
-10089.5227246413
 11
2801.371822194963
 21
-10092.03271741745
 72
     1
 10
2801.371822194963
 20
-10092.03271741745
 11
2794.676271511828
 21
-10092.02323674174
 72
     2
 10
2794.934288556616
 20
-10157.0227246413
 40
65.0
 50
90.2274357928062
 51
167.0629380207393
 73
     1
 72
     2
 10
2729.634977687353
 20
-10142.02272464131
 40
2.0
 50
12.93706197930338
 51
90.0
 73
     0
 72
     1
 10
2729.634977687353
 20
-10144.02272464131
 11
2728.371822194962
 21
-10144.02272464131
 72
     1
 10
2728.371822194962
 20
-10144.02272464131
 11
2728.371822194962
 21
-10155.0227246413
 72
     1
 10
2728.371822194963
 20
-10155.0227246413
 11
2735.37182219495
 21
-10155.02272464137
 72
     1
 10
2735.371822194964
 20
-10155.02272464123
 11
2736.871822194964
 21
-10140.02272464123
 72
     2
 10
2794.934288556616
 20
-10157.0227246413
 40
60.5
 50
196.3194034936045
 51
270.0
 73
     0
 97
        0
 75
     0
 76
     0
 52
45.0
 41
3.6
 77
     0
 78
     1
 53
45.0
 43
0.0
 44
0.0
 45
-2.545584412271571
 46
2.545584412271571
 79
     0
 98
        1
 10
0.0
 20
0.0
  0
DIMENSION
  5
38D
330
1F
100
AcDbEntity
  8
1
  6
ByBlock
 62
     3
100
AcDbDimension
  2
_D12
 10
2924.371822194963
 20
-10068.5227246413
 30
0.0
 11
2826.371822194963
 21
-10059.5227246413
 31
0.0
 70
   160
  1
Ｄ
 71
     5
 42
-1.0
 52
90.0
  3
DIMSTYEX_5
100
AcDbAlignedDimension
 13
2728.371822194962
 23
-10144.02272464131
 33
0.0
 14
2924.371822194963
 24
-10144.02272464131
 34
0.0
100
AcDbRotatedDimension
1001
ACAD
1000
DSTYLE
1002
{
1070
    41
1040
2.0
1070
   343
1005
88
1070
   344
1005
88
1070
   176
1070
     3
1070
   177
1070
     3
1070
   178
1070
     2
1070
    43
1040
7.0
1070
   173
1070
     1
1070
   272
1070
     3
1070
   340
1005
83
1070
   140
1040
3.584
1002
}
  0
LINE
  5
38E
330
1F
100
AcDbEntity
  8
1
  6
Continuous
 62
     7
100
AcDbLine
 10
2772.293909151485
 20
-10144.94481159783
 30
0.0
 11
2826.371822194963
 21
-10144.94481159783
 31
0.0
  0
INSERT
  5
397
330
1F
100
AcDbEntity
  8
1
  6
ByBlock
 62
     3
100
AcDbBlockReference
  2
BALN1
 10
2868.912270446886
 20
-10092.02323674174
 30
0.0
  0
LINE
  5
398
330
1F
100
AcDbEntity
  8
1
  6
Continuous
 62
     7
100
AcDbLine
 10
2769.221822194986
 20
-10183.12476545472
 30
0.0
 11
2769.221822194986
 21
-10204.41077090161
 31
0.0
  0
LINE
  5
399
330
1F
100
AcDbEntity
  8
1
  6
Continuous
 62
     7
100
AcDbLine
 10
2769.221822194919
 20
-10220.52317111253
 30
0.0
 11
2769.221822199667
 21
-10309.11428635274
 31
0.0
  0
LINE
  5
39A
330
1F
100
AcDbEntity
  8
1
  6
Continuous
 62
     7
100
AcDbLine
 10
2883.521822194984
 20
-10183.12476545497
 30
0.0
 11
2883.521822194985
 21
-10204.41077090161
 31
0.0
  0
LINE
  5
39B
330
1F
100
AcDbEntity
  8
1
  6
Continuous
 62
     7
100
AcDbLine
 10
2881.198383419562
 20
-10166.02272464129
 30
0.0
 11
2881.732822194987
 21
-10183.12476545497
 31
0.0
  0
LINE
  5
39C
330
1F
100
AcDbEntity
  8
1
  6
Continuous
 62
     7
100
AcDbLine
 10
2882.677383419574
 20
-10166.02272464129
 30
0.0
 11
2883.211822194988
 21
-10183.12476545497
 31
0.0
  0
LINE
  5
39D
330
1F
100
AcDbEntity
  8
1
  6
Continuous
 62
     7
100
AcDbLine
 10
2773.721822194986
 20
-10147.32476545502
 30
0.0
 11
2773.721822194986
 21
-10204.41077090161
 31
0.0
  0
LINE
  5
39E
330
1F
100
AcDbEntity
  8
1
  6
Continuous
 62
     7
100
AcDbLine
 10
2773.72182219489
 20
-10220.52317111253
 30
0.0
 11
2773.721822190374
 21
-10309.11428635274
 31
0.0
  0
LINE
  5
39F
330
1F
100
AcDbEntity
  8
1
  6
Continuous
 62
     7
100
AcDbLine
 10
2883.521822194973
 20
-10183.12476545497
 30
0.0
 11
2826.371822194964
 21
-10183.12476545586
 31
0.0
  0
LINE
  5
3A0
330
1F
100
AcDbEntity
  8
1
  6
Continuous
 62
     7
100
AcDbLine
 10
2770.650572194987
 20
-10147.32476545497
 30
0.0
 11
2826.371822194988
 21
-10147.32476545502
 31
0.0
  0
LINE
  5
3A1
330
1F
100
AcDbEntity
  8
1
  6
Continuous
 62
     7
100
AcDbLine
 10
2772.129572194985
 20
-10147.32476545502
 30
0.0
 11
2771.010822194987
 21
-10183.12476545497
 31
0.0
  0
LINE
  5
3A2
330
1F
100
AcDbEntity
  8
1
  6
Continuous
 62
     7
100
AcDbLine
 10
2770.650572194985
 20
-10147.32476545502
 30
0.0
 11
2769.531822194987
 21
-10183.12476545497
 31
0.0
  0
LINE
  5
3A3
330
1F
100
AcDbEntity
  8
1
  6
Continuous
 62
     7
100
AcDbLine
 10
2769.221822195002
 20
-10183.12476545497
 30
0.0
 11
2771.010822194987
 21
-10183.12476545497
 31
0.0
  0
LINE
  5
3A4
330
1F
100
AcDbEntity
  8
1
  6
CENTER2
 62
     7
100
AcDbLine
 10
2762.644630034342
 20
-10220.52317111253
 30
0.0
 11
2814.648753918113
 21
-10220.52317111253
 31
0.0
  0
LINE
  5
3A5
330
1F
100
AcDbEntity
  8
1
  6
CENTER2
 62
     7
100
AcDbLine
 10
2814.648753918113
 20
-10220.52317111253
 30
0.0
 11
2814.648753918113
 21
-10231.77153214575
 31
0.0
  0
LINE
  5
3A6
330
1F
100
AcDbEntity
  8
1
  6
CENTER2
 62
     7
100
AcDbLine
 10
2814.648753918113
 20
-10231.77153214575
 30
0.0
 11
2837.499050776132
 21
-10215.22476545546
 31
0.0
  0
LINE
  5
3A7
330
1F
100
AcDbEntity
  8
1
  6
CENTER2
 62
     7
100
AcDbLine
 10
2837.499050776132
 20
-10215.22476545546
 30
0.0
 11
2837.499050776132
 21
-10220.52317111253
 31
0.0
  0
LINE
  5
3A8
330
1F
100
AcDbEntity
  8
1
  6
CENTER2
 62
     7
100
AcDbLine
 10
2837.499050776132
 20
-10220.52317111253
 30
0.0
 11
2889.503174659902
 21
-10220.52317111253
 31
0.0
  0
LINE
  5
3A9
330
1F
100
AcDbEntity
  8
1
  6
CENTER2
 62
     7
100
AcDbLine
 10
2762.644630038912
 20
-10204.41077090161
 30
0.0
 11
2814.648753922682
 21
-10204.41077090161
 31
0.0
  0
LINE
  5
3AA
330
1F
100
AcDbEntity
  8
1
  6
CENTER2
 62
     7
100
AcDbLine
 10
2814.648753922682
 20
-10204.41077090161
 30
0.0
 11
2814.648753922682
 21
-10215.65913193483
 31
0.0
  0
LINE
  5
3AB
330
1F
100
AcDbEntity
  8
1
  6
CENTER2
 62
     7
100
AcDbLine
 10
2814.648753922682
 20
-10215.65913193483
 30
0.0
 11
2837.499050780702
 21
-10199.11236524454
 31
0.0
  0
LINE
  5
3AC
330
1F
100
AcDbEntity
  8
1
  6
CENTER2
 62
     7
100
AcDbLine
 10
2837.499050780702
 20
-10199.11236524454
 30
0.0
 11
2837.499050780702
 21
-10204.41077090161
 31
0.0
  0
LINE
  5
3AD
330
1F
100
AcDbEntity
  8
1
  6
CENTER2
 62
     7
100
AcDbLine
 10
2837.499050780702
 20
-10204.41077090161
 30
0.0
 11
2889.503174664472
 21
-10204.41077090161
 31
0.0
  0
LINE
  5
3AE
330
1F
100
AcDbEntity
  8
1
  6
Continuous
 62
     7
100
AcDbLine
 10
2883.521822194439
 20
-10220.52317111251
 30
0.0
 11
2883.521822010924
 21
-10265.11428635278
 31
0.0
  0
MTEXT
  5
3AF
330
1F
100
AcDbEntity
  8
1
  6
Continuous
 62
     7
100
AcDbMText
 10
3125.212181863934
 20
-10990.64799353116
 30
0.0
 40
12.0
 41
0.0
 71
     7
 72
     5
  1
Ｈ
  7
MTSTANDARD3
 73
     1
 44
0.8125
  0
MTEXT
  5
3B0
330
1F
100
AcDbEntity
  8
1
  6
Continuous
 62
     7
100
AcDbMText
 10
3119.812181658076
 20
-11011.64799353115
 30
0.0
 40
12.0
 41
0.0
 71
     7
 72
     5
  1
７０
  7
MTSTANDARD3
 73
     1
 44
0.8125
  0
MTEXT
  5
3B1
330
1F
100
AcDbEntity
  8
1
  6
Continuous
 62
     7
100
AcDbMText
 10
3119.812181658076
 20
-11032.64799353115
 30
0.0
 40
12.0
 41
0.0
 71
     7
 72
     5
  1
８０
  7
MTSTANDARD3
 73
     1
 44
0.8125
  0
MTEXT
  5
3B2
330
1F
100
AcDbEntity
  8
1
  6
Continuous
 62
     7
100
AcDbMText
 10
3119.812181658076
 20
-11053.64799353111
 30
0.0
 40
12.0
 41
0.0
 71
     7
 72
     5
  1
９７
  7
MTSTANDARD3
 73
     1
 44
0.8125
  0
LINE
  5
3B3
330
1F
100
AcDbEntity
  8
1
  6
Continuous
 62
     7
100
AcDbLine
 10
3099.712181660032
 20
-11053.6479935315
 30
0.0
 11
3099.712181658468
 21
-10969.64799353116
 31
0.0
  0
LINE
  5
3B4
330
1F
100
AcDbEntity
  8
1
  6
Continuous
 62
     7
100
AcDbLine
 10
3159.712181660032
 20
-11053.6479935315
 30
0.0
 11
3159.712181658468
 21
-10969.64799353116
 31
0.0
  0
MTEXT
  5
3B5
330
1F
100
AcDbEntity
  8
1
  6
Continuous
 62
     7
100
AcDbMText
 10
3065.212181863934
 20
-10990.64799353116
 30
0.0
 40
12.0
 41
0.0
 71
     7
 72
     5
  1
Ｄ
  7
MTSTANDARD3
 73
     1
 44
0.8125
  0
MTEXT
  5
3B6
330
1F
100
AcDbEntity
  8
1
  6
Continuous
 62
     7
100
AcDbMText
 10
3054.412181658075
 20
-11011.64799353115
 30
0.0
 40
12.0
 41
0.0
 71
     7
 72
     5
  1
１７０
  7
MTSTANDARD3
 73
     1
 44
0.8125
  0
MTEXT
  5
3B7
330
1F
100
AcDbEntity
  8
1
  6
Continuous
 62
     7
100
AcDbMText
 10
3054.412181658075
 20
-11032.64799353115
 30
0.0
 40
12.0
 41
0.0
 71
     7
 72
     5
  1
２００
  7
MTSTANDARD3
 73
     1
 44
0.8125
  0
MTEXT
  5
3B8
330
1F
100
AcDbEntity
  8
1
  6
Continuous
 62
     7
100
AcDbMText
 10
3054.412181658075
 20
-11053.64799353111
 30
0.0
 40
12.0
 41
0.0
 71
     7
 72
     5
  1
２５０
  7
MTSTANDARD3
 73
     1
 44
0.8125
  0
INSERT
  5
3BE
330
1F
100
AcDbEntity
  8
14
  6
Continuous
 62
     3
100
AcDbBlockReference
  2
MAKR0
 10
2443.118224606258
 20
-11124.85091698909
 30
0.0
  0
INSERT
  5
3C4
330
1F
100
AcDbEntity
  8
14
  6
Continuous
 62
     3
100
AcDbBlockReference
  2
MAKR1
 10
2443.006631336899
 20
-11145.85091698909
 30
0.0
  0
MTEXT
  5
3C6
330
1F
100
AcDbEntity
  8
14
  6
Continuous
 62
     7
100
AcDbMText
 10
2479.078146600854
 20
-11111.02795379433
 30
0.0
 40
13.5
 41
0.0
 71
     7
 72
     5
  1
部　品　名
  7
MTSTANDARD7
 73
     1
 44
0.7916666666666667
  0
MTEXT
  5
3C7
330
1F
100
AcDbEntity
  8
14
  6
Continuous
 62
     7
100
AcDbMText
 10
2625.228146600857
 20
-11111.02795379433
 30
0.0
 40
13.5
 41
0.0
 71
     7
 72
     5
  1
材　　質
  7
MTSTANDARD7
 73
     1
 44
0.7916666666666667
  0
MTEXT
  5
3C8
330
1F
100
AcDbEntity
  8
14
  6
Continuous
 62
     7
100
AcDbMText
 10
2765.228146600857
 20
-11111.02795379433
 30
0.0
 40
13.5
 41
0.0
 71
     7
 72
     5
  1
備　　考
  7
MTSTANDARD7
 73
     1
 44
0.7916666666666667
  0
MTEXT
  5
3C9
330
1F
100
AcDbEntity
  8
14
  6
Continuous
 62
     7
100
AcDbMText
 10
2490.568224606258
 20
-11131.60091698909
 30
0.0
 40
13.5
 41
0.0
 71
     7
 72
     5
  1
ＷＳＫ
  7
MTSTANDARD7
 73
     1
 44
0.7916666666666667
  0
LINE
  5
3CA
330
1F
100
AcDbEntity
  8
14
  6
Continuous
 62
     7
100
AcDbLine
 10
2738.118224606258
 20
-11093.35091698909
 30
0.0
 11
2738.118224606258
 21
-11114.35091698909
 31
0.0
  0
LINE
  5
3CB
330
1F
100
AcDbEntity
  8
14
  6
Continuous
 62
     7
100
AcDbLine
 10
2738.118224606258
 20
-11114.35091698909
 30
0.0
 11
2738.118224606258
 21
-11156.35091698909
 31
0.0
  0
LINE
  5
3CC
330
1F
100
AcDbEntity
  8
14
  6
Continuous
 62
     7
100
AcDbLine
 10
2428.118224606258
 20
-11093.35091698909
 30
0.0
 11
2838.118224606253
 21
-11093.35091698909
 31
0.0
  0
LINE
  5
3CD
330
1F
100
AcDbEntity
  8
14
  6
Continuous
 62
     7
100
AcDbLine
 10
2428.118224606258
 20
-11114.35091698909
 30
0.0
 11
2838.118224606253
 21
-11114.35091698909
 31
0.0
  0
MTEXT
  5
3CE
330
1F
100
AcDbEntity
  8
15
  6
Continuous
 62
     7
100
AcDbMText
 10
2485.228146600854
 20
-11153.02795379433
 30
0.0
 40
13.5
 41
0.0
 71
     7
 72
     5
  1
ＶＣＡＬ
  7
MTSTANDARD7
 73
     1
 44
0.7916666666666667
  0
MTEXT
  5
3CF
330
1F
100
AcDbEntity
  8
14
  6
Continuous
 62
     7
100
AcDbMText
 10
2756.319225841147
 20
-11144.73818916211
 30
0.0
 40
13.5
 41
0.0
 71
     7
 72
     5
  1
錆止め塗装
  7
MTSTANDARD7
 73
     1
 44
1.284722222222222
  0
MTEXT
  5
3D0
330
1F
100
AcDbEntity
  8
1
  6
Continuous
 62
     7
100
AcDbMText
 10
2431.975890877483
 20
-11111.02795379433
 30
0.0
 40
13.5
 41
0.0
 71
     7
 72
     5
  1
部番
  7
MTSTANDARD7
 73
     1
 44
0.7916666666666667
  0
LINE
  5
3D1
330
1F
100
AcDbEntity
  8
14
  6
Continuous
 62
     7
100
AcDbLine
 10
2458.118224606258
 20
-11093.35091698909
 30
0.0
 11
2458.118224606258
 21
-11156.35091698909
 31
0.0
  0
LINE
  5
3D2
330
1F
100
AcDbEntity
  8
14
  6
Continuous
 62
     7
100
AcDbLine
 10
2558.118224606258
 20
-11093.35091698909
 30
0.0
 11
2558.118224606258
 21
-11156.35091698909
 31
0.0
  0
LINE
  5
3D3
330
1F
100
AcDbEntity
  8
14
  6
Continuous
 62
     7
100
AcDbLine
 10
2838.118224606253
 20
-11093.35091698909
 30
0.0
 11
2838.118224606268
 21
-11156.35091698909
 31
0.0
  0
LINE
  5
3D4
330
1F
100
AcDbEntity
  8
1
  6
Continuous
 62
     7
100
AcDbLine
 10
2428.118224606258
 20
-11093.35091698909
 30
0.0
 11
2428.118224606259
 21
-11156.35091698909
 31
0.0
  0
MTEXT
  5
3D5
330
1F
100
AcDbEntity
  8
14
  6
Continuous
 62
     7
100
AcDbMText
 10
2584.218224606257
 20
-11152.637920122
 30
0.0
 40
12.0
 41
0.0
 71
     7
 72
     5
  1
ＡＣ７Ａアルミニウム鋳物
  7
MTSTANDARD3
 73
     1
 44
1.3671875
  0
MTEXT
  5
3D6
330
1F
100
AcDbEntity
  8
14
  6
Continuous
 62
     7
100
AcDbMText
 10
2611.218224606258
 20
-11130.85091698909
 30
0.0
 40
12.0
 41
0.0
 71
     7
 72
     5
  1
ＦＣ１５０鋳鉄
  7
MTSTANDARD3
 73
     1
 44
1.3671875
  0
LINE
  5
3D7
330
1F
100
AcDbEntity
  8
14
  6
Continuous
 62
     7
100
AcDbLine
 10
2838.118224606253
 20
-11156.35091698909
 30
0.0
 11
2428.118224606258
 21
-11156.35091698909
 31
0.0
  0
LINE
  5
3D8
330
1F
100
AcDbEntity
  8
1
  6
Continuous
 62
     7
100
AcDbLine
 10
3071.310024678783
 20
-11082.85282223742
 30
0.0
 11
3071.310024678783
 21
-11196.85275923742
 31
0.0
  0
LINE
  5
3D9
330
1F
100
AcDbEntity
  8
1
  6
Continuous
 62
     7
100
AcDbLine
 10
3056.310039678782
 20
-11196.85275923742
 30
0.0
 11
3056.310039678782
 21
-11082.85282223742
 31
0.0
  0
LINE
  5
3DA
330
1F
100
AcDbEntity
  8
1
  6
Continuous
 62
     7
100
AcDbLine
 10
3005.310039678782
 20
-11115.85278923741
 30
0.0
 11
3005.310039678782
 21
-11166.85278923741
 31
0.0
  0
LINE
  5
3DB
330
1F
100
AcDbEntity
  8
1
  6
Continuous
 62
     7
100
AcDbLine
 10
2990.310054678782
 20
-11166.85278923741
 30
0.0
 11
2990.310054678782
 21
-11115.85278923741
 31
0.0
  0
LINE
  5
3DC
330
1F
100
AcDbEntity
  8
1
  6
Continuous
 62
     7
100
AcDbLine
 10
2939.310054678782
 20
-11115.85278923741
 30
0.0
 11
2939.310054678782
 21
-11166.85278923741
 31
0.0
  0
LINE
  5
3DD
330
1F
100
AcDbEntity
  8
1
  6
Continuous
 62
     7
100
AcDbLine
 10
2924.310069678781
 20
-11166.85278923741
 30
0.0
 11
2924.310069678781
 21
-11115.85278923741
 31
0.0
  0
LINE
  5
3DE
330
1F
100
AcDbEntity
  8
1
  6
Continuous
 62
     7
100
AcDbLine
 10
2873.310069678783
 20
-11082.85282223742
 30
0.0
 11
2873.310069678781
 21
-11166.85278923741
 31
0.0
  0
LINE
  5
3DF
330
1F
100
AcDbEntity
  8
1
  6
Continuous
 62
     7
100
AcDbLine
 10
3221.309874678782
 20
-11082.85282223742
 30
0.0
 11
3221.309874678782
 21
-11115.85278923741
 31
0.0
  0
LINE
  5
3E0
330
1F
100
AcDbEntity
  8
1
  6
Continuous
 62
     7
100
AcDbLine
 10
3206.309889678782
 20
-11082.85282223742
 30
0.0
 11
3206.309889678782
 21
-11115.85278923741
 31
0.0
  0
LINE
  5
3E1
330
1F
100
AcDbEntity
  8
1
  6
Continuous
 62
     7
100
AcDbLine
 10
3221.309874678782
 20
-11166.85278923741
 30
0.0
 11
3221.309874678782
 21
-11196.85275923742
 31
0.0
  0
LINE
  5
3E2
330
1F
100
AcDbEntity
  8
1
  6
Continuous
 62
     7
100
AcDbLine
 10
3206.309889678782
 20
-11166.85278923741
 30
0.0
 11
3206.309889678782
 21
-11196.85275923742
 31
0.0
  0
LINE
  5
3E3
330
1F
100
AcDbEntity
  8
1
  6
Continuous
 62
     7
100
AcDbLine
 10
3179.309916678782
 20
-11166.85278923741
 30
0.0
 11
3179.309916678782
 21
-11196.85275923742
 31
0.0
  0
LINE
  5
3E4
330
1F
100
AcDbEntity
  8
1
  6
Continuous
 62
     7
100
AcDbLine
 10
2858.310084678782
 20
-11166.85278923741
 30
0.0
 11
3251.309844678782
 21
-11166.85278923741
 31
0.0
  0
LINE
  5
3E5
330
1F
100
AcDbEntity
  8
1
  6
Continuous
 62
     7
100
AcDbLine
 10
3251.309844678782
 20
-11115.85278923741
 30
0.0
 11
2858.310084678782
 21
-11115.85278923741
 31
0.0
  0
LINE
  5
3E6
330
1F
100
AcDbEntity
  8
1
  6
Continuous
 62
     7
100
AcDbLine
 10
2858.310084678783
 20
-11082.85282223742
 30
0.0
 11
3251.309844678782
 21
-11082.85282223742
 31
0.0
  0
LINE
  5
3E7
330
1F
100
AcDbEntity
  8
1
  6
Continuous
 62
     7
100
AcDbLine
 10
2858.310084678782
 20
-11082.85282223742
 30
0.0
 11
2858.310084678782
 21
-11196.85275923742
 31
0.0
  0
LINE
  5
3E8
330
1F
100
AcDbEntity
  8
1
  6
Continuous
 62
     7
100
AcDbLine
 10
2873.310069678783
 20
-11082.85282223742
 30
0.0
 11
2873.310069678781
 21
-11166.85278923741
 31
0.0
  0
MTEXT
  5
3E9
330
1F
100
AcDbEntity
  8
1
  6
Continuous
 62
     7
100
AcDbMText
 10
2860.560077178781
 20
-11098.60281173742
 30
0.0
 40
10.5
 41
0.0
 71
     7
 72
     5
  1
{\fＭＳ 明朝|b0|i0|c128|p17;\W1.0;図}
  7
MTSTANDARD2
 73
     1
 44
0.8392857142857144
  0
MTEXT
  5
3EA
330
1F
100
AcDbEntity
  8
1
  6
Continuous
 62
     7
100
AcDbMText
 10
3058.560032178782
 20
-11182.60277873742
 30
0.0
 40
10.5
 41
0.0
 71
     7
 72
     5
  1
{\fＭＳ 明朝|b0|i0|c128|p17;\W1.0;図}
  7
MTSTANDARD2
 73
     1
 44
0.8392857142857144
  0
MTEXT
  5
3EB
330
1F
100
AcDbEntity
  8
1
  6
Continuous
 62
     7
100
AcDbMText
 10
2860.560077178781
 20
-11110.60279973741
 30
0.0
 40
10.5
 41
0.0
 71
     7
 72
     5
  1
{\fＭＳ 明朝|b0|i0|c128|p17;\W1.0;名}
  7
MTSTANDARD2
 73
     1
 44
0.8392857142857144
  0
MTEXT
  5
3EC
330
1F
100
AcDbEntity
  8
1
  6
Continuous
 62
     7
100
AcDbMText
 10
3058.560032178782
 20
-11194.60276673741
 30
0.0
 40
10.5
 41
0.0
 71
     7
 72
     5
  1
{\fＭＳ 明朝|b0|i0|c128|p17;\W1.0;番}
  7
MTSTANDARD2
 73
     1
 44
0.8392857142857144
  0
MTEXT
  5
3ED
330
1F
100
AcDbEntity
  8
1
  6
Continuous
 62
     7
100
AcDbMText
 10
3058.560032178782
 20
-11098.60281173742
 30
0.0
 40
10.5
 41
0.0
 71
     7
 72
     5
  1
{\fＭＳ 明朝|b0|i0|c128|p17;\W1.0;符}
  7
MTSTANDARD2
 73
     1
 44
0.8392857142857144
  0
MTEXT
  5
3EE
330
1F
100
AcDbEntity
  8
1
  6
Continuous
 62
     7
100
AcDbMText
 10
3058.560032178782
 20
-11110.60279973741
 30
0.0
 40
10.5
 41
0.0
 71
     7
 72
     5
  1
{\fＭＳ 明朝|b0|i0|c128|p17;\W1.0;号}
  7
MTSTANDARD2
 73
     1
 44
0.8392857142857144
  0
MTEXT
  5
3EF
330
1F
100
AcDbEntity
  8
1
  6
Continuous
 62
     7
100
AcDbMText
 10
3058.560032178782
 20
-11141.02414933976
 30
0.0
 40
10.5
 41
0.0
 71
     7
 72
     5
  1
{\fＭＳ 明朝|b0|i0|c128|p17;\W1.0;記}
  7
MTSTANDARD2
 73
     1
 44
0.8392857142857144
  0
MTEXT
  5
3F0
330
1F
100
AcDbEntity
  8
1
  6
Continuous
 62
     7
100
AcDbMText
 10
3058.560032178782
 20
-11153.02413733976
 30
0.0
 40
10.5
 41
0.0
 71
     7
 72
     5
  1
{\fＭＳ 明朝|b0|i0|c128|p17;\W1.0;事}
  7
MTSTANDARD2
 73
     1
 44
0.8392857142857144
  0
MTEXT
  5
3F1
330
1F
100
AcDbEntity
  8
1
  6
Continuous
 62
     7
100
AcDbMText
 10
3208.559882178777
 20
-11098.60281173742
 30
0.0
 40
10.5
 41
0.0
 71
     7
 72
     5
  1
{\fＭＳ 明朝|b0|i0|c128|p17;\W1.0;縮}
  7
MTSTANDARD2
 73
     1
 44
0.8392857142857144
  0
MTEXT
  5
3F2
330
1F
100
AcDbEntity
  8
1
  6
Continuous
 62
     7
100
AcDbMText
 10
3208.559882178777
 20
-11110.60279973742
 30
0.0
 40
10.5
 41
0.0
 71
     7
 72
     5
  1
{\fＭＳ 明朝|b0|i0|c128|p17;\W1.0;尺}
  7
MTSTANDARD2
 73
     1
 44
0.8392857142857144
  0
MTEXT
  5
3F4
330
1F
100
AcDbEntity
  8
1
  6
Continuous
 62
     7
100
AcDbMText
 10
2906.310084678782
 20
-11188.60277423742
 30
0.0
 40
13.5
 41
0.0
 71
     7
 72
     5
  1
{\fＭＳ ゴシック|b0|i0|c128|p49;\W1.0;伊藤鉄工株式会社}
  7
MTSTANDARD8
 73
     1
 44
0.7916666666666667
  0
MTEXT
  5
3F6
330
1F
100
AcDbEntity
  8
1
  6
Continuous
 62
     7
100
AcDbMText
 10
3209.309882178782
 20
-11178.85278173742
 30
0.0
 40
9.0
 41
0.0
 71
     7
 72
     5
  1
{\fＭＳ 明朝|b0|i0|c128|p17;\W1.0;葉}
  7
MTSTANDARD9
 73
     1
 44
0.8333333333333334
  0
MTEXT
  5
3F7
330
1F
100
AcDbEntity
  8
1
  6
Continuous
 62
     7
100
AcDbMText
 10
3209.309882178782
 20
-11186.35277423742
 30
0.0
 40
9.0
 41
0.0
 71
     7
 72
     5
  1
{\fＭＳ 明朝|b0|i0|c128|p17;\W1.0;ノ}
  7
MTSTANDARD9
 73
     1
 44
0.8333333333333334
  0
MTEXT
  5
3F8
330
1F
100
AcDbEntity
  8
1
  6
Continuous
 62
     7
100
AcDbMText
 10
3209.309882178782
 20
-11193.85276673741
 30
0.0
 40
9.0
 41
0.0
 71
     7
 72
     5
  1
{\fＭＳ 明朝|b0|i0|c128|p17;\W1.0;内}
  7
MTSTANDARD9
 73
     1
 44
0.8333333333333334
  0
LINE
  5
3F9
330
1F
100
AcDbEntity
  8
1
  6
Continuous
 62
     7
100
AcDbLine
 10
2858.310084678782
 20
-11082.85282223742
 30
0.0
 11
2858.310084678782
 21
-11196.85275923742
 31
0.0
  0
LINE
  5
3FA
330
1F
100
AcDbEntity
  8
1
  6
Continuous
 62
     7
100
AcDbLine
 10
2858.310084678782
 20
-11082.85282223742
 30
0.0
 11
2858.310084678782
 21
-11196.85275923742
 31
0.0
  0
LINE
  5
3FB
330
1F
100
AcDbEntity
  8
1
  6
Continuous
 62
     7
100
AcDbLine
 10
3221.309874678782
 20
-11196.85275923742
 30
0.0
 11
3251.309844678782
 21
-11166.85278923741
 31
0.0
  0
MTEXT
  5
3FC
330
1F
100
AcDbEntity
  8
1
  6
Continuous
 62
     7
100
AcDbMText
 10
3075.809957178782
 20
-11105.35280573742
 30
0.0
 40
12.0
 41
0.0
 71
     7
 72
     5
  1
{\fＭＳ 明朝|b0|i0|c128|p17;\W1.0;ＷＳＫ３ ８０～１２５}
  7
MTSTANDARD4
 73
     1
 44
1.171874999999988
  0
MTEXT
  5
3FD
330
1F
100
AcDbEntity
  8
1
  6
Continuous
 62
     7
100
AcDbMText
 10
2891.310078678786
 20
-11111.65280573741
 30
0.0
 40
12.0
 41
0.0
 71
     7
 72
     5
  1
{\fＭＳ 明朝|b0|i0|c128|p17;\W1.0;アルミベントキャップ付き\P差込型 排水通気用防水継手}
  7
MTSTANDARD4
 73
     1
 44
0.65625
  0
MTEXT
  5
3FE
330
1F
100
AcDbEntity
  8
1
  6
Continuous
 62
     7
100
AcDbMText
 10
3229.559859678783
 20
-11103.85280573742
 30
0.0
 40
9.0
 41
0.0
 71
     7
 72
     5
  1
{\fＭＳ 明朝|b0|i0|c128|p17;\W1.0;1/3}
  7
MTSTANDARD9
 73
     1
 44
1.354165520833317
  0
MTEXT
  5
3FF
330
1F
100
AcDbEntity
  8
1
  6
Continuous
 62
     7
100
AcDbMText
 10
3071.309970678782
 20
-11187.85277423742
 30
0.0
 40
12.0
 41
0.0
 71
     7
 72
     5
  1
{\fＭＳ 明朝|b0|i0|c128|p17;\W1.0;Ｇ１２Ａ０７００２}
  7
MTSTANDARD4
 73
     1
 44
1.093749218750001
  0
LINE
  5
400
330
1F
100
AcDbEntity
  8
1
  6
Continuous
 62
     7
100
AcDbLine
 10
2513.310429678782
 20
-11196.85275923742
 30
0.0
 11
3251.309844678782
 21
-11196.85275923742
 31
0.0
  0
LINE
  5
401
330
1F
100
AcDbEntity
  8
1
  6
Continuous
 62
     7
100
AcDbLine
 10
3251.309844678782
 20
-11196.85275923742
 30
0.0
 11
3251.309844678782
 21
-11082.85282223742
 31
0.0
  0
MTEXT
  5
402
330
1F
100
AcDbEntity
  8
1
  6
Continuous
 62
     7
100
AcDbMText
 10
2994.412181861963
 20
-11011.64799353081
 30
0.0
 40
12.0
 41
0.0
 71
     7
 72
     5
  1
５．５
  7
MTSTANDARD3
 73
     1
 44
0.8125
  0
MTEXT
  5
403
330
1F
100
AcDbEntity
  8
1
  6
Continuous
 62
     7
100
AcDbMText
 10
2994.412181861963
 20
-11032.64799353081
 30
0.0
 40
12.0
 41
0.0
 71
     7
 72
     5
  1
６．０
  7
MTSTANDARD3
 73
     1
 44
0.8125
  0
MTEXT
  5
404
330
1F
100
AcDbEntity
  8
1
  6
Continuous
 62
     7
100
AcDbMText
 10
2994.412181861963
 20
-11053.64799353078
 30
0.0
 40
12.0
 41
0.0
 71
     7
 72
     5
  1
５．５
  7
MTSTANDARD3
 73
     1
 44
0.8125
  0
LINE
  5
405
330
1F
100
AcDbEntity
  8
14
  6
Continuous
 62
     7
100
AcDbLine
 10
2428.118224606259
 20
-11135.35091698909
 30
0.0
 11
2738.118224606258
 21
-11135.35091698909
 31
0.0
  0
ENDSEC
  0
SECTION
  2
OBJECTS
  0
DICTIONARY
  5
C
330
0
100
AcDbDictionary
281
     1
  3
ACAD_GROUP
350
D
  3
ACAD_LAYOUT
350
1A
  3
ACAD_MATERIAL
350
43
  3
ACAD_MLEADERSTYLE
350
6B
  3
ACAD_MLINESTYLE
350
17
  3
ACAD_PLOTSETTINGS
350
19
  3
ACAD_PLOTSTYLENAME
350
E
  3
ACAD_SCALELIST
350
47
  3
ACAD_TABLESTYLE
350
69
  3
ACAD_VISUALSTYLE
350
2A
  3
AcDbVariableDictionary
350
415
  0
DICTIONARY
  5
41C
330
8
100
AcDbDictionary
280
     1
281
     1
  3
ACAD_XREC_ROUNDTRIP
360
41D
  0
DICTIONARY
  5
D
102
{ACAD_REACTORS
330
C
102
}
330
C
100
AcDbDictionary
281
     1
  0
DICTIONARY
  5
1A
102
{ACAD_REACTORS
330
C
102
}
330
C
100
AcDbDictionary
281
     1
  3
Layout1
350
1E
  3
Model
350
22
  0
DICTIONARY
  5
43
102
{ACAD_REACTORS
330
C
102
}
330
C
100
AcDbDictionary
281
     1
  3
ByBlock
350
45
  3
ByLayer
350
44
  3
Global
350
46
  0
DICTIONARY
  5
6B
102
{ACAD_REACTORS
330
C
102
}
330
C
100
AcDbDictionary
281
     1
  3
Standard
350
6C
  0
DICTIONARY
  5
17
102
{ACAD_REACTORS
330
C
102
}
330
C
100
AcDbDictionary
281
     1
  3
Standard
350
18
  0
DICTIONARY
  5
19
102
{ACAD_REACTORS
330
C
102
}
330
C
100
AcDbDictionary
281
     1
  0
ACDBDICTIONARYWDFLT
  5
E
102
{ACAD_REACTORS
330
C
102
}
330
C
100
AcDbDictionary
281
     1
  3
Normal
350
F
100
AcDbDictionaryWithDefault
340
F
  0
DICTIONARY
  5
47
102
{ACAD_REACTORS
330
C
102
}
330
C
100
AcDbDictionary
281
     1
  3
A0
350
48
  3
A1
350
49
  3
A2
350
4A
  3
A3
350
4B
  3
A4
350
4C
  3
A5
350
4D
  3
A6
350
4E
  3
A7
350
4F
  3
A8
350
50
  3
A9
350
51
  3
B0
350
52
  3
B1
350
53
  3
B2
350
54
  3
B3
350
55
  3
B4
350
56
  3
B5
350
57
  3
B6
350
58
  3
B7
350
59
  3
B8
350
5A
  3
B9
350
5B
  3
C0
350
5C
  3
C1
350
5D
  3
C2
350
5E
  3
C3
350
5F
  3
C4
350
60
  3
C5
350
61
  3
C6
350
62
  3
C7
350
63
  3
C8
350
64
  3
C9
350
65
  3
D0
350
66
  3
D1
350
67
  3
D2
350
68
  0
DICTIONARY
  5
69
102
{ACAD_REACTORS
330
C
102
}
330
C
100
AcDbDictionary
281
     1
  3
Standard
350
6A
  0
DICTIONARY
  5
2A
102
{ACAD_REACTORS
330
C
102
}
330
C
100
AcDbDictionary
281
     1
  3
2dWireframe
350
2F
  3
Basic
350
32
  3
Brighten
350
36
  3
ColorChange
350
3A
  3
Conceptual
350
34
  3
Dim
350
35
  3
EdgeColorOff
350
3D
  3
Facepattern
350
39
  3
Flat
350
2B
  3
FlatWithEdges
350
2C
  3
Gouraud
350
2D
  3
GouraudWithEdges
350
2E
  3
Hidden
350
31
  3
JitterOff
350
3B
  3
Linepattern
350
38
  3
OverhangOff
350
3C
  3
Realistic
350
33
  3
Shaded
350
42
  3
Shaded with edges
350
41
  3
Shades of Gray
350
3E
  3
Sketchy
350
3F
  3
Thicken
350
37
  3
Wireframe
350
30
  3
X-Ray
350
40
  0
DICTIONARY
  5
415
102
{ACAD_REACTORS
330
C
102
}
330
C
100
AcDbDictionary
281
     1
  3
CANNOSCALE
350
41E
  3
CMLEADERSTYLE
350
417
  3
CTABLESTYLE
350
416
  3
DIMASSOC
350
41A
  3
HIDETEXT
350
41B
  3
MSLTSCALE
350
41F
  0
XRECORD
  5
41D
102
{ACAD_REACTORS
330
41C
102
}
330
41C
100
AcDbXrecord
280
     1
102
VTR_0.000_0.000_1.000_1.000_VISUALSTYLE
340
2F
102
VTR_0.000_0.000_1.000_1.000_GRIDDISPLAY
 70
     3
102
VTR_0.000_0.000_1.000_1.000_GRIDMAJOR
 70
     5
102
VTR_0.000_0.000_1.000_1.000_DEFAULTLIGHTING
280
     1
102
VTR_0.000_0.000_1.000_1.000_DEFAULTLIGHTINGTYPE
 70
     1
102
VTR_0.000_0.000_1.000_1.000_BRIGHTNESS
141
0.0
102
VTR_0.000_0.000_1.000_1.000_CONTRAST
142
0.0
  0
LAYOUT
  5
1E
102
{ACAD_REACTORS
330
1A
102
}
330
1A
100
AcDbPlotSettings
  1

  2
none_device
  4

  6

 40
0.0
 41
0.0
 42
0.0
 43
0.0
 44
0.0
 45
0.0
 46
0.0
 47
0.0
 48
0.0
 49
0.0
140
0.0
141
0.0
142
1.0
143
1.0
 70
   688
 72
     0
 73
     0
 74
     5
  7

 75
    16
147
1.0
148
0.0
149
0.0
100
AcDbLayout
  1
Layout1
 70
     1
 71
     1
 10
0.0
 20
0.0
 11
12.0
 21
9.0
 12
0.0
 22
0.0
 32
0.0
 14
1.000000000000000E+20
 24
1.000000000000000E+20
 34
1.000000000000000E+20
 15
-1.000000000000000E+20
 25
-1.000000000000000E+20
 35
-1.000000000000000E+20
146
0.0
 13
0.0
 23
0.0
 33
0.0
 16
1.0
 26
0.0
 36
0.0
 17
0.0
 27
1.0
 37
0.0
 76
     0
330
1B
  0
LAYOUT
  5
22
102
{ACAD_REACTORS
330
1A
102
}
330
1A
100
AcDbPlotSettings
  1

  2
none_device
  4
Letter_(8.50_x_11.00_Inches)
  6

 40
6.35
 41
6.35
 42
6.35000508
 43
6.35000508
 44
215.9
 45
279.4
 46
0.0
 47
0.0
 48
0.0
 49
0.0
140
0.0
141
0.0
142
1.0
143
1.0
 70
  1712
 72
     0
 73
     0
 74
     0
  7

 75
     0
147
1.0
148
0.0
149
0.0
100
AcDbLayout
  1
Model
 70
     1
 71
     0
 10
2420.309844678782
 20
-11196.85275923742
 11
3326.327902113308
 21
-9996.852759237416
 12
2420.309844678782
 22
-9996.852759237416
 32
0.0
 14
2420.309844678782
 24
-11196.85275923742
 34
0.0
 15
3326.327902113308
 25
-9996.852759237416
 35
0.0
146
0.0
 13
0.0
 23
0.0
 33
0.0
 16
1.0
 26
0.0
 36
0.0
 17
0.0
 27
1.0
 37
0.0
 76
     0
330
1F
331
29
  0
MATERIAL
  5
45
102
{ACAD_REACTORS
330
43
102
}
102
{ACAD_XDICTIONARY
360
452
102
}
330
43
100
AcDbMaterial
  1
ByBlock
  0
MATERIAL
  5
44
102
{ACAD_REACTORS
330
43
102
}
102
{ACAD_XDICTIONARY
360
450
102
}
330
43
100
AcDbMaterial
  1
ByLayer
  0
MATERIAL
  5
46
102
{ACAD_REACTORS
330
43
102
}
102
{ACAD_XDICTIONARY
360
454
102
}
330
43
100
AcDbMaterial
  1
Global
  0
MLEADERSTYLE
  5
6C
102
{ACAD_REACTORS
330
6B
102
}
102
{ACAD_XDICTIONARY
360
457
102
}
330
6B
100
AcDbMLeaderStyle
170
     2
171
     1
172
     0
 90
        2
 40
0.0
 41
0.0
173
     1
 91
-1056964608
340
14
 92
       -2
290
     1
 42
0.09
291
     1
 43
0.36
  3
Standard
341
0
 44
0.18
300

342
11
174
     1
178
     6
175
     1
176
     0
 93
-1056964608
 45
0.18
292
     0
297
     0
 46
0.18
343
0
 94
-1056964608
 47
1.0
 49
1.0
140
1.0
293
     1
141
0.0
294
     1
177
     0
142
1.0
295
     0
296
     0
143
0.125
1001
ACAD_MLEADERVER
1070
     2
  0
MLINESTYLE
  5
18
102
{ACAD_REACTORS
330
17
102
}
330
17
100
AcDbMlineStyle
  2
Standard
 70
     0
  3

 62
   256
 51
90.0
 52
90.0
 71
     2
 49
0.5
 62
   256
  6
BYLAYER
 49
-0.5
 62
   256
  6
BYLAYER
  0
ACDBPLACEHOLDER
  5
F
102
{ACAD_REACTORS
330
E
102
}
330
E
  0
SCALE
  5
48
102
{ACAD_REACTORS
330
47
102
}
330
47
100
AcDbScale
 70
     0
300
1:1
140
1.0
141
1.0
290
     1
  0
SCALE
  5
49
102
{ACAD_REACTORS
330
47
102
}
330
47
100
AcDbScale
 70
     0
300
1:2
140
1.0
141
2.0
290
     0
  0
SCALE
  5
4A
102
{ACAD_REACTORS
330
47
102
}
330
47
100
AcDbScale
 70
     0
300
1:4
140
1.0
141
4.0
290
     0
  0
SCALE
  5
4B
102
{ACAD_REACTORS
330
47
102
}
330
47
100
AcDbScale
 70
     0
300
1:5
140
1.0
141
5.0
290
     0
  0
SCALE
  5
4C
102
{ACAD_REACTORS
330
47
102
}
330
47
100
AcDbScale
 70
     0
300
1:8
140
1.0
141
8.0
290
     0
  0
SCALE
  5
4D
102
{ACAD_REACTORS
330
47
102
}
330
47
100
AcDbScale
 70
     0
300
1:10
140
1.0
141
10.0
290
     0
  0
SCALE
  5
4E
102
{ACAD_REACTORS
330
47
102
}
330
47
100
AcDbScale
 70
     0
300
1:16
140
1.0
141
16.0
290
     0
  0
SCALE
  5
4F
102
{ACAD_REACTORS
330
47
102
}
330
47
100
AcDbScale
 70
     0
300
1:20
140
1.0
141
20.0
290
     0
  0
SCALE
  5
50
102
{ACAD_REACTORS
330
47
102
}
330
47
100
AcDbScale
 70
     0
300
1:30
140
1.0
141
30.0
290
     0
  0
SCALE
  5
51
102
{ACAD_REACTORS
330
47
102
}
330
47
100
AcDbScale
 70
     0
300
1:40
140
1.0
141
40.0
290
     0
  0
SCALE
  5
52
102
{ACAD_REACTORS
330
47
102
}
330
47
100
AcDbScale
 70
     0
300
1:50
140
1.0
141
50.0
290
     0
  0
SCALE
  5
53
102
{ACAD_REACTORS
330
47
102
}
330
47
100
AcDbScale
 70
     0
300
1:100
140
1.0
141
100.0
290
     0
  0
SCALE
  5
54
102
{ACAD_REACTORS
330
47
102
}
330
47
100
AcDbScale
 70
     0
300
2:1
140
2.0
141
1.0
290
     0
  0
SCALE
  5
55
102
{ACAD_REACTORS
330
47
102
}
330
47
100
AcDbScale
 70
     0
300
4:1
140
4.0
141
1.0
290
     0
  0
SCALE
  5
56
102
{ACAD_REACTORS
330
47
102
}
330
47
100
AcDbScale
 70
     0
300
8:1
140
8.0
141
1.0
290
     0
  0
SCALE
  5
57
102
{ACAD_REACTORS
330
47
102
}
330
47
100
AcDbScale
 70
     0
300
10:1
140
10.0
141
1.0
290
     0
  0
SCALE
  5
58
102
{ACAD_REACTORS
330
47
102
}
330
47
100
AcDbScale
 70
     0
300
100:1
140
100.0
141
1.0
290
     0
  0
SCALE
  5
59
102
{ACAD_REACTORS
330
47
102
}
330
47
100
AcDbScale
 70
     0
300
1/128" = 1'-0"
140
0.0078125
141
12.0
290
     0
  0
SCALE
  5
5A
102
{ACAD_REACTORS
330
47
102
}
330
47
100
AcDbScale
 70
     0
300
1/64" = 1'-0"
140
0.015625
141
12.0
290
     0
  0
SCALE
  5
5B
102
{ACAD_REACTORS
330
47
102
}
330
47
100
AcDbScale
 70
     0
300
1/32" = 1'-0"
140
0.03125
141
12.0
290
     0
  0
SCALE
  5
5C
102
{ACAD_REACTORS
330
47
102
}
330
47
100
AcDbScale
 70
     0
300
1/16" = 1'-0"
140
0.0625
141
12.0
290
     0
  0
SCALE
  5
5D
102
{ACAD_REACTORS
330
47
102
}
330
47
100
AcDbScale
 70
     0
300
3/32" = 1'-0"
140
0.09375
141
12.0
290
     0
  0
SCALE
  5
5E
102
{ACAD_REACTORS
330
47
102
}
330
47
100
AcDbScale
 70
     0
300
1/8" = 1'-0"
140
0.125
141
12.0
290
     0
  0
SCALE
  5
5F
102
{ACAD_REACTORS
330
47
102
}
330
47
100
AcDbScale
 70
     0
300
3/16" = 1'-0"
140
0.1875
141
12.0
290
     0
  0
SCALE
  5
60
102
{ACAD_REACTORS
330
47
102
}
330
47
100
AcDbScale
 70
     0
300
1/4" = 1'-0"
140
0.25
141
12.0
290
     0
  0
SCALE
  5
61
102
{ACAD_REACTORS
330
47
102
}
330
47
100
AcDbScale
 70
     0
300
3/8" = 1'-0"
140
0.375
141
12.0
290
     0
  0
SCALE
  5
62
102
{ACAD_REACTORS
330
47
102
}
330
47
100
AcDbScale
 70
     0
300
1/2" = 1'-0"
140
0.5
141
12.0
290
     0
  0
SCALE
  5
63
102
{ACAD_REACTORS
330
47
102
}
330
47
100
AcDbScale
 70
     0
300
3/4" = 1'-0"
140
0.75
141
12.0
290
     0
  0
SCALE
  5
64
102
{ACAD_REACTORS
330
47
102
}
330
47
100
AcDbScale
 70
     0
300
1" = 1'-0"
140
1.0
141
12.0
290
     0
  0
SCALE
  5
65
102
{ACAD_REACTORS
330
47
102
}
330
47
100
AcDbScale
 70
     0
300
1-1/2" = 1'-0"
140
1.5
141
12.0
290
     0
  0
SCALE
  5
66
102
{ACAD_REACTORS
330
47
102
}
330
47
100
AcDbScale
 70
     0
300
3" = 1'-0"
140
3.0
141
12.0
290
     0
  0
SCALE
  5
67
102
{ACAD_REACTORS
330
47
102
}
330
47
100
AcDbScale
 70
     0
300
6" = 1'-0"
140
6.0
141
12.0
290
     0
  0
SCALE
  5
68
102
{ACAD_REACTORS
330
47
102
}
330
47
100
AcDbScale
 70
     0
300
1'-0" = 1'-0"
140
12.0
141
12.0
290
     0
  0
TABLESTYLE
  5
6A
102
{ACAD_REACTORS
330
69
102
}
330
69
100
AcDbTableStyle
  3
Standard
 70
     0
 71
     0
 40
0.06
 41
0.06
280
     0
281
     0
  7
Standard
140
0.18
170
     2
 62
     0
 63
   257
283
     0
274
    -2
284
     1
 64
     0
275
    -2
285
     1
 65
     0
276
    -2
286
     1
 66
     0
277
    -2
287
     1
 67
     0
278
    -2
288
     1
 68
     0
279
    -2
289
     1
 69
     0
  7
Standard
140
0.25
170
     5
 62
     0
 63
   257
283
     0
274
    -2
284
     1
 64
     0
275
    -2
285
     1
 65
     0
276
    -2
286
     1
 66
     0
277
    -2
287
     1
 67
     0
278
    -2
288
     1
 68
     0
279
    -2
289
     1
 69
     0
  7
Standard
140
0.18
170
     5
 62
     0
 63
   257
283
     0
274
    -2
284
     1
 64
     0
275
    -2
285
     1
 65
     0
276
    -2
286
     1
 66
     0
277
    -2
287
     1
 67
     0
278
    -2
288
     1
 68
     0
279
    -2
289
     1
 69
     0
  0
VISUALSTYLE
  5
2F
102
{ACAD_REACTORS
330
2A
102
}
102
{ACAD_XDICTIONARY
360
428
102
}
330
2A
100
AcDbVisualStyle
  2
2dWireframe
 70
     4
 71
     0
 72
     2
 73
     0
 90
        0
 40
0.6
 41
30.0
 62
     5
 63
     7
 74
     1
 91
        4
 64
     7
 65
   257
 75
     1
175
     1
 42
1.0
 92
        0
 66
   257
 43
1.0
 76
     1
 77
     6
 78
     2
 67
     7
 79
     5
170
     0
171
     0
290
     0
174
     0
 93
        1
 44
0.0
173
     0
291
     0
 45
0.0
1001
ACAD
1000
AcDbSavedByObjectVersion
1070
     0
  0
VISUALSTYLE
  5
32
102
{ACAD_REACTORS
330
2A
102
}
102
{ACAD_XDICTIONARY
360
42E
102
}
330
2A
100
AcDbVisualStyle
  2
Basic
 70
     7
 71
     1
 72
     0
 73
     1
 90
        0
 40
0.6
 41
30.0
 62
     5
 63
     7
 74
     0
 91
        4
 64
     7
 65
   257
 75
     1
175
     1
 42
1.0
 92
        8
 66
     7
 43
1.0
 76
     1
 77
     6
 78
     2
 67
     7
 79
     5
170
     0
171
     0
290
     0
174
     0
 93
        1
 44
0.0
173
     0
291
     1
 45
0.0
1001
ACAD
1000
AcDbSavedByObjectVersion
1070
     0
  0
VISUALSTYLE
  5
36
102
{ACAD_REACTORS
330
2A
102
}
102
{ACAD_XDICTIONARY
360
436
102
}
330
2A
100
AcDbVisualStyle
  2
Brighten
 70
    12
 71
     2
 72
     2
 73
     0
 90
        0
 40
0.6
 41
30.0
 62
     5
 63
     7
 74
     1
 91
        4
 64
     7
 65
   257
 75
     1
175
     1
 42
1.0
 92
        8
 66
     7
 43
1.0
 76
     1
 77
     6
 78
     2
 67
     7
 79
     5
170
     0
171
     0
290
     0
174
     0
 93
        1
 44
50.0
173
     0
291
     1
 45
0.0
1001
ACAD
1000
AcDbSavedByObjectVersion
1070
     0
  0
VISUALSTYLE
  5
3A
102
{ACAD_REACTORS
330
2A
102
}
102
{ACAD_XDICTIONARY
360
43E
102
}
330
2A
100
AcDbVisualStyle
  2
ColorChange
 70
    16
 71
     2
 72
     2
 73
     3
 90
        0
 40
0.6
 41
30.0
 62
     5
 63
     8
 74
     1
 91
        4
 64
     7
 65
   257
 75
     1
175
     1
 42
1.0
 92
        8
 66
     8
 43
1.0
 76
     1
 77
     6
 78
     2
 67
     7
 79
     5
170
     0
171
     0
290
     0
174
     0
 93
        1
 44
0.0
173
     0
291
     1
 45
0.0
1001
ACAD
1000
AcDbSavedByObjectVersion
1070
     0
  0
VISUALSTYLE
  5
34
102
{ACAD_REACTORS
330
2A
102
}
102
{ACAD_XDICTIONARY
360
432
102
}
330
2A
100
AcDbVisualStyle
  2
Conceptual
 70
     9
 71
     3
 72
     2
 73
     0
 90
        0
 40
0.6
 41
30.0
 62
     5
 63
     7
 74
     2
 91
        2
 64
     7
 65
   257
 75
     1
175
     1
 42
179.0
 92
        8
 66
     7
 43
1.0
 76
     1
 77
     6
 78
     2
 67
     7
 79
     3
170
     0
171
     0
290
     0
174
     0
 93
        1
 44
0.0
173
     0
291
     0
 45
0.0
1001
ACAD
1000
AcDbSavedByObjectVersion
1070
     0
  0
VISUALSTYLE
  5
35
102
{ACAD_REACTORS
330
2A
102
}
102
{ACAD_XDICTIONARY
360
434
102
}
330
2A
100
AcDbVisualStyle
  2
Dim
 70
    11
 71
     2
 72
     2
 73
     0
 90
        0
 40
0.6
 41
30.0
 62
     5
 63
     7
 74
     1
 91
        4
 64
     7
 65
   257
 75
     1
175
     1
 42
1.0
 92
        8
 66
     7
 43
1.0
 76
     1
 77
     6
 78
     2
 67
     7
 79
     5
170
     0
171
     0
290
     0
174
     0
 93
        1
 44
-50.0
173
     0
291
     1
 45
0.0
1001
ACAD
1000
AcDbSavedByObjectVersion
1070
     0
  0
VISUALSTYLE
  5
3D
102
{ACAD_REACTORS
330
2A
102
}
102
{ACAD_XDICTIONARY
360
444
102
}
330
2A
100
AcDbVisualStyle
  2
EdgeColorOff
 70
    22
 71
     2
 72
     2
 73
     0
 90
        0
 40
0.6
 41
30.0
 62
     5
 63
     7
 74
     1
 91
        4
 64
     7
 65
   257
 75
     1
175
     1
 42
1.0
 92
        8
 66
     7
 43
1.0
 76
     1
 77
     6
 78
     2
 67
     7
 79
     5
170
     0
171
     0
290
     0
174
     0
 93
        1
 44
0.0
173
     0
291
     1
 45
0.0
1001
ACAD
1000
AcDbSavedByObjectVersion
1070
     0
  0
VISUALSTYLE
  5
39
102
{ACAD_REACTORS
330
2A
102
}
102
{ACAD_XDICTIONARY
360
43C
102
}
330
2A
100
AcDbVisualStyle
  2
Facepattern
 70
    15
 71
     2
 72
     2
 73
     0
 90
        0
 40
0.6
 41
30.0
 62
     5
 63
     7
 74
     1
 91
        4
 64
     7
 65
   257
 75
     1
175
     1
 42
1.0
 92
        8
 66
     7
 43
1.0
 76
     1
 77
     6
 78
     2
 67
     7
 79
     5
170
     0
171
     0
290
     0
174
     0
 93
        1
 44
0.0
173
     0
291
     1
 45
0.0
1001
ACAD
1000
AcDbSavedByObjectVersion
1070
     0
  0
VISUALSTYLE
  5
2B
102
{ACAD_REACTORS
330
2A
102
}
102
{ACAD_XDICTIONARY
360
420
102
}
330
2A
100
AcDbVisualStyle
  2
Flat
 70
     0
 71
     2
 72
     1
 73
     1
 90
        2
 40
0.6
 41
30.0
 62
     5
 63
     7
 74
     0
 91
        0
 64
     7
 65
   257
 75
     1
175
     1
 42
1.0
 92
        8
 66
     7
 43
1.0
 76
     1
 77
     6
 78
     2
 67
     7
 79
     5
170
     0
171
     0
290
     0
174
     0
 93
       13
 44
0.0
173
     0
291
     1
 45
0.0
1001
ACAD
1000
AcDbSavedByObjectVersion
1070
     0
  0
VISUALSTYLE
  5
2C
102
{ACAD_REACTORS
330
2A
102
}
102
{ACAD_XDICTIONARY
360
422
102
}
330
2A
100
AcDbVisualStyle
  2
FlatWithEdges
 70
     1
 71
     2
 72
     1
 73
     1
 90
        2
 40
0.6
 41
30.0
 62
     5
 63
     7
 74
     1
 91
        0
 64
     7
 65
   257
 75
     1
175
     1
 42
1.0
 92
        0
 66
   257
 43
1.0
 76
     1
 77
     6
 78
     2
 67
     7
 79
     5
170
     0
171
     0
290
     0
174
     0
 93
       13
 44
0.0
173
     0
291
     1
 45
0.0
1001
ACAD
1000
AcDbSavedByObjectVersion
1070
     0
  0
VISUALSTYLE
  5
2D
102
{ACAD_REACTORS
330
2A
102
}
102
{ACAD_XDICTIONARY
360
424
102
}
330
2A
100
AcDbVisualStyle
  2
Gouraud
 70
     2
 71
     2
 72
     2
 73
     1
 90
        2
 40
0.6
 41
30.0
 62
     5
 63
     7
 74
     0
 91
        0
 64
     7
 65
   257
 75
     1
175
     1
 42
1.0
 92
        0
 66
     7
 43
1.0
 76
     1
 77
     6
 78
     2
 67
     7
 79
     5
170
     0
171
     0
290
     0
174
     0
 93
       13
 44
0.0
173
     0
291
     1
 45
0.0
1001
ACAD
1000
AcDbSavedByObjectVersion
1070
     0
  0
VISUALSTYLE
  5
2E
102
{ACAD_REACTORS
330
2A
102
}
102
{ACAD_XDICTIONARY
360
426
102
}
330
2A
100
AcDbVisualStyle
  2
GouraudWithEdges
 70
     3
 71
     2
 72
     2
 73
     1
 90
        2
 40
0.6
 41
30.0
 62
     5
 63
     7
 74
     1
 91
        0
 64
     7
 65
   257
 75
     1
175
     1
 42
1.0
 92
        0
 66
   257
 43
1.0
 76
     1
 77
     6
 78
     2
 67
     7
 79
     5
170
     0
171
     0
290
     0
174
     0
 93
       13
 44
0.0
173
     0
291
     1
 45
0.0
1001
ACAD
1000
AcDbSavedByObjectVersion
1070
     0
  0
VISUALSTYLE
  5
31
102
{ACAD_REACTORS
330
2A
102
}
102
{ACAD_XDICTIONARY
360
42C
102
}
330
2A
100
AcDbVisualStyle
  2
Hidden
 70
     6
 71
     1
 72
     2
 73
     2
 90
        0
 40
0.6
 41
30.0
 62
     5
 63
     7
 74
     2
 91
        2
 64
     7
 65
   257
 75
     2
175
     1
 42
40.0
 92
        0
 66
   257
 43
1.0
 76
     1
 77
     6
 78
     2
 67
     7
 79
     3
170
     0
171
     0
290
     0
174
     0
 93
        1
 44
0.0
173
     0
291
     0
 45
0.0
1001
ACAD
1000
AcDbSavedByObjectVersion
1070
     0
  0
VISUALSTYLE
  5
3B
102
{ACAD_REACTORS
330
2A
102
}
102
{ACAD_XDICTIONARY
360
440
102
}
330
2A
100
AcDbVisualStyle
  2
JitterOff
 70
    20
 71
     2
 72
     2
 73
     0
 90
        0
 40
0.6
 41
30.0
 62
     5
 63
     7
 74
     1
 91
        4
 64
     7
 65
   257
 75
     1
175
     1
 42
1.0
 92
       10
 66
     7
 43
1.0
 76
     1
 77
     6
 78
     2
 67
     7
 79
     5
170
     0
171
     0
290
     0
174
     0
 93
        1
 44
0.0
173
     0
291
     1
 45
0.0
1001
ACAD
1000
AcDbSavedByObjectVersion
1070
     0
  0
VISUALSTYLE
  5
38
102
{ACAD_REACTORS
330
2A
102
}
102
{ACAD_XDICTIONARY
360
43A
102
}
330
2A
100
AcDbVisualStyle
  2
Linepattern
 70
    14
 71
     2
 72
     2
 73
     0
 90
        0
 40
0.6
 41
30.0
 62
     5
 63
     7
 74
     1
 91
        4
 64
     7
 65
   257
 75
     7
175
     7
 42
1.0
 92
        8
 66
     7
 43
1.0
 76
     1
 77
     6
 78
     2
 67
     7
 79
     5
170
     0
171
     0
290
     0
174
     0
 93
        1
 44
0.0
173
     0
291
     1
 45
0.0
1001
ACAD
1000
AcDbSavedByObjectVersion
1070
     0
  0
VISUALSTYLE
  5
3C
102
{ACAD_REACTORS
330
2A
102
}
102
{ACAD_XDICTIONARY
360
442
102
}
330
2A
100
AcDbVisualStyle
  2
OverhangOff
 70
    21
 71
     2
 72
     2
 73
     0
 90
        0
 40
0.6
 41
30.0
 62
     5
 63
     7
 74
     1
 91
        4
 64
     7
 65
   257
 75
     1
175
     1
 42
1.0
 92
        9
 66
     7
 43
1.0
 76
     1
 77
     6
 78
     2
 67
     7
 79
     5
170
     0
171
     0
290
     0
174
     0
 93
        1
 44
0.0
173
     0
291
     1
 45
0.0
1001
ACAD
1000
AcDbSavedByObjectVersion
1070
     0
  0
VISUALSTYLE
  5
33
102
{ACAD_REACTORS
330
2A
102
}
102
{ACAD_XDICTIONARY
360
430
102
}
330
2A
100
AcDbVisualStyle
  2
Realistic
 70
     8
 71
     2
 72
     3
 73
     0
 90
        2
 40
0.6
 41
30.0
 62
     5
 63
     7
 74
     0
 91
        0
 64
     7
 65
   257
 75
     1
175
     1
 42
1.0
 92
        8
 66
   257
 43
1.0
 76
     1
 77
     6
 78
     2
 67
     7
 79
     3
170
     0
171
     0
290
     0
174
     0
 93
       13
 44
0.0
173
     0
291
     0
 45
0.0
1001
ACAD
1000
AcDbSavedByObjectVersion
1070
     0
  0
VISUALSTYLE
  5
42
102
{ACAD_REACTORS
330
2A
102
}
102
{ACAD_XDICTIONARY
360
44E
102
}
330
2A
100
AcDbVisualStyle
  2
Shaded
 70
    27
 71
     2
 72
     2
 73
     1
 90
        2
 40
0.6
 41
30.0
 62
     5
 63
     7
 74
     0
 91
        4
 64
     7
 65
   257
 75
     1
175
     1
 42
1.0
 92
        8
 66
   257
 43
1.0
 76
     1
 77
     6
 78
     2
 67
     8
 79
     3
170
     0
171
     0
290
     0
174
     0
 93
        5
 44
0.0
173
     0
291
     0
 45
0.0
1001
ACAD
1000
AcDbSavedByObjectVersion
1070
     0
  0
VISUALSTYLE
  5
41
102
{ACAD_REACTORS
330
2A
102
}
102
{ACAD_XDICTIONARY
360
44C
102
}
330
2A
100
AcDbVisualStyle
  2
Shaded with edges
 70
    26
 71
     2
 72
     2
 73
     1
 90
        2
 40
0.6
 41
30.0
 62
     5
 63
     7
 74
     1
 91
       10
 64
     7
 65
   257
 75
     2
175
     1
 42
1.0
 92
        8
 66
   257
 43
1.0
 76
     1
 77
     6
 78
     2
 67
     7
 79
     3
170
     0
171
     0
290
     0
174
     0
 93
        5
 44
0.0
173
     0
291
     0
 45
0.0
1001
ACAD
1000
AcDbSavedByObjectVersion
1070
     0
  0
VISUALSTYLE
  5
3E
102
{ACAD_REACTORS
330
2A
102
}
102
{ACAD_XDICTIONARY
360
446
102
}
330
2A
100
AcDbVisualStyle
  2
Shades of Gray
 70
    23
 71
     2
 72
     2
 73
     3
 90
        0
 40
0.6
 41
30.0
 62
     5
 63
     7
 74
     2
 91
        2
 64
     7
 65
     7
 75
     1
175
     1
 42
40.0
 92
        8
 66
     7
 43
1.0
 76
     1
 77
     6
 78
     2
 67
     7
 79
     3
170
     0
171
     0
290
     0
174
     0
 93
        1
 44
0.0
173
     0
291
     0
 45
0.0
1001
ACAD
1000
AcDbSavedByObjectVersion
1070
     0
  0
VISUALSTYLE
  5
3F
102
{ACAD_REACTORS
330
2A
102
}
102
{ACAD_XDICTIONARY
360
448
102
}
330
2A
100
AcDbVisualStyle
  2
Sketchy
 70
    24
 71
     1
 72
     2
 73
     2
 90
        0
 40
0.6
 41
30.0
 62
     5
 63
     7
 74
     2
 91
        2
 64
     7
 65
     7
 75
     1
175
     1
 42
40.0
 92
       11
 66
     7
 43
1.0
 76
     1
 77
     6
 78
     2
 67
     7
 79
     6
170
     0
171
     0
290
     0
174
     0
 93
        1
 44
0.0
173
     0
291
     0
 45
0.0
1001
ACAD
1000
AcDbSavedByObjectVersion
1070
     0
  0
VISUALSTYLE
  5
37
102
{ACAD_REACTORS
330
2A
102
}
102
{ACAD_XDICTIONARY
360
438
102
}
330
2A
100
AcDbVisualStyle
  2
Thicken
 70
    13
 71
     2
 72
     2
 73
     0
 90
        0
 40
0.6
 41
30.0
 62
     5
 63
     7
 74
     1
 91
        4
 64
     7
 65
   257
 75
     1
175
     1
 42
1.0
 92
       12
 66
     7
 43
1.0
 76
     1
 77
     6
 78
     2
 67
     7
 79
     5
170
     0
171
     0
290
     0
174
     0
 93
        1
 44
0.0
173
     0
291
     1
 45
0.0
1001
ACAD
1000
AcDbSavedByObjectVersion
1070
     0
  0
VISUALSTYLE
  5
30
102
{ACAD_REACTORS
330
2A
102
}
102
{ACAD_XDICTIONARY
360
42A
102
}
330
2A
100
AcDbVisualStyle
  2
Wireframe
 70
     5
 71
     0
 72
     2
 73
     0
 90
        0
 40
0.6
 41
30.0
 62
     5
 63
     7
 74
     1
 91
        4
 64
     7
 65
   257
 75
     1
175
     1
 42
1.0
 92
        0
 66
   257
 43
1.0
 76
     1
 77
     6
 78
     2
 67
     7
 79
     3
170
     0
171
     0
290
     0
174
     0
 93
        1
 44
0.0
173
     0
291
     0
 45
0.0
1001
ACAD
1000
AcDbSavedByObjectVersion
1070
     0
  0
VISUALSTYLE
  5
40
102
{ACAD_REACTORS
330
2A
102
}
102
{ACAD_XDICTIONARY
360
44A
102
}
330
2A
100
AcDbVisualStyle
  2
X-Ray
 70
    25
 71
     2
 72
     2
 73
     1
 90
        1
 40
0.5
 41
30.0
 62
     5
 63
     7
 74
     1
 91
        0
 64
     7
 65
   257
 75
     1
175
     1
 42
1.0
 92
        8
 66
     7
 43
1.0
 76
     1
 77
     6
 78
     2
 67
     7
 79
     3
170
     0
171
     0
290
     0
174
     0
 93
       13
 44
0.0
173
     0
291
     0
 45
0.0
1001
ACAD
1000
AcDbSavedByObjectVersion
1070
     0
  0
DICTIONARYVAR
  5
41E
102
{ACAD_REACTORS
330
415
102
}
330
415
100
DictionaryVariables
280
     0
  1
1:1
  0
DICTIONARYVAR
  5
417
102
{ACAD_REACTORS
330
415
102
}
330
415
100
DictionaryVariables
280
     0
  1
Standard
  0
DICTIONARYVAR
  5
416
102
{ACAD_REACTORS
330
415
102
}
330
415
100
DictionaryVariables
280
     0
  1
Standard
  0
DICTIONARYVAR
  5
41A
102
{ACAD_REACTORS
330
415
102
}
330
415
100
DictionaryVariables
280
     0
  1
2
  0
DICTIONARYVAR
  5
41B
102
{ACAD_REACTORS
330
415
102
}
330
415
100
DictionaryVariables
280
     0
  1
1
  0
DICTIONARYVAR
  5
41F
102
{ACAD_REACTORS
330
415
102
}
330
415
100
DictionaryVariables
280
     0
  1
1
  0
DICTIONARY
  5
452
330
45
100
AcDbDictionary
280
     1
281
     1
  3
ACAD_XREC_ROUNDTRIP
360
453
  0
DICTIONARY
  5
450
330
44
100
AcDbDictionary
280
     1
281
     1
  3
ACAD_XREC_ROUNDTRIP
360
451
  0
DICTIONARY
  5
454
330
46
100
AcDbDictionary
280
     1
281
     1
  3
ACAD_XREC_ROUNDTRIP
360
455
  0
DICTIONARY
  5
457
330
6C
100
AcDbDictionary
280
     1
281
     1
  3
ACAD_XREC_ROUNDTRIP
360
458
  0
DICTIONARY
  5
428
330
2F
100
AcDbDictionary
280
     1
281
     1
  3
ACAD_XREC_ROUNDTRIP
360
429
  0
DICTIONARY
  5
42E
330
32
100
AcDbDictionary
280
     1
281
     1
  3
ACAD_XREC_ROUNDTRIP
360
42F
  0
DICTIONARY
  5
436
330
36
100
AcDbDictionary
280
     1
281
     1
  3
ACAD_XREC_ROUNDTRIP
360
437
  0
DICTIONARY
  5
43E
330
3A
100
AcDbDictionary
280
     1
281
     1
  3
ACAD_XREC_ROUNDTRIP
360
43F
  0
DICTIONARY
  5
432
330
34
100
AcDbDictionary
280
     1
281
     1
  3
ACAD_XREC_ROUNDTRIP
360
433
  0
DICTIONARY
  5
434
330
35
100
AcDbDictionary
280
     1
281
     1
  3
ACAD_XREC_ROUNDTRIP
360
435
  0
DICTIONARY
  5
444
330
3D
100
AcDbDictionary
280
     1
281
     1
  3
ACAD_XREC_ROUNDTRIP
360
445
  0
DICTIONARY
  5
43C
330
39
100
AcDbDictionary
280
     1
281
     1
  3
ACAD_XREC_ROUNDTRIP
360
43D
  0
DICTIONARY
  5
420
330
2B
100
AcDbDictionary
280
     1
281
     1
  3
ACAD_XREC_ROUNDTRIP
360
421
  0
DICTIONARY
  5
422
330
2C
100
AcDbDictionary
280
     1
281
     1
  3
ACAD_XREC_ROUNDTRIP
360
423
  0
DICTIONARY
  5
424
330
2D
100
AcDbDictionary
280
     1
281
     1
  3
ACAD_XREC_ROUNDTRIP
360
425
  0
DICTIONARY
  5
426
330
2E
100
AcDbDictionary
280
     1
281
     1
  3
ACAD_XREC_ROUNDTRIP
360
427
  0
DICTIONARY
  5
42C
330
31
100
AcDbDictionary
280
     1
281
     1
  3
ACAD_XREC_ROUNDTRIP
360
42D
  0
DICTIONARY
  5
440
330
3B
100
AcDbDictionary
280
     1
281
     1
  3
ACAD_XREC_ROUNDTRIP
360
441
  0
DICTIONARY
  5
43A
330
38
100
AcDbDictionary
280
     1
281
     1
  3
ACAD_XREC_ROUNDTRIP
360
43B
  0
DICTIONARY
  5
442
330
3C
100
AcDbDictionary
280
     1
281
     1
  3
ACAD_XREC_ROUNDTRIP
360
443
  0
DICTIONARY
  5
430
330
33
100
AcDbDictionary
280
     1
281
     1
  3
ACAD_XREC_ROUNDTRIP
360
431
  0
DICTIONARY
  5
44E
330
42
100
AcDbDictionary
280
     1
281
     1
  3
ACAD_XREC_ROUNDTRIP
360
44F
  0
DICTIONARY
  5
44C
330
41
100
AcDbDictionary
280
     1
281
     1
  3
ACAD_XREC_ROUNDTRIP
360
44D
  0
DICTIONARY
  5
446
330
3E
100
AcDbDictionary
280
     1
281
     1
  3
ACAD_XREC_ROUNDTRIP
360
447
  0
DICTIONARY
  5
448
330
3F
100
AcDbDictionary
280
     1
281
     1
  3
ACAD_XREC_ROUNDTRIP
360
449
  0
DICTIONARY
  5
438
330
37
100
AcDbDictionary
280
     1
281
     1
  3
ACAD_XREC_ROUNDTRIP
360
439
  0
DICTIONARY
  5
42A
330
30
100
AcDbDictionary
280
     1
281
     1
  3
ACAD_XREC_ROUNDTRIP
360
42B
  0
DICTIONARY
  5
44A
330
40
100
AcDbDictionary
280
     1
281
     1
  3
ACAD_XREC_ROUNDTRIP
360
44B
  0
XRECORD
  5
453
102
{ACAD_REACTORS
330
452
102
}
330
452
100
AcDbXrecord
280
     1
102
MATERIAL
148
0.0
149
0.0
149
0.0
 93
        0
 94
      127
282
     0
 72
     1
 77
     1
171
     1
175
     1
179
     1
273
     0
  0
XRECORD
  5
451
102
{ACAD_REACTORS
330
450
102
}
330
450
100
AcDbXrecord
280
     1
102
MATERIAL
148
0.0
149
0.0
149
0.0
 93
        0
 94
      127
282
     0
 72
     1
 77
     1
171
     1
175
     1
179
     1
273
     0
  0
XRECORD
  5
455
102
{ACAD_REACTORS
330
454
102
}
330
454
100
AcDbXrecord
280
     1
102
MATERIAL
148
0.0
149
0.0
149
0.0
 93
        0
 94
      127
282
     0
 72
     1
 77
     1
171
     1
175
     1
179
     1
273
     0
  0
XRECORD
  5
458
102
{ACAD_REACTORS
330
457
102
}
330
457
100
AcDbXrecord
280
     1
102
ACAD_ROUNDTRIP_2010_MLEADER_STYLE
  0
XRECORD
  5
429
102
{ACAD_REACTORS
330
428
102
}
330
428
100
AcDbXrecord
280
     1
102
RTVSPropertyOp0
 70
     1
102
RTVSPropertyOp1
 70
     1
102
RTVSPropertyOp2
 70
     1
102
RTVSPropertyOp3
 70
     1
102
RTVSPropertyOp4
 70
     1
102
RTVSPropertyOp5
 70
     1
102
RTVSPropertyOp6
 70
     1
102
RTVSPropertyOp7
 70
     1
102
RTVSPropertyOp8
 70
     1
102
RTVSPropertyOp9
 70
     1
102
RTVSPropertyOp10
 70
     1
102
RTVSPropertyOp11
 70
     1
102
RTVSPropertyOp12
 70
     1
102
RTVSPropertyOp13
 70
     1
102
RTVSPropertyOp14
 70
     1
102
RTVSPropertyOp15
 70
     1
102
RTVSPropertyOp16
 70
     1
102
RTVSPropertyOp17
 70
     1
102
RTVSPropertyOp18
 70
     1
102
RTVSPropertyOp19
 70
     1
102
RTVSPropertyOp20
 70
     1
102
RTVSPropertyOp21
 70
     1
102
RTVSPropertyOp22
 70
     1
102
RTVSPropertyOp23
 70
     1
102
RTVSPropertyOp24
 70
     1
102
RTVSPropertyOp25
 70
     1
102
RTVSPropertyOp26
 70
     1
102
RTVSPropertyOp27
 70
     1
102
RTVSPropertyOp28
 70
     1
102
RTVSPropertyOp29
 70
     1
102
RTVSPropertyOp30
 70
     1
102
RTVSPropertyOp31
 70
     1
102
RTVSPropertyOp32
 70
     1
102
RTVSPropertyOp33
 70
     1
102
RTVSPropertyOp34
 70
     1
102
RTVSPropertyOp35
 70
     1
102
RTVSPropertyOp36
 70
     1
102
RTVSPropertyOp37
 70
     1
102
RTVSPropertyOp38
 70
     1
102
RTVSPropertyOp39
 70
     1
102
RTVSPropertyOp40
 70
     1
102
RTVSPropertyOp41
 70
     1
102
RTVSPropertyOp42
 70
     1
102
RTVSPropertyOp43
 70
     1
102
RTVSPropertyOp44
 70
     1
102
RTVSPropertyOp45
 70
     1
102
RTVSPropertyOp46
 70
     1
102
RTVSPropertyOp47
 70
     1
102
RTVSPropertyOp48
 70
     1
102
RTVSPropertyOp49
 70
     1
102
RTVSPropertyOp50
 70
     1
102
RTVSPropertyOp51
 70
     0
102
RTVSPropertyOp52
 70
     0
102
RTVSPropertyOp53
 70
     1
102
RTVSPropertyOp54
 70
     1
102
RTVSPropertyOp55
 70
     1
102
RTVSPropertyOp56
 70
     1
102
RTVSPropertyOp57
 70
     1
102
RTVSPost2010Prop28
280
     1
102
RTVSPost2010PropOp28
 70
     1
102
RTVSPost2010Prop29
280
     1
102
RTVSPost2010PropOp29
 70
     1
102
RTVSPost2010Prop30
280
     0
102
RTVSPost2010PropOp30
 70
     1
102
RTVSPost2010Prop31
280
     0
102
RTVSPost2010PropOp31
 70
     1
102
RTVSPost2010Prop32
280
     0
102
RTVSPost2010PropOp32
 70
     1
102
RTVSPost2010Prop33
280
     0
102
RTVSPost2010PropOp33
 70
     1
102
RTVSPost2010Prop34
280
     0
102
RTVSPost2010PropOp34
 70
     1
102
RTVSPost2010Prop35
280
     0
102
RTVSPost2010PropOp35
 70
     1
102
RTVSPost2010Prop36
280
     0
102
RTVSPost2010PropOp36
 70
     1
102
RTVSPost2010Prop37
 90
       50
102
RTVSPost2010PropOp37
 70
     1
102
RTVSPost2010Prop38
140
0.0
102
RTVSPost2010PropOp38
 70
     1
102
RTVSPost2010Prop39
140
1.0
102
RTVSPost2010PropOp39
 70
     1
102
RTVSPost2010Prop40
 90
        0
102
RTVSPost2010PropOp40
 70
     1
102
RTVSPost2010Prop41ColorIndex
 90
       18
102
RTVSPost2010Prop41ColorRGB
 90
        0
102
RTVSPost2010PropOp41
 70
     1
102
RTVSPost2010Prop42
 90
       50
102
RTVSPost2010PropOp42
 70
     1
102
RTVSPost2010Prop43
 90
        3
102
RTVSPost2010PropOp43
 70
     1
102
RTVSPost2010Prop44ColorIndex
 90
        5
102
RTVSPost2010Prop44ColorRGB
 90
      255
102
RTVSPost2010PropOp44
 70
     1
102
RTVSPost2010Prop45
280
     0
102
RTVSPost2010PropOp45
 70
     1
102
RTVSPost2010Prop46
 90
       50
102
RTVSPost2010PropOp46
 70
     1
102
RTVSPost2010Prop47
 90
       50
102
RTVSPost2010PropOp47
 70
     1
102
RTVSPost2010Prop48
 90
       50
102
RTVSPost2010PropOp48
 70
     1
102
RTVSPost2010Prop49
280
     0
102
RTVSPost2010PropOp49
 70
     1
102
RTVSPost2010Prop50
 90
       50
102
RTVSPost2010PropOp50
 70
     1
102
RTVSPost2010Prop51ColorIndex
 90
      256
102
RTVSPost2010Prop51ColorRGB
 90
-16777216
102
RTVSPost2010PropOp51
 70
     0
102
RTVSPost2010Prop52
140
1.0
102
RTVSPost2010PropOp52
 70
     0
102
RTVSPost2010Prop53
 90
        2
102
RTVSPost2010PropOp53
 70
     1
102
RTVSPost2010Prop54
  1
strokes_ogs.tif
102
RTVSPost2010PropOp54
 70
     1
102
RTVSPost2010Prop55
280
     0
102
RTVSPost2010PropOp55
 70
     1
102
RTVSPost2010Prop56
140
1.0
102
RTVSPost2010PropOp56
 70
     1
102
RTVSPost2010Prop57
140
1.0
102
RTVSPost2010PropOp57
 70
     1
  0
XRECORD
  5
42F
102
{ACAD_REACTORS
330
42E
102
}
330
42E
100
AcDbXrecord
280
     1
102
RTVSPropertyOp0
 70
     1
102
RTVSPropertyOp1
 70
     1
102
RTVSPropertyOp2
 70
     1
102
RTVSPropertyOp3
 70
     1
102
RTVSPropertyOp4
 70
     1
102
RTVSPropertyOp5
 70
     1
102
RTVSPropertyOp6
 70
     1
102
RTVSPropertyOp7
 70
     1
102
RTVSPropertyOp8
 70
     1
102
RTVSPropertyOp9
 70
     1
102
RTVSPropertyOp10
 70
     1
102
RTVSPropertyOp11
 70
     1
102
RTVSPropertyOp12
 70
     1
102
RTVSPropertyOp13
 70
     1
102
RTVSPropertyOp14
 70
     1
102
RTVSPropertyOp15
 70
     1
102
RTVSPropertyOp16
 70
     1
102
RTVSPropertyOp17
 70
     1
102
RTVSPropertyOp18
 70
     1
102
RTVSPropertyOp19
 70
     1
102
RTVSPropertyOp20
 70
     1
102
RTVSPropertyOp21
 70
     1
102
RTVSPropertyOp22
 70
     1
102
RTVSPropertyOp23
 70
     1
102
RTVSPropertyOp24
 70
     1
102
RTVSPropertyOp25
 70
     1
102
RTVSPropertyOp26
 70
     1
102
RTVSPropertyOp27
 70
     1
102
RTVSPropertyOp28
 70
     1
102
RTVSPropertyOp29
 70
     1
102
RTVSPropertyOp30
 70
     1
102
RTVSPropertyOp31
 70
     1
102
RTVSPropertyOp32
 70
     1
102
RTVSPropertyOp33
 70
     1
102
RTVSPropertyOp34
 70
     1
102
RTVSPropertyOp35
 70
     1
102
RTVSPropertyOp36
 70
     1
102
RTVSPropertyOp37
 70
     1
102
RTVSPropertyOp38
 70
     1
102
RTVSPropertyOp39
 70
     1
102
RTVSPropertyOp40
 70
     1
102
RTVSPropertyOp41
 70
     1
102
RTVSPropertyOp42
 70
     1
102
RTVSPropertyOp43
 70
     1
102
RTVSPropertyOp44
 70
     1
102
RTVSPropertyOp45
 70
     1
102
RTVSPropertyOp46
 70
     1
102
RTVSPropertyOp47
 70
     1
102
RTVSPropertyOp48
 70
     1
102
RTVSPropertyOp49
 70
     1
102
RTVSPropertyOp50
 70
     1
102
RTVSPropertyOp51
 70
     0
102
RTVSPropertyOp52
 70
     0
102
RTVSPropertyOp53
 70
     1
102
RTVSPropertyOp54
 70
     1
102
RTVSPropertyOp55
 70
     1
102
RTVSPropertyOp56
 70
     1
102
RTVSPropertyOp57
 70
     1
102
RTVSPost2010Prop28
280
     0
102
RTVSPost2010PropOp28
 70
     1
102
RTVSPost2010Prop29
280
     1
102
RTVSPost2010PropOp29
 70
     1
102
RTVSPost2010Prop30
280
     1
102
RTVSPost2010PropOp30
 70
     1
102
RTVSPost2010Prop31
280
     0
102
RTVSPost2010PropOp31
 70
     1
102
RTVSPost2010Prop32
280
     0
102
RTVSPost2010PropOp32
 70
     1
102
RTVSPost2010Prop33
280
     0
102
RTVSPost2010PropOp33
 70
     1
102
RTVSPost2010Prop34
280
     0
102
RTVSPost2010PropOp34
 70
     1
102
RTVSPost2010Prop35
280
     0
102
RTVSPost2010PropOp35
 70
     1
102
RTVSPost2010Prop36
280
     0
102
RTVSPost2010PropOp36
 70
     1
102
RTVSPost2010Prop37
 90
       50
102
RTVSPost2010PropOp37
 70
     1
102
RTVSPost2010Prop38
140
0.0
102
RTVSPost2010PropOp38
 70
     1
102
RTVSPost2010Prop39
140
1.0
102
RTVSPost2010PropOp39
 70
     1
102
RTVSPost2010Prop40
 90
        0
102
RTVSPost2010PropOp40
 70
     1
102
RTVSPost2010Prop41ColorIndex
 90
       18
102
RTVSPost2010Prop41ColorRGB
 90
        0
102
RTVSPost2010PropOp41
 70
     1
102
RTVSPost2010Prop42
 90
       50
102
RTVSPost2010PropOp42
 70
     1
102
RTVSPost2010Prop43
 90
        3
102
RTVSPost2010PropOp43
 70
     1
102
RTVSPost2010Prop44ColorIndex
 90
        5
102
RTVSPost2010Prop44ColorRGB
 90
      255
102
RTVSPost2010PropOp44
 70
     1
102
RTVSPost2010Prop45
280
     0
102
RTVSPost2010PropOp45
 70
     1
102
RTVSPost2010Prop46
 90
       50
102
RTVSPost2010PropOp46
 70
     1
102
RTVSPost2010Prop47
 90
       50
102
RTVSPost2010PropOp47
 70
     1
102
RTVSPost2010Prop48
 90
       50
102
RTVSPost2010PropOp48
 70
     1
102
RTVSPost2010Prop49
280
     0
102
RTVSPost2010PropOp49
 70
     1
102
RTVSPost2010Prop50
 90
       50
102
RTVSPost2010PropOp50
 70
     1
102
RTVSPost2010Prop51ColorIndex
 90
      256
102
RTVSPost2010Prop51ColorRGB
 90
-16777216
102
RTVSPost2010PropOp51
 70
     0
102
RTVSPost2010Prop52
140
1.0
102
RTVSPost2010PropOp52
 70
     0
102
RTVSPost2010Prop53
 90
        2
102
RTVSPost2010PropOp53
 70
     1
102
RTVSPost2010Prop54
  1
strokes_ogs.tif
102
RTVSPost2010PropOp54
 70
     1
102
RTVSPost2010Prop55
280
     0
102
RTVSPost2010PropOp55
 70
     1
102
RTVSPost2010Prop56
140
1.0
102
RTVSPost2010PropOp56
 70
     1
102
RTVSPost2010Prop57
140
1.0
102
RTVSPost2010PropOp57
 70
     1
  0
XRECORD
  5
437
102
{ACAD_REACTORS
330
436
102
}
330
436
100
AcDbXrecord
280
     1
102
RTVSPropertyOp0
 70
     1
102
RTVSPropertyOp1
 70
     1
102
RTVSPropertyOp2
 70
     1
102
RTVSPropertyOp3
 70
     1
102
RTVSPropertyOp4
 70
     1
102
RTVSPropertyOp5
 70
     1
102
RTVSPropertyOp6
 70
     1
102
RTVSPropertyOp7
 70
     1
102
RTVSPropertyOp8
 70
     1
102
RTVSPropertyOp9
 70
     1
102
RTVSPropertyOp10
 70
     1
102
RTVSPropertyOp11
 70
     1
102
RTVSPropertyOp12
 70
     1
102
RTVSPropertyOp13
 70
     1
102
RTVSPropertyOp14
 70
     1
102
RTVSPropertyOp15
 70
     1
102
RTVSPropertyOp16
 70
     1
102
RTVSPropertyOp17
 70
     1
102
RTVSPropertyOp18
 70
     1
102
RTVSPropertyOp19
 70
     1
102
RTVSPropertyOp20
 70
     1
102
RTVSPropertyOp21
 70
     1
102
RTVSPropertyOp22
 70
     1
102
RTVSPropertyOp23
 70
     1
102
RTVSPropertyOp24
 70
     1
102
RTVSPropertyOp25
 70
     1
102
RTVSPropertyOp26
 70
     1
102
RTVSPropertyOp27
 70
     1
102
RTVSPropertyOp28
 70
     1
102
RTVSPropertyOp29
 70
     1
102
RTVSPropertyOp30
 70
     1
102
RTVSPropertyOp31
 70
     1
102
RTVSPropertyOp32
 70
     1
102
RTVSPropertyOp33
 70
     1
102
RTVSPropertyOp34
 70
     1
102
RTVSPropertyOp35
 70
     1
102
RTVSPropertyOp36
 70
     1
102
RTVSPropertyOp37
 70
     1
102
RTVSPropertyOp38
 70
     1
102
RTVSPropertyOp39
 70
     1
102
RTVSPropertyOp40
 70
     1
102
RTVSPropertyOp41
 70
     1
102
RTVSPropertyOp42
 70
     1
102
RTVSPropertyOp43
 70
     1
102
RTVSPropertyOp44
 70
     1
102
RTVSPropertyOp45
 70
     1
102
RTVSPropertyOp46
 70
     1
102
RTVSPropertyOp47
 70
     1
102
RTVSPropertyOp48
 70
     1
102
RTVSPropertyOp49
 70
     1
102
RTVSPropertyOp50
 70
     1
102
RTVSPropertyOp51
 70
     0
102
RTVSPropertyOp52
 70
     0
102
RTVSPropertyOp53
 70
     1
102
RTVSPropertyOp54
 70
     1
102
RTVSPropertyOp55
 70
     1
102
RTVSPropertyOp56
 70
     1
102
RTVSPropertyOp57
 70
     1
102
RTVSPost2010Prop28
280
     0
102
RTVSPost2010PropOp28
 70
     1
102
RTVSPost2010Prop29
280
     1
102
RTVSPost2010PropOp29
 70
     1
102
RTVSPost2010Prop30
280
     1
102
RTVSPost2010PropOp30
 70
     1
102
RTVSPost2010Prop31
280
     0
102
RTVSPost2010PropOp31
 70
     1
102
RTVSPost2010Prop32
280
     0
102
RTVSPost2010PropOp32
 70
     1
102
RTVSPost2010Prop33
280
     0
102
RTVSPost2010PropOp33
 70
     1
102
RTVSPost2010Prop34
280
     0
102
RTVSPost2010PropOp34
 70
     1
102
RTVSPost2010Prop35
280
     0
102
RTVSPost2010PropOp35
 70
     1
102
RTVSPost2010Prop36
280
     0
102
RTVSPost2010PropOp36
 70
     1
102
RTVSPost2010Prop37
 90
       50
102
RTVSPost2010PropOp37
 70
     1
102
RTVSPost2010Prop38
140
0.0
102
RTVSPost2010PropOp38
 70
     1
102
RTVSPost2010Prop39
140
1.0
102
RTVSPost2010PropOp39
 70
     1
102
RTVSPost2010Prop40
 90
        0
102
RTVSPost2010PropOp40
 70
     1
102
RTVSPost2010Prop41ColorIndex
 90
       18
102
RTVSPost2010Prop41ColorRGB
 90
        0
102
RTVSPost2010PropOp41
 70
     1
102
RTVSPost2010Prop42
 90
       50
102
RTVSPost2010PropOp42
 70
     1
102
RTVSPost2010Prop43
 90
        3
102
RTVSPost2010PropOp43
 70
     1
102
RTVSPost2010Prop44ColorIndex
 90
        5
102
RTVSPost2010Prop44ColorRGB
 90
      255
102
RTVSPost2010PropOp44
 70
     1
102
RTVSPost2010Prop45
280
     0
102
RTVSPost2010PropOp45
 70
     1
102
RTVSPost2010Prop46
 90
       50
102
RTVSPost2010PropOp46
 70
     1
102
RTVSPost2010Prop47
 90
       50
102
RTVSPost2010PropOp47
 70
     1
102
RTVSPost2010Prop48
 90
       50
102
RTVSPost2010PropOp48
 70
     1
102
RTVSPost2010Prop49
280
     0
102
RTVSPost2010PropOp49
 70
     1
102
RTVSPost2010Prop50
 90
       50
102
RTVSPost2010PropOp50
 70
     1
102
RTVSPost2010Prop51ColorIndex
 90
      256
102
RTVSPost2010Prop51ColorRGB
 90
-16777216
102
RTVSPost2010PropOp51
 70
     0
102
RTVSPost2010Prop52
140
1.0
102
RTVSPost2010PropOp52
 70
     0
102
RTVSPost2010Prop53
 90
        2
102
RTVSPost2010PropOp53
 70
     1
102
RTVSPost2010Prop54
  1
strokes_ogs.tif
102
RTVSPost2010PropOp54
 70
     1
102
RTVSPost2010Prop55
280
     0
102
RTVSPost2010PropOp55
 70
     1
102
RTVSPost2010Prop56
140
1.0
102
RTVSPost2010PropOp56
 70
     1
102
RTVSPost2010Prop57
140
1.0
102
RTVSPost2010PropOp57
 70
     1
  0
XRECORD
  5
43F
102
{ACAD_REACTORS
330
43E
102
}
330
43E
100
AcDbXrecord
280
     1
102
RTVSPropertyOp0
 70
     1
102
RTVSPropertyOp1
 70
     1
102
RTVSPropertyOp2
 70
     1
102
RTVSPropertyOp3
 70
     1
102
RTVSPropertyOp4
 70
     1
102
RTVSPropertyOp5
 70
     1
102
RTVSPropertyOp6
 70
     1
102
RTVSPropertyOp7
 70
     1
102
RTVSPropertyOp8
 70
     1
102
RTVSPropertyOp9
 70
     1
102
RTVSPropertyOp10
 70
     1
102
RTVSPropertyOp11
 70
     1
102
RTVSPropertyOp12
 70
     1
102
RTVSPropertyOp13
 70
     1
102
RTVSPropertyOp14
 70
     1
102
RTVSPropertyOp15
 70
     1
102
RTVSPropertyOp16
 70
     1
102
RTVSPropertyOp17
 70
     1
102
RTVSPropertyOp18
 70
     1
102
RTVSPropertyOp19
 70
     1
102
RTVSPropertyOp20
 70
     1
102
RTVSPropertyOp21
 70
     1
102
RTVSPropertyOp22
 70
     1
102
RTVSPropertyOp23
 70
     1
102
RTVSPropertyOp24
 70
     1
102
RTVSPropertyOp25
 70
     1
102
RTVSPropertyOp26
 70
     1
102
RTVSPropertyOp27
 70
     1
102
RTVSPropertyOp28
 70
     1
102
RTVSPropertyOp29
 70
     1
102
RTVSPropertyOp30
 70
     1
102
RTVSPropertyOp31
 70
     1
102
RTVSPropertyOp32
 70
     1
102
RTVSPropertyOp33
 70
     1
102
RTVSPropertyOp34
 70
     1
102
RTVSPropertyOp35
 70
     1
102
RTVSPropertyOp36
 70
     1
102
RTVSPropertyOp37
 70
     1
102
RTVSPropertyOp38
 70
     1
102
RTVSPropertyOp39
 70
     1
102
RTVSPropertyOp40
 70
     1
102
RTVSPropertyOp41
 70
     1
102
RTVSPropertyOp42
 70
     1
102
RTVSPropertyOp43
 70
     1
102
RTVSPropertyOp44
 70
     1
102
RTVSPropertyOp45
 70
     1
102
RTVSPropertyOp46
 70
     1
102
RTVSPropertyOp47
 70
     1
102
RTVSPropertyOp48
 70
     1
102
RTVSPropertyOp49
 70
     1
102
RTVSPropertyOp50
 70
     1
102
RTVSPropertyOp51
 70
     0
102
RTVSPropertyOp52
 70
     0
102
RTVSPropertyOp53
 70
     1
102
RTVSPropertyOp54
 70
     1
102
RTVSPropertyOp55
 70
     1
102
RTVSPropertyOp56
 70
     1
102
RTVSPropertyOp57
 70
     1
102
RTVSPost2010Prop28
280
     0
102
RTVSPost2010PropOp28
 70
     1
102
RTVSPost2010Prop29
280
     1
102
RTVSPost2010PropOp29
 70
     1
102
RTVSPost2010Prop30
280
     1
102
RTVSPost2010PropOp30
 70
     1
102
RTVSPost2010Prop31
280
     0
102
RTVSPost2010PropOp31
 70
     1
102
RTVSPost2010Prop32
280
     0
102
RTVSPost2010PropOp32
 70
     1
102
RTVSPost2010Prop33
280
     0
102
RTVSPost2010PropOp33
 70
     1
102
RTVSPost2010Prop34
280
     0
102
RTVSPost2010PropOp34
 70
     1
102
RTVSPost2010Prop35
280
     0
102
RTVSPost2010PropOp35
 70
     1
102
RTVSPost2010Prop36
280
     0
102
RTVSPost2010PropOp36
 70
     1
102
RTVSPost2010Prop37
 90
       50
102
RTVSPost2010PropOp37
 70
     1
102
RTVSPost2010Prop38
140
0.0
102
RTVSPost2010PropOp38
 70
     1
102
RTVSPost2010Prop39
140
1.0
102
RTVSPost2010PropOp39
 70
     1
102
RTVSPost2010Prop40
 90
        0
102
RTVSPost2010PropOp40
 70
     1
102
RTVSPost2010Prop41ColorIndex
 90
       18
102
RTVSPost2010Prop41ColorRGB
 90
        0
102
RTVSPost2010PropOp41
 70
     1
102
RTVSPost2010Prop42
 90
       50
102
RTVSPost2010PropOp42
 70
     1
102
RTVSPost2010Prop43
 90
        3
102
RTVSPost2010PropOp43
 70
     1
102
RTVSPost2010Prop44ColorIndex
 90
        5
102
RTVSPost2010Prop44ColorRGB
 90
      255
102
RTVSPost2010PropOp44
 70
     1
102
RTVSPost2010Prop45
280
     0
102
RTVSPost2010PropOp45
 70
     1
102
RTVSPost2010Prop46
 90
       50
102
RTVSPost2010PropOp46
 70
     1
102
RTVSPost2010Prop47
 90
       50
102
RTVSPost2010PropOp47
 70
     1
102
RTVSPost2010Prop48
 90
       50
102
RTVSPost2010PropOp48
 70
     1
102
RTVSPost2010Prop49
280
     0
102
RTVSPost2010PropOp49
 70
     1
102
RTVSPost2010Prop50
 90
       50
102
RTVSPost2010PropOp50
 70
     1
102
RTVSPost2010Prop51ColorIndex
 90
      256
102
RTVSPost2010Prop51ColorRGB
 90
-16777216
102
RTVSPost2010PropOp51
 70
     0
102
RTVSPost2010Prop52
140
1.0
102
RTVSPost2010PropOp52
 70
     0
102
RTVSPost2010Prop53
 90
        2
102
RTVSPost2010PropOp53
 70
     1
102
RTVSPost2010Prop54
  1
strokes_ogs.tif
102
RTVSPost2010PropOp54
 70
     1
102
RTVSPost2010Prop55
280
     0
102
RTVSPost2010PropOp55
 70
     1
102
RTVSPost2010Prop56
140
1.0
102
RTVSPost2010PropOp56
 70
     1
102
RTVSPost2010Prop57
140
1.0
102
RTVSPost2010PropOp57
 70
     1
  0
XRECORD
  5
433
102
{ACAD_REACTORS
330
432
102
}
330
432
100
AcDbXrecord
280
     1
102
RTVSPropertyOp0
 70
     1
102
RTVSPropertyOp1
 70
     1
102
RTVSPropertyOp2
 70
     1
102
RTVSPropertyOp3
 70
     1
102
RTVSPropertyOp4
 70
     1
102
RTVSPropertyOp5
 70
     1
102
RTVSPropertyOp6
 70
     1
102
RTVSPropertyOp7
 70
     1
102
RTVSPropertyOp8
 70
     1
102
RTVSPropertyOp9
 70
     1
102
RTVSPropertyOp10
 70
     1
102
RTVSPropertyOp11
 70
     1
102
RTVSPropertyOp12
 70
     1
102
RTVSPropertyOp13
 70
     1
102
RTVSPropertyOp14
 70
     1
102
RTVSPropertyOp15
 70
     1
102
RTVSPropertyOp16
 70
     1
102
RTVSPropertyOp17
 70
     1
102
RTVSPropertyOp18
 70
     1
102
RTVSPropertyOp19
 70
     1
102
RTVSPropertyOp20
 70
     1
102
RTVSPropertyOp21
 70
     1
102
RTVSPropertyOp22
 70
     1
102
RTVSPropertyOp23
 70
     1
102
RTVSPropertyOp24
 70
     1
102
RTVSPropertyOp25
 70
     1
102
RTVSPropertyOp26
 70
     1
102
RTVSPropertyOp27
 70
     1
102
RTVSPropertyOp28
 70
     1
102
RTVSPropertyOp29
 70
     1
102
RTVSPropertyOp30
 70
     1
102
RTVSPropertyOp31
 70
     1
102
RTVSPropertyOp32
 70
     1
102
RTVSPropertyOp33
 70
     1
102
RTVSPropertyOp34
 70
     1
102
RTVSPropertyOp35
 70
     1
102
RTVSPropertyOp36
 70
     1
102
RTVSPropertyOp37
 70
     1
102
RTVSPropertyOp38
 70
     1
102
RTVSPropertyOp39
 70
     1
102
RTVSPropertyOp40
 70
     1
102
RTVSPropertyOp41
 70
     1
102
RTVSPropertyOp42
 70
     1
102
RTVSPropertyOp43
 70
     1
102
RTVSPropertyOp44
 70
     1
102
RTVSPropertyOp45
 70
     1
102
RTVSPropertyOp46
 70
     1
102
RTVSPropertyOp47
 70
     1
102
RTVSPropertyOp48
 70
     1
102
RTVSPropertyOp49
 70
     1
102
RTVSPropertyOp50
 70
     1
102
RTVSPropertyOp51
 70
     0
102
RTVSPropertyOp52
 70
     0
102
RTVSPropertyOp53
 70
     1
102
RTVSPropertyOp54
 70
     1
102
RTVSPropertyOp55
 70
     1
102
RTVSPropertyOp56
 70
     1
102
RTVSPropertyOp57
 70
     1
102
RTVSPost2010Prop28
280
     0
102
RTVSPost2010PropOp28
 70
     1
102
RTVSPost2010Prop29
280
     1
102
RTVSPost2010PropOp29
 70
     1
102
RTVSPost2010Prop30
280
     1
102
RTVSPost2010PropOp30
 70
     1
102
RTVSPost2010Prop31
280
     0
102
RTVSPost2010PropOp31
 70
     1
102
RTVSPost2010Prop32
280
     0
102
RTVSPost2010PropOp32
 70
     1
102
RTVSPost2010Prop33
280
     0
102
RTVSPost2010PropOp33
 70
     1
102
RTVSPost2010Prop34
280
     0
102
RTVSPost2010PropOp34
 70
     1
102
RTVSPost2010Prop35
280
     0
102
RTVSPost2010PropOp35
 70
     1
102
RTVSPost2010Prop36
280
     0
102
RTVSPost2010PropOp36
 70
     1
102
RTVSPost2010Prop37
 90
       50
102
RTVSPost2010PropOp37
 70
     1
102
RTVSPost2010Prop38
140
0.0
102
RTVSPost2010PropOp38
 70
     1
102
RTVSPost2010Prop39
140
1.0
102
RTVSPost2010PropOp39
 70
     1
102
RTVSPost2010Prop40
 90
        0
102
RTVSPost2010PropOp40
 70
     1
102
RTVSPost2010Prop41ColorIndex
 90
       18
102
RTVSPost2010Prop41ColorRGB
 90
        0
102
RTVSPost2010PropOp41
 70
     1
102
RTVSPost2010Prop42
 90
       50
102
RTVSPost2010PropOp42
 70
     1
102
RTVSPost2010Prop43
 90
        3
102
RTVSPost2010PropOp43
 70
     1
102
RTVSPost2010Prop44ColorIndex
 90
        5
102
RTVSPost2010Prop44ColorRGB
 90
      255
102
RTVSPost2010PropOp44
 70
     1
102
RTVSPost2010Prop45
280
     0
102
RTVSPost2010PropOp45
 70
     1
102
RTVSPost2010Prop46
 90
       50
102
RTVSPost2010PropOp46
 70
     1
102
RTVSPost2010Prop47
 90
       50
102
RTVSPost2010PropOp47
 70
     1
102
RTVSPost2010Prop48
 90
       50
102
RTVSPost2010PropOp48
 70
     1
102
RTVSPost2010Prop49
280
     0
102
RTVSPost2010PropOp49
 70
     1
102
RTVSPost2010Prop50
 90
       50
102
RTVSPost2010PropOp50
 70
     1
102
RTVSPost2010Prop51ColorIndex
 90
      256
102
RTVSPost2010Prop51ColorRGB
 90
-16777216
102
RTVSPost2010PropOp51
 70
     0
102
RTVSPost2010Prop52
140
1.0
102
RTVSPost2010PropOp52
 70
     0
102
RTVSPost2010Prop53
 90
        2
102
RTVSPost2010PropOp53
 70
     1
102
RTVSPost2010Prop54
  1
strokes_ogs.tif
102
RTVSPost2010PropOp54
 70
     1
102
RTVSPost2010Prop55
280
     0
102
RTVSPost2010PropOp55
 70
     1
102
RTVSPost2010Prop56
140
1.0
102
RTVSPost2010PropOp56
 70
     1
102
RTVSPost2010Prop57
140
1.0
102
RTVSPost2010PropOp57
 70
     1
  0
XRECORD
  5
435
102
{ACAD_REACTORS
330
434
102
}
330
434
100
AcDbXrecord
280
     1
102
RTVSPropertyOp0
 70
     1
102
RTVSPropertyOp1
 70
     1
102
RTVSPropertyOp2
 70
     1
102
RTVSPropertyOp3
 70
     1
102
RTVSPropertyOp4
 70
     1
102
RTVSPropertyOp5
 70
     1
102
RTVSPropertyOp6
 70
     1
102
RTVSPropertyOp7
 70
     1
102
RTVSPropertyOp8
 70
     1
102
RTVSPropertyOp9
 70
     1
102
RTVSPropertyOp10
 70
     1
102
RTVSPropertyOp11
 70
     1
102
RTVSPropertyOp12
 70
     1
102
RTVSPropertyOp13
 70
     1
102
RTVSPropertyOp14
 70
     1
102
RTVSPropertyOp15
 70
     1
102
RTVSPropertyOp16
 70
     1
102
RTVSPropertyOp17
 70
     1
102
RTVSPropertyOp18
 70
     1
102
RTVSPropertyOp19
 70
     1
102
RTVSPropertyOp20
 70
     1
102
RTVSPropertyOp21
 70
     1
102
RTVSPropertyOp22
 70
     1
102
RTVSPropertyOp23
 70
     1
102
RTVSPropertyOp24
 70
     1
102
RTVSPropertyOp25
 70
     1
102
RTVSPropertyOp26
 70
     1
102
RTVSPropertyOp27
 70
     1
102
RTVSPropertyOp28
 70
     1
102
RTVSPropertyOp29
 70
     1
102
RTVSPropertyOp30
 70
     1
102
RTVSPropertyOp31
 70
     1
102
RTVSPropertyOp32
 70
     1
102
RTVSPropertyOp33
 70
     1
102
RTVSPropertyOp34
 70
     1
102
RTVSPropertyOp35
 70
     1
102
RTVSPropertyOp36
 70
     1
102
RTVSPropertyOp37
 70
     1
102
RTVSPropertyOp38
 70
     1
102
RTVSPropertyOp39
 70
     1
102
RTVSPropertyOp40
 70
     1
102
RTVSPropertyOp41
 70
     1
102
RTVSPropertyOp42
 70
     1
102
RTVSPropertyOp43
 70
     1
102
RTVSPropertyOp44
 70
     1
102
RTVSPropertyOp45
 70
     1
102
RTVSPropertyOp46
 70
     1
102
RTVSPropertyOp47
 70
     1
102
RTVSPropertyOp48
 70
     1
102
RTVSPropertyOp49
 70
     1
102
RTVSPropertyOp50
 70
     1
102
RTVSPropertyOp51
 70
     0
102
RTVSPropertyOp52
 70
     0
102
RTVSPropertyOp53
 70
     1
102
RTVSPropertyOp54
 70
     1
102
RTVSPropertyOp55
 70
     1
102
RTVSPropertyOp56
 70
     1
102
RTVSPropertyOp57
 70
     1
102
RTVSPost2010Prop28
280
     0
102
RTVSPost2010PropOp28
 70
     1
102
RTVSPost2010Prop29
280
     1
102
RTVSPost2010PropOp29
 70
     1
102
RTVSPost2010Prop30
280
     1
102
RTVSPost2010PropOp30
 70
     1
102
RTVSPost2010Prop31
280
     0
102
RTVSPost2010PropOp31
 70
     1
102
RTVSPost2010Prop32
280
     0
102
RTVSPost2010PropOp32
 70
     1
102
RTVSPost2010Prop33
280
     0
102
RTVSPost2010PropOp33
 70
     1
102
RTVSPost2010Prop34
280
     0
102
RTVSPost2010PropOp34
 70
     1
102
RTVSPost2010Prop35
280
     0
102
RTVSPost2010PropOp35
 70
     1
102
RTVSPost2010Prop36
280
     0
102
RTVSPost2010PropOp36
 70
     1
102
RTVSPost2010Prop37
 90
       50
102
RTVSPost2010PropOp37
 70
     1
102
RTVSPost2010Prop38
140
0.0
102
RTVSPost2010PropOp38
 70
     1
102
RTVSPost2010Prop39
140
1.0
102
RTVSPost2010PropOp39
 70
     1
102
RTVSPost2010Prop40
 90
        0
102
RTVSPost2010PropOp40
 70
     1
102
RTVSPost2010Prop41ColorIndex
 90
       18
102
RTVSPost2010Prop41ColorRGB
 90
        0
102
RTVSPost2010PropOp41
 70
     1
102
RTVSPost2010Prop42
 90
       50
102
RTVSPost2010PropOp42
 70
     1
102
RTVSPost2010Prop43
 90
        3
102
RTVSPost2010PropOp43
 70
     1
102
RTVSPost2010Prop44ColorIndex
 90
        5
102
RTVSPost2010Prop44ColorRGB
 90
      255
102
RTVSPost2010PropOp44
 70
     1
102
RTVSPost2010Prop45
280
     0
102
RTVSPost2010PropOp45
 70
     1
102
RTVSPost2010Prop46
 90
       50
102
RTVSPost2010PropOp46
 70
     1
102
RTVSPost2010Prop47
 90
       50
102
RTVSPost2010PropOp47
 70
     1
102
RTVSPost2010Prop48
 90
       50
102
RTVSPost2010PropOp48
 70
     1
102
RTVSPost2010Prop49
280
     0
102
RTVSPost2010PropOp49
 70
     1
102
RTVSPost2010Prop50
 90
       50
102
RTVSPost2010PropOp50
 70
     1
102
RTVSPost2010Prop51ColorIndex
 90
      256
102
RTVSPost2010Prop51ColorRGB
 90
-16777216
102
RTVSPost2010PropOp51
 70
     0
102
RTVSPost2010Prop52
140
1.0
102
RTVSPost2010PropOp52
 70
     0
102
RTVSPost2010Prop53
 90
        2
102
RTVSPost2010PropOp53
 70
     1
102
RTVSPost2010Prop54
  1
strokes_ogs.tif
102
RTVSPost2010PropOp54
 70
     1
102
RTVSPost2010Prop55
280
     0
102
RTVSPost2010PropOp55
 70
     1
102
RTVSPost2010Prop56
140
1.0
102
RTVSPost2010PropOp56
 70
     1
102
RTVSPost2010Prop57
140
1.0
102
RTVSPost2010PropOp57
 70
     1
  0
XRECORD
  5
445
102
{ACAD_REACTORS
330
444
102
}
330
444
100
AcDbXrecord
280
     1
102
RTVSPropertyOp0
 70
     0
102
RTVSPropertyOp1
 70
     0
102
RTVSPropertyOp2
 70
     0
102
RTVSPropertyOp3
 70
     0
102
RTVSPropertyOp4
 70
     0
102
RTVSPropertyOp5
 70
     0
102
RTVSPropertyOp6
 70
     0
102
RTVSPropertyOp7
 70
     0
102
RTVSPropertyOp8
 70
     0
102
RTVSPropertyOp9
 70
     0
102
RTVSPropertyOp10
 70
     0
102
RTVSPropertyOp11
 70
     0
102
RTVSPropertyOp12
 70
     0
102
RTVSPropertyOp13
 70
     0
102
RTVSPropertyOp14
 70
     2
102
RTVSPropertyOp15
 70
     0
102
RTVSPropertyOp16
 70
     0
102
RTVSPropertyOp17
 70
     0
102
RTVSPropertyOp18
 70
     0
102
RTVSPropertyOp19
 70
     0
102
RTVSPropertyOp20
 70
     0
102
RTVSPropertyOp21
 70
     0
102
RTVSPropertyOp22
 70
     0
102
RTVSPropertyOp23
 70
     0
102
RTVSPropertyOp24
 70
     0
102
RTVSPropertyOp25
 70
     0
102
RTVSPropertyOp26
 70
     0
102
RTVSPropertyOp27
 70
     0
102
RTVSPropertyOp28
 70
     0
102
RTVSPropertyOp29
 70
     0
102
RTVSPropertyOp30
 70
     0
102
RTVSPropertyOp31
 70
     0
102
RTVSPropertyOp32
 70
     0
102
RTVSPropertyOp33
 70
     0
102
RTVSPropertyOp34
 70
     0
102
RTVSPropertyOp35
 70
     0
102
RTVSPropertyOp36
 70
     0
102
RTVSPropertyOp37
 70
     0
102
RTVSPropertyOp38
 70
     0
102
RTVSPropertyOp39
 70
     0
102
RTVSPropertyOp40
 70
     0
102
RTVSPropertyOp41
 70
     0
102
RTVSPropertyOp42
 70
     0
102
RTVSPropertyOp43
 70
     0
102
RTVSPropertyOp44
 70
     0
102
RTVSPropertyOp45
 70
     0
102
RTVSPropertyOp46
 70
     0
102
RTVSPropertyOp47
 70
     0
102
RTVSPropertyOp48
 70
     0
102
RTVSPropertyOp49
 70
     0
102
RTVSPropertyOp50
 70
     0
102
RTVSPropertyOp51
 70
     0
102
RTVSPropertyOp52
 70
     0
102
RTVSPropertyOp53
 70
     0
102
RTVSPropertyOp54
 70
     0
102
RTVSPropertyOp55
 70
     0
102
RTVSPropertyOp56
 70
     0
102
RTVSPropertyOp57
 70
     0
102
RTVSPost2010Prop28
280
     0
102
RTVSPost2010PropOp28
 70
     0
102
RTVSPost2010Prop29
280
     1
102
RTVSPost2010PropOp29
 70
     0
102
RTVSPost2010Prop30
280
     1
102
RTVSPost2010PropOp30
 70
     0
102
RTVSPost2010Prop31
280
     0
102
RTVSPost2010PropOp31
 70
     0
102
RTVSPost2010Prop32
280
     0
102
RTVSPost2010PropOp32
 70
     0
102
RTVSPost2010Prop33
280
     0
102
RTVSPost2010PropOp33
 70
     0
102
RTVSPost2010Prop34
280
     0
102
RTVSPost2010PropOp34
 70
     0
102
RTVSPost2010Prop35
280
     0
102
RTVSPost2010PropOp35
 70
     0
102
RTVSPost2010Prop36
280
     0
102
RTVSPost2010PropOp36
 70
     0
102
RTVSPost2010Prop37
 90
       50
102
RTVSPost2010PropOp37
 70
     0
102
RTVSPost2010Prop38
140
0.0
102
RTVSPost2010PropOp38
 70
     0
102
RTVSPost2010Prop39
140
1.0
102
RTVSPost2010PropOp39
 70
     0
102
RTVSPost2010Prop40
 90
        0
102
RTVSPost2010PropOp40
 70
     0
102
RTVSPost2010Prop41ColorIndex
 90
       18
102
RTVSPost2010Prop41ColorRGB
 90
        0
102
RTVSPost2010PropOp41
 70
     0
102
RTVSPost2010Prop42
 90
       50
102
RTVSPost2010PropOp42
 70
     0
102
RTVSPost2010Prop43
 90
        3
102
RTVSPost2010PropOp43
 70
     0
102
RTVSPost2010Prop44ColorIndex
 90
        5
102
RTVSPost2010Prop44ColorRGB
 90
      255
102
RTVSPost2010PropOp44
 70
     0
102
RTVSPost2010Prop45
280
     0
102
RTVSPost2010PropOp45
 70
     0
102
RTVSPost2010Prop46
 90
       50
102
RTVSPost2010PropOp46
 70
     0
102
RTVSPost2010Prop47
 90
       50
102
RTVSPost2010PropOp47
 70
     0
102
RTVSPost2010Prop48
 90
       50
102
RTVSPost2010PropOp48
 70
     0
102
RTVSPost2010Prop49
280
     0
102
RTVSPost2010PropOp49
 70
     0
102
RTVSPost2010Prop50
 90
       50
102
RTVSPost2010PropOp50
 70
     0
102
RTVSPost2010Prop51ColorIndex
 90
      256
102
RTVSPost2010Prop51ColorRGB
 90
-16777216
102
RTVSPost2010PropOp51
 70
     0
102
RTVSPost2010Prop52
140
1.0
102
RTVSPost2010PropOp52
 70
     0
102
RTVSPost2010Prop53
 90
        2
102
RTVSPost2010PropOp53
 70
     0
102
RTVSPost2010Prop54
  1
strokes_ogs.tif
102
RTVSPost2010PropOp54
 70
     0
102
RTVSPost2010Prop55
280
     0
102
RTVSPost2010PropOp55
 70
     0
102
RTVSPost2010Prop56
140
1.0
102
RTVSPost2010PropOp56
 70
     0
102
RTVSPost2010Prop57
140
1.0
102
RTVSPost2010PropOp57
 70
     0
  0
XRECORD
  5
43D
102
{ACAD_REACTORS
330
43C
102
}
330
43C
100
AcDbXrecord
280
     1
102
RTVSPropertyOp0
 70
     1
102
RTVSPropertyOp1
 70
     1
102
RTVSPropertyOp2
 70
     1
102
RTVSPropertyOp3
 70
     1
102
RTVSPropertyOp4
 70
     1
102
RTVSPropertyOp5
 70
     1
102
RTVSPropertyOp6
 70
     1
102
RTVSPropertyOp7
 70
     1
102
RTVSPropertyOp8
 70
     1
102
RTVSPropertyOp9
 70
     1
102
RTVSPropertyOp10
 70
     1
102
RTVSPropertyOp11
 70
     1
102
RTVSPropertyOp12
 70
     1
102
RTVSPropertyOp13
 70
     1
102
RTVSPropertyOp14
 70
     1
102
RTVSPropertyOp15
 70
     1
102
RTVSPropertyOp16
 70
     1
102
RTVSPropertyOp17
 70
     1
102
RTVSPropertyOp18
 70
     1
102
RTVSPropertyOp19
 70
     1
102
RTVSPropertyOp20
 70
     1
102
RTVSPropertyOp21
 70
     1
102
RTVSPropertyOp22
 70
     1
102
RTVSPropertyOp23
 70
     1
102
RTVSPropertyOp24
 70
     1
102
RTVSPropertyOp25
 70
     1
102
RTVSPropertyOp26
 70
     1
102
RTVSPropertyOp27
 70
     1
102
RTVSPropertyOp28
 70
     1
102
RTVSPropertyOp29
 70
     1
102
RTVSPropertyOp30
 70
     1
102
RTVSPropertyOp31
 70
     1
102
RTVSPropertyOp32
 70
     1
102
RTVSPropertyOp33
 70
     1
102
RTVSPropertyOp34
 70
     1
102
RTVSPropertyOp35
 70
     1
102
RTVSPropertyOp36
 70
     1
102
RTVSPropertyOp37
 70
     1
102
RTVSPropertyOp38
 70
     1
102
RTVSPropertyOp39
 70
     1
102
RTVSPropertyOp40
 70
     1
102
RTVSPropertyOp41
 70
     1
102
RTVSPropertyOp42
 70
     1
102
RTVSPropertyOp43
 70
     1
102
RTVSPropertyOp44
 70
     1
102
RTVSPropertyOp45
 70
     1
102
RTVSPropertyOp46
 70
     1
102
RTVSPropertyOp47
 70
     1
102
RTVSPropertyOp48
 70
     1
102
RTVSPropertyOp49
 70
     1
102
RTVSPropertyOp50
 70
     1
102
RTVSPropertyOp51
 70
     0
102
RTVSPropertyOp52
 70
     0
102
RTVSPropertyOp53
 70
     1
102
RTVSPropertyOp54
 70
     1
102
RTVSPropertyOp55
 70
     1
102
RTVSPropertyOp56
 70
     1
102
RTVSPropertyOp57
 70
     1
102
RTVSPost2010Prop28
280
     0
102
RTVSPost2010PropOp28
 70
     1
102
RTVSPost2010Prop29
280
     1
102
RTVSPost2010PropOp29
 70
     1
102
RTVSPost2010Prop30
280
     1
102
RTVSPost2010PropOp30
 70
     1
102
RTVSPost2010Prop31
280
     0
102
RTVSPost2010PropOp31
 70
     1
102
RTVSPost2010Prop32
280
     0
102
RTVSPost2010PropOp32
 70
     1
102
RTVSPost2010Prop33
280
     0
102
RTVSPost2010PropOp33
 70
     1
102
RTVSPost2010Prop34
280
     0
102
RTVSPost2010PropOp34
 70
     1
102
RTVSPost2010Prop35
280
     0
102
RTVSPost2010PropOp35
 70
     1
102
RTVSPost2010Prop36
280
     0
102
RTVSPost2010PropOp36
 70
     1
102
RTVSPost2010Prop37
 90
       50
102
RTVSPost2010PropOp37
 70
     1
102
RTVSPost2010Prop38
140
0.0
102
RTVSPost2010PropOp38
 70
     1
102
RTVSPost2010Prop39
140
1.0
102
RTVSPost2010PropOp39
 70
     1
102
RTVSPost2010Prop40
 90
        0
102
RTVSPost2010PropOp40
 70
     1
102
RTVSPost2010Prop41ColorIndex
 90
       18
102
RTVSPost2010Prop41ColorRGB
 90
        0
102
RTVSPost2010PropOp41
 70
     1
102
RTVSPost2010Prop42
 90
       50
102
RTVSPost2010PropOp42
 70
     1
102
RTVSPost2010Prop43
 90
        3
102
RTVSPost2010PropOp43
 70
     1
102
RTVSPost2010Prop44ColorIndex
 90
        5
102
RTVSPost2010Prop44ColorRGB
 90
      255
102
RTVSPost2010PropOp44
 70
     1
102
RTVSPost2010Prop45
280
     0
102
RTVSPost2010PropOp45
 70
     1
102
RTVSPost2010Prop46
 90
       50
102
RTVSPost2010PropOp46
 70
     1
102
RTVSPost2010Prop47
 90
       50
102
RTVSPost2010PropOp47
 70
     1
102
RTVSPost2010Prop48
 90
       50
102
RTVSPost2010PropOp48
 70
     1
102
RTVSPost2010Prop49
280
     0
102
RTVSPost2010PropOp49
 70
     1
102
RTVSPost2010Prop50
 90
       50
102
RTVSPost2010PropOp50
 70
     1
102
RTVSPost2010Prop51ColorIndex
 90
      256
102
RTVSPost2010Prop51ColorRGB
 90
-16777216
102
RTVSPost2010PropOp51
 70
     0
102
RTVSPost2010Prop52
140
1.0
102
RTVSPost2010PropOp52
 70
     0
102
RTVSPost2010Prop53
 90
        2
102
RTVSPost2010PropOp53
 70
     1
102
RTVSPost2010Prop54
  1
strokes_ogs.tif
102
RTVSPost2010PropOp54
 70
     1
102
RTVSPost2010Prop55
280
     0
102
RTVSPost2010PropOp55
 70
     1
102
RTVSPost2010Prop56
140
1.0
102
RTVSPost2010PropOp56
 70
     1
102
RTVSPost2010Prop57
140
1.0
102
RTVSPost2010PropOp57
 70
     1
  0
XRECORD
  5
421
102
{ACAD_REACTORS
330
420
102
}
330
420
100
AcDbXrecord
280
     1
102
RTVSPropertyOp0
 70
     1
102
RTVSPropertyOp1
 70
     1
102
RTVSPropertyOp2
 70
     1
102
RTVSPropertyOp3
 70
     1
102
RTVSPropertyOp4
 70
     1
102
RTVSPropertyOp5
 70
     1
102
RTVSPropertyOp6
 70
     1
102
RTVSPropertyOp7
 70
     1
102
RTVSPropertyOp8
 70
     1
102
RTVSPropertyOp9
 70
     1
102
RTVSPropertyOp10
 70
     1
102
RTVSPropertyOp11
 70
     1
102
RTVSPropertyOp12
 70
     1
102
RTVSPropertyOp13
 70
     1
102
RTVSPropertyOp14
 70
     1
102
RTVSPropertyOp15
 70
     1
102
RTVSPropertyOp16
 70
     1
102
RTVSPropertyOp17
 70
     1
102
RTVSPropertyOp18
 70
     1
102
RTVSPropertyOp19
 70
     1
102
RTVSPropertyOp20
 70
     1
102
RTVSPropertyOp21
 70
     1
102
RTVSPropertyOp22
 70
     1
102
RTVSPropertyOp23
 70
     1
102
RTVSPropertyOp24
 70
     1
102
RTVSPropertyOp25
 70
     1
102
RTVSPropertyOp26
 70
     1
102
RTVSPropertyOp27
 70
     1
102
RTVSPropertyOp28
 70
     1
102
RTVSPropertyOp29
 70
     1
102
RTVSPropertyOp30
 70
     1
102
RTVSPropertyOp31
 70
     1
102
RTVSPropertyOp32
 70
     1
102
RTVSPropertyOp33
 70
     1
102
RTVSPropertyOp34
 70
     1
102
RTVSPropertyOp35
 70
     1
102
RTVSPropertyOp36
 70
     1
102
RTVSPropertyOp37
 70
     1
102
RTVSPropertyOp38
 70
     1
102
RTVSPropertyOp39
 70
     1
102
RTVSPropertyOp40
 70
     1
102
RTVSPropertyOp41
 70
     1
102
RTVSPropertyOp42
 70
     1
102
RTVSPropertyOp43
 70
     1
102
RTVSPropertyOp44
 70
     1
102
RTVSPropertyOp45
 70
     1
102
RTVSPropertyOp46
 70
     1
102
RTVSPropertyOp47
 70
     1
102
RTVSPropertyOp48
 70
     1
102
RTVSPropertyOp49
 70
     1
102
RTVSPropertyOp50
 70
     1
102
RTVSPropertyOp51
 70
     0
102
RTVSPropertyOp52
 70
     0
102
RTVSPropertyOp53
 70
     1
102
RTVSPropertyOp54
 70
     1
102
RTVSPropertyOp55
 70
     1
102
RTVSPropertyOp56
 70
     1
102
RTVSPropertyOp57
 70
     1
102
RTVSPost2010Prop28
280
     0
102
RTVSPost2010PropOp28
 70
     1
102
RTVSPost2010Prop29
280
     1
102
RTVSPost2010PropOp29
 70
     1
102
RTVSPost2010Prop30
280
     1
102
RTVSPost2010PropOp30
 70
     1
102
RTVSPost2010Prop31
280
     0
102
RTVSPost2010PropOp31
 70
     1
102
RTVSPost2010Prop32
280
     0
102
RTVSPost2010PropOp32
 70
     1
102
RTVSPost2010Prop33
280
     0
102
RTVSPost2010PropOp33
 70
     1
102
RTVSPost2010Prop34
280
     0
102
RTVSPost2010PropOp34
 70
     1
102
RTVSPost2010Prop35
280
     0
102
RTVSPost2010PropOp35
 70
     1
102
RTVSPost2010Prop36
280
     0
102
RTVSPost2010PropOp36
 70
     1
102
RTVSPost2010Prop37
 90
       50
102
RTVSPost2010PropOp37
 70
     1
102
RTVSPost2010Prop38
140
0.0
102
RTVSPost2010PropOp38
 70
     1
102
RTVSPost2010Prop39
140
1.0
102
RTVSPost2010PropOp39
 70
     1
102
RTVSPost2010Prop40
 90
        0
102
RTVSPost2010PropOp40
 70
     1
102
RTVSPost2010Prop41ColorIndex
 90
       18
102
RTVSPost2010Prop41ColorRGB
 90
        0
102
RTVSPost2010PropOp41
 70
     1
102
RTVSPost2010Prop42
 90
       50
102
RTVSPost2010PropOp42
 70
     1
102
RTVSPost2010Prop43
 90
        3
102
RTVSPost2010PropOp43
 70
     1
102
RTVSPost2010Prop44ColorIndex
 90
        5
102
RTVSPost2010Prop44ColorRGB
 90
      255
102
RTVSPost2010PropOp44
 70
     1
102
RTVSPost2010Prop45
280
     0
102
RTVSPost2010PropOp45
 70
     1
102
RTVSPost2010Prop46
 90
       50
102
RTVSPost2010PropOp46
 70
     1
102
RTVSPost2010Prop47
 90
       50
102
RTVSPost2010PropOp47
 70
     1
102
RTVSPost2010Prop48
 90
       50
102
RTVSPost2010PropOp48
 70
     1
102
RTVSPost2010Prop49
280
     0
102
RTVSPost2010PropOp49
 70
     1
102
RTVSPost2010Prop50
 90
       50
102
RTVSPost2010PropOp50
 70
     1
102
RTVSPost2010Prop51ColorIndex
 90
      256
102
RTVSPost2010Prop51ColorRGB
 90
-16777216
102
RTVSPost2010PropOp51
 70
     0
102
RTVSPost2010Prop52
140
1.0
102
RTVSPost2010PropOp52
 70
     0
102
RTVSPost2010Prop53
 90
        2
102
RTVSPost2010PropOp53
 70
     1
102
RTVSPost2010Prop54
  1
strokes_ogs.tif
102
RTVSPost2010PropOp54
 70
     1
102
RTVSPost2010Prop55
280
     0
102
RTVSPost2010PropOp55
 70
     1
102
RTVSPost2010Prop56
140
1.0
102
RTVSPost2010PropOp56
 70
     1
102
RTVSPost2010Prop57
140
1.0
102
RTVSPost2010PropOp57
 70
     1
  0
XRECORD
  5
423
102
{ACAD_REACTORS
330
422
102
}
330
422
100
AcDbXrecord
280
     1
102
RTVSPropertyOp0
 70
     1
102
RTVSPropertyOp1
 70
     1
102
RTVSPropertyOp2
 70
     1
102
RTVSPropertyOp3
 70
     1
102
RTVSPropertyOp4
 70
     1
102
RTVSPropertyOp5
 70
     1
102
RTVSPropertyOp6
 70
     1
102
RTVSPropertyOp7
 70
     1
102
RTVSPropertyOp8
 70
     1
102
RTVSPropertyOp9
 70
     1
102
RTVSPropertyOp10
 70
     1
102
RTVSPropertyOp11
 70
     1
102
RTVSPropertyOp12
 70
     1
102
RTVSPropertyOp13
 70
     1
102
RTVSPropertyOp14
 70
     1
102
RTVSPropertyOp15
 70
     1
102
RTVSPropertyOp16
 70
     1
102
RTVSPropertyOp17
 70
     1
102
RTVSPropertyOp18
 70
     1
102
RTVSPropertyOp19
 70
     1
102
RTVSPropertyOp20
 70
     1
102
RTVSPropertyOp21
 70
     1
102
RTVSPropertyOp22
 70
     1
102
RTVSPropertyOp23
 70
     1
102
RTVSPropertyOp24
 70
     1
102
RTVSPropertyOp25
 70
     1
102
RTVSPropertyOp26
 70
     1
102
RTVSPropertyOp27
 70
     1
102
RTVSPropertyOp28
 70
     1
102
RTVSPropertyOp29
 70
     1
102
RTVSPropertyOp30
 70
     1
102
RTVSPropertyOp31
 70
     1
102
RTVSPropertyOp32
 70
     1
102
RTVSPropertyOp33
 70
     1
102
RTVSPropertyOp34
 70
     1
102
RTVSPropertyOp35
 70
     1
102
RTVSPropertyOp36
 70
     1
102
RTVSPropertyOp37
 70
     1
102
RTVSPropertyOp38
 70
     1
102
RTVSPropertyOp39
 70
     1
102
RTVSPropertyOp40
 70
     1
102
RTVSPropertyOp41
 70
     1
102
RTVSPropertyOp42
 70
     1
102
RTVSPropertyOp43
 70
     1
102
RTVSPropertyOp44
 70
     1
102
RTVSPropertyOp45
 70
     1
102
RTVSPropertyOp46
 70
     1
102
RTVSPropertyOp47
 70
     1
102
RTVSPropertyOp48
 70
     1
102
RTVSPropertyOp49
 70
     1
102
RTVSPropertyOp50
 70
     1
102
RTVSPropertyOp51
 70
     0
102
RTVSPropertyOp52
 70
     0
102
RTVSPropertyOp53
 70
     1
102
RTVSPropertyOp54
 70
     1
102
RTVSPropertyOp55
 70
     1
102
RTVSPropertyOp56
 70
     1
102
RTVSPropertyOp57
 70
     1
102
RTVSPost2010Prop28
280
     0
102
RTVSPost2010PropOp28
 70
     1
102
RTVSPost2010Prop29
280
     1
102
RTVSPost2010PropOp29
 70
     1
102
RTVSPost2010Prop30
280
     1
102
RTVSPost2010PropOp30
 70
     1
102
RTVSPost2010Prop31
280
     0
102
RTVSPost2010PropOp31
 70
     1
102
RTVSPost2010Prop32
280
     0
102
RTVSPost2010PropOp32
 70
     1
102
RTVSPost2010Prop33
280
     0
102
RTVSPost2010PropOp33
 70
     1
102
RTVSPost2010Prop34
280
     0
102
RTVSPost2010PropOp34
 70
     1
102
RTVSPost2010Prop35
280
     0
102
RTVSPost2010PropOp35
 70
     1
102
RTVSPost2010Prop36
280
     0
102
RTVSPost2010PropOp36
 70
     1
102
RTVSPost2010Prop37
 90
       50
102
RTVSPost2010PropOp37
 70
     1
102
RTVSPost2010Prop38
140
0.0
102
RTVSPost2010PropOp38
 70
     1
102
RTVSPost2010Prop39
140
1.0
102
RTVSPost2010PropOp39
 70
     1
102
RTVSPost2010Prop40
 90
        0
102
RTVSPost2010PropOp40
 70
     1
102
RTVSPost2010Prop41ColorIndex
 90
       18
102
RTVSPost2010Prop41ColorRGB
 90
        0
102
RTVSPost2010PropOp41
 70
     1
102
RTVSPost2010Prop42
 90
       50
102
RTVSPost2010PropOp42
 70
     1
102
RTVSPost2010Prop43
 90
        3
102
RTVSPost2010PropOp43
 70
     1
102
RTVSPost2010Prop44ColorIndex
 90
        5
102
RTVSPost2010Prop44ColorRGB
 90
      255
102
RTVSPost2010PropOp44
 70
     1
102
RTVSPost2010Prop45
280
     0
102
RTVSPost2010PropOp45
 70
     1
102
RTVSPost2010Prop46
 90
       50
102
RTVSPost2010PropOp46
 70
     1
102
RTVSPost2010Prop47
 90
       50
102
RTVSPost2010PropOp47
 70
     1
102
RTVSPost2010Prop48
 90
       50
102
RTVSPost2010PropOp48
 70
     1
102
RTVSPost2010Prop49
280
     0
102
RTVSPost2010PropOp49
 70
     1
102
RTVSPost2010Prop50
 90
       50
102
RTVSPost2010PropOp50
 70
     1
102
RTVSPost2010Prop51ColorIndex
 90
      256
102
RTVSPost2010Prop51ColorRGB
 90
-16777216
102
RTVSPost2010PropOp51
 70
     0
102
RTVSPost2010Prop52
140
1.0
102
RTVSPost2010PropOp52
 70
     0
102
RTVSPost2010Prop53
 90
        2
102
RTVSPost2010PropOp53
 70
     1
102
RTVSPost2010Prop54
  1
strokes_ogs.tif
102
RTVSPost2010PropOp54
 70
     1
102
RTVSPost2010Prop55
280
     0
102
RTVSPost2010PropOp55
 70
     1
102
RTVSPost2010Prop56
140
1.0
102
RTVSPost2010PropOp56
 70
     1
102
RTVSPost2010Prop57
140
1.0
102
RTVSPost2010PropOp57
 70
     1
  0
XRECORD
  5
425
102
{ACAD_REACTORS
330
424
102
}
330
424
100
AcDbXrecord
280
     1
102
RTVSPropertyOp0
 70
     1
102
RTVSPropertyOp1
 70
     1
102
RTVSPropertyOp2
 70
     1
102
RTVSPropertyOp3
 70
     1
102
RTVSPropertyOp4
 70
     1
102
RTVSPropertyOp5
 70
     1
102
RTVSPropertyOp6
 70
     1
102
RTVSPropertyOp7
 70
     1
102
RTVSPropertyOp8
 70
     1
102
RTVSPropertyOp9
 70
     1
102
RTVSPropertyOp10
 70
     1
102
RTVSPropertyOp11
 70
     1
102
RTVSPropertyOp12
 70
     1
102
RTVSPropertyOp13
 70
     1
102
RTVSPropertyOp14
 70
     1
102
RTVSPropertyOp15
 70
     1
102
RTVSPropertyOp16
 70
     1
102
RTVSPropertyOp17
 70
     1
102
RTVSPropertyOp18
 70
     1
102
RTVSPropertyOp19
 70
     1
102
RTVSPropertyOp20
 70
     1
102
RTVSPropertyOp21
 70
     1
102
RTVSPropertyOp22
 70
     1
102
RTVSPropertyOp23
 70
     1
102
RTVSPropertyOp24
 70
     1
102
RTVSPropertyOp25
 70
     1
102
RTVSPropertyOp26
 70
     1
102
RTVSPropertyOp27
 70
     1
102
RTVSPropertyOp28
 70
     1
102
RTVSPropertyOp29
 70
     1
102
RTVSPropertyOp30
 70
     1
102
RTVSPropertyOp31
 70
     1
102
RTVSPropertyOp32
 70
     1
102
RTVSPropertyOp33
 70
     1
102
RTVSPropertyOp34
 70
     1
102
RTVSPropertyOp35
 70
     1
102
RTVSPropertyOp36
 70
     1
102
RTVSPropertyOp37
 70
     1
102
RTVSPropertyOp38
 70
     1
102
RTVSPropertyOp39
 70
     1
102
RTVSPropertyOp40
 70
     1
102
RTVSPropertyOp41
 70
     1
102
RTVSPropertyOp42
 70
     1
102
RTVSPropertyOp43
 70
     1
102
RTVSPropertyOp44
 70
     1
102
RTVSPropertyOp45
 70
     1
102
RTVSPropertyOp46
 70
     1
102
RTVSPropertyOp47
 70
     1
102
RTVSPropertyOp48
 70
     1
102
RTVSPropertyOp49
 70
     1
102
RTVSPropertyOp50
 70
     1
102
RTVSPropertyOp51
 70
     0
102
RTVSPropertyOp52
 70
     0
102
RTVSPropertyOp53
 70
     1
102
RTVSPropertyOp54
 70
     1
102
RTVSPropertyOp55
 70
     1
102
RTVSPropertyOp56
 70
     1
102
RTVSPropertyOp57
 70
     1
102
RTVSPost2010Prop28
280
     0
102
RTVSPost2010PropOp28
 70
     1
102
RTVSPost2010Prop29
280
     1
102
RTVSPost2010PropOp29
 70
     1
102
RTVSPost2010Prop30
280
     1
102
RTVSPost2010PropOp30
 70
     1
102
RTVSPost2010Prop31
280
     0
102
RTVSPost2010PropOp31
 70
     1
102
RTVSPost2010Prop32
280
     0
102
RTVSPost2010PropOp32
 70
     1
102
RTVSPost2010Prop33
280
     0
102
RTVSPost2010PropOp33
 70
     1
102
RTVSPost2010Prop34
280
     0
102
RTVSPost2010PropOp34
 70
     1
102
RTVSPost2010Prop35
280
     0
102
RTVSPost2010PropOp35
 70
     1
102
RTVSPost2010Prop36
280
     0
102
RTVSPost2010PropOp36
 70
     1
102
RTVSPost2010Prop37
 90
       50
102
RTVSPost2010PropOp37
 70
     1
102
RTVSPost2010Prop38
140
0.0
102
RTVSPost2010PropOp38
 70
     1
102
RTVSPost2010Prop39
140
1.0
102
RTVSPost2010PropOp39
 70
     1
102
RTVSPost2010Prop40
 90
        0
102
RTVSPost2010PropOp40
 70
     1
102
RTVSPost2010Prop41ColorIndex
 90
       18
102
RTVSPost2010Prop41ColorRGB
 90
        0
102
RTVSPost2010PropOp41
 70
     1
102
RTVSPost2010Prop42
 90
       50
102
RTVSPost2010PropOp42
 70
     1
102
RTVSPost2010Prop43
 90
        3
102
RTVSPost2010PropOp43
 70
     1
102
RTVSPost2010Prop44ColorIndex
 90
        5
102
RTVSPost2010Prop44ColorRGB
 90
      255
102
RTVSPost2010PropOp44
 70
     1
102
RTVSPost2010Prop45
280
     0
102
RTVSPost2010PropOp45
 70
     1
102
RTVSPost2010Prop46
 90
       50
102
RTVSPost2010PropOp46
 70
     1
102
RTVSPost2010Prop47
 90
       50
102
RTVSPost2010PropOp47
 70
     1
102
RTVSPost2010Prop48
 90
       50
102
RTVSPost2010PropOp48
 70
     1
102
RTVSPost2010Prop49
280
     0
102
RTVSPost2010PropOp49
 70
     1
102
RTVSPost2010Prop50
 90
       50
102
RTVSPost2010PropOp50
 70
     1
102
RTVSPost2010Prop51ColorIndex
 90
      256
102
RTVSPost2010Prop51ColorRGB
 90
-16777216
102
RTVSPost2010PropOp51
 70
     0
102
RTVSPost2010Prop52
140
1.0
102
RTVSPost2010PropOp52
 70
     0
102
RTVSPost2010Prop53
 90
        2
102
RTVSPost2010PropOp53
 70
     1
102
RTVSPost2010Prop54
  1
strokes_ogs.tif
102
RTVSPost2010PropOp54
 70
     1
102
RTVSPost2010Prop55
280
     0
102
RTVSPost2010PropOp55
 70
     1
102
RTVSPost2010Prop56
140
1.0
102
RTVSPost2010PropOp56
 70
     1
102
RTVSPost2010Prop57
140
1.0
102
RTVSPost2010PropOp57
 70
     1
  0
XRECORD
  5
427
102
{ACAD_REACTORS
330
426
102
}
330
426
100
AcDbXrecord
280
     1
102
RTVSPropertyOp0
 70
     1
102
RTVSPropertyOp1
 70
     1
102
RTVSPropertyOp2
 70
     1
102
RTVSPropertyOp3
 70
     1
102
RTVSPropertyOp4
 70
     1
102
RTVSPropertyOp5
 70
     1
102
RTVSPropertyOp6
 70
     1
102
RTVSPropertyOp7
 70
     1
102
RTVSPropertyOp8
 70
     1
102
RTVSPropertyOp9
 70
     1
102
RTVSPropertyOp10
 70
     1
102
RTVSPropertyOp11
 70
     1
102
RTVSPropertyOp12
 70
     1
102
RTVSPropertyOp13
 70
     1
102
RTVSPropertyOp14
 70
     1
102
RTVSPropertyOp15
 70
     1
102
RTVSPropertyOp16
 70
     1
102
RTVSPropertyOp17
 70
     1
102
RTVSPropertyOp18
 70
     1
102
RTVSPropertyOp19
 70
     1
102
RTVSPropertyOp20
 70
     1
102
RTVSPropertyOp21
 70
     1
102
RTVSPropertyOp22
 70
     1
102
RTVSPropertyOp23
 70
     1
102
RTVSPropertyOp24
 70
     1
102
RTVSPropertyOp25
 70
     1
102
RTVSPropertyOp26
 70
     1
102
RTVSPropertyOp27
 70
     1
102
RTVSPropertyOp28
 70
     1
102
RTVSPropertyOp29
 70
     1
102
RTVSPropertyOp30
 70
     1
102
RTVSPropertyOp31
 70
     1
102
RTVSPropertyOp32
 70
     1
102
RTVSPropertyOp33
 70
     1
102
RTVSPropertyOp34
 70
     1
102
RTVSPropertyOp35
 70
     1
102
RTVSPropertyOp36
 70
     1
102
RTVSPropertyOp37
 70
     1
102
RTVSPropertyOp38
 70
     1
102
RTVSPropertyOp39
 70
     1
102
RTVSPropertyOp40
 70
     1
102
RTVSPropertyOp41
 70
     1
102
RTVSPropertyOp42
 70
     1
102
RTVSPropertyOp43
 70
     1
102
RTVSPropertyOp44
 70
     1
102
RTVSPropertyOp45
 70
     1
102
RTVSPropertyOp46
 70
     1
102
RTVSPropertyOp47
 70
     1
102
RTVSPropertyOp48
 70
     1
102
RTVSPropertyOp49
 70
     1
102
RTVSPropertyOp50
 70
     1
102
RTVSPropertyOp51
 70
     0
102
RTVSPropertyOp52
 70
     0
102
RTVSPropertyOp53
 70
     1
102
RTVSPropertyOp54
 70
     1
102
RTVSPropertyOp55
 70
     1
102
RTVSPropertyOp56
 70
     1
102
RTVSPropertyOp57
 70
     1
102
RTVSPost2010Prop28
280
     0
102
RTVSPost2010PropOp28
 70
     1
102
RTVSPost2010Prop29
280
     1
102
RTVSPost2010PropOp29
 70
     1
102
RTVSPost2010Prop30
280
     1
102
RTVSPost2010PropOp30
 70
     1
102
RTVSPost2010Prop31
280
     0
102
RTVSPost2010PropOp31
 70
     1
102
RTVSPost2010Prop32
280
     0
102
RTVSPost2010PropOp32
 70
     1
102
RTVSPost2010Prop33
280
     0
102
RTVSPost2010PropOp33
 70
     1
102
RTVSPost2010Prop34
280
     0
102
RTVSPost2010PropOp34
 70
     1
102
RTVSPost2010Prop35
280
     0
102
RTVSPost2010PropOp35
 70
     1
102
RTVSPost2010Prop36
280
     0
102
RTVSPost2010PropOp36
 70
     1
102
RTVSPost2010Prop37
 90
       50
102
RTVSPost2010PropOp37
 70
     1
102
RTVSPost2010Prop38
140
0.0
102
RTVSPost2010PropOp38
 70
     1
102
RTVSPost2010Prop39
140
1.0
102
RTVSPost2010PropOp39
 70
     1
102
RTVSPost2010Prop40
 90
        0
102
RTVSPost2010PropOp40
 70
     1
102
RTVSPost2010Prop41ColorIndex
 90
       18
102
RTVSPost2010Prop41ColorRGB
 90
        0
102
RTVSPost2010PropOp41
 70
     1
102
RTVSPost2010Prop42
 90
       50
102
RTVSPost2010PropOp42
 70
     1
102
RTVSPost2010Prop43
 90
        3
102
RTVSPost2010PropOp43
 70
     1
102
RTVSPost2010Prop44ColorIndex
 90
        5
102
RTVSPost2010Prop44ColorRGB
 90
      255
102
RTVSPost2010PropOp44
 70
     1
102
RTVSPost2010Prop45
280
     0
102
RTVSPost2010PropOp45
 70
     1
102
RTVSPost2010Prop46
 90
       50
102
RTVSPost2010PropOp46
 70
     1
102
RTVSPost2010Prop47
 90
       50
102
RTVSPost2010PropOp47
 70
     1
102
RTVSPost2010Prop48
 90
       50
102
RTVSPost2010PropOp48
 70
     1
102
RTVSPost2010Prop49
280
     0
102
RTVSPost2010PropOp49
 70
     1
102
RTVSPost2010Prop50
 90
       50
102
RTVSPost2010PropOp50
 70
     1
102
RTVSPost2010Prop51ColorIndex
 90
      256
102
RTVSPost2010Prop51ColorRGB
 90
-16777216
102
RTVSPost2010PropOp51
 70
     0
102
RTVSPost2010Prop52
140
1.0
102
RTVSPost2010PropOp52
 70
     0
102
RTVSPost2010Prop53
 90
        2
102
RTVSPost2010PropOp53
 70
     1
102
RTVSPost2010Prop54
  1
strokes_ogs.tif
102
RTVSPost2010PropOp54
 70
     1
102
RTVSPost2010Prop55
280
     0
102
RTVSPost2010PropOp55
 70
     1
102
RTVSPost2010Prop56
140
1.0
102
RTVSPost2010PropOp56
 70
     1
102
RTVSPost2010Prop57
140
1.0
102
RTVSPost2010PropOp57
 70
     1
  0
XRECORD
  5
42D
102
{ACAD_REACTORS
330
42C
102
}
330
42C
100
AcDbXrecord
280
     1
102
RTVSPropertyOp0
 70
     1
102
RTVSPropertyOp1
 70
     1
102
RTVSPropertyOp2
 70
     1
102
RTVSPropertyOp3
 70
     1
102
RTVSPropertyOp4
 70
     1
102
RTVSPropertyOp5
 70
     1
102
RTVSPropertyOp6
 70
     1
102
RTVSPropertyOp7
 70
     1
102
RTVSPropertyOp8
 70
     1
102
RTVSPropertyOp9
 70
     1
102
RTVSPropertyOp10
 70
     1
102
RTVSPropertyOp11
 70
     1
102
RTVSPropertyOp12
 70
     1
102
RTVSPropertyOp13
 70
     1
102
RTVSPropertyOp14
 70
     1
102
RTVSPropertyOp15
 70
     1
102
RTVSPropertyOp16
 70
     1
102
RTVSPropertyOp17
 70
     1
102
RTVSPropertyOp18
 70
     1
102
RTVSPropertyOp19
 70
     1
102
RTVSPropertyOp20
 70
     1
102
RTVSPropertyOp21
 70
     1
102
RTVSPropertyOp22
 70
     1
102
RTVSPropertyOp23
 70
     1
102
RTVSPropertyOp24
 70
     1
102
RTVSPropertyOp25
 70
     1
102
RTVSPropertyOp26
 70
     1
102
RTVSPropertyOp27
 70
     1
102
RTVSPropertyOp28
 70
     1
102
RTVSPropertyOp29
 70
     1
102
RTVSPropertyOp30
 70
     1
102
RTVSPropertyOp31
 70
     1
102
RTVSPropertyOp32
 70
     1
102
RTVSPropertyOp33
 70
     1
102
RTVSPropertyOp34
 70
     1
102
RTVSPropertyOp35
 70
     1
102
RTVSPropertyOp36
 70
     1
102
RTVSPropertyOp37
 70
     1
102
RTVSPropertyOp38
 70
     1
102
RTVSPropertyOp39
 70
     1
102
RTVSPropertyOp40
 70
     1
102
RTVSPropertyOp41
 70
     1
102
RTVSPropertyOp42
 70
     1
102
RTVSPropertyOp43
 70
     1
102
RTVSPropertyOp44
 70
     1
102
RTVSPropertyOp45
 70
     1
102
RTVSPropertyOp46
 70
     1
102
RTVSPropertyOp47
 70
     1
102
RTVSPropertyOp48
 70
     1
102
RTVSPropertyOp49
 70
     1
102
RTVSPropertyOp50
 70
     1
102
RTVSPropertyOp51
 70
     0
102
RTVSPropertyOp52
 70
     0
102
RTVSPropertyOp53
 70
     1
102
RTVSPropertyOp54
 70
     1
102
RTVSPropertyOp55
 70
     1
102
RTVSPropertyOp56
 70
     1
102
RTVSPropertyOp57
 70
     1
102
RTVSPost2010Prop28
280
     0
102
RTVSPost2010PropOp28
 70
     1
102
RTVSPost2010Prop29
280
     1
102
RTVSPost2010PropOp29
 70
     1
102
RTVSPost2010Prop30
280
     1
102
RTVSPost2010PropOp30
 70
     1
102
RTVSPost2010Prop31
280
     0
102
RTVSPost2010PropOp31
 70
     1
102
RTVSPost2010Prop32
280
     0
102
RTVSPost2010PropOp32
 70
     1
102
RTVSPost2010Prop33
280
     0
102
RTVSPost2010PropOp33
 70
     1
102
RTVSPost2010Prop34
280
     0
102
RTVSPost2010PropOp34
 70
     1
102
RTVSPost2010Prop35
280
     0
102
RTVSPost2010PropOp35
 70
     1
102
RTVSPost2010Prop36
280
     0
102
RTVSPost2010PropOp36
 70
     1
102
RTVSPost2010Prop37
 90
       50
102
RTVSPost2010PropOp37
 70
     1
102
RTVSPost2010Prop38
140
0.0
102
RTVSPost2010PropOp38
 70
     1
102
RTVSPost2010Prop39
140
1.0
102
RTVSPost2010PropOp39
 70
     1
102
RTVSPost2010Prop40
 90
        0
102
RTVSPost2010PropOp40
 70
     1
102
RTVSPost2010Prop41ColorIndex
 90
       18
102
RTVSPost2010Prop41ColorRGB
 90
        0
102
RTVSPost2010PropOp41
 70
     1
102
RTVSPost2010Prop42
 90
       50
102
RTVSPost2010PropOp42
 70
     1
102
RTVSPost2010Prop43
 90
        3
102
RTVSPost2010PropOp43
 70
     1
102
RTVSPost2010Prop44ColorIndex
 90
        5
102
RTVSPost2010Prop44ColorRGB
 90
      255
102
RTVSPost2010PropOp44
 70
     1
102
RTVSPost2010Prop45
280
     0
102
RTVSPost2010PropOp45
 70
     1
102
RTVSPost2010Prop46
 90
       50
102
RTVSPost2010PropOp46
 70
     1
102
RTVSPost2010Prop47
 90
       50
102
RTVSPost2010PropOp47
 70
     1
102
RTVSPost2010Prop48
 90
       50
102
RTVSPost2010PropOp48
 70
     1
102
RTVSPost2010Prop49
280
     0
102
RTVSPost2010PropOp49
 70
     1
102
RTVSPost2010Prop50
 90
       50
102
RTVSPost2010PropOp50
 70
     1
102
RTVSPost2010Prop51ColorIndex
 90
      256
102
RTVSPost2010Prop51ColorRGB
 90
-16777216
102
RTVSPost2010PropOp51
 70
     0
102
RTVSPost2010Prop52
140
1.0
102
RTVSPost2010PropOp52
 70
     0
102
RTVSPost2010Prop53
 90
        2
102
RTVSPost2010PropOp53
 70
     1
102
RTVSPost2010Prop54
  1
strokes_ogs.tif
102
RTVSPost2010PropOp54
 70
     1
102
RTVSPost2010Prop55
280
     0
102
RTVSPost2010PropOp55
 70
     1
102
RTVSPost2010Prop56
140
1.0
102
RTVSPost2010PropOp56
 70
     1
102
RTVSPost2010Prop57
140
1.0
102
RTVSPost2010PropOp57
 70
     1
  0
XRECORD
  5
441
102
{ACAD_REACTORS
330
440
102
}
330
440
100
AcDbXrecord
280
     1
102
RTVSPropertyOp0
 70
     0
102
RTVSPropertyOp1
 70
     0
102
RTVSPropertyOp2
 70
     0
102
RTVSPropertyOp3
 70
     0
102
RTVSPropertyOp4
 70
     0
102
RTVSPropertyOp5
 70
     0
102
RTVSPropertyOp6
 70
     0
102
RTVSPropertyOp7
 70
     0
102
RTVSPropertyOp8
 70
     0
102
RTVSPropertyOp9
 70
     0
102
RTVSPropertyOp10
 70
     0
102
RTVSPropertyOp11
 70
     0
102
RTVSPropertyOp12
 70
     0
102
RTVSPropertyOp13
 70
     0
102
RTVSPropertyOp14
 70
     2
102
RTVSPropertyOp15
 70
     0
102
RTVSPropertyOp16
 70
     0
102
RTVSPropertyOp17
 70
     0
102
RTVSPropertyOp18
 70
     0
102
RTVSPropertyOp19
 70
     0
102
RTVSPropertyOp20
 70
     0
102
RTVSPropertyOp21
 70
     0
102
RTVSPropertyOp22
 70
     0
102
RTVSPropertyOp23
 70
     0
102
RTVSPropertyOp24
 70
     0
102
RTVSPropertyOp25
 70
     0
102
RTVSPropertyOp26
 70
     0
102
RTVSPropertyOp27
 70
     0
102
RTVSPropertyOp28
 70
     0
102
RTVSPropertyOp29
 70
     0
102
RTVSPropertyOp30
 70
     0
102
RTVSPropertyOp31
 70
     0
102
RTVSPropertyOp32
 70
     0
102
RTVSPropertyOp33
 70
     0
102
RTVSPropertyOp34
 70
     0
102
RTVSPropertyOp35
 70
     0
102
RTVSPropertyOp36
 70
     0
102
RTVSPropertyOp37
 70
     0
102
RTVSPropertyOp38
 70
     0
102
RTVSPropertyOp39
 70
     0
102
RTVSPropertyOp40
 70
     0
102
RTVSPropertyOp41
 70
     0
102
RTVSPropertyOp42
 70
     0
102
RTVSPropertyOp43
 70
     0
102
RTVSPropertyOp44
 70
     0
102
RTVSPropertyOp45
 70
     0
102
RTVSPropertyOp46
 70
     0
102
RTVSPropertyOp47
 70
     0
102
RTVSPropertyOp48
 70
     0
102
RTVSPropertyOp49
 70
     0
102
RTVSPropertyOp50
 70
     0
102
RTVSPropertyOp51
 70
     0
102
RTVSPropertyOp52
 70
     0
102
RTVSPropertyOp53
 70
     0
102
RTVSPropertyOp54
 70
     0
102
RTVSPropertyOp55
 70
     0
102
RTVSPropertyOp56
 70
     0
102
RTVSPropertyOp57
 70
     0
102
RTVSPost2010Prop28
280
     0
102
RTVSPost2010PropOp28
 70
     0
102
RTVSPost2010Prop29
280
     1
102
RTVSPost2010PropOp29
 70
     0
102
RTVSPost2010Prop30
280
     1
102
RTVSPost2010PropOp30
 70
     0
102
RTVSPost2010Prop31
280
     0
102
RTVSPost2010PropOp31
 70
     0
102
RTVSPost2010Prop32
280
     0
102
RTVSPost2010PropOp32
 70
     0
102
RTVSPost2010Prop33
280
     0
102
RTVSPost2010PropOp33
 70
     0
102
RTVSPost2010Prop34
280
     0
102
RTVSPost2010PropOp34
 70
     0
102
RTVSPost2010Prop35
280
     0
102
RTVSPost2010PropOp35
 70
     0
102
RTVSPost2010Prop36
280
     0
102
RTVSPost2010PropOp36
 70
     0
102
RTVSPost2010Prop37
 90
       50
102
RTVSPost2010PropOp37
 70
     0
102
RTVSPost2010Prop38
140
0.0
102
RTVSPost2010PropOp38
 70
     0
102
RTVSPost2010Prop39
140
1.0
102
RTVSPost2010PropOp39
 70
     0
102
RTVSPost2010Prop40
 90
        0
102
RTVSPost2010PropOp40
 70
     0
102
RTVSPost2010Prop41ColorIndex
 90
       18
102
RTVSPost2010Prop41ColorRGB
 90
        0
102
RTVSPost2010PropOp41
 70
     0
102
RTVSPost2010Prop42
 90
       50
102
RTVSPost2010PropOp42
 70
     0
102
RTVSPost2010Prop43
 90
        3
102
RTVSPost2010PropOp43
 70
     0
102
RTVSPost2010Prop44ColorIndex
 90
        5
102
RTVSPost2010Prop44ColorRGB
 90
      255
102
RTVSPost2010PropOp44
 70
     0
102
RTVSPost2010Prop45
280
     0
102
RTVSPost2010PropOp45
 70
     0
102
RTVSPost2010Prop46
 90
       50
102
RTVSPost2010PropOp46
 70
     0
102
RTVSPost2010Prop47
 90
       50
102
RTVSPost2010PropOp47
 70
     0
102
RTVSPost2010Prop48
 90
       50
102
RTVSPost2010PropOp48
 70
     0
102
RTVSPost2010Prop49
280
     0
102
RTVSPost2010PropOp49
 70
     0
102
RTVSPost2010Prop50
 90
       50
102
RTVSPost2010PropOp50
 70
     0
102
RTVSPost2010Prop51ColorIndex
 90
      256
102
RTVSPost2010Prop51ColorRGB
 90
-16777216
102
RTVSPost2010PropOp51
 70
     0
102
RTVSPost2010Prop52
140
1.0
102
RTVSPost2010PropOp52
 70
     0
102
RTVSPost2010Prop53
 90
        2
102
RTVSPost2010PropOp53
 70
     0
102
RTVSPost2010Prop54
  1
strokes_ogs.tif
102
RTVSPost2010PropOp54
 70
     0
102
RTVSPost2010Prop55
280
     0
102
RTVSPost2010PropOp55
 70
     0
102
RTVSPost2010Prop56
140
1.0
102
RTVSPost2010PropOp56
 70
     0
102
RTVSPost2010Prop57
140
1.0
102
RTVSPost2010PropOp57
 70
     0
  0
XRECORD
  5
43B
102
{ACAD_REACTORS
330
43A
102
}
330
43A
100
AcDbXrecord
280
     1
102
RTVSPropertyOp0
 70
     1
102
RTVSPropertyOp1
 70
     1
102
RTVSPropertyOp2
 70
     1
102
RTVSPropertyOp3
 70
     1
102
RTVSPropertyOp4
 70
     1
102
RTVSPropertyOp5
 70
     1
102
RTVSPropertyOp6
 70
     1
102
RTVSPropertyOp7
 70
     1
102
RTVSPropertyOp8
 70
     1
102
RTVSPropertyOp9
 70
     1
102
RTVSPropertyOp10
 70
     1
102
RTVSPropertyOp11
 70
     1
102
RTVSPropertyOp12
 70
     1
102
RTVSPropertyOp13
 70
     1
102
RTVSPropertyOp14
 70
     1
102
RTVSPropertyOp15
 70
     1
102
RTVSPropertyOp16
 70
     1
102
RTVSPropertyOp17
 70
     1
102
RTVSPropertyOp18
 70
     1
102
RTVSPropertyOp19
 70
     1
102
RTVSPropertyOp20
 70
     1
102
RTVSPropertyOp21
 70
     1
102
RTVSPropertyOp22
 70
     1
102
RTVSPropertyOp23
 70
     1
102
RTVSPropertyOp24
 70
     1
102
RTVSPropertyOp25
 70
     1
102
RTVSPropertyOp26
 70
     1
102
RTVSPropertyOp27
 70
     1
102
RTVSPropertyOp28
 70
     1
102
RTVSPropertyOp29
 70
     1
102
RTVSPropertyOp30
 70
     1
102
RTVSPropertyOp31
 70
     1
102
RTVSPropertyOp32
 70
     1
102
RTVSPropertyOp33
 70
     1
102
RTVSPropertyOp34
 70
     1
102
RTVSPropertyOp35
 70
     1
102
RTVSPropertyOp36
 70
     1
102
RTVSPropertyOp37
 70
     1
102
RTVSPropertyOp38
 70
     1
102
RTVSPropertyOp39
 70
     1
102
RTVSPropertyOp40
 70
     1
102
RTVSPropertyOp41
 70
     1
102
RTVSPropertyOp42
 70
     1
102
RTVSPropertyOp43
 70
     1
102
RTVSPropertyOp44
 70
     1
102
RTVSPropertyOp45
 70
     1
102
RTVSPropertyOp46
 70
     1
102
RTVSPropertyOp47
 70
     1
102
RTVSPropertyOp48
 70
     1
102
RTVSPropertyOp49
 70
     1
102
RTVSPropertyOp50
 70
     1
102
RTVSPropertyOp51
 70
     0
102
RTVSPropertyOp52
 70
     0
102
RTVSPropertyOp53
 70
     1
102
RTVSPropertyOp54
 70
     1
102
RTVSPropertyOp55
 70
     1
102
RTVSPropertyOp56
 70
     1
102
RTVSPropertyOp57
 70
     1
102
RTVSPost2010Prop28
280
     0
102
RTVSPost2010PropOp28
 70
     1
102
RTVSPost2010Prop29
280
     1
102
RTVSPost2010PropOp29
 70
     1
102
RTVSPost2010Prop30
280
     1
102
RTVSPost2010PropOp30
 70
     1
102
RTVSPost2010Prop31
280
     0
102
RTVSPost2010PropOp31
 70
     1
102
RTVSPost2010Prop32
280
     0
102
RTVSPost2010PropOp32
 70
     1
102
RTVSPost2010Prop33
280
     0
102
RTVSPost2010PropOp33
 70
     1
102
RTVSPost2010Prop34
280
     0
102
RTVSPost2010PropOp34
 70
     1
102
RTVSPost2010Prop35
280
     0
102
RTVSPost2010PropOp35
 70
     1
102
RTVSPost2010Prop36
280
     0
102
RTVSPost2010PropOp36
 70
     1
102
RTVSPost2010Prop37
 90
       50
102
RTVSPost2010PropOp37
 70
     1
102
RTVSPost2010Prop38
140
0.0
102
RTVSPost2010PropOp38
 70
     1
102
RTVSPost2010Prop39
140
1.0
102
RTVSPost2010PropOp39
 70
     1
102
RTVSPost2010Prop40
 90
        0
102
RTVSPost2010PropOp40
 70
     1
102
RTVSPost2010Prop41ColorIndex
 90
       18
102
RTVSPost2010Prop41ColorRGB
 90
        0
102
RTVSPost2010PropOp41
 70
     1
102
RTVSPost2010Prop42
 90
       50
102
RTVSPost2010PropOp42
 70
     1
102
RTVSPost2010Prop43
 90
        3
102
RTVSPost2010PropOp43
 70
     1
102
RTVSPost2010Prop44ColorIndex
 90
        5
102
RTVSPost2010Prop44ColorRGB
 90
      255
102
RTVSPost2010PropOp44
 70
     1
102
RTVSPost2010Prop45
280
     0
102
RTVSPost2010PropOp45
 70
     1
102
RTVSPost2010Prop46
 90
       50
102
RTVSPost2010PropOp46
 70
     1
102
RTVSPost2010Prop47
 90
       50
102
RTVSPost2010PropOp47
 70
     1
102
RTVSPost2010Prop48
 90
       50
102
RTVSPost2010PropOp48
 70
     1
102
RTVSPost2010Prop49
280
     0
102
RTVSPost2010PropOp49
 70
     1
102
RTVSPost2010Prop50
 90
       50
102
RTVSPost2010PropOp50
 70
     1
102
RTVSPost2010Prop51ColorIndex
 90
      256
102
RTVSPost2010Prop51ColorRGB
 90
-16777216
102
RTVSPost2010PropOp51
 70
     0
102
RTVSPost2010Prop52
140
1.0
102
RTVSPost2010PropOp52
 70
     0
102
RTVSPost2010Prop53
 90
        2
102
RTVSPost2010PropOp53
 70
     1
102
RTVSPost2010Prop54
  1
strokes_ogs.tif
102
RTVSPost2010PropOp54
 70
     1
102
RTVSPost2010Prop55
280
     0
102
RTVSPost2010PropOp55
 70
     1
102
RTVSPost2010Prop56
140
1.0
102
RTVSPost2010PropOp56
 70
     1
102
RTVSPost2010Prop57
140
1.0
102
RTVSPost2010PropOp57
 70
     1
  0
XRECORD
  5
443
102
{ACAD_REACTORS
330
442
102
}
330
442
100
AcDbXrecord
280
     1
102
RTVSPropertyOp0
 70
     0
102
RTVSPropertyOp1
 70
     0
102
RTVSPropertyOp2
 70
     0
102
RTVSPropertyOp3
 70
     0
102
RTVSPropertyOp4
 70
     0
102
RTVSPropertyOp5
 70
     0
102
RTVSPropertyOp6
 70
     0
102
RTVSPropertyOp7
 70
     0
102
RTVSPropertyOp8
 70
     0
102
RTVSPropertyOp9
 70
     0
102
RTVSPropertyOp10
 70
     0
102
RTVSPropertyOp11
 70
     0
102
RTVSPropertyOp12
 70
     0
102
RTVSPropertyOp13
 70
     0
102
RTVSPropertyOp14
 70
     2
102
RTVSPropertyOp15
 70
     0
102
RTVSPropertyOp16
 70
     0
102
RTVSPropertyOp17
 70
     0
102
RTVSPropertyOp18
 70
     0
102
RTVSPropertyOp19
 70
     0
102
RTVSPropertyOp20
 70
     0
102
RTVSPropertyOp21
 70
     0
102
RTVSPropertyOp22
 70
     0
102
RTVSPropertyOp23
 70
     0
102
RTVSPropertyOp24
 70
     0
102
RTVSPropertyOp25
 70
     0
102
RTVSPropertyOp26
 70
     0
102
RTVSPropertyOp27
 70
     0
102
RTVSPropertyOp28
 70
     0
102
RTVSPropertyOp29
 70
     0
102
RTVSPropertyOp30
 70
     0
102
RTVSPropertyOp31
 70
     0
102
RTVSPropertyOp32
 70
     0
102
RTVSPropertyOp33
 70
     0
102
RTVSPropertyOp34
 70
     0
102
RTVSPropertyOp35
 70
     0
102
RTVSPropertyOp36
 70
     0
102
RTVSPropertyOp37
 70
     0
102
RTVSPropertyOp38
 70
     0
102
RTVSPropertyOp39
 70
     0
102
RTVSPropertyOp40
 70
     0
102
RTVSPropertyOp41
 70
     0
102
RTVSPropertyOp42
 70
     0
102
RTVSPropertyOp43
 70
     0
102
RTVSPropertyOp44
 70
     0
102
RTVSPropertyOp45
 70
     0
102
RTVSPropertyOp46
 70
     0
102
RTVSPropertyOp47
 70
     0
102
RTVSPropertyOp48
 70
     0
102
RTVSPropertyOp49
 70
     0
102
RTVSPropertyOp50
 70
     0
102
RTVSPropertyOp51
 70
     0
102
RTVSPropertyOp52
 70
     0
102
RTVSPropertyOp53
 70
     0
102
RTVSPropertyOp54
 70
     0
102
RTVSPropertyOp55
 70
     0
102
RTVSPropertyOp56
 70
     0
102
RTVSPropertyOp57
 70
     0
102
RTVSPost2010Prop28
280
     0
102
RTVSPost2010PropOp28
 70
     0
102
RTVSPost2010Prop29
280
     1
102
RTVSPost2010PropOp29
 70
     0
102
RTVSPost2010Prop30
280
     1
102
RTVSPost2010PropOp30
 70
     0
102
RTVSPost2010Prop31
280
     0
102
RTVSPost2010PropOp31
 70
     0
102
RTVSPost2010Prop32
280
     0
102
RTVSPost2010PropOp32
 70
     0
102
RTVSPost2010Prop33
280
     0
102
RTVSPost2010PropOp33
 70
     0
102
RTVSPost2010Prop34
280
     0
102
RTVSPost2010PropOp34
 70
     0
102
RTVSPost2010Prop35
280
     0
102
RTVSPost2010PropOp35
 70
     0
102
RTVSPost2010Prop36
280
     0
102
RTVSPost2010PropOp36
 70
     0
102
RTVSPost2010Prop37
 90
       50
102
RTVSPost2010PropOp37
 70
     0
102
RTVSPost2010Prop38
140
0.0
102
RTVSPost2010PropOp38
 70
     0
102
RTVSPost2010Prop39
140
1.0
102
RTVSPost2010PropOp39
 70
     0
102
RTVSPost2010Prop40
 90
        0
102
RTVSPost2010PropOp40
 70
     0
102
RTVSPost2010Prop41ColorIndex
 90
       18
102
RTVSPost2010Prop41ColorRGB
 90
        0
102
RTVSPost2010PropOp41
 70
     0
102
RTVSPost2010Prop42
 90
       50
102
RTVSPost2010PropOp42
 70
     0
102
RTVSPost2010Prop43
 90
        3
102
RTVSPost2010PropOp43
 70
     0
102
RTVSPost2010Prop44ColorIndex
 90
        5
102
RTVSPost2010Prop44ColorRGB
 90
      255
102
RTVSPost2010PropOp44
 70
     0
102
RTVSPost2010Prop45
280
     0
102
RTVSPost2010PropOp45
 70
     0
102
RTVSPost2010Prop46
 90
       50
102
RTVSPost2010PropOp46
 70
     0
102
RTVSPost2010Prop47
 90
       50
102
RTVSPost2010PropOp47
 70
     0
102
RTVSPost2010Prop48
 90
       50
102
RTVSPost2010PropOp48
 70
     0
102
RTVSPost2010Prop49
280
     0
102
RTVSPost2010PropOp49
 70
     0
102
RTVSPost2010Prop50
 90
       50
102
RTVSPost2010PropOp50
 70
     0
102
RTVSPost2010Prop51ColorIndex
 90
      256
102
RTVSPost2010Prop51ColorRGB
 90
-16777216
102
RTVSPost2010PropOp51
 70
     0
102
RTVSPost2010Prop52
140
1.0
102
RTVSPost2010PropOp52
 70
     0
102
RTVSPost2010Prop53
 90
        2
102
RTVSPost2010PropOp53
 70
     0
102
RTVSPost2010Prop54
  1
strokes_ogs.tif
102
RTVSPost2010PropOp54
 70
     0
102
RTVSPost2010Prop55
280
     0
102
RTVSPost2010PropOp55
 70
     0
102
RTVSPost2010Prop56
140
1.0
102
RTVSPost2010PropOp56
 70
     0
102
RTVSPost2010Prop57
140
1.0
102
RTVSPost2010PropOp57
 70
     0
  0
XRECORD
  5
431
102
{ACAD_REACTORS
330
430
102
}
330
430
100
AcDbXrecord
280
     1
102
RTVSPropertyOp0
 70
     1
102
RTVSPropertyOp1
 70
     1
102
RTVSPropertyOp2
 70
     1
102
RTVSPropertyOp3
 70
     1
102
RTVSPropertyOp4
 70
     1
102
RTVSPropertyOp5
 70
     1
102
RTVSPropertyOp6
 70
     1
102
RTVSPropertyOp7
 70
     1
102
RTVSPropertyOp8
 70
     1
102
RTVSPropertyOp9
 70
     1
102
RTVSPropertyOp10
 70
     1
102
RTVSPropertyOp11
 70
     1
102
RTVSPropertyOp12
 70
     1
102
RTVSPropertyOp13
 70
     1
102
RTVSPropertyOp14
 70
     1
102
RTVSPropertyOp15
 70
     1
102
RTVSPropertyOp16
 70
     1
102
RTVSPropertyOp17
 70
     1
102
RTVSPropertyOp18
 70
     1
102
RTVSPropertyOp19
 70
     1
102
RTVSPropertyOp20
 70
     1
102
RTVSPropertyOp21
 70
     1
102
RTVSPropertyOp22
 70
     1
102
RTVSPropertyOp23
 70
     1
102
RTVSPropertyOp24
 70
     1
102
RTVSPropertyOp25
 70
     1
102
RTVSPropertyOp26
 70
     1
102
RTVSPropertyOp27
 70
     1
102
RTVSPropertyOp28
 70
     1
102
RTVSPropertyOp29
 70
     1
102
RTVSPropertyOp30
 70
     1
102
RTVSPropertyOp31
 70
     1
102
RTVSPropertyOp32
 70
     1
102
RTVSPropertyOp33
 70
     1
102
RTVSPropertyOp34
 70
     1
102
RTVSPropertyOp35
 70
     1
102
RTVSPropertyOp36
 70
     1
102
RTVSPropertyOp37
 70
     1
102
RTVSPropertyOp38
 70
     1
102
RTVSPropertyOp39
 70
     1
102
RTVSPropertyOp40
 70
     1
102
RTVSPropertyOp41
 70
     1
102
RTVSPropertyOp42
 70
     1
102
RTVSPropertyOp43
 70
     1
102
RTVSPropertyOp44
 70
     1
102
RTVSPropertyOp45
 70
     1
102
RTVSPropertyOp46
 70
     1
102
RTVSPropertyOp47
 70
     1
102
RTVSPropertyOp48
 70
     1
102
RTVSPropertyOp49
 70
     1
102
RTVSPropertyOp50
 70
     1
102
RTVSPropertyOp51
 70
     0
102
RTVSPropertyOp52
 70
     0
102
RTVSPropertyOp53
 70
     1
102
RTVSPropertyOp54
 70
     1
102
RTVSPropertyOp55
 70
     1
102
RTVSPropertyOp56
 70
     1
102
RTVSPropertyOp57
 70
     1
102
RTVSPost2010Prop28
280
     0
102
RTVSPost2010PropOp28
 70
     1
102
RTVSPost2010Prop29
280
     1
102
RTVSPost2010PropOp29
 70
     1
102
RTVSPost2010Prop30
280
     1
102
RTVSPost2010PropOp30
 70
     1
102
RTVSPost2010Prop31
280
     0
102
RTVSPost2010PropOp31
 70
     1
102
RTVSPost2010Prop32
280
     0
102
RTVSPost2010PropOp32
 70
     1
102
RTVSPost2010Prop33
280
     0
102
RTVSPost2010PropOp33
 70
     1
102
RTVSPost2010Prop34
280
     0
102
RTVSPost2010PropOp34
 70
     1
102
RTVSPost2010Prop35
280
     0
102
RTVSPost2010PropOp35
 70
     1
102
RTVSPost2010Prop36
280
     0
102
RTVSPost2010PropOp36
 70
     1
102
RTVSPost2010Prop37
 90
       50
102
RTVSPost2010PropOp37
 70
     1
102
RTVSPost2010Prop38
140
0.0
102
RTVSPost2010PropOp38
 70
     1
102
RTVSPost2010Prop39
140
1.0
102
RTVSPost2010PropOp39
 70
     1
102
RTVSPost2010Prop40
 90
        0
102
RTVSPost2010PropOp40
 70
     1
102
RTVSPost2010Prop41ColorIndex
 90
       18
102
RTVSPost2010Prop41ColorRGB
 90
        0
102
RTVSPost2010PropOp41
 70
     1
102
RTVSPost2010Prop42
 90
       50
102
RTVSPost2010PropOp42
 70
     1
102
RTVSPost2010Prop43
 90
        3
102
RTVSPost2010PropOp43
 70
     1
102
RTVSPost2010Prop44ColorIndex
 90
        5
102
RTVSPost2010Prop44ColorRGB
 90
      255
102
RTVSPost2010PropOp44
 70
     1
102
RTVSPost2010Prop45
280
     0
102
RTVSPost2010PropOp45
 70
     1
102
RTVSPost2010Prop46
 90
       50
102
RTVSPost2010PropOp46
 70
     1
102
RTVSPost2010Prop47
 90
       50
102
RTVSPost2010PropOp47
 70
     1
102
RTVSPost2010Prop48
 90
       50
102
RTVSPost2010PropOp48
 70
     1
102
RTVSPost2010Prop49
280
     0
102
RTVSPost2010PropOp49
 70
     1
102
RTVSPost2010Prop50
 90
       50
102
RTVSPost2010PropOp50
 70
     1
102
RTVSPost2010Prop51ColorIndex
 90
      256
102
RTVSPost2010Prop51ColorRGB
 90
-16777216
102
RTVSPost2010PropOp51
 70
     0
102
RTVSPost2010Prop52
140
1.0
102
RTVSPost2010PropOp52
 70
     0
102
RTVSPost2010Prop53
 90
        2
102
RTVSPost2010PropOp53
 70
     1
102
RTVSPost2010Prop54
  1
strokes_ogs.tif
102
RTVSPost2010PropOp54
 70
     1
102
RTVSPost2010Prop55
280
     0
102
RTVSPost2010PropOp55
 70
     1
102
RTVSPost2010Prop56
140
1.0
102
RTVSPost2010PropOp56
 70
     1
102
RTVSPost2010Prop57
140
1.0
102
RTVSPost2010PropOp57
 70
     1
  0
XRECORD
  5
44F
102
{ACAD_REACTORS
330
44E
102
}
330
44E
100
AcDbXrecord
280
     1
102
RTVSPropertyOp0
 70
     1
102
RTVSPropertyOp1
 70
     1
102
RTVSPropertyOp2
 70
     1
102
RTVSPropertyOp3
 70
     1
102
RTVSPropertyOp4
 70
     1
102
RTVSPropertyOp5
 70
     1
102
RTVSPropertyOp6
 70
     1
102
RTVSPropertyOp7
 70
     1
102
RTVSPropertyOp8
 70
     1
102
RTVSPropertyOp9
 70
     1
102
RTVSPropertyOp10
 70
     1
102
RTVSPropertyOp11
 70
     1
102
RTVSPropertyOp12
 70
     1
102
RTVSPropertyOp13
 70
     1
102
RTVSPropertyOp14
 70
     1
102
RTVSPropertyOp15
 70
     1
102
RTVSPropertyOp16
 70
     1
102
RTVSPropertyOp17
 70
     1
102
RTVSPropertyOp18
 70
     1
102
RTVSPropertyOp19
 70
     1
102
RTVSPropertyOp20
 70
     1
102
RTVSPropertyOp21
 70
     1
102
RTVSPropertyOp22
 70
     1
102
RTVSPropertyOp23
 70
     1
102
RTVSPropertyOp24
 70
     1
102
RTVSPropertyOp25
 70
     1
102
RTVSPropertyOp26
 70
     1
102
RTVSPropertyOp27
 70
     1
102
RTVSPropertyOp28
 70
     1
102
RTVSPropertyOp29
 70
     1
102
RTVSPropertyOp30
 70
     1
102
RTVSPropertyOp31
 70
     1
102
RTVSPropertyOp32
 70
     1
102
RTVSPropertyOp33
 70
     1
102
RTVSPropertyOp34
 70
     1
102
RTVSPropertyOp35
 70
     1
102
RTVSPropertyOp36
 70
     1
102
RTVSPropertyOp37
 70
     1
102
RTVSPropertyOp38
 70
     1
102
RTVSPropertyOp39
 70
     1
102
RTVSPropertyOp40
 70
     1
102
RTVSPropertyOp41
 70
     1
102
RTVSPropertyOp42
 70
     1
102
RTVSPropertyOp43
 70
     1
102
RTVSPropertyOp44
 70
     1
102
RTVSPropertyOp45
 70
     1
102
RTVSPropertyOp46
 70
     1
102
RTVSPropertyOp47
 70
     1
102
RTVSPropertyOp48
 70
     1
102
RTVSPropertyOp49
 70
     1
102
RTVSPropertyOp50
 70
     1
102
RTVSPropertyOp51
 70
     0
102
RTVSPropertyOp52
 70
     0
102
RTVSPropertyOp53
 70
     1
102
RTVSPropertyOp54
 70
     1
102
RTVSPropertyOp55
 70
     1
102
RTVSPropertyOp56
 70
     1
102
RTVSPropertyOp57
 70
     1
102
RTVSPost2010Prop28
280
     0
102
RTVSPost2010PropOp28
 70
     1
102
RTVSPost2010Prop29
280
     1
102
RTVSPost2010PropOp29
 70
     1
102
RTVSPost2010Prop30
280
     1
102
RTVSPost2010PropOp30
 70
     1
102
RTVSPost2010Prop31
280
     0
102
RTVSPost2010PropOp31
 70
     1
102
RTVSPost2010Prop32
280
     0
102
RTVSPost2010PropOp32
 70
     1
102
RTVSPost2010Prop33
280
     0
102
RTVSPost2010PropOp33
 70
     1
102
RTVSPost2010Prop34
280
     0
102
RTVSPost2010PropOp34
 70
     1
102
RTVSPost2010Prop35
280
     0
102
RTVSPost2010PropOp35
 70
     1
102
RTVSPost2010Prop36
280
     0
102
RTVSPost2010PropOp36
 70
     1
102
RTVSPost2010Prop37
 90
       50
102
RTVSPost2010PropOp37
 70
     1
102
RTVSPost2010Prop38
140
0.0
102
RTVSPost2010PropOp38
 70
     1
102
RTVSPost2010Prop39
140
1.0
102
RTVSPost2010PropOp39
 70
     1
102
RTVSPost2010Prop40
 90
        0
102
RTVSPost2010PropOp40
 70
     1
102
RTVSPost2010Prop41ColorIndex
 90
       18
102
RTVSPost2010Prop41ColorRGB
 90
        0
102
RTVSPost2010PropOp41
 70
     1
102
RTVSPost2010Prop42
 90
       50
102
RTVSPost2010PropOp42
 70
     1
102
RTVSPost2010Prop43
 90
        3
102
RTVSPost2010PropOp43
 70
     1
102
RTVSPost2010Prop44ColorIndex
 90
        5
102
RTVSPost2010Prop44ColorRGB
 90
      255
102
RTVSPost2010PropOp44
 70
     1
102
RTVSPost2010Prop45
280
     0
102
RTVSPost2010PropOp45
 70
     1
102
RTVSPost2010Prop46
 90
       50
102
RTVSPost2010PropOp46
 70
     1
102
RTVSPost2010Prop47
 90
       50
102
RTVSPost2010PropOp47
 70
     1
102
RTVSPost2010Prop48
 90
       50
102
RTVSPost2010PropOp48
 70
     1
102
RTVSPost2010Prop49
280
     0
102
RTVSPost2010PropOp49
 70
     1
102
RTVSPost2010Prop50
 90
       50
102
RTVSPost2010PropOp50
 70
     1
102
RTVSPost2010Prop51ColorIndex
 90
      256
102
RTVSPost2010Prop51ColorRGB
 90
-16777216
102
RTVSPost2010PropOp51
 70
     0
102
RTVSPost2010Prop52
140
1.0
102
RTVSPost2010PropOp52
 70
     0
102
RTVSPost2010Prop53
 90
        2
102
RTVSPost2010PropOp53
 70
     1
102
RTVSPost2010Prop54
  1
strokes_ogs.tif
102
RTVSPost2010PropOp54
 70
     1
102
RTVSPost2010Prop55
280
     0
102
RTVSPost2010PropOp55
 70
     1
102
RTVSPost2010Prop56
140
1.0
102
RTVSPost2010PropOp56
 70
     1
102
RTVSPost2010Prop57
140
1.0
102
RTVSPost2010PropOp57
 70
     1
  0
XRECORD
  5
44D
102
{ACAD_REACTORS
330
44C
102
}
330
44C
100
AcDbXrecord
280
     1
102
RTVSPropertyOp0
 70
     1
102
RTVSPropertyOp1
 70
     1
102
RTVSPropertyOp2
 70
     1
102
RTVSPropertyOp3
 70
     1
102
RTVSPropertyOp4
 70
     1
102
RTVSPropertyOp5
 70
     1
102
RTVSPropertyOp6
 70
     1
102
RTVSPropertyOp7
 70
     1
102
RTVSPropertyOp8
 70
     1
102
RTVSPropertyOp9
 70
     1
102
RTVSPropertyOp10
 70
     1
102
RTVSPropertyOp11
 70
     1
102
RTVSPropertyOp12
 70
     1
102
RTVSPropertyOp13
 70
     1
102
RTVSPropertyOp14
 70
     1
102
RTVSPropertyOp15
 70
     1
102
RTVSPropertyOp16
 70
     1
102
RTVSPropertyOp17
 70
     1
102
RTVSPropertyOp18
 70
     1
102
RTVSPropertyOp19
 70
     1
102
RTVSPropertyOp20
 70
     1
102
RTVSPropertyOp21
 70
     1
102
RTVSPropertyOp22
 70
     1
102
RTVSPropertyOp23
 70
     1
102
RTVSPropertyOp24
 70
     1
102
RTVSPropertyOp25
 70
     1
102
RTVSPropertyOp26
 70
     1
102
RTVSPropertyOp27
 70
     1
102
RTVSPropertyOp28
 70
     1
102
RTVSPropertyOp29
 70
     1
102
RTVSPropertyOp30
 70
     1
102
RTVSPropertyOp31
 70
     1
102
RTVSPropertyOp32
 70
     1
102
RTVSPropertyOp33
 70
     1
102
RTVSPropertyOp34
 70
     1
102
RTVSPropertyOp35
 70
     1
102
RTVSPropertyOp36
 70
     1
102
RTVSPropertyOp37
 70
     1
102
RTVSPropertyOp38
 70
     1
102
RTVSPropertyOp39
 70
     1
102
RTVSPropertyOp40
 70
     1
102
RTVSPropertyOp41
 70
     1
102
RTVSPropertyOp42
 70
     1
102
RTVSPropertyOp43
 70
     1
102
RTVSPropertyOp44
 70
     1
102
RTVSPropertyOp45
 70
     1
102
RTVSPropertyOp46
 70
     1
102
RTVSPropertyOp47
 70
     1
102
RTVSPropertyOp48
 70
     1
102
RTVSPropertyOp49
 70
     1
102
RTVSPropertyOp50
 70
     1
102
RTVSPropertyOp51
 70
     0
102
RTVSPropertyOp52
 70
     0
102
RTVSPropertyOp53
 70
     1
102
RTVSPropertyOp54
 70
     1
102
RTVSPropertyOp55
 70
     1
102
RTVSPropertyOp56
 70
     1
102
RTVSPropertyOp57
 70
     1
102
RTVSPost2010Prop28
280
     0
102
RTVSPost2010PropOp28
 70
     1
102
RTVSPost2010Prop29
280
     1
102
RTVSPost2010PropOp29
 70
     1
102
RTVSPost2010Prop30
280
     1
102
RTVSPost2010PropOp30
 70
     1
102
RTVSPost2010Prop31
280
     0
102
RTVSPost2010PropOp31
 70
     1
102
RTVSPost2010Prop32
280
     0
102
RTVSPost2010PropOp32
 70
     1
102
RTVSPost2010Prop33
280
     0
102
RTVSPost2010PropOp33
 70
     1
102
RTVSPost2010Prop34
280
     0
102
RTVSPost2010PropOp34
 70
     1
102
RTVSPost2010Prop35
280
     0
102
RTVSPost2010PropOp35
 70
     1
102
RTVSPost2010Prop36
280
     0
102
RTVSPost2010PropOp36
 70
     1
102
RTVSPost2010Prop37
 90
       50
102
RTVSPost2010PropOp37
 70
     1
102
RTVSPost2010Prop38
140
0.0
102
RTVSPost2010PropOp38
 70
     1
102
RTVSPost2010Prop39
140
1.0
102
RTVSPost2010PropOp39
 70
     1
102
RTVSPost2010Prop40
 90
        0
102
RTVSPost2010PropOp40
 70
     1
102
RTVSPost2010Prop41ColorIndex
 90
       18
102
RTVSPost2010Prop41ColorRGB
 90
        0
102
RTVSPost2010PropOp41
 70
     1
102
RTVSPost2010Prop42
 90
       50
102
RTVSPost2010PropOp42
 70
     1
102
RTVSPost2010Prop43
 90
        3
102
RTVSPost2010PropOp43
 70
     1
102
RTVSPost2010Prop44ColorIndex
 90
        5
102
RTVSPost2010Prop44ColorRGB
 90
      255
102
RTVSPost2010PropOp44
 70
     1
102
RTVSPost2010Prop45
280
     0
102
RTVSPost2010PropOp45
 70
     1
102
RTVSPost2010Prop46
 90
       50
102
RTVSPost2010PropOp46
 70
     1
102
RTVSPost2010Prop47
 90
       50
102
RTVSPost2010PropOp47
 70
     1
102
RTVSPost2010Prop48
 90
       50
102
RTVSPost2010PropOp48
 70
     1
102
RTVSPost2010Prop49
280
     0
102
RTVSPost2010PropOp49
 70
     1
102
RTVSPost2010Prop50
 90
       50
102
RTVSPost2010PropOp50
 70
     1
102
RTVSPost2010Prop51ColorIndex
 90
      256
102
RTVSPost2010Prop51ColorRGB
 90
-16777216
102
RTVSPost2010PropOp51
 70
     0
102
RTVSPost2010Prop52
140
1.0
102
RTVSPost2010PropOp52
 70
     0
102
RTVSPost2010Prop53
 90
        2
102
RTVSPost2010PropOp53
 70
     1
102
RTVSPost2010Prop54
  1
strokes_ogs.tif
102
RTVSPost2010PropOp54
 70
     1
102
RTVSPost2010Prop55
280
     0
102
RTVSPost2010PropOp55
 70
     1
102
RTVSPost2010Prop56
140
1.0
102
RTVSPost2010PropOp56
 70
     1
102
RTVSPost2010Prop57
140
1.0
102
RTVSPost2010PropOp57
 70
     1
  0
XRECORD
  5
447
102
{ACAD_REACTORS
330
446
102
}
330
446
100
AcDbXrecord
280
     1
102
RTVSPropertyOp0
 70
     1
102
RTVSPropertyOp1
 70
     1
102
RTVSPropertyOp2
 70
     1
102
RTVSPropertyOp3
 70
     1
102
RTVSPropertyOp4
 70
     1
102
RTVSPropertyOp5
 70
     1
102
RTVSPropertyOp6
 70
     1
102
RTVSPropertyOp7
 70
     1
102
RTVSPropertyOp8
 70
     1
102
RTVSPropertyOp9
 70
     1
102
RTVSPropertyOp10
 70
     1
102
RTVSPropertyOp11
 70
     1
102
RTVSPropertyOp12
 70
     1
102
RTVSPropertyOp13
 70
     1
102
RTVSPropertyOp14
 70
     1
102
RTVSPropertyOp15
 70
     1
102
RTVSPropertyOp16
 70
     1
102
RTVSPropertyOp17
 70
     1
102
RTVSPropertyOp18
 70
     1
102
RTVSPropertyOp19
 70
     1
102
RTVSPropertyOp20
 70
     1
102
RTVSPropertyOp21
 70
     1
102
RTVSPropertyOp22
 70
     1
102
RTVSPropertyOp23
 70
     1
102
RTVSPropertyOp24
 70
     1
102
RTVSPropertyOp25
 70
     1
102
RTVSPropertyOp26
 70
     1
102
RTVSPropertyOp27
 70
     1
102
RTVSPropertyOp28
 70
     1
102
RTVSPropertyOp29
 70
     1
102
RTVSPropertyOp30
 70
     1
102
RTVSPropertyOp31
 70
     1
102
RTVSPropertyOp32
 70
     1
102
RTVSPropertyOp33
 70
     1
102
RTVSPropertyOp34
 70
     1
102
RTVSPropertyOp35
 70
     1
102
RTVSPropertyOp36
 70
     1
102
RTVSPropertyOp37
 70
     1
102
RTVSPropertyOp38
 70
     1
102
RTVSPropertyOp39
 70
     1
102
RTVSPropertyOp40
 70
     1
102
RTVSPropertyOp41
 70
     1
102
RTVSPropertyOp42
 70
     1
102
RTVSPropertyOp43
 70
     1
102
RTVSPropertyOp44
 70
     1
102
RTVSPropertyOp45
 70
     1
102
RTVSPropertyOp46
 70
     1
102
RTVSPropertyOp47
 70
     1
102
RTVSPropertyOp48
 70
     1
102
RTVSPropertyOp49
 70
     1
102
RTVSPropertyOp50
 70
     1
102
RTVSPropertyOp51
 70
     0
102
RTVSPropertyOp52
 70
     0
102
RTVSPropertyOp53
 70
     1
102
RTVSPropertyOp54
 70
     1
102
RTVSPropertyOp55
 70
     1
102
RTVSPropertyOp56
 70
     1
102
RTVSPropertyOp57
 70
     1
102
RTVSPost2010Prop28
280
     0
102
RTVSPost2010PropOp28
 70
     1
102
RTVSPost2010Prop29
280
     1
102
RTVSPost2010PropOp29
 70
     1
102
RTVSPost2010Prop30
280
     1
102
RTVSPost2010PropOp30
 70
     1
102
RTVSPost2010Prop31
280
     0
102
RTVSPost2010PropOp31
 70
     1
102
RTVSPost2010Prop32
280
     0
102
RTVSPost2010PropOp32
 70
     1
102
RTVSPost2010Prop33
280
     0
102
RTVSPost2010PropOp33
 70
     1
102
RTVSPost2010Prop34
280
     0
102
RTVSPost2010PropOp34
 70
     1
102
RTVSPost2010Prop35
280
     0
102
RTVSPost2010PropOp35
 70
     1
102
RTVSPost2010Prop36
280
     0
102
RTVSPost2010PropOp36
 70
     1
102
RTVSPost2010Prop37
 90
       50
102
RTVSPost2010PropOp37
 70
     1
102
RTVSPost2010Prop38
140
0.0
102
RTVSPost2010PropOp38
 70
     1
102
RTVSPost2010Prop39
140
1.0
102
RTVSPost2010PropOp39
 70
     1
102
RTVSPost2010Prop40
 90
        0
102
RTVSPost2010PropOp40
 70
     1
102
RTVSPost2010Prop41ColorIndex
 90
       18
102
RTVSPost2010Prop41ColorRGB
 90
        0
102
RTVSPost2010PropOp41
 70
     1
102
RTVSPost2010Prop42
 90
       50
102
RTVSPost2010PropOp42
 70
     1
102
RTVSPost2010Prop43
 90
        3
102
RTVSPost2010PropOp43
 70
     1
102
RTVSPost2010Prop44ColorIndex
 90
        5
102
RTVSPost2010Prop44ColorRGB
 90
      255
102
RTVSPost2010PropOp44
 70
     1
102
RTVSPost2010Prop45
280
     0
102
RTVSPost2010PropOp45
 70
     1
102
RTVSPost2010Prop46
 90
       50
102
RTVSPost2010PropOp46
 70
     1
102
RTVSPost2010Prop47
 90
       50
102
RTVSPost2010PropOp47
 70
     1
102
RTVSPost2010Prop48
 90
       50
102
RTVSPost2010PropOp48
 70
     1
102
RTVSPost2010Prop49
280
     0
102
RTVSPost2010PropOp49
 70
     1
102
RTVSPost2010Prop50
 90
       50
102
RTVSPost2010PropOp50
 70
     1
102
RTVSPost2010Prop51ColorIndex
 90
      256
102
RTVSPost2010Prop51ColorRGB
 90
-16777216
102
RTVSPost2010PropOp51
 70
     0
102
RTVSPost2010Prop52
140
1.0
102
RTVSPost2010PropOp52
 70
     0
102
RTVSPost2010Prop53
 90
        2
102
RTVSPost2010PropOp53
 70
     1
102
RTVSPost2010Prop54
  1
strokes_ogs.tif
102
RTVSPost2010PropOp54
 70
     1
102
RTVSPost2010Prop55
280
     0
102
RTVSPost2010PropOp55
 70
     1
102
RTVSPost2010Prop56
140
1.0
102
RTVSPost2010PropOp56
 70
     1
102
RTVSPost2010Prop57
140
1.0
102
RTVSPost2010PropOp57
 70
     1
  0
XRECORD
  5
449
102
{ACAD_REACTORS
330
448
102
}
330
448
100
AcDbXrecord
280
     1
102
RTVSPropertyOp0
 70
     1
102
RTVSPropertyOp1
 70
     1
102
RTVSPropertyOp2
 70
     1
102
RTVSPropertyOp3
 70
     1
102
RTVSPropertyOp4
 70
     1
102
RTVSPropertyOp5
 70
     1
102
RTVSPropertyOp6
 70
     1
102
RTVSPropertyOp7
 70
     1
102
RTVSPropertyOp8
 70
     1
102
RTVSPropertyOp9
 70
     1
102
RTVSPropertyOp10
 70
     1
102
RTVSPropertyOp11
 70
     1
102
RTVSPropertyOp12
 70
     1
102
RTVSPropertyOp13
 70
     1
102
RTVSPropertyOp14
 70
     1
102
RTVSPropertyOp15
 70
     1
102
RTVSPropertyOp16
 70
     1
102
RTVSPropertyOp17
 70
     1
102
RTVSPropertyOp18
 70
     1
102
RTVSPropertyOp19
 70
     1
102
RTVSPropertyOp20
 70
     1
102
RTVSPropertyOp21
 70
     1
102
RTVSPropertyOp22
 70
     1
102
RTVSPropertyOp23
 70
     1
102
RTVSPropertyOp24
 70
     1
102
RTVSPropertyOp25
 70
     1
102
RTVSPropertyOp26
 70
     1
102
RTVSPropertyOp27
 70
     1
102
RTVSPropertyOp28
 70
     1
102
RTVSPropertyOp29
 70
     1
102
RTVSPropertyOp30
 70
     1
102
RTVSPropertyOp31
 70
     1
102
RTVSPropertyOp32
 70
     1
102
RTVSPropertyOp33
 70
     1
102
RTVSPropertyOp34
 70
     1
102
RTVSPropertyOp35
 70
     1
102
RTVSPropertyOp36
 70
     1
102
RTVSPropertyOp37
 70
     1
102
RTVSPropertyOp38
 70
     1
102
RTVSPropertyOp39
 70
     1
102
RTVSPropertyOp40
 70
     1
102
RTVSPropertyOp41
 70
     1
102
RTVSPropertyOp42
 70
     1
102
RTVSPropertyOp43
 70
     1
102
RTVSPropertyOp44
 70
     1
102
RTVSPropertyOp45
 70
     1
102
RTVSPropertyOp46
 70
     1
102
RTVSPropertyOp47
 70
     1
102
RTVSPropertyOp48
 70
     1
102
RTVSPropertyOp49
 70
     1
102
RTVSPropertyOp50
 70
     1
102
RTVSPropertyOp51
 70
     0
102
RTVSPropertyOp52
 70
     0
102
RTVSPropertyOp53
 70
     1
102
RTVSPropertyOp54
 70
     1
102
RTVSPropertyOp55
 70
     1
102
RTVSPropertyOp56
 70
     1
102
RTVSPropertyOp57
 70
     1
102
RTVSPost2010Prop28
280
     0
102
RTVSPost2010PropOp28
 70
     1
102
RTVSPost2010Prop29
280
     1
102
RTVSPost2010PropOp29
 70
     1
102
RTVSPost2010Prop30
280
     1
102
RTVSPost2010PropOp30
 70
     1
102
RTVSPost2010Prop31
280
     0
102
RTVSPost2010PropOp31
 70
     1
102
RTVSPost2010Prop32
280
     0
102
RTVSPost2010PropOp32
 70
     1
102
RTVSPost2010Prop33
280
     0
102
RTVSPost2010PropOp33
 70
     1
102
RTVSPost2010Prop34
280
     0
102
RTVSPost2010PropOp34
 70
     1
102
RTVSPost2010Prop35
280
     0
102
RTVSPost2010PropOp35
 70
     1
102
RTVSPost2010Prop36
280
     0
102
RTVSPost2010PropOp36
 70
     1
102
RTVSPost2010Prop37
 90
       50
102
RTVSPost2010PropOp37
 70
     1
102
RTVSPost2010Prop38
140
0.0
102
RTVSPost2010PropOp38
 70
     1
102
RTVSPost2010Prop39
140
1.0
102
RTVSPost2010PropOp39
 70
     1
102
RTVSPost2010Prop40
 90
        0
102
RTVSPost2010PropOp40
 70
     1
102
RTVSPost2010Prop41ColorIndex
 90
       18
102
RTVSPost2010Prop41ColorRGB
 90
        0
102
RTVSPost2010PropOp41
 70
     1
102
RTVSPost2010Prop42
 90
       50
102
RTVSPost2010PropOp42
 70
     1
102
RTVSPost2010Prop43
 90
        3
102
RTVSPost2010PropOp43
 70
     1
102
RTVSPost2010Prop44ColorIndex
 90
        5
102
RTVSPost2010Prop44ColorRGB
 90
      255
102
RTVSPost2010PropOp44
 70
     1
102
RTVSPost2010Prop45
280
     0
102
RTVSPost2010PropOp45
 70
     1
102
RTVSPost2010Prop46
 90
       50
102
RTVSPost2010PropOp46
 70
     1
102
RTVSPost2010Prop47
 90
       50
102
RTVSPost2010PropOp47
 70
     1
102
RTVSPost2010Prop48
 90
       50
102
RTVSPost2010PropOp48
 70
     1
102
RTVSPost2010Prop49
280
     0
102
RTVSPost2010PropOp49
 70
     1
102
RTVSPost2010Prop50
 90
       50
102
RTVSPost2010PropOp50
 70
     1
102
RTVSPost2010Prop51ColorIndex
 90
      256
102
RTVSPost2010Prop51ColorRGB
 90
-16777216
102
RTVSPost2010PropOp51
 70
     0
102
RTVSPost2010Prop52
140
1.0
102
RTVSPost2010PropOp52
 70
     0
102
RTVSPost2010Prop53
 90
        2
102
RTVSPost2010PropOp53
 70
     1
102
RTVSPost2010Prop54
  1
strokes_ogs.tif
102
RTVSPost2010PropOp54
 70
     1
102
RTVSPost2010Prop55
280
     0
102
RTVSPost2010PropOp55
 70
     1
102
RTVSPost2010Prop56
140
1.0
102
RTVSPost2010PropOp56
 70
     1
102
RTVSPost2010Prop57
140
1.0
102
RTVSPost2010PropOp57
 70
     1
  0
XRECORD
  5
439
102
{ACAD_REACTORS
330
438
102
}
330
438
100
AcDbXrecord
280
     1
102
RTVSPropertyOp0
 70
     1
102
RTVSPropertyOp1
 70
     1
102
RTVSPropertyOp2
 70
     1
102
RTVSPropertyOp3
 70
     1
102
RTVSPropertyOp4
 70
     1
102
RTVSPropertyOp5
 70
     1
102
RTVSPropertyOp6
 70
     1
102
RTVSPropertyOp7
 70
     1
102
RTVSPropertyOp8
 70
     1
102
RTVSPropertyOp9
 70
     1
102
RTVSPropertyOp10
 70
     1
102
RTVSPropertyOp11
 70
     1
102
RTVSPropertyOp12
 70
     1
102
RTVSPropertyOp13
 70
     1
102
RTVSPropertyOp14
 70
     1
102
RTVSPropertyOp15
 70
     1
102
RTVSPropertyOp16
 70
     1
102
RTVSPropertyOp17
 70
     1
102
RTVSPropertyOp18
 70
     1
102
RTVSPropertyOp19
 70
     1
102
RTVSPropertyOp20
 70
     1
102
RTVSPropertyOp21
 70
     1
102
RTVSPropertyOp22
 70
     1
102
RTVSPropertyOp23
 70
     1
102
RTVSPropertyOp24
 70
     1
102
RTVSPropertyOp25
 70
     1
102
RTVSPropertyOp26
 70
     1
102
RTVSPropertyOp27
 70
     1
102
RTVSPropertyOp28
 70
     1
102
RTVSPropertyOp29
 70
     1
102
RTVSPropertyOp30
 70
     1
102
RTVSPropertyOp31
 70
     1
102
RTVSPropertyOp32
 70
     1
102
RTVSPropertyOp33
 70
     1
102
RTVSPropertyOp34
 70
     1
102
RTVSPropertyOp35
 70
     1
102
RTVSPropertyOp36
 70
     1
102
RTVSPropertyOp37
 70
     1
102
RTVSPropertyOp38
 70
     1
102
RTVSPropertyOp39
 70
     1
102
RTVSPropertyOp40
 70
     1
102
RTVSPropertyOp41
 70
     1
102
RTVSPropertyOp42
 70
     1
102
RTVSPropertyOp43
 70
     1
102
RTVSPropertyOp44
 70
     1
102
RTVSPropertyOp45
 70
     1
102
RTVSPropertyOp46
 70
     1
102
RTVSPropertyOp47
 70
     1
102
RTVSPropertyOp48
 70
     1
102
RTVSPropertyOp49
 70
     1
102
RTVSPropertyOp50
 70
     1
102
RTVSPropertyOp51
 70
     0
102
RTVSPropertyOp52
 70
     0
102
RTVSPropertyOp53
 70
     1
102
RTVSPropertyOp54
 70
     1
102
RTVSPropertyOp55
 70
     1
102
RTVSPropertyOp56
 70
     1
102
RTVSPropertyOp57
 70
     1
102
RTVSPost2010Prop28
280
     0
102
RTVSPost2010PropOp28
 70
     1
102
RTVSPost2010Prop29
280
     1
102
RTVSPost2010PropOp29
 70
     1
102
RTVSPost2010Prop30
280
     1
102
RTVSPost2010PropOp30
 70
     1
102
RTVSPost2010Prop31
280
     0
102
RTVSPost2010PropOp31
 70
     1
102
RTVSPost2010Prop32
280
     0
102
RTVSPost2010PropOp32
 70
     1
102
RTVSPost2010Prop33
280
     0
102
RTVSPost2010PropOp33
 70
     1
102
RTVSPost2010Prop34
280
     0
102
RTVSPost2010PropOp34
 70
     1
102
RTVSPost2010Prop35
280
     0
102
RTVSPost2010PropOp35
 70
     1
102
RTVSPost2010Prop36
280
     0
102
RTVSPost2010PropOp36
 70
     1
102
RTVSPost2010Prop37
 90
       50
102
RTVSPost2010PropOp37
 70
     1
102
RTVSPost2010Prop38
140
0.0
102
RTVSPost2010PropOp38
 70
     1
102
RTVSPost2010Prop39
140
1.0
102
RTVSPost2010PropOp39
 70
     1
102
RTVSPost2010Prop40
 90
        0
102
RTVSPost2010PropOp40
 70
     1
102
RTVSPost2010Prop41ColorIndex
 90
       18
102
RTVSPost2010Prop41ColorRGB
 90
        0
102
RTVSPost2010PropOp41
 70
     1
102
RTVSPost2010Prop42
 90
       50
102
RTVSPost2010PropOp42
 70
     1
102
RTVSPost2010Prop43
 90
        3
102
RTVSPost2010PropOp43
 70
     1
102
RTVSPost2010Prop44ColorIndex
 90
        5
102
RTVSPost2010Prop44ColorRGB
 90
      255
102
RTVSPost2010PropOp44
 70
     1
102
RTVSPost2010Prop45
280
     0
102
RTVSPost2010PropOp45
 70
     1
102
RTVSPost2010Prop46
 90
       50
102
RTVSPost2010PropOp46
 70
     1
102
RTVSPost2010Prop47
 90
       50
102
RTVSPost2010PropOp47
 70
     1
102
RTVSPost2010Prop48
 90
       50
102
RTVSPost2010PropOp48
 70
     1
102
RTVSPost2010Prop49
280
     0
102
RTVSPost2010PropOp49
 70
     1
102
RTVSPost2010Prop50
 90
       50
102
RTVSPost2010PropOp50
 70
     1
102
RTVSPost2010Prop51ColorIndex
 90
      256
102
RTVSPost2010Prop51ColorRGB
 90
-16777216
102
RTVSPost2010PropOp51
 70
     0
102
RTVSPost2010Prop52
140
1.0
102
RTVSPost2010PropOp52
 70
     0
102
RTVSPost2010Prop53
 90
        2
102
RTVSPost2010PropOp53
 70
     1
102
RTVSPost2010Prop54
  1
strokes_ogs.tif
102
RTVSPost2010PropOp54
 70
     1
102
RTVSPost2010Prop55
280
     0
102
RTVSPost2010PropOp55
 70
     1
102
RTVSPost2010Prop56
140
1.0
102
RTVSPost2010PropOp56
 70
     1
102
RTVSPost2010Prop57
140
1.0
102
RTVSPost2010PropOp57
 70
     1
  0
XRECORD
  5
42B
102
{ACAD_REACTORS
330
42A
102
}
330
42A
100
AcDbXrecord
280
     1
102
RTVSPropertyOp0
 70
     1
102
RTVSPropertyOp1
 70
     1
102
RTVSPropertyOp2
 70
     1
102
RTVSPropertyOp3
 70
     1
102
RTVSPropertyOp4
 70
     1
102
RTVSPropertyOp5
 70
     1
102
RTVSPropertyOp6
 70
     1
102
RTVSPropertyOp7
 70
     1
102
RTVSPropertyOp8
 70
     1
102
RTVSPropertyOp9
 70
     1
102
RTVSPropertyOp10
 70
     1
102
RTVSPropertyOp11
 70
     1
102
RTVSPropertyOp12
 70
     1
102
RTVSPropertyOp13
 70
     1
102
RTVSPropertyOp14
 70
     1
102
RTVSPropertyOp15
 70
     1
102
RTVSPropertyOp16
 70
     1
102
RTVSPropertyOp17
 70
     1
102
RTVSPropertyOp18
 70
     1
102
RTVSPropertyOp19
 70
     1
102
RTVSPropertyOp20
 70
     1
102
RTVSPropertyOp21
 70
     1
102
RTVSPropertyOp22
 70
     1
102
RTVSPropertyOp23
 70
     1
102
RTVSPropertyOp24
 70
     1
102
RTVSPropertyOp25
 70
     1
102
RTVSPropertyOp26
 70
     1
102
RTVSPropertyOp27
 70
     1
102
RTVSPropertyOp28
 70
     1
102
RTVSPropertyOp29
 70
     1
102
RTVSPropertyOp30
 70
     1
102
RTVSPropertyOp31
 70
     1
102
RTVSPropertyOp32
 70
     1
102
RTVSPropertyOp33
 70
     1
102
RTVSPropertyOp34
 70
     1
102
RTVSPropertyOp35
 70
     1
102
RTVSPropertyOp36
 70
     1
102
RTVSPropertyOp37
 70
     1
102
RTVSPropertyOp38
 70
     1
102
RTVSPropertyOp39
 70
     1
102
RTVSPropertyOp40
 70
     1
102
RTVSPropertyOp41
 70
     1
102
RTVSPropertyOp42
 70
     1
102
RTVSPropertyOp43
 70
     1
102
RTVSPropertyOp44
 70
     1
102
RTVSPropertyOp45
 70
     1
102
RTVSPropertyOp46
 70
     1
102
RTVSPropertyOp47
 70
     1
102
RTVSPropertyOp48
 70
     1
102
RTVSPropertyOp49
 70
     1
102
RTVSPropertyOp50
 70
     1
102
RTVSPropertyOp51
 70
     0
102
RTVSPropertyOp52
 70
     0
102
RTVSPropertyOp53
 70
     1
102
RTVSPropertyOp54
 70
     1
102
RTVSPropertyOp55
 70
     1
102
RTVSPropertyOp56
 70
     1
102
RTVSPropertyOp57
 70
     1
102
RTVSPost2010Prop28
280
     0
102
RTVSPost2010PropOp28
 70
     1
102
RTVSPost2010Prop29
280
     1
102
RTVSPost2010PropOp29
 70
     1
102
RTVSPost2010Prop30
280
     1
102
RTVSPost2010PropOp30
 70
     1
102
RTVSPost2010Prop31
280
     0
102
RTVSPost2010PropOp31
 70
     1
102
RTVSPost2010Prop32
280
     0
102
RTVSPost2010PropOp32
 70
     1
102
RTVSPost2010Prop33
280
     0
102
RTVSPost2010PropOp33
 70
     1
102
RTVSPost2010Prop34
280
     0
102
RTVSPost2010PropOp34
 70
     1
102
RTVSPost2010Prop35
280
     0
102
RTVSPost2010PropOp35
 70
     1
102
RTVSPost2010Prop36
280
     0
102
RTVSPost2010PropOp36
 70
     1
102
RTVSPost2010Prop37
 90
       50
102
RTVSPost2010PropOp37
 70
     1
102
RTVSPost2010Prop38
140
0.0
102
RTVSPost2010PropOp38
 70
     1
102
RTVSPost2010Prop39
140
1.0
102
RTVSPost2010PropOp39
 70
     1
102
RTVSPost2010Prop40
 90
        0
102
RTVSPost2010PropOp40
 70
     1
102
RTVSPost2010Prop41ColorIndex
 90
       18
102
RTVSPost2010Prop41ColorRGB
 90
        0
102
RTVSPost2010PropOp41
 70
     1
102
RTVSPost2010Prop42
 90
       50
102
RTVSPost2010PropOp42
 70
     1
102
RTVSPost2010Prop43
 90
        3
102
RTVSPost2010PropOp43
 70
     1
102
RTVSPost2010Prop44ColorIndex
 90
        5
102
RTVSPost2010Prop44ColorRGB
 90
      255
102
RTVSPost2010PropOp44
 70
     1
102
RTVSPost2010Prop45
280
     0
102
RTVSPost2010PropOp45
 70
     1
102
RTVSPost2010Prop46
 90
       50
102
RTVSPost2010PropOp46
 70
     1
102
RTVSPost2010Prop47
 90
       50
102
RTVSPost2010PropOp47
 70
     1
102
RTVSPost2010Prop48
 90
       50
102
RTVSPost2010PropOp48
 70
     1
102
RTVSPost2010Prop49
280
     0
102
RTVSPost2010PropOp49
 70
     1
102
RTVSPost2010Prop50
 90
       50
102
RTVSPost2010PropOp50
 70
     1
102
RTVSPost2010Prop51ColorIndex
 90
      256
102
RTVSPost2010Prop51ColorRGB
 90
-16777216
102
RTVSPost2010PropOp51
 70
     0
102
RTVSPost2010Prop52
140
1.0
102
RTVSPost2010PropOp52
 70
     0
102
RTVSPost2010Prop53
 90
        2
102
RTVSPost2010PropOp53
 70
     1
102
RTVSPost2010Prop54
  1
strokes_ogs.tif
102
RTVSPost2010PropOp54
 70
     1
102
RTVSPost2010Prop55
280
     0
102
RTVSPost2010PropOp55
 70
     1
102
RTVSPost2010Prop56
140
1.0
102
RTVSPost2010PropOp56
 70
     1
102
RTVSPost2010Prop57
140
1.0
102
RTVSPost2010PropOp57
 70
     1
  0
XRECORD
  5
44B
102
{ACAD_REACTORS
330
44A
102
}
330
44A
100
AcDbXrecord
280
     1
102
RTVSPropertyOp0
 70
     1
102
RTVSPropertyOp1
 70
     1
102
RTVSPropertyOp2
 70
     1
102
RTVSPropertyOp3
 70
     1
102
RTVSPropertyOp4
 70
     1
102
RTVSPropertyOp5
 70
     1
102
RTVSPropertyOp6
 70
     1
102
RTVSPropertyOp7
 70
     1
102
RTVSPropertyOp8
 70
     1
102
RTVSPropertyOp9
 70
     1
102
RTVSPropertyOp10
 70
     1
102
RTVSPropertyOp11
 70
     1
102
RTVSPropertyOp12
 70
     1
102
RTVSPropertyOp13
 70
     1
102
RTVSPropertyOp14
 70
     1
102
RTVSPropertyOp15
 70
     1
102
RTVSPropertyOp16
 70
     1
102
RTVSPropertyOp17
 70
     1
102
RTVSPropertyOp18
 70
     1
102
RTVSPropertyOp19
 70
     1
102
RTVSPropertyOp20
 70
     1
102
RTVSPropertyOp21
 70
     1
102
RTVSPropertyOp22
 70
     1
102
RTVSPropertyOp23
 70
     1
102
RTVSPropertyOp24
 70
     1
102
RTVSPropertyOp25
 70
     1
102
RTVSPropertyOp26
 70
     1
102
RTVSPropertyOp27
 70
     1
102
RTVSPropertyOp28
 70
     1
102
RTVSPropertyOp29
 70
     1
102
RTVSPropertyOp30
 70
     1
102
RTVSPropertyOp31
 70
     1
102
RTVSPropertyOp32
 70
     1
102
RTVSPropertyOp33
 70
     1
102
RTVSPropertyOp34
 70
     1
102
RTVSPropertyOp35
 70
     1
102
RTVSPropertyOp36
 70
     1
102
RTVSPropertyOp37
 70
     1
102
RTVSPropertyOp38
 70
     1
102
RTVSPropertyOp39
 70
     1
102
RTVSPropertyOp40
 70
     1
102
RTVSPropertyOp41
 70
     1
102
RTVSPropertyOp42
 70
     1
102
RTVSPropertyOp43
 70
     1
102
RTVSPropertyOp44
 70
     1
102
RTVSPropertyOp45
 70
     1
102
RTVSPropertyOp46
 70
     1
102
RTVSPropertyOp47
 70
     1
102
RTVSPropertyOp48
 70
     1
102
RTVSPropertyOp49
 70
     1
102
RTVSPropertyOp50
 70
     1
102
RTVSPropertyOp51
 70
     0
102
RTVSPropertyOp52
 70
     0
102
RTVSPropertyOp53
 70
     1
102
RTVSPropertyOp54
 70
     1
102
RTVSPropertyOp55
 70
     1
102
RTVSPropertyOp56
 70
     1
102
RTVSPropertyOp57
 70
     1
102
RTVSPost2010Prop28
280
     0
102
RTVSPost2010PropOp28
 70
     1
102
RTVSPost2010Prop29
280
     1
102
RTVSPost2010PropOp29
 70
     1
102
RTVSPost2010Prop30
280
     1
102
RTVSPost2010PropOp30
 70
     1
102
RTVSPost2010Prop31
280
     0
102
RTVSPost2010PropOp31
 70
     1
102
RTVSPost2010Prop32
280
     0
102
RTVSPost2010PropOp32
 70
     1
102
RTVSPost2010Prop33
280
     0
102
RTVSPost2010PropOp33
 70
     1
102
RTVSPost2010Prop34
280
     0
102
RTVSPost2010PropOp34
 70
     1
102
RTVSPost2010Prop35
280
     0
102
RTVSPost2010PropOp35
 70
     1
102
RTVSPost2010Prop36
280
     0
102
RTVSPost2010PropOp36
 70
     1
102
RTVSPost2010Prop37
 90
       50
102
RTVSPost2010PropOp37
 70
     1
102
RTVSPost2010Prop38
140
0.0
102
RTVSPost2010PropOp38
 70
     1
102
RTVSPost2010Prop39
140
1.0
102
RTVSPost2010PropOp39
 70
     1
102
RTVSPost2010Prop40
 90
        0
102
RTVSPost2010PropOp40
 70
     1
102
RTVSPost2010Prop41ColorIndex
 90
       18
102
RTVSPost2010Prop41ColorRGB
 90
        0
102
RTVSPost2010PropOp41
 70
     1
102
RTVSPost2010Prop42
 90
       50
102
RTVSPost2010PropOp42
 70
     1
102
RTVSPost2010Prop43
 90
        3
102
RTVSPost2010PropOp43
 70
     1
102
RTVSPost2010Prop44ColorIndex
 90
        5
102
RTVSPost2010Prop44ColorRGB
 90
      255
102
RTVSPost2010PropOp44
 70
     1
102
RTVSPost2010Prop45
280
     0
102
RTVSPost2010PropOp45
 70
     1
102
RTVSPost2010Prop46
 90
       50
102
RTVSPost2010PropOp46
 70
     1
102
RTVSPost2010Prop47
 90
       50
102
RTVSPost2010PropOp47
 70
     1
102
RTVSPost2010Prop48
 90
       50
102
RTVSPost2010PropOp48
 70
     1
102
RTVSPost2010Prop49
280
     0
102
RTVSPost2010PropOp49
 70
     1
102
RTVSPost2010Prop50
 90
       50
102
RTVSPost2010PropOp50
 70
     1
102
RTVSPost2010Prop51ColorIndex
 90
      256
102
RTVSPost2010Prop51ColorRGB
 90
-16777216
102
RTVSPost2010PropOp51
 70
     0
102
RTVSPost2010Prop52
140
1.0
102
RTVSPost2010PropOp52
 70
     0
102
RTVSPost2010Prop53
 90
        2
102
RTVSPost2010PropOp53
 70
     1
102
RTVSPost2010Prop54
  1
strokes_ogs.tif
102
RTVSPost2010PropOp54
 70
     1
102
RTVSPost2010Prop55
280
     0
102
RTVSPost2010PropOp55
 70
     1
102
RTVSPost2010Prop56
140
1.0
102
RTVSPost2010PropOp56
 70
     1
102
RTVSPost2010Prop57
140
1.0
102
RTVSPost2010PropOp57
 70
     1
  0
ENDSEC
  0
EOF
