  0
SECTION
  2
HEADER
  9
$ACADVER
  1
AC1015
  9
$ACADMAINTVER
 70
     6
  9
$DWGCODEPAGE
  3
ANSI_932
  9
$INSBASE
 10
646.7830351634402
 20
-94.41161336967662
 30
0.0
  9
$EXTMIN
 10
646.7830351634402
 20
-834.4116133696766
 30
0.0
  9
$EXTMAX
 10
1489.638656631285
 20
-94.41161336967662
 30
0.0
  9
$LIMMIN
 10
646.7830351634402
 20
-834.4116133696766
  9
$LIMMAX
 10
1489.638656631285
 20
-94.41161336967662
  9
$ORTHOMODE
 70
     0
  9
$REGENMODE
 70
     0
  9
$FILLMODE
 70
     1
  9
$QTEXTMODE
 70
     0
  9
$MIRRTEXT
 70
     1
  9
$LTSCALE
 40
2.0
  9
$ATTMODE
 70
     1
  9
$TEXTSIZE
 40
8.0
  9
$TRACEWID
 40
0.05
  9
$TEXTSTYLE
  7
Standard
  9
$CLAYER
  8
1
  9
$CELTYPE
  6
Continuous
  9
$CECOLOR
 62
     7
  9
$CELTSCALE
 40
1.0
  9
$DISPSILH
 70
     0
  9
$DIMSCALE
 40
2.0
  9
$DIMASZ
 40
2.0
  9
$DIMEXO
 40
1.0
  9
$DIMDLI
 40
7.0
  9
$DIMRND
 40
0.0
  9
$DIMDLE
 40
1.0
  9
$DIMEXE
 40
1.0
  9
$DIMTP
 40
0.0
  9
$DIMTM
 40
0.0
  9
$DIMTXT
 40
4.0
  9
$DIMCEN
 40
0.09
  9
$DIMTSZ
 40
0.0
  9
$DIMTOL
 70
     0
  9
$DIMLIM
 70
     0
  9
$DIMTIH
 70
     0
  9
$DIMTOH
 70
     0
  9
$DIMSE1
 70
     0
  9
$DIMSE2
 70
     0
  9
$DIMTAD
 70
     1
  9
$DIMZIN
 70
     8
  9
$DIMBLK
  1
OPEN30
  9
$DIMASO
 70
     1
  9
$DIMSHO
 70
     0
  9
$DIMPOST
  1

  9
$DIMAPOST
  1

  9
$DIMALT
 70
     0
  9
$DIMALTD
 70
     3
  9
$DIMALTF
 40
25.4
  9
$DIMLFAC
 40
1.0
  9
$DIMTOFL
 70
     0
  9
$DIMTVP
 40
0.0
  9
$DIMTIX
 70
     0
  9
$DIMSOXD
 70
     0
  9
$DIMSAH
 70
     0
  9
$DIMBLK1
  1

  9
$DIMBLK2
  1

  9
$DIMSTYLE
  2
Standard
  9
$DIMCLRD
 70
     3
  9
$DIMCLRE
 70
     3
  9
$DIMCLRT
 70
     2
  9
$DIMTFAC
 40
0.5
  9
$DIMGAP
 40
1.0
  9
$DIMJUST
 70
     0
  9
$DIMSD1
 70
     0
  9
$DIMSD2
 70
     0
  9
$DIMTOLJ
 70
     1
  9
$DIMTZIN
 70
     0
  9
$DIMALTZ
 70
     0
  9
$DIMALTTZ
 70
     0
  9
$DIMUPT
 70
     0
  9
$DIMDEC
 70
     3
  9
$DIMTDEC
 70
     4
  9
$DIMALTU
 70
     2
  9
$DIMALTTD
 70
     2
  9
$DIMTXSTY
  7
Standard
  9
$DIMAUNIT
 70
     0
  9
$DIMADEC
 70
     3
  9
$DIMALTRND
 40
0.0
  9
$DIMAZIN
 70
     2
  9
$DIMDSEP
 70
    46
  9
$DIMATFIT
 70
     3
  9
$DIMFRAC
 70
     0
  9
$DIMLDRBLK
  1
OPEN30
  9
$DIMLUNIT
 70
     2
  9
$DIMLWD
 70
    -1
  9
$DIMLWE
 70
    -1
  9
$DIMTMOVE
 70
     0
  9
$LUNITS
 70
     2
  9
$LUPREC
 70
     4
  9
$SKETCHINC
 40
0.1
  9
$FILLETRAD
 40
0.0
  9
$AUNITS
 70
     0
  9
$AUPREC
 70
     0
  9
$MENU
  1
ACAD
  9
$ELEVATION
 40
0.0
  9
$PELEVATION
 40
0.0
  9
$THICKNESS
 40
0.0
  9
$LIMCHECK
 70
     0
  9
$CHAMFERA
 40
0.0
  9
$CHAMFERB
 40
0.0
  9
$CHAMFERC
 40
0.0
  9
$CHAMFERD
 40
0.0
  9
$SKPOLY
 70
     0
  9
$TDCREATE
 40
5696325.375
  9
$TDUCREATE
 40
5696325.0
  9
$TDUPDATE
 40
2459790.415812766
  9
$TDUUPDATE
 40
2459790.040812766
  9
$TDINDWG
 40
0.0
  9
$TDUSRTIMER
 40
0.0
  9
$USRTIMER
 70
     1
  9
$ANGBASE
 50
0.0
  9
$ANGDIR
 70
     0
  9
$PDMODE
 70
    65
  9
$PDSIZE
 40
0.2
  9
$PLINEWID
 40
0.0
  9
$SPLFRAME
 70
     0
  9
$SPLINETYPE
 70
     6
  9
$SPLINESEGS
 70
     8
  9
$HANDSEED
  5
3DE
  9
$SURFTAB1
 70
     6
  9
$SURFTAB2
 70
     6
  9
$SURFTYPE
 70
     6
  9
$SURFU
 70
     6
  9
$SURFV
 70
     6
  9
$UCSBASE
  2

  9
$UCSNAME
  2

  9
$UCSORG
 10
0.0
 20
0.0
 30
0.0
  9
$UCSXDIR
 10
1.0
 20
0.0
 30
0.0
  9
$UCSYDIR
 10
0.0
 20
1.0
 30
0.0
  9
$UCSORTHOREF
  2

  9
$UCSORTHOVIEW
 70
     0
  9
$UCSORGTOP
 10
0.0
 20
0.0
 30
0.0
  9
$UCSORGBOTTOM
 10
0.0
 20
0.0
 30
0.0
  9
$UCSORGLEFT
 10
0.0
 20
0.0
 30
0.0
  9
$UCSORGRIGHT
 10
0.0
 20
0.0
 30
0.0
  9
$UCSORGFRONT
 10
0.0
 20
0.0
 30
0.0
  9
$UCSORGBACK
 10
0.0
 20
0.0
 30
0.0
  9
$PUCSBASE
  2

  9
$PUCSNAME
  2

  9
$PUCSORG
 10
0.0
 20
0.0
 30
0.0
  9
$PUCSXDIR
 10
1.0
 20
0.0
 30
0.0
  9
$PUCSYDIR
 10
0.0
 20
1.0
 30
0.0
  9
$PUCSORTHOREF
  2

  9
$PUCSORTHOVIEW
 70
     0
  9
$PUCSORGTOP
 10
0.0
 20
0.0
 30
0.0
  9
$PUCSORGBOTTOM
 10
0.0
 20
0.0
 30
0.0
  9
$PUCSORGLEFT
 10
0.0
 20
0.0
 30
0.0
  9
$PUCSORGRIGHT
 10
0.0
 20
0.0
 30
0.0
  9
$PUCSORGFRONT
 10
0.0
 20
0.0
 30
0.0
  9
$PUCSORGBACK
 10
0.0
 20
0.0
 30
0.0
  9
$USERI1
 70
     0
  9
$USERI2
 70
     0
  9
$USERI3
 70
     0
  9
$USERI4
 70
     0
  9
$USERI5
 70
     0
  9
$USERR1
 40
0.0
  9
$USERR2
 40
0.0
  9
$USERR3
 40
0.0
  9
$USERR4
 40
0.0
  9
$USERR5
 40
0.0
  9
$WORLDVIEW
 70
     1
  9
$SHADEDGE
 70
     3
  9
$SHADEDIF
 70
    70
  9
$TILEMODE
 70
     1
  9
$MAXACTVP
 70
    64
  9
$PINSBASE
 10
0.0
 20
0.0
 30
0.0
  9
$PLIMCHECK
 70
     0
  9
$PEXTMIN
 10
1.000000000000000E+20
 20
1.000000000000000E+20
 30
1.000000000000000E+20
  9
$PEXTMAX
 10
-1.000000000000000E+20
 20
-1.000000000000000E+20
 30
-1.000000000000000E+20
  9
$PLIMMIN
 10
0.0
 20
0.0
  9
$PLIMMAX
 10
12.0
 20
9.0
  9
$UNITMODE
 70
     0
  9
$VISRETAIN
 70
     1
  9
$PLINEGEN
 70
     0
  9
$PSLTSCALE
 70
     1
  9
$TREEDEPTH
 70
  3020
  9
$CMLSTYLE
  2
Standard
  9
$CMLJUST
 70
     0
  9
$CMLSCALE
 40
1.0
  9
$PROXYGRAPHICS
 70
     1
  9
$MEASUREMENT
 70
     0
  9
$CELWEIGHT
370
    -1
  9
$ENDCAPS
280
     0
  9
$JOINSTYLE
280
     0
  9
$LWDISPLAY
290
     0
  9
$INSUNITS
 70
     1
  9
$HYPERLINKBASE
  1

  9
$STYLESHEET
  1

  9
$XEDIT
290
     1
  9
$CEPSNTYPE
380
     0
  9
$PSTYLEMODE
290
     1
  9
$FINGERPRINTGUID
  2
{937FB1B0-66DC-42DA-90CE-EEA4870282E2}
  9
$VERSIONGUID
  2
{FAEB1C32-E019-11D5-929B-00C0DF256EC4}
  9
$EXTNAMES
290
     1
  9
$PSVPSCALE
 40
0.0
  9
$OLESTARTUP
290
     0
  0
ENDSEC
  0
SECTION
  2
CLASSES
  0
CLASS
  1
ACDBDICTIONARYWDFLT
  2
AcDbDictionaryWithDefault
  3
ObjectDBX Classes
 90
        0
280
     0
281
     0
  0
CLASS
  1
VISUALSTYLE
  2
AcDbVisualStyle
  3
ObjectDBX Classes
 90
     4095
280
     0
281
     0
  0
CLASS
  1
MATERIAL
  2
AcDbMaterial
  3
ObjectDBX Classes
 90
     1153
280
     0
281
     0
  0
CLASS
  1
SCALE
  2
AcDbScale
  3
ObjectDBX Classes
 90
     1153
280
     0
281
     0
  0
CLASS
  1
TABLESTYLE
  2
AcDbTableStyle
  3
ObjectDBX Classes
 90
     4095
280
     0
281
     0
  0
CLASS
  1
MLEADERSTYLE
  2
AcDbMLeaderStyle
  3
ACDB_MLEADERSTYLE_CLASS
 90
     4095
280
     0
281
     0
  0
CLASS
  1
SUN
  2
AcDbSun
  3
SCENEOE
 90
     1153
280
     0
281
     0
  0
CLASS
  1
DICTIONARYVAR
  2
AcDbDictionaryVar
  3
ObjectDBX Classes
 90
        0
280
     0
281
     0
  0
CLASS
  1
ACDBPLACEHOLDER
  2
AcDbPlaceHolder
  3
ObjectDBX Classes
 90
        0
280
     0
281
     0
  0
CLASS
  1
LAYOUT
  2
AcDbLayout
  3
ObjectDBX Classes
 90
        0
280
     0
281
     0
  0
ENDSEC
  0
SECTION
  2
TABLES
  0
TABLE
  2
VPORT
  5
8
102
{ACAD_XDICTIONARY
360
3A1
102
}
330
0
100
AcDbSymbolTable
 70
     1
  0
VPORT
  5
29
330
8
100
AcDbSymbolTableRecord
100
AcDbViewportTableRecord
  2
*Active
 70
     0
 10
0.0
 20
0.0
 11
1.0
 21
1.0
 12
421.4278107339225
 22
370.0
 13
0.0
 23
0.0
 14
0.5
 24
0.5
 15
0.5
 25
0.5
 16
0.0
 26
0.0
 36
1.0
 17
0.0
 27
0.0
 37
0.0
 40
740.0
 41
1.138994083064655
 42
50.0
 43
0.0
 44
0.0
 50
0.0
 51
0.0
 71
     0
 72
   100
 73
     1
 74
     3
 75
     0
 76
     0
 77
     0
 78
     0
281
     0
 65
     1
110
0.0
120
0.0
130
0.0
111
1.0
121
0.0
131
0.0
112
0.0
122
1.0
132
0.0
 79
     0
146
0.0
  0
ENDTAB
  0
TABLE
  2
LTYPE
  5
5
330
0
100
AcDbSymbolTable
 70
    17
  0
LTYPE
  5
14
330
5
100
AcDbSymbolTableRecord
100
AcDbLinetypeTableRecord
  2
ByBlock
 70
     0
  3

 72
    65
 73
     0
 40
0.0
  0
LTYPE
  5
15
330
5
100
AcDbSymbolTableRecord
100
AcDbLinetypeTableRecord
  2
ByLayer
 70
     0
  3

 72
    65
 73
     0
 40
0.0
  0
LTYPE
  5
16
330
5
100
AcDbSymbolTableRecord
100
AcDbLinetypeTableRecord
  2
Continuous
 70
     0
  3
Solid line
 72
    65
 73
     0
 40
0.0
  0
LTYPE
  5
6E
330
5
100
AcDbSymbolTableRecord
100
AcDbLinetypeTableRecord
  2
DIVIDE
 70
     0
  3
Divide ____ . . ____ . . ____ . . ____ . . ____
 72
    65
 73
     6
 40
1.25
 49
0.5
 74
     0
 49
-0.25
 74
     0
 49
0.0
 74
     0
 49
-0.25
 74
     0
 49
0.0
 74
     0
 49
-0.25
 74
     0
  0
LTYPE
  5
6F
330
5
100
AcDbSymbolTableRecord
100
AcDbLinetypeTableRecord
  2
HIDDEN
 70
     0
  3
Hidden __ __ __ __ __ __ __ __ __ __ __ __ __ _
 72
    65
 73
     2
 40
9.525
 49
6.35
 74
     0
 49
-3.175
 74
     0
  0
LTYPE
  5
70
330
5
100
AcDbSymbolTableRecord
100
AcDbLinetypeTableRecord
  2
HIDDEN2
 70
     0
  3
Hidden (.5x) _ _ _ _ _ _ _ _ _ _ _ _ _ _ _ _ _
 72
    65
 73
     2
 40
4.7625
 49
3.175
 74
     0
 49
-1.5875
 74
     0
  0
LTYPE
  5
71
330
5
100
AcDbSymbolTableRecord
100
AcDbLinetypeTableRecord
  2
CENTER2
 70
     0
  3
Center (.5x) ___ _ ___ _ ___ _ ___ _ ___ _ ___
 72
    65
 73
     4
 40
28.575
 49
19.05
 74
     0
 49
-3.175
 74
     0
 49
3.175
 74
     0
 49
-3.175
 74
     0
  0
LTYPE
  5
72
330
5
100
AcDbSymbolTableRecord
100
AcDbLinetypeTableRecord
  2
PHANTOM2
 70
     0
  3
Phantom (.5x) ___ _ _ ___ _ _ ___ _ _ ___ _ _
 72
    65
 73
     6
 40
31.75
 49
15.875
 74
     0
 49
-3.175
 74
     0
 49
3.175
 74
     0
 49
-3.175
 74
     0
 49
3.175
 74
     0
 49
-3.175
 74
     0
  0
LTYPE
  5
73
330
5
100
AcDbSymbolTableRecord
100
AcDbLinetypeTableRecord
  2
DASHED
 70
     0
  3
Dashed __ __ __ __ __ __ __ __ __ __ __ __ __ _
 72
    65
 73
     2
 40
19.05
 49
12.7
 74
     0
 49
-6.35
 74
     0
  0
LTYPE
  5
74
330
5
100
AcDbSymbolTableRecord
100
AcDbLinetypeTableRecord
  2
CENTER
 70
     0
  3
Center ____ _ ____ _ ____ _ ____ _ ____ _ ____
 72
    65
 73
     4
 40
50.8
 49
31.75
 74
     0
 49
-6.35
 74
     0
 49
6.35
 74
     0
 49
-6.35
 74
     0
  0
LTYPE
  5
75
330
5
100
AcDbSymbolTableRecord
100
AcDbLinetypeTableRecord
  2
PHANTOM
 70
     0
  3
Phantom ______  __  __  ______  __  __  ______
 72
    65
 73
     6
 40
63.5
 49
31.75
 74
     0
 49
-6.35
 74
     0
 49
6.35
 74
     0
 49
-6.35
 74
     0
 49
6.35
 74
     0
 49
-6.35
 74
     0
  0
LTYPE
  5
76
330
5
100
AcDbSymbolTableRecord
100
AcDbLinetypeTableRecord
  2
BORDER2
 70
     0
  3
Border (.5x) __.__.__.__.__.__.__.__.__.__.__.
 72
    65
 73
     6
 40
22.225
 49
6.35
 74
     0
 49
-3.175
 74
     0
 49
6.35
 74
     0
 49
-3.175
 74
     0
 49
0.0
 74
     0
 49
-3.175
 74
     0
  0
LTYPE
  5
77
330
5
100
AcDbSymbolTableRecord
100
AcDbLinetypeTableRecord
  2
HIDDENX2
 70
     0
  3
Hidden (2x) ____ ____ ____ ____ ____ ____ ____
 72
    65
 73
     2
 40
19.05
 49
12.7
 74
     0
 49
-6.35
 74
     0
  0
LTYPE
  5
78
330
5
100
AcDbSymbolTableRecord
100
AcDbLinetypeTableRecord
  2
DOTX2
 70
     0
  3
Dot (2x) .  .  .  .  .  .  .  .  .  .  .  .  . 
 72
    65
 73
     2
 40
12.7
 49
0.0
 74
     0
 49
-12.7
 74
     0
  0
LTYPE
  5
79
330
5
100
AcDbSymbolTableRecord
100
AcDbLinetypeTableRecord
  2
DASHDOTX2
 70
     0
  3
Dash dot (2x) ____  .  ____  .  ____  .  ___
 72
    65
 73
     4
 40
50.8
 49
25.4
 74
     0
 49
-12.7
 74
     0
 49
0.0
 74
     0
 49
-12.7
 74
     0
  0
LTYPE
  5
7A
330
5
100
AcDbSymbolTableRecord
100
AcDbLinetypeTableRecord
  2
DIVIDEX2
 70
     0
  3
Divide (2x) ________  .  .  ________  .  .  _
 72
    65
 73
     6
 40
63.5
 49
25.4
 74
     0
 49
-12.7
 74
     0
 49
0.0
 74
     0
 49
-12.7
 74
     0
 49
0.0
 74
     0
 49
-12.7
 74
     0
  0
LTYPE
  5
7B
330
5
100
AcDbSymbolTableRecord
100
AcDbLinetypeTableRecord
  2
DASHEDX2
 70
     0
  3
Dashed (2x) ____  ____  ____  ____  ____  ___
 72
    65
 73
     2
 40
38.1
 49
25.4
 74
     0
 49
-12.7
 74
     0
  0
LTYPE
  5
7C
330
5
100
AcDbSymbolTableRecord
100
AcDbLinetypeTableRecord
  2
CENTERX2
 70
     0
  3
Center (2x) ________  __  ________  __  _____
 72
    65
 73
     4
 40
101.6
 49
63.5
 74
     0
 49
-12.7
 74
     0
 49
12.7
 74
     0
 49
-12.7
 74
     0
  0
LTYPE
  5
7D
330
5
100
AcDbSymbolTableRecord
100
AcDbLinetypeTableRecord
  2
PHANTOMX2
 70
     0
  3
Phantom (2x) ____________    ____    ____   _
 72
    65
 73
     6
 40
127.0
 49
63.5
 74
     0
 49
-12.7
 74
     0
 49
12.7
 74
     0
 49
-12.7
 74
     0
 49
12.7
 74
     0
 49
-12.7
 74
     0
  0
ENDTAB
  0
TABLE
  2
LAYER
  5
2
330
0
100
AcDbSymbolTable
 70
     4
  0
LAYER
  5
10
330
2
100
AcDbSymbolTableRecord
100
AcDbLayerTableRecord
  2
0
 70
     0
 62
     7
  6
Continuous
370
    -3
390
F
  0
LAYER
  5
7E
330
2
100
AcDbSymbolTableRecord
100
AcDbLayerTableRecord
  2
1
 70
     0
 62
     7
  6
Continuous
370
     0
390
F
  0
LAYER
  5
7F
330
2
100
AcDbSymbolTableRecord
100
AcDbLayerTableRecord
  2
2
 70
     0
 62
     7
  6
Continuous
370
     0
390
F
  0
LAYER
  5
80
330
2
100
AcDbSymbolTableRecord
100
AcDbLayerTableRecord
  2
DEFPOINTS
 70
     0
 62
     3
  6
DIVIDE
290
     0
370
     0
390
F
  0
ENDTAB
  0
TABLE
  2
STYLE
  5
3
330
0
100
AcDbSymbolTable
 70
    10
  0
STYLE
  5
11
330
3
100
AcDbSymbolTableRecord
100
AcDbTextStyleTableRecord
  2
Standard
 70
     0
 40
0.0
 41
0.8
 50
0.0
 71
     0
 42
8.0
  3
MONOTXT.shx
  4
EXTFONT.shx
  0
STYLE
  5
81
330
3
100
AcDbSymbolTableRecord
100
AcDbTextStyleTableRecord
  2
DIMSTANDARD
 70
     0
 40
0.0
 41
0.75
 50
0.0
 71
     0
 42
8.0
  3
MONOTXT.shx
  4
EXTFONT.shx
  0
STYLE
  5
BE
330
3
100
AcDbSymbolTableRecord
100
AcDbTextStyleTableRecord
  2
MTSTANDARD
 70
     0
 40
0.0
 41
1.0
 50
0.0
 71
     0
 42
8.0
  3
MONOTXT.shx
  4
EXTFONT.shx
  0
STYLE
  5
ED
330
3
100
AcDbSymbolTableRecord
100
AcDbTextStyleTableRecord
  2
MTSTANDARD1
 70
     0
 40
0.0
 41
1.0
 50
0.0
 71
     0
 42
8.0
  3
MONOTXT.shx
  4
EXTFONT.shx
  0
STYLE
  5
123
330
3
100
AcDbSymbolTableRecord
100
AcDbTextStyleTableRecord
  2
MTSTANDARD2
 70
     0
 40
0.0
 41
0.75
 50
0.0
 71
     0
 42
8.0
  3
MONOTXT.shx
  4
EXTFONT.shx
  0
STYLE
  5
197
330
3
100
AcDbSymbolTableRecord
100
AcDbTextStyleTableRecord
  2
MTSTANDARD3
 70
     0
 40
0.0
 41
1.0
 50
0.0
 71
     0
 42
8.0
  3
MONOTXT.shx
  4
EXTFONT.shx
  0
STYLE
  5
19E
330
3
100
AcDbSymbolTableRecord
100
AcDbTextStyleTableRecord
  2
MTSTANDARD4
 70
     0
 40
0.0
 41
1.0
 50
0.0
 71
     0
 42
8.0
  3
MONOTXT.shx
  4
EXTFONT.shx
  0
STYLE
  5
26A
330
3
100
AcDbSymbolTableRecord
100
AcDbTextStyleTableRecord
  2
MTSTANDARD5
 70
     0
 40
0.0
 41
1.0
 50
0.0
 71
     0
 42
8.0
  3
MONOTXT.shx
  4
EXTFONT.shx
  0
STYLE
  5
35F
330
3
100
AcDbSymbolTableRecord
100
AcDbTextStyleTableRecord
  2
MTSTANDARD6
 70
     0
 40
0.0
 41
1.0
 50
0.0
 71
     0
 42
8.0
  3
MONOTXT.shx
  4
EXTFONT.shx
  0
STYLE
  5
361
330
3
100
AcDbSymbolTableRecord
100
AcDbTextStyleTableRecord
  2
MTSTANDARD7
 70
     0
 40
0.0
 41
1.0
 50
0.0
 71
     0
 42
8.0
  3
MONOTXT.shx
  4
EXTFONT.shx
  0
ENDTAB
  0
TABLE
  2
VIEW
  5
6
330
0
100
AcDbSymbolTable
 70
     0
  0
ENDTAB
  0
TABLE
  2
UCS
  5
7
330
0
100
AcDbSymbolTable
 70
     0
  0
ENDTAB
  0
TABLE
  2
APPID
  5
9
330
0
100
AcDbSymbolTable
 70
     2
  0
APPID
  5
12
330
9
100
AcDbSymbolTableRecord
100
AcDbRegAppTableRecord
  2
ACAD
 70
     0
  0
APPID
  5
3DB
330
9
100
AcDbSymbolTableRecord
100
AcDbRegAppTableRecord
  2
ACAD_MLEADERVER
 70
     0
  0
ENDTAB
  0
TABLE
  2
DIMSTYLE
  5
A
330
0
100
AcDbSymbolTable
 70
     4
100
AcDbDimStyleTable
  0
DIMSTYLE
105
27
330
A
100
AcDbSymbolTableRecord
100
AcDbDimStyleTableRecord
  2
Standard
 70
     0
 40
2.0
 41
2.0
 42
1.0
 43
7.0
 44
1.0
 73
     0
 74
     0
 77
     3
 78
     8
 79
     2
140
4.0
141
0.0
146
0.5
147
1.0
176
     3
177
     3
271
     3
178
     2
179
     3
271
     3
340
11
342
86
371
    -1
372
    -1
  0
DIMSTYLE
105
128
102
{ACAD_REACTORS
330
129
330
136
330
155
330
162
330
16F
330
17C
102
}
330
A
100
AcDbSymbolTableRecord
100
AcDbDimStyleTableRecord
  2
DIMSTYEX_1
 70
     0
 40
2.0
 41
2.0
 42
1.0
 43
7.0
 44
1.0
 73
     0
 74
     0
 77
     3
 78
     8
 79
     2
140
3.584
141
0.0
146
0.5
147
1.0
173
     1
176
     3
177
     3
271
     3
178
     2
179
     3
271
     3
272
     3
340
81
342
86
343
86
344
86
371
    -1
372
    -1
  0
DIMSTYLE
105
147
102
{ACAD_REACTORS
330
148
102
}
330
A
100
AcDbSymbolTableRecord
100
AcDbDimStyleTableRecord
  2
DIMSTYEX_2
 70
     0
 40
2.0
 41
2.0
 42
1.0
 43
7.0
 44
1.0
 73
     0
 74
     0
 77
     3
 78
     8
 79
     2
140
3.584
141
0.0
146
0.5
147
2.0
173
     1
176
     3
177
     3
271
     3
178
     2
179
     3
271
     3
272
     3
340
81
342
86
343
86
344
86
371
    -1
372
    -1
  0
DIMSTYLE
105
182
330
A
100
AcDbSymbolTableRecord
100
AcDbDimStyleTableRecord
  2
DIMSTYEX_3
 70
     0
 40
2.0
 41
2.0
 42
1.0
 43
7.0
 44
1.0
 73
     0
 74
     0
 77
     3
 78
     8
 79
     2
140
4.0
141
0.0
146
0.5
147
1.0
176
     3
177
     3
271
     3
178
     2
179
     3
271
     3
340
11
341
86
342
86
371
    -1
372
    -1
  0
ENDTAB
  0
TABLE
  2
BLOCK_RECORD
  5
1
330
0
100
AcDbSymbolTable
 70
    27
  0
BLOCK_RECORD
  5
1F
330
1
100
AcDbSymbolTableRecord
100
AcDbBlockTableRecord
  2
*Model_Space
340
22
  0
BLOCK_RECORD
  5
1B
330
1
100
AcDbSymbolTableRecord
100
AcDbBlockTableRecord
  2
*Paper_Space
340
1E
  0
BLOCK_RECORD
  5
82
330
1
100
AcDbSymbolTableRecord
100
AcDbBlockTableRecord
  2
_SMALL
340
0
  0
BLOCK_RECORD
  5
86
330
1
100
AcDbSymbolTableRecord
100
AcDbBlockTableRecord
  2
_OPEN30
340
0
102
{BLKREFS
331
11F
331
120
331
12E
331
12F
331
13F
331
140
331
14D
331
14E
331
15A
331
15B
331
167
331
168
331
174
331
175
102
}
  0
BLOCK_RECORD
  5
8C
330
1
100
AcDbSymbolTableRecord
100
AcDbBlockTableRecord
  2
_OBLIQUE
340
0
  0
BLOCK_RECORD
  5
90
330
1
100
AcDbSymbolTableRecord
100
AcDbBlockTableRecord
  2
_DOT
340
0
  0
BLOCK_RECORD
  5
94
330
1
100
AcDbSymbolTableRecord
100
AcDbBlockTableRecord
  2
_DOTSMALL
340
0
  0
BLOCK_RECORD
  5
98
330
1
100
AcDbSymbolTableRecord
100
AcDbBlockTableRecord
  2
_DATUMFILLED
340
0
  0
BLOCK_RECORD
  5
9C
330
1
100
AcDbSymbolTableRecord
100
AcDbBlockTableRecord
  2
DATUMFILLED2
340
0
  0
BLOCK_RECORD
  5
A0
330
1
100
AcDbSymbolTableRecord
100
AcDbBlockTableRecord
  2
_DATUMBLANK
340
0
  0
BLOCK_RECORD
  5
A6
330
1
100
AcDbSymbolTableRecord
100
AcDbBlockTableRecord
  2
DATUMBLANK2
340
0
  0
BLOCK_RECORD
  5
AC
330
1
100
AcDbSymbolTableRecord
100
AcDbBlockTableRecord
  2
_NONE
340
0
  0
BLOCK_RECORD
  5
C3
330
1
100
AcDbSymbolTableRecord
100
AcDbBlockTableRecord
  2
MAKR0
340
0
102
{BLKREFS
331
C8
102
}
  0
BLOCK_RECORD
  5
C9
330
1
100
AcDbSymbolTableRecord
100
AcDbBlockTableRecord
  2
MAKR1
340
0
102
{BLKREFS
331
CE
102
}
  0
BLOCK_RECORD
  5
CF
330
1
100
AcDbSymbolTableRecord
100
AcDbBlockTableRecord
  2
MAKR2
340
0
102
{BLKREFS
331
D4
102
}
  0
BLOCK_RECORD
  5
11B
330
1
100
AcDbSymbolTableRecord
100
AcDbBlockTableRecord
  2
_D1
340
0
  0
BLOCK_RECORD
  5
12A
330
1
100
AcDbSymbolTableRecord
100
AcDbBlockTableRecord
  2
_D2
340
0
  0
BLOCK_RECORD
  5
137
330
1
100
AcDbSymbolTableRecord
100
AcDbBlockTableRecord
  2
_D3
340
0
  0
BLOCK_RECORD
  5
149
330
1
100
AcDbSymbolTableRecord
100
AcDbBlockTableRecord
  2
_D4
340
0
  0
BLOCK_RECORD
  5
156
330
1
100
AcDbSymbolTableRecord
100
AcDbBlockTableRecord
  2
_D5
340
0
  0
BLOCK_RECORD
  5
163
330
1
100
AcDbSymbolTableRecord
100
AcDbBlockTableRecord
  2
_D6
340
0
  0
BLOCK_RECORD
  5
170
330
1
100
AcDbSymbolTableRecord
100
AcDbBlockTableRecord
  2
_D7
340
0
  0
BLOCK_RECORD
  5
17D
330
1
100
AcDbSymbolTableRecord
100
AcDbBlockTableRecord
  2
BALN0
340
0
102
{BLKREFS
331
184
102
}
  0
BLOCK_RECORD
  5
185
330
1
100
AcDbSymbolTableRecord
100
AcDbBlockTableRecord
  2
BALN1
340
0
102
{BLKREFS
331
18B
102
}
  0
BLOCK_RECORD
  5
18C
330
1
100
AcDbSymbolTableRecord
100
AcDbBlockTableRecord
  2
BALN2
340
0
102
{BLKREFS
331
192
102
}
  0
BLOCK_RECORD
  5
1A1
330
1
100
AcDbSymbolTableRecord
100
AcDbBlockTableRecord
  2
BLK0
340
0
102
{BLKREFS
331
2BE
102
}
  0
BLOCK_RECORD
  5
2BF
330
1
100
AcDbSymbolTableRecord
100
AcDbBlockTableRecord
  2
BLK1
340
0
102
{BLKREFS
331
2FA
102
}
  0
BLOCK_RECORD
  5
36D
330
1
100
AcDbSymbolTableRecord
100
AcDbBlockTableRecord
  2
BLK2
340
0
102
{BLKREFS
331
379
102
}
  0
ENDTAB
  0
ENDSEC
  0
SECTION
  2
BLOCKS
  0
BLOCK
  5
20
330
1F
100
AcDbEntity
  8
0
100
AcDbBlockBegin
  2
*Model_Space
 70
     0
 10
0.0
 20
0.0
 30
0.0
  3
*Model_Space
  1

  0
ENDBLK
  5
21
330
1F
100
AcDbEntity
  8
0
100
AcDbBlockEnd
  0
BLOCK
  5
1C
330
1B
100
AcDbEntity
 67
     1
  8
0
100
AcDbBlockBegin
  2
*Paper_Space
 70
     0
 10
0.0
 20
0.0
 30
0.0
  3
*Paper_Space
  1

  0
ENDBLK
  5
1D
330
1B
100
AcDbEntity
 67
     1
  8
0
100
AcDbBlockEnd
  0
BLOCK
  5
83
330
82
100
AcDbEntity
  8
0
100
AcDbBlockBegin
  2
_SMALL
 70
     0
 10
0.0
 20
0.0
 30
0.0
  3
_SMALL
  1

  0
CIRCLE
  5
85
330
82
100
AcDbEntity
  8
0
  6
ByBlock
 62
     0
370
    -2
100
AcDbCircle
 10
0.0
 20
0.0
 30
0.0
 40
0.1666666666
  0
CIRCLE
  5
38B
330
82
100
AcDbEntity
  8
0
  6
ByBlock
 62
     0
370
    -2
100
AcDbCircle
 10
0.0
 20
0.0
 30
0.0
 40
0.1666666666
  0
ENDBLK
  5
84
330
82
100
AcDbEntity
  8
0
100
AcDbBlockEnd
  0
BLOCK
  5
87
330
86
100
AcDbEntity
  8
0
100
AcDbBlockBegin
  2
_OPEN30
 70
     0
 10
0.0
 20
0.0
 30
0.0
  3
_OPEN30
  1

  0
LINE
  5
89
330
86
100
AcDbEntity
  8
0
  6
ByBlock
 62
     0
370
    -2
100
AcDbLine
 10
-1.0
 20
0.26794919
 30
0.0
 11
0.0
 21
0.0
 31
0.0
  0
LINE
  5
8A
330
86
100
AcDbEntity
  8
0
  6
ByBlock
 62
     0
370
    -2
100
AcDbLine
 10
0.0
 20
0.0
 30
0.0
 11
-1.0
 21
-0.26794919
 31
0.0
  0
LINE
  5
8B
330
86
100
AcDbEntity
  8
0
  6
ByBlock
 62
     0
370
    -2
100
AcDbLine
 10
0.0
 20
0.0
 30
0.0
 11
-1.0
 21
0.0
 31
0.0
  0
LINE
  5
38C
330
86
100
AcDbEntity
  8
0
  6
ByBlock
 62
     0
370
    -2
100
AcDbLine
 10
-1.0
 20
0.26794919
 30
0.0
 11
0.0
 21
0.0
 31
0.0
  0
LINE
  5
38D
330
86
100
AcDbEntity
  8
0
  6
ByBlock
 62
     0
370
    -2
100
AcDbLine
 10
0.0
 20
0.0
 30
0.0
 11
-1.0
 21
-0.26794919
 31
0.0
  0
LINE
  5
38E
330
86
100
AcDbEntity
  8
0
  6
ByBlock
 62
     0
370
    -2
100
AcDbLine
 10
0.0
 20
0.0
 30
0.0
 11
-1.0
 21
0.0
 31
0.0
  0
ENDBLK
  5
88
330
86
100
AcDbEntity
  8
0
100
AcDbBlockEnd
  0
BLOCK
  5
8D
330
8C
100
AcDbEntity
  8
0
100
AcDbBlockBegin
  2
_OBLIQUE
 70
     0
 10
0.0
 20
0.0
 30
0.0
  3
_OBLIQUE
  1

  0
LINE
  5
8F
330
8C
100
AcDbEntity
  8
0
  6
ByBlock
 62
     0
370
    -2
100
AcDbLine
 10
-0.5
 20
-0.5
 30
0.0
 11
0.5
 21
0.5
 31
0.0
  0
LINE
  5
38F
330
8C
100
AcDbEntity
  8
0
  6
ByBlock
 62
     0
370
    -2
100
AcDbLine
 10
-0.5
 20
-0.5
 30
0.0
 11
0.5
 21
0.5
 31
0.0
  0
ENDBLK
  5
8E
330
8C
100
AcDbEntity
  8
0
100
AcDbBlockEnd
  0
BLOCK
  5
91
330
90
100
AcDbEntity
  8
0
100
AcDbBlockBegin
  2
_DOT
 70
     0
 10
0.0
 20
0.0
 30
0.0
  3
_DOT
  1

  0
LWPOLYLINE
  5
93
330
90
100
AcDbEntity
  8
0
  6
ByBlock
 62
     0
370
    -2
100
AcDbPolyline
 90
        2
 70
     1
 43
0.5
 10
-0.25
 20
0.0
 42
1.0
 10
0.25
 20
0.0
 42
1.0
  0
LWPOLYLINE
  5
390
330
90
100
AcDbEntity
  8
0
  6
ByBlock
 62
     0
370
    -2
100
AcDbPolyline
 90
        2
 70
     1
 43
0.5
 10
-0.25
 20
0.0
 42
1.0
 10
0.25
 20
0.0
 42
1.0
  0
ENDBLK
  5
92
330
90
100
AcDbEntity
  8
0
100
AcDbBlockEnd
  0
BLOCK
  5
95
330
94
100
AcDbEntity
  8
0
100
AcDbBlockBegin
  2
_DOTSMALL
 70
     0
 10
0.0
 20
0.0
 30
0.0
  3
_DOTSMALL
  1

  0
LWPOLYLINE
  5
97
330
94
100
AcDbEntity
  8
0
  6
ByBlock
 62
     0
370
    -2
100
AcDbPolyline
 90
        2
 70
     1
 43
0.5
 10
-0.0625
 20
0.0
 42
1.0
 10
0.0625
 20
0.0
 42
1.0
  0
LWPOLYLINE
  5
391
330
94
100
AcDbEntity
  8
0
  6
ByBlock
 62
     0
370
    -2
100
AcDbPolyline
 90
        2
 70
     1
 43
0.5
 10
-0.0625
 20
0.0
 42
1.0
 10
0.0625
 20
0.0
 42
1.0
  0
ENDBLK
  5
96
330
94
100
AcDbEntity
  8
0
100
AcDbBlockEnd
  0
BLOCK
  5
99
330
98
100
AcDbEntity
  8
0
100
AcDbBlockBegin
  2
_DATUMFILLED
 70
     0
 10
0.0
 20
0.0
 30
0.0
  3
_DATUMFILLED
  1

  0
SOLID
  5
9B
330
98
100
AcDbEntity
  8
0
  6
ByBlock
 62
     0
370
    -2
100
AcDbTrace
 10
0.0
 20
0.57735027
 30
0.0
 11
-1.0
 21
0.0
 31
0.0
 12
0.0
 22
-0.57735027
 32
0.0
 13
0.0
 23
-0.57735027
 33
0.0
  0
SOLID
  5
392
330
98
100
AcDbEntity
  8
0
  6
ByBlock
 62
     0
370
    -2
100
AcDbTrace
 10
0.0
 20
0.57735027
 30
0.0
 11
-1.0
 21
0.0
 31
0.0
 12
0.0
 22
-0.57735027
 32
0.0
 13
0.0
 23
-0.57735027
 33
0.0
  0
ENDBLK
  5
9A
330
98
100
AcDbEntity
  8
0
100
AcDbBlockEnd
  0
BLOCK
  5
9D
330
9C
100
AcDbEntity
  8
0
100
AcDbBlockBegin
  2
DATUMFILLED2
 70
     0
 10
0.0
 20
0.0
 30
0.0
  3
DATUMFILLED2
  1

  0
SOLID
  5
9F
330
9C
100
AcDbEntity
  8
0
  6
ByBlock
 62
     0
370
    -2
100
AcDbTrace
 10
0.0
 20
1.0
 30
0.0
 11
-1.0
 21
0.0
 31
0.0
 12
0.0
 22
-1.0
 32
0.0
 13
0.0
 23
-1.0
 33
0.0
  0
SOLID
  5
393
330
9C
100
AcDbEntity
  8
0
  6
ByBlock
 62
     0
370
    -2
100
AcDbTrace
 10
0.0
 20
1.0
 30
0.0
 11
-1.0
 21
0.0
 31
0.0
 12
0.0
 22
-1.0
 32
0.0
 13
0.0
 23
-1.0
 33
0.0
  0
ENDBLK
  5
9E
330
9C
100
AcDbEntity
  8
0
100
AcDbBlockEnd
  0
BLOCK
  5
A1
330
A0
100
AcDbEntity
  8
0
100
AcDbBlockBegin
  2
_DATUMBLANK
 70
     0
 10
0.0
 20
0.0
 30
0.0
  3
_DATUMBLANK
  1

  0
LINE
  5
A3
330
A0
100
AcDbEntity
  8
0
  6
ByBlock
 62
     0
370
    -2
100
AcDbLine
 10
0.0
 20
0.57735027
 30
0.0
 11
-1.0
 21
0.0
 31
0.0
  0
LINE
  5
A4
330
A0
100
AcDbEntity
  8
0
  6
ByBlock
 62
     0
370
    -2
100
AcDbLine
 10
-1.0
 20
0.0
 30
0.0
 11
0.0
 21
-0.57735027
 31
0.0
  0
LINE
  5
A5
330
A0
100
AcDbEntity
  8
0
  6
ByBlock
 62
     0
370
    -2
100
AcDbLine
 10
0.0
 20
-0.57735027
 30
0.0
 11
0.0
 21
0.57735027
 31
0.0
  0
LINE
  5
394
330
A0
100
AcDbEntity
  8
0
  6
ByBlock
 62
     0
370
    -2
100
AcDbLine
 10
0.0
 20
0.57735027
 30
0.0
 11
-1.0
 21
0.0
 31
0.0
  0
LINE
  5
395
330
A0
100
AcDbEntity
  8
0
  6
ByBlock
 62
     0
370
    -2
100
AcDbLine
 10
-1.0
 20
0.0
 30
0.0
 11
0.0
 21
-0.57735027
 31
0.0
  0
LINE
  5
396
330
A0
100
AcDbEntity
  8
0
  6
ByBlock
 62
     0
370
    -2
100
AcDbLine
 10
0.0
 20
-0.57735027
 30
0.0
 11
0.0
 21
0.57735027
 31
0.0
  0
ENDBLK
  5
A2
330
A0
100
AcDbEntity
  8
0
100
AcDbBlockEnd
  0
BLOCK
  5
A7
330
A6
100
AcDbEntity
  8
0
100
AcDbBlockBegin
  2
DATUMBLANK2
 70
     0
 10
0.0
 20
0.0
 30
0.0
  3
DATUMBLANK2
  1

  0
LINE
  5
A9
330
A6
100
AcDbEntity
  8
0
  6
ByBlock
 62
     0
370
    -2
100
AcDbLine
 10
0.0
 20
1.0
 30
0.0
 11
-1.0
 21
0.0
 31
0.0
  0
LINE
  5
AA
330
A6
100
AcDbEntity
  8
0
  6
ByBlock
 62
     0
370
    -2
100
AcDbLine
 10
-1.0
 20
0.0
 30
0.0
 11
0.0
 21
-1.0
 31
0.0
  0
LINE
  5
AB
330
A6
100
AcDbEntity
  8
0
  6
ByBlock
 62
     0
370
    -2
100
AcDbLine
 10
0.0
 20
-1.0
 30
0.0
 11
0.0
 21
1.0
 31
0.0
  0
LINE
  5
397
330
A6
100
AcDbEntity
  8
0
  6
ByBlock
 62
     0
370
    -2
100
AcDbLine
 10
0.0
 20
1.0
 30
0.0
 11
-1.0
 21
0.0
 31
0.0
  0
LINE
  5
398
330
A6
100
AcDbEntity
  8
0
  6
ByBlock
 62
     0
370
    -2
100
AcDbLine
 10
-1.0
 20
0.0
 30
0.0
 11
0.0
 21
-1.0
 31
0.0
  0
LINE
  5
399
330
A6
100
AcDbEntity
  8
0
  6
ByBlock
 62
     0
370
    -2
100
AcDbLine
 10
0.0
 20
-1.0
 30
0.0
 11
0.0
 21
1.0
 31
0.0
  0
ENDBLK
  5
A8
330
A6
100
AcDbEntity
  8
0
100
AcDbBlockEnd
  0
BLOCK
  5
AD
330
AC
100
AcDbEntity
  8
0
100
AcDbBlockBegin
  2
_NONE
 70
     0
 10
0.0
 20
0.0
 30
0.0
  3
_NONE
  1

  0
ENDBLK
  5
AE
330
AC
100
AcDbEntity
  8
0
100
AcDbBlockEnd
  0
BLOCK
  5
C4
330
C3
100
AcDbEntity
  8
0
100
AcDbBlockBegin
  2
MAKR0
 70
     0
 10
670.2584079726457
 20
-745.8860512194365
 30
0.0
  3
MAKR0
  1

  0
CIRCLE
  5
C6
330
C3
100
AcDbEntity
  8
1
  6
ByBlock
 62
     3
100
AcDbCircle
 10
670.2584079726457
 20
-745.8860512194365
 30
0.0
 40
7.0
  0
MTEXT
  5
C7
330
C3
100
AcDbEntity
  8
1
  6
Continuous
 62
     2
100
AcDbMText
 10
668.2584079726457
 20
-749.8860512194365
 30
0.0
 40
8.0
 41
0.0
 71
     7
 72
     5
  1
{\fＭＳ ゴシック|b0|i0|c128|p49;\W1.0;1}
  7
MTSTANDARD
 73
     1
 44
0.78125
  0
ENDBLK
  5
C5
330
C3
100
AcDbEntity
  8
0
100
AcDbBlockEnd
  0
BLOCK
  5
CA
330
C9
100
AcDbEntity
  8
0
100
AcDbBlockBegin
  2
MAKR1
 70
     0
 10
670.2584079726457
 20
-761.8860512194365
 30
0.0
  3
MAKR1
  1

  0
CIRCLE
  5
CC
330
C9
100
AcDbEntity
  8
1
  6
ByBlock
 62
     3
100
AcDbCircle
 10
670.2584079726457
 20
-761.8860512194365
 30
0.0
 40
7.0
  0
MTEXT
  5
CD
330
C9
100
AcDbEntity
  8
1
  6
Continuous
 62
     2
100
AcDbMText
 10
668.2584079726457
 20
-765.8860512194365
 30
0.0
 40
8.0
 41
0.0
 71
     7
 72
     5
  1
{\fＭＳ ゴシック|b0|i0|c128|p49;\W1.0;2}
  7
MTSTANDARD
 73
     1
 44
0.78125
  0
ENDBLK
  5
CB
330
C9
100
AcDbEntity
  8
0
100
AcDbBlockEnd
  0
BLOCK
  5
D0
330
CF
100
AcDbEntity
  8
0
100
AcDbBlockBegin
  2
MAKR2
 70
     0
 10
670.2584079726457
 20
-777.8860512194365
 30
0.0
  3
MAKR2
  1

  0
CIRCLE
  5
D2
330
CF
100
AcDbEntity
  8
1
  6
ByBlock
 62
     3
100
AcDbCircle
 10
670.2584079726457
 20
-777.8860512194365
 30
0.0
 40
7.0
  0
MTEXT
  5
D3
330
CF
100
AcDbEntity
  8
1
  6
Continuous
 62
     2
100
AcDbMText
 10
668.2584079726457
 20
-781.8860512194365
 30
0.0
 40
8.0
 41
0.0
 71
     7
 72
     5
  1
{\fＭＳ ゴシック|b0|i0|c128|p49;\W1.0;3}
  7
MTSTANDARD
 73
     1
 44
0.78125
  0
ENDBLK
  5
D1
330
CF
100
AcDbEntity
  8
0
100
AcDbBlockEnd
  0
BLOCK
  5
11C
330
11B
100
AcDbEntity
  8
0
100
AcDbBlockBegin
  2
_D1
 70
     0
 10
0.0
 20
0.0
 30
0.0
  3
_D1
  1

  0
LINE
  5
11E
330
11B
100
AcDbEntity
  8
1
  6
Continuous
 62
     3
100
AcDbLine
 10
1075.273378491106
 20
-452.4964030939377
 30
0.0
 11
780.2733784911061
 21
-452.4964030939377
 31
0.0
  0
INSERT
  5
11F
330
11B
100
AcDbEntity
  8
1
  6
Continuous
 62
     3
100
AcDbBlockReference
  2
_OPEN30
 10
1075.273378491106
 20
-452.4964030939377
 30
0.0
 41
3.939231012048822
 42
3.939231012048822
 43
3.939231012048822
  0
INSERT
  5
120
330
11B
100
AcDbEntity
  8
1
  6
Continuous
 62
     3
100
AcDbBlockReference
  2
_OPEN30
 10
780.2733784911061
 20
-452.4964030939377
 30
0.0
 41
3.939231012048822
 42
3.939231012048822
 43
3.939231012048822
 50
180.0
  0
LINE
  5
121
330
11B
100
AcDbEntity
  8
1
  6
Continuous
 62
     3
100
AcDbLine
 10
1075.273378491106
 20
-464.4964030939377
 30
0.0
 11
1075.273378491106
 21
-450.4964030939377
 31
0.0
  0
LINE
  5
122
330
11B
100
AcDbEntity
  8
1
  6
Continuous
 62
     3
100
AcDbLine
 10
780.2733784911061
 20
-464.4964030939377
 30
0.0
 11
780.2733784911061
 21
-450.4964030939377
 31
0.0
  0
MTEXT
  5
124
330
11B
100
AcDbEntity
  8
1
  6
Continuous
 62
     2
100
AcDbMText
 10
903.1733784911061
 20
-450.4964030939377
 30
0.0
 40
8.0
 41
0.0
 71
     7
 72
     5
  1
２９５ｘ１８５
  7
MTSTANDARD2
 73
     1
 44
0.8125
  0
POINT
  5
125
330
11B
100
AcDbEntity
  8
DEFPOINTS
  6
Continuous
 62
     3
100
AcDbPoint
 10
1075.273378491106
 20
-466.4964030939377
 30
0.0
  0
POINT
  5
126
330
11B
100
AcDbEntity
  8
DEFPOINTS
  6
Continuous
 62
     3
100
AcDbPoint
 10
780.2733784911061
 20
-466.4964030939377
 30
0.0
  0
POINT
  5
127
330
11B
100
AcDbEntity
  8
DEFPOINTS
  6
Continuous
 62
     3
100
AcDbPoint
 10
780.2733784911061
 20
-452.4964030939377
 30
0.0
  0
ENDBLK
  5
11D
330
11B
100
AcDbEntity
  8
0
100
AcDbBlockEnd
  0
BLOCK
  5
12B
330
12A
100
AcDbEntity
  8
0
100
AcDbBlockBegin
  2
_D2
 70
     0
 10
0.0
 20
0.0
 30
0.0
  3
_D2
  1

  0
LINE
  5
12D
330
12A
100
AcDbEntity
  8
1
  6
Continuous
 62
     3
100
AcDbLine
 10
1090.773378491106
 20
-438.4964030939377
 30
0.0
 11
764.7733784911056
 21
-438.4964030939377
 31
0.0
  0
INSERT
  5
12E
330
12A
100
AcDbEntity
  8
1
  6
Continuous
 62
     3
100
AcDbBlockReference
  2
_OPEN30
 10
1090.773378491106
 20
-438.4964030939377
 30
0.0
 41
3.939231012048822
 42
3.939231012048822
 43
3.939231012048822
  0
INSERT
  5
12F
330
12A
100
AcDbEntity
  8
1
  6
Continuous
 62
     3
100
AcDbBlockReference
  2
_OPEN30
 10
764.7733784911056
 20
-438.4964030939377
 30
0.0
 41
3.939231012048822
 42
3.939231012048822
 43
3.939231012048822
 50
180.0
  0
LINE
  5
130
330
12A
100
AcDbEntity
  8
1
  6
Continuous
 62
     3
100
AcDbLine
 10
1090.773378491106
 20
-464.4964030939377
 30
0.0
 11
1090.773378491106
 21
-436.4964030939378
 31
0.0
  0
LINE
  5
131
330
12A
100
AcDbEntity
  8
1
  6
Continuous
 62
     3
100
AcDbLine
 10
764.7733784911055
 20
-464.4964030939377
 30
0.0
 11
764.7733784911057
 21
-436.4964030939378
 31
0.0
  0
MTEXT
  5
132
330
12A
100
AcDbEntity
  8
1
  6
Continuous
 62
     2
100
AcDbMText
 10
903.1733784911058
 20
-436.4964030939377
 30
0.0
 40
8.0
 41
0.0
 71
     7
 72
     5
  1
３２６ｘ２１６
  7
MTSTANDARD2
 73
     1
 44
0.8125
  0
POINT
  5
133
330
12A
100
AcDbEntity
  8
DEFPOINTS
  6
Continuous
 62
     3
100
AcDbPoint
 10
1090.773378491106
 20
-466.4964030939377
 30
0.0
  0
POINT
  5
134
330
12A
100
AcDbEntity
  8
DEFPOINTS
  6
Continuous
 62
     3
100
AcDbPoint
 10
764.7733784911056
 20
-466.4964030939377
 30
0.0
  0
POINT
  5
135
330
12A
100
AcDbEntity
  8
DEFPOINTS
  6
Continuous
 62
     3
100
AcDbPoint
 10
764.7733784911056
 20
-438.4964030939377
 30
0.0
  0
ENDBLK
  5
12C
330
12A
100
AcDbEntity
  8
0
100
AcDbBlockEnd
  0
BLOCK
  5
138
330
137
100
AcDbEntity
  8
0
100
AcDbBlockBegin
  2
_D3
 70
     0
 10
0.0
 20
0.0
 30
0.0
  3
_D3
  1

  0
LINE
  5
13A
330
137
100
AcDbEntity
  8
1
  6
Continuous
 62
     3
100
AcDbLine
 10
1104.773378491106
 20
-466.4964030939377
 30
0.0
 11
1104.773378491106
 21
-460.4964030939378
 31
0.0
  0
LINE
  5
13B
330
137
100
AcDbEntity
  8
1
  6
Continuous
 62
     3
100
AcDbLine
 10
1104.773378491106
 20
-479.4964030939377
 30
0.0
 11
1104.773378491106
 21
-485.4964030939378
 31
0.0
  0
LINE
  5
13C
330
137
100
AcDbEntity
  8
1
  6
Continuous
 62
     3
100
AcDbLine
 10
1104.773378491106
 20
-466.4964030939377
 30
0.0
 11
1104.773378491106
 21
-472.9964030939377
 31
0.0
  0
LINE
  5
13D
330
137
100
AcDbEntity
  8
1
  6
Continuous
 62
     3
100
AcDbLine
 10
1104.773378491106
 20
-479.4964030939377
 30
0.0
 11
1104.773378491106
 21
-472.9964030939377
 31
0.0
  0
LINE
  5
13E
330
137
100
AcDbEntity
  8
1
  6
Continuous
 62
     3
100
AcDbLine
 10
1104.773378491106
 20
-466.4964030939377
 30
0.0
 11
1104.773378491106
 21
-479.4964030939377
 31
0.0
  0
INSERT
  5
13F
330
137
100
AcDbEntity
  8
1
  6
Continuous
 62
     3
100
AcDbBlockReference
  2
_OPEN30
 10
1104.773378491106
 20
-466.4964030939377
 30
0.0
 41
3.939231012048822
 42
3.939231012048822
 43
3.939231012048822
 50
270.0
  0
INSERT
  5
140
330
137
100
AcDbEntity
  8
1
  6
Continuous
 62
     3
100
AcDbBlockReference
  2
_OPEN30
 10
1104.773378491106
 20
-479.4964030939377
 30
0.0
 41
3.939231012048822
 42
3.939231012048822
 43
3.939231012048822
 50
90.0
  0
LINE
  5
141
330
137
100
AcDbEntity
  8
1
  6
Continuous
 62
     3
100
AcDbLine
 10
1092.773378491106
 20
-466.4964030939377
 30
0.0
 11
1106.773378491106
 21
-466.4964030939377
 31
0.0
  0
LINE
  5
142
330
137
100
AcDbEntity
  8
1
  6
Continuous
 62
     3
100
AcDbLine
 10
1091.773378491106
 20
-479.4964030939377
 30
0.0
 11
1106.773378491106
 21
-479.4964030939377
 31
0.0
  0
MTEXT
  5
143
330
137
100
AcDbEntity
  8
1
  6
Continuous
 62
     2
100
AcDbMText
 10
1116.773378491106
 20
-479.5964030939377
 30
0.0
 40
8.0
 41
0.0
 71
     7
 72
     5
  1
１３
  7
MTSTANDARD2
 11
0.0
 21
1.0
 31
0.0
 73
     1
 44
0.8125
  0
POINT
  5
144
330
137
100
AcDbEntity
  8
DEFPOINTS
  6
Continuous
 62
     3
100
AcDbPoint
 10
1090.773378491106
 20
-466.4964030939377
 30
0.0
  0
POINT
  5
145
330
137
100
AcDbEntity
  8
DEFPOINTS
  6
Continuous
 62
     3
100
AcDbPoint
 10
1089.773378491106
 20
-479.4964030939377
 30
0.0
  0
POINT
  5
146
330
137
100
AcDbEntity
  8
DEFPOINTS
  6
Continuous
 62
     3
100
AcDbPoint
 10
1104.773378491106
 20
-479.4964030939377
 30
0.0
  0
ENDBLK
  5
139
330
137
100
AcDbEntity
  8
0
100
AcDbBlockEnd
  0
BLOCK
  5
14A
330
149
100
AcDbEntity
  8
0
100
AcDbBlockBegin
  2
_D4
 70
     0
 10
0.0
 20
0.0
 30
0.0
  3
_D4
  1

  0
LINE
  5
14C
330
149
100
AcDbEntity
  8
1
  6
Continuous
 62
     3
100
AcDbLine
 10
1118.773378491106
 20
-466.4964030939377
 30
0.0
 11
1118.773378491106
 21
-616.4964030939377
 31
0.0
  0
INSERT
  5
14D
330
149
100
AcDbEntity
  8
1
  6
Continuous
 62
     3
100
AcDbBlockReference
  2
_OPEN30
 10
1118.773378491106
 20
-466.4964030939377
 30
0.0
 41
3.939231012048822
 42
3.939231012048822
 43
3.939231012048822
 50
90.0
  0
INSERT
  5
14E
330
149
100
AcDbEntity
  8
1
  6
Continuous
 62
     3
100
AcDbBlockReference
  2
_OPEN30
 10
1118.773378491106
 20
-616.4964030939377
 30
0.0
 41
3.939231012048822
 42
3.939231012048822
 43
3.939231012048822
 50
270.0
  0
LINE
  5
14F
330
149
100
AcDbEntity
  8
1
  6
Continuous
 62
     3
100
AcDbLine
 10
1106.773378491106
 20
-466.4964030939377
 30
0.0
 11
1120.773378491106
 21
-466.4964030939377
 31
0.0
  0
LINE
  5
150
330
149
100
AcDbEntity
  8
1
  6
Continuous
 62
     3
100
AcDbLine
 10
1084.773378491106
 20
-616.4964030939377
 30
0.0
 11
1120.773378491106
 21
-616.4964030939377
 31
0.0
  0
MTEXT
  5
151
330
149
100
AcDbEntity
  8
1
  6
Continuous
 62
     2
100
AcDbMText
 10
1116.773378491106
 20
-551.6964030939378
 30
0.0
 40
8.0
 41
0.0
 71
     7
 72
     5
  1
１５０
  7
MTSTANDARD2
 11
0.0
 21
1.0
 31
0.0
 73
     1
 44
0.8125
  0
POINT
  5
152
330
149
100
AcDbEntity
  8
DEFPOINTS
  6
Continuous
 62
     3
100
AcDbPoint
 10
1104.773378491106
 20
-466.4964030939377
 30
0.0
  0
POINT
  5
153
330
149
100
AcDbEntity
  8
DEFPOINTS
  6
Continuous
 62
     3
100
AcDbPoint
 10
1082.773378491106
 20
-616.4964030939377
 30
0.0
  0
POINT
  5
154
330
149
100
AcDbEntity
  8
DEFPOINTS
  6
Continuous
 62
     3
100
AcDbPoint
 10
1118.773378491106
 20
-616.4964030939377
 30
0.0
  0
ENDBLK
  5
14B
330
149
100
AcDbEntity
  8
0
100
AcDbBlockEnd
  0
BLOCK
  5
157
330
156
100
AcDbEntity
  8
0
100
AcDbBlockBegin
  2
_D5
 70
     0
 10
0.0
 20
0.0
 30
0.0
  3
_D5
  1

  0
LINE
  5
159
330
156
100
AcDbEntity
  8
1
  6
Continuous
 62
     3
100
AcDbLine
 10
750.7733784911056
 20
-616.4964030939377
 30
0.0
 11
750.7733784911056
 21
-556.4964030939377
 31
0.0
  0
INSERT
  5
15A
330
156
100
AcDbEntity
  8
1
  6
Continuous
 62
     3
100
AcDbBlockReference
  2
_OPEN30
 10
750.7733784911056
 20
-616.4964030939377
 30
0.0
 41
3.939231012048822
 42
3.939231012048822
 43
3.939231012048822
 50
270.0
  0
INSERT
  5
15B
330
156
100
AcDbEntity
  8
1
  6
Continuous
 62
     3
100
AcDbBlockReference
  2
_OPEN30
 10
750.7733784911056
 20
-556.4964030939377
 30
0.0
 41
3.939231012048822
 42
3.939231012048822
 43
3.939231012048822
 50
90.0
  0
LINE
  5
15C
330
156
100
AcDbEntity
  8
1
  6
Continuous
 62
     3
100
AcDbLine
 10
770.7733784911061
 20
-616.4964030939377
 30
0.0
 11
748.7733784911057
 21
-616.4964030939377
 31
0.0
  0
LINE
  5
15D
330
156
100
AcDbEntity
  8
1
  6
Continuous
 62
     3
100
AcDbLine
 10
770.3354222867265
 20
-556.4964030939377
 30
0.0
 11
748.7733784911056
 21
-556.4964030939377
 31
0.0
  0
MTEXT
  5
15E
330
156
100
AcDbEntity
  8
1
  6
Continuous
 62
     2
100
AcDbMText
 10
748.7733784911056
 20
-607.4964030939377
 30
0.0
 40
8.0
 41
0.0
 71
     7
 72
     5
  1
６０ｘ幅５０
  7
MTSTANDARD2
 11
0.0
 21
1.0
 31
0.0
 73
     1
 44
0.8125
  0
POINT
  5
15F
330
156
100
AcDbEntity
  8
DEFPOINTS
  6
Continuous
 62
     3
100
AcDbPoint
 10
772.7733784911061
 20
-616.4964030939377
 30
0.0
  0
POINT
  5
160
330
156
100
AcDbEntity
  8
DEFPOINTS
  6
Continuous
 62
     3
100
AcDbPoint
 10
772.3354222867265
 20
-556.4964030939377
 30
0.0
  0
POINT
  5
161
330
156
100
AcDbEntity
  8
DEFPOINTS
  6
Continuous
 62
     3
100
AcDbPoint
 10
750.7733784911056
 20
-556.4964030939377
 30
0.0
  0
ENDBLK
  5
158
330
156
100
AcDbEntity
  8
0
100
AcDbBlockEnd
  0
BLOCK
  5
164
330
163
100
AcDbEntity
  8
0
100
AcDbBlockBegin
  2
_D6
 70
     0
 10
0.0
 20
0.0
 30
0.0
  3
_D6
  1

  0
LINE
  5
166
330
163
100
AcDbEntity
  8
1
  6
Continuous
 62
     3
100
AcDbLine
 10
1078.773378491106
 20
-642.7398759040846
 30
0.0
 11
776.7733784911061
 21
-642.7398759040846
 31
0.0
  0
INSERT
  5
167
330
163
100
AcDbEntity
  8
1
  6
Continuous
 62
     3
100
AcDbBlockReference
  2
_OPEN30
 10
1078.773378491106
 20
-642.7398759040846
 30
0.0
 41
3.939231012048822
 42
3.939231012048822
 43
3.939231012048822
  0
INSERT
  5
168
330
163
100
AcDbEntity
  8
1
  6
Continuous
 62
     3
100
AcDbBlockReference
  2
_OPEN30
 10
776.7733784911061
 20
-642.7398759040846
 30
0.0
 41
3.939231012048822
 42
3.939231012048822
 43
3.939231012048822
 50
180.0
  0
LINE
  5
169
330
163
100
AcDbEntity
  8
1
  6
Continuous
 62
     3
100
AcDbLine
 10
1078.773378491106
 20
-618.4964030939377
 30
0.0
 11
1078.773378491106
 21
-644.7398759040846
 31
0.0
  0
LINE
  5
16A
330
163
100
AcDbEntity
  8
1
  6
Continuous
 62
     3
100
AcDbLine
 10
776.7733784911062
 20
-618.4964030939377
 30
0.0
 11
776.7733784911062
 21
-644.7398759040846
 31
0.0
  0
MTEXT
  5
16B
330
163
100
AcDbEntity
  8
1
  6
Continuous
 62
     2
100
AcDbMText
 10
903.1733784911061
 20
-640.7398759040846
 30
0.0
 40
8.0
 41
0.0
 71
     7
 72
     5
  1
３０２ｘ１９２
  7
MTSTANDARD2
 73
     1
 44
0.8125
  0
POINT
  5
16C
330
163
100
AcDbEntity
  8
DEFPOINTS
  6
Continuous
 62
     3
100
AcDbPoint
 10
1078.773378491106
 20
-616.4964030939377
 30
0.0
  0
POINT
  5
16D
330
163
100
AcDbEntity
  8
DEFPOINTS
  6
Continuous
 62
     3
100
AcDbPoint
 10
776.7733784911061
 20
-616.4964030939377
 30
0.0
  0
POINT
  5
16E
330
163
100
AcDbEntity
  8
DEFPOINTS
  6
Continuous
 62
     3
100
AcDbPoint
 10
776.7733784911061
 20
-642.7398759040846
 30
0.0
  0
ENDBLK
  5
165
330
163
100
AcDbEntity
  8
0
100
AcDbBlockEnd
  0
BLOCK
  5
171
330
170
100
AcDbEntity
  8
0
100
AcDbBlockBegin
  2
_D7
 70
     0
 10
0.0
 20
0.0
 30
0.0
  3
_D7
  1

  0
LINE
  5
173
330
170
100
AcDbEntity
  8
1
  6
Continuous
 62
     3
100
AcDbLine
 10
1082.773378491106
 20
-656.7398759040846
 30
0.0
 11
772.7733784911061
 21
-656.7398759040846
 31
0.0
  0
INSERT
  5
174
330
170
100
AcDbEntity
  8
1
  6
Continuous
 62
     3
100
AcDbBlockReference
  2
_OPEN30
 10
1082.773378491106
 20
-656.7398759040846
 30
0.0
 41
3.939231012048822
 42
3.939231012048822
 43
3.939231012048822
  0
INSERT
  5
175
330
170
100
AcDbEntity
  8
1
  6
Continuous
 62
     3
100
AcDbBlockReference
  2
_OPEN30
 10
772.7733784911061
 20
-656.7398759040846
 30
0.0
 41
3.939231012048822
 42
3.939231012048822
 43
3.939231012048822
 50
180.0
  0
LINE
  5
176
330
170
100
AcDbEntity
  8
1
  6
Continuous
 62
     3
100
AcDbLine
 10
1082.773378491106
 20
-618.4964030939377
 30
0.0
 11
1082.773378491106
 21
-658.7398759040846
 31
0.0
  0
LINE
  5
177
330
170
100
AcDbEntity
  8
1
  6
Continuous
 62
     3
100
AcDbLine
 10
772.7733784911061
 20
-618.4964030939377
 30
0.0
 11
772.7733784911061
 21
-658.7398759040846
 31
0.0
  0
MTEXT
  5
178
330
170
100
AcDbEntity
  8
1
  6
Continuous
 62
     2
100
AcDbMText
 10
903.1733784911061
 20
-654.7398759040846
 30
0.0
 40
8.0
 41
0.0
 71
     7
 72
     5
  1
３１０ｘ２００
  7
MTSTANDARD2
 73
     1
 44
0.8125
  0
POINT
  5
179
330
170
100
AcDbEntity
  8
DEFPOINTS
  6
Continuous
 62
     3
100
AcDbPoint
 10
1082.773378491106
 20
-616.4964030939377
 30
0.0
  0
POINT
  5
17A
330
170
100
AcDbEntity
  8
DEFPOINTS
  6
Continuous
 62
     3
100
AcDbPoint
 10
772.7733784911061
 20
-616.4964030939377
 30
0.0
  0
POINT
  5
17B
330
170
100
AcDbEntity
  8
DEFPOINTS
  6
Continuous
 62
     3
100
AcDbPoint
 10
772.7733784911061
 20
-656.7398759040846
 30
0.0
  0
ENDBLK
  5
172
330
170
100
AcDbEntity
  8
0
100
AcDbBlockEnd
  0
BLOCK
  5
17E
330
17D
100
AcDbEntity
  8
0
100
AcDbBlockBegin
  2
BALN0
 70
     0
 10
0.0
 20
0.0
 30
0.0
  3
BALN0
  1

  0
CIRCLE
  5
180
330
17D
100
AcDbEntity
  8
1
  6
Continuous
 62
     3
100
AcDbCircle
 10
-55.9937361682114
 20
55.99373616821117
 30
0.0
 40
8.0
  0
MTEXT
  5
181
330
17D
100
AcDbEntity
  8
1
  6
Continuous
 62
     2
100
AcDbMText
 10
-58.9937361682114
 20
51.99373616821117
 30
0.0
 40
8.0
 41
0.0
 71
     7
 72
     5
  1
１
  7
MTSTANDARD2
 73
     1
 44
0.8125
  0
LEADER
  5
183
330
17D
100
AcDbEntity
  8
1
  6
Continuous
 62
     3
100
AcDbLeader
  3
DIMSTYEX_3
 76
     2
 10
0.0
 20
0.0
 30
0.0
 10
-50.33688191871901
 20
50.3368819187188
 30
0.0
1001
ACAD
1000
DSTYLE
1002
{
1070
   176
1070
     0
1002
}
  0
ENDBLK
  5
17F
330
17D
100
AcDbEntity
  8
0
100
AcDbBlockEnd
  0
BLOCK
  5
186
330
185
100
AcDbEntity
  8
0
100
AcDbBlockBegin
  2
BALN1
 70
     0
 10
0.0
 20
0.0
 30
0.0
  3
BALN1
  1

  0
CIRCLE
  5
188
330
185
100
AcDbEntity
  8
1
  6
Continuous
 62
     3
100
AcDbCircle
 10
-30.15053049458811
 20
30.15053049458822
 30
0.0
 40
8.0
  0
MTEXT
  5
189
330
185
100
AcDbEntity
  8
1
  6
Continuous
 62
     2
100
AcDbMText
 10
-33.15053049458811
 20
26.15053049458822
 30
0.0
 40
8.0
 41
0.0
 71
     7
 72
     5
  1
２
  7
MTSTANDARD2
 73
     1
 44
0.8125
  0
LEADER
  5
18A
330
185
100
AcDbEntity
  8
1
  6
Continuous
 62
     3
100
AcDbLeader
  3
DIMSTYEX_3
 76
     2
 10
0.0
 20
0.0
 30
0.0
 10
-24.49367624509574
 20
24.49367624509583
 30
0.0
1001
ACAD
1000
DSTYLE
1002
{
1070
   176
1070
     0
1002
}
  0
ENDBLK
  5
187
330
185
100
AcDbEntity
  8
0
100
AcDbBlockEnd
  0
BLOCK
  5
18D
330
18C
100
AcDbEntity
  8
0
100
AcDbBlockBegin
  2
BALN2
 70
     0
 10
0.0
 20
0.0
 30
0.0
  3
BALN2
  1

  0
CIRCLE
  5
18F
330
18C
100
AcDbEntity
  8
1
  6
Continuous
 62
     3
100
AcDbCircle
 10
-64.97106850875548
 20
-7.493765731932626
 30
0.0
 40
8.0
  0
MTEXT
  5
190
330
18C
100
AcDbEntity
  8
1
  6
Continuous
 62
     2
100
AcDbMText
 10
-67.97106850875548
 20
-11.49376573193263
 30
0.0
 40
8.0
 41
0.0
 71
     7
 72
     5
  1
３
  7
MTSTANDARD2
 73
     1
 44
0.8125
  0
LEADER
  5
191
330
18C
100
AcDbEntity
  8
1
  6
Continuous
 62
     3
100
AcDbLeader
  3
DIMSTYEX_3
 76
     2
 10
0.0
 20
0.0
 30
0.0
 10
-57.02375669228049
 20
-6.57712245796126
 30
0.0
1001
ACAD
1000
DSTYLE
1002
{
1070
   176
1070
     0
1002
}
  0
ENDBLK
  5
18E
330
18C
100
AcDbEntity
  8
0
100
AcDbBlockEnd
  0
BLOCK
  5
1A2
330
1A1
100
AcDbEntity
  8
0
100
AcDbBlockBegin
  2
BLK0
 70
     0
 10
927.7733784911061
 20
-267.0391581840173
 30
0.0
  3
BLK0
  1

  0
LINE
  5
1A4
330
1A1
100
AcDbEntity
  8
1
  6
Continuous
 62
     7
100
AcDbLine
 10
778.98848313696
 20
-192.0391581840172
 30
0.0
 11
778.98848313696
 21
-342.0391581840172
 31
0.0
  0
LINE
  5
1A5
330
1A1
100
AcDbEntity
  8
1
  6
Continuous
 62
     7
100
AcDbLine
 10
796.98848313696
 20
-360.0391581840172
 30
0.0
 11
1056.98848313696
 21
-360.0391581840172
 31
0.0
  0
LINE
  5
1A6
330
1A1
100
AcDbEntity
  8
1
  6
Continuous
 62
     7
100
AcDbLine
 10
1074.98848313696
 20
-342.0391581840172
 30
0.0
 11
1074.98848313696
 21
-192.0391581840174
 31
0.0
  0
LINE
  5
1A7
330
1A1
100
AcDbEntity
  8
1
  6
Continuous
 62
     7
100
AcDbLine
 10
1056.98848313696
 20
-174.0391581840174
 30
0.0
 11
796.98848313696
 21
-174.0391581840174
 31
0.0
  0
LINE
  5
1A8
330
1A1
100
AcDbEntity
  8
1
  6
Continuous
 62
     7
100
AcDbLine
 10
790.98848313696
 20
-192.0391581840174
 30
0.0
 11
790.98848313696
 21
-342.0391581840171
 31
0.0
  0
LINE
  5
1A9
330
1A1
100
AcDbEntity
  8
1
  6
Continuous
 62
     7
100
AcDbLine
 10
796.98848313696
 20
-348.0391581840172
 30
0.0
 11
1056.98848313696
 21
-348.0391581840172
 31
0.0
  0
LINE
  5
1AA
330
1A1
100
AcDbEntity
  8
1
  6
Continuous
 62
     7
100
AcDbLine
 10
1062.98848313696
 20
-342.0391581840172
 30
0.0
 11
1062.98848313696
 21
-192.0391581840174
 31
0.0
  0
LINE
  5
1AB
330
1A1
100
AcDbEntity
  8
1
  6
Continuous
 62
     7
100
AcDbLine
 10
1056.98848313696
 20
-186.0391581840174
 30
0.0
 11
796.98848313696
 21
-186.0391581840174
 31
0.0
  0
LINE
  5
1AC
330
1A1
100
AcDbEntity
  8
1
  6
Continuous
 62
     7
100
AcDbLine
 10
1047.98848313696
 20
-199.0391581840174
 30
0.0
 11
805.98848313696
 21
-199.0391581840174
 31
0.0
  0
LINE
  5
1AD
330
1A1
100
AcDbEntity
  8
1
  6
Continuous
 62
     7
100
AcDbLine
 10
803.98848313696
 20
-201.0391581840174
 30
0.0
 11
803.98848313696
 21
-333.0391581840171
 31
0.0
  0
LINE
  5
1AE
330
1A1
100
AcDbEntity
  8
1
  6
Continuous
 62
     7
100
AcDbLine
 10
805.98848313696
 20
-335.0391581840171
 30
0.0
 11
1047.98848313696
 21
-335.0391581840171
 31
0.0
  0
LINE
  5
1AF
330
1A1
100
AcDbEntity
  8
1
  6
Continuous
 62
     7
100
AcDbLine
 10
1049.98848313696
 20
-333.0391581840171
 30
0.0
 11
1049.98848313696
 21
-201.0391581840174
 31
0.0
  0
ARC
  5
1B0
330
1A1
100
AcDbEntity
  8
1
  6
Continuous
 62
     7
100
AcDbCircle
 10
796.98848313696
 20
-192.0391581840172
 30
0.0
 40
18.0
100
AcDbArc
 50
90.0
 51
180.0
  0
ARC
  5
1B1
330
1A1
100
AcDbEntity
  8
1
  6
Continuous
 62
     7
100
AcDbCircle
 10
796.98848313696
 20
-342.0391581840172
 30
0.0
 40
18.0
100
AcDbArc
 50
180.0
 51
270.0
  0
ARC
  5
1B2
330
1A1
100
AcDbEntity
  8
1
  6
Continuous
 62
     7
100
AcDbCircle
 10
1056.98848313696
 20
-342.0391581840172
 30
0.0
 40
18.0
100
AcDbArc
 50
270.0
 51
0.0
  0
ARC
  5
1B3
330
1A1
100
AcDbEntity
  8
1
  6
Continuous
 62
     7
100
AcDbCircle
 10
1056.98848313696
 20
-192.0391581840174
 30
0.0
 40
18.0
100
AcDbArc
 50
0.0
 51
90.0
  0
ARC
  5
1B4
330
1A1
100
AcDbEntity
  8
1
  6
Continuous
 62
     7
100
AcDbCircle
 10
1056.98848313696
 20
-192.0391581840174
 30
0.0
 40
6.0
100
AcDbArc
 50
0.0
 51
90.0
  0
ARC
  5
1B5
330
1A1
100
AcDbEntity
  8
1
  6
Continuous
 62
     7
100
AcDbCircle
 10
1056.98848313696
 20
-342.0391581840172
 30
0.0
 40
6.0
100
AcDbArc
 50
270.0
 51
0.0
  0
ARC
  5
1B6
330
1A1
100
AcDbEntity
  8
1
  6
Continuous
 62
     7
100
AcDbCircle
 10
796.98848313696
 20
-342.0391581840172
 30
0.0
 40
6.0
100
AcDbArc
 50
179.9999999999989
 51
270.0
  0
ARC
  5
1B7
330
1A1
100
AcDbEntity
  8
1
  6
Continuous
 62
     7
100
AcDbCircle
 10
796.98848313696
 20
-192.0391581840174
 30
0.0
 40
6.0
100
AcDbArc
 50
90.0
 51
180.0
  0
ARC
  5
1B8
330
1A1
100
AcDbEntity
  8
1
  6
Continuous
 62
     7
100
AcDbCircle
 10
805.98848313696
 20
-201.0391581840174
 30
0.0
 40
2.0
100
AcDbArc
 50
90.0
 51
180.0
  0
ARC
  5
1B9
330
1A1
100
AcDbEntity
  8
1
  6
Continuous
 62
     7
100
AcDbCircle
 10
1047.98848313696
 20
-201.0391581840174
 30
0.0
 40
2.0
100
AcDbArc
 50
0.0
 51
90.0
  0
ARC
  5
1BA
330
1A1
100
AcDbEntity
  8
1
  6
Continuous
 62
     7
100
AcDbCircle
 10
1047.98848313696
 20
-333.0391581840171
 30
0.0
 40
2.0
100
AcDbArc
 50
270.0
 51
0.0
  0
ARC
  5
1BB
330
1A1
100
AcDbEntity
  8
1
  6
Continuous
 62
     7
100
AcDbCircle
 10
805.98848313696
 20
-333.0391581840171
 30
0.0
 40
2.0
100
AcDbArc
 50
180.0
 51
270.0
  0
LINE
  5
1BC
330
1A1
100
AcDbEntity
  8
1
  6
Continuous
 62
     7
100
AcDbLine
 10
909.9884831369595
 20
-211.6549842261339
 30
0.0
 11
919.7153791683736
 21
-206.0391581840174
 31
0.0
  0
LINE
  5
1BD
330
1A1
100
AcDbEntity
  8
1
  6
Continuous
 62
     7
100
AcDbLine
 10
926.98848313696
 20
-221.4699388023577
 30
0.0
 11
909.988483136965
 21
-211.6549842261371
 31
0.0
  0
LINE
  5
1BE
330
1A1
100
AcDbEntity
  8
1
  6
Continuous
 62
     7
100
AcDbLine
 10
861.9884831369643
 20
-211.6549842261369
 30
0.0
 11
871.7153791683836
 21
-206.0391581840174
 31
0.0
  0
LINE
  5
1BF
330
1A1
100
AcDbEntity
  8
1
  6
Continuous
 62
     7
100
AcDbLine
 10
886.2615871055455
 20
-206.0391581840174
 30
0.0
 11
895.988483136965
 21
-211.654984226137
 31
0.0
  0
LINE
  5
1C0
330
1A1
100
AcDbEntity
  8
1
  6
Continuous
 62
     7
100
AcDbLine
 10
895.988483136965
 20
-211.654984226137
 30
0.0
 11
878.9884831369645
 21
-221.4699388023606
 31
0.0
  0
LINE
  5
1C1
330
1A1
100
AcDbEntity
  8
1
  6
Continuous
 62
     7
100
AcDbLine
 10
878.9884831369645
 20
-221.4699388023606
 30
0.0
 11
861.98848313697
 21
-211.6549842261401
 31
0.0
  0
LINE
  5
1C2
330
1A1
100
AcDbEntity
  8
1
  6
Continuous
 62
     7
100
AcDbLine
 10
813.9884831369691
 20
-211.6549842261397
 30
0.0
 11
823.7153791683936
 21
-206.0391581840174
 31
0.0
  0
LINE
  5
1C3
330
1A1
100
AcDbEntity
  8
1
  6
Continuous
 62
     7
100
AcDbLine
 10
838.2615871055455
 20
-206.0391581840174
 30
0.0
 11
847.98848313697
 21
-211.6549842261398
 31
0.0
  0
LINE
  5
1C4
330
1A1
100
AcDbEntity
  8
1
  6
Continuous
 62
     7
100
AcDbLine
 10
847.98848313697
 20
-211.6549842261398
 30
0.0
 11
830.9884831369695
 21
-221.4699388023636
 31
0.0
  0
LINE
  5
1C5
330
1A1
100
AcDbEntity
  8
1
  6
Continuous
 62
     7
100
AcDbLine
 10
830.9884831369695
 20
-221.4699388023636
 30
0.0
 11
813.988483136975
 21
-211.6549842261429
 31
0.0
  0
LINE
  5
1C6
330
1A1
100
AcDbEntity
  8
1
  6
Continuous
 62
     7
100
AcDbLine
 10
885.9884831369532
 20
-225.5113906866882
 30
0.0
 11
902.9884831369536
 21
-215.6964361104644
 31
0.0
  0
LINE
  5
1C7
330
1A1
100
AcDbEntity
  8
1
  6
Continuous
 62
     7
100
AcDbLine
 10
902.9884831369536
 20
-215.6964361104644
 30
0.0
 11
919.9884831369541
 21
-225.5113906866883
 31
0.0
  0
LINE
  5
1C8
330
1A1
100
AcDbEntity
  8
1
  6
Continuous
 62
     7
100
AcDbLine
 10
919.9884831369541
 20
-225.5113906866883
 30
0.0
 11
902.9884831369536
 21
-235.3263452629119
 31
0.0
  0
LINE
  5
1C9
330
1A1
100
AcDbEntity
  8
1
  6
Continuous
 62
     7
100
AcDbLine
 10
902.9884831369536
 20
-235.3263452629119
 30
0.0
 11
885.9884831369591
 21
-225.5113906866914
 31
0.0
  0
LINE
  5
1CA
330
1A1
100
AcDbEntity
  8
1
  6
Continuous
 62
     7
100
AcDbLine
 10
837.9884831369582
 20
-225.5113906866911
 30
0.0
 11
854.9884831369586
 21
-215.6964361104674
 31
0.0
  0
LINE
  5
1CB
330
1A1
100
AcDbEntity
  8
1
  6
Continuous
 62
     7
100
AcDbLine
 10
854.9884831369586
 20
-215.6964361104674
 30
0.0
 11
871.9884831369588
 21
-225.5113906866912
 31
0.0
  0
LINE
  5
1CC
330
1A1
100
AcDbEntity
  8
1
  6
Continuous
 62
     7
100
AcDbLine
 10
871.9884831369588
 20
-225.5113906866912
 30
0.0
 11
854.9884831369586
 21
-235.3263452629149
 31
0.0
  0
LINE
  5
1CD
330
1A1
100
AcDbEntity
  8
1
  6
Continuous
 62
     7
100
AcDbLine
 10
854.9884831369586
 20
-235.3263452629149
 30
0.0
 11
837.9884831369639
 21
-225.5113906866943
 31
0.0
  0
LINE
  5
1CE
330
1A1
100
AcDbEntity
  8
1
  6
Continuous
 62
     7
100
AcDbLine
 10
810.98848313696
 20
-218.0058371872268
 30
0.0
 11
823.9884831369636
 21
-225.5113906866941
 31
0.0
  0
LINE
  5
1CF
330
1A1
100
AcDbEntity
  8
1
  6
Continuous
 62
     7
100
AcDbLine
 10
823.9884831369636
 20
-225.5113906866941
 30
0.0
 11
810.98848313696
 21
-233.0169441861611
 31
0.0
  0
LINE
  5
1D0
330
1A1
100
AcDbEntity
  8
1
  6
Continuous
 62
     7
100
AcDbLine
 10
909.9884831369486
 20
-239.3677971472425
 30
0.0
 11
926.9884831369491
 21
-229.5528425710188
 31
0.0
  0
LINE
  5
1D1
330
1A1
100
AcDbEntity
  8
1
  6
Continuous
 62
     7
100
AcDbLine
 10
919.811568600709
 20
-245.0391581840172
 30
0.0
 11
909.9884831369541
 21
-239.3677971472457
 31
0.0
  0
LINE
  5
1D2
330
1A1
100
AcDbEntity
  8
1
  6
Continuous
 62
     7
100
AcDbLine
 10
861.9884831369532
 20
-239.3677971472455
 30
0.0
 11
878.9884831369536
 21
-229.5528425710218
 31
0.0
  0
LINE
  5
1D3
330
1A1
100
AcDbEntity
  8
1
  6
Continuous
 62
     7
100
AcDbLine
 10
878.9884831369536
 20
-229.5528425710218
 30
0.0
 11
895.9884831369541
 21
-239.3677971472456
 31
0.0
  0
LINE
  5
1D4
330
1A1
100
AcDbEntity
  8
1
  6
Continuous
 62
     7
100
AcDbLine
 10
895.9884831369541
 20
-239.3677971472456
 30
0.0
 11
886.1653976731991
 21
-245.0391581840172
 31
0.0
  0
LINE
  5
1D5
330
1A1
100
AcDbEntity
  8
1
  6
Continuous
 62
     7
100
AcDbLine
 10
871.8115686007086
 20
-245.0391581840172
 30
0.0
 11
861.9884831369591
 21
-239.3677971472487
 31
0.0
  0
LINE
  5
1D6
330
1A1
100
AcDbEntity
  8
1
  6
Continuous
 62
     7
100
AcDbLine
 10
813.9884831369582
 20
-239.3677971472483
 30
0.0
 11
830.9884831369586
 21
-229.5528425710246
 31
0.0
  0
LINE
  5
1D7
330
1A1
100
AcDbEntity
  8
1
  6
Continuous
 62
     7
100
AcDbLine
 10
830.9884831369586
 20
-229.5528425710246
 30
0.0
 11
847.9884831369588
 21
-239.3677971472484
 31
0.0
  0
LINE
  5
1D8
330
1A1
100
AcDbEntity
  8
1
  6
Continuous
 62
     7
100
AcDbLine
 10
847.9884831369588
 20
-239.3677971472484
 30
0.0
 11
830.9884831369586
 21
-249.1827517234722
 31
0.0
  0
LINE
  5
1D9
330
1A1
100
AcDbEntity
  8
1
  6
Continuous
 62
     7
100
AcDbLine
 10
830.9884831369586
 20
-249.1827517234722
 30
0.0
 11
813.9884831369639
 21
-239.3677971472515
 31
0.0
  0
LINE
  5
1DA
330
1A1
100
AcDbEntity
  8
1
  6
Continuous
 62
     7
100
AcDbLine
 10
837.9884831369468
 20
-253.2242036077934
 30
0.0
 11
854.9884831369473
 21
-243.4092490315696
 31
0.0
  0
LINE
  5
1DB
330
1A1
100
AcDbEntity
  8
1
  6
Continuous
 62
     7
100
AcDbLine
 10
854.9884831369473
 20
-243.4092490315696
 30
0.0
 11
871.9884831369477
 21
-253.2242036077935
 31
0.0
  0
LINE
  5
1DC
330
1A1
100
AcDbEntity
  8
1
  6
Continuous
 62
     7
100
AcDbLine
 10
871.9884831369477
 20
-253.2242036077935
 30
0.0
 11
854.9884831369473
 21
-263.0391581840172
 31
0.0
  0
LINE
  5
1DD
330
1A1
100
AcDbEntity
  8
1
  6
Continuous
 62
     7
100
AcDbLine
 10
854.9884831369473
 20
-263.0391581840172
 30
0.0
 11
837.9884831369527
 21
-253.2242036077965
 31
0.0
  0
LINE
  5
1DE
330
1A1
100
AcDbEntity
  8
1
  6
Continuous
 62
     7
100
AcDbLine
 10
810.98848313696
 20
-245.7186501083356
 30
0.0
 11
823.9884831369525
 21
-253.2242036077964
 31
0.0
  0
LINE
  5
1DF
330
1A1
100
AcDbEntity
  8
1
  6
Continuous
 62
     7
100
AcDbLine
 10
823.9884831369525
 20
-253.2242036077964
 30
0.0
 11
810.98848313696
 21
-260.729757107257
 31
0.0
  0
LINE
  5
1E0
330
1A1
100
AcDbEntity
  8
1
  6
Continuous
 62
     7
100
AcDbLine
 10
823.7153791683936
 20
-206.0391581840174
 30
0.0
 11
838.2615871055455
 21
-206.0391581840174
 31
0.0
  0
LINE
  5
1E1
330
1A1
100
AcDbEntity
  8
1
  6
Continuous
 62
     7
100
AcDbLine
 10
871.7153791683836
 20
-206.0391581840174
 30
0.0
 11
886.2615871055455
 21
-206.0391581840174
 31
0.0
  0
LINE
  5
1E2
330
1A1
100
AcDbEntity
  8
1
  6
Continuous
 62
     7
100
AcDbLine
 10
919.7153791683736
 20
-206.0391581840174
 30
0.0
 11
926.98848313696
 21
-206.0391581840174
 31
0.0
  0
LINE
  5
1E3
330
1A1
100
AcDbEntity
  8
1
  6
Continuous
 62
     7
100
AcDbLine
 10
810.98848313696
 20
-218.0058371872268
 30
0.0
 11
810.98848313696
 21
-233.0169441861611
 31
0.0
  0
LINE
  5
1E4
330
1A1
100
AcDbEntity
  8
1
  6
Continuous
 62
     7
100
AcDbLine
 10
810.98848313696
 20
-245.7186501083356
 30
0.0
 11
810.98848313696
 21
-260.7297571072569
 31
0.0
  0
LINE
  5
1E5
330
1A1
100
AcDbEntity
  8
1
  6
Continuous
 62
     7
100
AcDbLine
 10
909.9884831369595
 20
-322.4233321419005
 30
0.0
 11
919.7153791683736
 21
-328.0391581840169
 31
0.0
  0
LINE
  5
1E6
330
1A1
100
AcDbEntity
  8
1
  6
Continuous
 62
     7
100
AcDbLine
 10
926.98848313696
 20
-312.6083775656766
 30
0.0
 11
909.988483136965
 21
-322.4233321418973
 31
0.0
  0
LINE
  5
1E7
330
1A1
100
AcDbEntity
  8
1
  6
Continuous
 62
     7
100
AcDbLine
 10
861.9884831369643
 20
-322.4233321418975
 30
0.0
 11
871.7153791683836
 21
-328.0391581840169
 31
0.0
  0
LINE
  5
1E8
330
1A1
100
AcDbEntity
  8
1
  6
Continuous
 62
     7
100
AcDbLine
 10
886.2615871055455
 20
-328.0391581840169
 30
0.0
 11
895.988483136965
 21
-322.4233321418974
 31
0.0
  0
LINE
  5
1E9
330
1A1
100
AcDbEntity
  8
1
  6
Continuous
 62
     7
100
AcDbLine
 10
895.988483136965
 20
-322.4233321418974
 30
0.0
 11
878.9884831369645
 21
-312.6083775656737
 31
0.0
  0
LINE
  5
1EA
330
1A1
100
AcDbEntity
  8
1
  6
Continuous
 62
     7
100
AcDbLine
 10
878.9884831369645
 20
-312.6083775656737
 30
0.0
 11
861.98848313697
 21
-322.4233321418943
 31
0.0
  0
LINE
  5
1EB
330
1A1
100
AcDbEntity
  8
1
  6
Continuous
 62
     7
100
AcDbLine
 10
813.9884831369691
 20
-322.4233321418945
 30
0.0
 11
823.7153791683936
 21
-328.0391581840169
 31
0.0
  0
LINE
  5
1EC
330
1A1
100
AcDbEntity
  8
1
  6
Continuous
 62
     7
100
AcDbLine
 10
838.2615871055455
 20
-328.0391581840169
 30
0.0
 11
847.98848313697
 21
-322.4233321418944
 31
0.0
  0
LINE
  5
1ED
330
1A1
100
AcDbEntity
  8
1
  6
Continuous
 62
     7
100
AcDbLine
 10
847.98848313697
 20
-322.4233321418944
 30
0.0
 11
830.9884831369695
 21
-312.6083775656708
 31
0.0
  0
LINE
  5
1EE
330
1A1
100
AcDbEntity
  8
1
  6
Continuous
 62
     7
100
AcDbLine
 10
830.9884831369695
 20
-312.6083775656708
 30
0.0
 11
813.988483136975
 21
-322.4233321418914
 31
0.0
  0
LINE
  5
1EF
330
1A1
100
AcDbEntity
  8
1
  6
Continuous
 62
     7
100
AcDbLine
 10
885.9884831369532
 20
-308.5669256813462
 30
0.0
 11
902.9884831369536
 21
-318.3818802575699
 31
0.0
  0
LINE
  5
1F0
330
1A1
100
AcDbEntity
  8
1
  6
Continuous
 62
     7
100
AcDbLine
 10
902.9884831369536
 20
-318.3818802575699
 30
0.0
 11
919.9884831369541
 21
-308.5669256813461
 31
0.0
  0
LINE
  5
1F1
330
1A1
100
AcDbEntity
  8
1
  6
Continuous
 62
     7
100
AcDbLine
 10
919.9884831369541
 20
-308.5669256813461
 30
0.0
 11
902.9884831369536
 21
-298.7519711051224
 31
0.0
  0
LINE
  5
1F2
330
1A1
100
AcDbEntity
  8
1
  6
Continuous
 62
     7
100
AcDbLine
 10
902.9884831369536
 20
-298.7519711051224
 30
0.0
 11
885.9884831369591
 21
-308.566925681343
 31
0.0
  0
LINE
  5
1F3
330
1A1
100
AcDbEntity
  8
1
  6
Continuous
 62
     7
100
AcDbLine
 10
837.9884831369582
 20
-308.5669256813433
 30
0.0
 11
854.9884831369586
 21
-318.381880257567
 31
0.0
  0
LINE
  5
1F4
330
1A1
100
AcDbEntity
  8
1
  6
Continuous
 62
     7
100
AcDbLine
 10
854.9884831369586
 20
-318.381880257567
 30
0.0
 11
871.9884831369588
 21
-308.5669256813432
 31
0.0
  0
LINE
  5
1F5
330
1A1
100
AcDbEntity
  8
1
  6
Continuous
 62
     7
100
AcDbLine
 10
871.9884831369588
 20
-308.5669256813432
 30
0.0
 11
854.9884831369586
 21
-298.7519711051194
 31
0.0
  0
LINE
  5
1F6
330
1A1
100
AcDbEntity
  8
1
  6
Continuous
 62
     7
100
AcDbLine
 10
854.9884831369586
 20
-298.7519711051194
 30
0.0
 11
837.9884831369639
 21
-308.5669256813401
 31
0.0
  0
LINE
  5
1F7
330
1A1
100
AcDbEntity
  8
1
  6
Continuous
 62
     7
100
AcDbLine
 10
810.98848313696
 20
-316.0724791808075
 30
0.0
 11
823.9884831369636
 21
-308.5669256813402
 31
0.0
  0
LINE
  5
1F8
330
1A1
100
AcDbEntity
  8
1
  6
Continuous
 62
     7
100
AcDbLine
 10
823.9884831369636
 20
-308.5669256813402
 30
0.0
 11
810.98848313696
 21
-301.0613721818731
 31
0.0
  0
LINE
  5
1F9
330
1A1
100
AcDbEntity
  8
1
  6
Continuous
 62
     7
100
AcDbLine
 10
909.9884831369486
 20
-294.7105192207919
 30
0.0
 11
926.9884831369491
 21
-304.5254737970156
 31
0.0
  0
LINE
  5
1FA
330
1A1
100
AcDbEntity
  8
1
  6
Continuous
 62
     7
100
AcDbLine
 10
919.8115686007086
 20
-289.0391581840172
 30
0.0
 11
909.9884831369541
 21
-294.7105192207887
 31
0.0
  0
LINE
  5
1FB
330
1A1
100
AcDbEntity
  8
1
  6
Continuous
 62
     7
100
AcDbLine
 10
861.9884831369532
 20
-294.7105192207889
 30
0.0
 11
878.9884831369536
 21
-304.5254737970126
 31
0.0
  0
LINE
  5
1FC
330
1A1
100
AcDbEntity
  8
1
  6
Continuous
 62
     7
100
AcDbLine
 10
878.9884831369536
 20
-304.5254737970126
 30
0.0
 11
895.9884831369541
 21
-294.7105192207888
 31
0.0
  0
LINE
  5
1FD
330
1A1
100
AcDbEntity
  8
1
  6
Continuous
 62
     7
100
AcDbLine
 10
895.9884831369541
 20
-294.7105192207888
 30
0.0
 11
886.1653976731989
 21
-289.0391581840172
 31
0.0
  0
LINE
  5
1FE
330
1A1
100
AcDbEntity
  8
1
  6
Continuous
 62
     7
100
AcDbLine
 10
871.8115686007086
 20
-289.0391581840172
 30
0.0
 11
861.9884831369591
 21
-294.7105192207857
 31
0.0
  0
LINE
  5
1FF
330
1A1
100
AcDbEntity
  8
1
  6
Continuous
 62
     7
100
AcDbLine
 10
813.9884831369582
 20
-294.710519220786
 30
0.0
 11
830.9884831369586
 21
-304.5254737970097
 31
0.0
  0
LINE
  5
200
330
1A1
100
AcDbEntity
  8
1
  6
Continuous
 62
     7
100
AcDbLine
 10
830.9884831369586
 20
-304.5254737970097
 30
0.0
 11
847.9884831369588
 21
-294.7105192207858
 31
0.0
  0
LINE
  5
201
330
1A1
100
AcDbEntity
  8
1
  6
Continuous
 62
     7
100
AcDbLine
 10
847.9884831369588
 20
-294.7105192207858
 30
0.0
 11
830.9884831369586
 21
-284.8955646445622
 31
0.0
  0
LINE
  5
202
330
1A1
100
AcDbEntity
  8
1
  6
Continuous
 62
     7
100
AcDbLine
 10
830.9884831369586
 20
-284.8955646445622
 30
0.0
 11
813.9884831369639
 21
-294.7105192207828
 31
0.0
  0
LINE
  5
203
330
1A1
100
AcDbEntity
  8
1
  6
Continuous
 62
     7
100
AcDbLine
 10
837.9884831369468
 20
-280.8541127602409
 30
0.0
 11
854.9884831369473
 21
-290.6690673364646
 31
0.0
  0
LINE
  5
204
330
1A1
100
AcDbEntity
  8
1
  6
Continuous
 62
     7
100
AcDbLine
 10
854.9884831369473
 20
-290.6690673364646
 30
0.0
 11
871.9884831369477
 21
-280.8541127602408
 31
0.0
  0
LINE
  5
205
330
1A1
100
AcDbEntity
  8
1
  6
Continuous
 62
     7
100
AcDbLine
 10
871.9884831369477
 20
-280.8541127602408
 30
0.0
 11
854.9884831369473
 21
-271.0391581840172
 31
0.0
  0
LINE
  5
206
330
1A1
100
AcDbEntity
  8
1
  6
Continuous
 62
     7
100
AcDbLine
 10
854.9884831369473
 20
-271.0391581840172
 30
0.0
 11
837.9884831369527
 21
-280.8541127602377
 31
0.0
  0
LINE
  5
207
330
1A1
100
AcDbEntity
  8
1
  6
Continuous
 62
     7
100
AcDbLine
 10
810.98848313696
 20
-288.3596662596987
 30
0.0
 11
823.9884831369525
 21
-280.854112760238
 31
0.0
  0
LINE
  5
208
330
1A1
100
AcDbEntity
  8
1
  6
Continuous
 62
     7
100
AcDbLine
 10
823.9884831369525
 20
-280.854112760238
 30
0.0
 11
810.98848313696
 21
-273.3485592607774
 31
0.0
  0
LINE
  5
209
330
1A1
100
AcDbEntity
  8
1
  6
Continuous
 62
     7
100
AcDbLine
 10
823.7153791683936
 20
-328.0391581840169
 30
0.0
 11
838.2615871055455
 21
-328.0391581840169
 31
0.0
  0
LINE
  5
20A
330
1A1
100
AcDbEntity
  8
1
  6
Continuous
 62
     7
100
AcDbLine
 10
871.7153791683836
 20
-328.0391581840169
 30
0.0
 11
886.2615871055455
 21
-328.0391581840169
 31
0.0
  0
LINE
  5
20B
330
1A1
100
AcDbEntity
  8
1
  6
Continuous
 62
     7
100
AcDbLine
 10
919.7153791683736
 20
-328.0391581840169
 30
0.0
 11
926.98848313696
 21
-328.0391581840169
 31
0.0
  0
LINE
  5
20C
330
1A1
100
AcDbEntity
  8
1
  6
Continuous
 62
     7
100
AcDbLine
 10
810.98848313696
 20
-316.0724791808075
 30
0.0
 11
810.98848313696
 21
-301.0613721818731
 31
0.0
  0
LINE
  5
20D
330
1A1
100
AcDbEntity
  8
1
  6
Continuous
 62
     7
100
AcDbLine
 10
810.98848313696
 20
-288.3596662596987
 30
0.0
 11
810.98848313696
 21
-273.3485592607774
 31
0.0
  0
LINE
  5
20E
330
1A1
100
AcDbEntity
  8
1
  6
Continuous
 62
     7
100
AcDbLine
 10
861.9884831369532
 20
-267.0391581840173
 30
0.0
 11
874.98848313696
 21
-274.5447116834863
 31
0.0
  0
LINE
  5
20F
330
1A1
100
AcDbEntity
  8
1
  6
Continuous
 62
     7
100
AcDbLine
 10
874.98848313696
 20
-259.5336046845482
 30
0.0
 11
861.9884831369591
 21
-267.0391581840141
 31
0.0
  0
CIRCLE
  5
210
330
1A1
100
AcDbEntity
  8
1
  6
Continuous
 62
     7
100
AcDbCircle
 10
831.98848313696
 20
-267.0391581840172
 30
0.0
 40
8.5
  0
LINE
  5
211
330
1A1
100
AcDbEntity
  8
1
  6
Continuous
 62
     7
100
AcDbLine
 10
943.9884831369609
 20
-211.6549842261339
 30
0.0
 11
934.2615871055464
 21
-206.0391581840174
 31
0.0
  0
LINE
  5
212
330
1A1
100
AcDbEntity
  8
1
  6
Continuous
 62
     7
100
AcDbLine
 10
926.9884831369604
 20
-221.4699388023577
 30
0.0
 11
943.988483136955
 21
-211.6549842261371
 31
0.0
  0
LINE
  5
213
330
1A1
100
AcDbEntity
  8
1
  6
Continuous
 62
     7
100
AcDbLine
 10
991.9884831369559
 20
-211.6549842261369
 30
0.0
 11
982.2615871055366
 21
-206.0391581840174
 31
0.0
  0
LINE
  5
214
330
1A1
100
AcDbEntity
  8
1
  6
Continuous
 62
     7
100
AcDbLine
 10
967.7153791683745
 20
-206.0391581840174
 30
0.0
 11
957.9884831369554
 21
-211.654984226137
 31
0.0
  0
LINE
  5
215
330
1A1
100
AcDbEntity
  8
1
  6
Continuous
 62
     7
100
AcDbLine
 10
957.9884831369554
 20
-211.654984226137
 30
0.0
 11
974.9884831369557
 21
-221.4699388023606
 31
0.0
  0
LINE
  5
216
330
1A1
100
AcDbEntity
  8
1
  6
Continuous
 62
     7
100
AcDbLine
 10
974.9884831369557
 20
-221.4699388023606
 30
0.0
 11
991.9884831369504
 21
-211.6549842261401
 31
0.0
  0
LINE
  5
217
330
1A1
100
AcDbEntity
  8
1
  6
Continuous
 62
     7
100
AcDbLine
 10
1039.988483136951
 20
-211.6549842261397
 30
0.0
 11
1030.261587105527
 21
-206.0391581840174
 31
0.0
  0
LINE
  5
218
330
1A1
100
AcDbEntity
  8
1
  6
Continuous
 62
     7
100
AcDbLine
 10
1015.715379168375
 20
-206.0391581840174
 30
0.0
 11
1005.98848313695
 21
-211.6549842261398
 31
0.0
  0
LINE
  5
219
330
1A1
100
AcDbEntity
  8
1
  6
Continuous
 62
     7
100
AcDbLine
 10
1005.98848313695
 20
-211.6549842261398
 30
0.0
 11
1022.988483136951
 21
-221.4699388023636
 31
0.0
  0
LINE
  5
21A
330
1A1
100
AcDbEntity
  8
1
  6
Continuous
 62
     7
100
AcDbLine
 10
1022.988483136951
 20
-221.4699388023636
 30
0.0
 11
1039.988483136945
 21
-211.6549842261429
 31
0.0
  0
LINE
  5
21B
330
1A1
100
AcDbEntity
  8
1
  6
Continuous
 62
     7
100
AcDbLine
 10
967.9884831369668
 20
-225.5113906866882
 30
0.0
 11
950.9884831369664
 21
-215.6964361104644
 31
0.0
  0
LINE
  5
21C
330
1A1
100
AcDbEntity
  8
1
  6
Continuous
 62
     7
100
AcDbLine
 10
950.9884831369664
 20
-215.6964361104644
 30
0.0
 11
933.9884831369664
 21
-225.5113906866883
 31
0.0
  0
LINE
  5
21D
330
1A1
100
AcDbEntity
  8
1
  6
Continuous
 62
     7
100
AcDbLine
 10
933.9884831369664
 20
-225.5113906866883
 30
0.0
 11
950.9884831369668
 21
-235.3263452629119
 31
0.0
  0
LINE
  5
21E
330
1A1
100
AcDbEntity
  8
1
  6
Continuous
 62
     7
100
AcDbLine
 10
950.9884831369668
 20
-235.3263452629119
 30
0.0
 11
967.9884831369613
 21
-225.5113906866914
 31
0.0
  0
LINE
  5
21F
330
1A1
100
AcDbEntity
  8
1
  6
Continuous
 62
     7
100
AcDbLine
 10
1015.988483136962
 20
-225.5113906866911
 30
0.0
 11
998.9884831369618
 21
-215.6964361104674
 31
0.0
  0
LINE
  5
220
330
1A1
100
AcDbEntity
  8
1
  6
Continuous
 62
     7
100
AcDbLine
 10
998.9884831369618
 20
-215.6964361104674
 30
0.0
 11
981.9884831369613
 21
-225.5113906866912
 31
0.0
  0
LINE
  5
221
330
1A1
100
AcDbEntity
  8
1
  6
Continuous
 62
     7
100
AcDbLine
 10
981.9884831369613
 20
-225.5113906866912
 30
0.0
 11
998.9884831369618
 21
-235.3263452629149
 31
0.0
  0
LINE
  5
222
330
1A1
100
AcDbEntity
  8
1
  6
Continuous
 62
     7
100
AcDbLine
 10
998.9884831369618
 20
-235.3263452629149
 30
0.0
 11
1015.988483136956
 21
-225.5113906866943
 31
0.0
  0
LINE
  5
223
330
1A1
100
AcDbEntity
  8
1
  6
Continuous
 62
     7
100
AcDbLine
 10
1042.98848313696
 20
-218.0058371872268
 30
0.0
 11
1029.988483136957
 21
-225.5113906866941
 31
0.0
  0
LINE
  5
224
330
1A1
100
AcDbEntity
  8
1
  6
Continuous
 62
     7
100
AcDbLine
 10
1029.988483136957
 20
-225.5113906866941
 30
0.0
 11
1042.98848313696
 21
-233.0169441861611
 31
0.0
  0
LINE
  5
225
330
1A1
100
AcDbEntity
  8
1
  6
Continuous
 62
     7
100
AcDbLine
 10
943.9884831369718
 20
-239.3677971472425
 30
0.0
 11
926.9884831369714
 21
-229.5528425710188
 31
0.0
  0
LINE
  5
226
330
1A1
100
AcDbEntity
  8
1
  6
Continuous
 62
     7
100
AcDbLine
 10
934.1653976732114
 20
-245.0391581840172
 30
0.0
 11
943.9884831369664
 21
-239.3677971472457
 31
0.0
  0
LINE
  5
227
330
1A1
100
AcDbEntity
  8
1
  6
Continuous
 62
     7
100
AcDbLine
 10
991.988483136967
 20
-239.3677971472455
 30
0.0
 11
974.9884831369666
 21
-229.5528425710218
 31
0.0
  0
LINE
  5
228
330
1A1
100
AcDbEntity
  8
1
  6
Continuous
 62
     7
100
AcDbLine
 10
974.9884831369666
 20
-229.5528425710218
 30
0.0
 11
957.9884831369664
 21
-239.3677971472456
 31
0.0
  0
LINE
  5
229
330
1A1
100
AcDbEntity
  8
1
  6
Continuous
 62
     7
100
AcDbLine
 10
957.9884831369664
 20
-239.3677971472456
 30
0.0
 11
967.8115686007213
 21
-245.0391581840172
 31
0.0
  0
LINE
  5
22A
330
1A1
100
AcDbEntity
  8
1
  6
Continuous
 62
     7
100
AcDbLine
 10
982.1653976732118
 20
-245.0391581840172
 30
0.0
 11
991.9884831369613
 21
-239.3677971472487
 31
0.0
  0
LINE
  5
22B
330
1A1
100
AcDbEntity
  8
1
  6
Continuous
 62
     7
100
AcDbLine
 10
1039.988483136962
 20
-239.3677971472483
 30
0.0
 11
1022.988483136962
 21
-229.5528425710246
 31
0.0
  0
LINE
  5
22C
330
1A1
100
AcDbEntity
  8
1
  6
Continuous
 62
     7
100
AcDbLine
 10
1022.988483136962
 20
-229.5528425710246
 30
0.0
 11
1005.988483136961
 21
-239.3677971472484
 31
0.0
  0
LINE
  5
22D
330
1A1
100
AcDbEntity
  8
1
  6
Continuous
 62
     7
100
AcDbLine
 10
1005.988483136961
 20
-239.3677971472484
 30
0.0
 11
1022.988483136962
 21
-249.1827517234722
 31
0.0
  0
LINE
  5
22E
330
1A1
100
AcDbEntity
  8
1
  6
Continuous
 62
     7
100
AcDbLine
 10
1022.988483136962
 20
-249.1827517234722
 30
0.0
 11
1039.988483136956
 21
-239.3677971472515
 31
0.0
  0
LINE
  5
22F
330
1A1
100
AcDbEntity
  8
1
  6
Continuous
 62
     7
100
AcDbLine
 10
1015.988483136973
 20
-253.2242036077934
 30
0.0
 11
998.988483136973
 21
-243.4092490315696
 31
0.0
  0
LINE
  5
230
330
1A1
100
AcDbEntity
  8
1
  6
Continuous
 62
     7
100
AcDbLine
 10
998.988483136973
 20
-243.4092490315696
 30
0.0
 11
981.9884831369727
 21
-253.2242036077935
 31
0.0
  0
LINE
  5
231
330
1A1
100
AcDbEntity
  8
1
  6
Continuous
 62
     7
100
AcDbLine
 10
981.9884831369727
 20
-253.2242036077935
 30
0.0
 11
998.9884831369732
 21
-263.0391581840172
 31
0.0
  0
LINE
  5
232
330
1A1
100
AcDbEntity
  8
1
  6
Continuous
 62
     7
100
AcDbLine
 10
998.9884831369732
 20
-263.0391581840172
 30
0.0
 11
1015.988483136968
 21
-253.2242036077965
 31
0.0
  0
LINE
  5
233
330
1A1
100
AcDbEntity
  8
1
  6
Continuous
 62
     7
100
AcDbLine
 10
1042.98848313696
 20
-245.7186501083356
 30
0.0
 11
1029.988483136968
 21
-253.2242036077964
 31
0.0
  0
LINE
  5
234
330
1A1
100
AcDbEntity
  8
1
  6
Continuous
 62
     7
100
AcDbLine
 10
1029.988483136968
 20
-253.2242036077964
 30
0.0
 11
1042.98848313696
 21
-260.729757107257
 31
0.0
  0
LINE
  5
235
330
1A1
100
AcDbEntity
  8
1
  6
Continuous
 62
     7
100
AcDbLine
 10
1030.261587105527
 20
-206.0391581840174
 30
0.0
 11
1015.715379168375
 21
-206.0391581840174
 31
0.0
  0
LINE
  5
236
330
1A1
100
AcDbEntity
  8
1
  6
Continuous
 62
     7
100
AcDbLine
 10
982.2615871055366
 20
-206.0391581840174
 30
0.0
 11
967.7153791683745
 21
-206.0391581840174
 31
0.0
  0
LINE
  5
237
330
1A1
100
AcDbEntity
  8
1
  6
Continuous
 62
     7
100
AcDbLine
 10
934.2615871055464
 20
-206.0391581840174
 30
0.0
 11
926.98848313696
 21
-206.0391581840174
 31
0.0
  0
LINE
  5
238
330
1A1
100
AcDbEntity
  8
1
  6
Continuous
 62
     7
100
AcDbLine
 10
1042.98848313696
 20
-218.0058371872268
 30
0.0
 11
1042.98848313696
 21
-233.0169441861611
 31
0.0
  0
LINE
  5
239
330
1A1
100
AcDbEntity
  8
1
  6
Continuous
 62
     7
100
AcDbLine
 10
1042.98848313696
 20
-245.7186501083356
 30
0.0
 11
1042.98848313696
 21
-260.7297571072569
 31
0.0
  0
LINE
  5
23A
330
1A1
100
AcDbEntity
  8
1
  6
Continuous
 62
     7
100
AcDbLine
 10
943.9884831369609
 20
-322.4233321419005
 30
0.0
 11
934.2615871055464
 21
-328.0391581840169
 31
0.0
  0
LINE
  5
23B
330
1A1
100
AcDbEntity
  8
1
  6
Continuous
 62
     7
100
AcDbLine
 10
926.9884831369604
 20
-312.6083775656766
 30
0.0
 11
943.988483136955
 21
-322.4233321418973
 31
0.0
  0
LINE
  5
23C
330
1A1
100
AcDbEntity
  8
1
  6
Continuous
 62
     7
100
AcDbLine
 10
991.9884831369559
 20
-322.4233321418975
 30
0.0
 11
982.2615871055366
 21
-328.0391581840169
 31
0.0
  0
LINE
  5
23D
330
1A1
100
AcDbEntity
  8
1
  6
Continuous
 62
     7
100
AcDbLine
 10
967.7153791683745
 20
-328.0391581840169
 30
0.0
 11
957.9884831369554
 21
-322.4233321418974
 31
0.0
  0
LINE
  5
23E
330
1A1
100
AcDbEntity
  8
1
  6
Continuous
 62
     7
100
AcDbLine
 10
957.9884831369554
 20
-322.4233321418974
 30
0.0
 11
974.9884831369557
 21
-312.6083775656737
 31
0.0
  0
LINE
  5
23F
330
1A1
100
AcDbEntity
  8
1
  6
Continuous
 62
     7
100
AcDbLine
 10
974.9884831369557
 20
-312.6083775656737
 30
0.0
 11
991.9884831369504
 21
-322.4233321418943
 31
0.0
  0
LINE
  5
240
330
1A1
100
AcDbEntity
  8
1
  6
Continuous
 62
     7
100
AcDbLine
 10
1039.988483136951
 20
-322.4233321418945
 30
0.0
 11
1030.261587105527
 21
-328.0391581840169
 31
0.0
  0
LINE
  5
241
330
1A1
100
AcDbEntity
  8
1
  6
Continuous
 62
     7
100
AcDbLine
 10
1015.715379168375
 20
-328.0391581840169
 30
0.0
 11
1005.98848313695
 21
-322.4233321418944
 31
0.0
  0
LINE
  5
242
330
1A1
100
AcDbEntity
  8
1
  6
Continuous
 62
     7
100
AcDbLine
 10
1005.98848313695
 20
-322.4233321418944
 30
0.0
 11
1022.988483136951
 21
-312.6083775656708
 31
0.0
  0
LINE
  5
243
330
1A1
100
AcDbEntity
  8
1
  6
Continuous
 62
     7
100
AcDbLine
 10
1022.988483136951
 20
-312.6083775656708
 30
0.0
 11
1039.988483136945
 21
-322.4233321418914
 31
0.0
  0
LINE
  5
244
330
1A1
100
AcDbEntity
  8
1
  6
Continuous
 62
     7
100
AcDbLine
 10
967.9884831369668
 20
-308.5669256813462
 30
0.0
 11
950.9884831369664
 21
-318.3818802575699
 31
0.0
  0
LINE
  5
245
330
1A1
100
AcDbEntity
  8
1
  6
Continuous
 62
     7
100
AcDbLine
 10
950.9884831369664
 20
-318.3818802575699
 30
0.0
 11
933.9884831369664
 21
-308.5669256813461
 31
0.0
  0
LINE
  5
246
330
1A1
100
AcDbEntity
  8
1
  6
Continuous
 62
     7
100
AcDbLine
 10
933.9884831369664
 20
-308.5669256813461
 30
0.0
 11
950.9884831369668
 21
-298.7519711051224
 31
0.0
  0
LINE
  5
247
330
1A1
100
AcDbEntity
  8
1
  6
Continuous
 62
     7
100
AcDbLine
 10
950.9884831369668
 20
-298.7519711051224
 30
0.0
 11
967.9884831369613
 21
-308.566925681343
 31
0.0
  0
LINE
  5
248
330
1A1
100
AcDbEntity
  8
1
  6
Continuous
 62
     7
100
AcDbLine
 10
1015.988483136962
 20
-308.5669256813433
 30
0.0
 11
998.9884831369618
 21
-318.381880257567
 31
0.0
  0
LINE
  5
249
330
1A1
100
AcDbEntity
  8
1
  6
Continuous
 62
     7
100
AcDbLine
 10
998.9884831369618
 20
-318.381880257567
 30
0.0
 11
981.9884831369613
 21
-308.5669256813432
 31
0.0
  0
LINE
  5
24A
330
1A1
100
AcDbEntity
  8
1
  6
Continuous
 62
     7
100
AcDbLine
 10
981.9884831369613
 20
-308.5669256813432
 30
0.0
 11
998.9884831369618
 21
-298.7519711051194
 31
0.0
  0
LINE
  5
24B
330
1A1
100
AcDbEntity
  8
1
  6
Continuous
 62
     7
100
AcDbLine
 10
998.9884831369618
 20
-298.7519711051194
 30
0.0
 11
1015.988483136956
 21
-308.5669256813401
 31
0.0
  0
LINE
  5
24C
330
1A1
100
AcDbEntity
  8
1
  6
Continuous
 62
     7
100
AcDbLine
 10
1042.98848313696
 20
-316.0724791808075
 30
0.0
 11
1029.988483136957
 21
-308.5669256813402
 31
0.0
  0
LINE
  5
24D
330
1A1
100
AcDbEntity
  8
1
  6
Continuous
 62
     7
100
AcDbLine
 10
1029.988483136957
 20
-308.5669256813402
 30
0.0
 11
1042.98848313696
 21
-301.0613721818731
 31
0.0
  0
LINE
  5
24E
330
1A1
100
AcDbEntity
  8
1
  6
Continuous
 62
     7
100
AcDbLine
 10
943.9884831369718
 20
-294.7105192207919
 30
0.0
 11
926.9884831369714
 21
-304.5254737970156
 31
0.0
  0
LINE
  5
24F
330
1A1
100
AcDbEntity
  8
1
  6
Continuous
 62
     7
100
AcDbLine
 10
934.1653976732114
 20
-289.0391581840172
 30
0.0
 11
943.9884831369664
 21
-294.7105192207887
 31
0.0
  0
LINE
  5
250
330
1A1
100
AcDbEntity
  8
1
  6
Continuous
 62
     7
100
AcDbLine
 10
991.988483136967
 20
-294.7105192207889
 30
0.0
 11
974.9884831369666
 21
-304.5254737970126
 31
0.0
  0
LINE
  5
251
330
1A1
100
AcDbEntity
  8
1
  6
Continuous
 62
     7
100
AcDbLine
 10
974.9884831369666
 20
-304.5254737970126
 30
0.0
 11
957.9884831369664
 21
-294.7105192207888
 31
0.0
  0
LINE
  5
252
330
1A1
100
AcDbEntity
  8
1
  6
Continuous
 62
     7
100
AcDbLine
 10
957.9884831369664
 20
-294.7105192207888
 30
0.0
 11
967.8115686007213
 21
-289.0391581840172
 31
0.0
  0
LINE
  5
253
330
1A1
100
AcDbEntity
  8
1
  6
Continuous
 62
     7
100
AcDbLine
 10
982.1653976732118
 20
-289.0391581840172
 30
0.0
 11
991.9884831369613
 21
-294.7105192207857
 31
0.0
  0
LINE
  5
254
330
1A1
100
AcDbEntity
  8
1
  6
Continuous
 62
     7
100
AcDbLine
 10
1039.988483136962
 20
-294.710519220786
 30
0.0
 11
1022.988483136962
 21
-304.5254737970097
 31
0.0
  0
LINE
  5
255
330
1A1
100
AcDbEntity
  8
1
  6
Continuous
 62
     7
100
AcDbLine
 10
1022.988483136962
 20
-304.5254737970097
 30
0.0
 11
1005.988483136961
 21
-294.7105192207858
 31
0.0
  0
LINE
  5
256
330
1A1
100
AcDbEntity
  8
1
  6
Continuous
 62
     7
100
AcDbLine
 10
1005.988483136961
 20
-294.7105192207858
 30
0.0
 11
1022.988483136962
 21
-284.8955646445622
 31
0.0
  0
LINE
  5
257
330
1A1
100
AcDbEntity
  8
1
  6
Continuous
 62
     7
100
AcDbLine
 10
1022.988483136962
 20
-284.8955646445622
 30
0.0
 11
1039.988483136956
 21
-294.7105192207828
 31
0.0
  0
LINE
  5
258
330
1A1
100
AcDbEntity
  8
1
  6
Continuous
 62
     7
100
AcDbLine
 10
1015.988483136973
 20
-280.8541127602409
 30
0.0
 11
998.988483136973
 21
-290.6690673364646
 31
0.0
  0
LINE
  5
259
330
1A1
100
AcDbEntity
  8
1
  6
Continuous
 62
     7
100
AcDbLine
 10
998.988483136973
 20
-290.6690673364646
 30
0.0
 11
981.9884831369727
 21
-280.8541127602408
 31
0.0
  0
LINE
  5
25A
330
1A1
100
AcDbEntity
  8
1
  6
Continuous
 62
     7
100
AcDbLine
 10
981.9884831369727
 20
-280.8541127602408
 30
0.0
 11
998.9884831369732
 21
-271.0391581840172
 31
0.0
  0
LINE
  5
25B
330
1A1
100
AcDbEntity
  8
1
  6
Continuous
 62
     7
100
AcDbLine
 10
998.9884831369732
 20
-271.0391581840172
 30
0.0
 11
1015.988483136968
 21
-280.8541127602377
 31
0.0
  0
LINE
  5
25C
330
1A1
100
AcDbEntity
  8
1
  6
Continuous
 62
     7
100
AcDbLine
 10
1042.98848313696
 20
-288.3596662596987
 30
0.0
 11
1029.988483136968
 21
-280.854112760238
 31
0.0
  0
LINE
  5
25D
330
1A1
100
AcDbEntity
  8
1
  6
Continuous
 62
     7
100
AcDbLine
 10
1029.988483136968
 20
-280.854112760238
 30
0.0
 11
1042.98848313696
 21
-273.3485592607774
 31
0.0
  0
LINE
  5
25E
330
1A1
100
AcDbEntity
  8
1
  6
Continuous
 62
     7
100
AcDbLine
 10
1030.261587105527
 20
-328.0391581840169
 30
0.0
 11
1015.715379168375
 21
-328.0391581840169
 31
0.0
  0
LINE
  5
25F
330
1A1
100
AcDbEntity
  8
1
  6
Continuous
 62
     7
100
AcDbLine
 10
982.2615871055366
 20
-328.0391581840169
 30
0.0
 11
967.7153791683745
 21
-328.0391581840169
 31
0.0
  0
LINE
  5
260
330
1A1
100
AcDbEntity
  8
1
  6
Continuous
 62
     7
100
AcDbLine
 10
934.2615871055464
 20
-328.0391581840169
 30
0.0
 11
926.98848313696
 21
-328.0391581840169
 31
0.0
  0
LINE
  5
261
330
1A1
100
AcDbEntity
  8
1
  6
Continuous
 62
     7
100
AcDbLine
 10
1042.98848313696
 20
-316.0724791808075
 30
0.0
 11
1042.98848313696
 21
-301.0613721818731
 31
0.0
  0
LINE
  5
262
330
1A1
100
AcDbEntity
  8
1
  6
Continuous
 62
     7
100
AcDbLine
 10
1042.98848313696
 20
-288.3596662596987
 30
0.0
 11
1042.98848313696
 21
-273.3485592607774
 31
0.0
  0
LINE
  5
263
330
1A1
100
AcDbEntity
  8
1
  6
Continuous
 62
     7
100
AcDbLine
 10
991.988483136967
 20
-267.0391581840173
 30
0.0
 11
978.98848313696
 21
-274.5447116834863
 31
0.0
  0
LINE
  5
264
330
1A1
100
AcDbEntity
  8
1
  6
Continuous
 62
     7
100
AcDbLine
 10
978.98848313696
 20
-259.5336046845482
 30
0.0
 11
991.9884831369613
 21
-267.0391581840141
 31
0.0
  0
CIRCLE
  5
265
330
1A1
100
AcDbEntity
  8
1
  6
Continuous
 62
     7
100
AcDbCircle
 10
1021.98848313696
 20
-267.0391581840172
 30
0.0
 40
8.5
  0
LINE
  5
266
330
1A1
100
AcDbEntity
  8
1
  6
Continuous
 62
     7
100
AcDbLine
 10
971.98848313696
 20
-252.0391581840172
 30
0.0
 11
881.9884831369602
 21
-252.0391581840172
 31
0.0
  0
LINE
  5
267
330
1A1
100
AcDbEntity
  8
1
  6
Continuous
 62
     7
100
AcDbLine
 10
881.9884831369602
 20
-252.0391581840172
 30
0.0
 11
881.98848313696
 21
-282.0391581840171
 31
0.0
  0
LINE
  5
268
330
1A1
100
AcDbEntity
  8
1
  6
Continuous
 62
     7
100
AcDbLine
 10
881.98848313696
 20
-282.0391581840171
 30
0.0
 11
971.98848313696
 21
-282.0391581840172
 31
0.0
  0
LINE
  5
269
330
1A1
100
AcDbEntity
  8
1
  6
Continuous
 62
     7
100
AcDbLine
 10
971.98848313696
 20
-282.0391581840172
 30
0.0
 11
971.98848313696
 21
-252.0391581840172
 31
0.0
  0
MTEXT
  5
26B
330
1A1
100
AcDbEntity
  8
1
  6
Continuous
 62
     7
100
AcDbMText
 10
884.8733784911061
 20
-280.0391581840173
 30
0.0
 40
26.0
 41
0.0
 71
     7
 72
     5
  1
{\fHG丸ｺﾞｼｯｸM-PRO|b1|i0|c128|p50;\W1.0;散水栓}
  7
MTSTANDARD5
 73
     1
 44
0.625
  0
LINE
  5
26C
330
1A1
100
AcDbEntity
  8
1
  6
Continuous
 62
     7
100
AcDbLine
 10
871.8115686007086
 20
-245.0391581840172
 30
0.0
 11
886.1653976731991
 21
-245.0391581840172
 31
0.0
  0
LINE
  5
26D
330
1A1
100
AcDbEntity
  8
1
  6
Continuous
 62
     7
100
AcDbLine
 10
919.811568600709
 20
-245.0391581840172
 30
0.0
 11
934.1653976732114
 21
-245.0391581840172
 31
0.0
  0
LINE
  5
26E
330
1A1
100
AcDbEntity
  8
1
  6
Continuous
 62
     7
100
AcDbLine
 10
967.8115686007213
 20
-245.0391581840172
 30
0.0
 11
982.1653976732118
 21
-245.0391581840172
 31
0.0
  0
LINE
  5
26F
330
1A1
100
AcDbEntity
  8
1
  6
Continuous
 62
     7
100
AcDbLine
 10
871.8115686007086
 20
-289.0391581840172
 30
0.0
 11
886.1653976731989
 21
-289.0391581840172
 31
0.0
  0
LINE
  5
270
330
1A1
100
AcDbEntity
  8
1
  6
Continuous
 62
     7
100
AcDbLine
 10
919.8115686007086
 20
-289.0391581840172
 30
0.0
 11
934.1653976732114
 21
-289.0391581840172
 31
0.0
  0
LINE
  5
271
330
1A1
100
AcDbEntity
  8
1
  6
Continuous
 62
     7
100
AcDbLine
 10
967.8115686007213
 20
-289.0391581840172
 30
0.0
 11
982.1653976732118
 21
-289.0391581840172
 31
0.0
  0
LINE
  5
272
330
1A1
100
AcDbEntity
  8
1
  6
Continuous
 62
     7
100
AcDbLine
 10
978.98848313696
 20
-274.5447116834862
 30
0.0
 11
978.98848313696
 21
-259.5336046845482
 31
0.0
  0
LINE
  5
273
330
1A1
100
AcDbEntity
  8
1
  6
Continuous
 62
     7
100
AcDbLine
 10
874.98848313696
 20
-274.5447116834863
 30
0.0
 11
874.98848313696
 21
-259.5336046845482
 31
0.0
  0
LINE
  5
274
330
1A1
100
AcDbEntity
  8
1
  6
Continuous
 62
     7
100
AcDbLine
 10
911.3884831369601
 20
-337.0391581840172
 30
0.0
 11
916.1531890193132
 21
-337.0391581840172
 31
0.0
  0
ARC
  5
275
330
1A1
100
AcDbEntity
  8
1
  6
Continuous
 62
     7
100
AcDbCircle
 10
921.826718431078
 20
-338.6273934781348
 30
0.0
 40
1.588235294117653
100
AcDbArc
 50
90.0
 51
180.0
  0
LINE
  5
276
330
1A1
100
AcDbEntity
  8
1
  6
Continuous
 62
     7
100
AcDbLine
 10
927.9149537251956
 20
-337.0391581840172
 30
0.0
 11
921.826718431078
 21
-337.0391581840172
 31
0.0
  0
ARC
  5
277
330
1A1
100
AcDbEntity
  8
1
  6
Continuous
 62
     7
100
AcDbCircle
 10
927.9149537251956
 20
-338.6273934781348
 30
0.0
 40
1.588235294117653
100
AcDbArc
 50
0.0
 51
90.0
  0
LINE
  5
278
330
1A1
100
AcDbEntity
  8
1
  6
Continuous
 62
     7
100
AcDbLine
 10
916.1531890193132
 20
-346.0391581840172
 30
0.0
 11
911.3884831369601
 21
-346.0391581840172
 31
0.0
  0
LINE
  5
279
330
1A1
100
AcDbEntity
  8
1
  6
Continuous
 62
     7
100
AcDbLine
 10
927.3855419604897
 20
-344.9803346546055
 30
0.0
 11
927.3855419604897
 21
-346.0391581840172
 31
0.0
  0
LINE
  5
27A
330
1A1
100
AcDbEntity
  8
1
  6
Continuous
 62
     7
100
AcDbLine
 10
927.3855419604897
 20
-346.0391581840172
 30
0.0
 11
929.5031890193131
 21
-346.0391581840172
 31
0.0
  0
ARC
  5
27B
330
1A1
100
AcDbEntity
  8
1
  6
Continuous
 62
     7
100
AcDbCircle
 10
921.826718431078
 20
-344.4509228898996
 30
0.0
 40
1.588235294117653
100
AcDbArc
 50
180.0
 51
270.0
  0
LINE
  5
27C
330
1A1
100
AcDbEntity
  8
1
  6
Continuous
 62
     7
100
AcDbLine
 10
921.826718431078
 20
-346.0391581840172
 30
0.0
 11
922.3561301957839
 21
-346.0391581840172
 31
0.0
  0
LINE
  5
27D
330
1A1
100
AcDbEntity
  8
1
  6
Continuous
 62
     7
100
AcDbLine
 10
920.23848313696
 20
-344.4509228898996
 30
0.0
 11
920.23848313696
 21
-338.6273934781348
 31
0.0
  0
ARC
  5
27E
330
1A1
100
AcDbEntity
  8
1
  6
Continuous
 62
     7
100
AcDbCircle
 10
941.0002478428423
 20
-338.6273934781348
 30
0.0
 40
1.588235294117653
100
AcDbArc
 50
0.0
 51
90.0
  0
LINE
  5
27F
330
1A1
100
AcDbEntity
  8
1
  6
Continuous
 62
     7
100
AcDbLine
 10
935.1767184310779
 20
-337.0391581840172
 30
0.0
 11
941.0002478428423
 21
-337.0391581840172
 31
0.0
  0
ARC
  5
280
330
1A1
100
AcDbEntity
  8
1
  6
Continuous
 62
     7
100
AcDbCircle
 10
935.1767184310779
 20
-338.6273934781348
 30
0.0
 40
1.588235294117653
100
AcDbArc
 50
90.0
 51
180.0
  0
ARC
  5
281
330
1A1
100
AcDbEntity
  8
1
  6
Continuous
 62
     7
100
AcDbCircle
 10
935.1767184310779
 20
-344.4509228898996
 30
0.0
 40
1.588235294117653
100
AcDbArc
 50
180.0
 51
270.0
  0
LINE
  5
282
330
1A1
100
AcDbEntity
  8
1
  6
Continuous
 62
     7
100
AcDbLine
 10
941.0002478428423
 20
-346.0391581840172
 30
0.0
 11
935.1767184310779
 21
-346.0391581840172
 31
0.0
  0
ARC
  5
283
330
1A1
100
AcDbEntity
  8
1
  6
Continuous
 62
     7
100
AcDbCircle
 10
941.0002478428423
 20
-344.4509228898996
 30
0.0
 40
1.588235294117653
100
AcDbArc
 50
270.0
 51
0.0
  0
LINE
  5
284
330
1A1
100
AcDbEntity
  8
1
  6
Continuous
 62
     7
100
AcDbLine
 10
933.5884831369603
 20
-344.4509228898996
 30
0.0
 11
933.5884831369603
 21
-343.1273934781348
 31
0.0
  0
LINE
  5
285
330
1A1
100
AcDbEntity
  8
1
  6
Continuous
 62
     7
100
AcDbLine
 10
942.5884831369603
 20
-338.6273934781348
 30
0.0
 11
942.5884831369603
 21
-339.9509228898996
 31
0.0
  0
LINE
  5
286
330
1A1
100
AcDbEntity
  8
1
  6
Continuous
 62
     7
100
AcDbLine
 10
929.5031890193131
 20
-339.6862170075465
 30
0.0
 11
927.6502478428424
 21
-339.6862170075465
 31
0.0
  0
LINE
  5
287
330
1A1
100
AcDbEntity
  8
1
  6
Continuous
 62
     7
100
AcDbLine
 10
927.6502478428424
 20
-339.6862170075465
 30
0.0
 11
927.6502478428424
 21
-338.8920993604879
 31
0.0
  0
LINE
  5
288
330
1A1
100
AcDbEntity
  8
1
  6
Continuous
 62
     7
100
AcDbLine
 10
927.6502478428424
 20
-338.8920993604879
 30
0.0
 11
922.0914243134307
 21
-338.8920993604879
 31
0.0
  0
LINE
  5
289
330
1A1
100
AcDbEntity
  8
1
  6
Continuous
 62
     7
100
AcDbLine
 10
922.0914243134307
 20
-338.8920993604879
 30
0.0
 11
922.0914243134307
 21
-344.1862170075465
 31
0.0
  0
LINE
  5
28A
330
1A1
100
AcDbEntity
  8
1
  6
Continuous
 62
     7
100
AcDbLine
 10
927.6502478428424
 20
-342.3332758310762
 30
0.0
 11
925.0031890193131
 21
-342.3332758310762
 31
0.0
  0
LINE
  5
28B
330
1A1
100
AcDbEntity
  8
1
  6
Continuous
 62
     7
100
AcDbLine
 10
925.0031890193131
 20
-342.3332758310762
 30
0.0
 11
925.0031890193131
 21
-340.7450405369582
 31
0.0
  0
LINE
  5
28C
330
1A1
100
AcDbEntity
  8
1
  6
Continuous
 62
     7
100
AcDbLine
 10
929.5031890193131
 20
-339.6862170075465
 30
0.0
 11
929.5031890193131
 21
-338.6273934781348
 31
0.0
  0
LINE
  5
28D
330
1A1
100
AcDbEntity
  8
1
  6
Continuous
 62
     7
100
AcDbLine
 10
927.6502478428424
 20
-343.1273934781348
 30
0.0
 11
927.6502478428424
 21
-342.3332758310762
 31
0.0
  0
LINE
  5
28E
330
1A1
100
AcDbEntity
  8
1
  6
Continuous
 62
     7
100
AcDbLine
 10
927.9149537251956
 20
-340.7450405369582
 30
0.0
 11
925.0031890193131
 21
-340.7450405369582
 31
0.0
  0
LINE
  5
28F
330
1A1
100
AcDbEntity
  8
1
  6
Continuous
 62
     7
100
AcDbLine
 10
929.5031890193131
 20
-342.3332758310762
 30
0.0
 11
929.5031890193131
 21
-346.0391581840172
 31
0.0
  0
ARC
  5
290
330
1A1
100
AcDbEntity
  8
1
  6
Continuous
 62
     7
100
AcDbCircle
 10
927.9149537251956
 20
-342.3332758310762
 30
0.0
 40
1.588235294117653
100
AcDbArc
 50
0.0
 51
90.0
  0
LINE
  5
291
330
1A1
100
AcDbEntity
  8
1
  6
Continuous
 62
     7
100
AcDbLine
 10
925.4623043154543
 20
-343.1273934781348
 30
0.0
 11
927.6502478428424
 21
-343.1273934781348
 31
0.0
  0
ARC
  5
292
330
1A1
100
AcDbEntity
  8
1
  6
Continuous
 62
     7
100
AcDbCircle
 10
925.4623043154543
 20
-344.7156287722523
 30
0.0
 40
1.588235294117653
100
AcDbArc
 50
90.0
 51
119.7448812968914
  0
LINE
  5
293
330
1A1
100
AcDbEntity
  8
1
  6
Continuous
 62
     7
100
AcDbLine
 10
922.7658055153124
 20
-344.1862170075465
 30
0.0
 11
922.0914243134307
 21
-344.1862170075465
 31
0.0
  0
LINE
  5
294
330
1A1
100
AcDbEntity
  8
1
  6
Continuous
 62
     7
100
AcDbLine
 10
923.5537908880069
 20
-343.9769561156459
 30
0.0
 11
924.6743189427607
 21
-343.3366543700354
 31
0.0
  0
ARC
  5
295
330
1A1
100
AcDbEntity
  8
1
  6
Continuous
 62
     7
100
AcDbCircle
 10
922.7658055153124
 20
-342.5979817134289
 30
0.0
 40
1.588235294117653
100
AcDbArc
 50
270.0
 51
299.7448812969056
  0
ARC
  5
296
330
1A1
100
AcDbEntity
  8
1
  6
Continuous
 62
     7
100
AcDbCircle
 10
925.9543795959189
 20
-346.5685699487231
 30
0.0
 40
1.588235294117653
100
AcDbArc
 50
90.0
 51
119.7448812969056
  0
LINE
  5
297
330
1A1
100
AcDbEntity
  8
1
  6
Continuous
 62
     7
100
AcDbLine
 10
923.257880795777
 20
-346.0391581840172
 30
0.0
 11
921.826718431078
 21
-346.0391581840172
 31
0.0
  0
ARC
  5
298
330
1A1
100
AcDbEntity
  8
1
  6
Continuous
 62
     7
100
AcDbCircle
 10
923.257880795777
 20
-344.4509228898996
 30
0.0
 40
1.588235294117653
100
AcDbArc
 50
270.0
 51
299.7448812968914
  0
LINE
  5
299
330
1A1
100
AcDbEntity
  8
1
  6
Continuous
 62
     7
100
AcDbLine
 10
925.2750676356663
 20
-345.1274964536788
 30
0.0
 11
924.0458661684706
 21
-345.8298972921166
 31
0.0
  0
LINE
  5
29A
330
1A1
100
AcDbEntity
  8
1
  6
Continuous
 62
     7
100
AcDbLine
 10
925.9543795959189
 20
-344.9803346546055
 30
0.0
 11
927.3855419604897
 21
-344.9803346546055
 31
0.0
  0
LINE
  5
29B
330
1A1
100
AcDbEntity
  8
1
  6
Continuous
 62
     7
100
AcDbLine
 10
911.3884831369601
 20
-338.0979817134289
 30
0.0
 11
912.7120125487249
 21
-338.0979817134289
 31
0.0
  0
LINE
  5
29C
330
1A1
100
AcDbEntity
  8
1
  6
Continuous
 62
     7
100
AcDbLine
 10
912.7120125487249
 20
-338.0979817134289
 30
0.0
 11
912.7120125487249
 21
-344.9803346546055
 31
0.0
  0
LINE
  5
29D
330
1A1
100
AcDbEntity
  8
1
  6
Continuous
 62
     7
100
AcDbLine
 10
912.7120125487249
 20
-344.9803346546055
 30
0.0
 11
911.3884831369601
 21
-344.9803346546055
 31
0.0
  0
LINE
  5
29E
330
1A1
100
AcDbEntity
  8
1
  6
Continuous
 62
     7
100
AcDbLine
 10
914.8296596075484
 20
-344.9803346546055
 30
0.0
 11
916.1531890193132
 21
-344.9803346546055
 31
0.0
  0
LINE
  5
29F
330
1A1
100
AcDbEntity
  8
1
  6
Continuous
 62
     7
100
AcDbLine
 10
914.8296596075484
 20
-344.9803346546055
 30
0.0
 11
914.8296596075484
 21
-338.0979817134289
 31
0.0
  0
LINE
  5
2A0
330
1A1
100
AcDbEntity
  8
1
  6
Continuous
 62
     7
100
AcDbLine
 10
914.8296596075484
 20
-338.0979817134289
 30
0.0
 11
916.1531890193132
 21
-338.0979817134289
 31
0.0
  0
LINE
  5
2A1
330
1A1
100
AcDbEntity
  8
1
  6
Continuous
 62
     7
100
AcDbLine
 10
916.1531890193132
 20
-337.0391581840172
 30
0.0
 11
916.1531890193132
 21
-338.0979817134289
 31
0.0
  0
LINE
  5
2A2
330
1A1
100
AcDbEntity
  8
1
  6
Continuous
 62
     7
100
AcDbLine
 10
911.3884831369601
 20
-338.0979817134289
 30
0.0
 11
911.3884831369601
 21
-337.0391581840172
 31
0.0
  0
LINE
  5
2A3
330
1A1
100
AcDbEntity
  8
1
  6
Continuous
 62
     7
100
AcDbLine
 10
911.3884831369601
 20
-346.0391581840172
 30
0.0
 11
911.3884831369601
 21
-344.9803346546055
 31
0.0
  0
LINE
  5
2A4
330
1A1
100
AcDbEntity
  8
1
  6
Continuous
 62
     7
100
AcDbLine
 10
916.1531890193132
 20
-344.9803346546055
 30
0.0
 11
916.1531890193132
 21
-346.0391581840172
 31
0.0
  0
LINE
  5
2A5
330
1A1
100
AcDbEntity
  8
1
  6
Continuous
 62
     7
100
AcDbLine
 10
935.4414243134306
 20
-338.8920993604879
 30
0.0
 11
940.7355419604896
 21
-338.8920993604879
 31
0.0
  0
LINE
  5
2A6
330
1A1
100
AcDbEntity
  8
1
  6
Continuous
 62
     7
100
AcDbLine
 10
940.7355419604896
 20
-338.8920993604879
 30
0.0
 11
940.7355419604896
 21
-339.9509228898996
 31
0.0
  0
LINE
  5
2A7
330
1A1
100
AcDbEntity
  8
1
  6
Continuous
 62
     7
100
AcDbLine
 10
935.4414243134306
 20
-343.1273934781348
 30
0.0
 11
935.4414243134306
 21
-344.1862170075465
 31
0.0
  0
LINE
  5
2A8
330
1A1
100
AcDbEntity
  8
1
  6
Continuous
 62
     7
100
AcDbLine
 10
935.4414243134306
 20
-344.1862170075465
 30
0.0
 11
940.7355419604896
 21
-344.1862170075465
 31
0.0
  0
LINE
  5
2A9
330
1A1
100
AcDbEntity
  8
1
  6
Continuous
 62
     7
100
AcDbLine
 10
935.4414243134306
 20
-343.1273934781348
 30
0.0
 11
933.5884831369603
 21
-343.1273934781348
 31
0.0
  0
LINE
  5
2AA
330
1A1
100
AcDbEntity
  8
1
  6
Continuous
 62
     7
100
AcDbLine
 10
942.5884831369603
 20
-339.9509228898996
 30
0.0
 11
940.7355419604896
 21
-339.9509228898996
 31
0.0
  0
LINE
  5
2AB
330
1A1
100
AcDbEntity
  8
1
  6
Continuous
 62
     7
100
AcDbLine
 10
940.7355419604896
 20
-344.1862170075465
 30
0.0
 11
940.7355419604896
 21
-342.3332758310762
 31
0.0
  0
LINE
  5
2AC
330
1A1
100
AcDbEntity
  8
1
  6
Continuous
 62
     7
100
AcDbLine
 10
935.4414243134306
 20
-340.7450405369582
 30
0.0
 11
935.4414243134306
 21
-338.8920993604879
 31
0.0
  0
LINE
  5
2AD
330
1A1
100
AcDbEntity
  8
1
  6
Continuous
 62
     7
100
AcDbLine
 10
942.5884831369603
 20
-342.3332758310762
 30
0.0
 11
942.5884831369603
 21
-344.4509228898996
 31
0.0
  0
LINE
  5
2AE
330
1A1
100
AcDbEntity
  8
1
  6
Continuous
 62
     7
100
AcDbLine
 10
941.0002478428423
 20
-340.7450405369582
 30
0.0
 11
935.4414243134306
 21
-340.7450405369582
 31
0.0
  0
ARC
  5
2AF
330
1A1
100
AcDbEntity
  8
1
  6
Continuous
 62
     7
100
AcDbCircle
 10
941.0002478428423
 20
-342.3332758310762
 30
0.0
 40
1.588235294117653
100
AcDbArc
 50
0.0
 51
90.0
  0
LINE
  5
2B0
330
1A1
100
AcDbEntity
  8
1
  6
Continuous
 62
     7
100
AcDbLine
 10
935.1767184309497
 20
-342.3332758310762
 30
0.0
 11
940.7355419604896
 21
-342.3332758310762
 31
0.0
  0
LINE
  5
2B1
330
1A1
100
AcDbEntity
  8
1
  6
Continuous
 62
     7
100
AcDbLine
 10
933.5884831369603
 20
-340.7450405369582
 30
0.0
 11
933.5884831369603
 21
-338.6273934781348
 31
0.0
  0
ARC
  5
2B2
330
1A1
100
AcDbEntity
  8
1
  6
Continuous
 62
     7
100
AcDbCircle
 10
935.1767184309497
 20
-340.7450405369582
 30
0.0
 40
1.588235294117653
100
AcDbArc
 50
180.0
 51
270.0
  0
POINT
  5
2B3
330
1A1
100
AcDbEntity
  8
1
  6
Continuous
 62
     7
100
AcDbPoint
 10
911.3884831369601
 20
-337.0391581840172
 30
0.0
  0
POINT
  5
2B4
330
1A1
100
AcDbEntity
  8
1
  6
Continuous
 62
     7
100
AcDbPoint
 10
911.3884831369601
 20
-346.0391581840172
 30
0.0
  0
POINT
  5
2B5
330
1A1
100
AcDbEntity
  8
1
  6
Continuous
 62
     7
100
AcDbPoint
 10
942.5884831369603
 20
-346.0391581840172
 30
0.0
  0
POINT
  5
2B6
330
1A1
100
AcDbEntity
  8
1
  6
Continuous
 62
     7
100
AcDbPoint
 10
942.5884831369603
 20
-337.0391581840172
 30
0.0
  0
POINT
  5
2B7
330
1A1
100
AcDbEntity
  8
1
  6
Continuous
 62
     7
100
AcDbPoint
 10
923.6796596076656
 20
-346.0391581840172
 30
0.0
  0
POINT
  5
2B8
330
1A1
100
AcDbEntity
  8
1
  6
Continuous
 62
     7
100
AcDbPoint
 10
925.5326007840299
 20
-344.9803346546055
 30
0.0
  0
POINT
  5
2B9
330
1A1
100
AcDbEntity
  8
1
  6
Continuous
 62
     7
100
AcDbPoint
 10
923.1875843272014
 20
-344.1862170075465
 30
0.0
  0
POINT
  5
2BA
330
1A1
100
AcDbEntity
  8
1
  6
Continuous
 62
     7
100
AcDbPoint
 10
925.0405255035657
 20
-343.1273934781348
 30
0.0
  0
POINT
  5
2BB
330
1A1
100
AcDbEntity
  8
1
  6
Continuous
 62
     7
100
AcDbPoint
 10
926.98848313696
 20
-341.5391581840172
 30
0.0
  0
LINE
  5
2BC
330
1A1
100
AcDbEntity
  8
1
  6
CENTER2
 62
     5
100
AcDbLine
 10
831.98848313696
 20
-253.5391581840172
 30
0.0
 11
831.98848313696
 21
-280.5391581840172
 31
0.0
  0
LINE
  5
2BD
330
1A1
100
AcDbEntity
  8
1
  6
CENTER2
 62
     5
100
AcDbLine
 10
1021.98848313696
 20
-253.5391581840172
 30
0.0
 11
1021.98848313696
 21
-280.5391581840172
 31
0.0
  0
ENDBLK
  5
1A3
330
1A1
100
AcDbEntity
  8
0
100
AcDbBlockEnd
  0
BLOCK
  5
2C0
330
2BF
100
AcDbEntity
  8
0
100
AcDbBlockBegin
  2
BLK1
 70
     0
 10
927.7733784911061
 20
-466.4964030939377
 30
0.0
  3
BLK1
  1

  0
LINE
  5
2C2
330
2BF
100
AcDbEntity
  8
1
  6
Continuous
 62
     7
100
AcDbLine
 10
927.7733784911061
 20
-466.4964030939377
 30
0.0
 11
779.7733784911059
 21
-466.4964030939376
 31
0.0
  0
LINE
  5
2C3
330
2BF
100
AcDbEntity
  8
1
  6
Continuous
 62
     7
100
AcDbLine
 10
779.7733784911059
 20
-466.4964030939376
 30
0.0
 11
781.7733784911061
 21
-478.4964030939375
 31
0.0
  0
LINE
  5
2C4
330
2BF
100
AcDbEntity
  8
1
  6
Continuous
 62
     7
100
AcDbLine
 10
781.7733784911061
 20
-478.4964030939375
 30
0.0
 11
787.7733784911061
 21
-478.4964030939378
 31
0.0
  0
LINE
  5
2C5
330
2BF
100
AcDbEntity
  8
1
  6
Continuous
 62
     7
100
AcDbLine
 10
787.7733784911061
 20
-478.4964030939378
 30
0.0
 11
788.3175303351172
 21
-476.8639475619038
 31
0.0
  0
LINE
  5
2C6
330
2BF
100
AcDbEntity
  8
1
  6
Continuous
 62
     7
100
AcDbLine
 10
790.2148969312184
 20
-475.4964030939376
 30
0.0
 11
803.366560988763
 21
-475.4964030939376
 31
0.0
  0
LINE
  5
2C7
330
2BF
100
AcDbEntity
  8
1
  6
Continuous
 62
     7
100
AcDbLine
 10
817.1801959934487
 20
-475.4964030939376
 30
0.0
 11
820.7733784911061
 21
-475.4964030939375
 31
0.0
  0
LINE
  5
2C8
330
2BF
100
AcDbEntity
  8
1
  6
Continuous
 62
     7
100
AcDbLine
 10
844.7733784911061
 20
-475.4964030939376
 30
0.0
 11
927.7733784911059
 21
-475.4964030939376
 31
0.0
  0
LINE
  5
2C9
330
2BF
100
AcDbEntity
  8
1
  6
Continuous
 62
     7
100
AcDbLine
 10
824.2733784911061
 20
-466.4964030939377
 30
0.0
 11
820.5674961381646
 21
-475.4964030939376
 31
0.0
  0
LINE
  5
2CA
330
2BF
100
AcDbEntity
  8
1
  6
Continuous
 62
     7
100
AcDbLine
 10
841.2733784911061
 20
-466.4964030939377
 30
0.0
 11
844.9792608440471
 21
-475.4964030939376
 31
0.0
  0
LINE
  5
2CB
330
2BF
100
AcDbEntity
  8
1
  6
Continuous
 62
     7
100
AcDbLine
 10
805.3642867532135
 20
-477.4010523202053
 30
0.0
 11
806.1846772259296
 21
-494.5893258926425
 31
0.0
  0
LINE
  5
2CC
330
2BF
100
AcDbEntity
  8
1
  6
Continuous
 62
     7
100
AcDbLine
 10
808.1825173980856
 20
-496.4964030939376
 30
0.0
 11
812.3642395841264
 21
-496.4964030939376
 31
0.0
  0
LINE
  5
2CD
330
2BF
100
AcDbEntity
  8
1
  6
Continuous
 62
     7
100
AcDbLine
 10
814.3620797562826
 20
-494.5893258926425
 30
0.0
 11
815.1824702289987
 21
-477.4010523202053
 31
0.0
  0
LINE
  5
2CE
330
2BF
100
AcDbEntity
  8
1
  6
Continuous
 62
     7
100
AcDbLine
 10
805.6552157800033
 20
-483.4964030939377
 30
0.0
 11
814.8915412022084
 21
-483.4964030939376
 31
0.0
  0
LINE
  5
2CF
330
2BF
100
AcDbEntity
  8
1
  6
Continuous
 62
     7
100
AcDbLine
 10
805.989323407789
 20
-490.4964030939376
 30
0.0
 11
814.5574335744232
 21
-490.4964030939376
 31
0.0
  0
LINE
  5
2D0
330
2BF
100
AcDbEntity
  8
1
  6
Continuous
 62
     7
100
AcDbLine
 10
844.7733784911061
 20
-475.4964030939377
 30
0.0
 11
820.7733784911061
 21
-475.4964030939376
 31
0.0
  0
POINT
  5
2D1
330
2BF
100
AcDbEntity
  8
1
  6
Continuous
 62
     7
100
AcDbPoint
 10
788.7733784911061
 20
-475.4964030939376
 30
0.0
  0
POINT
  5
2D2
330
2BF
100
AcDbEntity
  8
1
  6
Continuous
 62
     7
100
AcDbPoint
 10
805.2733784911061
 20
-475.4964030939376
 30
0.0
  0
POINT
  5
2D3
330
2BF
100
AcDbEntity
  8
1
  6
Continuous
 62
     7
100
AcDbPoint
 10
815.2733784911061
 20
-475.4964030939376
 30
0.0
  0
POINT
  5
2D4
330
2BF
100
AcDbEntity
  8
1
  6
Continuous
 62
     7
100
AcDbPoint
 10
814.2733784911061
 20
-496.4964030939376
 30
0.0
  0
POINT
  5
2D5
330
2BF
100
AcDbEntity
  8
1
  6
Continuous
 62
     7
100
AcDbPoint
 10
806.2733784911061
 20
-496.4964030939376
 30
0.0
  0
ARC
  5
2D6
330
2BF
100
AcDbEntity
  8
1
  6
Continuous
 62
     7
100
AcDbCircle
 10
808.1825173980856
 20
-494.4964030939376
 30
0.0
 40
2.0
100
AcDbArc
 50
182.6630007660673
 51
270.0
  0
ARC
  5
2D7
330
2BF
100
AcDbEntity
  8
1
  6
Continuous
 62
     7
100
AcDbCircle
 10
812.3642395841264
 20
-494.4964030939376
 30
0.0
 40
2.0
100
AcDbArc
 50
270.0
 51
357.3369992339331
  0
LINE
  5
2D8
330
2BF
100
AcDbEntity
  8
1
  6
Continuous
 62
     7
100
AcDbLine
 10
927.7733784911061
 20
-466.4964030939377
 30
0.0
 11
1014.273378491106
 21
-466.4964030939399
 31
0.0
  0
LINE
  5
2D9
330
2BF
100
AcDbEntity
  8
1
  6
Continuous
 62
     7
100
AcDbLine
 10
1031.273378491106
 20
-466.4964030939403
 30
0.0
 11
1075.773378491106
 21
-466.4964030939414
 31
0.0
  0
LINE
  5
2DA
330
2BF
100
AcDbEntity
  8
1
  6
Continuous
 62
     7
100
AcDbLine
 10
1075.693378491106
 20
-466.4964030939414
 30
0.0
 11
1073.773378491106
 21
-478.4964030939412
 31
0.0
  0
LINE
  5
2DB
330
2BF
100
AcDbEntity
  8
1
  6
Continuous
 62
     7
100
AcDbLine
 10
1073.773378491106
 20
-478.4964030939412
 30
0.0
 11
1067.773378491106
 21
-478.4964030939414
 31
0.0
  0
LINE
  5
2DC
330
2BF
100
AcDbEntity
  8
1
  6
Continuous
 62
     7
100
AcDbLine
 10
1067.773378491106
 20
-478.4964030939414
 30
0.0
 11
1067.229226647094
 21
-476.8639475619074
 31
0.0
  0
LINE
  5
2DD
330
2BF
100
AcDbEntity
  8
1
  6
Continuous
 62
     7
100
AcDbLine
 10
1065.331860050993
 20
-475.4964030939411
 30
0.0
 11
1034.773378491105
 21
-475.4964030939376
 31
0.0
  0
LINE
  5
2DE
330
2BF
100
AcDbEntity
  8
1
  6
Continuous
 62
     7
100
AcDbLine
 10
1010.773378491106
 20
-475.4964030939397
 30
0.0
 11
927.7733784911059
 21
-475.4964030939376
 31
0.0
  0
LINE
  5
2DF
330
2BF
100
AcDbEntity
  8
1
  6
Continuous
 62
     7
100
AcDbLine
 10
1031.273378491106
 20
-466.4964030939402
 30
0.0
 11
1014.273378491106
 21
-466.4964030939398
 31
0.0
  0
LINE
  5
2E0
330
2BF
100
AcDbEntity
  8
1
  6
Continuous
 62
     7
100
AcDbLine
 10
1010.773378491106
 20
-475.4964030939398
 30
0.0
 11
1034.773378491106
 21
-475.4964030939403
 31
0.0
  0
POINT
  5
2E1
330
2BF
100
AcDbEntity
  8
1
  6
Continuous
 62
     7
100
AcDbPoint
 10
1066.773378491106
 20
-475.4964030939411
 30
0.0
  0
LINE
  5
2E2
330
2BF
100
AcDbEntity
  8
1
  6
Continuous
 62
     7
100
AcDbLine
 10
791.7733784911061
 20
-466.4964030939377
 30
0.0
 11
791.7733784911061
 21
-469.4964030939377
 31
0.0
  0
LINE
  5
2E3
330
2BF
100
AcDbEntity
  8
1
  6
Continuous
 62
     7
100
AcDbLine
 10
791.7733784911061
 20
-469.4964030939377
 30
0.0
 11
804.7733784911061
 21
-469.4964030939377
 31
0.0
  0
LINE
  5
2E4
330
2BF
100
AcDbEntity
  8
1
  6
Continuous
 62
     7
100
AcDbLine
 10
804.7733784911061
 20
-469.4964030939377
 30
0.0
 11
804.7733784911061
 21
-466.4964030939377
 31
0.0
  0
LINE
  5
2E5
330
2BF
100
AcDbEntity
  8
1
  6
Continuous
 62
     7
100
AcDbLine
 10
862.7733784911047
 20
-466.4964030939377
 30
0.0
 11
862.7733784911047
 21
-469.4964030939377
 31
0.0
  0
LINE
  5
2E6
330
2BF
100
AcDbEntity
  8
1
  6
Continuous
 62
     7
100
AcDbLine
 10
862.7733784911047
 20
-469.4964030939377
 30
0.0
 11
875.7733784911061
 21
-469.4964030939377
 31
0.0
  0
LINE
  5
2E7
330
2BF
100
AcDbEntity
  8
1
  6
Continuous
 62
     7
100
AcDbLine
 10
875.7733784911061
 20
-469.4964030939377
 30
0.0
 11
875.7733784911061
 21
-466.4964030939377
 31
0.0
  0
LINE
  5
2E8
330
2BF
100
AcDbEntity
  8
1
  6
Continuous
 62
     7
100
AcDbLine
 10
882.7733784911061
 20
-469.4964030939377
 30
0.0
 11
882.7733784911061
 21
-466.4964030939377
 31
0.0
  0
LINE
  5
2E9
330
2BF
100
AcDbEntity
  8
1
  6
Continuous
 62
     7
100
AcDbLine
 10
882.7733784911061
 20
-469.4964030939377
 30
0.0
 11
972.7733784911061
 21
-469.4964030939379
 31
0.0
  0
LINE
  5
2EA
330
2BF
100
AcDbEntity
  8
1
  6
Continuous
 62
     7
100
AcDbLine
 10
972.7733784911061
 20
-469.4964030939377
 30
0.0
 11
972.7733784911061
 21
-466.4964030939377
 31
0.0
  0
LINE
  5
2EB
330
2BF
100
AcDbEntity
  8
1
  6
Continuous
 62
     7
100
AcDbLine
 10
1063.773378491106
 20
-466.4964030939377
 30
0.0
 11
1063.773378491106
 21
-469.4964030939377
 31
0.0
  0
LINE
  5
2EC
330
2BF
100
AcDbEntity
  8
1
  6
Continuous
 62
     7
100
AcDbLine
 10
1063.773378491106
 20
-469.4964030939377
 30
0.0
 11
1050.773378491106
 21
-469.4964030939377
 31
0.0
  0
LINE
  5
2ED
330
2BF
100
AcDbEntity
  8
1
  6
Continuous
 62
     7
100
AcDbLine
 10
1050.773378491106
 20
-469.4964030939377
 30
0.0
 11
1050.773378491106
 21
-466.4964030939377
 31
0.0
  0
LINE
  5
2EE
330
2BF
100
AcDbEntity
  8
1
  6
Continuous
 62
     7
100
AcDbLine
 10
992.773378491107
 20
-466.4964030939377
 30
0.0
 11
992.773378491107
 21
-469.4964030939377
 31
0.0
  0
LINE
  5
2EF
330
2BF
100
AcDbEntity
  8
1
  6
Continuous
 62
     7
100
AcDbLine
 10
992.773378491107
 20
-469.4964030939377
 30
0.0
 11
979.7733784911061
 21
-469.4964030939377
 31
0.0
  0
LINE
  5
2F0
330
2BF
100
AcDbEntity
  8
1
  6
Continuous
 62
     7
100
AcDbLine
 10
979.7733784911061
 20
-469.4964030939377
 30
0.0
 11
979.7733784911061
 21
-466.4964030939377
 31
0.0
  0
LINE
  5
2F1
330
2BF
100
AcDbEntity
  8
1
  6
Continuous
 62
     7
100
AcDbLine
 10
787.7733784911061
 20
-478.4964030939378
 30
0.0
 11
805.4165674744427
 21
-478.4964030939378
 31
0.0
  0
LINE
  5
2F2
330
2BF
100
AcDbEntity
  8
1
  6
Continuous
 62
     7
100
AcDbLine
 10
815.1301895077695
 20
-478.4964030939378
 30
0.0
 11
1067.773378491106
 21
-478.4964030939414
 31
0.0
  0
LINE
  5
2F3
330
2BF
100
AcDbEntity
  8
1
  6
Continuous
 62
     7
100
AcDbLine
 10
1031.273378491106
 20
-466.4964030939377
 30
0.0
 11
1034.979260844047
 21
-475.4964030939376
 31
0.0
  0
LINE
  5
2F4
330
2BF
100
AcDbEntity
  8
1
  6
Continuous
 62
     7
100
AcDbLine
 10
1014.273378491106
 20
-466.4964030939377
 30
0.0
 11
1010.567496138165
 21
-475.4964030939376
 31
0.0
  0
ARC
  5
2F5
330
2BF
100
AcDbEntity
  8
1
  6
Continuous
 62
     7
100
AcDbCircle
 10
790.2148969312184
 20
-477.4964030939376
 30
0.0
 40
2.0
100
AcDbArc
 50
90.0
 51
161.565051177077
  0
ARC
  5
2F6
330
2BF
100
AcDbEntity
  8
1
  6
Continuous
 62
     7
100
AcDbCircle
 10
803.366560988763
 20
-477.4964030939376
 30
0.0
 40
2.0
100
AcDbArc
 50
2.732634308306781
 51
90.0
  0
ARC
  5
2F7
330
2BF
100
AcDbEntity
  8
1
  6
Continuous
 62
     7
100
AcDbCircle
 10
817.1801959934489
 20
-477.4964030939376
 30
0.0
 40
2.0
100
AcDbArc
 50
90.00000000000651
 51
177.2673656916929
  0
ARC
  5
2F8
330
2BF
100
AcDbEntity
  8
1
  6
Continuous
 62
     7
100
AcDbCircle
 10
1065.331860050993
 20
-477.4964030939411
 30
0.0
 40
2.0
100
AcDbArc
 50
18.43494882292149
 51
90.0
  0
HATCH
  5
2F9
330
2BF
100
AcDbEntity
  8
1
  6
Continuous
 62
     7
100
AcDbHatch
 10
0.0
 20
0.0
 30
0.0
210
0.0
220
0.0
230
1.0
  2
_U
 70
     0
 71
     0
 91
        5
 92
        0
 93
       17
 72
     1
 10
824.2733784911061
 20
-466.4964030939376
 11
804.7733784911061
 21
-466.4964030939377
 72
     1
 10
804.7733784911061
 20
-466.4964030939377
 11
804.7733784911061
 21
-469.4964030939377
 72
     1
 10
804.7733784911061
 20
-469.4964030939377
 11
791.7733784911061
 21
-469.4964030939377
 72
     1
 10
791.7733784911061
 20
-469.4964030939377
 11
791.7733784911061
 21
-466.4964030939377
 72
     1
 10
791.7733784911061
 20
-466.4964030939376
 11
779.7733784911059
 21
-466.4964030939376
 72
     1
 10
779.7733784911059
 20
-466.4964030939376
 11
781.7733784911061
 21
-478.4964030939375
 72
     1
 10
781.7733784911061
 20
-478.4964030939375
 11
787.7733784911061
 21
-478.4964030939378
 72
     1
 10
787.7733784911061
 20
-478.4964030939378
 11
788.3175303351172
 21
-476.8639475619038
 72
     2
 10
790.2148969312184
 20
-477.4964030939376
 40
2.0
 50
198.434948822923
 51
270.0
 73
     0
 72
     1
 10
790.2148969312184
 20
-475.4964030939376
 11
803.366560988763
 21
-475.4964030939376
 72
     2
 10
803.366560988763
 20
-477.4964030939376
 40
2.0
 50
270.0
 51
357.2673656916933
 73
     0
 72
     1
 10
805.3642867532135
 20
-477.4010523202053
 11
805.6552157800033
 21
-483.4964030939377
 72
     1
 10
805.6552157800033
 20
-483.4964030939377
 11
814.8915412022084
 21
-483.4964030939376
 72
     1
 10
814.8915412022084
 20
-483.4964030939377
 11
815.1824702289987
 21
-477.4010523202053
 72
     2
 10
817.1801959934489
 20
-477.4964030939376
 40
2.0
 50
182.7326343083071
 51
269.9999999999935
 73
     0
 72
     1
 10
817.1801959934487
 20
-475.4964030939376
 11
820.5674961381646
 21
-475.4964030939376
 72
     1
 10
820.5674961381646
 20
-475.4964030939376
 11
824.2733784911061
 21
-466.4964030939377
 97
        0
 92
        0
 93
        6
 72
     1
 10
814.5574335744232
 20
-490.4964030939376
 11
805.989323407789
 21
-490.4964030939376
 72
     1
 10
805.989323407789
 20
-490.4964030939376
 11
806.1846772259296
 21
-494.5893258926425
 72
     2
 10
808.1825173980856
 20
-494.4964030939376
 40
2.0
 50
182.6630007660673
 51
270.0
 73
     1
 72
     1
 10
808.1825173980856
 20
-496.4964030939376
 11
812.3642395841264
 21
-496.4964030939376
 72
     2
 10
812.3642395841264
 20
-494.4964030939376
 40
2.0
 50
270.0
 51
357.3369992339331
 73
     1
 72
     1
 10
814.3620797562826
 20
-494.5893258926425
 11
814.5574335744232
 21
-490.4964030939376
 97
        0
 92
        0
 93
       10
 72
     1
 10
1014.273378491106
 20
-466.4964030939399
 11
992.773378491107
 21
-466.4964030939377
 72
     1
 10
992.773378491107
 20
-466.4964030939377
 11
992.773378491107
 21
-469.4964030939377
 72
     1
 10
992.773378491107
 20
-469.4964030939377
 11
979.7733784911061
 21
-469.4964030939377
 72
     1
 10
979.7733784911061
 20
-469.4964030939377
 11
979.7733784911061
 21
-466.4964030939377
 72
     1
 10
979.7733784911061
 20
-466.496403093939
 11
972.7733784911061
 21
-466.4964030939377
 72
     1
 10
972.7733784911061
 20
-466.4964030939377
 11
972.7733784911061
 21
-469.4964030939377
 72
     1
 10
972.7733784911061
 20
-469.4964030939379
 11
927.7733784911061
 21
-469.4964030939377
 72
     1
 10
927.7733784911061
 20
-469.4964030939377
 11
927.7733784911061
 21
-475.4964030939376
 72
     1
 10
927.7733784911059
 20
-475.4964030939376
 11
1010.567496138164
 21
-475.4964030939397
 72
     1
 10
1010.567496138165
 20
-475.4964030939376
 11
1014.273378491106
 21
-466.4964030939377
 97
        0
 92
        0
 93
       10
 72
     1
 10
927.7733784911061
 20
-469.4964030939378
 11
882.7733784911061
 21
-469.4964030939377
 72
     1
 10
882.7733784911061
 20
-469.4964030939377
 11
882.7733784911061
 21
-466.4964030939377
 72
     1
 10
882.7733784911061
 20
-466.4964030939377
 11
875.7733784911061
 21
-466.4964030939377
 72
     1
 10
875.7733784911061
 20
-466.4964030939377
 11
875.7733784911061
 21
-469.4964030939377
 72
     1
 10
875.7733784911061
 20
-469.4964030939377
 11
862.7733784911047
 21
-469.4964030939377
 72
     1
 10
862.7733784911047
 20
-469.4964030939377
 11
862.7733784911047
 21
-466.4964030939377
 72
     1
 10
862.7733784911047
 20
-466.4964030939377
 11
841.2733784911061
 21
-466.4964030939377
 72
     1
 10
841.2733784911061
 20
-466.4964030939377
 11
844.9792608440471
 21
-475.4964030939376
 72
     1
 10
844.9792608440471
 20
-475.4964030939376
 11
927.7733784911059
 21
-475.4964030939376
 72
     1
 10
927.7733784911061
 20
-475.4964030939376
 11
927.7733784911061
 21
-469.4964030939378
 97
        0
 92
        0
 93
       11
 72
     1
 10
1075.693378491106
 20
-466.4964030939414
 11
1063.773378491106
 21
-466.4964030939403
 72
     1
 10
1063.773378491106
 20
-466.4964030939377
 11
1063.773378491106
 21
-469.4964030939377
 72
     1
 10
1063.773378491106
 20
-469.4964030939377
 11
1050.773378491106
 21
-469.4964030939377
 72
     1
 10
1050.773378491106
 20
-469.4964030939377
 11
1050.773378491106
 21
-466.4964030939377
 72
     1
 10
1050.773378491106
 20
-466.4964030939408
 11
1031.273378491106
 21
-466.4964030939403
 72
     1
 10
1031.273378491106
 20
-466.4964030939377
 11
1034.979260844047
 21
-475.4964030939376
 72
     1
 10
1034.979260844047
 20
-475.4964030939372
 11
1065.331860050993
 21
-475.4964030939411
 72
     2
 10
1065.331860050993
 20
-477.4964030939411
 40
2.0
 50
270.0
 51
341.5650511770785
 73
     0
 72
     1
 10
1067.229226647094
 20
-476.8639475619074
 11
1067.773378491106
 21
-478.4964030939414
 72
     1
 10
1067.773378491106
 20
-478.4964030939414
 11
1073.773378491106
 21
-478.4964030939412
 72
     1
 10
1073.773378491106
 20
-478.4964030939412
 11
1075.693378491106
 21
-466.4964030939414
 97
        0
 75
     0
 76
     0
 52
45.0
 41
2.0
 77
     0
 78
     1
 53
45.0
 43
0.0
 44
0.0
 45
-1.414213562373095
 46
1.414213562373095
 79
     0
 98
        1
 10
0.0
 20
0.0
  0
ENDBLK
  5
2C1
330
2BF
100
AcDbEntity
  8
0
100
AcDbBlockEnd
  0
BLOCK
  5
36E
330
36D
100
AcDbEntity
  8
0
100
AcDbBlockBegin
  2
BLK2
 70
     0
 10
827.7733784911061
 20
-516.49574157052
 30
0.0
  3
BLK2
  1

  0
CIRCLE
  5
370
330
36D
100
AcDbEntity
  8
1
  6
Continuous
 62
     7
100
AcDbCircle
 10
827.7733784911061
 20
-516.49574157052
 30
0.0
 40
3.0
  0
CIRCLE
  5
371
330
36D
100
AcDbEntity
  8
1
  6
Continuous
 62
     3
100
AcDbCircle
 10
827.7733784911061
 20
-516.49574157052
 30
0.0
 40
2.4585
  0
LINE
  5
372
330
36D
100
AcDbEntity
  8
1
  6
Continuous
 62
     7
100
AcDbLine
 10
832.7733784911061
 20
-513.6089902245718
 30
0.0
 11
827.7733784911061
 21
-510.7222388786237
 31
0.0
  0
LINE
  5
373
330
36D
100
AcDbEntity
  8
1
  6
Continuous
 62
     7
100
AcDbLine
 10
827.7733784911061
 20
-510.7222388786237
 30
0.0
 11
822.7733784911061
 21
-513.6089902245718
 31
0.0
  0
LINE
  5
374
330
36D
100
AcDbEntity
  8
1
  6
Continuous
 62
     7
100
AcDbLine
 10
822.7733784911061
 20
-513.6089902245718
 30
0.0
 11
822.7733784911061
 21
-519.3824929164681
 31
0.0
  0
LINE
  5
375
330
36D
100
AcDbEntity
  8
1
  6
Continuous
 62
     7
100
AcDbLine
 10
822.7733784911061
 20
-519.3824929164681
 30
0.0
 11
827.7733784911061
 21
-522.2692442624162
 31
0.0
  0
LINE
  5
376
330
36D
100
AcDbEntity
  8
1
  6
Continuous
 62
     7
100
AcDbLine
 10
827.7733784911061
 20
-522.2692442624162
 30
0.0
 11
832.7733784911061
 21
-519.3824929164681
 31
0.0
  0
LINE
  5
377
330
36D
100
AcDbEntity
  8
1
  6
Continuous
 62
     7
100
AcDbLine
 10
832.7733784911061
 20
-519.3824929164681
 30
0.0
 11
832.7733784911061
 21
-513.6089902245718
 31
0.0
  0
CIRCLE
  5
378
330
36D
100
AcDbEntity
  8
1
  6
Continuous
 62
     7
100
AcDbCircle
 10
827.7733784911061
 20
-516.49574157052
 30
0.0
 40
5.0
  0
ENDBLK
  5
36F
330
36D
100
AcDbEntity
  8
0
100
AcDbBlockEnd
  0
ENDSEC
  0
SECTION
  2
ENTITIES
  0
LINE
  5
AF
330
1F
100
AcDbEntity
  8
1
  6
Continuous
 62
     7
100
AcDbLine
 10
646.7830351634402
 20
-94.41161336967662
 30
0.0
 11
1180.78303516344
 21
-94.41161336967662
 31
0.0
  0
LINE
  5
B0
330
1F
100
AcDbEntity
  8
1
  6
Continuous
 62
     7
100
AcDbLine
 10
1180.78303516344
 20
-94.41161336967662
 30
0.0
 11
1180.78303516344
 21
-834.4116133696766
 31
0.0
  0
LINE
  5
B1
330
1F
100
AcDbEntity
  8
1
  6
Continuous
 62
     7
100
AcDbLine
 10
646.7830351634402
 20
-834.4116133696766
 30
0.0
 11
646.7830351634402
 21
-94.41161336967662
 31
0.0
  0
LINE
  5
B2
330
1F
100
AcDbEntity
  8
1
  6
Continuous
 62
     7
100
AcDbLine
 10
646.7830351634402
 20
-834.4116133696766
 30
0.0
 11
1180.78303516344
 21
-834.4116133696766
 31
0.0
  0
LINE
  5
B3
330
1F
100
AcDbEntity
  8
1
  6
Continuous
 62
     7
100
AcDbLine
 10
688.7834251634399
 20
-834.4116133696766
 30
0.0
 11
1180.78303516344
 21
-834.4116133696766
 31
0.0
  0
LINE
  5
B4
330
1F
100
AcDbEntity
  8
1
  6
Continuous
 62
     7
100
AcDbLine
 10
660.6997018301067
 20
-738.0042059622692
 30
0.0
 11
900.6997018301067
 21
-738.0042059622692
 31
0.0
  0
LINE
  5
B5
330
1F
100
AcDbEntity
  8
1
  6
Continuous
 62
     7
100
AcDbLine
 10
900.6997018301065
 20
-722.0042059622692
 30
0.0
 11
900.6997018301067
 21
-786.0042059622692
 31
0.0
  0
LINE
  5
B6
330
1F
100
AcDbEntity
  8
1
  6
Continuous
 62
     7
100
AcDbLine
 10
660.6997018301067
 20
-722.0042059622692
 30
0.0
 11
660.6997018301067
 21
-786.0042059622692
 31
0.0
  0
LINE
  5
B7
330
1F
100
AcDbEntity
  8
1
  6
Continuous
 62
     7
100
AcDbLine
 10
660.6997018301067
 20
-722.0042059622692
 30
0.0
 11
900.6997018301067
 21
-722.0042059622692
 31
0.0
  0
LINE
  5
B8
330
1F
100
AcDbEntity
  8
1
  6
Continuous
 62
     7
100
AcDbLine
 10
660.6997018301067
 20
-754.0042059622692
 30
0.0
 11
840.6997018301063
 21
-754.0042059622692
 31
0.0
  0
LINE
  5
B9
330
1F
100
AcDbEntity
  8
1
  6
Continuous
 62
     7
100
AcDbLine
 10
660.6997018301067
 20
-770.0042059622692
 30
0.0
 11
900.6997018301065
 21
-770.0042059622692
 31
0.0
  0
LINE
  5
BA
330
1F
100
AcDbEntity
  8
1
  6
Continuous
 62
     7
100
AcDbLine
 10
660.6997018301067
 20
-786.0042059622692
 30
0.0
 11
900.6997018301067
 21
-786.0042059622692
 31
0.0
  0
LINE
  5
BB
330
1F
100
AcDbEntity
  8
1
  6
Continuous
 62
     7
100
AcDbLine
 10
680.6997018301067
 20
-722.0042059622692
 30
0.0
 11
680.6997018301067
 21
-786.0042059622692
 31
0.0
  0
LINE
  5
BC
330
1F
100
AcDbEntity
  8
1
  6
Continuous
 62
     7
100
AcDbLine
 10
740.6997018301067
 20
-786.0042059622692
 30
0.0
 11
740.6997018301067
 21
-722.0042059622692
 31
0.0
  0
LINE
  5
BD
330
1F
100
AcDbEntity
  8
1
  6
Continuous
 62
     7
100
AcDbLine
 10
840.6997018301063
 20
-722.0042059622692
 30
0.0
 11
840.6997018301063
 21
-786.0042059622692
 31
0.0
  0
MTEXT
  5
BF
330
1F
100
AcDbEntity
  8
1
  6
Continuous
 62
     7
100
AcDbMText
 10
662.6997018301067
 20
-734.0042059622692
 30
0.0
 40
8.0
 41
0.0
 71
     7
 72
     5
  1
{\fＭＳ 明朝|b0|i0|c128|p17;\W1.0;部番}
  7
MTSTANDARD
 73
     1
 44
0.9375
  0
MTEXT
  5
C0
330
1F
100
AcDbEntity
  8
1
  6
Continuous
 62
     7
100
AcDbMText
 10
698.6997018301067
 20
-734.0042059622692
 30
0.0
 40
8.0
 41
0.0
 71
     7
 72
     5
  1
{\fＭＳ 明朝|b0|i0|c128|p17;\W1.0;部品名}
  7
MTSTANDARD
 73
     1
 44
0.9375
  0
MTEXT
  5
C1
330
1F
100
AcDbEntity
  8
1
  6
Continuous
 62
     7
100
AcDbMText
 10
782.6997018301063
 20
-734.0042059622692
 30
0.0
 40
8.0
 41
0.0
 71
     7
 72
     5
  1
{\fＭＳ 明朝|b0|i0|c128|p17;\W1.0;材質}
  7
MTSTANDARD
 73
     1
 44
0.625
  0
MTEXT
  5
C2
330
1F
100
AcDbEntity
  8
1
  6
Continuous
 62
     7
100
AcDbMText
 10
862.6997018301063
 20
-734.0042059622692
 30
0.0
 40
8.0
 41
0.0
 71
     7
 72
     5
  1
{\fＭＳ 明朝|b0|i0|c128|p17;\W1.0;備考}
  7
MTSTANDARD
 73
     1
 44
0.9375
  0
INSERT
  5
C8
330
1F
100
AcDbEntity
  8
1
  6
ByBlock
 62
     3
100
AcDbBlockReference
  2
MAKR0
 10
670.2584079726457
 20
-745.8860512194365
 30
0.0
  0
INSERT
  5
CE
330
1F
100
AcDbEntity
  8
1
  6
ByBlock
 62
     3
100
AcDbBlockReference
  2
MAKR1
 10
670.2584079726457
 20
-761.8860512194365
 30
0.0
  0
INSERT
  5
D4
330
1F
100
AcDbEntity
  8
1
  6
ByBlock
 62
     3
100
AcDbBlockReference
  2
MAKR2
 10
670.2584079726457
 20
-777.8860512194365
 30
0.0
  0
MTEXT
  5
D5
330
1F
100
AcDbEntity
  8
1
  6
Continuous
 62
     7
100
AcDbMText
 10
706.6997018301067
 20
-750.0042059622692
 30
0.0
 40
8.0
 41
0.0
 71
     7
 72
     5
  1
{\fＭＳ 明朝|b0|i0|c128|p17;\W1.0;蓋}
  7
MTSTANDARD
 73
     1
 44
1.875
  0
MTEXT
  5
D6
330
1F
100
AcDbEntity
  8
1
  6
Continuous
 62
     7
100
AcDbMText
 10
746.6997018301063
 20
-750.0042059622692
 30
0.0
 40
8.0
 41
0.0
 71
     7
 72
     5
  1
{\fＭＳ 明朝|b0|i0|c128|p17;\W1.0;ＦＣＤ５００ダクタイル}
  7
MTSTANDARD
 73
     1
 44
1.875
  0
MTEXT
  5
D7
330
1F
100
AcDbEntity
  8
1
  6
Continuous
 62
     7
100
AcDbMText
 10
660.6997018301067
 20
-717.9104487195257
 30
0.0
 40
8.0
 41
0.0
 71
     7
 72
     5
  1
{\fＭＳ 明朝|b0|i0|c128|p17;\W1.0;●部品表}
  7
MTSTANDARD
 73
     1
 44
1.203125
  0
MTEXT
  5
D8
330
1F
100
AcDbEntity
  8
1
  6
Continuous
 62
     7
100
AcDbMText
 10
702.6997018301067
 20
-766.0042059622692
 30
0.0
 40
8.0
 41
0.0
 71
     7
 72
     5
  1
{\fＭＳ 明朝|b0|i0|c128|p17;\W1.0;本体}
  7
MTSTANDARD
 73
     1
 44
1.875
  0
MTEXT
  5
D9
330
1F
100
AcDbEntity
  8
1
  6
Continuous
 62
     7
100
AcDbMText
 10
762.6997018301063
 20
-766.0042059622692
 30
0.0
 40
8.0
 41
0.0
 71
     7
 72
     5
  1
{\fＭＳ 明朝|b0|i0|c128|p17;\W1.0;ＦＣ２００鋳鉄}
  7
MTSTANDARD
 73
     1
 44
1.875
  0
MTEXT
  5
DA
330
1F
100
AcDbEntity
  8
1
  6
Continuous
 62
     7
100
AcDbMText
 10
850.6997018301064
 20
-758.0042059622692
 30
0.0
 40
8.0
 41
0.0
 71
     7
 72
     5
  1
{\fＭＳ 明朝|b0|i0|c128|p17;\W1.0;錆止め塗装}
  7
MTSTANDARD
 73
     1
 44
1.5625
  0
MTEXT
  5
DB
330
1F
100
AcDbEntity
  8
1
  6
Continuous
 62
     7
100
AcDbMText
 10
706.6997018301067
 20
-782.0042059622692
 30
0.0
 40
8.0
 41
0.0
 71
     7
 72
     5
  1
{\fＭＳ 明朝|b0|i0|c128|p17;\W1.0;鎖}
  7
MTSTANDARD
 73
     1
 44
1.875
  0
MTEXT
  5
DC
330
1F
100
AcDbEntity
  8
1
  6
Continuous
 62
     7
100
AcDbMText
 10
766.6997018301063
 20
-782.0042059622692
 30
0.0
 40
8.0
 41
0.0
 71
     7
 72
     5
  1
{\fＭＳ 明朝|b0|i0|c128|p17;\W1.0;ＳＷＲＭ軟鋼}
  7
MTSTANDARD
 73
     1
 44
1.875
  0
ARC
  5
DD
330
1F
100
AcDbEntity
  8
2
  6
Continuous
 62
     7
100
AcDbCircle
 10
1055.773378491106
 20
-194.0391581840173
 30
0.0
 40
35.0
100
AcDbArc
 50
0.0
 51
90.0
  0
LINE
  5
DE
330
1F
100
AcDbEntity
  8
2
  6
Continuous
 62
     7
100
AcDbLine
 10
1090.773378491106
 20
-340.0391581840173
 30
0.0
 11
1090.773378491106
 21
-194.0391581840173
 31
0.0
  0
ARC
  5
DF
330
1F
100
AcDbEntity
  8
2
  6
Continuous
 62
     7
100
AcDbCircle
 10
1055.773378491106
 20
-340.0391581840173
 30
0.0
 40
35.0
100
AcDbArc
 50
270.0
 51
0.0
  0
LINE
  5
E0
330
1F
100
AcDbEntity
  8
2
  6
Continuous
 62
     7
100
AcDbLine
 10
799.7733784911061
 20
-375.0391581840173
 30
0.0
 11
1055.773378491106
 21
-375.0391581840173
 31
0.0
  0
ARC
  5
E1
330
1F
100
AcDbEntity
  8
2
  6
Continuous
 62
     7
100
AcDbCircle
 10
799.7733784911061
 20
-340.0391581840173
 30
0.0
 40
35.0
100
AcDbArc
 50
180.0
 51
270.0
  0
LINE
  5
E2
330
1F
100
AcDbEntity
  8
2
  6
Continuous
 62
     7
100
AcDbLine
 10
799.7733784911061
 20
-159.0391581840173
 30
0.0
 11
1055.773378491106
 21
-159.0391581840173
 31
0.0
  0
LINE
  5
E3
330
1F
100
AcDbEntity
  8
2
  6
Continuous
 62
     7
100
AcDbLine
 10
764.7733784911061
 20
-194.0391581840173
 30
0.0
 11
764.7733784911061
 21
-340.0391581840173
 31
0.0
  0
ARC
  5
E4
330
1F
100
AcDbEntity
  8
2
  6
Continuous
 62
     7
100
AcDbCircle
 10
799.7733784911061
 20
-194.0391581840173
 30
0.0
 40
35.0
100
AcDbArc
 50
90.0
 51
180.0
  0
ARC
  5
E5
330
1F
100
AcDbEntity
  8
2
  6
Continuous
 62
     7
100
AcDbCircle
 10
799.7733784911061
 20
-194.0391581840173
 30
0.0
 40
22.0
100
AcDbArc
 50
90.0
 51
180.0
  0
LINE
  5
E6
330
1F
100
AcDbEntity
  8
2
  6
Continuous
 62
     7
100
AcDbLine
 10
777.7733784911061
 20
-340.0391581840173
 30
0.0
 11
777.7733784911061
 21
-194.0391581840173
 31
0.0
  0
ARC
  5
E7
330
1F
100
AcDbEntity
  8
2
  6
Continuous
 62
     7
100
AcDbCircle
 10
799.7733784911061
 20
-340.0391581840173
 30
0.0
 40
22.0
100
AcDbArc
 50
180.0
 51
270.0
  0
LINE
  5
E8
330
1F
100
AcDbEntity
  8
2
  6
Continuous
 62
     7
100
AcDbLine
 10
1055.773378491106
 20
-362.0391581840173
 30
0.0
 11
799.7733784911061
 21
-362.0391581840173
 31
0.0
  0
ARC
  5
E9
330
1F
100
AcDbEntity
  8
2
  6
Continuous
 62
     7
100
AcDbCircle
 10
1055.773378491106
 20
-340.0391581840173
 30
0.0
 40
22.0
100
AcDbArc
 50
270.0
 51
0.0
  0
LINE
  5
EA
330
1F
100
AcDbEntity
  8
2
  6
Continuous
 62
     7
100
AcDbLine
 10
1055.773378491106
 20
-172.0391581840173
 30
0.0
 11
799.7733784911061
 21
-172.0391581840173
 31
0.0
  0
LINE
  5
EB
330
1F
100
AcDbEntity
  8
2
  6
Continuous
 62
     7
100
AcDbLine
 10
1077.773378491106
 20
-194.0391581840173
 30
0.0
 11
1077.773378491106
 21
-340.0391581840173
 31
0.0
  0
ARC
  5
EC
330
1F
100
AcDbEntity
  8
2
  6
Continuous
 62
     7
100
AcDbCircle
 10
1055.773378491106
 20
-194.0391581840173
 30
0.0
 40
22.0
100
AcDbArc
 50
0.0
 51
90.0
  0
MTEXT
  5
EE
330
1F
100
AcDbEntity
  8
1
  6
Continuous
 62
     7
100
AcDbMText
 10
661.5025580478546
 20
-814.5776820302372
 30
0.0
 40
10.0
 41
0.0
 71
     7
 72
     5
  1
{\fＭＳ 明朝|b0|i0|c128|p17;\W1.0;呼び径１３Ａ～２０Ａに適用}
  7
MTSTANDARD1
 73
     1
 44
0.775
  0
MTEXT
  5
EF
330
1F
100
AcDbEntity
  8
1
  6
Continuous
 62
     7
100
AcDbMText
 10
914.4758968791893
 20
-750.3325480687803
 30
0.0
 40
8.0
 41
0.0
 71
     7
 72
     5
  1
●参考\P住宅都市整備公団\P機械設備詳細図Ｅ－１０３\P造園施設標準図Ｅ－９０５
  7
MTSTANDARD
 73
     1
 44
0.8125
  0
LINE
  5
F0
330
1F
100
AcDbEntity
  8
1
  6
CENTER2
 62
     7
100
AcDbLine
 10
745.0722054187927
 20
-267.0391581840173
 30
0.0
 11
1107.193340212656
 21
-267.0391581840173
 31
0.0
  0
LINE
  5
F1
330
1F
100
AcDbEntity
  8
1
  6
CENTER2
 62
     7
100
AcDbLine
 10
927.7733784911061
 20
-387.214432679026
 30
0.0
 11
927.7733784911061
 21
-145.7725044758294
 31
0.0
  0
LINE
  5
F2
330
1F
100
AcDbEntity
  8
2
  6
Continuous
 62
     7
100
AcDbLine
 10
772.7733784911061
 20
-616.4964030939377
 30
0.0
 11
776.7733784911061
 21
-616.4964030939377
 31
0.0
  0
LINE
  5
F3
330
1F
100
AcDbEntity
  8
2
  6
Continuous
 62
     7
100
AcDbLine
 10
771.7951164675519
 20
-482.474505867046
 30
0.0
 11
772.7733784911061
 21
-616.4964030939377
 31
0.0
  0
ARC
  5
F4
330
1F
100
AcDbEntity
  8
2
  6
Continuous
 62
     7
100
AcDbCircle
 10
768.7951963833743
 20
-482.4964030939377
 30
0.0
 40
3.0
100
AcDbArc
 50
0.418209941495512
 51
90.0
  0
LINE
  5
F5
330
1F
100
AcDbEntity
  8
2
  6
Continuous
 62
     7
100
AcDbLine
 10
778.7272358235905
 20
-491.4495338149361
 30
0.0
 11
776.7733784911061
 21
-616.4964030939377
 31
0.0
  0
ARC
  5
F6
330
1F
100
AcDbEntity
  8
2
  6
Continuous
 62
     7
100
AcDbCircle
 10
781.7268696796946
 20
-491.4964030939377
 30
0.0
 40
3.0
100
AcDbArc
 50
90.0
 51
179.1048262897892
  0
ARC
  5
F7
330
1F
100
AcDbEntity
  8
2
  6
Continuous
 62
     7
100
AcDbCircle
 10
780.1646286702062
 20
-478.4964030939377
 30
0.0
 40
1.0
100
AcDbArc
 50
186.5819446551785
 51
270.0
  0
LINE
  5
F8
330
1F
100
AcDbEntity
  8
2
  6
Continuous
 62
     7
100
AcDbLine
 10
776.882128312006
 20
-466.4964030939377
 30
0.0
 11
764.7733784911061
 21
-466.4964030939377
 31
0.0
  0
LINE
  5
F9
330
1F
100
AcDbEntity
  8
2
  6
Continuous
 62
     7
100
AcDbLine
 10
777.8755372478768
 20
-467.3817789859527
 30
0.0
 11
779.171219734335
 21
-478.6110272019229
 31
0.0
  0
ARC
  5
FA
330
1F
100
AcDbEntity
  8
2
  6
Continuous
 62
     7
100
AcDbCircle
 10
776.882128312006
 20
-467.4964030939377
 30
0.0
 40
1.0
100
AcDbArc
 50
6.581944655175024
 51
90.0
  0
LINE
  5
FB
330
1F
100
AcDbEntity
  8
2
  6
Continuous
 62
     7
100
AcDbLine
 10
764.7733784911061
 20
-478.4964030939377
 30
0.0
 11
764.7733784911061
 21
-466.4964030939377
 31
0.0
  0
LINE
  5
FC
330
1F
100
AcDbEntity
  8
2
  6
Continuous
 62
     7
100
AcDbLine
 10
765.7733784911061
 20
-479.4964030939377
 30
0.0
 11
768.7951963833743
 21
-479.4964030939377
 31
0.0
  0
ARC
  5
FD
330
1F
100
AcDbEntity
  8
2
  6
Continuous
 62
     7
100
AcDbCircle
 10
765.7733784911061
 20
-478.4964030939377
 30
0.0
 40
1.0
100
AcDbArc
 50
180.0
 51
270.0
  0
LINE
  5
FE
330
1F
100
AcDbEntity
  8
2
  6
Continuous
 62
     7
100
AcDbLine
 10
792.7733784911061
 20
-479.4964030939377
 30
0.0
 11
780.1646286702062
 21
-479.4964030939377
 31
0.0
  0
ARC
  5
FF
330
1F
100
AcDbEntity
  8
2
  6
Continuous
 62
     7
100
AcDbCircle
 10
792.7733784911061
 20
-482.4964030939377
 30
0.0
 40
3.0
100
AcDbArc
 50
0.0
 51
90.0
  0
LINE
  5
100
330
1F
100
AcDbEntity
  8
2
  6
Continuous
 62
     7
100
AcDbLine
 10
792.7733784911061
 20
-488.4964030939377
 30
0.0
 11
781.7268696796946
 21
-488.4964030939377
 31
0.0
  0
LINE
  5
101
330
1F
100
AcDbEntity
  8
2
  6
Continuous
 62
     7
100
AcDbLine
 10
795.7733784911061
 20
-485.4964030939377
 30
0.0
 11
795.7733784911061
 21
-482.4964030939377
 31
0.0
  0
ARC
  5
102
330
1F
100
AcDbEntity
  8
2
  6
Continuous
 62
     7
100
AcDbCircle
 10
792.7733784911061
 20
-485.4964030939377
 30
0.0
 40
3.0
100
AcDbArc
 50
270.0
 51
0.0
  0
LINE
  5
103
330
1F
100
AcDbEntity
  8
2
  6
Continuous
 62
     7
100
AcDbLine
 10
776.7733784911061
 20
-616.4964030939377
 30
0.0
 11
927.7733784911061
 21
-616.4964030939377
 31
0.0
  0
LINE
  5
104
330
1F
100
AcDbEntity
  8
2
  6
Continuous
 62
     7
100
AcDbLine
 10
777.7108784911061
 20
-556.4964030939377
 30
0.0
 11
772.3354222867265
 21
-556.4964030939377
 31
0.0
  0
LINE
  5
105
330
1F
100
AcDbEntity
  8
2
  6
Continuous
 62
     7
100
AcDbLine
 10
1082.773378491106
 20
-616.4964030939377
 30
0.0
 11
1078.773378491106
 21
-616.4964030939377
 31
0.0
  0
LINE
  5
106
330
1F
100
AcDbEntity
  8
2
  6
Continuous
 62
     7
100
AcDbLine
 10
1083.75164051466
 20
-482.474505867046
 30
0.0
 11
1082.773378491106
 21
-616.4964030939377
 31
0.0
  0
ARC
  5
107
330
1F
100
AcDbEntity
  8
2
  6
Continuous
 62
     7
100
AcDbCircle
 10
1086.751560598838
 20
-482.4964030939377
 30
0.0
 40
3.0
100
AcDbArc
 50
90.0
 51
179.5817900585045
  0
LINE
  5
108
330
1F
100
AcDbEntity
  8
2
  6
Continuous
 62
     7
100
AcDbLine
 10
1076.819521158622
 20
-491.4495338149361
 30
0.0
 11
1078.773378491106
 21
-616.4964030939377
 31
0.0
  0
ARC
  5
109
330
1F
100
AcDbEntity
  8
2
  6
Continuous
 62
     7
100
AcDbCircle
 10
1073.819887302518
 20
-491.4964030939377
 30
0.0
 40
3.0
100
AcDbArc
 50
0.8951737102108029
 51
90.0
  0
ARC
  5
10A
330
1F
100
AcDbEntity
  8
2
  6
Continuous
 62
     7
100
AcDbCircle
 10
1075.382128312006
 20
-478.4964030939377
 30
0.0
 40
1.0
100
AcDbArc
 50
270.0
 51
353.4180553448185
  0
LINE
  5
10B
330
1F
100
AcDbEntity
  8
2
  6
Continuous
 62
     7
100
AcDbLine
 10
1078.664628670206
 20
-466.4964030939377
 30
0.0
 11
1090.773378491106
 21
-466.4964030939377
 31
0.0
  0
LINE
  5
10C
330
1F
100
AcDbEntity
  8
2
  6
Continuous
 62
     7
100
AcDbLine
 10
1077.671219734335
 20
-467.3817789859527
 30
0.0
 11
1076.375537247877
 21
-478.6110272019229
 31
0.0
  0
ARC
  5
10D
330
1F
100
AcDbEntity
  8
2
  6
Continuous
 62
     7
100
AcDbCircle
 10
1078.664628670206
 20
-467.4964030939377
 30
0.0
 40
1.0
100
AcDbArc
 50
90.0
 51
173.418055344828
  0
LINE
  5
10E
330
1F
100
AcDbEntity
  8
2
  6
Continuous
 62
     7
100
AcDbLine
 10
1090.773378491106
 20
-478.4964030939377
 30
0.0
 11
1090.773378491106
 21
-466.4964030939377
 31
0.0
  0
LINE
  5
10F
330
1F
100
AcDbEntity
  8
2
  6
Continuous
 62
     7
100
AcDbLine
 10
1089.773378491106
 20
-479.4964030939377
 30
0.0
 11
1086.751560598838
 21
-479.4964030939377
 31
0.0
  0
ARC
  5
110
330
1F
100
AcDbEntity
  8
2
  6
Continuous
 62
     7
100
AcDbCircle
 10
1089.773378491106
 20
-478.4964030939377
 30
0.0
 40
1.0
100
AcDbArc
 50
270.0
 51
0.0
  0
LINE
  5
111
330
1F
100
AcDbEntity
  8
2
  6
Continuous
 62
     7
100
AcDbLine
 10
1062.773378491106
 20
-479.4964030939377
 30
0.0
 11
1075.382128312006
 21
-479.4964030939377
 31
0.0
  0
ARC
  5
112
330
1F
100
AcDbEntity
  8
2
  6
Continuous
 62
     7
100
AcDbCircle
 10
1062.773378491106
 20
-482.4964030939377
 30
0.0
 40
3.0
100
AcDbArc
 50
90.0
 51
180.0
  0
LINE
  5
113
330
1F
100
AcDbEntity
  8
2
  6
Continuous
 62
     7
100
AcDbLine
 10
1062.773378491106
 20
-488.4964030939377
 30
0.0
 11
1073.819887302518
 21
-488.4964030939377
 31
0.0
  0
LINE
  5
114
330
1F
100
AcDbEntity
  8
2
  6
Continuous
 62
     7
100
AcDbLine
 10
1059.773378491106
 20
-485.4964030939377
 30
0.0
 11
1059.773378491106
 21
-482.4964030939377
 31
0.0
  0
ARC
  5
115
330
1F
100
AcDbEntity
  8
2
  6
Continuous
 62
     7
100
AcDbCircle
 10
1062.773378491106
 20
-485.4964030939377
 30
0.0
 40
3.0
100
AcDbArc
 50
180.0
 51
270.0
  0
LINE
  5
116
330
1F
100
AcDbEntity
  8
2
  6
Continuous
 62
     7
100
AcDbLine
 10
1078.773378491106
 20
-616.4964030939377
 30
0.0
 11
927.7733784911061
 21
-616.4964030939377
 31
0.0
  0
LINE
  5
117
330
1F
100
AcDbEntity
  8
2
  6
Continuous
 62
     7
100
AcDbLine
 10
1077.835878491106
 20
-556.4964030939377
 30
0.0
 11
1083.211334695485
 21
-556.4964030939377
 31
0.0
  0
HATCH
  5
118
330
1F
100
AcDbEntity
  8
2
  6
Continuous
 62
     7
100
AcDbHatch
 10
0.0
 20
0.0
 30
0.0
210
0.0
220
0.0
230
1.0
  2
_U
 70
     0
 71
     0
 91
        2
 92
        0
 93
       17
 72
     1
 10
777.7108784911061
 20
-556.4964030939377
 11
772.3354222867265
 21
-556.4964030939377
 72
     1
 10
772.3354222867265
 20
-556.4964030939377
 11
771.7951164675519
 21
-482.474505867046
 72
     2
 10
768.7951963833743
 20
-482.4964030939377
 40
3.0
 50
0.418209941495512
 51
90.0
 73
     1
 72
     1
 10
768.7951963833743
 20
-479.4964030939377
 11
765.7733784911061
 21
-479.4964030939377
 72
     2
 10
765.7733784911061
 20
-478.4964030939377
 40
1.0
 50
90.0
 51
180.0
 73
     0
 72
     1
 10
764.7733784911061
 20
-478.4964030939377
 11
764.7733784911061
 21
-466.4964030939377
 72
     1
 10
764.7733784911061
 20
-466.4964030939377
 11
776.882128312006
 21
-466.4964030939377
 72
     2
 10
776.882128312006
 20
-467.4964030939377
 40
1.0
 50
270.0
 51
353.4180553448249
 73
     0
 72
     1
 10
777.8755372478768
 20
-467.3817789859527
 11
779.171219734335
 21
-478.6110272019229
 72
     2
 10
780.1646286702062
 20
-478.4964030939377
 40
1.0
 50
186.5819446551785
 51
270.0
 73
     1
 72
     1
 10
780.1646286702062
 20
-479.4964030939377
 11
792.7733784911061
 21
-479.4964030939377
 72
     2
 10
792.7733784911061
 20
-482.4964030939377
 40
3.0
 50
270.0
 51
360.0
 73
     0
 72
     1
 10
795.7733784911061
 20
-482.4964030939377
 11
795.7733784911061
 21
-485.4964030939377
 72
     2
 10
792.7733784911061
 20
-485.4964030939377
 40
3.0
 50
0.0
 51
90.0
 73
     0
 72
     1
 10
792.7733784911061
 20
-488.4964030939377
 11
781.7268696796946
 21
-488.4964030939377
 72
     2
 10
781.7268696796946
 20
-491.4964030939377
 40
3.0
 50
90.0
 51
179.1048262897892
 73
     1
 72
     1
 10
778.7272358235905
 20
-491.4495338149361
 11
777.7108784911061
 21
-556.4964030939377
 97
        0
 92
        0
 93
        2
 72
     1
 10
777.7108784911061
 20
-556.4964030939377
 11
772.3354222867265
 21
-556.4964030939377
 72
     1
 10
772.3354222867265
 20
-556.4964030939377
 11
777.7108784911061
 21
-556.4964030939377
 97
        0
 75
     0
 76
     0
 52
315.0
 41
2.0
 77
     0
 78
     1
 53
315.0
 43
0.0
 44
0.0
 45
1.414213562373095
 46
1.414213562373095
 79
     0
 98
        1
 10
0.0
 20
0.0
  0
HATCH
  5
119
330
1F
100
AcDbEntity
  8
2
  6
Continuous
 62
     7
100
AcDbHatch
 10
0.0
 20
0.0
 30
0.0
210
0.0
220
0.0
230
1.0
  2
_U
 70
     0
 71
     0
 91
        2
 92
        0
 93
       17
 72
     1
 10
1077.835878491106
 20
-556.4964030939377
 11
1083.211334695486
 21
-556.4964030939377
 72
     1
 10
1083.211334695486
 20
-556.4964030939377
 11
1083.75164051466
 21
-482.474505867046
 72
     2
 10
1086.751560598838
 20
-482.4964030939377
 40
3.0
 50
180.4182099414955
 51
270.0
 73
     0
 72
     1
 10
1086.751560598838
 20
-479.4964030939377
 11
1089.773378491106
 21
-479.4964030939377
 72
     2
 10
1089.773378491106
 20
-478.4964030939377
 40
1.0
 50
270.0
 51
360.0
 73
     1
 72
     1
 10
1090.773378491106
 20
-478.4964030939377
 11
1090.773378491106
 21
-466.4964030939377
 72
     1
 10
1090.773378491106
 20
-466.4964030939377
 11
1078.664628670206
 21
-466.4964030939377
 72
     2
 10
1078.664628670206
 20
-467.4964030939377
 40
1.0
 50
90.0
 51
173.418055344828
 73
     1
 72
     1
 10
1077.671219734335
 20
-467.3817789859527
 11
1076.375537247877
 21
-478.6110272019229
 72
     2
 10
1075.382128312006
 20
-478.4964030939377
 40
1.0
 50
6.581944655181497
 51
90.0
 73
     0
 72
     1
 10
1075.382128312006
 20
-479.4964030939377
 11
1062.773378491106
 21
-479.4964030939377
 72
     2
 10
1062.773378491106
 20
-482.4964030939377
 40
3.0
 50
90.0
 51
180.0
 73
     1
 72
     1
 10
1059.773378491106
 20
-482.4964030939377
 11
1059.773378491106
 21
-485.4964030939377
 72
     2
 10
1062.773378491106
 20
-485.4964030939377
 40
3.0
 50
180.0
 51
270.0
 73
     1
 72
     1
 10
1062.773378491106
 20
-488.4964030939377
 11
1073.819887302518
 21
-488.4964030939377
 72
     2
 10
1073.819887302518
 20
-491.4964030939377
 40
3.0
 50
270.0
 51
359.1048262897892
 73
     0
 72
     1
 10
1076.819521158622
 20
-491.4495338149361
 11
1077.835878491106
 21
-556.4964030939377
 97
        0
 92
        0
 93
        2
 72
     1
 10
1077.835878491106
 20
-556.4964030939377
 11
1083.211334695485
 21
-556.4964030939377
 72
     1
 10
1083.211334695485
 20
-556.4964030939377
 11
1077.835878491106
 21
-556.4964030939377
 97
        0
 75
     0
 76
     0
 52
315.0
 41
2.0
 77
     0
 78
     1
 53
315.0
 43
0.0
 44
0.0
 45
1.414213562373095
 46
1.414213562373095
 79
     0
 98
        1
 10
0.0
 20
0.0
  0
LINE
  5
11A
330
1F
100
AcDbEntity
  8
1
  6
CENTER2
 62
     7
100
AcDbLine
 10
927.7733784911061
 20
-453.4418450156343
 30
0.0
 11
927.7733784911061
 21
-628.7398759040846
 31
0.0
  0
DIMENSION
  5
129
330
1F
100
AcDbEntity
  8
1
  6
Continuous
 62
     3
100
AcDbDimension
  2
_D1
 10
780.2733784911061
 20
-452.4964030939377
 30
0.0
 11
927.7733784911061
 21
-446.4964030939377
 31
0.0
 70
   160
  1
<>ｘ１８５
 71
     5
 42
-1.0
 52
90.0
  3
DIMSTYEX_1
100
AcDbAlignedDimension
 13
1075.273378491106
 23
-466.4964030939377
 33
0.0
 14
780.2733784911061
 24
-466.4964030939377
 34
0.0
 50
180.0
100
AcDbRotatedDimension
1001
ACAD
1000
DSTYLE
1002
{
1070
   343
1005
86
1070
   344
1005
86
1070
   173
1070
     1
1070
   272
1070
     3
1070
   340
1005
81
1070
   140
1040
3.584
1002
}
  0
DIMENSION
  5
136
330
1F
100
AcDbEntity
  8
1
  6
Continuous
 62
     3
100
AcDbDimension
  2
_D2
 10
764.7733784911056
 20
-438.4964030939377
 30
0.0
 11
927.7733784911059
 21
-432.4964030939377
 31
0.0
 70
   160
  1
<>ｘ２１６
 71
     5
 42
-1.0
 52
90.0
  3
DIMSTYEX_1
100
AcDbAlignedDimension
 13
1090.773378491106
 23
-466.4964030939377
 33
0.0
 14
764.7733784911056
 24
-466.4964030939377
 34
0.0
 50
180.0
100
AcDbRotatedDimension
1001
ACAD
1000
DSTYLE
1002
{
1070
   343
1005
86
1070
   344
1005
86
1070
   173
1070
     1
1070
   272
1070
     3
1070
   340
1005
81
1070
   140
1040
3.584
1002
}
  0
DIMENSION
  5
148
330
1F
100
AcDbEntity
  8
1
  6
Continuous
 62
     3
100
AcDbDimension
  2
_D3
 10
1104.773378491106
 20
-479.4964030939377
 30
0.0
 11
1112.773378491106
 21
-472.9964030939377
 31
0.0
 70
   160
 71
     5
 42
-1.0
 52
90.0
  3
DIMSTYEX_2
100
AcDbAlignedDimension
 13
1090.773378491106
 23
-466.4964030939377
 33
0.0
 14
1089.773378491106
 24
-479.4964030939377
 34
0.0
 50
-90.0
100
AcDbRotatedDimension
1001
ACAD
1000
DSTYLE
1002
{
1070
   343
1005
86
1070
   344
1005
86
1070
   147
1040
2.0
1070
   173
1070
     1
1070
   272
1070
     3
1070
   340
1005
81
1070
   140
1040
3.584
1002
}
  0
DIMENSION
  5
155
330
1F
100
AcDbEntity
  8
1
  6
Continuous
 62
     3
100
AcDbDimension
  2
_D4
 10
1118.773378491106
 20
-616.4964030939377
 30
0.0
 11
1112.773378491106
 21
-541.4964030939377
 31
0.0
 70
   160
 71
     5
 42
-1.0
 52
90.0
  3
DIMSTYEX_1
100
AcDbAlignedDimension
 13
1104.773378491106
 23
-466.4964030939377
 33
0.0
 14
1082.773378491106
 24
-616.4964030939377
 34
0.0
 50
-90.0
100
AcDbRotatedDimension
1001
ACAD
1000
DSTYLE
1002
{
1070
   343
1005
86
1070
   344
1005
86
1070
   173
1070
     1
1070
   272
1070
     3
1070
   340
1005
81
1070
   140
1040
3.584
1002
}
  0
DIMENSION
  5
162
330
1F
100
AcDbEntity
  8
1
  6
Continuous
 62
     3
100
AcDbDimension
  2
_D5
 10
750.7733784911056
 20
-556.4964030939377
 30
0.0
 11
744.7733784911056
 21
-586.4964030939377
 31
0.0
 70
   160
  1
<>ｘ幅５０
 71
     5
 42
-1.0
 52
90.0
  3
DIMSTYEX_1
100
AcDbAlignedDimension
 13
772.7733784911061
 23
-616.4964030939377
 33
0.0
 14
772.3354222867265
 24
-556.4964030939377
 34
0.0
 50
90.0
100
AcDbRotatedDimension
1001
ACAD
1000
DSTYLE
1002
{
1070
   343
1005
86
1070
   344
1005
86
1070
   173
1070
     1
1070
   272
1070
     3
1070
   340
1005
81
1070
   140
1040
3.584
1002
}
  0
DIMENSION
  5
16F
330
1F
100
AcDbEntity
  8
1
  6
Continuous
 62
     3
100
AcDbDimension
  2
_D6
 10
776.7733784911061
 20
-642.7398759040846
 30
0.0
 11
927.7733784911061
 21
-636.7398759040846
 31
0.0
 70
   160
  1
<>ｘ１９２
 71
     5
 42
-1.0
 52
90.0
  3
DIMSTYEX_1
100
AcDbAlignedDimension
 13
1078.773378491106
 23
-616.4964030939377
 33
0.0
 14
776.7733784911061
 24
-616.4964030939377
 34
0.0
 50
180.0
100
AcDbRotatedDimension
1001
ACAD
1000
DSTYLE
1002
{
1070
   343
1005
86
1070
   344
1005
86
1070
   173
1070
     1
1070
   272
1070
     3
1070
   340
1005
81
1070
   140
1040
3.584
1002
}
  0
DIMENSION
  5
17C
330
1F
100
AcDbEntity
  8
1
  6
Continuous
 62
     3
100
AcDbDimension
  2
_D7
 10
772.7733784911061
 20
-656.7398759040846
 30
0.0
 11
927.7733784911061
 21
-650.7398759040846
 31
0.0
 70
   160
  1
<>ｘ２００
 71
     5
 42
-1.0
 52
90.0
  3
DIMSTYEX_1
100
AcDbAlignedDimension
 13
1082.773378491106
 23
-616.4964030939377
 33
0.0
 14
772.7733784911061
 24
-616.4964030939377
 34
0.0
 50
180.0
100
AcDbRotatedDimension
1001
ACAD
1000
DSTYLE
1002
{
1070
   343
1005
86
1070
   344
1005
86
1070
   173
1070
     1
1070
   272
1070
     3
1070
   340
1005
81
1070
   140
1040
3.584
1002
}
  0
INSERT
  5
184
330
1F
100
AcDbEntity
  8
1
  6
Continuous
 62
     3
100
AcDbBlockReference
  2
BALN0
 10
804.7733784911061
 20
-466.4964030939377
 30
0.0
  0
INSERT
  5
18B
330
1F
100
AcDbEntity
  8
1
  6
Continuous
 62
     3
100
AcDbBlockReference
  2
BALN1
 10
771.8955596209371
 20
-496.2352178808183
 30
0.0
  0
INSERT
  5
192
330
1F
100
AcDbEntity
  8
1
  6
Continuous
 62
     3
100
AcDbBlockReference
  2
BALN2
 10
809.933722365585
 20
-515.4949903827419
 30
0.0
  0
LINE
  5
193
330
1F
100
AcDbEntity
  8
1
  6
Continuous
 62
     7
100
AcDbLine
 10
1016.78316516344
 20
-780.4116333696767
 30
0.0
 11
1016.78316516344
 21
-814.4116333696767
 31
0.0
  0
LINE
  5
194
330
1F
100
AcDbEntity
  8
1
  6
Continuous
 62
     7
100
AcDbLine
 10
1006.783175163439
 20
-814.4116333696767
 30
0.0
 11
1006.783175163439
 21
-780.4116333696767
 31
0.0
  0
LINE
  5
195
330
1F
100
AcDbEntity
  8
1
  6
Continuous
 62
     7
100
AcDbLine
 10
972.7831751634399
 20
-780.4116333696767
 30
0.0
 11
972.7831751634399
 21
-814.4116333696767
 31
0.0
  0
LINE
  5
196
330
1F
100
AcDbEntity
  8
1
  6
Continuous
 62
     7
100
AcDbLine
 10
962.7831851634396
 20
-814.4116333696767
 30
0.0
 11
962.7831851634396
 21
-780.4116333696767
 31
0.0
  0
MTEXT
  5
198
330
1F
100
AcDbEntity
  8
1
  6
Continuous
 62
     7
100
AcDbMText
 10
964.2831801634397
 20
-805.1925321045693
 30
0.0
 40
7.0
 41
0.0
 71
     7
 72
     5
  1
{\fＭＳ 明朝|b0|i0|c128|p17;\W1.0;査}
  7
MTSTANDARD3
 73
     1
 44
0.8392857142857144
  0
MTEXT
  5
199
330
1F
100
AcDbEntity
  8
1
  6
Continuous
 62
     7
100
AcDbMText
 10
1008.28317016344
 20
-805.1925321045693
 30
0.0
 40
7.0
 41
0.0
 71
     7
 72
     5
  1
{\fＭＳ 明朝|b0|i0|c128|p17;\W1.0;認}
  7
MTSTANDARD3
 73
     1
 44
0.8392857142857144
  0
MTEXT
  5
19A
330
1F
100
AcDbEntity
  8
1
  6
Continuous
 62
     7
100
AcDbMText
 10
1008.28317016344
 20
-797.1925401045693
 30
0.0
 40
7.0
 41
0.0
 71
     7
 72
     5
  1
{\fＭＳ 明朝|b0|i0|c128|p17;\W1.0;承}
  7
MTSTANDARD3
 73
     1
 44
0.8392857142857144
  0
MTEXT
  5
19B
330
1F
100
AcDbEntity
  8
1
  6
Continuous
 62
     7
100
AcDbMText
 10
920.2831901634395
 20
-797.1925401045693
 30
0.0
 40
7.0
 41
0.0
 71
     7
 72
     5
  1
{\fＭＳ 明朝|b0|i0|c128|p17;\W1.0;設}
  7
MTSTANDARD3
 73
     1
 44
0.8392857142857144
  0
MTEXT
  5
19C
330
1F
100
AcDbEntity
  8
1
  6
Continuous
 62
     7
100
AcDbMText
 10
920.2831901634395
 20
-805.1925321045693
 30
0.0
 40
7.0
 41
0.0
 71
     7
 72
     5
  1
{\fＭＳ 明朝|b0|i0|c128|p17;\W1.0;計}
  7
MTSTANDARD3
 73
     1
 44
0.8392857142857144
  0
MTEXT
  5
19D
330
1F
100
AcDbEntity
  8
1
  6
Continuous
 62
     7
100
AcDbMText
 10
964.2831801634397
 20
-797.1925401045693
 30
0.0
 40
7.0
 41
0.0
 71
     7
 72
     5
  1
{\fＭＳ 明朝|b0|i0|c128|p17;\W1.0;照}
  7
MTSTANDARD3
 73
     1
 44
0.8392857142857144
  0
MTEXT
  5
19F
330
1F
100
AcDbEntity
  8
1
  6
Continuous
 62
     7
100
AcDbMText
 10
977.7133630263015
 20
-800.0908429720431
 30
0.0
 40
5.0
 41
0.0
 71
     7
 72
     5
  1
{\fＭＳ 明朝|b0|i0|c128|p17;\W1.0;2006.03.23}
  7
MTSTANDARD4
 73
     1
 44
0.875
  0
MTEXT
  5
1A0
330
1F
100
AcDbEntity
  8
1
  6
Continuous
 62
     7
100
AcDbMText
 10
1021.246292965318
 20
-800.0908429720431
 30
0.0
 40
5.0
 41
0.0
 71
     7
 72
     5
  1
{\fＭＳ 明朝|b0|i0|c128|p17;\W1.0;2006.03.23}
  7
MTSTANDARD4
 73
     1
 44
0.875
  0
INSERT
  5
2BE
330
1F
100
AcDbEntity
  8
1
  6
Continuous
 62
     7
100
AcDbBlockReference
  2
BLK0
 10
927.7733784911061
 20
-267.0391581840173
 30
0.0
  0
INSERT
  5
2FA
330
1F
100
AcDbEntity
  8
1
  6
Continuous
 62
     7
100
AcDbBlockReference
  2
BLK1
 10
927.7733784911061
 20
-466.4964030939377
 30
0.0
  0
LINE
  5
2FB
330
1F
100
AcDbEntity
  8
1
  6
CENTER2
 62
     7
100
AcDbLine
 10
819.8637821722364
 20
-486.9675243350163
 30
0.0
 11
795.7936816880251
 21
-486.9675243350163
 31
0.0
  0
LINE
  5
2FC
330
1F
100
AcDbEntity
  8
1
  6
Continuous
 62
     7
100
AcDbLine
 10
813.3837182970674
 20
-483.9675243350162
 30
0.0
 11
805.5226656654886
 21
-483.9675243350162
 31
0.0
  0
LINE
  5
2FD
330
1F
100
AcDbEntity
  8
1
  6
Continuous
 62
     7
100
AcDbLine
 10
805.4700340865411
 20
-489.9675243350162
 30
0.0
 11
813.4370516304007
 21
-489.9675243350162
 31
0.0
  0
LINE
  5
2FE
330
1F
100
AcDbEntity
  8
1
  6
Continuous
 62
     7
100
AcDbLine
 10
805.4963498760144
 20
-480.5675243350161
 30
0.0
 11
805.4963498760144
 21
-493.3675243350163
 31
0.0
  0
LINE
  5
2FF
330
1F
100
AcDbEntity
  8
1
  6
Continuous
 62
     7
100
AcDbLine
 10
805.4963498760144
 20
-493.3675243350163
 30
0.0
 11
802.0963498760143
 21
-493.3675243350163
 31
0.0
  0
LINE
  5
300
330
1F
100
AcDbEntity
  8
1
  6
Continuous
 62
     7
100
AcDbLine
 10
802.0963498760143
 20
-493.3675243350163
 30
0.0
 11
801.8035298760142
 21
-492.8603443350162
 31
0.0
  0
LINE
  5
301
330
1F
100
AcDbEntity
  8
1
  6
Continuous
 62
     7
100
AcDbLine
 10
801.4963498760144
 20
-491.7139343350162
 30
0.0
 11
801.4963498760144
 21
-482.2211143350162
 31
0.0
  0
LINE
  5
302
330
1F
100
AcDbEntity
  8
1
  6
Continuous
 62
     7
100
AcDbLine
 10
801.8035298760142
 20
-481.0747043350162
 30
0.0
 11
802.0963498760143
 21
-480.5675243350161
 31
0.0
  0
LINE
  5
303
330
1F
100
AcDbEntity
  8
1
  6
Continuous
 62
     7
100
AcDbLine
 10
802.0963498760143
 20
-480.5675243350161
 30
0.0
 11
805.4963498760144
 21
-480.5675243350161
 31
0.0
  0
LINE
  5
304
330
1F
100
AcDbEntity
  8
1
  6
Continuous
 62
     7
100
AcDbLine
 10
802.0963498760143
 20
-483.7675243350162
 30
0.0
 11
805.4963498760144
 21
-483.7675243350162
 31
0.0
  0
LINE
  5
305
330
1F
100
AcDbEntity
  8
1
  6
Continuous
 62
     7
100
AcDbLine
 10
802.0963498760143
 20
-490.1675243350163
 30
0.0
 11
805.4963498760144
 21
-490.1675243350163
 31
0.0
  0
LINE
  5
306
330
1F
100
AcDbEntity
  8
1
  6
Continuous
 62
     7
100
AcDbLine
 10
811.4963498760144
 20
-483.9675243350162
 30
0.0
 11
811.4963498760144
 21
-489.9675243350162
 31
0.0
  0
LINE
  5
307
330
1F
100
AcDbEntity
  8
1
  6
Continuous
 62
     7
100
AcDbLine
 10
821.8906931084548
 20
-483.9675243350162
 30
0.0
 11
830.9553498760142
 21
-483.9675243350162
 31
0.0
  0
LINE
  5
308
330
1F
100
AcDbEntity
  8
1
  6
Continuous
 62
     7
100
AcDbLine
 10
830.9553498760142
 20
-483.9675243350162
 30
0.0
 11
831.4963498760144
 21
-484.5085243350161
 31
0.0
  0
LINE
  5
309
330
1F
100
AcDbEntity
  8
1
  6
Continuous
 62
     7
100
AcDbLine
 10
831.4963498760144
 20
-484.5085243350161
 30
0.0
 11
831.4963498760144
 21
-489.4265243350163
 31
0.0
  0
LINE
  5
30A
330
1F
100
AcDbEntity
  8
1
  6
Continuous
 62
     7
100
AcDbLine
 10
831.4963498760144
 20
-489.4265243350163
 30
0.0
 11
830.9553498760142
 21
-489.9675243350162
 31
0.0
  0
LINE
  5
30B
330
1F
100
AcDbEntity
  8
1
  6
Continuous
 62
     7
100
AcDbLine
 10
830.9553498760142
 20
-489.9675243350162
 30
0.0
 11
821.8906931084548
 21
-489.9675243350162
 31
0.0
  0
LINE
  5
30C
330
1F
100
AcDbEntity
  8
1
  6
Continuous
 62
     7
100
AcDbLine
 10
830.9553498760142
 20
-483.9675243350162
 30
0.0
 11
830.9553498760142
 21
-489.9675243350162
 31
0.0
  0
ARC
  5
30D
330
1F
100
AcDbEntity
  8
1
  6
Continuous
 62
     7
100
AcDbCircle
 10
803.7891698760145
 20
-482.2211143350162
 30
0.0
 40
2.292819682770856
100
AcDbArc
 50
149.9999954231639
 51
222.4120486904531
  0
ARC
  5
30E
330
1F
100
AcDbEntity
  8
1
  6
Continuous
 62
     7
100
AcDbCircle
 10
803.7891698760145
 20
-491.7139343350162
 30
0.0
 40
2.29281997559784
100
AcDbArc
 50
137.5879513095473
 51
210.0000045768317
  0
ARC
  5
30F
330
1F
100
AcDbEntity
  8
1
  6
Continuous
 62
     7
100
AcDbCircle
 10
810.3296832093492
 20
-486.9675243350162
 30
0.0
 40
8.833333333334847
100
AcDbArc
 50
158.7606894476932
 51
201.2393105523068
  0
LINE
  5
310
330
1F
100
AcDbEntity
  8
1
  6
Continuous
 62
     7
100
AcDbLine
 10
817.0906931084546
 20
-480.5675243350161
 30
0.0
 11
817.0906931084546
 21
-493.3675243350163
 31
0.0
  0
LINE
  5
311
330
1F
100
AcDbEntity
  8
1
  6
Continuous
 62
     7
100
AcDbLine
 10
817.0906931084546
 20
-493.3675243350163
 30
0.0
 11
821.2906931084544
 21
-493.3675243350163
 31
0.0
  0
LINE
  5
312
330
1F
100
AcDbEntity
  8
1
  6
Continuous
 62
     7
100
AcDbLine
 10
821.2906931084544
 20
-493.3675243350163
 30
0.0
 11
821.5835131084546
 21
-492.8603443350162
 31
0.0
  0
LINE
  5
313
330
1F
100
AcDbEntity
  8
1
  6
Continuous
 62
     7
100
AcDbLine
 10
821.8906931084548
 20
-491.7139343350162
 30
0.0
 11
821.8906931084548
 21
-482.2211143350162
 31
0.0
  0
LINE
  5
314
330
1F
100
AcDbEntity
  8
1
  6
Continuous
 62
     7
100
AcDbLine
 10
821.5835131084546
 20
-481.0747043350162
 30
0.0
 11
821.2906931084544
 21
-480.5675243350161
 31
0.0
  0
LINE
  5
315
330
1F
100
AcDbEntity
  8
1
  6
Continuous
 62
     7
100
AcDbLine
 10
821.2906931084544
 20
-480.5675243350161
 30
0.0
 11
817.0906931084546
 21
-480.5675243350161
 31
0.0
  0
LINE
  5
316
330
1F
100
AcDbEntity
  8
1
  6
Continuous
 62
     7
100
AcDbLine
 10
821.2906931084544
 20
-483.7675243350162
 30
0.0
 11
817.0906931084546
 21
-483.7675243350162
 31
0.0
  0
LINE
  5
317
330
1F
100
AcDbEntity
  8
1
  6
Continuous
 62
     7
100
AcDbLine
 10
821.2906931084544
 20
-490.1675243350163
 30
0.0
 11
817.0906931084546
 21
-490.1675243350163
 31
0.0
  0
ARC
  5
318
330
1F
100
AcDbEntity
  8
1
  6
Continuous
 62
     7
100
AcDbCircle
 10
819.5978731084547
 20
-482.2211143350162
 30
0.0
 40
2.292819975597503
100
AcDbArc
 50
317.5879513095397
 51
30.00000457684677
  0
ARC
  5
319
330
1F
100
AcDbEntity
  8
1
  6
Continuous
 62
     7
100
AcDbCircle
 10
819.5978731084547
 20
-491.7139343350162
 30
0.0
 40
2.292819682770463
100
AcDbArc
 50
329.9999954231582
 51
42.41204869046183
  0
ARC
  5
31A
330
1F
100
AcDbEntity
  8
1
  6
Continuous
 62
     7
100
AcDbCircle
 10
813.0573597751263
 20
-486.9675243350162
 30
0.0
 40
8.83333333332849
100
AcDbArc
 50
338.7606894476772
 51
21.2393105523228
  0
LINE
  5
31B
330
1F
100
AcDbEntity
  8
1
  6
Continuous
 62
     7
100
AcDbLine
 10
809.4963498760144
 20
-483.9675243350162
 30
0.0
 11
811.4963498760144
 21
-484.5085243350161
 31
0.0
  0
LINE
  5
31C
330
1F
100
AcDbEntity
  8
1
  6
Continuous
 62
     7
100
AcDbLine
 10
809.4963498760144
 20
-489.9675243350162
 30
0.0
 11
811.4963498760144
 21
-489.4265243350163
 31
0.0
  0
LINE
  5
31D
330
1F
100
AcDbEntity
  8
1
  6
Continuous
 62
     7
100
AcDbLine
 10
821.8906931084548
 20
-484.5085243350161
 30
0.0
 11
831.4963498760144
 21
-484.5085243350161
 31
0.0
  0
LINE
  5
31E
330
1F
100
AcDbEntity
  8
1
  6
Continuous
 62
     7
100
AcDbLine
 10
821.8906931084548
 20
-489.4265243350163
 30
0.0
 11
831.4963498760144
 21
-489.4265243350163
 31
0.0
  0
LINE
  5
31F
330
1F
100
AcDbEntity
  8
1
  6
Continuous
 62
     7
100
AcDbLine
 10
805.4963498760144
 20
-489.9675243350162
 30
0.0
 11
817.0906931084546
 21
-489.9675243350165
 31
0.0
  0
LINE
  5
320
330
1F
100
AcDbEntity
  8
1
  6
Continuous
 62
     7
100
AcDbLine
 10
811.4963498760144
 20
-489.4265243350163
 30
0.0
 11
817.0906931084546
 21
-489.4265243350161
 31
0.0
  0
LINE
  5
321
330
1F
100
AcDbEntity
  8
1
  6
Continuous
 62
     7
100
AcDbLine
 10
811.4963498760144
 20
-484.5085243350161
 30
0.0
 11
817.0906931084546
 21
-484.5085243350163
 31
0.0
  0
LINE
  5
322
330
1F
100
AcDbEntity
  8
1
  6
Continuous
 62
     7
100
AcDbLine
 10
805.4963498760144
 20
-483.9675243350162
 30
0.0
 11
817.0906931084546
 21
-483.9675243350163
 31
0.0
  0
LINE
  5
323
330
1F
100
AcDbEntity
  8
1
  6
CENTER2
 62
     7
100
AcDbLine
 10
831.4963498760144
 20
-486.9675243350162
 30
0.0
 11
796.1408237566302
 21
-486.9675243350162
 31
0.0
  0
ARC
  5
324
330
1F
100
AcDbEntity
  8
1
  6
Continuous
 62
     7
100
AcDbCircle
 10
815.8288352933257
 20
-535.4964314200563
 30
0.0
 40
4.0
100
AcDbArc
 50
269.9893250562404
 51
359.9860000736988
  0
ARC
  5
325
330
1F
100
AcDbEntity
  8
1
  6
Continuous
 62
     7
100
AcDbCircle
 10
815.8288352933257
 20
-535.4964314200563
 30
0.0
 40
4.0
100
AcDbArc
 50
179.9860000736988
 51
269.9893250562404
  0
ARC
  5
326
330
1F
100
AcDbEntity
  8
1
  6
Continuous
 62
     7
100
AcDbCircle
 10
815.8288352933257
 20
-535.4964314200563
 30
0.0
 40
5.899999999999978
100
AcDbArc
 50
269.9927627500161
 51
359.9860000736958
  0
ARC
  5
327
330
1F
100
AcDbEntity
  8
1
  6
Continuous
 62
     7
100
AcDbCircle
 10
815.8288352933257
 20
-535.4964314200563
 30
0.0
 40
5.899999999999978
100
AcDbArc
 50
179.9860000737002
 51
269.9927627500161
  0
LINE
  5
328
330
1F
100
AcDbEntity
  8
1
  6
Continuous
 62
     7
100
AcDbLine
 10
809.9288354694538
 20
-535.4949897856977
 30
0.0
 11
809.9312789175194
 21
-525.4949900842198
 31
0.0
  0
LINE
  5
329
330
1F
100
AcDbEntity
  8
1
  6
Continuous
 62
     7
100
AcDbLine
 10
811.8312788608002
 20
-525.4954543393519
 30
0.0
 11
811.8288354127344
 21
-535.49545404083
 31
0.0
  0
LINE
  5
32A
330
1F
100
AcDbEntity
  8
1
  6
Continuous
 62
     7
100
AcDbLine
 10
819.828835173917
 20
-535.4974087992825
 30
0.0
 11
819.8312786219831
 21
-525.4974090978046
 31
0.0
  0
LINE
  5
32B
330
1F
100
AcDbEntity
  8
1
  6
Continuous
 62
     7
100
AcDbLine
 10
821.7312785652639
 20
-525.4978733529372
 30
0.0
 11
821.7288351171983
 21
-535.4978730544153
 31
0.0
  0
ARC
  5
32C
330
1F
100
AcDbEntity
  8
1
  6
Continuous
 62
     7
100
AcDbCircle
 10
815.8337221894569
 20
-515.4964320171007
 30
0.0
 40
4.0
100
AcDbArc
 50
359.9860000736988
 51
76.24696489931851
  0
ARC
  5
32D
330
1F
100
AcDbEntity
  8
1
  6
Continuous
 62
     7
100
AcDbCircle
 10
815.8337221894569
 20
-515.4964320171007
 30
0.0
 40
4.0
100
AcDbArc
 50
103.7250352480574
 51
179.9860000736988
  0
ARC
  5
32E
330
1F
100
AcDbEntity
  8
1
  6
Continuous
 62
     7
100
AcDbCircle
 10
815.8337221894569
 20
-515.4964320171007
 30
0.0
 40
5.899999999999978
100
AcDbArc
 50
359.9860000737024
 51
80.72007156985572
  0
ARC
  5
32F
330
1F
100
AcDbEntity
  8
1
  6
Continuous
 62
     7
100
AcDbCircle
 10
815.8337221894569
 20
-515.4964320171007
 30
0.0
 40
5.899999999999978
100
AcDbArc
 50
99.25192857752977
 51
179.9860000736957
  0
LINE
  5
330
330
1F
100
AcDbEntity
  8
1
  6
Continuous
 62
     7
100
AcDbLine
 10
809.933722365585
 20
-515.4949903827417
 30
0.0
 11
809.9312789175194
 21
-525.4949900842198
 31
0.0
  0
LINE
  5
331
330
1F
100
AcDbEntity
  8
1
  6
Continuous
 62
     7
100
AcDbLine
 10
811.8312788608002
 20
-525.4954543393524
 30
0.0
 11
811.8337223088656
 21
-515.4954546378744
 31
0.0
  0
LINE
  5
332
330
1F
100
AcDbEntity
  8
1
  6
Continuous
 62
     7
100
AcDbLine
 10
819.8337220700485
 20
-515.4974093963269
 30
0.0
 11
819.8312786219831
 21
-525.4974090978051
 31
0.0
  0
LINE
  5
333
330
1F
100
AcDbEntity
  8
1
  6
Continuous
 62
     7
100
AcDbLine
 10
821.7312785652639
 20
-525.4978733529372
 30
0.0
 11
821.7337220133295
 21
-515.497873651459
 31
0.0
  0
LINE
  5
334
330
1F
100
AcDbEntity
  8
1
  6
Continuous
 62
     7
100
AcDbLine
 10
814.8917733791932
 20
-482.5462008731634
 30
0.0
 11
814.8844674694772
 21
-512.4461999805831
 31
0.0
  0
LINE
  5
335
330
1F
100
AcDbEntity
  8
1
  6
Continuous
 62
     7
100
AcDbLine
 10
816.7844674127577
 20
-512.4466642357156
 30
0.0
 11
816.7917733224745
 21
-482.5466651282962
 31
0.0
  0
ARC
  5
336
330
1F
100
AcDbEntity
  8
1
  6
Continuous
 62
     7
100
AcDbCircle
 10
815.8417733508336
 20
-482.5464330007297
 30
0.0
 40
0.950000000000017
100
AcDbArc
 50
359.9860000736824
 51
179.9860000737029
  0
ARC
  5
337
330
1F
100
AcDbEntity
  8
1
  6
Continuous
 62
     7
100
AcDbCircle
 10
815.8344674411171
 20
-512.4464321081491
 30
0.0
 40
0.950000000000017
100
AcDbArc
 50
179.9860000737098
 51
359.9860000736961
  0
CIRCLE
  5
338
330
1F
100
AcDbEntity
  8
1
  6
Continuous
 62
     7
100
AcDbCircle
 10
945.8097744885054
 20
-797.5908429720431
 30
0.0
 40
16.0
  0
LINE
  5
339
330
1F
100
AcDbEntity
  8
1
  6
Continuous
 62
     7
100
AcDbLine
 10
930.3178411036756
 20
-793.5908429720431
 30
0.0
 11
961.3017078733351
 21
-793.5908429720431
 31
0.0
  0
LINE
  5
33A
330
1F
100
AcDbEntity
  8
1
  6
Continuous
 62
     7
100
AcDbLine
 10
930.3178411036756
 20
-801.5908429720431
 30
0.0
 11
961.3017078733351
 21
-801.5908429720431
 31
0.0
  0
MTEXT
  5
33B
330
1F
100
AcDbEntity
  8
1
  6
Continuous
 62
     7
100
AcDbMText
 10
941.8097744885049
 20
-791.5908429720431
 30
0.0
 40
8.0
 41
0.0
 71
     7
 72
     5
  1
{\fＭＳ 明朝|b0|i0|c128|p17;\W1.0;橋}
  7
MTSTANDARD
 73
     1
 44
0.78125
  0
MTEXT
  5
33C
330
1F
100
AcDbEntity
  8
1
  6
Continuous
 62
     7
100
AcDbMText
 10
941.8097744885049
 20
-811.5908429720431
 30
0.0
 40
8.0
 41
0.0
 71
     7
 72
     5
  1
{\fＭＳ 明朝|b0|i0|c128|p17;\W1.0;本}
  7
MTSTANDARD
 73
     1
 44
0.78125
  0
MTEXT
  5
33D
330
1F
100
AcDbEntity
  8
1
  6
Continuous
 62
     7
100
AcDbMText
 10
933.3097744885049
 20
-800.0908429720431
 30
0.0
 40
5.0
 41
0.0
 71
     7
 72
     5
  1
{\fＭＳ 明朝|b0|i0|c128|p17;\W1.0;2006.03.23}
  7
MTSTANDARD4
 73
     1
 44
0.875
  0
CIRCLE
  5
33E
330
1F
100
AcDbEntity
  8
1
  6
Continuous
 62
     7
100
AcDbCircle
 10
990.213363026302
 20
-797.5908429720431
 30
0.0
 40
16.0
  0
LINE
  5
33F
330
1F
100
AcDbEntity
  8
1
  6
Continuous
 62
     7
100
AcDbLine
 10
974.7214296414722
 20
-793.5908429720431
 30
0.0
 11
1005.705296411132
 21
-793.5908429720431
 31
0.0
  0
LINE
  5
340
330
1F
100
AcDbEntity
  8
1
  6
Continuous
 62
     7
100
AcDbLine
 10
974.7214296414722
 20
-801.5908429720431
 30
0.0
 11
1005.705296411132
 21
-801.5908429720431
 31
0.0
  0
MTEXT
  5
341
330
1F
100
AcDbEntity
  8
1
  6
Continuous
 62
     7
100
AcDbMText
 10
986.2133630263015
 20
-791.5908429720431
 30
0.0
 40
8.0
 41
0.0
 71
     7
 72
     5
  1
{\fＭＳ 明朝|b0|i0|c128|p17;\W1.0;野}
  7
MTSTANDARD
 73
     1
 44
0.78125
  0
MTEXT
  5
342
330
1F
100
AcDbEntity
  8
1
  6
Continuous
 62
     7
100
AcDbMText
 10
986.2133630263015
 20
-811.5908429720431
 30
0.0
 40
8.0
 41
0.0
 71
     7
 72
     5
  1
{\fＭＳ 明朝|b0|i0|c128|p17;\W1.0;島}
  7
MTSTANDARD
 73
     1
 44
0.78125
  0
CIRCLE
  5
343
330
1F
100
AcDbEntity
  8
1
  6
Continuous
 62
     7
100
AcDbCircle
 10
1033.746292965318
 20
-797.5908429720431
 30
0.0
 40
16.0
  0
LINE
  5
344
330
1F
100
AcDbEntity
  8
1
  6
Continuous
 62
     7
100
AcDbLine
 10
1018.254359580488
 20
-793.5908429720431
 30
0.0
 11
1049.238226350148
 21
-793.5908429720431
 31
0.0
  0
LINE
  5
345
330
1F
100
AcDbEntity
  8
1
  6
Continuous
 62
     7
100
AcDbLine
 10
1018.254359580488
 20
-801.5908429720431
 30
0.0
 11
1049.238226350148
 21
-801.5908429720431
 31
0.0
  0
MTEXT
  5
346
330
1F
100
AcDbEntity
  8
1
  6
Continuous
 62
     7
100
AcDbMText
 10
1029.746292965318
 20
-791.5908429720431
 30
0.0
 40
8.0
 41
0.0
 71
     7
 72
     5
  1
{\fＭＳ 明朝|b0|i0|c128|p17;\W1.0;梅}
  7
MTSTANDARD
 73
     1
 44
0.78125
  0
MTEXT
  5
347
330
1F
100
AcDbEntity
  8
1
  6
Continuous
 62
     7
100
AcDbMText
 10
1029.746292965318
 20
-811.5908429720431
 30
0.0
 40
8.0
 41
0.0
 71
     7
 72
     5
  1
{\fＭＳ 明朝|b0|i0|c128|p17;\W1.0;村}
  7
MTSTANDARD
 73
     1
 44
0.78125
  0
LINE
  5
348
330
1F
100
AcDbEntity
  8
1
  6
Continuous
 62
     7
100
AcDbLine
 10
1060.78315516344
 20
-758.4116553696769
 30
0.0
 11
1060.78315516344
 21
-834.4116133696766
 31
0.0
  0
LINE
  5
349
330
1F
100
AcDbEntity
  8
1
  6
Continuous
 62
     7
100
AcDbLine
 10
1050.78316516344
 20
-834.4116133696766
 30
0.0
 11
1050.78316516344
 21
-758.4116553696769
 31
0.0
  0
LINE
  5
34A
330
1F
100
AcDbEntity
  8
1
  6
Continuous
 62
     7
100
AcDbLine
 10
928.7831851634401
 20
-758.4116553696769
 30
0.0
 11
928.7831851634401
 21
-814.4116333696766
 31
0.0
  0
LINE
  5
34B
330
1F
100
AcDbEntity
  8
1
  6
Continuous
 62
     7
100
AcDbLine
 10
1160.78305516344
 20
-758.4116553696769
 30
0.0
 11
1160.78305516344
 21
-780.4116333696766
 31
0.0
  0
LINE
  5
34C
330
1F
100
AcDbEntity
  8
1
  6
Continuous
 62
     7
100
AcDbLine
 10
1150.78306516344
 20
-758.4116553696769
 30
0.0
 11
1150.78306516344
 21
-780.4116333696766
 31
0.0
  0
LINE
  5
34D
330
1F
100
AcDbEntity
  8
1
  6
Continuous
 62
     7
100
AcDbLine
 10
1160.78305516344
 20
-814.4116333696766
 30
0.0
 11
1160.78305516344
 21
-834.4116133696766
 31
0.0
  0
LINE
  5
34E
330
1F
100
AcDbEntity
  8
1
  6
Continuous
 62
     7
100
AcDbLine
 10
1150.78306516344
 20
-814.4116333696766
 30
0.0
 11
1150.78306516344
 21
-834.4116133696766
 31
0.0
  0
LINE
  5
34F
330
1F
100
AcDbEntity
  8
1
  6
Continuous
 62
     7
100
AcDbLine
 10
1132.78308316344
 20
-814.4116333696766
 30
0.0
 11
1132.78308316344
 21
-834.4116133696766
 31
0.0
  0
LINE
  5
350
330
1F
100
AcDbEntity
  8
1
  6
Continuous
 62
     7
100
AcDbLine
 10
918.7831951634398
 20
-814.4116333696766
 30
0.0
 11
1180.78303516344
 21
-814.4116333696766
 31
0.0
  0
LINE
  5
351
330
1F
100
AcDbEntity
  8
1
  6
Continuous
 62
     7
100
AcDbLine
 10
1180.78303516344
 20
-780.4116333696766
 30
0.0
 11
918.7831951634398
 21
-780.4116333696766
 31
0.0
  0
LINE
  5
352
330
1F
100
AcDbEntity
  8
1
  6
Continuous
 62
     7
100
AcDbLine
 10
918.7831951634398
 20
-758.4116553696769
 30
0.0
 11
1180.78303516344
 21
-758.4116553696769
 31
0.0
  0
LINE
  5
353
330
1F
100
AcDbEntity
  8
1
  6
Continuous
 62
     7
100
AcDbLine
 10
918.7831951634398
 20
-758.4116553696769
 30
0.0
 11
918.7831951634398
 21
-834.4116133696766
 31
0.0
  0
LINE
  5
354
330
1F
100
AcDbEntity
  8
1
  6
Continuous
 62
     7
100
AcDbLine
 10
928.7831851634401
 20
-758.4116553696769
 30
0.0
 11
928.7831851634401
 21
-814.4116333696766
 31
0.0
  0
MTEXT
  5
355
330
1F
100
AcDbEntity
  8
1
  6
Continuous
 62
     7
100
AcDbMText
 10
920.2831901634399
 20
-768.9116483696769
 30
0.0
 40
7.0
 41
0.0
 71
     7
 72
     5
  1
{\fＭＳ 明朝|b0|i0|c128|p17;\W1.0;図}
  7
MTSTANDARD3
 73
     1
 44
0.8392857142857144
  0
MTEXT
  5
356
330
1F
100
AcDbEntity
  8
1
  6
Continuous
 62
     7
100
AcDbMText
 10
1052.28316016344
 20
-824.9116263696766
 30
0.0
 40
7.0
 41
0.0
 71
     7
 72
     5
  1
{\fＭＳ 明朝|b0|i0|c128|p17;\W1.0;図}
  7
MTSTANDARD3
 73
     1
 44
0.8392857142857144
  0
MTEXT
  5
357
330
1F
100
AcDbEntity
  8
1
  6
Continuous
 62
     7
100
AcDbMText
 10
920.2831901634399
 20
-776.9116403696769
 30
0.0
 40
7.0
 41
0.0
 71
     7
 72
     5
  1
{\fＭＳ 明朝|b0|i0|c128|p17;\W1.0;名}
  7
MTSTANDARD3
 73
     1
 44
0.8392857142857144
  0
MTEXT
  5
358
330
1F
100
AcDbEntity
  8
1
  6
Continuous
 62
     7
100
AcDbMText
 10
1052.28316016344
 20
-832.9116183696766
 30
0.0
 40
7.0
 41
0.0
 71
     7
 72
     5
  1
{\fＭＳ 明朝|b0|i0|c128|p17;\W1.0;番}
  7
MTSTANDARD3
 73
     1
 44
0.8392857142857144
  0
MTEXT
  5
359
330
1F
100
AcDbEntity
  8
1
  6
Continuous
 62
     7
100
AcDbMText
 10
1052.28316016344
 20
-768.9116483696769
 30
0.0
 40
7.0
 41
0.0
 71
     7
 72
     5
  1
{\fＭＳ 明朝|b0|i0|c128|p17;\W1.0;符}
  7
MTSTANDARD3
 73
     1
 44
0.8392857142857144
  0
MTEXT
  5
35A
330
1F
100
AcDbEntity
  8
1
  6
Continuous
 62
     7
100
AcDbMText
 10
1052.28316016344
 20
-776.9116403696769
 30
0.0
 40
7.0
 41
0.0
 71
     7
 72
     5
  1
{\fＭＳ 明朝|b0|i0|c128|p17;\W1.0;号}
  7
MTSTANDARD3
 73
     1
 44
0.8392857142857144
  0
MTEXT
  5
35B
330
1F
100
AcDbEntity
  8
1
  6
Continuous
 62
     7
100
AcDbMText
 10
1052.28316016344
 20
-797.1925401045693
 30
0.0
 40
7.0
 41
0.0
 71
     7
 72
     5
  1
{\fＭＳ 明朝|b0|i0|c128|p17;\W1.0;記}
  7
MTSTANDARD3
 73
     1
 44
0.8392857142857144
  0
MTEXT
  5
35C
330
1F
100
AcDbEntity
  8
1
  6
Continuous
 62
     7
100
AcDbMText
 10
1052.28316016344
 20
-805.1925321045693
 30
0.0
 40
7.0
 41
0.0
 71
     7
 72
     5
  1
{\fＭＳ 明朝|b0|i0|c128|p17;\W1.0;事}
  7
MTSTANDARD3
 73
     1
 44
0.8392857142857144
  0
MTEXT
  5
35D
330
1F
100
AcDbEntity
  8
1
  6
Continuous
 62
     7
100
AcDbMText
 10
1152.283060163436
 20
-768.9116483696769
 30
0.0
 40
7.0
 41
0.0
 71
     7
 72
     5
  1
{\fＭＳ 明朝|b0|i0|c128|p17;\W1.0;縮}
  7
MTSTANDARD3
 73
     1
 44
0.8392857142857144
  0
MTEXT
  5
35E
330
1F
100
AcDbEntity
  8
1
  6
Continuous
 62
     7
100
AcDbMText
 10
1152.283060163436
 20
-776.911640369677
 30
0.0
 40
7.0
 41
0.0
 71
     7
 72
     5
  1
{\fＭＳ 明朝|b0|i0|c128|p17;\W1.0;尺}
  7
MTSTANDARD3
 73
     1
 44
0.8392857142857144
  0
MTEXT
  5
360
330
1F
100
AcDbEntity
  8
1
  6
Continuous
 62
     7
100
AcDbMText
 10
950.7831951634398
 20
-828.9116233696766
 30
0.0
 40
9.0
 41
0.0
 71
     7
 72
     5
  1
{\fＭＳ ゴシック|b0|i0|c128|p49;\W1.0;伊藤鉄工株式会社}
  7
MTSTANDARD6
 73
     1
 44
0.7916666666666667
  0
MTEXT
  5
362
330
1F
100
AcDbEntity
  8
1
  6
Continuous
 62
     7
100
AcDbMText
 10
1152.78306016344
 20
-822.4116283696768
 30
0.0
 40
6.0
 41
0.0
 71
     7
 72
     5
  1
{\fＭＳ 明朝|b0|i0|c128|p17;\W1.0;葉}
  7
MTSTANDARD7
 73
     1
 44
0.8333333333333334
  0
MTEXT
  5
363
330
1F
100
AcDbEntity
  8
1
  6
Continuous
 62
     7
100
AcDbMText
 10
1152.78306016344
 20
-827.4116233696765
 30
0.0
 40
6.0
 41
0.0
 71
     7
 72
     5
  1
{\fＭＳ 明朝|b0|i0|c128|p17;\W1.0;ノ}
  7
MTSTANDARD7
 73
     1
 44
0.8333333333333334
  0
MTEXT
  5
364
330
1F
100
AcDbEntity
  8
1
  6
Continuous
 62
     7
100
AcDbMText
 10
1152.78306016344
 20
-832.4116183696766
 30
0.0
 40
6.0
 41
0.0
 71
     7
 72
     5
  1
{\fＭＳ 明朝|b0|i0|c128|p17;\W1.0;内}
  7
MTSTANDARD7
 73
     1
 44
0.8333333333333334
  0
LINE
  5
365
330
1F
100
AcDbEntity
  8
1
  6
Continuous
 62
     7
100
AcDbLine
 10
918.7831951634398
 20
-758.4116553696769
 30
0.0
 11
918.7831951634398
 21
-834.4116133696766
 31
0.0
  0
LINE
  5
366
330
1F
100
AcDbEntity
  8
1
  6
Continuous
 62
     7
100
AcDbLine
 10
918.7831951634398
 20
-758.4116553696769
 30
0.0
 11
918.7831951634398
 21
-834.4116133696766
 31
0.0
  0
LINE
  5
367
330
1F
100
AcDbEntity
  8
1
  6
Continuous
 62
     7
100
AcDbLine
 10
1160.78305516344
 20
-834.4116133696766
 30
0.0
 11
1180.78303516344
 21
-814.4116333696766
 31
0.0
  0
MTEXT
  5
368
330
1F
100
AcDbEntity
  8
1
  6
Continuous
 62
     7
100
AcDbMText
 10
1093.78311016344
 20
-773.4116443696768
 30
0.0
 40
8.0
 41
0.0
 71
     7
 72
     5
  1
{\fＭＳ 明朝|b0|i0|c128|p17;\W1.0;Ｂ３Ｂ}
  7
MTSTANDARD
 73
     1
 44
1.171874999999988
  0
MTEXT
  5
369
330
1F
100
AcDbEntity
  8
1
  6
Continuous
 62
     7
100
AcDbMText
 10
962.7831911634421
 20
-773.4116443696768
 30
0.0
 40
8.0
 41
0.0
 71
     7
 72
     5
  1
{\fＭＳ 明朝|b0|i0|c128|p17;\W1.0;散水栓ボックス}
  7
MTSTANDARD
 73
     1
 44
1.171874999999991
  0
MTEXT
  5
36A
330
1F
100
AcDbEntity
  8
1
  6
Continuous
 62
     7
100
AcDbMText
 10
1166.28304516344
 20
-772.4116443696768
 30
0.0
 40
6.0
 41
0.0
 71
     7
 72
     5
  1
{\fＭＳ 明朝|b0|i0|c128|p17;\W1.0;1/2}
  7
MTSTANDARD7
 73
     1
 44
1.354165520833317
  0
MTEXT
  5
36B
330
1F
100
AcDbEntity
  8
1
  6
Continuous
 62
     7
100
AcDbMText
 10
1060.78311916344
 20
-828.4116233696766
 30
0.0
 40
8.0
 41
0.0
 71
     7
 72
     5
  1
{\fＭＳ 明朝|b0|i0|c128|p17;\W1.0;Ｇ１１Ａ９８０９９}
  7
MTSTANDARD
 73
     1
 44
1.093749218750001
  0
LINE
  5
36C
330
1F
100
AcDbEntity
  8
1
  6
Continuous
 62
     7
100
AcDbLine
 10
1180.78303516344
 20
-834.4116133696766
 30
0.0
 11
1180.78303516344
 21
-758.4116553696769
 31
0.0
  0
INSERT
  5
379
330
1F
100
AcDbEntity
  8
1
  6
Continuous
 62
     0
100
AcDbBlockReference
  2
BLK2
 10
827.7733784911061
 20
-516.49574157052
 30
0.0
  0
ARC
  5
37A
330
1F
100
AcDbEntity
  8
1
  6
Continuous
 62
     7
100
AcDbCircle
 10
827.7684915949749
 20
-536.4957409734757
 30
0.0
 40
4.0
100
AcDbArc
 50
269.9893250562372
 51
359.9860000736988
  0
ARC
  5
37B
330
1F
100
AcDbEntity
  8
1
  6
Continuous
 62
     7
100
AcDbCircle
 10
827.7684915949749
 20
-536.4957409734757
 30
0.0
 40
4.0
100
AcDbArc
 50
179.9860000736988
 51
269.9893250562372
  0
ARC
  5
37C
330
1F
100
AcDbEntity
  8
1
  6
Continuous
 62
     7
100
AcDbCircle
 10
827.7684915949749
 20
-536.4957409734757
 30
0.0
 40
5.899999999999978
100
AcDbArc
 50
269.992762750014
 51
359.9860000736969
  0
ARC
  5
37D
330
1F
100
AcDbEntity
  8
1
  6
Continuous
 62
     7
100
AcDbCircle
 10
827.7684915949749
 20
-536.4957409734757
 30
0.0
 40
5.899999999999978
100
AcDbArc
 50
179.9860000737002
 51
269.992762750014
  0
LINE
  5
37E
330
1F
100
AcDbEntity
  8
1
  6
Continuous
 62
     7
100
AcDbLine
 10
821.868491771103
 20
-536.4942993391171
 30
0.0
 11
821.8709352191686
 21
-526.4942996376391
 31
0.0
  0
LINE
  5
37F
330
1F
100
AcDbEntity
  8
1
  6
Continuous
 62
     7
100
AcDbLine
 10
823.7709351624494
 20
-526.4947638927713
 30
0.0
 11
823.7684917143833
 21
-536.4947635942494
 31
0.0
  0
LINE
  5
380
330
1F
100
AcDbEntity
  8
1
  6
Continuous
 62
     7
100
AcDbLine
 10
831.768491475566
 20
-536.4967183527019
 30
0.0
 11
831.770934923632
 21
-526.4967186512239
 31
0.0
  0
LINE
  5
381
330
1F
100
AcDbEntity
  8
1
  6
Continuous
 62
     7
100
AcDbLine
 10
833.6709348669128
 20
-526.4971829063566
 30
0.0
 11
833.6684914188472
 21
-536.4971826078346
 31
0.0
  0
ARC
  5
382
330
1F
100
AcDbEntity
  8
1
  6
Continuous
 62
     7
100
AcDbCircle
 10
827.7733784911061
 20
-516.49574157052
 30
0.0
 40
5.899999999999978
100
AcDbArc
 50
359.9860000737012
 51
90.0
  0
ARC
  5
383
330
1F
100
AcDbEntity
  8
1
  6
Continuous
 62
     7
100
AcDbCircle
 10
827.7733784911061
 20
-516.49574157052
 30
0.0
 40
5.899999999999978
100
AcDbArc
 50
90.0
 51
179.9860000736969
  0
LINE
  5
384
330
1F
100
AcDbEntity
  8
1
  6
Continuous
 62
     7
100
AcDbLine
 10
821.8733786672342
 20
-516.494299936161
 30
0.0
 11
821.8709352191686
 21
-526.4942996376391
 31
0.0
  0
LINE
  5
385
330
1F
100
AcDbEntity
  8
1
  6
Continuous
 62
     7
100
AcDbLine
 10
823.7709351624494
 20
-526.4947638927717
 30
0.0
 11
823.7725320558416
 21
-519.95935449603
 31
0.0
  0
LINE
  5
386
330
1F
100
AcDbEntity
  8
1
  6
Continuous
 62
     7
100
AcDbLine
 10
831.772532055842
 20
-519.9603318752852
 30
0.0
 11
831.770934923632
 21
-526.4967186512243
 31
0.0
  0
LINE
  5
387
330
1F
100
AcDbEntity
  8
1
  6
Continuous
 62
     7
100
AcDbLine
 10
833.6709348669128
 20
-526.4971829063566
 30
0.0
 11
833.6733783149784
 21
-516.4971832048784
 31
0.0
  0
SPLINE
  5
388
330
1F
100
AcDbEntity
  8
1
  6
PHANTOM2
 62
     7
100
AcDbSpline
210
0.0
220
0.0
230
1.0
 70
     8
 71
     3
 72
    47
 73
    43
 74
     0
 42
0.000000001
 43
0.0
 40
0.0
 40
0.0
 40
0.0
 40
0.0
 40
1.0
 40
1.0
 40
1.0
 40
2.0
 40
2.0
 40
2.0
 40
3.0
 40
3.0
 40
3.0
 40
4.0
 40
4.0
 40
4.0
 40
5.0
 40
5.0
 40
5.0
 40
6.0
 40
6.0
 40
6.0
 40
7.0
 40
7.0
 40
7.0
 40
8.0
 40
8.0
 40
8.0
 40
9.0
 40
9.0
 40
9.0
 40
10.0
 40
10.0
 40
10.0
 40
11.0
 40
11.0
 40
11.0
 40
12.0
 40
12.0
 40
12.0
 40
13.0
 40
13.0
 40
13.0
 40
14.0
 40
14.0
 40
14.0
 40
14.0
 10
815.8280900416657
 20
-541.3964313729886
 30
0.0
 10
815.8280900416657
 20
-541.3964313729886
 30
0.0
 10
813.3366284070798
 20
-551.2956338857773
 30
0.0
 10
813.2245669092365
 20
-555.5284875579327
 30
0.0
 10
813.1125054113932
 20
-559.7613412300884
 30
0.0
 10
815.108515064386
 20
-563.3138997328764
 30
0.0
 10
815.1557210546061
 20
-566.7935534059219
 30
0.0
 10
815.2029270448263
 20
-570.2732070789674
 30
0.0
 10
813.3819202099705
 20
-574.0833026835539
 30
0.0
 10
813.5078028505575
 20
-576.406409596206
 30
0.0
 10
813.6336854911444
 20
-578.729516508858
 30
0.0
 10
814.8124047620959
 20
-579.7709092628054
 30
0.0
 10
815.9110168981283
 20
-580.7321948818337
 30
0.0
 10
817.0096290341608
 20
-581.6934805008622
 30
0.0
 10
818.7147666202945
 20
-581.9223580292023
 30
0.0
 10
820.0994756667521
 20
-582.1741233103764
 30
0.0
 10
821.4841847132097
 20
-582.4258885915505
 30
0.0
 10
822.8460060068332
 20
-582.6776538727246
 30
0.0
 10
824.2192711768739
 20
-582.2427865688784
 30
0.0
 10
825.5925363469146
 20
-581.8079192650322
 30
0.0
 10
827.4006688208012
 20
-580.5834244884127
 30
0.0
 10
828.3390666869957
 20
-579.5649194872992
 30
0.0
 10
829.2774645531902
 20
-578.5464144861859
 30
0.0
 10
829.2545768003561
 20
-578.1687665644247
 30
0.0
 10
829.8496583740402
 20
-576.1317565621978
 30
0.0
 10
830.4447399477244
 20
-574.094746559971
 30
0.0
 10
831.76078573568
 20
-570.0665020611852
 30
0.0
 10
831.909556129101
 20
-567.3428594739381
 30
0.0
 10
832.0583265225221
 20
-564.619216886691
 30
0.0
 10
831.5319082073397
 20
-562.1015640749499
 30
0.0
 10
830.7422807345665
 20
-559.789901038715
 30
0.0
 10
829.9526532617933
 20
-557.47823800248
 30
0.0
 10
827.8813116303154
 20
-555.3267892360831
 30
0.0
 10
827.1717912924612
 20
-553.4728812565284
 30
0.0
 10
826.462270954607
 20
-551.6189732769735
 30
0.0
 10
826.3848941743333
 20
-550.2379596489423
 30
0.0
 10
826.4851587074409
 20
-548.6664531613862
 30
0.0
 10
826.5854232405484
 20
-547.0949466738303
 30
0.0
 10
827.5586751938285
 20
-545.0889613664908
 30
0.0
 10
827.7733784911061
 20
-544.0438423311928
 30
0.0
 10
827.9880817883836
 20
-542.9987232958947
 30
0.0
 10
827.7733784911061
 20
-542.3957389495979
 30
0.0
 10
827.7733784911061
 20
-542.3957389495979
 30
0.0
  0
MTEXT
  5
389
330
1F
100
AcDbEntity
  8
1
  6
Continuous
 62
     7
100
AcDbMText
 10
842.6997018301064
 20
-782.0042059622692
 30
0.0
 40
8.0
 41
0.0
 71
     7
 72
     5
  1
{\fＭＳ 明朝|b0|i0|c128|p17;\W1.0;溶融亜鉛メッキ}
  7
MTSTANDARD
 73
     1
 44
0.9375
  0
MTEXT
  5
38A
330
1F
100
AcDbEntity
  8
1
  6
Continuous
 62
     7
100
AcDbMText
 10
1088.78309516344
 20
-805.9116333696766
 30
0.0
 40
8.0
 41
0.0
 71
     7
 72
     5
  1
{\fＭＳ 明朝|b0|i0|c128|p17;\W1.0;破壊荷重６０ＫＮ\P加重体　φ１５０}
  7
MTSTANDARD
 73
     1
 44
0.703125
  0
ENDSEC
  0
SECTION
  2
OBJECTS
  0
DICTIONARY
  5
C
330
0
100
AcDbDictionary
281
     1
  3
ACAD_GROUP
350
D
  3
ACAD_LAYOUT
350
1A
  3
ACAD_MATERIAL
350
43
  3
ACAD_MLEADERSTYLE
350
6B
  3
ACAD_MLINESTYLE
350
17
  3
ACAD_PLOTSETTINGS
350
19
  3
ACAD_PLOTSTYLENAME
350
E
  3
ACAD_SCALELIST
350
47
  3
ACAD_TABLESTYLE
350
69
  3
ACAD_VISUALSTYLE
350
2A
  3
AcDbVariableDictionary
350
39A
  0
DICTIONARY
  5
3A1
330
8
100
AcDbDictionary
280
     1
281
     1
  3
ACAD_XREC_ROUNDTRIP
360
3A2
  0
DICTIONARY
  5
D
102
{ACAD_REACTORS
330
C
102
}
330
C
100
AcDbDictionary
281
     1
  0
DICTIONARY
  5
1A
102
{ACAD_REACTORS
330
C
102
}
330
C
100
AcDbDictionary
281
     1
  3
Layout1
350
1E
  3
Model
350
22
  0
DICTIONARY
  5
43
102
{ACAD_REACTORS
330
C
102
}
330
C
100
AcDbDictionary
281
     1
  3
ByBlock
350
45
  3
ByLayer
350
44
  3
Global
350
46
  0
DICTIONARY
  5
6B
102
{ACAD_REACTORS
330
C
102
}
330
C
100
AcDbDictionary
281
     1
  3
Standard
350
6C
  0
DICTIONARY
  5
17
102
{ACAD_REACTORS
330
C
102
}
330
C
100
AcDbDictionary
281
     1
  3
Standard
350
18
  0
DICTIONARY
  5
19
102
{ACAD_REACTORS
330
C
102
}
330
C
100
AcDbDictionary
281
     1
  0
ACDBDICTIONARYWDFLT
  5
E
102
{ACAD_REACTORS
330
C
102
}
330
C
100
AcDbDictionary
281
     1
  3
Normal
350
F
100
AcDbDictionaryWithDefault
340
F
  0
DICTIONARY
  5
47
102
{ACAD_REACTORS
330
C
102
}
330
C
100
AcDbDictionary
281
     1
  3
A0
350
48
  3
A1
350
49
  3
A2
350
4A
  3
A3
350
4B
  3
A4
350
4C
  3
A5
350
4D
  3
A6
350
4E
  3
A7
350
4F
  3
A8
350
50
  3
A9
350
51
  3
B0
350
52
  3
B1
350
53
  3
B2
350
54
  3
B3
350
55
  3
B4
350
56
  3
B5
350
57
  3
B6
350
58
  3
B7
350
59
  3
B8
350
5A
  3
B9
350
5B
  3
C0
350
5C
  3
C1
350
5D
  3
C2
350
5E
  3
C3
350
5F
  3
C4
350
60
  3
C5
350
61
  3
C6
350
62
  3
C7
350
63
  3
C8
350
64
  3
C9
350
65
  3
D0
350
66
  3
D1
350
67
  3
D2
350
68
  0
DICTIONARY
  5
69
102
{ACAD_REACTORS
330
C
102
}
330
C
100
AcDbDictionary
281
     1
  3
Standard
350
6A
  0
DICTIONARY
  5
2A
102
{ACAD_REACTORS
330
C
102
}
330
C
100
AcDbDictionary
281
     1
  3
2dWireframe
350
2F
  3
Basic
350
32
  3
Brighten
350
36
  3
ColorChange
350
3A
  3
Conceptual
350
34
  3
Dim
350
35
  3
EdgeColorOff
350
3D
  3
Facepattern
350
39
  3
Flat
350
2B
  3
FlatWithEdges
350
2C
  3
Gouraud
350
2D
  3
GouraudWithEdges
350
2E
  3
Hidden
350
31
  3
JitterOff
350
3B
  3
Linepattern
350
38
  3
OverhangOff
350
3C
  3
Realistic
350
33
  3
Shaded
350
42
  3
Shaded with edges
350
41
  3
Shades of Gray
350
3E
  3
Sketchy
350
3F
  3
Thicken
350
37
  3
Wireframe
350
30
  3
X-Ray
350
40
  0
DICTIONARY
  5
39A
102
{ACAD_REACTORS
330
C
102
}
330
C
100
AcDbDictionary
281
     1
  3
CANNOSCALE
350
3A3
  3
CMLEADERSTYLE
350
39C
  3
CTABLESTYLE
350
39B
  3
DIMASSOC
350
39F
  3
HIDETEXT
350
3A0
  3
MSLTSCALE
350
3A4
  0
XRECORD
  5
3A2
102
{ACAD_REACTORS
330
3A1
102
}
330
3A1
100
AcDbXrecord
280
     1
102
VTR_0.000_0.000_1.000_1.000_VISUALSTYLE
340
2F
102
VTR_0.000_0.000_1.000_1.000_GRIDDISPLAY
 70
     3
102
VTR_0.000_0.000_1.000_1.000_GRIDMAJOR
 70
     5
102
VTR_0.000_0.000_1.000_1.000_DEFAULTLIGHTING
280
     1
102
VTR_0.000_0.000_1.000_1.000_DEFAULTLIGHTINGTYPE
 70
     1
102
VTR_0.000_0.000_1.000_1.000_BRIGHTNESS
141
0.0
102
VTR_0.000_0.000_1.000_1.000_CONTRAST
142
0.0
  0
LAYOUT
  5
1E
102
{ACAD_REACTORS
330
1A
102
}
330
1A
100
AcDbPlotSettings
  1

  2
none_device
  4

  6

 40
0.0
 41
0.0
 42
0.0
 43
0.0
 44
0.0
 45
0.0
 46
0.0
 47
0.0
 48
0.0
 49
0.0
140
0.0
141
0.0
142
1.0
143
1.0
 70
   688
 72
     0
 73
     0
 74
     5
  7

 75
    16
147
1.0
148
0.0
149
0.0
100
AcDbLayout
  1
Layout1
 70
     1
 71
     1
 10
0.0
 20
0.0
 11
12.0
 21
9.0
 12
0.0
 22
0.0
 32
0.0
 14
1.000000000000000E+20
 24
1.000000000000000E+20
 34
1.000000000000000E+20
 15
-1.000000000000000E+20
 25
-1.000000000000000E+20
 35
-1.000000000000000E+20
146
0.0
 13
0.0
 23
0.0
 33
0.0
 16
1.0
 26
0.0
 36
0.0
 17
0.0
 27
1.0
 37
0.0
 76
     0
330
1B
  0
LAYOUT
  5
22
102
{ACAD_REACTORS
330
1A
102
}
330
1A
100
AcDbPlotSettings
  1

  2
none_device
  4
Letter_(8.50_x_11.00_Inches)
  6

 40
6.35
 41
6.35
 42
6.35000508
 43
6.35000508
 44
215.9
 45
279.4
 46
0.0
 47
0.0
 48
0.0
 49
0.0
140
0.0
141
0.0
142
1.0
143
1.0
 70
  1712
 72
     0
 73
     0
 74
     0
  7

 75
     0
147
1.0
148
0.0
149
0.0
100
AcDbLayout
  1
Model
 70
     1
 71
     0
 10
646.7830351634402
 20
-834.4116133696766
 11
1489.638656631285
 21
-94.41161336967662
 12
646.7830351634402
 22
-94.41161336967662
 32
0.0
 14
646.7830351634402
 24
-834.4116133696766
 34
0.0
 15
1489.638656631285
 25
-94.41161336967662
 35
0.0
146
0.0
 13
0.0
 23
0.0
 33
0.0
 16
1.0
 26
0.0
 36
0.0
 17
0.0
 27
1.0
 37
0.0
 76
     0
330
1F
331
29
  0
MATERIAL
  5
45
102
{ACAD_REACTORS
330
43
102
}
102
{ACAD_XDICTIONARY
360
3D7
102
}
330
43
100
AcDbMaterial
  1
ByBlock
  0
MATERIAL
  5
44
102
{ACAD_REACTORS
330
43
102
}
102
{ACAD_XDICTIONARY
360
3D5
102
}
330
43
100
AcDbMaterial
  1
ByLayer
  0
MATERIAL
  5
46
102
{ACAD_REACTORS
330
43
102
}
102
{ACAD_XDICTIONARY
360
3D9
102
}
330
43
100
AcDbMaterial
  1
Global
  0
MLEADERSTYLE
  5
6C
102
{ACAD_REACTORS
330
6B
102
}
102
{ACAD_XDICTIONARY
360
3DC
102
}
330
6B
100
AcDbMLeaderStyle
170
     2
171
     1
172
     0
 90
        2
 40
0.0
 41
0.0
173
     1
 91
-1056964608
340
14
 92
       -2
290
     1
 42
0.09
291
     1
 43
0.36
  3
Standard
341
0
 44
0.18
300

342
11
174
     1
178
     6
175
     1
176
     0
 93
-1056964608
 45
0.18
292
     0
297
     0
 46
0.18
343
0
 94
-1056964608
 47
1.0
 49
1.0
140
1.0
293
     1
141
0.0
294
     1
177
     0
142
1.0
295
     0
296
     0
143
0.125
1001
ACAD_MLEADERVER
1070
     2
  0
MLINESTYLE
  5
18
102
{ACAD_REACTORS
330
17
102
}
330
17
100
AcDbMlineStyle
  2
Standard
 70
     0
  3

 62
   256
 51
90.0
 52
90.0
 71
     2
 49
0.5
 62
   256
  6
BYLAYER
 49
-0.5
 62
   256
  6
BYLAYER
  0
ACDBPLACEHOLDER
  5
F
102
{ACAD_REACTORS
330
E
102
}
330
E
  0
SCALE
  5
48
102
{ACAD_REACTORS
330
47
102
}
330
47
100
AcDbScale
 70
     0
300
1:1
140
1.0
141
1.0
290
     1
  0
SCALE
  5
49
102
{ACAD_REACTORS
330
47
102
}
330
47
100
AcDbScale
 70
     0
300
1:2
140
1.0
141
2.0
290
     0
  0
SCALE
  5
4A
102
{ACAD_REACTORS
330
47
102
}
330
47
100
AcDbScale
 70
     0
300
1:4
140
1.0
141
4.0
290
     0
  0
SCALE
  5
4B
102
{ACAD_REACTORS
330
47
102
}
330
47
100
AcDbScale
 70
     0
300
1:5
140
1.0
141
5.0
290
     0
  0
SCALE
  5
4C
102
{ACAD_REACTORS
330
47
102
}
330
47
100
AcDbScale
 70
     0
300
1:8
140
1.0
141
8.0
290
     0
  0
SCALE
  5
4D
102
{ACAD_REACTORS
330
47
102
}
330
47
100
AcDbScale
 70
     0
300
1:10
140
1.0
141
10.0
290
     0
  0
SCALE
  5
4E
102
{ACAD_REACTORS
330
47
102
}
330
47
100
AcDbScale
 70
     0
300
1:16
140
1.0
141
16.0
290
     0
  0
SCALE
  5
4F
102
{ACAD_REACTORS
330
47
102
}
330
47
100
AcDbScale
 70
     0
300
1:20
140
1.0
141
20.0
290
     0
  0
SCALE
  5
50
102
{ACAD_REACTORS
330
47
102
}
330
47
100
AcDbScale
 70
     0
300
1:30
140
1.0
141
30.0
290
     0
  0
SCALE
  5
51
102
{ACAD_REACTORS
330
47
102
}
330
47
100
AcDbScale
 70
     0
300
1:40
140
1.0
141
40.0
290
     0
  0
SCALE
  5
52
102
{ACAD_REACTORS
330
47
102
}
330
47
100
AcDbScale
 70
     0
300
1:50
140
1.0
141
50.0
290
     0
  0
SCALE
  5
53
102
{ACAD_REACTORS
330
47
102
}
330
47
100
AcDbScale
 70
     0
300
1:100
140
1.0
141
100.0
290
     0
  0
SCALE
  5
54
102
{ACAD_REACTORS
330
47
102
}
330
47
100
AcDbScale
 70
     0
300
2:1
140
2.0
141
1.0
290
     0
  0
SCALE
  5
55
102
{ACAD_REACTORS
330
47
102
}
330
47
100
AcDbScale
 70
     0
300
4:1
140
4.0
141
1.0
290
     0
  0
SCALE
  5
56
102
{ACAD_REACTORS
330
47
102
}
330
47
100
AcDbScale
 70
     0
300
8:1
140
8.0
141
1.0
290
     0
  0
SCALE
  5
57
102
{ACAD_REACTORS
330
47
102
}
330
47
100
AcDbScale
 70
     0
300
10:1
140
10.0
141
1.0
290
     0
  0
SCALE
  5
58
102
{ACAD_REACTORS
330
47
102
}
330
47
100
AcDbScale
 70
     0
300
100:1
140
100.0
141
1.0
290
     0
  0
SCALE
  5
59
102
{ACAD_REACTORS
330
47
102
}
330
47
100
AcDbScale
 70
     0
300
1/128" = 1'-0"
140
0.0078125
141
12.0
290
     0
  0
SCALE
  5
5A
102
{ACAD_REACTORS
330
47
102
}
330
47
100
AcDbScale
 70
     0
300
1/64" = 1'-0"
140
0.015625
141
12.0
290
     0
  0
SCALE
  5
5B
102
{ACAD_REACTORS
330
47
102
}
330
47
100
AcDbScale
 70
     0
300
1/32" = 1'-0"
140
0.03125
141
12.0
290
     0
  0
SCALE
  5
5C
102
{ACAD_REACTORS
330
47
102
}
330
47
100
AcDbScale
 70
     0
300
1/16" = 1'-0"
140
0.0625
141
12.0
290
     0
  0
SCALE
  5
5D
102
{ACAD_REACTORS
330
47
102
}
330
47
100
AcDbScale
 70
     0
300
3/32" = 1'-0"
140
0.09375
141
12.0
290
     0
  0
SCALE
  5
5E
102
{ACAD_REACTORS
330
47
102
}
330
47
100
AcDbScale
 70
     0
300
1/8" = 1'-0"
140
0.125
141
12.0
290
     0
  0
SCALE
  5
5F
102
{ACAD_REACTORS
330
47
102
}
330
47
100
AcDbScale
 70
     0
300
3/16" = 1'-0"
140
0.1875
141
12.0
290
     0
  0
SCALE
  5
60
102
{ACAD_REACTORS
330
47
102
}
330
47
100
AcDbScale
 70
     0
300
1/4" = 1'-0"
140
0.25
141
12.0
290
     0
  0
SCALE
  5
61
102
{ACAD_REACTORS
330
47
102
}
330
47
100
AcDbScale
 70
     0
300
3/8" = 1'-0"
140
0.375
141
12.0
290
     0
  0
SCALE
  5
62
102
{ACAD_REACTORS
330
47
102
}
330
47
100
AcDbScale
 70
     0
300
1/2" = 1'-0"
140
0.5
141
12.0
290
     0
  0
SCALE
  5
63
102
{ACAD_REACTORS
330
47
102
}
330
47
100
AcDbScale
 70
     0
300
3/4" = 1'-0"
140
0.75
141
12.0
290
     0
  0
SCALE
  5
64
102
{ACAD_REACTORS
330
47
102
}
330
47
100
AcDbScale
 70
     0
300
1" = 1'-0"
140
1.0
141
12.0
290
     0
  0
SCALE
  5
65
102
{ACAD_REACTORS
330
47
102
}
330
47
100
AcDbScale
 70
     0
300
1-1/2" = 1'-0"
140
1.5
141
12.0
290
     0
  0
SCALE
  5
66
102
{ACAD_REACTORS
330
47
102
}
330
47
100
AcDbScale
 70
     0
300
3" = 1'-0"
140
3.0
141
12.0
290
     0
  0
SCALE
  5
67
102
{ACAD_REACTORS
330
47
102
}
330
47
100
AcDbScale
 70
     0
300
6" = 1'-0"
140
6.0
141
12.0
290
     0
  0
SCALE
  5
68
102
{ACAD_REACTORS
330
47
102
}
330
47
100
AcDbScale
 70
     0
300
1'-0" = 1'-0"
140
12.0
141
12.0
290
     0
  0
TABLESTYLE
  5
6A
102
{ACAD_REACTORS
330
69
102
}
330
69
100
AcDbTableStyle
  3
Standard
 70
     0
 71
     0
 40
0.06
 41
0.06
280
     0
281
     0
  7
Standard
140
0.18
170
     2
 62
     0
 63
   257
283
     0
274
    -2
284
     1
 64
     0
275
    -2
285
     1
 65
     0
276
    -2
286
     1
 66
     0
277
    -2
287
     1
 67
     0
278
    -2
288
     1
 68
     0
279
    -2
289
     1
 69
     0
  7
Standard
140
0.25
170
     5
 62
     0
 63
   257
283
     0
274
    -2
284
     1
 64
     0
275
    -2
285
     1
 65
     0
276
    -2
286
     1
 66
     0
277
    -2
287
     1
 67
     0
278
    -2
288
     1
 68
     0
279
    -2
289
     1
 69
     0
  7
Standard
140
0.18
170
     5
 62
     0
 63
   257
283
     0
274
    -2
284
     1
 64
     0
275
    -2
285
     1
 65
     0
276
    -2
286
     1
 66
     0
277
    -2
287
     1
 67
     0
278
    -2
288
     1
 68
     0
279
    -2
289
     1
 69
     0
  0
VISUALSTYLE
  5
2F
102
{ACAD_REACTORS
330
2A
102
}
102
{ACAD_XDICTIONARY
360
3AD
102
}
330
2A
100
AcDbVisualStyle
  2
2dWireframe
 70
     4
 71
     0
 72
     2
 73
     0
 90
        0
 40
0.6
 41
30.0
 62
     5
 63
     7
 74
     1
 91
        4
 64
     7
 65
   257
 75
     1
175
     1
 42
1.0
 92
        0
 66
   257
 43
1.0
 76
     1
 77
     6
 78
     2
 67
     7
 79
     5
170
     0
171
     0
290
     0
174
     0
 93
        1
 44
0.0
173
     0
291
     0
 45
0.0
1001
ACAD
1000
AcDbSavedByObjectVersion
1070
     0
  0
VISUALSTYLE
  5
32
102
{ACAD_REACTORS
330
2A
102
}
102
{ACAD_XDICTIONARY
360
3B3
102
}
330
2A
100
AcDbVisualStyle
  2
Basic
 70
     7
 71
     1
 72
     0
 73
     1
 90
        0
 40
0.6
 41
30.0
 62
     5
 63
     7
 74
     0
 91
        4
 64
     7
 65
   257
 75
     1
175
     1
 42
1.0
 92
        8
 66
     7
 43
1.0
 76
     1
 77
     6
 78
     2
 67
     7
 79
     5
170
     0
171
     0
290
     0
174
     0
 93
        1
 44
0.0
173
     0
291
     1
 45
0.0
1001
ACAD
1000
AcDbSavedByObjectVersion
1070
     0
  0
VISUALSTYLE
  5
36
102
{ACAD_REACTORS
330
2A
102
}
102
{ACAD_XDICTIONARY
360
3BB
102
}
330
2A
100
AcDbVisualStyle
  2
Brighten
 70
    12
 71
     2
 72
     2
 73
     0
 90
        0
 40
0.6
 41
30.0
 62
     5
 63
     7
 74
     1
 91
        4
 64
     7
 65
   257
 75
     1
175
     1
 42
1.0
 92
        8
 66
     7
 43
1.0
 76
     1
 77
     6
 78
     2
 67
     7
 79
     5
170
     0
171
     0
290
     0
174
     0
 93
        1
 44
50.0
173
     0
291
     1
 45
0.0
1001
ACAD
1000
AcDbSavedByObjectVersion
1070
     0
  0
VISUALSTYLE
  5
3A
102
{ACAD_REACTORS
330
2A
102
}
102
{ACAD_XDICTIONARY
360
3C3
102
}
330
2A
100
AcDbVisualStyle
  2
ColorChange
 70
    16
 71
     2
 72
     2
 73
     3
 90
        0
 40
0.6
 41
30.0
 62
     5
 63
     8
 74
     1
 91
        4
 64
     7
 65
   257
 75
     1
175
     1
 42
1.0
 92
        8
 66
     8
 43
1.0
 76
     1
 77
     6
 78
     2
 67
     7
 79
     5
170
     0
171
     0
290
     0
174
     0
 93
        1
 44
0.0
173
     0
291
     1
 45
0.0
1001
ACAD
1000
AcDbSavedByObjectVersion
1070
     0
  0
VISUALSTYLE
  5
34
102
{ACAD_REACTORS
330
2A
102
}
102
{ACAD_XDICTIONARY
360
3B7
102
}
330
2A
100
AcDbVisualStyle
  2
Conceptual
 70
     9
 71
     3
 72
     2
 73
     0
 90
        0
 40
0.6
 41
30.0
 62
     5
 63
     7
 74
     2
 91
        2
 64
     7
 65
   257
 75
     1
175
     1
 42
179.0
 92
        8
 66
     7
 43
1.0
 76
     1
 77
     6
 78
     2
 67
     7
 79
     3
170
     0
171
     0
290
     0
174
     0
 93
        1
 44
0.0
173
     0
291
     0
 45
0.0
1001
ACAD
1000
AcDbSavedByObjectVersion
1070
     0
  0
VISUALSTYLE
  5
35
102
{ACAD_REACTORS
330
2A
102
}
102
{ACAD_XDICTIONARY
360
3B9
102
}
330
2A
100
AcDbVisualStyle
  2
Dim
 70
    11
 71
     2
 72
     2
 73
     0
 90
        0
 40
0.6
 41
30.0
 62
     5
 63
     7
 74
     1
 91
        4
 64
     7
 65
   257
 75
     1
175
     1
 42
1.0
 92
        8
 66
     7
 43
1.0
 76
     1
 77
     6
 78
     2
 67
     7
 79
     5
170
     0
171
     0
290
     0
174
     0
 93
        1
 44
-50.0
173
     0
291
     1
 45
0.0
1001
ACAD
1000
AcDbSavedByObjectVersion
1070
     0
  0
VISUALSTYLE
  5
3D
102
{ACAD_REACTORS
330
2A
102
}
102
{ACAD_XDICTIONARY
360
3C9
102
}
330
2A
100
AcDbVisualStyle
  2
EdgeColorOff
 70
    22
 71
     2
 72
     2
 73
     0
 90
        0
 40
0.6
 41
30.0
 62
     5
 63
     7
 74
     1
 91
        4
 64
     7
 65
   257
 75
     1
175
     1
 42
1.0
 92
        8
 66
     7
 43
1.0
 76
     1
 77
     6
 78
     2
 67
     7
 79
     5
170
     0
171
     0
290
     0
174
     0
 93
        1
 44
0.0
173
     0
291
     1
 45
0.0
1001
ACAD
1000
AcDbSavedByObjectVersion
1070
     0
  0
VISUALSTYLE
  5
39
102
{ACAD_REACTORS
330
2A
102
}
102
{ACAD_XDICTIONARY
360
3C1
102
}
330
2A
100
AcDbVisualStyle
  2
Facepattern
 70
    15
 71
     2
 72
     2
 73
     0
 90
        0
 40
0.6
 41
30.0
 62
     5
 63
     7
 74
     1
 91
        4
 64
     7
 65
   257
 75
     1
175
     1
 42
1.0
 92
        8
 66
     7
 43
1.0
 76
     1
 77
     6
 78
     2
 67
     7
 79
     5
170
     0
171
     0
290
     0
174
     0
 93
        1
 44
0.0
173
     0
291
     1
 45
0.0
1001
ACAD
1000
AcDbSavedByObjectVersion
1070
     0
  0
VISUALSTYLE
  5
2B
102
{ACAD_REACTORS
330
2A
102
}
102
{ACAD_XDICTIONARY
360
3A5
102
}
330
2A
100
AcDbVisualStyle
  2
Flat
 70
     0
 71
     2
 72
     1
 73
     1
 90
        2
 40
0.6
 41
30.0
 62
     5
 63
     7
 74
     0
 91
        0
 64
     7
 65
   257
 75
     1
175
     1
 42
1.0
 92
        8
 66
     7
 43
1.0
 76
     1
 77
     6
 78
     2
 67
     7
 79
     5
170
     0
171
     0
290
     0
174
     0
 93
       13
 44
0.0
173
     0
291
     1
 45
0.0
1001
ACAD
1000
AcDbSavedByObjectVersion
1070
     0
  0
VISUALSTYLE
  5
2C
102
{ACAD_REACTORS
330
2A
102
}
102
{ACAD_XDICTIONARY
360
3A7
102
}
330
2A
100
AcDbVisualStyle
  2
FlatWithEdges
 70
     1
 71
     2
 72
     1
 73
     1
 90
        2
 40
0.6
 41
30.0
 62
     5
 63
     7
 74
     1
 91
        0
 64
     7
 65
   257
 75
     1
175
     1
 42
1.0
 92
        0
 66
   257
 43
1.0
 76
     1
 77
     6
 78
     2
 67
     7
 79
     5
170
     0
171
     0
290
     0
174
     0
 93
       13
 44
0.0
173
     0
291
     1
 45
0.0
1001
ACAD
1000
AcDbSavedByObjectVersion
1070
     0
  0
VISUALSTYLE
  5
2D
102
{ACAD_REACTORS
330
2A
102
}
102
{ACAD_XDICTIONARY
360
3A9
102
}
330
2A
100
AcDbVisualStyle
  2
Gouraud
 70
     2
 71
     2
 72
     2
 73
     1
 90
        2
 40
0.6
 41
30.0
 62
     5
 63
     7
 74
     0
 91
        0
 64
     7
 65
   257
 75
     1
175
     1
 42
1.0
 92
        0
 66
     7
 43
1.0
 76
     1
 77
     6
 78
     2
 67
     7
 79
     5
170
     0
171
     0
290
     0
174
     0
 93
       13
 44
0.0
173
     0
291
     1
 45
0.0
1001
ACAD
1000
AcDbSavedByObjectVersion
1070
     0
  0
VISUALSTYLE
  5
2E
102
{ACAD_REACTORS
330
2A
102
}
102
{ACAD_XDICTIONARY
360
3AB
102
}
330
2A
100
AcDbVisualStyle
  2
GouraudWithEdges
 70
     3
 71
     2
 72
     2
 73
     1
 90
        2
 40
0.6
 41
30.0
 62
     5
 63
     7
 74
     1
 91
        0
 64
     7
 65
   257
 75
     1
175
     1
 42
1.0
 92
        0
 66
   257
 43
1.0
 76
     1
 77
     6
 78
     2
 67
     7
 79
     5
170
     0
171
     0
290
     0
174
     0
 93
       13
 44
0.0
173
     0
291
     1
 45
0.0
1001
ACAD
1000
AcDbSavedByObjectVersion
1070
     0
  0
VISUALSTYLE
  5
31
102
{ACAD_REACTORS
330
2A
102
}
102
{ACAD_XDICTIONARY
360
3B1
102
}
330
2A
100
AcDbVisualStyle
  2
Hidden
 70
     6
 71
     1
 72
     2
 73
     2
 90
        0
 40
0.6
 41
30.0
 62
     5
 63
     7
 74
     2
 91
        2
 64
     7
 65
   257
 75
     2
175
     1
 42
40.0
 92
        0
 66
   257
 43
1.0
 76
     1
 77
     6
 78
     2
 67
     7
 79
     3
170
     0
171
     0
290
     0
174
     0
 93
        1
 44
0.0
173
     0
291
     0
 45
0.0
1001
ACAD
1000
AcDbSavedByObjectVersion
1070
     0
  0
VISUALSTYLE
  5
3B
102
{ACAD_REACTORS
330
2A
102
}
102
{ACAD_XDICTIONARY
360
3C5
102
}
330
2A
100
AcDbVisualStyle
  2
JitterOff
 70
    20
 71
     2
 72
     2
 73
     0
 90
        0
 40
0.6
 41
30.0
 62
     5
 63
     7
 74
     1
 91
        4
 64
     7
 65
   257
 75
     1
175
     1
 42
1.0
 92
       10
 66
     7
 43
1.0
 76
     1
 77
     6
 78
     2
 67
     7
 79
     5
170
     0
171
     0
290
     0
174
     0
 93
        1
 44
0.0
173
     0
291
     1
 45
0.0
1001
ACAD
1000
AcDbSavedByObjectVersion
1070
     0
  0
VISUALSTYLE
  5
38
102
{ACAD_REACTORS
330
2A
102
}
102
{ACAD_XDICTIONARY
360
3BF
102
}
330
2A
100
AcDbVisualStyle
  2
Linepattern
 70
    14
 71
     2
 72
     2
 73
     0
 90
        0
 40
0.6
 41
30.0
 62
     5
 63
     7
 74
     1
 91
        4
 64
     7
 65
   257
 75
     7
175
     7
 42
1.0
 92
        8
 66
     7
 43
1.0
 76
     1
 77
     6
 78
     2
 67
     7
 79
     5
170
     0
171
     0
290
     0
174
     0
 93
        1
 44
0.0
173
     0
291
     1
 45
0.0
1001
ACAD
1000
AcDbSavedByObjectVersion
1070
     0
  0
VISUALSTYLE
  5
3C
102
{ACAD_REACTORS
330
2A
102
}
102
{ACAD_XDICTIONARY
360
3C7
102
}
330
2A
100
AcDbVisualStyle
  2
OverhangOff
 70
    21
 71
     2
 72
     2
 73
     0
 90
        0
 40
0.6
 41
30.0
 62
     5
 63
     7
 74
     1
 91
        4
 64
     7
 65
   257
 75
     1
175
     1
 42
1.0
 92
        9
 66
     7
 43
1.0
 76
     1
 77
     6
 78
     2
 67
     7
 79
     5
170
     0
171
     0
290
     0
174
     0
 93
        1
 44
0.0
173
     0
291
     1
 45
0.0
1001
ACAD
1000
AcDbSavedByObjectVersion
1070
     0
  0
VISUALSTYLE
  5
33
102
{ACAD_REACTORS
330
2A
102
}
102
{ACAD_XDICTIONARY
360
3B5
102
}
330
2A
100
AcDbVisualStyle
  2
Realistic
 70
     8
 71
     2
 72
     3
 73
     0
 90
        2
 40
0.6
 41
30.0
 62
     5
 63
     7
 74
     0
 91
        0
 64
     7
 65
   257
 75
     1
175
     1
 42
1.0
 92
        8
 66
   257
 43
1.0
 76
     1
 77
     6
 78
     2
 67
     7
 79
     3
170
     0
171
     0
290
     0
174
     0
 93
       13
 44
0.0
173
     0
291
     0
 45
0.0
1001
ACAD
1000
AcDbSavedByObjectVersion
1070
     0
  0
VISUALSTYLE
  5
42
102
{ACAD_REACTORS
330
2A
102
}
102
{ACAD_XDICTIONARY
360
3D3
102
}
330
2A
100
AcDbVisualStyle
  2
Shaded
 70
    27
 71
     2
 72
     2
 73
     1
 90
        2
 40
0.6
 41
30.0
 62
     5
 63
     7
 74
     0
 91
        4
 64
     7
 65
   257
 75
     1
175
     1
 42
1.0
 92
        8
 66
   257
 43
1.0
 76
     1
 77
     6
 78
     2
 67
     8
 79
     3
170
     0
171
     0
290
     0
174
     0
 93
        5
 44
0.0
173
     0
291
     0
 45
0.0
1001
ACAD
1000
AcDbSavedByObjectVersion
1070
     0
  0
VISUALSTYLE
  5
41
102
{ACAD_REACTORS
330
2A
102
}
102
{ACAD_XDICTIONARY
360
3D1
102
}
330
2A
100
AcDbVisualStyle
  2
Shaded with edges
 70
    26
 71
     2
 72
     2
 73
     1
 90
        2
 40
0.6
 41
30.0
 62
     5
 63
     7
 74
     1
 91
       10
 64
     7
 65
   257
 75
     2
175
     1
 42
1.0
 92
        8
 66
   257
 43
1.0
 76
     1
 77
     6
 78
     2
 67
     7
 79
     3
170
     0
171
     0
290
     0
174
     0
 93
        5
 44
0.0
173
     0
291
     0
 45
0.0
1001
ACAD
1000
AcDbSavedByObjectVersion
1070
     0
  0
VISUALSTYLE
  5
3E
102
{ACAD_REACTORS
330
2A
102
}
102
{ACAD_XDICTIONARY
360
3CB
102
}
330
2A
100
AcDbVisualStyle
  2
Shades of Gray
 70
    23
 71
     2
 72
     2
 73
     3
 90
        0
 40
0.6
 41
30.0
 62
     5
 63
     7
 74
     2
 91
        2
 64
     7
 65
     7
 75
     1
175
     1
 42
40.0
 92
        8
 66
     7
 43
1.0
 76
     1
 77
     6
 78
     2
 67
     7
 79
     3
170
     0
171
     0
290
     0
174
     0
 93
        1
 44
0.0
173
     0
291
     0
 45
0.0
1001
ACAD
1000
AcDbSavedByObjectVersion
1070
     0
  0
VISUALSTYLE
  5
3F
102
{ACAD_REACTORS
330
2A
102
}
102
{ACAD_XDICTIONARY
360
3CD
102
}
330
2A
100
AcDbVisualStyle
  2
Sketchy
 70
    24
 71
     1
 72
     2
 73
     2
 90
        0
 40
0.6
 41
30.0
 62
     5
 63
     7
 74
     2
 91
        2
 64
     7
 65
     7
 75
     1
175
     1
 42
40.0
 92
       11
 66
     7
 43
1.0
 76
     1
 77
     6
 78
     2
 67
     7
 79
     6
170
     0
171
     0
290
     0
174
     0
 93
        1
 44
0.0
173
     0
291
     0
 45
0.0
1001
ACAD
1000
AcDbSavedByObjectVersion
1070
     0
  0
VISUALSTYLE
  5
37
102
{ACAD_REACTORS
330
2A
102
}
102
{ACAD_XDICTIONARY
360
3BD
102
}
330
2A
100
AcDbVisualStyle
  2
Thicken
 70
    13
 71
     2
 72
     2
 73
     0
 90
        0
 40
0.6
 41
30.0
 62
     5
 63
     7
 74
     1
 91
        4
 64
     7
 65
   257
 75
     1
175
     1
 42
1.0
 92
       12
 66
     7
 43
1.0
 76
     1
 77
     6
 78
     2
 67
     7
 79
     5
170
     0
171
     0
290
     0
174
     0
 93
        1
 44
0.0
173
     0
291
     1
 45
0.0
1001
ACAD
1000
AcDbSavedByObjectVersion
1070
     0
  0
VISUALSTYLE
  5
30
102
{ACAD_REACTORS
330
2A
102
}
102
{ACAD_XDICTIONARY
360
3AF
102
}
330
2A
100
AcDbVisualStyle
  2
Wireframe
 70
     5
 71
     0
 72
     2
 73
     0
 90
        0
 40
0.6
 41
30.0
 62
     5
 63
     7
 74
     1
 91
        4
 64
     7
 65
   257
 75
     1
175
     1
 42
1.0
 92
        0
 66
   257
 43
1.0
 76
     1
 77
     6
 78
     2
 67
     7
 79
     3
170
     0
171
     0
290
     0
174
     0
 93
        1
 44
0.0
173
     0
291
     0
 45
0.0
1001
ACAD
1000
AcDbSavedByObjectVersion
1070
     0
  0
VISUALSTYLE
  5
40
102
{ACAD_REACTORS
330
2A
102
}
102
{ACAD_XDICTIONARY
360
3CF
102
}
330
2A
100
AcDbVisualStyle
  2
X-Ray
 70
    25
 71
     2
 72
     2
 73
     1
 90
        1
 40
0.5
 41
30.0
 62
     5
 63
     7
 74
     1
 91
        0
 64
     7
 65
   257
 75
     1
175
     1
 42
1.0
 92
        8
 66
     7
 43
1.0
 76
     1
 77
     6
 78
     2
 67
     7
 79
     3
170
     0
171
     0
290
     0
174
     0
 93
       13
 44
0.0
173
     0
291
     0
 45
0.0
1001
ACAD
1000
AcDbSavedByObjectVersion
1070
     0
  0
DICTIONARYVAR
  5
3A3
102
{ACAD_REACTORS
330
39A
102
}
330
39A
100
DictionaryVariables
280
     0
  1
1:1
  0
DICTIONARYVAR
  5
39C
102
{ACAD_REACTORS
330
39A
102
}
330
39A
100
DictionaryVariables
280
     0
  1
Standard
  0
DICTIONARYVAR
  5
39B
102
{ACAD_REACTORS
330
39A
102
}
330
39A
100
DictionaryVariables
280
     0
  1
Standard
  0
DICTIONARYVAR
  5
39F
102
{ACAD_REACTORS
330
39A
102
}
330
39A
100
DictionaryVariables
280
     0
  1
2
  0
DICTIONARYVAR
  5
3A0
102
{ACAD_REACTORS
330
39A
102
}
330
39A
100
DictionaryVariables
280
     0
  1
1
  0
DICTIONARYVAR
  5
3A4
102
{ACAD_REACTORS
330
39A
102
}
330
39A
100
DictionaryVariables
280
     0
  1
1
  0
DICTIONARY
  5
3D7
330
45
100
AcDbDictionary
280
     1
281
     1
  3
ACAD_XREC_ROUNDTRIP
360
3D8
  0
DICTIONARY
  5
3D5
330
44
100
AcDbDictionary
280
     1
281
     1
  3
ACAD_XREC_ROUNDTRIP
360
3D6
  0
DICTIONARY
  5
3D9
330
46
100
AcDbDictionary
280
     1
281
     1
  3
ACAD_XREC_ROUNDTRIP
360
3DA
  0
DICTIONARY
  5
3DC
330
6C
100
AcDbDictionary
280
     1
281
     1
  3
ACAD_XREC_ROUNDTRIP
360
3DD
  0
DICTIONARY
  5
3AD
330
2F
100
AcDbDictionary
280
     1
281
     1
  3
ACAD_XREC_ROUNDTRIP
360
3AE
  0
DICTIONARY
  5
3B3
330
32
100
AcDbDictionary
280
     1
281
     1
  3
ACAD_XREC_ROUNDTRIP
360
3B4
  0
DICTIONARY
  5
3BB
330
36
100
AcDbDictionary
280
     1
281
     1
  3
ACAD_XREC_ROUNDTRIP
360
3BC
  0
DICTIONARY
  5
3C3
330
3A
100
AcDbDictionary
280
     1
281
     1
  3
ACAD_XREC_ROUNDTRIP
360
3C4
  0
DICTIONARY
  5
3B7
330
34
100
AcDbDictionary
280
     1
281
     1
  3
ACAD_XREC_ROUNDTRIP
360
3B8
  0
DICTIONARY
  5
3B9
330
35
100
AcDbDictionary
280
     1
281
     1
  3
ACAD_XREC_ROUNDTRIP
360
3BA
  0
DICTIONARY
  5
3C9
330
3D
100
AcDbDictionary
280
     1
281
     1
  3
ACAD_XREC_ROUNDTRIP
360
3CA
  0
DICTIONARY
  5
3C1
330
39
100
AcDbDictionary
280
     1
281
     1
  3
ACAD_XREC_ROUNDTRIP
360
3C2
  0
DICTIONARY
  5
3A5
330
2B
100
AcDbDictionary
280
     1
281
     1
  3
ACAD_XREC_ROUNDTRIP
360
3A6
  0
DICTIONARY
  5
3A7
330
2C
100
AcDbDictionary
280
     1
281
     1
  3
ACAD_XREC_ROUNDTRIP
360
3A8
  0
DICTIONARY
  5
3A9
330
2D
100
AcDbDictionary
280
     1
281
     1
  3
ACAD_XREC_ROUNDTRIP
360
3AA
  0
DICTIONARY
  5
3AB
330
2E
100
AcDbDictionary
280
     1
281
     1
  3
ACAD_XREC_ROUNDTRIP
360
3AC
  0
DICTIONARY
  5
3B1
330
31
100
AcDbDictionary
280
     1
281
     1
  3
ACAD_XREC_ROUNDTRIP
360
3B2
  0
DICTIONARY
  5
3C5
330
3B
100
AcDbDictionary
280
     1
281
     1
  3
ACAD_XREC_ROUNDTRIP
360
3C6
  0
DICTIONARY
  5
3BF
330
38
100
AcDbDictionary
280
     1
281
     1
  3
ACAD_XREC_ROUNDTRIP
360
3C0
  0
DICTIONARY
  5
3C7
330
3C
100
AcDbDictionary
280
     1
281
     1
  3
ACAD_XREC_ROUNDTRIP
360
3C8
  0
DICTIONARY
  5
3B5
330
33
100
AcDbDictionary
280
     1
281
     1
  3
ACAD_XREC_ROUNDTRIP
360
3B6
  0
DICTIONARY
  5
3D3
330
42
100
AcDbDictionary
280
     1
281
     1
  3
ACAD_XREC_ROUNDTRIP
360
3D4
  0
DICTIONARY
  5
3D1
330
41
100
AcDbDictionary
280
     1
281
     1
  3
ACAD_XREC_ROUNDTRIP
360
3D2
  0
DICTIONARY
  5
3CB
330
3E
100
AcDbDictionary
280
     1
281
     1
  3
ACAD_XREC_ROUNDTRIP
360
3CC
  0
DICTIONARY
  5
3CD
330
3F
100
AcDbDictionary
280
     1
281
     1
  3
ACAD_XREC_ROUNDTRIP
360
3CE
  0
DICTIONARY
  5
3BD
330
37
100
AcDbDictionary
280
     1
281
     1
  3
ACAD_XREC_ROUNDTRIP
360
3BE
  0
DICTIONARY
  5
3AF
330
30
100
AcDbDictionary
280
     1
281
     1
  3
ACAD_XREC_ROUNDTRIP
360
3B0
  0
DICTIONARY
  5
3CF
330
40
100
AcDbDictionary
280
     1
281
     1
  3
ACAD_XREC_ROUNDTRIP
360
3D0
  0
XRECORD
  5
3D8
102
{ACAD_REACTORS
330
3D7
102
}
330
3D7
100
AcDbXrecord
280
     1
102
MATERIAL
148
0.0
149
0.0
149
0.0
 93
        0
 94
      127
282
     0
 72
     1
 77
     1
171
     1
175
     1
179
     1
273
     0
  0
XRECORD
  5
3D6
102
{ACAD_REACTORS
330
3D5
102
}
330
3D5
100
AcDbXrecord
280
     1
102
MATERIAL
148
0.0
149
0.0
149
0.0
 93
        0
 94
      127
282
     0
 72
     1
 77
     1
171
     1
175
     1
179
     1
273
     0
  0
XRECORD
  5
3DA
102
{ACAD_REACTORS
330
3D9
102
}
330
3D9
100
AcDbXrecord
280
     1
102
MATERIAL
148
0.0
149
0.0
149
0.0
 93
        0
 94
      127
282
     0
 72
     1
 77
     1
171
     1
175
     1
179
     1
273
     0
  0
XRECORD
  5
3DD
102
{ACAD_REACTORS
330
3DC
102
}
330
3DC
100
AcDbXrecord
280
     1
102
ACAD_ROUNDTRIP_2010_MLEADER_STYLE
  0
XRECORD
  5
3AE
102
{ACAD_REACTORS
330
3AD
102
}
330
3AD
100
AcDbXrecord
280
     1
102
RTVSPropertyOp0
 70
     1
102
RTVSPropertyOp1
 70
     1
102
RTVSPropertyOp2
 70
     1
102
RTVSPropertyOp3
 70
     1
102
RTVSPropertyOp4
 70
     1
102
RTVSPropertyOp5
 70
     1
102
RTVSPropertyOp6
 70
     1
102
RTVSPropertyOp7
 70
     1
102
RTVSPropertyOp8
 70
     1
102
RTVSPropertyOp9
 70
     1
102
RTVSPropertyOp10
 70
     1
102
RTVSPropertyOp11
 70
     1
102
RTVSPropertyOp12
 70
     1
102
RTVSPropertyOp13
 70
     1
102
RTVSPropertyOp14
 70
     1
102
RTVSPropertyOp15
 70
     1
102
RTVSPropertyOp16
 70
     1
102
RTVSPropertyOp17
 70
     1
102
RTVSPropertyOp18
 70
     1
102
RTVSPropertyOp19
 70
     1
102
RTVSPropertyOp20
 70
     1
102
RTVSPropertyOp21
 70
     1
102
RTVSPropertyOp22
 70
     1
102
RTVSPropertyOp23
 70
     1
102
RTVSPropertyOp24
 70
     1
102
RTVSPropertyOp25
 70
     1
102
RTVSPropertyOp26
 70
     1
102
RTVSPropertyOp27
 70
     1
102
RTVSPropertyOp28
 70
     1
102
RTVSPropertyOp29
 70
     1
102
RTVSPropertyOp30
 70
     1
102
RTVSPropertyOp31
 70
     1
102
RTVSPropertyOp32
 70
     1
102
RTVSPropertyOp33
 70
     1
102
RTVSPropertyOp34
 70
     1
102
RTVSPropertyOp35
 70
     1
102
RTVSPropertyOp36
 70
     1
102
RTVSPropertyOp37
 70
     1
102
RTVSPropertyOp38
 70
     1
102
RTVSPropertyOp39
 70
     1
102
RTVSPropertyOp40
 70
     1
102
RTVSPropertyOp41
 70
     1
102
RTVSPropertyOp42
 70
     1
102
RTVSPropertyOp43
 70
     1
102
RTVSPropertyOp44
 70
     1
102
RTVSPropertyOp45
 70
     1
102
RTVSPropertyOp46
 70
     1
102
RTVSPropertyOp47
 70
     1
102
RTVSPropertyOp48
 70
     1
102
RTVSPropertyOp49
 70
     1
102
RTVSPropertyOp50
 70
     1
102
RTVSPropertyOp51
 70
     0
102
RTVSPropertyOp52
 70
     0
102
RTVSPropertyOp53
 70
     1
102
RTVSPropertyOp54
 70
     1
102
RTVSPropertyOp55
 70
     1
102
RTVSPropertyOp56
 70
     1
102
RTVSPropertyOp57
 70
     1
102
RTVSPost2010Prop28
280
     1
102
RTVSPost2010PropOp28
 70
     1
102
RTVSPost2010Prop29
280
     1
102
RTVSPost2010PropOp29
 70
     1
102
RTVSPost2010Prop30
280
     0
102
RTVSPost2010PropOp30
 70
     1
102
RTVSPost2010Prop31
280
     0
102
RTVSPost2010PropOp31
 70
     1
102
RTVSPost2010Prop32
280
     0
102
RTVSPost2010PropOp32
 70
     1
102
RTVSPost2010Prop33
280
     0
102
RTVSPost2010PropOp33
 70
     1
102
RTVSPost2010Prop34
280
     0
102
RTVSPost2010PropOp34
 70
     1
102
RTVSPost2010Prop35
280
     0
102
RTVSPost2010PropOp35
 70
     1
102
RTVSPost2010Prop36
280
     0
102
RTVSPost2010PropOp36
 70
     1
102
RTVSPost2010Prop37
 90
       50
102
RTVSPost2010PropOp37
 70
     1
102
RTVSPost2010Prop38
140
0.0
102
RTVSPost2010PropOp38
 70
     1
102
RTVSPost2010Prop39
140
1.0
102
RTVSPost2010PropOp39
 70
     1
102
RTVSPost2010Prop40
 90
        0
102
RTVSPost2010PropOp40
 70
     1
102
RTVSPost2010Prop41ColorIndex
 90
       18
102
RTVSPost2010Prop41ColorRGB
 90
        0
102
RTVSPost2010PropOp41
 70
     1
102
RTVSPost2010Prop42
 90
       50
102
RTVSPost2010PropOp42
 70
     1
102
RTVSPost2010Prop43
 90
        3
102
RTVSPost2010PropOp43
 70
     1
102
RTVSPost2010Prop44ColorIndex
 90
        5
102
RTVSPost2010Prop44ColorRGB
 90
      255
102
RTVSPost2010PropOp44
 70
     1
102
RTVSPost2010Prop45
280
     0
102
RTVSPost2010PropOp45
 70
     1
102
RTVSPost2010Prop46
 90
       50
102
RTVSPost2010PropOp46
 70
     1
102
RTVSPost2010Prop47
 90
       50
102
RTVSPost2010PropOp47
 70
     1
102
RTVSPost2010Prop48
 90
       50
102
RTVSPost2010PropOp48
 70
     1
102
RTVSPost2010Prop49
280
     0
102
RTVSPost2010PropOp49
 70
     1
102
RTVSPost2010Prop50
 90
       50
102
RTVSPost2010PropOp50
 70
     1
102
RTVSPost2010Prop51ColorIndex
 90
      256
102
RTVSPost2010Prop51ColorRGB
 90
-16777216
102
RTVSPost2010PropOp51
 70
     0
102
RTVSPost2010Prop52
140
1.0
102
RTVSPost2010PropOp52
 70
     0
102
RTVSPost2010Prop53
 90
        2
102
RTVSPost2010PropOp53
 70
     1
102
RTVSPost2010Prop54
  1
strokes_ogs.tif
102
RTVSPost2010PropOp54
 70
     1
102
RTVSPost2010Prop55
280
     0
102
RTVSPost2010PropOp55
 70
     1
102
RTVSPost2010Prop56
140
1.0
102
RTVSPost2010PropOp56
 70
     1
102
RTVSPost2010Prop57
140
1.0
102
RTVSPost2010PropOp57
 70
     1
  0
XRECORD
  5
3B4
102
{ACAD_REACTORS
330
3B3
102
}
330
3B3
100
AcDbXrecord
280
     1
102
RTVSPropertyOp0
 70
     1
102
RTVSPropertyOp1
 70
     1
102
RTVSPropertyOp2
 70
     1
102
RTVSPropertyOp3
 70
     1
102
RTVSPropertyOp4
 70
     1
102
RTVSPropertyOp5
 70
     1
102
RTVSPropertyOp6
 70
     1
102
RTVSPropertyOp7
 70
     1
102
RTVSPropertyOp8
 70
     1
102
RTVSPropertyOp9
 70
     1
102
RTVSPropertyOp10
 70
     1
102
RTVSPropertyOp11
 70
     1
102
RTVSPropertyOp12
 70
     1
102
RTVSPropertyOp13
 70
     1
102
RTVSPropertyOp14
 70
     1
102
RTVSPropertyOp15
 70
     1
102
RTVSPropertyOp16
 70
     1
102
RTVSPropertyOp17
 70
     1
102
RTVSPropertyOp18
 70
     1
102
RTVSPropertyOp19
 70
     1
102
RTVSPropertyOp20
 70
     1
102
RTVSPropertyOp21
 70
     1
102
RTVSPropertyOp22
 70
     1
102
RTVSPropertyOp23
 70
     1
102
RTVSPropertyOp24
 70
     1
102
RTVSPropertyOp25
 70
     1
102
RTVSPropertyOp26
 70
     1
102
RTVSPropertyOp27
 70
     1
102
RTVSPropertyOp28
 70
     1
102
RTVSPropertyOp29
 70
     1
102
RTVSPropertyOp30
 70
     1
102
RTVSPropertyOp31
 70
     1
102
RTVSPropertyOp32
 70
     1
102
RTVSPropertyOp33
 70
     1
102
RTVSPropertyOp34
 70
     1
102
RTVSPropertyOp35
 70
     1
102
RTVSPropertyOp36
 70
     1
102
RTVSPropertyOp37
 70
     1
102
RTVSPropertyOp38
 70
     1
102
RTVSPropertyOp39
 70
     1
102
RTVSPropertyOp40
 70
     1
102
RTVSPropertyOp41
 70
     1
102
RTVSPropertyOp42
 70
     1
102
RTVSPropertyOp43
 70
     1
102
RTVSPropertyOp44
 70
     1
102
RTVSPropertyOp45
 70
     1
102
RTVSPropertyOp46
 70
     1
102
RTVSPropertyOp47
 70
     1
102
RTVSPropertyOp48
 70
     1
102
RTVSPropertyOp49
 70
     1
102
RTVSPropertyOp50
 70
     1
102
RTVSPropertyOp51
 70
     0
102
RTVSPropertyOp52
 70
     0
102
RTVSPropertyOp53
 70
     1
102
RTVSPropertyOp54
 70
     1
102
RTVSPropertyOp55
 70
     1
102
RTVSPropertyOp56
 70
     1
102
RTVSPropertyOp57
 70
     1
102
RTVSPost2010Prop28
280
     0
102
RTVSPost2010PropOp28
 70
     1
102
RTVSPost2010Prop29
280
     1
102
RTVSPost2010PropOp29
 70
     1
102
RTVSPost2010Prop30
280
     1
102
RTVSPost2010PropOp30
 70
     1
102
RTVSPost2010Prop31
280
     0
102
RTVSPost2010PropOp31
 70
     1
102
RTVSPost2010Prop32
280
     0
102
RTVSPost2010PropOp32
 70
     1
102
RTVSPost2010Prop33
280
     0
102
RTVSPost2010PropOp33
 70
     1
102
RTVSPost2010Prop34
280
     0
102
RTVSPost2010PropOp34
 70
     1
102
RTVSPost2010Prop35
280
     0
102
RTVSPost2010PropOp35
 70
     1
102
RTVSPost2010Prop36
280
     0
102
RTVSPost2010PropOp36
 70
     1
102
RTVSPost2010Prop37
 90
       50
102
RTVSPost2010PropOp37
 70
     1
102
RTVSPost2010Prop38
140
0.0
102
RTVSPost2010PropOp38
 70
     1
102
RTVSPost2010Prop39
140
1.0
102
RTVSPost2010PropOp39
 70
     1
102
RTVSPost2010Prop40
 90
        0
102
RTVSPost2010PropOp40
 70
     1
102
RTVSPost2010Prop41ColorIndex
 90
       18
102
RTVSPost2010Prop41ColorRGB
 90
        0
102
RTVSPost2010PropOp41
 70
     1
102
RTVSPost2010Prop42
 90
       50
102
RTVSPost2010PropOp42
 70
     1
102
RTVSPost2010Prop43
 90
        3
102
RTVSPost2010PropOp43
 70
     1
102
RTVSPost2010Prop44ColorIndex
 90
        5
102
RTVSPost2010Prop44ColorRGB
 90
      255
102
RTVSPost2010PropOp44
 70
     1
102
RTVSPost2010Prop45
280
     0
102
RTVSPost2010PropOp45
 70
     1
102
RTVSPost2010Prop46
 90
       50
102
RTVSPost2010PropOp46
 70
     1
102
RTVSPost2010Prop47
 90
       50
102
RTVSPost2010PropOp47
 70
     1
102
RTVSPost2010Prop48
 90
       50
102
RTVSPost2010PropOp48
 70
     1
102
RTVSPost2010Prop49
280
     0
102
RTVSPost2010PropOp49
 70
     1
102
RTVSPost2010Prop50
 90
       50
102
RTVSPost2010PropOp50
 70
     1
102
RTVSPost2010Prop51ColorIndex
 90
      256
102
RTVSPost2010Prop51ColorRGB
 90
-16777216
102
RTVSPost2010PropOp51
 70
     0
102
RTVSPost2010Prop52
140
1.0
102
RTVSPost2010PropOp52
 70
     0
102
RTVSPost2010Prop53
 90
        2
102
RTVSPost2010PropOp53
 70
     1
102
RTVSPost2010Prop54
  1
strokes_ogs.tif
102
RTVSPost2010PropOp54
 70
     1
102
RTVSPost2010Prop55
280
     0
102
RTVSPost2010PropOp55
 70
     1
102
RTVSPost2010Prop56
140
1.0
102
RTVSPost2010PropOp56
 70
     1
102
RTVSPost2010Prop57
140
1.0
102
RTVSPost2010PropOp57
 70
     1
  0
XRECORD
  5
3BC
102
{ACAD_REACTORS
330
3BB
102
}
330
3BB
100
AcDbXrecord
280
     1
102
RTVSPropertyOp0
 70
     1
102
RTVSPropertyOp1
 70
     1
102
RTVSPropertyOp2
 70
     1
102
RTVSPropertyOp3
 70
     1
102
RTVSPropertyOp4
 70
     1
102
RTVSPropertyOp5
 70
     1
102
RTVSPropertyOp6
 70
     1
102
RTVSPropertyOp7
 70
     1
102
RTVSPropertyOp8
 70
     1
102
RTVSPropertyOp9
 70
     1
102
RTVSPropertyOp10
 70
     1
102
RTVSPropertyOp11
 70
     1
102
RTVSPropertyOp12
 70
     1
102
RTVSPropertyOp13
 70
     1
102
RTVSPropertyOp14
 70
     1
102
RTVSPropertyOp15
 70
     1
102
RTVSPropertyOp16
 70
     1
102
RTVSPropertyOp17
 70
     1
102
RTVSPropertyOp18
 70
     1
102
RTVSPropertyOp19
 70
     1
102
RTVSPropertyOp20
 70
     1
102
RTVSPropertyOp21
 70
     1
102
RTVSPropertyOp22
 70
     1
102
RTVSPropertyOp23
 70
     1
102
RTVSPropertyOp24
 70
     1
102
RTVSPropertyOp25
 70
     1
102
RTVSPropertyOp26
 70
     1
102
RTVSPropertyOp27
 70
     1
102
RTVSPropertyOp28
 70
     1
102
RTVSPropertyOp29
 70
     1
102
RTVSPropertyOp30
 70
     1
102
RTVSPropertyOp31
 70
     1
102
RTVSPropertyOp32
 70
     1
102
RTVSPropertyOp33
 70
     1
102
RTVSPropertyOp34
 70
     1
102
RTVSPropertyOp35
 70
     1
102
RTVSPropertyOp36
 70
     1
102
RTVSPropertyOp37
 70
     1
102
RTVSPropertyOp38
 70
     1
102
RTVSPropertyOp39
 70
     1
102
RTVSPropertyOp40
 70
     1
102
RTVSPropertyOp41
 70
     1
102
RTVSPropertyOp42
 70
     1
102
RTVSPropertyOp43
 70
     1
102
RTVSPropertyOp44
 70
     1
102
RTVSPropertyOp45
 70
     1
102
RTVSPropertyOp46
 70
     1
102
RTVSPropertyOp47
 70
     1
102
RTVSPropertyOp48
 70
     1
102
RTVSPropertyOp49
 70
     1
102
RTVSPropertyOp50
 70
     1
102
RTVSPropertyOp51
 70
     0
102
RTVSPropertyOp52
 70
     0
102
RTVSPropertyOp53
 70
     1
102
RTVSPropertyOp54
 70
     1
102
RTVSPropertyOp55
 70
     1
102
RTVSPropertyOp56
 70
     1
102
RTVSPropertyOp57
 70
     1
102
RTVSPost2010Prop28
280
     0
102
RTVSPost2010PropOp28
 70
     1
102
RTVSPost2010Prop29
280
     1
102
RTVSPost2010PropOp29
 70
     1
102
RTVSPost2010Prop30
280
     1
102
RTVSPost2010PropOp30
 70
     1
102
RTVSPost2010Prop31
280
     0
102
RTVSPost2010PropOp31
 70
     1
102
RTVSPost2010Prop32
280
     0
102
RTVSPost2010PropOp32
 70
     1
102
RTVSPost2010Prop33
280
     0
102
RTVSPost2010PropOp33
 70
     1
102
RTVSPost2010Prop34
280
     0
102
RTVSPost2010PropOp34
 70
     1
102
RTVSPost2010Prop35
280
     0
102
RTVSPost2010PropOp35
 70
     1
102
RTVSPost2010Prop36
280
     0
102
RTVSPost2010PropOp36
 70
     1
102
RTVSPost2010Prop37
 90
       50
102
RTVSPost2010PropOp37
 70
     1
102
RTVSPost2010Prop38
140
0.0
102
RTVSPost2010PropOp38
 70
     1
102
RTVSPost2010Prop39
140
1.0
102
RTVSPost2010PropOp39
 70
     1
102
RTVSPost2010Prop40
 90
        0
102
RTVSPost2010PropOp40
 70
     1
102
RTVSPost2010Prop41ColorIndex
 90
       18
102
RTVSPost2010Prop41ColorRGB
 90
        0
102
RTVSPost2010PropOp41
 70
     1
102
RTVSPost2010Prop42
 90
       50
102
RTVSPost2010PropOp42
 70
     1
102
RTVSPost2010Prop43
 90
        3
102
RTVSPost2010PropOp43
 70
     1
102
RTVSPost2010Prop44ColorIndex
 90
        5
102
RTVSPost2010Prop44ColorRGB
 90
      255
102
RTVSPost2010PropOp44
 70
     1
102
RTVSPost2010Prop45
280
     0
102
RTVSPost2010PropOp45
 70
     1
102
RTVSPost2010Prop46
 90
       50
102
RTVSPost2010PropOp46
 70
     1
102
RTVSPost2010Prop47
 90
       50
102
RTVSPost2010PropOp47
 70
     1
102
RTVSPost2010Prop48
 90
       50
102
RTVSPost2010PropOp48
 70
     1
102
RTVSPost2010Prop49
280
     0
102
RTVSPost2010PropOp49
 70
     1
102
RTVSPost2010Prop50
 90
       50
102
RTVSPost2010PropOp50
 70
     1
102
RTVSPost2010Prop51ColorIndex
 90
      256
102
RTVSPost2010Prop51ColorRGB
 90
-16777216
102
RTVSPost2010PropOp51
 70
     0
102
RTVSPost2010Prop52
140
1.0
102
RTVSPost2010PropOp52
 70
     0
102
RTVSPost2010Prop53
 90
        2
102
RTVSPost2010PropOp53
 70
     1
102
RTVSPost2010Prop54
  1
strokes_ogs.tif
102
RTVSPost2010PropOp54
 70
     1
102
RTVSPost2010Prop55
280
     0
102
RTVSPost2010PropOp55
 70
     1
102
RTVSPost2010Prop56
140
1.0
102
RTVSPost2010PropOp56
 70
     1
102
RTVSPost2010Prop57
140
1.0
102
RTVSPost2010PropOp57
 70
     1
  0
XRECORD
  5
3C4
102
{ACAD_REACTORS
330
3C3
102
}
330
3C3
100
AcDbXrecord
280
     1
102
RTVSPropertyOp0
 70
     1
102
RTVSPropertyOp1
 70
     1
102
RTVSPropertyOp2
 70
     1
102
RTVSPropertyOp3
 70
     1
102
RTVSPropertyOp4
 70
     1
102
RTVSPropertyOp5
 70
     1
102
RTVSPropertyOp6
 70
     1
102
RTVSPropertyOp7
 70
     1
102
RTVSPropertyOp8
 70
     1
102
RTVSPropertyOp9
 70
     1
102
RTVSPropertyOp10
 70
     1
102
RTVSPropertyOp11
 70
     1
102
RTVSPropertyOp12
 70
     1
102
RTVSPropertyOp13
 70
     1
102
RTVSPropertyOp14
 70
     1
102
RTVSPropertyOp15
 70
     1
102
RTVSPropertyOp16
 70
     1
102
RTVSPropertyOp17
 70
     1
102
RTVSPropertyOp18
 70
     1
102
RTVSPropertyOp19
 70
     1
102
RTVSPropertyOp20
 70
     1
102
RTVSPropertyOp21
 70
     1
102
RTVSPropertyOp22
 70
     1
102
RTVSPropertyOp23
 70
     1
102
RTVSPropertyOp24
 70
     1
102
RTVSPropertyOp25
 70
     1
102
RTVSPropertyOp26
 70
     1
102
RTVSPropertyOp27
 70
     1
102
RTVSPropertyOp28
 70
     1
102
RTVSPropertyOp29
 70
     1
102
RTVSPropertyOp30
 70
     1
102
RTVSPropertyOp31
 70
     1
102
RTVSPropertyOp32
 70
     1
102
RTVSPropertyOp33
 70
     1
102
RTVSPropertyOp34
 70
     1
102
RTVSPropertyOp35
 70
     1
102
RTVSPropertyOp36
 70
     1
102
RTVSPropertyOp37
 70
     1
102
RTVSPropertyOp38
 70
     1
102
RTVSPropertyOp39
 70
     1
102
RTVSPropertyOp40
 70
     1
102
RTVSPropertyOp41
 70
     1
102
RTVSPropertyOp42
 70
     1
102
RTVSPropertyOp43
 70
     1
102
RTVSPropertyOp44
 70
     1
102
RTVSPropertyOp45
 70
     1
102
RTVSPropertyOp46
 70
     1
102
RTVSPropertyOp47
 70
     1
102
RTVSPropertyOp48
 70
     1
102
RTVSPropertyOp49
 70
     1
102
RTVSPropertyOp50
 70
     1
102
RTVSPropertyOp51
 70
     0
102
RTVSPropertyOp52
 70
     0
102
RTVSPropertyOp53
 70
     1
102
RTVSPropertyOp54
 70
     1
102
RTVSPropertyOp55
 70
     1
102
RTVSPropertyOp56
 70
     1
102
RTVSPropertyOp57
 70
     1
102
RTVSPost2010Prop28
280
     0
102
RTVSPost2010PropOp28
 70
     1
102
RTVSPost2010Prop29
280
     1
102
RTVSPost2010PropOp29
 70
     1
102
RTVSPost2010Prop30
280
     1
102
RTVSPost2010PropOp30
 70
     1
102
RTVSPost2010Prop31
280
     0
102
RTVSPost2010PropOp31
 70
     1
102
RTVSPost2010Prop32
280
     0
102
RTVSPost2010PropOp32
 70
     1
102
RTVSPost2010Prop33
280
     0
102
RTVSPost2010PropOp33
 70
     1
102
RTVSPost2010Prop34
280
     0
102
RTVSPost2010PropOp34
 70
     1
102
RTVSPost2010Prop35
280
     0
102
RTVSPost2010PropOp35
 70
     1
102
RTVSPost2010Prop36
280
     0
102
RTVSPost2010PropOp36
 70
     1
102
RTVSPost2010Prop37
 90
       50
102
RTVSPost2010PropOp37
 70
     1
102
RTVSPost2010Prop38
140
0.0
102
RTVSPost2010PropOp38
 70
     1
102
RTVSPost2010Prop39
140
1.0
102
RTVSPost2010PropOp39
 70
     1
102
RTVSPost2010Prop40
 90
        0
102
RTVSPost2010PropOp40
 70
     1
102
RTVSPost2010Prop41ColorIndex
 90
       18
102
RTVSPost2010Prop41ColorRGB
 90
        0
102
RTVSPost2010PropOp41
 70
     1
102
RTVSPost2010Prop42
 90
       50
102
RTVSPost2010PropOp42
 70
     1
102
RTVSPost2010Prop43
 90
        3
102
RTVSPost2010PropOp43
 70
     1
102
RTVSPost2010Prop44ColorIndex
 90
        5
102
RTVSPost2010Prop44ColorRGB
 90
      255
102
RTVSPost2010PropOp44
 70
     1
102
RTVSPost2010Prop45
280
     0
102
RTVSPost2010PropOp45
 70
     1
102
RTVSPost2010Prop46
 90
       50
102
RTVSPost2010PropOp46
 70
     1
102
RTVSPost2010Prop47
 90
       50
102
RTVSPost2010PropOp47
 70
     1
102
RTVSPost2010Prop48
 90
       50
102
RTVSPost2010PropOp48
 70
     1
102
RTVSPost2010Prop49
280
     0
102
RTVSPost2010PropOp49
 70
     1
102
RTVSPost2010Prop50
 90
       50
102
RTVSPost2010PropOp50
 70
     1
102
RTVSPost2010Prop51ColorIndex
 90
      256
102
RTVSPost2010Prop51ColorRGB
 90
-16777216
102
RTVSPost2010PropOp51
 70
     0
102
RTVSPost2010Prop52
140
1.0
102
RTVSPost2010PropOp52
 70
     0
102
RTVSPost2010Prop53
 90
        2
102
RTVSPost2010PropOp53
 70
     1
102
RTVSPost2010Prop54
  1
strokes_ogs.tif
102
RTVSPost2010PropOp54
 70
     1
102
RTVSPost2010Prop55
280
     0
102
RTVSPost2010PropOp55
 70
     1
102
RTVSPost2010Prop56
140
1.0
102
RTVSPost2010PropOp56
 70
     1
102
RTVSPost2010Prop57
140
1.0
102
RTVSPost2010PropOp57
 70
     1
  0
XRECORD
  5
3B8
102
{ACAD_REACTORS
330
3B7
102
}
330
3B7
100
AcDbXrecord
280
     1
102
RTVSPropertyOp0
 70
     1
102
RTVSPropertyOp1
 70
     1
102
RTVSPropertyOp2
 70
     1
102
RTVSPropertyOp3
 70
     1
102
RTVSPropertyOp4
 70
     1
102
RTVSPropertyOp5
 70
     1
102
RTVSPropertyOp6
 70
     1
102
RTVSPropertyOp7
 70
     1
102
RTVSPropertyOp8
 70
     1
102
RTVSPropertyOp9
 70
     1
102
RTVSPropertyOp10
 70
     1
102
RTVSPropertyOp11
 70
     1
102
RTVSPropertyOp12
 70
     1
102
RTVSPropertyOp13
 70
     1
102
RTVSPropertyOp14
 70
     1
102
RTVSPropertyOp15
 70
     1
102
RTVSPropertyOp16
 70
     1
102
RTVSPropertyOp17
 70
     1
102
RTVSPropertyOp18
 70
     1
102
RTVSPropertyOp19
 70
     1
102
RTVSPropertyOp20
 70
     1
102
RTVSPropertyOp21
 70
     1
102
RTVSPropertyOp22
 70
     1
102
RTVSPropertyOp23
 70
     1
102
RTVSPropertyOp24
 70
     1
102
RTVSPropertyOp25
 70
     1
102
RTVSPropertyOp26
 70
     1
102
RTVSPropertyOp27
 70
     1
102
RTVSPropertyOp28
 70
     1
102
RTVSPropertyOp29
 70
     1
102
RTVSPropertyOp30
 70
     1
102
RTVSPropertyOp31
 70
     1
102
RTVSPropertyOp32
 70
     1
102
RTVSPropertyOp33
 70
     1
102
RTVSPropertyOp34
 70
     1
102
RTVSPropertyOp35
 70
     1
102
RTVSPropertyOp36
 70
     1
102
RTVSPropertyOp37
 70
     1
102
RTVSPropertyOp38
 70
     1
102
RTVSPropertyOp39
 70
     1
102
RTVSPropertyOp40
 70
     1
102
RTVSPropertyOp41
 70
     1
102
RTVSPropertyOp42
 70
     1
102
RTVSPropertyOp43
 70
     1
102
RTVSPropertyOp44
 70
     1
102
RTVSPropertyOp45
 70
     1
102
RTVSPropertyOp46
 70
     1
102
RTVSPropertyOp47
 70
     1
102
RTVSPropertyOp48
 70
     1
102
RTVSPropertyOp49
 70
     1
102
RTVSPropertyOp50
 70
     1
102
RTVSPropertyOp51
 70
     0
102
RTVSPropertyOp52
 70
     0
102
RTVSPropertyOp53
 70
     1
102
RTVSPropertyOp54
 70
     1
102
RTVSPropertyOp55
 70
     1
102
RTVSPropertyOp56
 70
     1
102
RTVSPropertyOp57
 70
     1
102
RTVSPost2010Prop28
280
     0
102
RTVSPost2010PropOp28
 70
     1
102
RTVSPost2010Prop29
280
     1
102
RTVSPost2010PropOp29
 70
     1
102
RTVSPost2010Prop30
280
     1
102
RTVSPost2010PropOp30
 70
     1
102
RTVSPost2010Prop31
280
     0
102
RTVSPost2010PropOp31
 70
     1
102
RTVSPost2010Prop32
280
     0
102
RTVSPost2010PropOp32
 70
     1
102
RTVSPost2010Prop33
280
     0
102
RTVSPost2010PropOp33
 70
     1
102
RTVSPost2010Prop34
280
     0
102
RTVSPost2010PropOp34
 70
     1
102
RTVSPost2010Prop35
280
     0
102
RTVSPost2010PropOp35
 70
     1
102
RTVSPost2010Prop36
280
     0
102
RTVSPost2010PropOp36
 70
     1
102
RTVSPost2010Prop37
 90
       50
102
RTVSPost2010PropOp37
 70
     1
102
RTVSPost2010Prop38
140
0.0
102
RTVSPost2010PropOp38
 70
     1
102
RTVSPost2010Prop39
140
1.0
102
RTVSPost2010PropOp39
 70
     1
102
RTVSPost2010Prop40
 90
        0
102
RTVSPost2010PropOp40
 70
     1
102
RTVSPost2010Prop41ColorIndex
 90
       18
102
RTVSPost2010Prop41ColorRGB
 90
        0
102
RTVSPost2010PropOp41
 70
     1
102
RTVSPost2010Prop42
 90
       50
102
RTVSPost2010PropOp42
 70
     1
102
RTVSPost2010Prop43
 90
        3
102
RTVSPost2010PropOp43
 70
     1
102
RTVSPost2010Prop44ColorIndex
 90
        5
102
RTVSPost2010Prop44ColorRGB
 90
      255
102
RTVSPost2010PropOp44
 70
     1
102
RTVSPost2010Prop45
280
     0
102
RTVSPost2010PropOp45
 70
     1
102
RTVSPost2010Prop46
 90
       50
102
RTVSPost2010PropOp46
 70
     1
102
RTVSPost2010Prop47
 90
       50
102
RTVSPost2010PropOp47
 70
     1
102
RTVSPost2010Prop48
 90
       50
102
RTVSPost2010PropOp48
 70
     1
102
RTVSPost2010Prop49
280
     0
102
RTVSPost2010PropOp49
 70
     1
102
RTVSPost2010Prop50
 90
       50
102
RTVSPost2010PropOp50
 70
     1
102
RTVSPost2010Prop51ColorIndex
 90
      256
102
RTVSPost2010Prop51ColorRGB
 90
-16777216
102
RTVSPost2010PropOp51
 70
     0
102
RTVSPost2010Prop52
140
1.0
102
RTVSPost2010PropOp52
 70
     0
102
RTVSPost2010Prop53
 90
        2
102
RTVSPost2010PropOp53
 70
     1
102
RTVSPost2010Prop54
  1
strokes_ogs.tif
102
RTVSPost2010PropOp54
 70
     1
102
RTVSPost2010Prop55
280
     0
102
RTVSPost2010PropOp55
 70
     1
102
RTVSPost2010Prop56
140
1.0
102
RTVSPost2010PropOp56
 70
     1
102
RTVSPost2010Prop57
140
1.0
102
RTVSPost2010PropOp57
 70
     1
  0
XRECORD
  5
3BA
102
{ACAD_REACTORS
330
3B9
102
}
330
3B9
100
AcDbXrecord
280
     1
102
RTVSPropertyOp0
 70
     1
102
RTVSPropertyOp1
 70
     1
102
RTVSPropertyOp2
 70
     1
102
RTVSPropertyOp3
 70
     1
102
RTVSPropertyOp4
 70
     1
102
RTVSPropertyOp5
 70
     1
102
RTVSPropertyOp6
 70
     1
102
RTVSPropertyOp7
 70
     1
102
RTVSPropertyOp8
 70
     1
102
RTVSPropertyOp9
 70
     1
102
RTVSPropertyOp10
 70
     1
102
RTVSPropertyOp11
 70
     1
102
RTVSPropertyOp12
 70
     1
102
RTVSPropertyOp13
 70
     1
102
RTVSPropertyOp14
 70
     1
102
RTVSPropertyOp15
 70
     1
102
RTVSPropertyOp16
 70
     1
102
RTVSPropertyOp17
 70
     1
102
RTVSPropertyOp18
 70
     1
102
RTVSPropertyOp19
 70
     1
102
RTVSPropertyOp20
 70
     1
102
RTVSPropertyOp21
 70
     1
102
RTVSPropertyOp22
 70
     1
102
RTVSPropertyOp23
 70
     1
102
RTVSPropertyOp24
 70
     1
102
RTVSPropertyOp25
 70
     1
102
RTVSPropertyOp26
 70
     1
102
RTVSPropertyOp27
 70
     1
102
RTVSPropertyOp28
 70
     1
102
RTVSPropertyOp29
 70
     1
102
RTVSPropertyOp30
 70
     1
102
RTVSPropertyOp31
 70
     1
102
RTVSPropertyOp32
 70
     1
102
RTVSPropertyOp33
 70
     1
102
RTVSPropertyOp34
 70
     1
102
RTVSPropertyOp35
 70
     1
102
RTVSPropertyOp36
 70
     1
102
RTVSPropertyOp37
 70
     1
102
RTVSPropertyOp38
 70
     1
102
RTVSPropertyOp39
 70
     1
102
RTVSPropertyOp40
 70
     1
102
RTVSPropertyOp41
 70
     1
102
RTVSPropertyOp42
 70
     1
102
RTVSPropertyOp43
 70
     1
102
RTVSPropertyOp44
 70
     1
102
RTVSPropertyOp45
 70
     1
102
RTVSPropertyOp46
 70
     1
102
RTVSPropertyOp47
 70
     1
102
RTVSPropertyOp48
 70
     1
102
RTVSPropertyOp49
 70
     1
102
RTVSPropertyOp50
 70
     1
102
RTVSPropertyOp51
 70
     0
102
RTVSPropertyOp52
 70
     0
102
RTVSPropertyOp53
 70
     1
102
RTVSPropertyOp54
 70
     1
102
RTVSPropertyOp55
 70
     1
102
RTVSPropertyOp56
 70
     1
102
RTVSPropertyOp57
 70
     1
102
RTVSPost2010Prop28
280
     0
102
RTVSPost2010PropOp28
 70
     1
102
RTVSPost2010Prop29
280
     1
102
RTVSPost2010PropOp29
 70
     1
102
RTVSPost2010Prop30
280
     1
102
RTVSPost2010PropOp30
 70
     1
102
RTVSPost2010Prop31
280
     0
102
RTVSPost2010PropOp31
 70
     1
102
RTVSPost2010Prop32
280
     0
102
RTVSPost2010PropOp32
 70
     1
102
RTVSPost2010Prop33
280
     0
102
RTVSPost2010PropOp33
 70
     1
102
RTVSPost2010Prop34
280
     0
102
RTVSPost2010PropOp34
 70
     1
102
RTVSPost2010Prop35
280
     0
102
RTVSPost2010PropOp35
 70
     1
102
RTVSPost2010Prop36
280
     0
102
RTVSPost2010PropOp36
 70
     1
102
RTVSPost2010Prop37
 90
       50
102
RTVSPost2010PropOp37
 70
     1
102
RTVSPost2010Prop38
140
0.0
102
RTVSPost2010PropOp38
 70
     1
102
RTVSPost2010Prop39
140
1.0
102
RTVSPost2010PropOp39
 70
     1
102
RTVSPost2010Prop40
 90
        0
102
RTVSPost2010PropOp40
 70
     1
102
RTVSPost2010Prop41ColorIndex
 90
       18
102
RTVSPost2010Prop41ColorRGB
 90
        0
102
RTVSPost2010PropOp41
 70
     1
102
RTVSPost2010Prop42
 90
       50
102
RTVSPost2010PropOp42
 70
     1
102
RTVSPost2010Prop43
 90
        3
102
RTVSPost2010PropOp43
 70
     1
102
RTVSPost2010Prop44ColorIndex
 90
        5
102
RTVSPost2010Prop44ColorRGB
 90
      255
102
RTVSPost2010PropOp44
 70
     1
102
RTVSPost2010Prop45
280
     0
102
RTVSPost2010PropOp45
 70
     1
102
RTVSPost2010Prop46
 90
       50
102
RTVSPost2010PropOp46
 70
     1
102
RTVSPost2010Prop47
 90
       50
102
RTVSPost2010PropOp47
 70
     1
102
RTVSPost2010Prop48
 90
       50
102
RTVSPost2010PropOp48
 70
     1
102
RTVSPost2010Prop49
280
     0
102
RTVSPost2010PropOp49
 70
     1
102
RTVSPost2010Prop50
 90
       50
102
RTVSPost2010PropOp50
 70
     1
102
RTVSPost2010Prop51ColorIndex
 90
      256
102
RTVSPost2010Prop51ColorRGB
 90
-16777216
102
RTVSPost2010PropOp51
 70
     0
102
RTVSPost2010Prop52
140
1.0
102
RTVSPost2010PropOp52
 70
     0
102
RTVSPost2010Prop53
 90
        2
102
RTVSPost2010PropOp53
 70
     1
102
RTVSPost2010Prop54
  1
strokes_ogs.tif
102
RTVSPost2010PropOp54
 70
     1
102
RTVSPost2010Prop55
280
     0
102
RTVSPost2010PropOp55
 70
     1
102
RTVSPost2010Prop56
140
1.0
102
RTVSPost2010PropOp56
 70
     1
102
RTVSPost2010Prop57
140
1.0
102
RTVSPost2010PropOp57
 70
     1
  0
XRECORD
  5
3CA
102
{ACAD_REACTORS
330
3C9
102
}
330
3C9
100
AcDbXrecord
280
     1
102
RTVSPropertyOp0
 70
     0
102
RTVSPropertyOp1
 70
     0
102
RTVSPropertyOp2
 70
     0
102
RTVSPropertyOp3
 70
     0
102
RTVSPropertyOp4
 70
     0
102
RTVSPropertyOp5
 70
     0
102
RTVSPropertyOp6
 70
     0
102
RTVSPropertyOp7
 70
     0
102
RTVSPropertyOp8
 70
     0
102
RTVSPropertyOp9
 70
     0
102
RTVSPropertyOp10
 70
     0
102
RTVSPropertyOp11
 70
     0
102
RTVSPropertyOp12
 70
     0
102
RTVSPropertyOp13
 70
     0
102
RTVSPropertyOp14
 70
     2
102
RTVSPropertyOp15
 70
     0
102
RTVSPropertyOp16
 70
     0
102
RTVSPropertyOp17
 70
     0
102
RTVSPropertyOp18
 70
     0
102
RTVSPropertyOp19
 70
     0
102
RTVSPropertyOp20
 70
     0
102
RTVSPropertyOp21
 70
     0
102
RTVSPropertyOp22
 70
     0
102
RTVSPropertyOp23
 70
     0
102
RTVSPropertyOp24
 70
     0
102
RTVSPropertyOp25
 70
     0
102
RTVSPropertyOp26
 70
     0
102
RTVSPropertyOp27
 70
     0
102
RTVSPropertyOp28
 70
     0
102
RTVSPropertyOp29
 70
     0
102
RTVSPropertyOp30
 70
     0
102
RTVSPropertyOp31
 70
     0
102
RTVSPropertyOp32
 70
     0
102
RTVSPropertyOp33
 70
     0
102
RTVSPropertyOp34
 70
     0
102
RTVSPropertyOp35
 70
     0
102
RTVSPropertyOp36
 70
     0
102
RTVSPropertyOp37
 70
     0
102
RTVSPropertyOp38
 70
     0
102
RTVSPropertyOp39
 70
     0
102
RTVSPropertyOp40
 70
     0
102
RTVSPropertyOp41
 70
     0
102
RTVSPropertyOp42
 70
     0
102
RTVSPropertyOp43
 70
     0
102
RTVSPropertyOp44
 70
     0
102
RTVSPropertyOp45
 70
     0
102
RTVSPropertyOp46
 70
     0
102
RTVSPropertyOp47
 70
     0
102
RTVSPropertyOp48
 70
     0
102
RTVSPropertyOp49
 70
     0
102
RTVSPropertyOp50
 70
     0
102
RTVSPropertyOp51
 70
     0
102
RTVSPropertyOp52
 70
     0
102
RTVSPropertyOp53
 70
     0
102
RTVSPropertyOp54
 70
     0
102
RTVSPropertyOp55
 70
     0
102
RTVSPropertyOp56
 70
     0
102
RTVSPropertyOp57
 70
     0
102
RTVSPost2010Prop28
280
     0
102
RTVSPost2010PropOp28
 70
     0
102
RTVSPost2010Prop29
280
     1
102
RTVSPost2010PropOp29
 70
     0
102
RTVSPost2010Prop30
280
     1
102
RTVSPost2010PropOp30
 70
     0
102
RTVSPost2010Prop31
280
     0
102
RTVSPost2010PropOp31
 70
     0
102
RTVSPost2010Prop32
280
     0
102
RTVSPost2010PropOp32
 70
     0
102
RTVSPost2010Prop33
280
     0
102
RTVSPost2010PropOp33
 70
     0
102
RTVSPost2010Prop34
280
     0
102
RTVSPost2010PropOp34
 70
     0
102
RTVSPost2010Prop35
280
     0
102
RTVSPost2010PropOp35
 70
     0
102
RTVSPost2010Prop36
280
     0
102
RTVSPost2010PropOp36
 70
     0
102
RTVSPost2010Prop37
 90
       50
102
RTVSPost2010PropOp37
 70
     0
102
RTVSPost2010Prop38
140
0.0
102
RTVSPost2010PropOp38
 70
     0
102
RTVSPost2010Prop39
140
1.0
102
RTVSPost2010PropOp39
 70
     0
102
RTVSPost2010Prop40
 90
        0
102
RTVSPost2010PropOp40
 70
     0
102
RTVSPost2010Prop41ColorIndex
 90
       18
102
RTVSPost2010Prop41ColorRGB
 90
        0
102
RTVSPost2010PropOp41
 70
     0
102
RTVSPost2010Prop42
 90
       50
102
RTVSPost2010PropOp42
 70
     0
102
RTVSPost2010Prop43
 90
        3
102
RTVSPost2010PropOp43
 70
     0
102
RTVSPost2010Prop44ColorIndex
 90
        5
102
RTVSPost2010Prop44ColorRGB
 90
      255
102
RTVSPost2010PropOp44
 70
     0
102
RTVSPost2010Prop45
280
     0
102
RTVSPost2010PropOp45
 70
     0
102
RTVSPost2010Prop46
 90
       50
102
RTVSPost2010PropOp46
 70
     0
102
RTVSPost2010Prop47
 90
       50
102
RTVSPost2010PropOp47
 70
     0
102
RTVSPost2010Prop48
 90
       50
102
RTVSPost2010PropOp48
 70
     0
102
RTVSPost2010Prop49
280
     0
102
RTVSPost2010PropOp49
 70
     0
102
RTVSPost2010Prop50
 90
       50
102
RTVSPost2010PropOp50
 70
     0
102
RTVSPost2010Prop51ColorIndex
 90
      256
102
RTVSPost2010Prop51ColorRGB
 90
-16777216
102
RTVSPost2010PropOp51
 70
     0
102
RTVSPost2010Prop52
140
1.0
102
RTVSPost2010PropOp52
 70
     0
102
RTVSPost2010Prop53
 90
        2
102
RTVSPost2010PropOp53
 70
     0
102
RTVSPost2010Prop54
  1
strokes_ogs.tif
102
RTVSPost2010PropOp54
 70
     0
102
RTVSPost2010Prop55
280
     0
102
RTVSPost2010PropOp55
 70
     0
102
RTVSPost2010Prop56
140
1.0
102
RTVSPost2010PropOp56
 70
     0
102
RTVSPost2010Prop57
140
1.0
102
RTVSPost2010PropOp57
 70
     0
  0
XRECORD
  5
3C2
102
{ACAD_REACTORS
330
3C1
102
}
330
3C1
100
AcDbXrecord
280
     1
102
RTVSPropertyOp0
 70
     1
102
RTVSPropertyOp1
 70
     1
102
RTVSPropertyOp2
 70
     1
102
RTVSPropertyOp3
 70
     1
102
RTVSPropertyOp4
 70
     1
102
RTVSPropertyOp5
 70
     1
102
RTVSPropertyOp6
 70
     1
102
RTVSPropertyOp7
 70
     1
102
RTVSPropertyOp8
 70
     1
102
RTVSPropertyOp9
 70
     1
102
RTVSPropertyOp10
 70
     1
102
RTVSPropertyOp11
 70
     1
102
RTVSPropertyOp12
 70
     1
102
RTVSPropertyOp13
 70
     1
102
RTVSPropertyOp14
 70
     1
102
RTVSPropertyOp15
 70
     1
102
RTVSPropertyOp16
 70
     1
102
RTVSPropertyOp17
 70
     1
102
RTVSPropertyOp18
 70
     1
102
RTVSPropertyOp19
 70
     1
102
RTVSPropertyOp20
 70
     1
102
RTVSPropertyOp21
 70
     1
102
RTVSPropertyOp22
 70
     1
102
RTVSPropertyOp23
 70
     1
102
RTVSPropertyOp24
 70
     1
102
RTVSPropertyOp25
 70
     1
102
RTVSPropertyOp26
 70
     1
102
RTVSPropertyOp27
 70
     1
102
RTVSPropertyOp28
 70
     1
102
RTVSPropertyOp29
 70
     1
102
RTVSPropertyOp30
 70
     1
102
RTVSPropertyOp31
 70
     1
102
RTVSPropertyOp32
 70
     1
102
RTVSPropertyOp33
 70
     1
102
RTVSPropertyOp34
 70
     1
102
RTVSPropertyOp35
 70
     1
102
RTVSPropertyOp36
 70
     1
102
RTVSPropertyOp37
 70
     1
102
RTVSPropertyOp38
 70
     1
102
RTVSPropertyOp39
 70
     1
102
RTVSPropertyOp40
 70
     1
102
RTVSPropertyOp41
 70
     1
102
RTVSPropertyOp42
 70
     1
102
RTVSPropertyOp43
 70
     1
102
RTVSPropertyOp44
 70
     1
102
RTVSPropertyOp45
 70
     1
102
RTVSPropertyOp46
 70
     1
102
RTVSPropertyOp47
 70
     1
102
RTVSPropertyOp48
 70
     1
102
RTVSPropertyOp49
 70
     1
102
RTVSPropertyOp50
 70
     1
102
RTVSPropertyOp51
 70
     0
102
RTVSPropertyOp52
 70
     0
102
RTVSPropertyOp53
 70
     1
102
RTVSPropertyOp54
 70
     1
102
RTVSPropertyOp55
 70
     1
102
RTVSPropertyOp56
 70
     1
102
RTVSPropertyOp57
 70
     1
102
RTVSPost2010Prop28
280
     0
102
RTVSPost2010PropOp28
 70
     1
102
RTVSPost2010Prop29
280
     1
102
RTVSPost2010PropOp29
 70
     1
102
RTVSPost2010Prop30
280
     1
102
RTVSPost2010PropOp30
 70
     1
102
RTVSPost2010Prop31
280
     0
102
RTVSPost2010PropOp31
 70
     1
102
RTVSPost2010Prop32
280
     0
102
RTVSPost2010PropOp32
 70
     1
102
RTVSPost2010Prop33
280
     0
102
RTVSPost2010PropOp33
 70
     1
102
RTVSPost2010Prop34
280
     0
102
RTVSPost2010PropOp34
 70
     1
102
RTVSPost2010Prop35
280
     0
102
RTVSPost2010PropOp35
 70
     1
102
RTVSPost2010Prop36
280
     0
102
RTVSPost2010PropOp36
 70
     1
102
RTVSPost2010Prop37
 90
       50
102
RTVSPost2010PropOp37
 70
     1
102
RTVSPost2010Prop38
140
0.0
102
RTVSPost2010PropOp38
 70
     1
102
RTVSPost2010Prop39
140
1.0
102
RTVSPost2010PropOp39
 70
     1
102
RTVSPost2010Prop40
 90
        0
102
RTVSPost2010PropOp40
 70
     1
102
RTVSPost2010Prop41ColorIndex
 90
       18
102
RTVSPost2010Prop41ColorRGB
 90
        0
102
RTVSPost2010PropOp41
 70
     1
102
RTVSPost2010Prop42
 90
       50
102
RTVSPost2010PropOp42
 70
     1
102
RTVSPost2010Prop43
 90
        3
102
RTVSPost2010PropOp43
 70
     1
102
RTVSPost2010Prop44ColorIndex
 90
        5
102
RTVSPost2010Prop44ColorRGB
 90
      255
102
RTVSPost2010PropOp44
 70
     1
102
RTVSPost2010Prop45
280
     0
102
RTVSPost2010PropOp45
 70
     1
102
RTVSPost2010Prop46
 90
       50
102
RTVSPost2010PropOp46
 70
     1
102
RTVSPost2010Prop47
 90
       50
102
RTVSPost2010PropOp47
 70
     1
102
RTVSPost2010Prop48
 90
       50
102
RTVSPost2010PropOp48
 70
     1
102
RTVSPost2010Prop49
280
     0
102
RTVSPost2010PropOp49
 70
     1
102
RTVSPost2010Prop50
 90
       50
102
RTVSPost2010PropOp50
 70
     1
102
RTVSPost2010Prop51ColorIndex
 90
      256
102
RTVSPost2010Prop51ColorRGB
 90
-16777216
102
RTVSPost2010PropOp51
 70
     0
102
RTVSPost2010Prop52
140
1.0
102
RTVSPost2010PropOp52
 70
     0
102
RTVSPost2010Prop53
 90
        2
102
RTVSPost2010PropOp53
 70
     1
102
RTVSPost2010Prop54
  1
strokes_ogs.tif
102
RTVSPost2010PropOp54
 70
     1
102
RTVSPost2010Prop55
280
     0
102
RTVSPost2010PropOp55
 70
     1
102
RTVSPost2010Prop56
140
1.0
102
RTVSPost2010PropOp56
 70
     1
102
RTVSPost2010Prop57
140
1.0
102
RTVSPost2010PropOp57
 70
     1
  0
XRECORD
  5
3A6
102
{ACAD_REACTORS
330
3A5
102
}
330
3A5
100
AcDbXrecord
280
     1
102
RTVSPropertyOp0
 70
     1
102
RTVSPropertyOp1
 70
     1
102
RTVSPropertyOp2
 70
     1
102
RTVSPropertyOp3
 70
     1
102
RTVSPropertyOp4
 70
     1
102
RTVSPropertyOp5
 70
     1
102
RTVSPropertyOp6
 70
     1
102
RTVSPropertyOp7
 70
     1
102
RTVSPropertyOp8
 70
     1
102
RTVSPropertyOp9
 70
     1
102
RTVSPropertyOp10
 70
     1
102
RTVSPropertyOp11
 70
     1
102
RTVSPropertyOp12
 70
     1
102
RTVSPropertyOp13
 70
     1
102
RTVSPropertyOp14
 70
     1
102
RTVSPropertyOp15
 70
     1
102
RTVSPropertyOp16
 70
     1
102
RTVSPropertyOp17
 70
     1
102
RTVSPropertyOp18
 70
     1
102
RTVSPropertyOp19
 70
     1
102
RTVSPropertyOp20
 70
     1
102
RTVSPropertyOp21
 70
     1
102
RTVSPropertyOp22
 70
     1
102
RTVSPropertyOp23
 70
     1
102
RTVSPropertyOp24
 70
     1
102
RTVSPropertyOp25
 70
     1
102
RTVSPropertyOp26
 70
     1
102
RTVSPropertyOp27
 70
     1
102
RTVSPropertyOp28
 70
     1
102
RTVSPropertyOp29
 70
     1
102
RTVSPropertyOp30
 70
     1
102
RTVSPropertyOp31
 70
     1
102
RTVSPropertyOp32
 70
     1
102
RTVSPropertyOp33
 70
     1
102
RTVSPropertyOp34
 70
     1
102
RTVSPropertyOp35
 70
     1
102
RTVSPropertyOp36
 70
     1
102
RTVSPropertyOp37
 70
     1
102
RTVSPropertyOp38
 70
     1
102
RTVSPropertyOp39
 70
     1
102
RTVSPropertyOp40
 70
     1
102
RTVSPropertyOp41
 70
     1
102
RTVSPropertyOp42
 70
     1
102
RTVSPropertyOp43
 70
     1
102
RTVSPropertyOp44
 70
     1
102
RTVSPropertyOp45
 70
     1
102
RTVSPropertyOp46
 70
     1
102
RTVSPropertyOp47
 70
     1
102
RTVSPropertyOp48
 70
     1
102
RTVSPropertyOp49
 70
     1
102
RTVSPropertyOp50
 70
     1
102
RTVSPropertyOp51
 70
     0
102
RTVSPropertyOp52
 70
     0
102
RTVSPropertyOp53
 70
     1
102
RTVSPropertyOp54
 70
     1
102
RTVSPropertyOp55
 70
     1
102
RTVSPropertyOp56
 70
     1
102
RTVSPropertyOp57
 70
     1
102
RTVSPost2010Prop28
280
     0
102
RTVSPost2010PropOp28
 70
     1
102
RTVSPost2010Prop29
280
     1
102
RTVSPost2010PropOp29
 70
     1
102
RTVSPost2010Prop30
280
     1
102
RTVSPost2010PropOp30
 70
     1
102
RTVSPost2010Prop31
280
     0
102
RTVSPost2010PropOp31
 70
     1
102
RTVSPost2010Prop32
280
     0
102
RTVSPost2010PropOp32
 70
     1
102
RTVSPost2010Prop33
280
     0
102
RTVSPost2010PropOp33
 70
     1
102
RTVSPost2010Prop34
280
     0
102
RTVSPost2010PropOp34
 70
     1
102
RTVSPost2010Prop35
280
     0
102
RTVSPost2010PropOp35
 70
     1
102
RTVSPost2010Prop36
280
     0
102
RTVSPost2010PropOp36
 70
     1
102
RTVSPost2010Prop37
 90
       50
102
RTVSPost2010PropOp37
 70
     1
102
RTVSPost2010Prop38
140
0.0
102
RTVSPost2010PropOp38
 70
     1
102
RTVSPost2010Prop39
140
1.0
102
RTVSPost2010PropOp39
 70
     1
102
RTVSPost2010Prop40
 90
        0
102
RTVSPost2010PropOp40
 70
     1
102
RTVSPost2010Prop41ColorIndex
 90
       18
102
RTVSPost2010Prop41ColorRGB
 90
        0
102
RTVSPost2010PropOp41
 70
     1
102
RTVSPost2010Prop42
 90
       50
102
RTVSPost2010PropOp42
 70
     1
102
RTVSPost2010Prop43
 90
        3
102
RTVSPost2010PropOp43
 70
     1
102
RTVSPost2010Prop44ColorIndex
 90
        5
102
RTVSPost2010Prop44ColorRGB
 90
      255
102
RTVSPost2010PropOp44
 70
     1
102
RTVSPost2010Prop45
280
     0
102
RTVSPost2010PropOp45
 70
     1
102
RTVSPost2010Prop46
 90
       50
102
RTVSPost2010PropOp46
 70
     1
102
RTVSPost2010Prop47
 90
       50
102
RTVSPost2010PropOp47
 70
     1
102
RTVSPost2010Prop48
 90
       50
102
RTVSPost2010PropOp48
 70
     1
102
RTVSPost2010Prop49
280
     0
102
RTVSPost2010PropOp49
 70
     1
102
RTVSPost2010Prop50
 90
       50
102
RTVSPost2010PropOp50
 70
     1
102
RTVSPost2010Prop51ColorIndex
 90
      256
102
RTVSPost2010Prop51ColorRGB
 90
-16777216
102
RTVSPost2010PropOp51
 70
     0
102
RTVSPost2010Prop52
140
1.0
102
RTVSPost2010PropOp52
 70
     0
102
RTVSPost2010Prop53
 90
        2
102
RTVSPost2010PropOp53
 70
     1
102
RTVSPost2010Prop54
  1
strokes_ogs.tif
102
RTVSPost2010PropOp54
 70
     1
102
RTVSPost2010Prop55
280
     0
102
RTVSPost2010PropOp55
 70
     1
102
RTVSPost2010Prop56
140
1.0
102
RTVSPost2010PropOp56
 70
     1
102
RTVSPost2010Prop57
140
1.0
102
RTVSPost2010PropOp57
 70
     1
  0
XRECORD
  5
3A8
102
{ACAD_REACTORS
330
3A7
102
}
330
3A7
100
AcDbXrecord
280
     1
102
RTVSPropertyOp0
 70
     1
102
RTVSPropertyOp1
 70
     1
102
RTVSPropertyOp2
 70
     1
102
RTVSPropertyOp3
 70
     1
102
RTVSPropertyOp4
 70
     1
102
RTVSPropertyOp5
 70
     1
102
RTVSPropertyOp6
 70
     1
102
RTVSPropertyOp7
 70
     1
102
RTVSPropertyOp8
 70
     1
102
RTVSPropertyOp9
 70
     1
102
RTVSPropertyOp10
 70
     1
102
RTVSPropertyOp11
 70
     1
102
RTVSPropertyOp12
 70
     1
102
RTVSPropertyOp13
 70
     1
102
RTVSPropertyOp14
 70
     1
102
RTVSPropertyOp15
 70
     1
102
RTVSPropertyOp16
 70
     1
102
RTVSPropertyOp17
 70
     1
102
RTVSPropertyOp18
 70
     1
102
RTVSPropertyOp19
 70
     1
102
RTVSPropertyOp20
 70
     1
102
RTVSPropertyOp21
 70
     1
102
RTVSPropertyOp22
 70
     1
102
RTVSPropertyOp23
 70
     1
102
RTVSPropertyOp24
 70
     1
102
RTVSPropertyOp25
 70
     1
102
RTVSPropertyOp26
 70
     1
102
RTVSPropertyOp27
 70
     1
102
RTVSPropertyOp28
 70
     1
102
RTVSPropertyOp29
 70
     1
102
RTVSPropertyOp30
 70
     1
102
RTVSPropertyOp31
 70
     1
102
RTVSPropertyOp32
 70
     1
102
RTVSPropertyOp33
 70
     1
102
RTVSPropertyOp34
 70
     1
102
RTVSPropertyOp35
 70
     1
102
RTVSPropertyOp36
 70
     1
102
RTVSPropertyOp37
 70
     1
102
RTVSPropertyOp38
 70
     1
102
RTVSPropertyOp39
 70
     1
102
RTVSPropertyOp40
 70
     1
102
RTVSPropertyOp41
 70
     1
102
RTVSPropertyOp42
 70
     1
102
RTVSPropertyOp43
 70
     1
102
RTVSPropertyOp44
 70
     1
102
RTVSPropertyOp45
 70
     1
102
RTVSPropertyOp46
 70
     1
102
RTVSPropertyOp47
 70
     1
102
RTVSPropertyOp48
 70
     1
102
RTVSPropertyOp49
 70
     1
102
RTVSPropertyOp50
 70
     1
102
RTVSPropertyOp51
 70
     0
102
RTVSPropertyOp52
 70
     0
102
RTVSPropertyOp53
 70
     1
102
RTVSPropertyOp54
 70
     1
102
RTVSPropertyOp55
 70
     1
102
RTVSPropertyOp56
 70
     1
102
RTVSPropertyOp57
 70
     1
102
RTVSPost2010Prop28
280
     0
102
RTVSPost2010PropOp28
 70
     1
102
RTVSPost2010Prop29
280
     1
102
RTVSPost2010PropOp29
 70
     1
102
RTVSPost2010Prop30
280
     1
102
RTVSPost2010PropOp30
 70
     1
102
RTVSPost2010Prop31
280
     0
102
RTVSPost2010PropOp31
 70
     1
102
RTVSPost2010Prop32
280
     0
102
RTVSPost2010PropOp32
 70
     1
102
RTVSPost2010Prop33
280
     0
102
RTVSPost2010PropOp33
 70
     1
102
RTVSPost2010Prop34
280
     0
102
RTVSPost2010PropOp34
 70
     1
102
RTVSPost2010Prop35
280
     0
102
RTVSPost2010PropOp35
 70
     1
102
RTVSPost2010Prop36
280
     0
102
RTVSPost2010PropOp36
 70
     1
102
RTVSPost2010Prop37
 90
       50
102
RTVSPost2010PropOp37
 70
     1
102
RTVSPost2010Prop38
140
0.0
102
RTVSPost2010PropOp38
 70
     1
102
RTVSPost2010Prop39
140
1.0
102
RTVSPost2010PropOp39
 70
     1
102
RTVSPost2010Prop40
 90
        0
102
RTVSPost2010PropOp40
 70
     1
102
RTVSPost2010Prop41ColorIndex
 90
       18
102
RTVSPost2010Prop41ColorRGB
 90
        0
102
RTVSPost2010PropOp41
 70
     1
102
RTVSPost2010Prop42
 90
       50
102
RTVSPost2010PropOp42
 70
     1
102
RTVSPost2010Prop43
 90
        3
102
RTVSPost2010PropOp43
 70
     1
102
RTVSPost2010Prop44ColorIndex
 90
        5
102
RTVSPost2010Prop44ColorRGB
 90
      255
102
RTVSPost2010PropOp44
 70
     1
102
RTVSPost2010Prop45
280
     0
102
RTVSPost2010PropOp45
 70
     1
102
RTVSPost2010Prop46
 90
       50
102
RTVSPost2010PropOp46
 70
     1
102
RTVSPost2010Prop47
 90
       50
102
RTVSPost2010PropOp47
 70
     1
102
RTVSPost2010Prop48
 90
       50
102
RTVSPost2010PropOp48
 70
     1
102
RTVSPost2010Prop49
280
     0
102
RTVSPost2010PropOp49
 70
     1
102
RTVSPost2010Prop50
 90
       50
102
RTVSPost2010PropOp50
 70
     1
102
RTVSPost2010Prop51ColorIndex
 90
      256
102
RTVSPost2010Prop51ColorRGB
 90
-16777216
102
RTVSPost2010PropOp51
 70
     0
102
RTVSPost2010Prop52
140
1.0
102
RTVSPost2010PropOp52
 70
     0
102
RTVSPost2010Prop53
 90
        2
102
RTVSPost2010PropOp53
 70
     1
102
RTVSPost2010Prop54
  1
strokes_ogs.tif
102
RTVSPost2010PropOp54
 70
     1
102
RTVSPost2010Prop55
280
     0
102
RTVSPost2010PropOp55
 70
     1
102
RTVSPost2010Prop56
140
1.0
102
RTVSPost2010PropOp56
 70
     1
102
RTVSPost2010Prop57
140
1.0
102
RTVSPost2010PropOp57
 70
     1
  0
XRECORD
  5
3AA
102
{ACAD_REACTORS
330
3A9
102
}
330
3A9
100
AcDbXrecord
280
     1
102
RTVSPropertyOp0
 70
     1
102
RTVSPropertyOp1
 70
     1
102
RTVSPropertyOp2
 70
     1
102
RTVSPropertyOp3
 70
     1
102
RTVSPropertyOp4
 70
     1
102
RTVSPropertyOp5
 70
     1
102
RTVSPropertyOp6
 70
     1
102
RTVSPropertyOp7
 70
     1
102
RTVSPropertyOp8
 70
     1
102
RTVSPropertyOp9
 70
     1
102
RTVSPropertyOp10
 70
     1
102
RTVSPropertyOp11
 70
     1
102
RTVSPropertyOp12
 70
     1
102
RTVSPropertyOp13
 70
     1
102
RTVSPropertyOp14
 70
     1
102
RTVSPropertyOp15
 70
     1
102
RTVSPropertyOp16
 70
     1
102
RTVSPropertyOp17
 70
     1
102
RTVSPropertyOp18
 70
     1
102
RTVSPropertyOp19
 70
     1
102
RTVSPropertyOp20
 70
     1
102
RTVSPropertyOp21
 70
     1
102
RTVSPropertyOp22
 70
     1
102
RTVSPropertyOp23
 70
     1
102
RTVSPropertyOp24
 70
     1
102
RTVSPropertyOp25
 70
     1
102
RTVSPropertyOp26
 70
     1
102
RTVSPropertyOp27
 70
     1
102
RTVSPropertyOp28
 70
     1
102
RTVSPropertyOp29
 70
     1
102
RTVSPropertyOp30
 70
     1
102
RTVSPropertyOp31
 70
     1
102
RTVSPropertyOp32
 70
     1
102
RTVSPropertyOp33
 70
     1
102
RTVSPropertyOp34
 70
     1
102
RTVSPropertyOp35
 70
     1
102
RTVSPropertyOp36
 70
     1
102
RTVSPropertyOp37
 70
     1
102
RTVSPropertyOp38
 70
     1
102
RTVSPropertyOp39
 70
     1
102
RTVSPropertyOp40
 70
     1
102
RTVSPropertyOp41
 70
     1
102
RTVSPropertyOp42
 70
     1
102
RTVSPropertyOp43
 70
     1
102
RTVSPropertyOp44
 70
     1
102
RTVSPropertyOp45
 70
     1
102
RTVSPropertyOp46
 70
     1
102
RTVSPropertyOp47
 70
     1
102
RTVSPropertyOp48
 70
     1
102
RTVSPropertyOp49
 70
     1
102
RTVSPropertyOp50
 70
     1
102
RTVSPropertyOp51
 70
     0
102
RTVSPropertyOp52
 70
     0
102
RTVSPropertyOp53
 70
     1
102
RTVSPropertyOp54
 70
     1
102
RTVSPropertyOp55
 70
     1
102
RTVSPropertyOp56
 70
     1
102
RTVSPropertyOp57
 70
     1
102
RTVSPost2010Prop28
280
     0
102
RTVSPost2010PropOp28
 70
     1
102
RTVSPost2010Prop29
280
     1
102
RTVSPost2010PropOp29
 70
     1
102
RTVSPost2010Prop30
280
     1
102
RTVSPost2010PropOp30
 70
     1
102
RTVSPost2010Prop31
280
     0
102
RTVSPost2010PropOp31
 70
     1
102
RTVSPost2010Prop32
280
     0
102
RTVSPost2010PropOp32
 70
     1
102
RTVSPost2010Prop33
280
     0
102
RTVSPost2010PropOp33
 70
     1
102
RTVSPost2010Prop34
280
     0
102
RTVSPost2010PropOp34
 70
     1
102
RTVSPost2010Prop35
280
     0
102
RTVSPost2010PropOp35
 70
     1
102
RTVSPost2010Prop36
280
     0
102
RTVSPost2010PropOp36
 70
     1
102
RTVSPost2010Prop37
 90
       50
102
RTVSPost2010PropOp37
 70
     1
102
RTVSPost2010Prop38
140
0.0
102
RTVSPost2010PropOp38
 70
     1
102
RTVSPost2010Prop39
140
1.0
102
RTVSPost2010PropOp39
 70
     1
102
RTVSPost2010Prop40
 90
        0
102
RTVSPost2010PropOp40
 70
     1
102
RTVSPost2010Prop41ColorIndex
 90
       18
102
RTVSPost2010Prop41ColorRGB
 90
        0
102
RTVSPost2010PropOp41
 70
     1
102
RTVSPost2010Prop42
 90
       50
102
RTVSPost2010PropOp42
 70
     1
102
RTVSPost2010Prop43
 90
        3
102
RTVSPost2010PropOp43
 70
     1
102
RTVSPost2010Prop44ColorIndex
 90
        5
102
RTVSPost2010Prop44ColorRGB
 90
      255
102
RTVSPost2010PropOp44
 70
     1
102
RTVSPost2010Prop45
280
     0
102
RTVSPost2010PropOp45
 70
     1
102
RTVSPost2010Prop46
 90
       50
102
RTVSPost2010PropOp46
 70
     1
102
RTVSPost2010Prop47
 90
       50
102
RTVSPost2010PropOp47
 70
     1
102
RTVSPost2010Prop48
 90
       50
102
RTVSPost2010PropOp48
 70
     1
102
RTVSPost2010Prop49
280
     0
102
RTVSPost2010PropOp49
 70
     1
102
RTVSPost2010Prop50
 90
       50
102
RTVSPost2010PropOp50
 70
     1
102
RTVSPost2010Prop51ColorIndex
 90
      256
102
RTVSPost2010Prop51ColorRGB
 90
-16777216
102
RTVSPost2010PropOp51
 70
     0
102
RTVSPost2010Prop52
140
1.0
102
RTVSPost2010PropOp52
 70
     0
102
RTVSPost2010Prop53
 90
        2
102
RTVSPost2010PropOp53
 70
     1
102
RTVSPost2010Prop54
  1
strokes_ogs.tif
102
RTVSPost2010PropOp54
 70
     1
102
RTVSPost2010Prop55
280
     0
102
RTVSPost2010PropOp55
 70
     1
102
RTVSPost2010Prop56
140
1.0
102
RTVSPost2010PropOp56
 70
     1
102
RTVSPost2010Prop57
140
1.0
102
RTVSPost2010PropOp57
 70
     1
  0
XRECORD
  5
3AC
102
{ACAD_REACTORS
330
3AB
102
}
330
3AB
100
AcDbXrecord
280
     1
102
RTVSPropertyOp0
 70
     1
102
RTVSPropertyOp1
 70
     1
102
RTVSPropertyOp2
 70
     1
102
RTVSPropertyOp3
 70
     1
102
RTVSPropertyOp4
 70
     1
102
RTVSPropertyOp5
 70
     1
102
RTVSPropertyOp6
 70
     1
102
RTVSPropertyOp7
 70
     1
102
RTVSPropertyOp8
 70
     1
102
RTVSPropertyOp9
 70
     1
102
RTVSPropertyOp10
 70
     1
102
RTVSPropertyOp11
 70
     1
102
RTVSPropertyOp12
 70
     1
102
RTVSPropertyOp13
 70
     1
102
RTVSPropertyOp14
 70
     1
102
RTVSPropertyOp15
 70
     1
102
RTVSPropertyOp16
 70
     1
102
RTVSPropertyOp17
 70
     1
102
RTVSPropertyOp18
 70
     1
102
RTVSPropertyOp19
 70
     1
102
RTVSPropertyOp20
 70
     1
102
RTVSPropertyOp21
 70
     1
102
RTVSPropertyOp22
 70
     1
102
RTVSPropertyOp23
 70
     1
102
RTVSPropertyOp24
 70
     1
102
RTVSPropertyOp25
 70
     1
102
RTVSPropertyOp26
 70
     1
102
RTVSPropertyOp27
 70
     1
102
RTVSPropertyOp28
 70
     1
102
RTVSPropertyOp29
 70
     1
102
RTVSPropertyOp30
 70
     1
102
RTVSPropertyOp31
 70
     1
102
RTVSPropertyOp32
 70
     1
102
RTVSPropertyOp33
 70
     1
102
RTVSPropertyOp34
 70
     1
102
RTVSPropertyOp35
 70
     1
102
RTVSPropertyOp36
 70
     1
102
RTVSPropertyOp37
 70
     1
102
RTVSPropertyOp38
 70
     1
102
RTVSPropertyOp39
 70
     1
102
RTVSPropertyOp40
 70
     1
102
RTVSPropertyOp41
 70
     1
102
RTVSPropertyOp42
 70
     1
102
RTVSPropertyOp43
 70
     1
102
RTVSPropertyOp44
 70
     1
102
RTVSPropertyOp45
 70
     1
102
RTVSPropertyOp46
 70
     1
102
RTVSPropertyOp47
 70
     1
102
RTVSPropertyOp48
 70
     1
102
RTVSPropertyOp49
 70
     1
102
RTVSPropertyOp50
 70
     1
102
RTVSPropertyOp51
 70
     0
102
RTVSPropertyOp52
 70
     0
102
RTVSPropertyOp53
 70
     1
102
RTVSPropertyOp54
 70
     1
102
RTVSPropertyOp55
 70
     1
102
RTVSPropertyOp56
 70
     1
102
RTVSPropertyOp57
 70
     1
102
RTVSPost2010Prop28
280
     0
102
RTVSPost2010PropOp28
 70
     1
102
RTVSPost2010Prop29
280
     1
102
RTVSPost2010PropOp29
 70
     1
102
RTVSPost2010Prop30
280
     1
102
RTVSPost2010PropOp30
 70
     1
102
RTVSPost2010Prop31
280
     0
102
RTVSPost2010PropOp31
 70
     1
102
RTVSPost2010Prop32
280
     0
102
RTVSPost2010PropOp32
 70
     1
102
RTVSPost2010Prop33
280
     0
102
RTVSPost2010PropOp33
 70
     1
102
RTVSPost2010Prop34
280
     0
102
RTVSPost2010PropOp34
 70
     1
102
RTVSPost2010Prop35
280
     0
102
RTVSPost2010PropOp35
 70
     1
102
RTVSPost2010Prop36
280
     0
102
RTVSPost2010PropOp36
 70
     1
102
RTVSPost2010Prop37
 90
       50
102
RTVSPost2010PropOp37
 70
     1
102
RTVSPost2010Prop38
140
0.0
102
RTVSPost2010PropOp38
 70
     1
102
RTVSPost2010Prop39
140
1.0
102
RTVSPost2010PropOp39
 70
     1
102
RTVSPost2010Prop40
 90
        0
102
RTVSPost2010PropOp40
 70
     1
102
RTVSPost2010Prop41ColorIndex
 90
       18
102
RTVSPost2010Prop41ColorRGB
 90
        0
102
RTVSPost2010PropOp41
 70
     1
102
RTVSPost2010Prop42
 90
       50
102
RTVSPost2010PropOp42
 70
     1
102
RTVSPost2010Prop43
 90
        3
102
RTVSPost2010PropOp43
 70
     1
102
RTVSPost2010Prop44ColorIndex
 90
        5
102
RTVSPost2010Prop44ColorRGB
 90
      255
102
RTVSPost2010PropOp44
 70
     1
102
RTVSPost2010Prop45
280
     0
102
RTVSPost2010PropOp45
 70
     1
102
RTVSPost2010Prop46
 90
       50
102
RTVSPost2010PropOp46
 70
     1
102
RTVSPost2010Prop47
 90
       50
102
RTVSPost2010PropOp47
 70
     1
102
RTVSPost2010Prop48
 90
       50
102
RTVSPost2010PropOp48
 70
     1
102
RTVSPost2010Prop49
280
     0
102
RTVSPost2010PropOp49
 70
     1
102
RTVSPost2010Prop50
 90
       50
102
RTVSPost2010PropOp50
 70
     1
102
RTVSPost2010Prop51ColorIndex
 90
      256
102
RTVSPost2010Prop51ColorRGB
 90
-16777216
102
RTVSPost2010PropOp51
 70
     0
102
RTVSPost2010Prop52
140
1.0
102
RTVSPost2010PropOp52
 70
     0
102
RTVSPost2010Prop53
 90
        2
102
RTVSPost2010PropOp53
 70
     1
102
RTVSPost2010Prop54
  1
strokes_ogs.tif
102
RTVSPost2010PropOp54
 70
     1
102
RTVSPost2010Prop55
280
     0
102
RTVSPost2010PropOp55
 70
     1
102
RTVSPost2010Prop56
140
1.0
102
RTVSPost2010PropOp56
 70
     1
102
RTVSPost2010Prop57
140
1.0
102
RTVSPost2010PropOp57
 70
     1
  0
XRECORD
  5
3B2
102
{ACAD_REACTORS
330
3B1
102
}
330
3B1
100
AcDbXrecord
280
     1
102
RTVSPropertyOp0
 70
     1
102
RTVSPropertyOp1
 70
     1
102
RTVSPropertyOp2
 70
     1
102
RTVSPropertyOp3
 70
     1
102
RTVSPropertyOp4
 70
     1
102
RTVSPropertyOp5
 70
     1
102
RTVSPropertyOp6
 70
     1
102
RTVSPropertyOp7
 70
     1
102
RTVSPropertyOp8
 70
     1
102
RTVSPropertyOp9
 70
     1
102
RTVSPropertyOp10
 70
     1
102
RTVSPropertyOp11
 70
     1
102
RTVSPropertyOp12
 70
     1
102
RTVSPropertyOp13
 70
     1
102
RTVSPropertyOp14
 70
     1
102
RTVSPropertyOp15
 70
     1
102
RTVSPropertyOp16
 70
     1
102
RTVSPropertyOp17
 70
     1
102
RTVSPropertyOp18
 70
     1
102
RTVSPropertyOp19
 70
     1
102
RTVSPropertyOp20
 70
     1
102
RTVSPropertyOp21
 70
     1
102
RTVSPropertyOp22
 70
     1
102
RTVSPropertyOp23
 70
     1
102
RTVSPropertyOp24
 70
     1
102
RTVSPropertyOp25
 70
     1
102
RTVSPropertyOp26
 70
     1
102
RTVSPropertyOp27
 70
     1
102
RTVSPropertyOp28
 70
     1
102
RTVSPropertyOp29
 70
     1
102
RTVSPropertyOp30
 70
     1
102
RTVSPropertyOp31
 70
     1
102
RTVSPropertyOp32
 70
     1
102
RTVSPropertyOp33
 70
     1
102
RTVSPropertyOp34
 70
     1
102
RTVSPropertyOp35
 70
     1
102
RTVSPropertyOp36
 70
     1
102
RTVSPropertyOp37
 70
     1
102
RTVSPropertyOp38
 70
     1
102
RTVSPropertyOp39
 70
     1
102
RTVSPropertyOp40
 70
     1
102
RTVSPropertyOp41
 70
     1
102
RTVSPropertyOp42
 70
     1
102
RTVSPropertyOp43
 70
     1
102
RTVSPropertyOp44
 70
     1
102
RTVSPropertyOp45
 70
     1
102
RTVSPropertyOp46
 70
     1
102
RTVSPropertyOp47
 70
     1
102
RTVSPropertyOp48
 70
     1
102
RTVSPropertyOp49
 70
     1
102
RTVSPropertyOp50
 70
     1
102
RTVSPropertyOp51
 70
     0
102
RTVSPropertyOp52
 70
     0
102
RTVSPropertyOp53
 70
     1
102
RTVSPropertyOp54
 70
     1
102
RTVSPropertyOp55
 70
     1
102
RTVSPropertyOp56
 70
     1
102
RTVSPropertyOp57
 70
     1
102
RTVSPost2010Prop28
280
     0
102
RTVSPost2010PropOp28
 70
     1
102
RTVSPost2010Prop29
280
     1
102
RTVSPost2010PropOp29
 70
     1
102
RTVSPost2010Prop30
280
     1
102
RTVSPost2010PropOp30
 70
     1
102
RTVSPost2010Prop31
280
     0
102
RTVSPost2010PropOp31
 70
     1
102
RTVSPost2010Prop32
280
     0
102
RTVSPost2010PropOp32
 70
     1
102
RTVSPost2010Prop33
280
     0
102
RTVSPost2010PropOp33
 70
     1
102
RTVSPost2010Prop34
280
     0
102
RTVSPost2010PropOp34
 70
     1
102
RTVSPost2010Prop35
280
     0
102
RTVSPost2010PropOp35
 70
     1
102
RTVSPost2010Prop36
280
     0
102
RTVSPost2010PropOp36
 70
     1
102
RTVSPost2010Prop37
 90
       50
102
RTVSPost2010PropOp37
 70
     1
102
RTVSPost2010Prop38
140
0.0
102
RTVSPost2010PropOp38
 70
     1
102
RTVSPost2010Prop39
140
1.0
102
RTVSPost2010PropOp39
 70
     1
102
RTVSPost2010Prop40
 90
        0
102
RTVSPost2010PropOp40
 70
     1
102
RTVSPost2010Prop41ColorIndex
 90
       18
102
RTVSPost2010Prop41ColorRGB
 90
        0
102
RTVSPost2010PropOp41
 70
     1
102
RTVSPost2010Prop42
 90
       50
102
RTVSPost2010PropOp42
 70
     1
102
RTVSPost2010Prop43
 90
        3
102
RTVSPost2010PropOp43
 70
     1
102
RTVSPost2010Prop44ColorIndex
 90
        5
102
RTVSPost2010Prop44ColorRGB
 90
      255
102
RTVSPost2010PropOp44
 70
     1
102
RTVSPost2010Prop45
280
     0
102
RTVSPost2010PropOp45
 70
     1
102
RTVSPost2010Prop46
 90
       50
102
RTVSPost2010PropOp46
 70
     1
102
RTVSPost2010Prop47
 90
       50
102
RTVSPost2010PropOp47
 70
     1
102
RTVSPost2010Prop48
 90
       50
102
RTVSPost2010PropOp48
 70
     1
102
RTVSPost2010Prop49
280
     0
102
RTVSPost2010PropOp49
 70
     1
102
RTVSPost2010Prop50
 90
       50
102
RTVSPost2010PropOp50
 70
     1
102
RTVSPost2010Prop51ColorIndex
 90
      256
102
RTVSPost2010Prop51ColorRGB
 90
-16777216
102
RTVSPost2010PropOp51
 70
     0
102
RTVSPost2010Prop52
140
1.0
102
RTVSPost2010PropOp52
 70
     0
102
RTVSPost2010Prop53
 90
        2
102
RTVSPost2010PropOp53
 70
     1
102
RTVSPost2010Prop54
  1
strokes_ogs.tif
102
RTVSPost2010PropOp54
 70
     1
102
RTVSPost2010Prop55
280
     0
102
RTVSPost2010PropOp55
 70
     1
102
RTVSPost2010Prop56
140
1.0
102
RTVSPost2010PropOp56
 70
     1
102
RTVSPost2010Prop57
140
1.0
102
RTVSPost2010PropOp57
 70
     1
  0
XRECORD
  5
3C6
102
{ACAD_REACTORS
330
3C5
102
}
330
3C5
100
AcDbXrecord
280
     1
102
RTVSPropertyOp0
 70
     0
102
RTVSPropertyOp1
 70
     0
102
RTVSPropertyOp2
 70
     0
102
RTVSPropertyOp3
 70
     0
102
RTVSPropertyOp4
 70
     0
102
RTVSPropertyOp5
 70
     0
102
RTVSPropertyOp6
 70
     0
102
RTVSPropertyOp7
 70
     0
102
RTVSPropertyOp8
 70
     0
102
RTVSPropertyOp9
 70
     0
102
RTVSPropertyOp10
 70
     0
102
RTVSPropertyOp11
 70
     0
102
RTVSPropertyOp12
 70
     0
102
RTVSPropertyOp13
 70
     0
102
RTVSPropertyOp14
 70
     2
102
RTVSPropertyOp15
 70
     0
102
RTVSPropertyOp16
 70
     0
102
RTVSPropertyOp17
 70
     0
102
RTVSPropertyOp18
 70
     0
102
RTVSPropertyOp19
 70
     0
102
RTVSPropertyOp20
 70
     0
102
RTVSPropertyOp21
 70
     0
102
RTVSPropertyOp22
 70
     0
102
RTVSPropertyOp23
 70
     0
102
RTVSPropertyOp24
 70
     0
102
RTVSPropertyOp25
 70
     0
102
RTVSPropertyOp26
 70
     0
102
RTVSPropertyOp27
 70
     0
102
RTVSPropertyOp28
 70
     0
102
RTVSPropertyOp29
 70
     0
102
RTVSPropertyOp30
 70
     0
102
RTVSPropertyOp31
 70
     0
102
RTVSPropertyOp32
 70
     0
102
RTVSPropertyOp33
 70
     0
102
RTVSPropertyOp34
 70
     0
102
RTVSPropertyOp35
 70
     0
102
RTVSPropertyOp36
 70
     0
102
RTVSPropertyOp37
 70
     0
102
RTVSPropertyOp38
 70
     0
102
RTVSPropertyOp39
 70
     0
102
RTVSPropertyOp40
 70
     0
102
RTVSPropertyOp41
 70
     0
102
RTVSPropertyOp42
 70
     0
102
RTVSPropertyOp43
 70
     0
102
RTVSPropertyOp44
 70
     0
102
RTVSPropertyOp45
 70
     0
102
RTVSPropertyOp46
 70
     0
102
RTVSPropertyOp47
 70
     0
102
RTVSPropertyOp48
 70
     0
102
RTVSPropertyOp49
 70
     0
102
RTVSPropertyOp50
 70
     0
102
RTVSPropertyOp51
 70
     0
102
RTVSPropertyOp52
 70
     0
102
RTVSPropertyOp53
 70
     0
102
RTVSPropertyOp54
 70
     0
102
RTVSPropertyOp55
 70
     0
102
RTVSPropertyOp56
 70
     0
102
RTVSPropertyOp57
 70
     0
102
RTVSPost2010Prop28
280
     0
102
RTVSPost2010PropOp28
 70
     0
102
RTVSPost2010Prop29
280
     1
102
RTVSPost2010PropOp29
 70
     0
102
RTVSPost2010Prop30
280
     1
102
RTVSPost2010PropOp30
 70
     0
102
RTVSPost2010Prop31
280
     0
102
RTVSPost2010PropOp31
 70
     0
102
RTVSPost2010Prop32
280
     0
102
RTVSPost2010PropOp32
 70
     0
102
RTVSPost2010Prop33
280
     0
102
RTVSPost2010PropOp33
 70
     0
102
RTVSPost2010Prop34
280
     0
102
RTVSPost2010PropOp34
 70
     0
102
RTVSPost2010Prop35
280
     0
102
RTVSPost2010PropOp35
 70
     0
102
RTVSPost2010Prop36
280
     0
102
RTVSPost2010PropOp36
 70
     0
102
RTVSPost2010Prop37
 90
       50
102
RTVSPost2010PropOp37
 70
     0
102
RTVSPost2010Prop38
140
0.0
102
RTVSPost2010PropOp38
 70
     0
102
RTVSPost2010Prop39
140
1.0
102
RTVSPost2010PropOp39
 70
     0
102
RTVSPost2010Prop40
 90
        0
102
RTVSPost2010PropOp40
 70
     0
102
RTVSPost2010Prop41ColorIndex
 90
       18
102
RTVSPost2010Prop41ColorRGB
 90
        0
102
RTVSPost2010PropOp41
 70
     0
102
RTVSPost2010Prop42
 90
       50
102
RTVSPost2010PropOp42
 70
     0
102
RTVSPost2010Prop43
 90
        3
102
RTVSPost2010PropOp43
 70
     0
102
RTVSPost2010Prop44ColorIndex
 90
        5
102
RTVSPost2010Prop44ColorRGB
 90
      255
102
RTVSPost2010PropOp44
 70
     0
102
RTVSPost2010Prop45
280
     0
102
RTVSPost2010PropOp45
 70
     0
102
RTVSPost2010Prop46
 90
       50
102
RTVSPost2010PropOp46
 70
     0
102
RTVSPost2010Prop47
 90
       50
102
RTVSPost2010PropOp47
 70
     0
102
RTVSPost2010Prop48
 90
       50
102
RTVSPost2010PropOp48
 70
     0
102
RTVSPost2010Prop49
280
     0
102
RTVSPost2010PropOp49
 70
     0
102
RTVSPost2010Prop50
 90
       50
102
RTVSPost2010PropOp50
 70
     0
102
RTVSPost2010Prop51ColorIndex
 90
      256
102
RTVSPost2010Prop51ColorRGB
 90
-16777216
102
RTVSPost2010PropOp51
 70
     0
102
RTVSPost2010Prop52
140
1.0
102
RTVSPost2010PropOp52
 70
     0
102
RTVSPost2010Prop53
 90
        2
102
RTVSPost2010PropOp53
 70
     0
102
RTVSPost2010Prop54
  1
strokes_ogs.tif
102
RTVSPost2010PropOp54
 70
     0
102
RTVSPost2010Prop55
280
     0
102
RTVSPost2010PropOp55
 70
     0
102
RTVSPost2010Prop56
140
1.0
102
RTVSPost2010PropOp56
 70
     0
102
RTVSPost2010Prop57
140
1.0
102
RTVSPost2010PropOp57
 70
     0
  0
XRECORD
  5
3C0
102
{ACAD_REACTORS
330
3BF
102
}
330
3BF
100
AcDbXrecord
280
     1
102
RTVSPropertyOp0
 70
     1
102
RTVSPropertyOp1
 70
     1
102
RTVSPropertyOp2
 70
     1
102
RTVSPropertyOp3
 70
     1
102
RTVSPropertyOp4
 70
     1
102
RTVSPropertyOp5
 70
     1
102
RTVSPropertyOp6
 70
     1
102
RTVSPropertyOp7
 70
     1
102
RTVSPropertyOp8
 70
     1
102
RTVSPropertyOp9
 70
     1
102
RTVSPropertyOp10
 70
     1
102
RTVSPropertyOp11
 70
     1
102
RTVSPropertyOp12
 70
     1
102
RTVSPropertyOp13
 70
     1
102
RTVSPropertyOp14
 70
     1
102
RTVSPropertyOp15
 70
     1
102
RTVSPropertyOp16
 70
     1
102
RTVSPropertyOp17
 70
     1
102
RTVSPropertyOp18
 70
     1
102
RTVSPropertyOp19
 70
     1
102
RTVSPropertyOp20
 70
     1
102
RTVSPropertyOp21
 70
     1
102
RTVSPropertyOp22
 70
     1
102
RTVSPropertyOp23
 70
     1
102
RTVSPropertyOp24
 70
     1
102
RTVSPropertyOp25
 70
     1
102
RTVSPropertyOp26
 70
     1
102
RTVSPropertyOp27
 70
     1
102
RTVSPropertyOp28
 70
     1
102
RTVSPropertyOp29
 70
     1
102
RTVSPropertyOp30
 70
     1
102
RTVSPropertyOp31
 70
     1
102
RTVSPropertyOp32
 70
     1
102
RTVSPropertyOp33
 70
     1
102
RTVSPropertyOp34
 70
     1
102
RTVSPropertyOp35
 70
     1
102
RTVSPropertyOp36
 70
     1
102
RTVSPropertyOp37
 70
     1
102
RTVSPropertyOp38
 70
     1
102
RTVSPropertyOp39
 70
     1
102
RTVSPropertyOp40
 70
     1
102
RTVSPropertyOp41
 70
     1
102
RTVSPropertyOp42
 70
     1
102
RTVSPropertyOp43
 70
     1
102
RTVSPropertyOp44
 70
     1
102
RTVSPropertyOp45
 70
     1
102
RTVSPropertyOp46
 70
     1
102
RTVSPropertyOp47
 70
     1
102
RTVSPropertyOp48
 70
     1
102
RTVSPropertyOp49
 70
     1
102
RTVSPropertyOp50
 70
     1
102
RTVSPropertyOp51
 70
     0
102
RTVSPropertyOp52
 70
     0
102
RTVSPropertyOp53
 70
     1
102
RTVSPropertyOp54
 70
     1
102
RTVSPropertyOp55
 70
     1
102
RTVSPropertyOp56
 70
     1
102
RTVSPropertyOp57
 70
     1
102
RTVSPost2010Prop28
280
     0
102
RTVSPost2010PropOp28
 70
     1
102
RTVSPost2010Prop29
280
     1
102
RTVSPost2010PropOp29
 70
     1
102
RTVSPost2010Prop30
280
     1
102
RTVSPost2010PropOp30
 70
     1
102
RTVSPost2010Prop31
280
     0
102
RTVSPost2010PropOp31
 70
     1
102
RTVSPost2010Prop32
280
     0
102
RTVSPost2010PropOp32
 70
     1
102
RTVSPost2010Prop33
280
     0
102
RTVSPost2010PropOp33
 70
     1
102
RTVSPost2010Prop34
280
     0
102
RTVSPost2010PropOp34
 70
     1
102
RTVSPost2010Prop35
280
     0
102
RTVSPost2010PropOp35
 70
     1
102
RTVSPost2010Prop36
280
     0
102
RTVSPost2010PropOp36
 70
     1
102
RTVSPost2010Prop37
 90
       50
102
RTVSPost2010PropOp37
 70
     1
102
RTVSPost2010Prop38
140
0.0
102
RTVSPost2010PropOp38
 70
     1
102
RTVSPost2010Prop39
140
1.0
102
RTVSPost2010PropOp39
 70
     1
102
RTVSPost2010Prop40
 90
        0
102
RTVSPost2010PropOp40
 70
     1
102
RTVSPost2010Prop41ColorIndex
 90
       18
102
RTVSPost2010Prop41ColorRGB
 90
        0
102
RTVSPost2010PropOp41
 70
     1
102
RTVSPost2010Prop42
 90
       50
102
RTVSPost2010PropOp42
 70
     1
102
RTVSPost2010Prop43
 90
        3
102
RTVSPost2010PropOp43
 70
     1
102
RTVSPost2010Prop44ColorIndex
 90
        5
102
RTVSPost2010Prop44ColorRGB
 90
      255
102
RTVSPost2010PropOp44
 70
     1
102
RTVSPost2010Prop45
280
     0
102
RTVSPost2010PropOp45
 70
     1
102
RTVSPost2010Prop46
 90
       50
102
RTVSPost2010PropOp46
 70
     1
102
RTVSPost2010Prop47
 90
       50
102
RTVSPost2010PropOp47
 70
     1
102
RTVSPost2010Prop48
 90
       50
102
RTVSPost2010PropOp48
 70
     1
102
RTVSPost2010Prop49
280
     0
102
RTVSPost2010PropOp49
 70
     1
102
RTVSPost2010Prop50
 90
       50
102
RTVSPost2010PropOp50
 70
     1
102
RTVSPost2010Prop51ColorIndex
 90
      256
102
RTVSPost2010Prop51ColorRGB
 90
-16777216
102
RTVSPost2010PropOp51
 70
     0
102
RTVSPost2010Prop52
140
1.0
102
RTVSPost2010PropOp52
 70
     0
102
RTVSPost2010Prop53
 90
        2
102
RTVSPost2010PropOp53
 70
     1
102
RTVSPost2010Prop54
  1
strokes_ogs.tif
102
RTVSPost2010PropOp54
 70
     1
102
RTVSPost2010Prop55
280
     0
102
RTVSPost2010PropOp55
 70
     1
102
RTVSPost2010Prop56
140
1.0
102
RTVSPost2010PropOp56
 70
     1
102
RTVSPost2010Prop57
140
1.0
102
RTVSPost2010PropOp57
 70
     1
  0
XRECORD
  5
3C8
102
{ACAD_REACTORS
330
3C7
102
}
330
3C7
100
AcDbXrecord
280
     1
102
RTVSPropertyOp0
 70
     0
102
RTVSPropertyOp1
 70
     0
102
RTVSPropertyOp2
 70
     0
102
RTVSPropertyOp3
 70
     0
102
RTVSPropertyOp4
 70
     0
102
RTVSPropertyOp5
 70
     0
102
RTVSPropertyOp6
 70
     0
102
RTVSPropertyOp7
 70
     0
102
RTVSPropertyOp8
 70
     0
102
RTVSPropertyOp9
 70
     0
102
RTVSPropertyOp10
 70
     0
102
RTVSPropertyOp11
 70
     0
102
RTVSPropertyOp12
 70
     0
102
RTVSPropertyOp13
 70
     0
102
RTVSPropertyOp14
 70
     2
102
RTVSPropertyOp15
 70
     0
102
RTVSPropertyOp16
 70
     0
102
RTVSPropertyOp17
 70
     0
102
RTVSPropertyOp18
 70
     0
102
RTVSPropertyOp19
 70
     0
102
RTVSPropertyOp20
 70
     0
102
RTVSPropertyOp21
 70
     0
102
RTVSPropertyOp22
 70
     0
102
RTVSPropertyOp23
 70
     0
102
RTVSPropertyOp24
 70
     0
102
RTVSPropertyOp25
 70
     0
102
RTVSPropertyOp26
 70
     0
102
RTVSPropertyOp27
 70
     0
102
RTVSPropertyOp28
 70
     0
102
RTVSPropertyOp29
 70
     0
102
RTVSPropertyOp30
 70
     0
102
RTVSPropertyOp31
 70
     0
102
RTVSPropertyOp32
 70
     0
102
RTVSPropertyOp33
 70
     0
102
RTVSPropertyOp34
 70
     0
102
RTVSPropertyOp35
 70
     0
102
RTVSPropertyOp36
 70
     0
102
RTVSPropertyOp37
 70
     0
102
RTVSPropertyOp38
 70
     0
102
RTVSPropertyOp39
 70
     0
102
RTVSPropertyOp40
 70
     0
102
RTVSPropertyOp41
 70
     0
102
RTVSPropertyOp42
 70
     0
102
RTVSPropertyOp43
 70
     0
102
RTVSPropertyOp44
 70
     0
102
RTVSPropertyOp45
 70
     0
102
RTVSPropertyOp46
 70
     0
102
RTVSPropertyOp47
 70
     0
102
RTVSPropertyOp48
 70
     0
102
RTVSPropertyOp49
 70
     0
102
RTVSPropertyOp50
 70
     0
102
RTVSPropertyOp51
 70
     0
102
RTVSPropertyOp52
 70
     0
102
RTVSPropertyOp53
 70
     0
102
RTVSPropertyOp54
 70
     0
102
RTVSPropertyOp55
 70
     0
102
RTVSPropertyOp56
 70
     0
102
RTVSPropertyOp57
 70
     0
102
RTVSPost2010Prop28
280
     0
102
RTVSPost2010PropOp28
 70
     0
102
RTVSPost2010Prop29
280
     1
102
RTVSPost2010PropOp29
 70
     0
102
RTVSPost2010Prop30
280
     1
102
RTVSPost2010PropOp30
 70
     0
102
RTVSPost2010Prop31
280
     0
102
RTVSPost2010PropOp31
 70
     0
102
RTVSPost2010Prop32
280
     0
102
RTVSPost2010PropOp32
 70
     0
102
RTVSPost2010Prop33
280
     0
102
RTVSPost2010PropOp33
 70
     0
102
RTVSPost2010Prop34
280
     0
102
RTVSPost2010PropOp34
 70
     0
102
RTVSPost2010Prop35
280
     0
102
RTVSPost2010PropOp35
 70
     0
102
RTVSPost2010Prop36
280
     0
102
RTVSPost2010PropOp36
 70
     0
102
RTVSPost2010Prop37
 90
       50
102
RTVSPost2010PropOp37
 70
     0
102
RTVSPost2010Prop38
140
0.0
102
RTVSPost2010PropOp38
 70
     0
102
RTVSPost2010Prop39
140
1.0
102
RTVSPost2010PropOp39
 70
     0
102
RTVSPost2010Prop40
 90
        0
102
RTVSPost2010PropOp40
 70
     0
102
RTVSPost2010Prop41ColorIndex
 90
       18
102
RTVSPost2010Prop41ColorRGB
 90
        0
102
RTVSPost2010PropOp41
 70
     0
102
RTVSPost2010Prop42
 90
       50
102
RTVSPost2010PropOp42
 70
     0
102
RTVSPost2010Prop43
 90
        3
102
RTVSPost2010PropOp43
 70
     0
102
RTVSPost2010Prop44ColorIndex
 90
        5
102
RTVSPost2010Prop44ColorRGB
 90
      255
102
RTVSPost2010PropOp44
 70
     0
102
RTVSPost2010Prop45
280
     0
102
RTVSPost2010PropOp45
 70
     0
102
RTVSPost2010Prop46
 90
       50
102
RTVSPost2010PropOp46
 70
     0
102
RTVSPost2010Prop47
 90
       50
102
RTVSPost2010PropOp47
 70
     0
102
RTVSPost2010Prop48
 90
       50
102
RTVSPost2010PropOp48
 70
     0
102
RTVSPost2010Prop49
280
     0
102
RTVSPost2010PropOp49
 70
     0
102
RTVSPost2010Prop50
 90
       50
102
RTVSPost2010PropOp50
 70
     0
102
RTVSPost2010Prop51ColorIndex
 90
      256
102
RTVSPost2010Prop51ColorRGB
 90
-16777216
102
RTVSPost2010PropOp51
 70
     0
102
RTVSPost2010Prop52
140
1.0
102
RTVSPost2010PropOp52
 70
     0
102
RTVSPost2010Prop53
 90
        2
102
RTVSPost2010PropOp53
 70
     0
102
RTVSPost2010Prop54
  1
strokes_ogs.tif
102
RTVSPost2010PropOp54
 70
     0
102
RTVSPost2010Prop55
280
     0
102
RTVSPost2010PropOp55
 70
     0
102
RTVSPost2010Prop56
140
1.0
102
RTVSPost2010PropOp56
 70
     0
102
RTVSPost2010Prop57
140
1.0
102
RTVSPost2010PropOp57
 70
     0
  0
XRECORD
  5
3B6
102
{ACAD_REACTORS
330
3B5
102
}
330
3B5
100
AcDbXrecord
280
     1
102
RTVSPropertyOp0
 70
     1
102
RTVSPropertyOp1
 70
     1
102
RTVSPropertyOp2
 70
     1
102
RTVSPropertyOp3
 70
     1
102
RTVSPropertyOp4
 70
     1
102
RTVSPropertyOp5
 70
     1
102
RTVSPropertyOp6
 70
     1
102
RTVSPropertyOp7
 70
     1
102
RTVSPropertyOp8
 70
     1
102
RTVSPropertyOp9
 70
     1
102
RTVSPropertyOp10
 70
     1
102
RTVSPropertyOp11
 70
     1
102
RTVSPropertyOp12
 70
     1
102
RTVSPropertyOp13
 70
     1
102
RTVSPropertyOp14
 70
     1
102
RTVSPropertyOp15
 70
     1
102
RTVSPropertyOp16
 70
     1
102
RTVSPropertyOp17
 70
     1
102
RTVSPropertyOp18
 70
     1
102
RTVSPropertyOp19
 70
     1
102
RTVSPropertyOp20
 70
     1
102
RTVSPropertyOp21
 70
     1
102
RTVSPropertyOp22
 70
     1
102
RTVSPropertyOp23
 70
     1
102
RTVSPropertyOp24
 70
     1
102
RTVSPropertyOp25
 70
     1
102
RTVSPropertyOp26
 70
     1
102
RTVSPropertyOp27
 70
     1
102
RTVSPropertyOp28
 70
     1
102
RTVSPropertyOp29
 70
     1
102
RTVSPropertyOp30
 70
     1
102
RTVSPropertyOp31
 70
     1
102
RTVSPropertyOp32
 70
     1
102
RTVSPropertyOp33
 70
     1
102
RTVSPropertyOp34
 70
     1
102
RTVSPropertyOp35
 70
     1
102
RTVSPropertyOp36
 70
     1
102
RTVSPropertyOp37
 70
     1
102
RTVSPropertyOp38
 70
     1
102
RTVSPropertyOp39
 70
     1
102
RTVSPropertyOp40
 70
     1
102
RTVSPropertyOp41
 70
     1
102
RTVSPropertyOp42
 70
     1
102
RTVSPropertyOp43
 70
     1
102
RTVSPropertyOp44
 70
     1
102
RTVSPropertyOp45
 70
     1
102
RTVSPropertyOp46
 70
     1
102
RTVSPropertyOp47
 70
     1
102
RTVSPropertyOp48
 70
     1
102
RTVSPropertyOp49
 70
     1
102
RTVSPropertyOp50
 70
     1
102
RTVSPropertyOp51
 70
     0
102
RTVSPropertyOp52
 70
     0
102
RTVSPropertyOp53
 70
     1
102
RTVSPropertyOp54
 70
     1
102
RTVSPropertyOp55
 70
     1
102
RTVSPropertyOp56
 70
     1
102
RTVSPropertyOp57
 70
     1
102
RTVSPost2010Prop28
280
     0
102
RTVSPost2010PropOp28
 70
     1
102
RTVSPost2010Prop29
280
     1
102
RTVSPost2010PropOp29
 70
     1
102
RTVSPost2010Prop30
280
     1
102
RTVSPost2010PropOp30
 70
     1
102
RTVSPost2010Prop31
280
     0
102
RTVSPost2010PropOp31
 70
     1
102
RTVSPost2010Prop32
280
     0
102
RTVSPost2010PropOp32
 70
     1
102
RTVSPost2010Prop33
280
     0
102
RTVSPost2010PropOp33
 70
     1
102
RTVSPost2010Prop34
280
     0
102
RTVSPost2010PropOp34
 70
     1
102
RTVSPost2010Prop35
280
     0
102
RTVSPost2010PropOp35
 70
     1
102
RTVSPost2010Prop36
280
     0
102
RTVSPost2010PropOp36
 70
     1
102
RTVSPost2010Prop37
 90
       50
102
RTVSPost2010PropOp37
 70
     1
102
RTVSPost2010Prop38
140
0.0
102
RTVSPost2010PropOp38
 70
     1
102
RTVSPost2010Prop39
140
1.0
102
RTVSPost2010PropOp39
 70
     1
102
RTVSPost2010Prop40
 90
        0
102
RTVSPost2010PropOp40
 70
     1
102
RTVSPost2010Prop41ColorIndex
 90
       18
102
RTVSPost2010Prop41ColorRGB
 90
        0
102
RTVSPost2010PropOp41
 70
     1
102
RTVSPost2010Prop42
 90
       50
102
RTVSPost2010PropOp42
 70
     1
102
RTVSPost2010Prop43
 90
        3
102
RTVSPost2010PropOp43
 70
     1
102
RTVSPost2010Prop44ColorIndex
 90
        5
102
RTVSPost2010Prop44ColorRGB
 90
      255
102
RTVSPost2010PropOp44
 70
     1
102
RTVSPost2010Prop45
280
     0
102
RTVSPost2010PropOp45
 70
     1
102
RTVSPost2010Prop46
 90
       50
102
RTVSPost2010PropOp46
 70
     1
102
RTVSPost2010Prop47
 90
       50
102
RTVSPost2010PropOp47
 70
     1
102
RTVSPost2010Prop48
 90
       50
102
RTVSPost2010PropOp48
 70
     1
102
RTVSPost2010Prop49
280
     0
102
RTVSPost2010PropOp49
 70
     1
102
RTVSPost2010Prop50
 90
       50
102
RTVSPost2010PropOp50
 70
     1
102
RTVSPost2010Prop51ColorIndex
 90
      256
102
RTVSPost2010Prop51ColorRGB
 90
-16777216
102
RTVSPost2010PropOp51
 70
     0
102
RTVSPost2010Prop52
140
1.0
102
RTVSPost2010PropOp52
 70
     0
102
RTVSPost2010Prop53
 90
        2
102
RTVSPost2010PropOp53
 70
     1
102
RTVSPost2010Prop54
  1
strokes_ogs.tif
102
RTVSPost2010PropOp54
 70
     1
102
RTVSPost2010Prop55
280
     0
102
RTVSPost2010PropOp55
 70
     1
102
RTVSPost2010Prop56
140
1.0
102
RTVSPost2010PropOp56
 70
     1
102
RTVSPost2010Prop57
140
1.0
102
RTVSPost2010PropOp57
 70
     1
  0
XRECORD
  5
3D4
102
{ACAD_REACTORS
330
3D3
102
}
330
3D3
100
AcDbXrecord
280
     1
102
RTVSPropertyOp0
 70
     1
102
RTVSPropertyOp1
 70
     1
102
RTVSPropertyOp2
 70
     1
102
RTVSPropertyOp3
 70
     1
102
RTVSPropertyOp4
 70
     1
102
RTVSPropertyOp5
 70
     1
102
RTVSPropertyOp6
 70
     1
102
RTVSPropertyOp7
 70
     1
102
RTVSPropertyOp8
 70
     1
102
RTVSPropertyOp9
 70
     1
102
RTVSPropertyOp10
 70
     1
102
RTVSPropertyOp11
 70
     1
102
RTVSPropertyOp12
 70
     1
102
RTVSPropertyOp13
 70
     1
102
RTVSPropertyOp14
 70
     1
102
RTVSPropertyOp15
 70
     1
102
RTVSPropertyOp16
 70
     1
102
RTVSPropertyOp17
 70
     1
102
RTVSPropertyOp18
 70
     1
102
RTVSPropertyOp19
 70
     1
102
RTVSPropertyOp20
 70
     1
102
RTVSPropertyOp21
 70
     1
102
RTVSPropertyOp22
 70
     1
102
RTVSPropertyOp23
 70
     1
102
RTVSPropertyOp24
 70
     1
102
RTVSPropertyOp25
 70
     1
102
RTVSPropertyOp26
 70
     1
102
RTVSPropertyOp27
 70
     1
102
RTVSPropertyOp28
 70
     1
102
RTVSPropertyOp29
 70
     1
102
RTVSPropertyOp30
 70
     1
102
RTVSPropertyOp31
 70
     1
102
RTVSPropertyOp32
 70
     1
102
RTVSPropertyOp33
 70
     1
102
RTVSPropertyOp34
 70
     1
102
RTVSPropertyOp35
 70
     1
102
RTVSPropertyOp36
 70
     1
102
RTVSPropertyOp37
 70
     1
102
RTVSPropertyOp38
 70
     1
102
RTVSPropertyOp39
 70
     1
102
RTVSPropertyOp40
 70
     1
102
RTVSPropertyOp41
 70
     1
102
RTVSPropertyOp42
 70
     1
102
RTVSPropertyOp43
 70
     1
102
RTVSPropertyOp44
 70
     1
102
RTVSPropertyOp45
 70
     1
102
RTVSPropertyOp46
 70
     1
102
RTVSPropertyOp47
 70
     1
102
RTVSPropertyOp48
 70
     1
102
RTVSPropertyOp49
 70
     1
102
RTVSPropertyOp50
 70
     1
102
RTVSPropertyOp51
 70
     0
102
RTVSPropertyOp52
 70
     0
102
RTVSPropertyOp53
 70
     1
102
RTVSPropertyOp54
 70
     1
102
RTVSPropertyOp55
 70
     1
102
RTVSPropertyOp56
 70
     1
102
RTVSPropertyOp57
 70
     1
102
RTVSPost2010Prop28
280
     0
102
RTVSPost2010PropOp28
 70
     1
102
RTVSPost2010Prop29
280
     1
102
RTVSPost2010PropOp29
 70
     1
102
RTVSPost2010Prop30
280
     1
102
RTVSPost2010PropOp30
 70
     1
102
RTVSPost2010Prop31
280
     0
102
RTVSPost2010PropOp31
 70
     1
102
RTVSPost2010Prop32
280
     0
102
RTVSPost2010PropOp32
 70
     1
102
RTVSPost2010Prop33
280
     0
102
RTVSPost2010PropOp33
 70
     1
102
RTVSPost2010Prop34
280
     0
102
RTVSPost2010PropOp34
 70
     1
102
RTVSPost2010Prop35
280
     0
102
RTVSPost2010PropOp35
 70
     1
102
RTVSPost2010Prop36
280
     0
102
RTVSPost2010PropOp36
 70
     1
102
RTVSPost2010Prop37
 90
       50
102
RTVSPost2010PropOp37
 70
     1
102
RTVSPost2010Prop38
140
0.0
102
RTVSPost2010PropOp38
 70
     1
102
RTVSPost2010Prop39
140
1.0
102
RTVSPost2010PropOp39
 70
     1
102
RTVSPost2010Prop40
 90
        0
102
RTVSPost2010PropOp40
 70
     1
102
RTVSPost2010Prop41ColorIndex
 90
       18
102
RTVSPost2010Prop41ColorRGB
 90
        0
102
RTVSPost2010PropOp41
 70
     1
102
RTVSPost2010Prop42
 90
       50
102
RTVSPost2010PropOp42
 70
     1
102
RTVSPost2010Prop43
 90
        3
102
RTVSPost2010PropOp43
 70
     1
102
RTVSPost2010Prop44ColorIndex
 90
        5
102
RTVSPost2010Prop44ColorRGB
 90
      255
102
RTVSPost2010PropOp44
 70
     1
102
RTVSPost2010Prop45
280
     0
102
RTVSPost2010PropOp45
 70
     1
102
RTVSPost2010Prop46
 90
       50
102
RTVSPost2010PropOp46
 70
     1
102
RTVSPost2010Prop47
 90
       50
102
RTVSPost2010PropOp47
 70
     1
102
RTVSPost2010Prop48
 90
       50
102
RTVSPost2010PropOp48
 70
     1
102
RTVSPost2010Prop49
280
     0
102
RTVSPost2010PropOp49
 70
     1
102
RTVSPost2010Prop50
 90
       50
102
RTVSPost2010PropOp50
 70
     1
102
RTVSPost2010Prop51ColorIndex
 90
      256
102
RTVSPost2010Prop51ColorRGB
 90
-16777216
102
RTVSPost2010PropOp51
 70
     0
102
RTVSPost2010Prop52
140
1.0
102
RTVSPost2010PropOp52
 70
     0
102
RTVSPost2010Prop53
 90
        2
102
RTVSPost2010PropOp53
 70
     1
102
RTVSPost2010Prop54
  1
strokes_ogs.tif
102
RTVSPost2010PropOp54
 70
     1
102
RTVSPost2010Prop55
280
     0
102
RTVSPost2010PropOp55
 70
     1
102
RTVSPost2010Prop56
140
1.0
102
RTVSPost2010PropOp56
 70
     1
102
RTVSPost2010Prop57
140
1.0
102
RTVSPost2010PropOp57
 70
     1
  0
XRECORD
  5
3D2
102
{ACAD_REACTORS
330
3D1
102
}
330
3D1
100
AcDbXrecord
280
     1
102
RTVSPropertyOp0
 70
     1
102
RTVSPropertyOp1
 70
     1
102
RTVSPropertyOp2
 70
     1
102
RTVSPropertyOp3
 70
     1
102
RTVSPropertyOp4
 70
     1
102
RTVSPropertyOp5
 70
     1
102
RTVSPropertyOp6
 70
     1
102
RTVSPropertyOp7
 70
     1
102
RTVSPropertyOp8
 70
     1
102
RTVSPropertyOp9
 70
     1
102
RTVSPropertyOp10
 70
     1
102
RTVSPropertyOp11
 70
     1
102
RTVSPropertyOp12
 70
     1
102
RTVSPropertyOp13
 70
     1
102
RTVSPropertyOp14
 70
     1
102
RTVSPropertyOp15
 70
     1
102
RTVSPropertyOp16
 70
     1
102
RTVSPropertyOp17
 70
     1
102
RTVSPropertyOp18
 70
     1
102
RTVSPropertyOp19
 70
     1
102
RTVSPropertyOp20
 70
     1
102
RTVSPropertyOp21
 70
     1
102
RTVSPropertyOp22
 70
     1
102
RTVSPropertyOp23
 70
     1
102
RTVSPropertyOp24
 70
     1
102
RTVSPropertyOp25
 70
     1
102
RTVSPropertyOp26
 70
     1
102
RTVSPropertyOp27
 70
     1
102
RTVSPropertyOp28
 70
     1
102
RTVSPropertyOp29
 70
     1
102
RTVSPropertyOp30
 70
     1
102
RTVSPropertyOp31
 70
     1
102
RTVSPropertyOp32
 70
     1
102
RTVSPropertyOp33
 70
     1
102
RTVSPropertyOp34
 70
     1
102
RTVSPropertyOp35
 70
     1
102
RTVSPropertyOp36
 70
     1
102
RTVSPropertyOp37
 70
     1
102
RTVSPropertyOp38
 70
     1
102
RTVSPropertyOp39
 70
     1
102
RTVSPropertyOp40
 70
     1
102
RTVSPropertyOp41
 70
     1
102
RTVSPropertyOp42
 70
     1
102
RTVSPropertyOp43
 70
     1
102
RTVSPropertyOp44
 70
     1
102
RTVSPropertyOp45
 70
     1
102
RTVSPropertyOp46
 70
     1
102
RTVSPropertyOp47
 70
     1
102
RTVSPropertyOp48
 70
     1
102
RTVSPropertyOp49
 70
     1
102
RTVSPropertyOp50
 70
     1
102
RTVSPropertyOp51
 70
     0
102
RTVSPropertyOp52
 70
     0
102
RTVSPropertyOp53
 70
     1
102
RTVSPropertyOp54
 70
     1
102
RTVSPropertyOp55
 70
     1
102
RTVSPropertyOp56
 70
     1
102
RTVSPropertyOp57
 70
     1
102
RTVSPost2010Prop28
280
     0
102
RTVSPost2010PropOp28
 70
     1
102
RTVSPost2010Prop29
280
     1
102
RTVSPost2010PropOp29
 70
     1
102
RTVSPost2010Prop30
280
     1
102
RTVSPost2010PropOp30
 70
     1
102
RTVSPost2010Prop31
280
     0
102
RTVSPost2010PropOp31
 70
     1
102
RTVSPost2010Prop32
280
     0
102
RTVSPost2010PropOp32
 70
     1
102
RTVSPost2010Prop33
280
     0
102
RTVSPost2010PropOp33
 70
     1
102
RTVSPost2010Prop34
280
     0
102
RTVSPost2010PropOp34
 70
     1
102
RTVSPost2010Prop35
280
     0
102
RTVSPost2010PropOp35
 70
     1
102
RTVSPost2010Prop36
280
     0
102
RTVSPost2010PropOp36
 70
     1
102
RTVSPost2010Prop37
 90
       50
102
RTVSPost2010PropOp37
 70
     1
102
RTVSPost2010Prop38
140
0.0
102
RTVSPost2010PropOp38
 70
     1
102
RTVSPost2010Prop39
140
1.0
102
RTVSPost2010PropOp39
 70
     1
102
RTVSPost2010Prop40
 90
        0
102
RTVSPost2010PropOp40
 70
     1
102
RTVSPost2010Prop41ColorIndex
 90
       18
102
RTVSPost2010Prop41ColorRGB
 90
        0
102
RTVSPost2010PropOp41
 70
     1
102
RTVSPost2010Prop42
 90
       50
102
RTVSPost2010PropOp42
 70
     1
102
RTVSPost2010Prop43
 90
        3
102
RTVSPost2010PropOp43
 70
     1
102
RTVSPost2010Prop44ColorIndex
 90
        5
102
RTVSPost2010Prop44ColorRGB
 90
      255
102
RTVSPost2010PropOp44
 70
     1
102
RTVSPost2010Prop45
280
     0
102
RTVSPost2010PropOp45
 70
     1
102
RTVSPost2010Prop46
 90
       50
102
RTVSPost2010PropOp46
 70
     1
102
RTVSPost2010Prop47
 90
       50
102
RTVSPost2010PropOp47
 70
     1
102
RTVSPost2010Prop48
 90
       50
102
RTVSPost2010PropOp48
 70
     1
102
RTVSPost2010Prop49
280
     0
102
RTVSPost2010PropOp49
 70
     1
102
RTVSPost2010Prop50
 90
       50
102
RTVSPost2010PropOp50
 70
     1
102
RTVSPost2010Prop51ColorIndex
 90
      256
102
RTVSPost2010Prop51ColorRGB
 90
-16777216
102
RTVSPost2010PropOp51
 70
     0
102
RTVSPost2010Prop52
140
1.0
102
RTVSPost2010PropOp52
 70
     0
102
RTVSPost2010Prop53
 90
        2
102
RTVSPost2010PropOp53
 70
     1
102
RTVSPost2010Prop54
  1
strokes_ogs.tif
102
RTVSPost2010PropOp54
 70
     1
102
RTVSPost2010Prop55
280
     0
102
RTVSPost2010PropOp55
 70
     1
102
RTVSPost2010Prop56
140
1.0
102
RTVSPost2010PropOp56
 70
     1
102
RTVSPost2010Prop57
140
1.0
102
RTVSPost2010PropOp57
 70
     1
  0
XRECORD
  5
3CC
102
{ACAD_REACTORS
330
3CB
102
}
330
3CB
100
AcDbXrecord
280
     1
102
RTVSPropertyOp0
 70
     1
102
RTVSPropertyOp1
 70
     1
102
RTVSPropertyOp2
 70
     1
102
RTVSPropertyOp3
 70
     1
102
RTVSPropertyOp4
 70
     1
102
RTVSPropertyOp5
 70
     1
102
RTVSPropertyOp6
 70
     1
102
RTVSPropertyOp7
 70
     1
102
RTVSPropertyOp8
 70
     1
102
RTVSPropertyOp9
 70
     1
102
RTVSPropertyOp10
 70
     1
102
RTVSPropertyOp11
 70
     1
102
RTVSPropertyOp12
 70
     1
102
RTVSPropertyOp13
 70
     1
102
RTVSPropertyOp14
 70
     1
102
RTVSPropertyOp15
 70
     1
102
RTVSPropertyOp16
 70
     1
102
RTVSPropertyOp17
 70
     1
102
RTVSPropertyOp18
 70
     1
102
RTVSPropertyOp19
 70
     1
102
RTVSPropertyOp20
 70
     1
102
RTVSPropertyOp21
 70
     1
102
RTVSPropertyOp22
 70
     1
102
RTVSPropertyOp23
 70
     1
102
RTVSPropertyOp24
 70
     1
102
RTVSPropertyOp25
 70
     1
102
RTVSPropertyOp26
 70
     1
102
RTVSPropertyOp27
 70
     1
102
RTVSPropertyOp28
 70
     1
102
RTVSPropertyOp29
 70
     1
102
RTVSPropertyOp30
 70
     1
102
RTVSPropertyOp31
 70
     1
102
RTVSPropertyOp32
 70
     1
102
RTVSPropertyOp33
 70
     1
102
RTVSPropertyOp34
 70
     1
102
RTVSPropertyOp35
 70
     1
102
RTVSPropertyOp36
 70
     1
102
RTVSPropertyOp37
 70
     1
102
RTVSPropertyOp38
 70
     1
102
RTVSPropertyOp39
 70
     1
102
RTVSPropertyOp40
 70
     1
102
RTVSPropertyOp41
 70
     1
102
RTVSPropertyOp42
 70
     1
102
RTVSPropertyOp43
 70
     1
102
RTVSPropertyOp44
 70
     1
102
RTVSPropertyOp45
 70
     1
102
RTVSPropertyOp46
 70
     1
102
RTVSPropertyOp47
 70
     1
102
RTVSPropertyOp48
 70
     1
102
RTVSPropertyOp49
 70
     1
102
RTVSPropertyOp50
 70
     1
102
RTVSPropertyOp51
 70
     0
102
RTVSPropertyOp52
 70
     0
102
RTVSPropertyOp53
 70
     1
102
RTVSPropertyOp54
 70
     1
102
RTVSPropertyOp55
 70
     1
102
RTVSPropertyOp56
 70
     1
102
RTVSPropertyOp57
 70
     1
102
RTVSPost2010Prop28
280
     0
102
RTVSPost2010PropOp28
 70
     1
102
RTVSPost2010Prop29
280
     1
102
RTVSPost2010PropOp29
 70
     1
102
RTVSPost2010Prop30
280
     1
102
RTVSPost2010PropOp30
 70
     1
102
RTVSPost2010Prop31
280
     0
102
RTVSPost2010PropOp31
 70
     1
102
RTVSPost2010Prop32
280
     0
102
RTVSPost2010PropOp32
 70
     1
102
RTVSPost2010Prop33
280
     0
102
RTVSPost2010PropOp33
 70
     1
102
RTVSPost2010Prop34
280
     0
102
RTVSPost2010PropOp34
 70
     1
102
RTVSPost2010Prop35
280
     0
102
RTVSPost2010PropOp35
 70
     1
102
RTVSPost2010Prop36
280
     0
102
RTVSPost2010PropOp36
 70
     1
102
RTVSPost2010Prop37
 90
       50
102
RTVSPost2010PropOp37
 70
     1
102
RTVSPost2010Prop38
140
0.0
102
RTVSPost2010PropOp38
 70
     1
102
RTVSPost2010Prop39
140
1.0
102
RTVSPost2010PropOp39
 70
     1
102
RTVSPost2010Prop40
 90
        0
102
RTVSPost2010PropOp40
 70
     1
102
RTVSPost2010Prop41ColorIndex
 90
       18
102
RTVSPost2010Prop41ColorRGB
 90
        0
102
RTVSPost2010PropOp41
 70
     1
102
RTVSPost2010Prop42
 90
       50
102
RTVSPost2010PropOp42
 70
     1
102
RTVSPost2010Prop43
 90
        3
102
RTVSPost2010PropOp43
 70
     1
102
RTVSPost2010Prop44ColorIndex
 90
        5
102
RTVSPost2010Prop44ColorRGB
 90
      255
102
RTVSPost2010PropOp44
 70
     1
102
RTVSPost2010Prop45
280
     0
102
RTVSPost2010PropOp45
 70
     1
102
RTVSPost2010Prop46
 90
       50
102
RTVSPost2010PropOp46
 70
     1
102
RTVSPost2010Prop47
 90
       50
102
RTVSPost2010PropOp47
 70
     1
102
RTVSPost2010Prop48
 90
       50
102
RTVSPost2010PropOp48
 70
     1
102
RTVSPost2010Prop49
280
     0
102
RTVSPost2010PropOp49
 70
     1
102
RTVSPost2010Prop50
 90
       50
102
RTVSPost2010PropOp50
 70
     1
102
RTVSPost2010Prop51ColorIndex
 90
      256
102
RTVSPost2010Prop51ColorRGB
 90
-16777216
102
RTVSPost2010PropOp51
 70
     0
102
RTVSPost2010Prop52
140
1.0
102
RTVSPost2010PropOp52
 70
     0
102
RTVSPost2010Prop53
 90
        2
102
RTVSPost2010PropOp53
 70
     1
102
RTVSPost2010Prop54
  1
strokes_ogs.tif
102
RTVSPost2010PropOp54
 70
     1
102
RTVSPost2010Prop55
280
     0
102
RTVSPost2010PropOp55
 70
     1
102
RTVSPost2010Prop56
140
1.0
102
RTVSPost2010PropOp56
 70
     1
102
RTVSPost2010Prop57
140
1.0
102
RTVSPost2010PropOp57
 70
     1
  0
XRECORD
  5
3CE
102
{ACAD_REACTORS
330
3CD
102
}
330
3CD
100
AcDbXrecord
280
     1
102
RTVSPropertyOp0
 70
     1
102
RTVSPropertyOp1
 70
     1
102
RTVSPropertyOp2
 70
     1
102
RTVSPropertyOp3
 70
     1
102
RTVSPropertyOp4
 70
     1
102
RTVSPropertyOp5
 70
     1
102
RTVSPropertyOp6
 70
     1
102
RTVSPropertyOp7
 70
     1
102
RTVSPropertyOp8
 70
     1
102
RTVSPropertyOp9
 70
     1
102
RTVSPropertyOp10
 70
     1
102
RTVSPropertyOp11
 70
     1
102
RTVSPropertyOp12
 70
     1
102
RTVSPropertyOp13
 70
     1
102
RTVSPropertyOp14
 70
     1
102
RTVSPropertyOp15
 70
     1
102
RTVSPropertyOp16
 70
     1
102
RTVSPropertyOp17
 70
     1
102
RTVSPropertyOp18
 70
     1
102
RTVSPropertyOp19
 70
     1
102
RTVSPropertyOp20
 70
     1
102
RTVSPropertyOp21
 70
     1
102
RTVSPropertyOp22
 70
     1
102
RTVSPropertyOp23
 70
     1
102
RTVSPropertyOp24
 70
     1
102
RTVSPropertyOp25
 70
     1
102
RTVSPropertyOp26
 70
     1
102
RTVSPropertyOp27
 70
     1
102
RTVSPropertyOp28
 70
     1
102
RTVSPropertyOp29
 70
     1
102
RTVSPropertyOp30
 70
     1
102
RTVSPropertyOp31
 70
     1
102
RTVSPropertyOp32
 70
     1
102
RTVSPropertyOp33
 70
     1
102
RTVSPropertyOp34
 70
     1
102
RTVSPropertyOp35
 70
     1
102
RTVSPropertyOp36
 70
     1
102
RTVSPropertyOp37
 70
     1
102
RTVSPropertyOp38
 70
     1
102
RTVSPropertyOp39
 70
     1
102
RTVSPropertyOp40
 70
     1
102
RTVSPropertyOp41
 70
     1
102
RTVSPropertyOp42
 70
     1
102
RTVSPropertyOp43
 70
     1
102
RTVSPropertyOp44
 70
     1
102
RTVSPropertyOp45
 70
     1
102
RTVSPropertyOp46
 70
     1
102
RTVSPropertyOp47
 70
     1
102
RTVSPropertyOp48
 70
     1
102
RTVSPropertyOp49
 70
     1
102
RTVSPropertyOp50
 70
     1
102
RTVSPropertyOp51
 70
     0
102
RTVSPropertyOp52
 70
     0
102
RTVSPropertyOp53
 70
     1
102
RTVSPropertyOp54
 70
     1
102
RTVSPropertyOp55
 70
     1
102
RTVSPropertyOp56
 70
     1
102
RTVSPropertyOp57
 70
     1
102
RTVSPost2010Prop28
280
     0
102
RTVSPost2010PropOp28
 70
     1
102
RTVSPost2010Prop29
280
     1
102
RTVSPost2010PropOp29
 70
     1
102
RTVSPost2010Prop30
280
     1
102
RTVSPost2010PropOp30
 70
     1
102
RTVSPost2010Prop31
280
     0
102
RTVSPost2010PropOp31
 70
     1
102
RTVSPost2010Prop32
280
     0
102
RTVSPost2010PropOp32
 70
     1
102
RTVSPost2010Prop33
280
     0
102
RTVSPost2010PropOp33
 70
     1
102
RTVSPost2010Prop34
280
     0
102
RTVSPost2010PropOp34
 70
     1
102
RTVSPost2010Prop35
280
     0
102
RTVSPost2010PropOp35
 70
     1
102
RTVSPost2010Prop36
280
     0
102
RTVSPost2010PropOp36
 70
     1
102
RTVSPost2010Prop37
 90
       50
102
RTVSPost2010PropOp37
 70
     1
102
RTVSPost2010Prop38
140
0.0
102
RTVSPost2010PropOp38
 70
     1
102
RTVSPost2010Prop39
140
1.0
102
RTVSPost2010PropOp39
 70
     1
102
RTVSPost2010Prop40
 90
        0
102
RTVSPost2010PropOp40
 70
     1
102
RTVSPost2010Prop41ColorIndex
 90
       18
102
RTVSPost2010Prop41ColorRGB
 90
        0
102
RTVSPost2010PropOp41
 70
     1
102
RTVSPost2010Prop42
 90
       50
102
RTVSPost2010PropOp42
 70
     1
102
RTVSPost2010Prop43
 90
        3
102
RTVSPost2010PropOp43
 70
     1
102
RTVSPost2010Prop44ColorIndex
 90
        5
102
RTVSPost2010Prop44ColorRGB
 90
      255
102
RTVSPost2010PropOp44
 70
     1
102
RTVSPost2010Prop45
280
     0
102
RTVSPost2010PropOp45
 70
     1
102
RTVSPost2010Prop46
 90
       50
102
RTVSPost2010PropOp46
 70
     1
102
RTVSPost2010Prop47
 90
       50
102
RTVSPost2010PropOp47
 70
     1
102
RTVSPost2010Prop48
 90
       50
102
RTVSPost2010PropOp48
 70
     1
102
RTVSPost2010Prop49
280
     0
102
RTVSPost2010PropOp49
 70
     1
102
RTVSPost2010Prop50
 90
       50
102
RTVSPost2010PropOp50
 70
     1
102
RTVSPost2010Prop51ColorIndex
 90
      256
102
RTVSPost2010Prop51ColorRGB
 90
-16777216
102
RTVSPost2010PropOp51
 70
     0
102
RTVSPost2010Prop52
140
1.0
102
RTVSPost2010PropOp52
 70
     0
102
RTVSPost2010Prop53
 90
        2
102
RTVSPost2010PropOp53
 70
     1
102
RTVSPost2010Prop54
  1
strokes_ogs.tif
102
RTVSPost2010PropOp54
 70
     1
102
RTVSPost2010Prop55
280
     0
102
RTVSPost2010PropOp55
 70
     1
102
RTVSPost2010Prop56
140
1.0
102
RTVSPost2010PropOp56
 70
     1
102
RTVSPost2010Prop57
140
1.0
102
RTVSPost2010PropOp57
 70
     1
  0
XRECORD
  5
3BE
102
{ACAD_REACTORS
330
3BD
102
}
330
3BD
100
AcDbXrecord
280
     1
102
RTVSPropertyOp0
 70
     1
102
RTVSPropertyOp1
 70
     1
102
RTVSPropertyOp2
 70
     1
102
RTVSPropertyOp3
 70
     1
102
RTVSPropertyOp4
 70
     1
102
RTVSPropertyOp5
 70
     1
102
RTVSPropertyOp6
 70
     1
102
RTVSPropertyOp7
 70
     1
102
RTVSPropertyOp8
 70
     1
102
RTVSPropertyOp9
 70
     1
102
RTVSPropertyOp10
 70
     1
102
RTVSPropertyOp11
 70
     1
102
RTVSPropertyOp12
 70
     1
102
RTVSPropertyOp13
 70
     1
102
RTVSPropertyOp14
 70
     1
102
RTVSPropertyOp15
 70
     1
102
RTVSPropertyOp16
 70
     1
102
RTVSPropertyOp17
 70
     1
102
RTVSPropertyOp18
 70
     1
102
RTVSPropertyOp19
 70
     1
102
RTVSPropertyOp20
 70
     1
102
RTVSPropertyOp21
 70
     1
102
RTVSPropertyOp22
 70
     1
102
RTVSPropertyOp23
 70
     1
102
RTVSPropertyOp24
 70
     1
102
RTVSPropertyOp25
 70
     1
102
RTVSPropertyOp26
 70
     1
102
RTVSPropertyOp27
 70
     1
102
RTVSPropertyOp28
 70
     1
102
RTVSPropertyOp29
 70
     1
102
RTVSPropertyOp30
 70
     1
102
RTVSPropertyOp31
 70
     1
102
RTVSPropertyOp32
 70
     1
102
RTVSPropertyOp33
 70
     1
102
RTVSPropertyOp34
 70
     1
102
RTVSPropertyOp35
 70
     1
102
RTVSPropertyOp36
 70
     1
102
RTVSPropertyOp37
 70
     1
102
RTVSPropertyOp38
 70
     1
102
RTVSPropertyOp39
 70
     1
102
RTVSPropertyOp40
 70
     1
102
RTVSPropertyOp41
 70
     1
102
RTVSPropertyOp42
 70
     1
102
RTVSPropertyOp43
 70
     1
102
RTVSPropertyOp44
 70
     1
102
RTVSPropertyOp45
 70
     1
102
RTVSPropertyOp46
 70
     1
102
RTVSPropertyOp47
 70
     1
102
RTVSPropertyOp48
 70
     1
102
RTVSPropertyOp49
 70
     1
102
RTVSPropertyOp50
 70
     1
102
RTVSPropertyOp51
 70
     0
102
RTVSPropertyOp52
 70
     0
102
RTVSPropertyOp53
 70
     1
102
RTVSPropertyOp54
 70
     1
102
RTVSPropertyOp55
 70
     1
102
RTVSPropertyOp56
 70
     1
102
RTVSPropertyOp57
 70
     1
102
RTVSPost2010Prop28
280
     0
102
RTVSPost2010PropOp28
 70
     1
102
RTVSPost2010Prop29
280
     1
102
RTVSPost2010PropOp29
 70
     1
102
RTVSPost2010Prop30
280
     1
102
RTVSPost2010PropOp30
 70
     1
102
RTVSPost2010Prop31
280
     0
102
RTVSPost2010PropOp31
 70
     1
102
RTVSPost2010Prop32
280
     0
102
RTVSPost2010PropOp32
 70
     1
102
RTVSPost2010Prop33
280
     0
102
RTVSPost2010PropOp33
 70
     1
102
RTVSPost2010Prop34
280
     0
102
RTVSPost2010PropOp34
 70
     1
102
RTVSPost2010Prop35
280
     0
102
RTVSPost2010PropOp35
 70
     1
102
RTVSPost2010Prop36
280
     0
102
RTVSPost2010PropOp36
 70
     1
102
RTVSPost2010Prop37
 90
       50
102
RTVSPost2010PropOp37
 70
     1
102
RTVSPost2010Prop38
140
0.0
102
RTVSPost2010PropOp38
 70
     1
102
RTVSPost2010Prop39
140
1.0
102
RTVSPost2010PropOp39
 70
     1
102
RTVSPost2010Prop40
 90
        0
102
RTVSPost2010PropOp40
 70
     1
102
RTVSPost2010Prop41ColorIndex
 90
       18
102
RTVSPost2010Prop41ColorRGB
 90
        0
102
RTVSPost2010PropOp41
 70
     1
102
RTVSPost2010Prop42
 90
       50
102
RTVSPost2010PropOp42
 70
     1
102
RTVSPost2010Prop43
 90
        3
102
RTVSPost2010PropOp43
 70
     1
102
RTVSPost2010Prop44ColorIndex
 90
        5
102
RTVSPost2010Prop44ColorRGB
 90
      255
102
RTVSPost2010PropOp44
 70
     1
102
RTVSPost2010Prop45
280
     0
102
RTVSPost2010PropOp45
 70
     1
102
RTVSPost2010Prop46
 90
       50
102
RTVSPost2010PropOp46
 70
     1
102
RTVSPost2010Prop47
 90
       50
102
RTVSPost2010PropOp47
 70
     1
102
RTVSPost2010Prop48
 90
       50
102
RTVSPost2010PropOp48
 70
     1
102
RTVSPost2010Prop49
280
     0
102
RTVSPost2010PropOp49
 70
     1
102
RTVSPost2010Prop50
 90
       50
102
RTVSPost2010PropOp50
 70
     1
102
RTVSPost2010Prop51ColorIndex
 90
      256
102
RTVSPost2010Prop51ColorRGB
 90
-16777216
102
RTVSPost2010PropOp51
 70
     0
102
RTVSPost2010Prop52
140
1.0
102
RTVSPost2010PropOp52
 70
     0
102
RTVSPost2010Prop53
 90
        2
102
RTVSPost2010PropOp53
 70
     1
102
RTVSPost2010Prop54
  1
strokes_ogs.tif
102
RTVSPost2010PropOp54
 70
     1
102
RTVSPost2010Prop55
280
     0
102
RTVSPost2010PropOp55
 70
     1
102
RTVSPost2010Prop56
140
1.0
102
RTVSPost2010PropOp56
 70
     1
102
RTVSPost2010Prop57
140
1.0
102
RTVSPost2010PropOp57
 70
     1
  0
XRECORD
  5
3B0
102
{ACAD_REACTORS
330
3AF
102
}
330
3AF
100
AcDbXrecord
280
     1
102
RTVSPropertyOp0
 70
     1
102
RTVSPropertyOp1
 70
     1
102
RTVSPropertyOp2
 70
     1
102
RTVSPropertyOp3
 70
     1
102
RTVSPropertyOp4
 70
     1
102
RTVSPropertyOp5
 70
     1
102
RTVSPropertyOp6
 70
     1
102
RTVSPropertyOp7
 70
     1
102
RTVSPropertyOp8
 70
     1
102
RTVSPropertyOp9
 70
     1
102
RTVSPropertyOp10
 70
     1
102
RTVSPropertyOp11
 70
     1
102
RTVSPropertyOp12
 70
     1
102
RTVSPropertyOp13
 70
     1
102
RTVSPropertyOp14
 70
     1
102
RTVSPropertyOp15
 70
     1
102
RTVSPropertyOp16
 70
     1
102
RTVSPropertyOp17
 70
     1
102
RTVSPropertyOp18
 70
     1
102
RTVSPropertyOp19
 70
     1
102
RTVSPropertyOp20
 70
     1
102
RTVSPropertyOp21
 70
     1
102
RTVSPropertyOp22
 70
     1
102
RTVSPropertyOp23
 70
     1
102
RTVSPropertyOp24
 70
     1
102
RTVSPropertyOp25
 70
     1
102
RTVSPropertyOp26
 70
     1
102
RTVSPropertyOp27
 70
     1
102
RTVSPropertyOp28
 70
     1
102
RTVSPropertyOp29
 70
     1
102
RTVSPropertyOp30
 70
     1
102
RTVSPropertyOp31
 70
     1
102
RTVSPropertyOp32
 70
     1
102
RTVSPropertyOp33
 70
     1
102
RTVSPropertyOp34
 70
     1
102
RTVSPropertyOp35
 70
     1
102
RTVSPropertyOp36
 70
     1
102
RTVSPropertyOp37
 70
     1
102
RTVSPropertyOp38
 70
     1
102
RTVSPropertyOp39
 70
     1
102
RTVSPropertyOp40
 70
     1
102
RTVSPropertyOp41
 70
     1
102
RTVSPropertyOp42
 70
     1
102
RTVSPropertyOp43
 70
     1
102
RTVSPropertyOp44
 70
     1
102
RTVSPropertyOp45
 70
     1
102
RTVSPropertyOp46
 70
     1
102
RTVSPropertyOp47
 70
     1
102
RTVSPropertyOp48
 70
     1
102
RTVSPropertyOp49
 70
     1
102
RTVSPropertyOp50
 70
     1
102
RTVSPropertyOp51
 70
     0
102
RTVSPropertyOp52
 70
     0
102
RTVSPropertyOp53
 70
     1
102
RTVSPropertyOp54
 70
     1
102
RTVSPropertyOp55
 70
     1
102
RTVSPropertyOp56
 70
     1
102
RTVSPropertyOp57
 70
     1
102
RTVSPost2010Prop28
280
     0
102
RTVSPost2010PropOp28
 70
     1
102
RTVSPost2010Prop29
280
     1
102
RTVSPost2010PropOp29
 70
     1
102
RTVSPost2010Prop30
280
     1
102
RTVSPost2010PropOp30
 70
     1
102
RTVSPost2010Prop31
280
     0
102
RTVSPost2010PropOp31
 70
     1
102
RTVSPost2010Prop32
280
     0
102
RTVSPost2010PropOp32
 70
     1
102
RTVSPost2010Prop33
280
     0
102
RTVSPost2010PropOp33
 70
     1
102
RTVSPost2010Prop34
280
     0
102
RTVSPost2010PropOp34
 70
     1
102
RTVSPost2010Prop35
280
     0
102
RTVSPost2010PropOp35
 70
     1
102
RTVSPost2010Prop36
280
     0
102
RTVSPost2010PropOp36
 70
     1
102
RTVSPost2010Prop37
 90
       50
102
RTVSPost2010PropOp37
 70
     1
102
RTVSPost2010Prop38
140
0.0
102
RTVSPost2010PropOp38
 70
     1
102
RTVSPost2010Prop39
140
1.0
102
RTVSPost2010PropOp39
 70
     1
102
RTVSPost2010Prop40
 90
        0
102
RTVSPost2010PropOp40
 70
     1
102
RTVSPost2010Prop41ColorIndex
 90
       18
102
RTVSPost2010Prop41ColorRGB
 90
        0
102
RTVSPost2010PropOp41
 70
     1
102
RTVSPost2010Prop42
 90
       50
102
RTVSPost2010PropOp42
 70
     1
102
RTVSPost2010Prop43
 90
        3
102
RTVSPost2010PropOp43
 70
     1
102
RTVSPost2010Prop44ColorIndex
 90
        5
102
RTVSPost2010Prop44ColorRGB
 90
      255
102
RTVSPost2010PropOp44
 70
     1
102
RTVSPost2010Prop45
280
     0
102
RTVSPost2010PropOp45
 70
     1
102
RTVSPost2010Prop46
 90
       50
102
RTVSPost2010PropOp46
 70
     1
102
RTVSPost2010Prop47
 90
       50
102
RTVSPost2010PropOp47
 70
     1
102
RTVSPost2010Prop48
 90
       50
102
RTVSPost2010PropOp48
 70
     1
102
RTVSPost2010Prop49
280
     0
102
RTVSPost2010PropOp49
 70
     1
102
RTVSPost2010Prop50
 90
       50
102
RTVSPost2010PropOp50
 70
     1
102
RTVSPost2010Prop51ColorIndex
 90
      256
102
RTVSPost2010Prop51ColorRGB
 90
-16777216
102
RTVSPost2010PropOp51
 70
     0
102
RTVSPost2010Prop52
140
1.0
102
RTVSPost2010PropOp52
 70
     0
102
RTVSPost2010Prop53
 90
        2
102
RTVSPost2010PropOp53
 70
     1
102
RTVSPost2010Prop54
  1
strokes_ogs.tif
102
RTVSPost2010PropOp54
 70
     1
102
RTVSPost2010Prop55
280
     0
102
RTVSPost2010PropOp55
 70
     1
102
RTVSPost2010Prop56
140
1.0
102
RTVSPost2010PropOp56
 70
     1
102
RTVSPost2010Prop57
140
1.0
102
RTVSPost2010PropOp57
 70
     1
  0
XRECORD
  5
3D0
102
{ACAD_REACTORS
330
3CF
102
}
330
3CF
100
AcDbXrecord
280
     1
102
RTVSPropertyOp0
 70
     1
102
RTVSPropertyOp1
 70
     1
102
RTVSPropertyOp2
 70
     1
102
RTVSPropertyOp3
 70
     1
102
RTVSPropertyOp4
 70
     1
102
RTVSPropertyOp5
 70
     1
102
RTVSPropertyOp6
 70
     1
102
RTVSPropertyOp7
 70
     1
102
RTVSPropertyOp8
 70
     1
102
RTVSPropertyOp9
 70
     1
102
RTVSPropertyOp10
 70
     1
102
RTVSPropertyOp11
 70
     1
102
RTVSPropertyOp12
 70
     1
102
RTVSPropertyOp13
 70
     1
102
RTVSPropertyOp14
 70
     1
102
RTVSPropertyOp15
 70
     1
102
RTVSPropertyOp16
 70
     1
102
RTVSPropertyOp17
 70
     1
102
RTVSPropertyOp18
 70
     1
102
RTVSPropertyOp19
 70
     1
102
RTVSPropertyOp20
 70
     1
102
RTVSPropertyOp21
 70
     1
102
RTVSPropertyOp22
 70
     1
102
RTVSPropertyOp23
 70
     1
102
RTVSPropertyOp24
 70
     1
102
RTVSPropertyOp25
 70
     1
102
RTVSPropertyOp26
 70
     1
102
RTVSPropertyOp27
 70
     1
102
RTVSPropertyOp28
 70
     1
102
RTVSPropertyOp29
 70
     1
102
RTVSPropertyOp30
 70
     1
102
RTVSPropertyOp31
 70
     1
102
RTVSPropertyOp32
 70
     1
102
RTVSPropertyOp33
 70
     1
102
RTVSPropertyOp34
 70
     1
102
RTVSPropertyOp35
 70
     1
102
RTVSPropertyOp36
 70
     1
102
RTVSPropertyOp37
 70
     1
102
RTVSPropertyOp38
 70
     1
102
RTVSPropertyOp39
 70
     1
102
RTVSPropertyOp40
 70
     1
102
RTVSPropertyOp41
 70
     1
102
RTVSPropertyOp42
 70
     1
102
RTVSPropertyOp43
 70
     1
102
RTVSPropertyOp44
 70
     1
102
RTVSPropertyOp45
 70
     1
102
RTVSPropertyOp46
 70
     1
102
RTVSPropertyOp47
 70
     1
102
RTVSPropertyOp48
 70
     1
102
RTVSPropertyOp49
 70
     1
102
RTVSPropertyOp50
 70
     1
102
RTVSPropertyOp51
 70
     0
102
RTVSPropertyOp52
 70
     0
102
RTVSPropertyOp53
 70
     1
102
RTVSPropertyOp54
 70
     1
102
RTVSPropertyOp55
 70
     1
102
RTVSPropertyOp56
 70
     1
102
RTVSPropertyOp57
 70
     1
102
RTVSPost2010Prop28
280
     0
102
RTVSPost2010PropOp28
 70
     1
102
RTVSPost2010Prop29
280
     1
102
RTVSPost2010PropOp29
 70
     1
102
RTVSPost2010Prop30
280
     1
102
RTVSPost2010PropOp30
 70
     1
102
RTVSPost2010Prop31
280
     0
102
RTVSPost2010PropOp31
 70
     1
102
RTVSPost2010Prop32
280
     0
102
RTVSPost2010PropOp32
 70
     1
102
RTVSPost2010Prop33
280
     0
102
RTVSPost2010PropOp33
 70
     1
102
RTVSPost2010Prop34
280
     0
102
RTVSPost2010PropOp34
 70
     1
102
RTVSPost2010Prop35
280
     0
102
RTVSPost2010PropOp35
 70
     1
102
RTVSPost2010Prop36
280
     0
102
RTVSPost2010PropOp36
 70
     1
102
RTVSPost2010Prop37
 90
       50
102
RTVSPost2010PropOp37
 70
     1
102
RTVSPost2010Prop38
140
0.0
102
RTVSPost2010PropOp38
 70
     1
102
RTVSPost2010Prop39
140
1.0
102
RTVSPost2010PropOp39
 70
     1
102
RTVSPost2010Prop40
 90
        0
102
RTVSPost2010PropOp40
 70
     1
102
RTVSPost2010Prop41ColorIndex
 90
       18
102
RTVSPost2010Prop41ColorRGB
 90
        0
102
RTVSPost2010PropOp41
 70
     1
102
RTVSPost2010Prop42
 90
       50
102
RTVSPost2010PropOp42
 70
     1
102
RTVSPost2010Prop43
 90
        3
102
RTVSPost2010PropOp43
 70
     1
102
RTVSPost2010Prop44ColorIndex
 90
        5
102
RTVSPost2010Prop44ColorRGB
 90
      255
102
RTVSPost2010PropOp44
 70
     1
102
RTVSPost2010Prop45
280
     0
102
RTVSPost2010PropOp45
 70
     1
102
RTVSPost2010Prop46
 90
       50
102
RTVSPost2010PropOp46
 70
     1
102
RTVSPost2010Prop47
 90
       50
102
RTVSPost2010PropOp47
 70
     1
102
RTVSPost2010Prop48
 90
       50
102
RTVSPost2010PropOp48
 70
     1
102
RTVSPost2010Prop49
280
     0
102
RTVSPost2010PropOp49
 70
     1
102
RTVSPost2010Prop50
 90
       50
102
RTVSPost2010PropOp50
 70
     1
102
RTVSPost2010Prop51ColorIndex
 90
      256
102
RTVSPost2010Prop51ColorRGB
 90
-16777216
102
RTVSPost2010PropOp51
 70
     0
102
RTVSPost2010Prop52
140
1.0
102
RTVSPost2010PropOp52
 70
     0
102
RTVSPost2010Prop53
 90
        2
102
RTVSPost2010PropOp53
 70
     1
102
RTVSPost2010Prop54
  1
strokes_ogs.tif
102
RTVSPost2010PropOp54
 70
     1
102
RTVSPost2010Prop55
280
     0
102
RTVSPost2010PropOp55
 70
     1
102
RTVSPost2010Prop56
140
1.0
102
RTVSPost2010PropOp56
 70
     1
102
RTVSPost2010Prop57
140
1.0
102
RTVSPost2010PropOp57
 70
     1
  0
ENDSEC
  0
EOF
