  0
SECTION
  2
HEADER
  9
$ACADVER
  1
AC1015
  9
$ACADMAINTVER
 70
    20
  9
$DWGCODEPAGE
  3
ANSI_932
  9
$INSBASE
 10
-299.4453967509
 20
984.5379039092
 30
0.0
  9
$EXTMIN
 10
59.89858936902374
 20
59.85355865558722
 30
-0.0190373747720969
  9
$EXTMAX
 10
1722.101462874478
 20
2460.146516786217
 30
312.0190471822084
  9
$LIMMIN
 10
60.00000000002149
 20
60.00000000000034
  9
$LIMMAX
 10
1722.000000000021
 20
2460.0
  9
$ORTHOMODE
 70
     1
  9
$REGENMODE
 70
     0
  9
$FILLMODE
 70
     1
  9
$QTEXTMODE
 70
     0
  9
$MIRRTEXT
 70
     1
  9
$LTSCALE
 40
6.0
  9
$ATTMODE
 70
     1
  9
$TEXTSIZE
 40
24.0
  9
$TRACEWID
 40
0.05
  9
$TEXTSTYLE
  7
STANDARD
  9
$CLAYER
  8
0
  9
$CELTYPE
  6
BYLAYER
  9
$CECOLOR
 62
   256
  9
$CELTSCALE
 40
1.0
  9
$DISPSILH
 70
     0
  9
$DIMSCALE
 40
6.0
  9
$DIMASZ
 40
2.5
  9
$DIMEXO
 40
1.0
  9
$DIMDLI
 40
10.0
  9
$DIMRND
 40
0.0
  9
$DIMDLE
 40
0.0
  9
$DIMEXE
 40
1.0
  9
$DIMTP
 40
0.1
  9
$DIMTM
 40
0.1
  9
$DIMTXT
 40
3.5
  9
$DIMCEN
 40
0.0
  9
$DIMTSZ
 40
0.0
  9
$DIMTOL
 70
     0
  9
$DIMLIM
 70
     0
  9
$DIMTIH
 70
     0
  9
$DIMTOH
 70
     0
  9
$DIMSE1
 70
     0
  9
$DIMSE2
 70
     0
  9
$DIMTAD
 70
     1
  9
$DIMZIN
 70
     0
  9
$DIMBLK
  1

  9
$DIMASO
 70
     1
  9
$DIMSHO
 70
     0
  9
$DIMPOST
  1

  9
$DIMAPOST
  1

  9
$DIMALT
 70
     0
  9
$DIMALTD
 70
     2
  9
$DIMALTF
 40
0.0393701
  9
$DIMLFAC
 40
1.0
  9
$DIMTOFL
 70
     1
  9
$DIMTVP
 40
0.0
  9
$DIMTIX
 70
     0
  9
$DIMSOXD
 70
     0
  9
$DIMSAH
 70
     0
  9
$DIMBLK1
  1

  9
$DIMBLK2
  1

  9
$DIMSTYLE
  2
GEN-ISO
  9
$DIMCLRD
 70
   256
  9
$DIMCLRE
 70
   256
  9
$DIMCLRT
 70
   250
  9
$DIMTFAC
 40
0.71
  9
$DIMGAP
 40
1.5
  9
$DIMJUST
 70
     0
  9
$DIMSD1
 70
     0
  9
$DIMSD2
 70
     0
  9
$DIMTOLJ
 70
     0
  9
$DIMTZIN
 70
     0
  9
$DIMALTZ
 70
     0
  9
$DIMALTTZ
 70
     0
  9
$DIMUPT
 70
     0
  9
$DIMDEC
 70
     2
  9
$DIMTDEC
 70
     3
  9
$DIMALTU
 70
     2
  9
$DIMALTTD
 70
     4
  9
$DIMTXSTY
  7
STANDARD
  9
$DIMAUNIT
 70
     0
  9
$DIMADEC
 70
     0
  9
$DIMALTRND
 40
0.0
  9
$DIMAZIN
 70
     0
  9
$DIMDSEP
 70
    46
  9
$DIMATFIT
 70
     3
  9
$DIMFRAC
 70
     0
  9
$DIMLDRBLK
  1

  9
$DIMLUNIT
 70
     2
  9
$DIMLWD
 70
    -2
  9
$DIMLWE
 70
    -2
  9
$DIMTMOVE
 70
     0
  9
$LUNITS
 70
     2
  9
$LUPREC
 70
     2
  9
$SKETCHINC
 40
0.1
  9
$FILLETRAD
 40
6.0
  9
$AUNITS
 70
     0
  9
$AUPREC
 70
     0
  9
$MENU
  1
ACAD
  9
$ELEVATION
 40
0.0
  9
$PELEVATION
 40
0.0
  9
$THICKNESS
 40
0.0
  9
$LIMCHECK
 70
     0
  9
$CHAMFERA
 40
6.0
  9
$CHAMFERB
 40
6.0
  9
$CHAMFERC
 40
0.0
  9
$CHAMFERD
 40
0.0
  9
$SKPOLY
 70
     0
  9
$TDCREATE
 40
2449465.000000000
  9
$TDUCREATE
 40
2449464.625000000
  9
$TDUPDATE
 40
2455329.732067778
  9
$TDUUPDATE
 40
2455329.357067778
  9
$TDINDWG
 40
0.0937590162
  9
$TDUSRTIMER
 40
0.0937590162
  9
$USRTIMER
 70
     1
  9
$ANGBASE
 50
0.0
  9
$ANGDIR
 70
     0
  9
$PDMODE
 70
    65
  9
$PDSIZE
 40
0.2
  9
$PLINEWID
 40
0.0
  9
$SPLFRAME
 70
     0
  9
$SPLINETYPE
 70
     6
  9
$SPLINESEGS
 70
     8
  9
$HANDSEED
  5
13D9
  9
$SURFTAB1
 70
     6
  9
$SURFTAB2
 70
     6
  9
$SURFTYPE
 70
     6
  9
$SURFU
 70
     6
  9
$SURFV
 70
     6
  9
$UCSBASE
  2

  9
$UCSNAME
  2

  9
$UCSORG
 10
0.0
 20
0.0
 30
0.0
  9
$UCSXDIR
 10
1.0
 20
0.0
 30
0.0
  9
$UCSYDIR
 10
0.0
 20
1.0
 30
0.0
  9
$UCSORTHOREF
  2

  9
$UCSORTHOVIEW
 70
     0
  9
$UCSORGTOP
 10
0.0
 20
0.0
 30
0.0
  9
$UCSORGBOTTOM
 10
0.0
 20
0.0
 30
0.0
  9
$UCSORGLEFT
 10
0.0
 20
0.0
 30
0.0
  9
$UCSORGRIGHT
 10
0.0
 20
0.0
 30
0.0
  9
$UCSORGFRONT
 10
0.0
 20
0.0
 30
0.0
  9
$UCSORGBACK
 10
0.0
 20
0.0
 30
0.0
  9
$PUCSBASE
  2

  9
$PUCSNAME
  2

  9
$PUCSORG
 10
0.0
 20
0.0
 30
0.0
  9
$PUCSXDIR
 10
1.0
 20
0.0
 30
0.0
  9
$PUCSYDIR
 10
0.0
 20
1.0
 30
0.0
  9
$PUCSORTHOREF
  2

  9
$PUCSORTHOVIEW
 70
     0
  9
$PUCSORGTOP
 10
0.0
 20
0.0
 30
0.0
  9
$PUCSORGBOTTOM
 10
0.0
 20
0.0
 30
0.0
  9
$PUCSORGLEFT
 10
0.0
 20
0.0
 30
0.0
  9
$PUCSORGRIGHT
 10
0.0
 20
0.0
 30
0.0
  9
$PUCSORGFRONT
 10
0.0
 20
0.0
 30
0.0
  9
$PUCSORGBACK
 10
0.0
 20
0.0
 30
0.0
  9
$USERI1
 70
     0
  9
$USERI2
 70
     0
  9
$USERI3
 70
     0
  9
$USERI4
 70
     0
  9
$USERI5
 70
     0
  9
$USERR1
 40
0.0
  9
$USERR2
 40
0.0
  9
$USERR3
 40
0.0
  9
$USERR4
 40
0.0
  9
$USERR5
 40
0.0
  9
$WORLDVIEW
 70
     1
  9
$SHADEDGE
 70
     3
  9
$SHADEDIF
 70
    70
  9
$TILEMODE
 70
     1
  9
$MAXACTVP
 70
    16
  9
$PINSBASE
 10
0.0
 20
0.0
 30
0.0
  9
$PLIMCHECK
 70
     0
  9
$PEXTMIN
 10
1.000000000000000E+20
 20
1.000000000000000E+20
 30
1.000000000000000E+20
  9
$PEXTMAX
 10
-1.000000000000000E+20
 20
-1.000000000000000E+20
 30
-1.000000000000000E+20
  9
$PLIMMIN
 10
0.0
 20
0.0
  9
$PLIMMAX
 10
12.0
 20
9.0
  9
$UNITMODE
 70
     0
  9
$VISRETAIN
 70
     0
  9
$PLINEGEN
 70
     0
  9
$PSLTSCALE
 70
     1
  9
$TREEDEPTH
 70
  3020
  9
$CMLSTYLE
  2
STANDARD
  9
$CMLJUST
 70
     0
  9
$CMLSCALE
 40
1.0
  9
$PROXYGRAPHICS
 70
     1
  9
$MEASUREMENT
 70
     1
  9
$CELWEIGHT
370
    -1
  9
$ENDCAPS
280
     0
  9
$JOINSTYLE
280
     0
  9
$LWDISPLAY
290
     0
  9
$INSUNITS
 70
     4
  9
$HYPERLINKBASE
  1

  9
$STYLESHEET
  1
monochrome.ctb
  9
$XEDIT
290
     1
  9
$CEPSNTYPE
380
     0
  9
$PSTYLEMODE
290
     1
  9
$FINGERPRINTGUID
  2
{F5DE3172-2F01-11D5-9AEC-00B0D0A1237C}
  9
$VERSIONGUID
  2
{B4649AF6-2635-427F-8E38-0630344FB15B}
  9
$EXTNAMES
290
     1
  9
$PSVPSCALE
 40
0.0
  9
$OLESTARTUP
290
     0
  0
ENDSEC
  0
SECTION
  2
CLASSES
  0
CLASS
  1
ACDBDICTIONARYWDFLT
  2
AcDbDictionaryWithDefault
  3
ObjectDBX Classes
 90
        0
280
     0
281
     0
  0
CLASS
  1
ACDBPLACEHOLDER
  2
AcDbPlaceHolder
  3
ObjectDBX Classes
 90
        0
280
     0
281
     0
  0
CLASS
  1
LAYOUT
  2
AcDbLayout
  3
ObjectDBX Classes
 90
        0
280
     0
281
     0
  0
CLASS
  1
ACME_DOCUMENT
  2
AcMeDbDoc
  3
AcMeServices
 90
        0
280
     0
281
     0
  0
CLASS
  1
ACMESCOPE
  2
AcMeScope
  3
AcMeServices
 90
        0
280
     0
281
     0
  0
CLASS
  1
ACMECOMMANDHISTORY
  2
AcMeCommandHistory
  3
AcMeServices
 90
        0
280
     0
281
     0
  0
CLASS
  1
DICTIONARYVAR
  2
AcDbDictionaryVar
  3
ObjectDBX Classes
 90
        0
280
     0
281
     0
  0
CLASS
  1
ACIMSYSVARMAN
  2
AcImSysVarManager
  3
AcMeServices
 90
        0
280
     0
281
     0
  0
CLASS
  1
ACIMREALSYSVAR
  2
AcImRealSysVar
  3
AcMeServices
 90
        0
280
     0
281
     0
  0
CLASS
  1
ACIMINTSYSVAR
  2
AcImIntSysVar
  3
AcMeServices
 90
        0
280
     0
281
     0
  0
CLASS
  1
ACMEDRAWINGMAN
  2
AcMeDrawingMan
  3
AcMeServices
 90
        0
280
     0
281
     0
  0
CLASS
  1
ACMEVIEW
  2
AcMeView
  3
AcMeServices
 90
        0
280
     0
281
     0
  0
CLASS
  1
ACDBENTITYCACHE
  2
AcMeEntityCache
  3
AcMeServices
 90
        0
280
     0
281
     0
  0
CLASS
  1
GSMANAGER
  2
AcMeGSManager
  3
AcMeServices
 90
        0
280
     0
281
     0
  0
CLASS
  1
AMDTINTERNALREACTOR
  2
AmdtInternalReactor
  3
AcMeServices
 90
        0
280
     0
281
     0
  0
CLASS
  1
ACMESTATEMGR
  2
AcMeStateMgr
  3
AcMeServices
 90
        0
280
     0
281
     0
  0
CLASS
  1
ACGREFMASTER
  2
AcGrefMaster
  3
AcAttribServices
 90
        0
280
     0
281
     0
  0
CLASS
  1
ACME_DATABASE
  2
AcMeDbDatabase
  3
AcMeServices
 90
        0
280
     0
281
     0
  0
CLASS
  1
ACRFINSADJUSTERMGR
  2
AcRfInsAdjusterMgr
  3
AcMeServices
 90
        0
280
     0
281
     0
  0
CLASS
  1
ACGREFACADMASTER
  2
AcGrefacadMaster
  3
AcGrefServices
 90
        0
280
     0
281
     0
  0
CLASS
  1
AMIMASTER
  2
AmiMaster
  3
AmiServices
 90
        0
280
     0
281
     0
  0
CLASS
  1
AMGSETTINGSOBJ
  2
AmgSettingsObj
  3
"AcadM|Product Description: AutoCAD Mechanical 2000|Company: Autodesk"
 90
        0
280
     0
281
     0
  0
CLASS
  1
ACMDATADICTIONARY
  2
AcmDataDictionary
  3
"AcmSymBB|Product Description: AutoCAD Mechanical 2004 DX|Company: Autodesk"
 90
        0
280
     0
281
     0
  0
CLASS
  1
ACMDATAENTRYBLOCK
  2
AcmDataEntryBlock
  3
"AcmSymBB|Product Description: AutoCAD Mechanical 2004 DX|Company: Autodesk"
 90
        0
280
     0
281
     0
  0
CLASS
  1
ACMSTANDARDJIS
  2
AcmStandardJIS
  3
"Amdt_StdImp|Product Description: AutoCAD Mechanical 2004 DX|Company: Autodesk"
 90
        0
280
     0
281
     0
  0
CLASS
  1
ACMSURFSTANDARDJIS
  2
AcmSurfTextStdJIS
  3
"Amdt_StdImp|Product Description: AutoCAD Mechanical 2004 DX|Company: Autodesk"
 90
        0
280
     0
281
     0
  0
CLASS
  1
ACMFCFSTANDARDJIS
  2
AcmFCFStdJIS
  3
"Amdt_StdImp|Product Description: AutoCAD Mechanical 2004 DX|Company: Autodesk"
 90
        0
280
     0
281
     0
  0
CLASS
  1
ACMWELDSTANDARDJIS
  2
AcmWeldingStdJIS
  3
"Amdt_StdImp|Product Description: AutoCAD Mechanical 2004 DX|Company: Autodesk"
 90
        0
280
     0
281
     0
  0
CLASS
  1
ACMIDSTANDARDJIS
  2
AcmIdStdJIS
  3
"Amdt_StdImp|Product Description: AutoCAD Mechanical 2004 DX|Company: Autodesk"
 90
        0
280
     0
281
     0
  0
CLASS
  1
ACMDATUMSTANDARDJIS
  2
AcmDatumStdJIS
  3
"Amdt_StdImp|Product Description: AutoCAD Mechanical 2004 DX|Company: Autodesk"
 90
        0
280
     0
281
     0
  0
CLASS
  1
ACMBOMSTANDARDJIS
  2
AcmBOMStdJIS
  3
"Amdt_StdImp|Product Description: AutoCAD Mechanical 2004 DX|Company: Autodesk"
 90
        0
280
     0
281
     0
  0
CLASS
  1
ACMDETAILSTANDARDJIS
  2
AmdtDetailSymStdJIS
  3
"Amdt_StdImp|Product Description: AutoCAD Mechanical 2004 DX|Company: Autodesk"
 90
        0
280
     0
281
     0
  0
CLASS
  1
ACMSECTIONSTANDARDJIS
  2
AmdtSectionSymStdJIS
  3
"Amdt_StdImp|Product Description: AutoCAD Mechanical 2004 DX|Company: Autodesk"
 90
        0
280
     0
281
     0
  0
CLASS
  1
ACMCENTERLINESTANDARDJIS
  2
AmdtCenterLineStdJIS
  3
"Amdt_StdImp|Product Description: AutoCAD Mechanical 2004 DX|Company: Autodesk"
 90
        0
280
     0
281
     0
  0
CLASS
  1
ACAMGLAYSTD
  2
AcAmgLayStd
  3
"AcAmgLayStd|Product Description: AutoCAD Mechanical 2000|Company: Autodesk"
 90
        0
280
     0
281
     0
  0
CLASS
  1
AMGOBJPROPCFG
  2
AmgObjPropCfg
  3
"AmgLay|Product Description: AutoCAD Mechanical 2000|Company: Autodesk"
 90
        1
280
     0
281
     0
  0
CLASS
  1
ACAMGDIMSTD
  2
AcAmgDimStd
  3
"AcAmgDimStd|Product Description: AutoCAD Mechanical 2000|Company: Autodesk"
 90
        0
280
     0
281
     0
  0
CLASS
  1
ACAMGTITLESTD
  2
AcAmgTitleStd
  3
"TITLEAPP"
 90
        0
280
     0
281
     0
  0
CLASS
  1
ACMSTANDARDISO
  2
AcmStandardISO
  3
"Amdt_StdImp|Product Description: AutoCAD Mechanical 2004 DX|Company: Autodesk"
 90
        0
280
     0
281
     0
  0
CLASS
  1
AMDTEDGESTANDARDISO
  2
AmdtEdgeStdISO
  3
"Amdt_StdImp|Product Description: AutoCAD Mechanical 2004 DX|Company: Autodesk"
 90
        0
280
     0
281
     0
  0
CLASS
  1
ACMSURFSTANDARDISO
  2
AcmSurfTextStdISO
  3
"Amdt_StdImp|Product Description: AutoCAD Mechanical 2004 DX|Company: Autodesk"
 90
        0
280
     0
281
     0
  0
CLASS
  1
ACMFCFSTANDARDISO
  2
AcmFCFStdISO
  3
"Amdt_StdImp|Product Description: AutoCAD Mechanical 2004 DX|Company: Autodesk"
 90
        0
280
     0
281
     0
  0
CLASS
  1
ACMWELDSTANDARDISO
  2
AcmWeldingStdISO
  3
"Amdt_StdImp|Product Description: AutoCAD Mechanical 2004 DX|Company: Autodesk"
 90
        0
280
     0
281
     0
  0
CLASS
  1
ACMIDSTANDARDISO
  2
AcmIdStdISO
  3
"Amdt_StdImp|Product Description: AutoCAD Mechanical 2004 DX|Company: Autodesk"
 90
        0
280
     0
281
     0
  0
CLASS
  1
ACMDATUMSTANDARDISO
  2
AcmDatumStdISO
  3
"Amdt_StdImp|Product Description: AutoCAD Mechanical 2004 DX|Company: Autodesk"
 90
        0
280
     0
281
     0
  0
CLASS
  1
ACMBOMSTANDARDISO
  2
AcmBOMStdISO
  3
"Amdt_StdImp|Product Description: AutoCAD Mechanical 2004 DX|Company: Autodesk"
 90
        0
280
     0
281
     0
  0
CLASS
  1
ACMDETAILSTANDARDISO
  2
AmdtDetailSymStdISO
  3
"Amdt_StdImp|Product Description: AutoCAD Mechanical 2004 DX|Company: Autodesk"
 90
        0
280
     0
281
     0
  0
CLASS
  1
ACMSECTIONSTANDARDISO
  2
AmdtSectionSymStdISO
  3
"Amdt_StdImp|Product Description: AutoCAD Mechanical 2004 DX|Company: Autodesk"
 90
        0
280
     0
281
     0
  0
CLASS
  1
ACMCENTERLINESTANDARDISO
  2
AmdtCenterLineStdISO
  3
"Amdt_StdImp|Product Description: AutoCAD Mechanical 2004 DX|Company: Autodesk"
 90
        0
280
     0
281
     0
  0
CLASS
  1
ACIMSTRSYSVAR
  2
AcImStrSysVar
  3
AcMeServices
 90
        0
280
     0
281
     0
  0
CLASS
  1
LAYER_INDEX
  2
AcDbLayerIndex
  3
ObjectDBX Classes
 90
        0
280
     0
281
     0
  0
CLASS
  1
IDBUFFER
  2
AcDbIdBuffer
  3
ObjectDBX Classes
 90
        0
280
     0
281
     0
  0
CLASS
  1
AM_DRAWING_MGR
  2
AcDmDwgMgr
  3
AcMechDwgViewMgmt
 90
        0
280
     0
281
     0
  0
CLASS
  1
AM_DWG_DOCUMENT
  2
AcDmDwgDocument
  3
AcMechDwgViewMgmt
 90
        0
280
     0
281
     0
  0
CLASS
  1
AM_DWG_SHEET
  2
AcDmSheet
  3
AcMechDwgViewMgmt
 90
        0
280
     0
281
     0
  0
CLASS
  1
AM_VIEWDIMPARMAP
  2
AcDmViewDimParMap
  3
AcMechDwgViewMgmt
 90
        0
280
     0
281
     0
  0
CLASS
  1
AM_DWGMGR_NAME
  2
AcDmDwgMgrName
  3
AcMechDwgViewMgmt
 90
        0
280
     0
281
     0
  0
CLASS
  1
AMDTMENUSTATEMGR
  2
AmdtMenuStateMgr
  3
McadcomServices
 90
        0
280
     0
281
     0
  0
CLASS
  1
AMDTMCOMMENUSTATE
  2
AmdtMcomMenuState
  3
McadcomServices
 90
        0
280
     0
281
     0
  0
CLASS
  1
MAPIAMMOUDLE
  2
MApiAmModule
  3
MApiAmServices
 90
        0
280
     0
281
     0
  0
CLASS
  1
AMDTADMENUSTATE
  2
AmdtAdMenuState
  3
DesignerServices
 90
        0
280
     0
281
     0
  0
CLASS
  1
ADAPPL
  2
AcAdAppl
  3
DesignerServices
 90
        0
280
     0
281
     0
  0
CLASS
  1
DEPMGR
  2
AcAdDepMgr
  3
DesignerServices
 90
        0
280
     0
281
     0
  0
CLASS
  1
PARAMMGR
  2
AcAdParamMgr
  3
DesignerServices
 90
        0
280
     0
281
     0
  0
CLASS
  1
PARAMSCOPE
  2
AcAdParamScope
  3
DesignerServices
 90
        0
280
     0
281
     0
  0
CLASS
  1
NAMEDAPPL
  2
AcAdNamedAppl
  3
DesignerServices
 90
        0
280
     0
281
     0
  0
CLASS
  1
AMDTDMMENUSTATE
  2
AmdtDmMenuState
  3
AcMechDwgViewMgmt
 90
        0
280
     0
281
     0
  0
CLASS
  1
AMDTAMMENUSTATE
  2
AmdtAmMenuState
  3
DesignerAssemblies
 90
        0
280
     0
281
     0
  0
CLASS
  1
ACAMPROJECT
  2
AcAmProject
  3
DesignerAssemblies
 90
        0
280
     0
281
     0
  0
CLASS
  1
ACAMGRCOMPDEF
  2
AcAmGrCompDef
  3
DesignerAssemblies
 90
        0
280
     0
281
     0
  0
CLASS
  1
ACCMCONTEXT
  2
AcCmContext
  3
DesignerAssemblies
 90
        0
280
     0
281
     0
  0
CLASS
  1
ACAMCOMPDEF
  2
AcAmCompDef
  3
DesignerAssemblies
 90
        0
280
     0
281
     0
  0
CLASS
  1
ACAMCOMPDEFMGR
  2
AcAmCompDefMgr
  3
DesignerAssemblies
 90
        0
280
     0
281
     0
  0
CLASS
  1
AMCONTEXTMGR
  2
AcAmContextMgr
  3
DesignerAssemblies
 90
        0
280
     0
281
     0
  0
CLASS
  1
ACAMCONTEXTMODELER
  2
AcAmContextModeler
  3
DesignerAssemblies
 90
        0
280
     0
281
     0
  0
CLASS
  1
ACMTHREADLINESTANDARDJIS
  2
AmdtThreadLineStdJIS
  3
"Amdt_StdImp|Product Description: AutoCAD Mechanical 2004 DX|Company: Autodesk"
 90
        0
280
     0
281
     0
  0
CLASS
  1
ACMNOTESTANDARDJIS
  2
AmdtNoteStdJIS
  3
"Amdt_StdImp|Product Description: AutoCAD Mechanical 2004 DX|Company: Autodesk"
 90
        0
280
     0
281
     0
  0
CLASS
  1
AMDTNOTETEMPLATEDB
  2
AmdtNoteTemplateDB
  3
AMDT_STDIMP_MODULE_NAME
 90
        0
280
     0
281
     0
  0
CLASS
  1
ACMTHREADLINESTANDARDISO
  2
AmdtThreadLineStdISO
  3
"Amdt_StdImp|Product Description: AutoCAD Mechanical 2004 DX|Company: Autodesk"
 90
        0
280
     0
281
     0
  0
CLASS
  1
ACMNOTESTANDARDISO
  2
AmdtNoteStdISO
  3
"Amdt_StdImp|Product Description: AutoCAD Mechanical 2004 DX|Company: Autodesk"
 90
        0
280
     0
281
     0
  0
CLASS
  1
CATALOGSTATE
  2
AcAmCatalogState
  3
DesignerAssemblies
 90
        0
280
     0
281
     0
  0
CLASS
  1
ACAMGRCOMPDEFSET
  2
AcAmGrCompDefSet
  3
DesignerAssemblies
 90
        0
280
     0
281
     0
  0
CLASS
  1
AMDTBROWSERDBTAB
  2
AmdtBrowserDbTab
  3
McadcomServices
 90
        0
280
     0
281
     0
  0
CLASS
  1
CBROWSERAPPOBJECT
  2
CBrowserAppObject
  3
McadcomServices
 90
        0
280
     0
281
     0
  0
CLASS
  1
DM_PLACEHOLDER
  2
AcDmSelsetPlaceholder
  3
AcMechDwgViewMgmt
 90
        0
280
     0
281
     0
  0
CLASS
  1
ACAMGFILTERDAT
  2
AcAmgFilterDat
  3
"AcadM|Product Description: AutoCAD Mechanical 2000|Company: Autodesk"
 90
        0
280
     0
281
     0
  0
CLASS
  1
SORTENTSTABLE
  2
AcDbSortentsTable
  3
ObjectDBX Classes
 90
        0
280
     0
281
     0
  0
ENDSEC
  0
SECTION
  2
TABLES
  0
TABLE
  2
VPORT
  5
8
330
0
100
AcDbSymbolTable
 70
     3
  0
VPORT
  5
13D2
330
8
100
AcDbSymbolTableRecord
100
AcDbViewportTableRecord
  2
*Active
 70
     0
 10
0.0
 20
0.0
 11
1.0
 21
1.0
 12
893.4418976153288
 22
1260.000032132626
 13
0.0
 23
0.0
 14
6.0
 24
6.0
 15
60.0
 25
60.0
 16
0.0
 26
0.0
 36
1.0
 17
0.0
 27
0.0
 37
0.0
 40
2419.102351966119
 41
1.544502617801047
 42
50.0
 43
0.0
 44
0.0
 50
0.0
 51
0.0
 71
     0
 72
   100
 73
     1
 74
     1
 75
     0
 76
     0
 77
     0
 78
     0
281
     0
 65
     1
110
0.0
120
0.0
130
0.0
111
1.0
121
0.0
131
0.0
112
0.0
122
1.0
132
0.0
 79
     0
146
0.0
  0
ENDTAB
  0
TABLE
  2
LTYPE
  5
5
330
0
100
AcDbSymbolTable
 70
    22
  0
LTYPE
  5
13
330
5
100
AcDbSymbolTableRecord
100
AcDbLinetypeTableRecord
  2
BYBLOCK
 70
     0
  3

 72
    65
 73
     0
 40
0.0
  0
LTYPE
  5
14
330
5
100
AcDbSymbolTableRecord
100
AcDbLinetypeTableRecord
  2
BYLAYER
 70
     0
  3

 72
    65
 73
     0
 40
0.0
  0
LTYPE
  5
15
330
5
100
AcDbSymbolTableRecord
100
AcDbLinetypeTableRecord
  2
CONTINUOUS
 70
     0
  3
Solid line
 72
    65
 73
     0
 40
0.0
  0
LTYPE
  5
20
330
5
100
AcDbSymbolTableRecord
100
AcDbLinetypeTableRecord
  2
CENTER
 70
     0
  3
__ . __
 72
    65
 73
     4
 40
7.0
 49
4.0
 74
     0
 49
-1.0
 74
     0
 49
1.0
 74
     0
 49
-1.0
 74
     0
  0
LTYPE
  5
2D4
330
5
100
AcDbSymbolTableRecord
100
AcDbLinetypeTableRecord
  2
GEN7
 70
     0
  3
____ . ____ . ____ . ____ . ____ . ____ . ____
 72
    65
 73
     4
 40
13.75
 49
10.0
 74
     0
 49
-1.25
 74
     0
 49
1.25
 74
     0
 49
-1.25
 74
     0
  0
LTYPE
  5
D30
330
5
100
AcDbSymbolTableRecord
100
AcDbLinetypeTableRecord
  2
GEN7A
 70
     0
  3
__ . __ . __
 72
    65
 73
     4
 40
6.875
 49
5.0
 74
     0
 49
-0.625
 74
     0
 49
0.625
 74
     0
 49
-0.625
 74
     0
  0
LTYPE
  5
E49
330
5
100
AcDbSymbolTableRecord
100
AcDbLinetypeTableRecord
  2
GEN4A
 70
     0
  3
_____ . . _____ . . _____ . . ____ .. ____
 72
    65
 73
     6
 40
16.25
 49
10.0
 74
     0
 49
-1.25
 74
     0
 49
1.25
 74
     0
 49
-1.25
 74
     0
 49
1.25
 74
     0
 49
-1.25
 74
     0
  0
LTYPE
  5
E90
330
5
100
AcDbSymbolTableRecord
100
AcDbLinetypeTableRecord
  2
GEN3
 70
     0
  3
-- -- -- -- -- -- -- -- -- -- -- -- -- -- --
 72
    65
 73
     2
 40
6.25
 49
5.0
 74
     0
 49
-1.25
 74
     0
  0
LTYPE
  5
EF6
330
5
100
AcDbSymbolTableRecord
100
AcDbLinetypeTableRecord
  2
ACJISTGB
 70
     0
  3
__ . . __ . .
 72
    65
 73
     6
 40
9.0
 49
4.0
 74
     0
 49
-1.0
 74
     0
 49
1.0
 74
     0
 49
-1.0
 74
     0
 49
1.0
 74
     0
 49
-1.0
 74
     0
  0
LTYPE
  5
EF7
330
5
100
AcDbSymbolTableRecord
100
AcDbLinetypeTableRecord
  2
ACJISTGL
 70
     0
  3
_ _ _ _ _
 72
    65
 73
     2
 40
3.0
 49
2.0
 74
     0
 49
-1.0
 74
     0
  0
LTYPE
  5
F00
330
5
100
AcDbSymbolTableRecord
100
AcDbLinetypeTableRecord
  2
AM_ISO02W050
 70
     0
  3
__ __ __ __ __ __ __ __ __ __ __ __ __ __ __
 72
    65
 73
     2
 40
7.5
 49
6.0
 74
     0
 49
-1.5
 74
     0
  0
LTYPE
  5
F22
330
5
100
AcDbSymbolTableRecord
100
AcDbLinetypeTableRecord
  2
ACISOWELD
 70
     0
  3
_ _ _ _ _
 72
    65
 73
     2
 40
2.0
 49
2.0
 74
     0
 49
-1.0
 74
     0
  0
LTYPE
  5
F25
330
5
100
AcDbSymbolTableRecord
100
AcDbLinetypeTableRecord
  2
ACISOTGB
 70
     0
  3
__ . . __ . .
 72
    65
 73
     6
 40
9.0
 49
4.0
 74
     0
 49
-1.0
 74
     0
 49
1.0
 74
     0
 49
-1.0
 74
     0
 49
1.0
 74
     0
 49
-1.0
 74
     0
  0
LTYPE
  5
F26
330
5
100
AcDbSymbolTableRecord
100
AcDbLinetypeTableRecord
  2
ACISOTGL
 70
     0
  3
_ _ _ _ _
 72
    65
 73
     2
 40
3.0
 49
2.0
 74
     0
 49
-1.0
 74
     0
  0
LTYPE
  5
F37
330
5
100
AcDbSymbolTableRecord
100
AcDbLinetypeTableRecord
  2
gen3a
 70
     0
  3
 - - - - -
 72
    65
 73
     2
 40
3.125
 49
2.25
 74
     0
 49
-0.875
 74
     0
  0
LTYPE
  5
F3A
330
5
100
AcDbSymbolTableRecord
100
AcDbLinetypeTableRecord
  2
genzigzag
 70
     0
  3
/\/-/\/-/\/-/\/-/\/-/\/
 72
    65
 73
     2
 40
12.0001
 49
0.0001
 74
     4
 75
   135
340
F39
 46
2.0
 50
0.0
 44
0.0
 45
0.0
 49
-12.0
 74
     0
  0
LTYPE
  5
F67
330
5
100
AcDbSymbolTableRecord
100
AcDbLinetypeTableRecord
  2
HIDDEN
 70
     0
  3
Hidden __ __ __ __ __ __ __ __ __ __ __ __ __ _
 72
    65
 73
     2
 40
9.524999999999998
 49
6.349999999999999
 74
     0
 49
-3.174999999999999
 74
     0
  0
LTYPE
  5
F68
330
5
100
AcDbSymbolTableRecord
100
AcDbLinetypeTableRecord
  2
PHANTOM2
 70
     0
  3
Phantom (.5x) ___ _ _ ___ _ _ ___ _ _ ___ _ _
 72
    65
 73
     6
 40
31.75
 49
15.875
 74
     0
 49
-3.174999999999999
 74
     0
 49
3.174999999999999
 74
     0
 49
-3.174999999999999
 74
     0
 49
3.174999999999999
 74
     0
 49
-3.174999999999999
 74
     0
  0
LTYPE
  5
105E
330
5
100
AcDbSymbolTableRecord
100
AcDbLinetypeTableRecord
  2
AM_ISO08W050
 70
     0
  3
____ . ____ . ____ . ____ . ____ . ____ . ____
 72
    65
 73
     4
 40
18.0
 49
12.0
 74
     0
 49
-1.5
 74
     0
 49
3.0
 74
     0
 49
-1.5
 74
     0
  0
LTYPE
  5
105F
330
5
100
AcDbSymbolTableRecord
100
AcDbLinetypeTableRecord
  2
AM_ISO09W050
 70
     0
  3
_____ . . _____ . . _____ . . ____ .. ____
 72
    65
 73
     6
 40
22.5
 49
12.0
 74
     0
 49
-1.5
 74
     0
 49
3.0
 74
     0
 49
-1.5
 74
     0
 49
3.0
 74
     0
 49
-1.5
 74
     0
  0
LTYPE
  5
1060
330
5
100
AcDbSymbolTableRecord
100
AcDbLinetypeTableRecord
  2
Amconstr
 70
     0
  3
_______________________
 72
    65
 73
     2
 40
9999.0
 49
9999.0
 74
     0
 49
0.0
 74
     0
  0
LTYPE
  5
1061
330
5
100
AcDbSymbolTableRecord
100
AcDbLinetypeTableRecord
  2
AM_ISO08W050x2
 70
     0
  3
__ . __ . __ . __ . __ . __
 72
    65
 73
     4
 40
9.0
 49
6.0
 74
     0
 49
-0.75
 74
     0
 49
1.5
 74
     0
 49
-0.75
 74
     0
  0
LTYPE
  5
1062
330
5
100
AcDbSymbolTableRecord
100
AcDbLinetypeTableRecord
  2
AM_ISO02W050x2
 70
     0
  3
 _ _ _ _ _ _ _ _ _ _ _ _
 72
    65
 73
     2
 40
3.75
 49
3.0
 74
     0
 49
-0.75
 74
     0
  0
LTYPE
  5
1063
330
5
100
AcDbSymbolTableRecord
100
AcDbLinetypeTableRecord
  2
Amzigzag
 70
     0
  3
/\/-/\/-/\/-/\/-/\/-/\/
 72
    65
 73
     2
 40
11.0001
 49
0.0001
 74
     4
 75
   135
340
1065
 46
0.04
 50
0.0
 44
0.0
 45
0.0
 49
-11.0
 74
     0
  0
ENDTAB
  0
TABLE
  2
LAYER
  5
2
102
{ACAD_XDICTIONARY
360
106D
102
}
330
0
100
AcDbSymbolTable
 70
    18
  0
LAYER
  5
F
330
2
100
AcDbSymbolTableRecord
100
AcDbLayerTableRecord
  2
0
 70
     0
 62
     7
  6
CONTINUOUS
370
    -3
390
EB2
  0
LAYER
  5
26
330
2
100
AcDbSymbolTableRecord
100
AcDbLayerTableRecord
  2
1
 70
     0
 62
     7
  6
CONTINUOUS
370
    -3
390
EB2
  0
LAYER
  5
27
330
2
100
AcDbSymbolTableRecord
100
AcDbLayerTableRecord
  2
DEFPOINTS
 70
     0
 62
    -7
  6
CONTINUOUS
290
     0
370
    -3
390
EB2
  0
LAYER
  5
28B
330
2
100
AcDbSymbolTableRecord
100
AcDbLayerTableRecord
  2
5
 70
     0
 62
     3
  6
CONTINUOUS
370
    -3
390
EB2
  0
LAYER
  5
2D3
330
2
100
AcDbSymbolTableRecord
100
AcDbLayerTableRecord
  2
7
 70
     0
 62
     4
  6
GEN7
370
    -3
390
EB2
  0
LAYER
  5
2D7
330
2
100
AcDbSymbolTableRecord
100
AcDbLayerTableRecord
  2
6
 70
     0
 62
     3
  6
CONTINUOUS
370
    -3
390
EB2
  0
LAYER
  5
40B
330
2
100
AcDbSymbolTableRecord
100
AcDbLayerTableRecord
  2
8
 70
     0
 62
     5
  6
CONTINUOUS
370
    -3
390
EB2
  0
LAYER
  5
C29
330
2
100
AcDbSymbolTableRecord
100
AcDbLayerTableRecord
  2
RAHM2
 70
     0
 62
     1
  6
CONTINUOUS
370
    -3
390
EB2
  0
LAYER
  5
D31
330
2
100
AcDbSymbolTableRecord
100
AcDbLayerTableRecord
  2
RAHM3
 70
     0
 62
     2
  6
CONTINUOUS
370
    -3
390
EB2
  0
LAYER
  5
D34
330
2
100
AcDbSymbolTableRecord
100
AcDbLayerTableRecord
  2
7A
 70
     0
 62
     4
  6
GEN7A
370
    -3
390
EB2
  0
LAYER
  5
E48
330
2
100
AcDbSymbolTableRecord
100
AcDbLayerTableRecord
  2
4A
 70
     0
 62
     3
  6
GEN4A
370
    -3
390
EB2
  0
LAYER
  5
E8F
330
2
100
AcDbSymbolTableRecord
100
AcDbLayerTableRecord
  2
3
 70
     0
 62
     6
  6
GEN3
370
    -3
390
EB2
  0
LAYER
  5
1064
330
2
100
AcDbSymbolTableRecord
100
AcDbLayerTableRecord
  2
TEXT
 70
     0
 62
     7
  6
CONTINUOUS
370
    -3
390
EB2
  0
LAYER
  5
112B
330
2
100
AcDbSymbolTableRecord
100
AcDbLayerTableRecord
  2
AM_7
 70
     0
 62
     4
  6
AM_ISO08W050
370
    25
390
EB2
  0
LAYER
  5
112C
330
2
100
AcDbSymbolTableRecord
100
AcDbLayerTableRecord
  2
AM_0
 70
     0
 62
     7
  6
CONTINUOUS
370
    50
390
EB2
  0
LAYER
  5
1169
330
2
100
AcDbSymbolTableRecord
100
AcDbLayerTableRecord
  2
3A
 70
     0
 62
     6
  6
gen3a
370
    -3
390
EB2
  0
LAYER
  5
1192
330
2
100
AcDbSymbolTableRecord
100
AcDbLayerTableRecord
  2
KLIN
 70
     0
 62
     1
  6
CONTINUOUS
370
    -3
390
EB2
  0
LAYER
  5
122A
330
2
100
AcDbSymbolTableRecord
100
AcDbLayerTableRecord
  2
建築-AM_6
 70
     0
 62
     2
  6
CONTINUOUS
370
    35
390
EB2
  0
ENDTAB
  0
TABLE
  2
STYLE
  5
3
330
0
100
AcDbSymbolTable
 70
     7
  0
STYLE
  5
10
330
3
100
AcDbSymbolTableRecord
100
AcDbTextStyleTableRecord
  2
STANDARD
 70
     0
 40
0.0
 41
1.0
 50
0.0
 71
     0
 42
24.0
  3
ISOCP.SHX
  4
extfont.shx
  0
STYLE
  5
EEF
330
3
100
AcDbSymbolTableRecord
100
AcDbTextStyleTableRecord
  2
ACJISTS
 70
     0
 40
1.0
 41
1.0
 50
0.0
 71
     0
 42
2.5
  3
isocp.shx
  4
extfont.shx
  0
STYLE
  5
EF2
330
3
100
AcDbSymbolTableRecord
100
AcDbTextStyleTableRecord
  2
ACJISGDT
 70
     0
 40
0.0
 41
1.0
 50
0.0
 71
     0
 42
2.5
  3
amgdt.shx
  4

  0
STYLE
  5
F1C
330
3
100
AcDbSymbolTableRecord
100
AcDbTextStyleTableRecord
  2
ACISOTS
 70
     0
 40
1.0
 41
1.0
 50
0.0
 71
     0
 42
2.5
  3
isocp.shx
  4
extfont.shx
  0
STYLE
  5
F20
330
3
100
AcDbSymbolTableRecord
100
AcDbTextStyleTableRecord
  2
ACISOGDT
 70
     0
 40
0.0
 41
1.0
 50
0.0
 71
     0
 42
2.5
  3
amgdt.shx
  4

  0
STYLE
  5
F39
330
3
100
AcDbSymbolTableRecord
100
AcDbTextStyleTableRecord
  2

 70
     1
 40
0.0
 41
1.0
 50
0.0
 71
     0
 42
24.0
  3
genltshp.shx
  4

  0
STYLE
  5
1065
330
3
100
AcDbSymbolTableRecord
100
AcDbTextStyleTableRecord
  2

 70
     1
 40
0.0
 41
1.0
 50
0.0
 71
     0
 42
2.5
  3
ltypeshp.shx
  4

  0
ENDTAB
  0
TABLE
  2
VIEW
  5
6
330
0
100
AcDbSymbolTable
 70
     6
  0
VIEW
  5
C36
330
6
100
AcDbSymbolTableRecord
100
AcDbViewTableRecord
  2
GEN1
 70
     0
 40
1200.0
 10
1012.567324955117
 20
1800.0
 41
2025.134649910234
 11
0.0
 21
0.0
 31
1.0
 12
0.0
 22
0.0
 32
0.0
 42
50.0
 43
0.0
 44
0.0
 50
0.0
 71
     0
281
     0
 72
     0
  0
VIEW
  5
C37
330
6
100
AcDbSymbolTableRecord
100
AcDbViewTableRecord
  2
GEN2
 70
     0
 40
1200.0
 10
649.4326750448831
 20
1800.0
 41
2025.134649910234
 11
0.0
 21
0.0
 31
1.0
 12
0.0
 22
0.0
 32
0.0
 42
50.0
 43
0.0
 44
0.0
 50
0.0
 71
     0
281
     0
 72
     0
  0
VIEW
  5
C38
330
6
100
AcDbSymbolTableRecord
100
AcDbViewTableRecord
  2
GEN3
 70
     0
 40
1200.0
 10
1012.567324955117
 20
600.0
 41
2025.134649910234
 11
0.0
 21
0.0
 31
1.0
 12
0.0
 22
0.0
 32
0.0
 42
50.0
 43
0.0
 44
0.0
 50
0.0
 71
     0
281
     0
 72
     0
  0
VIEW
  5
C39
330
6
100
AcDbSymbolTableRecord
100
AcDbViewTableRecord
  2
GEN4
 70
     0
 40
1200.0
 10
649.4326750448831
 20
600.0
 41
2025.134649910234
 11
0.0
 21
0.0
 31
1.0
 12
0.0
 22
0.0
 32
0.0
 42
50.0
 43
0.0
 44
0.0
 50
0.0
 71
     0
281
     0
 72
     0
  0
VIEW
  5
C3A
330
6
100
AcDbSymbolTableRecord
100
AcDbViewTableRecord
  2
GEN5
 70
     0
 40
1200.0
 10
831.0
 20
1200.0
 41
2025.134649910234
 11
0.0
 21
0.0
 31
1.0
 12
0.0
 22
0.0
 32
0.0
 42
50.0
 43
0.0
 44
0.0
 50
0.0
 71
     0
281
     0
 72
     0
  0
VIEW
  5
C3B
330
6
100
AcDbSymbolTableRecord
100
AcDbViewTableRecord
  2
GEN6
 70
     0
 40
2399.976
 10
830.9999999999998
 20
1200.0
 41
4050.228797127469
 11
0.0
 21
0.0
 31
1.0
 12
0.0
 22
0.0
 32
0.0
 42
50.0
 43
0.0
 44
0.0
 50
0.0
 71
     0
281
     0
 72
     0
  0
ENDTAB
  0
TABLE
  2
UCS
  5
7
330
0
100
AcDbSymbolTable
 70
     0
  0
ENDTAB
  0
TABLE
  2
APPID
  5
9
330
0
100
AcDbSymbolTable
 70
    50
  0
APPID
  5
11
330
9
100
AcDbSymbolTableRecord
100
AcDbRegAppTableRecord
  2
ACAD
 70
     0
  0
APPID
  5
2CB
330
9
100
AcDbSymbolTableRecord
100
AcDbRegAppTableRecord
  2
GENIUS_GENCFG_13
 70
     0
1001
GENIUS_GENCFG0_13
1000
GEN@INFO_POS@XLATE
1001
GENIUS_GENCFG1_13
1000
GEN@LAYER@DEFS
1001
GENIUS_GENCFG2_13
1000
GEN@LAYER@ENTSORT
1001
GENIUS_GENCFG3_13
1000
GEN@OSWIZ
1001
GENIUS_GENCFG4_13
1000
GEN
1001
GENIUS_GEVCFG0_13
1000
GEV
  0
APPID
  5
2CC
330
9
100
AcDbSymbolTableRecord
100
AcDbRegAppTableRecord
  2
GENIUS_GENCFG0_13
 70
     0
1001
GENIUS_GENCFG_13
1071
893306154
1000
2CC
1000
GEN@INFO_POS@XLATE
1070
     7
1000
GenCfgObject
1000
GenCfgShort
1000
GenCfgReal
1000
GenCfgBool
1000
GenCfgString
1000
GenCfgDim
1000
GenCfgAttrInf
1000
INFOPOINTS
1070
     0
1002
{
1000
GENINF13
1070
     0
1002
{
1000
2GENINF
1070
     4
1000
2
1002
{
1002
}
1000
3GENINF
1070
     4
1000
3
1002
{
1002
}
1000
4GENINF
1070
     4
1000
4
1002
{
1002
}
1000
5GENINF
1070
     4
1000
5
1002
{
1002
}
1000
6GENINF
1070
     4
1000
6
1002
{
1002
}
1000
7GENINF
1070
     4
1000
7
1002
{
1002
}
1000
8GENINF
1070
     4
1000
8
1002
{
1002
}
1000
9GENINF
1070
     4
1000
9
1002
{
1002
}
1000
10GENINF
1070
     4
1000
10
1002
{
1002
}
1000
11GENINF
1070
     4
1000
11
1002
{
1002
}
1000
12GENINF
1070
     4
1000
12
1002
{
1002
}
1000
13GENINF
1070
     4
1000
13
1002
{
1002
}
1000
14GENINF
1070
     4
1000
14
1002
{
1002
}
1000
15GENINF
1070
     4
1000
15
1002
{
1002
}
1000
16GENINF
1070
     4
1000
16
1002
{
1002
}
1000
17GENINF
1070
     4
1000
17
1002
{
1002
}
1000
18GENINF
1070
     4
1000
18
1002
{
1002
}
1000
19GENINF
1070
     4
1000
19
1002
{
1002
}
1000
20GENINF
1070
     4
1000
20
1002
{
1002
}
1000
21GENINF
1070
     4
1000
21
1002
{
1002
}
1000
22GENINF
1070
     4
1000
22
1002
{
1002
}
1000
23GENINF
1070
     4
1000
23
1002
{
1002
}
1000
24GENINF
1070
     4
1000
24
1002
{
1002
}
1000
0GENINF
1070
     4
1000
0
1002
{
1002
}
1002
}
1000
GENINFO
1070
     0
1002
{
1000
3GENINF
1070
     4
1000
3
1002
{
1002
}
1000
4GENINF
1070
     4
1000
4
1002
{
1002
}
1000
5GENINF
1070
     4
1000
5
1002
{
1002
}
1000
6GENINF
1070
     4
1000
6
1002
{
1002
}
1000
7GENINF
1070
     4
1000
7
1002
{
1002
}
1000
8GENINF
1070
     4
1000
8
1002
{
1002
}
1000
9GENINF
1070
     4
1000
9
1002
{
1002
}
1000
10GENINF
1070
     4
1000
10
1002
{
1002
}
1000
11GENINF
1070
     4
1000
11
1002
{
1002
}
1000
12GENINF
1070
     4
1000
12
1002
{
1002
}
1000
13GENINF
1070
     4
1000
13
1002
{
1002
}
1000
14GENINF
1070
     4
1000
14
1002
{
1002
}
1000
15GENINF
1070
     4
1000
15
1002
{
1002
}
1000
16GENINF
1070
     4
1000
16
1002
{
1002
}
1000
17GENINF
1070
     4
1000
17
1002
{
1002
}
1000
18GENINF
1070
     4
1000
18
1002
{
1002
}
1000
19GENINF
1070
     4
1000
19
1002
{
1002
}
1000
20GENINF
1070
     4
1000
20
1002
{
1002
}
1000
21GENINF
1070
     4
1000
21
1002
{
1002
}
1000
22GENINF
1070
     4
1000
22
1002
{
1002
}
1002
}
1000
DININFO
1070
     0
1002
{
1000
ST-NAME1
1070
     4
1000
5
1002
{
1002
}
1000
ST-NAME2
1070
     4
1000
6
1002
{
1002
}
1000
ST-NORM1
1070
     4
1000
7
1002
{
1002
}
1000
ST-NORM2
1070
     4
1000
8
1002
{
1002
}
1000
ST-MAT1
1070
     4
1000
9
1002
{
1002
}
1000
ST-MAT2
1070
     4
1000
10
1002
{
1002
}
1002
}
1002
}
1000
POS_NUMBERS
1070
     0
1002
{
1000
GENPOS13
1070
     0
1002
{
1000
1GENPOS
1070
     4
1000
1
1002
{
1002
}
1000
2GENPOS
1070
     4
1000
2
1002
{
1002
}
1000
3GENPOS
1070
     4
1000
3
1002
{
1002
}
1000
4GENPOS
1070
     4
1000
4
1002
{
1002
}
1000
5GENPOS
1070
     4
1000
5
1002
{
1002
}
1000
6GENPOS
1070
     4
1000
6
1002
{
1002
}
1000
7GENPOS
1070
     4
1000
7
1002
{
1002
}
1000
8GENPOS
1070
     4
1000
8
1002
{
1002
}
1000
9GENPOS
1070
     4
1000
9
1002
{
1002
}
1000
10GENPOS
1070
     4
1000
10
1002
{
1002
}
1000
11GENPOS
1070
     4
1000
11
1002
{
1002
}
1000
12GENPOS
1070
     4
1000
12
1002
{
1002
}
1000
13GENPOS
1070
     4
1000
13
1002
{
1002
}
1000
14GENPOS
1070
     4
1000
14
1002
{
1002
}
1000
15GENPOS
1070
     4
1000
15
1002
{
1002
}
1000
16GENPOS
1070
     4
1000
16
1002
{
1002
}
1000
17GENPOS
1070
     4
1000
17
1002
{
1002
}
1000
18GENPOS
1070
     4
1000
18
1002
{
1002
}
1000
19GENPOS
1070
     4
1000
19
1002
{
1002
}
1000
20GENPOS
1070
     4
1000
20
1002
{
1002
}
1000
21GENPOS
1070
     4
1000
21
1002
{
1002
}
1000
22GENPOS
1070
     4
1000
22
1002
{
1002
}
1000
23GENPOS
1070
     4
1000
23
1002
{
1002
}
1000
24GENPOS
1070
     4
1000
24
1002
{
1002
}
1000
0GENPOS
1070
     4
1000
0
1002
{
1002
}
1002
}
1000
GENPOS
1070
     0
1002
{
1000
1GENPOS
1070
     4
1000
1
1002
{
1002
}
1000
2GENPOS
1070
     4
1000
2
1002
{
1002
}
1000
3GENPOS
1070
     4
1000
3
1002
{
1002
}
1000
4GENPOS
1070
     4
1000
4
1002
{
1002
}
1000
5GENPOS
1070
     4
1000
5
1002
{
1002
}
1000
6GENPOS
1070
     4
1000
6
1002
{
1002
}
1000
7GENPOS
1070
     4
1000
7
1002
{
1002
}
1000
8GENPOS
1070
     4
1000
8
1002
{
1002
}
1000
9GENPOS
1070
     4
1000
9
1002
{
1002
}
1000
10GENPOS
1070
     4
1000
10
1002
{
1002
}
1000
11GENPOS
1070
     4
1000
11
1002
{
1002
}
1000
12GENPOS
1070
     4
1000
12
1002
{
1002
}
1000
13GENPOS
1070
     4
1000
13
1002
{
1002
}
1000
14GENPOS
1070
     4
1000
14
1002
{
1002
}
1000
15GENPOS
1070
     4
1000
15
1002
{
1002
}
1000
16GENPOS
1070
     4
1000
16
1002
{
1002
}
1000
17GENPOS
1070
     4
1000
17
1002
{
1002
}
1000
18GENPOS
1070
     4
1000
18
1002
{
1002
}
1000
19GENPOS
1070
     4
1000
19
1002
{
1002
}
1000
20GENPOS
1070
     4
1000
20
1002
{
1002
}
1000
21GENPOS
1070
     4
1000
21
1002
{
1002
}
1000
22GENPOS
1070
     4
1000
22
1002
{
1002
}
1000
23GENPOS
1070
     4
1000
23
1002
{
1002
}
1002
}
1000
DIN985
1070
     0
1002
{
1000
POSITION
1070
     4
1000
1
1002
{
1002
}
1000
MENGE
1070
     4
1000
2
1002
{
1002
}
1000
BLATT
1070
     4
1000
3
1002
{
1002
}
1000
BENENN
1070
     4
1000
5
1002
{
1002
}
1000
BENENN2
1070
     4
1000
6
1002
{
1002
}
1000
NORM
1070
     4
1000
7
1002
{
1002
}
1000
NORM2
1070
     4
1000
8
1002
{
1002
}
1000
WERKSTOFF
1070
     4
1000
9
1002
{
1002
}
1000
WERKSTOFF2
1070
     4
1000
10
1002
{
1002
}
1002
}
1000
DIN986
1070
     0
1002
{
1000
POSITION
1070
     4
1000
1
1002
{
1002
}
1000
MENGE
1070
     4
1000
2
1002
{
1002
}
1000
BLATT
1070
     4
1000
3
1002
{
1002
}
1000
BENENN
1070
     4
1000
5
1002
{
1002
}
1000
BENENN2
1070
     4
1000
6
1002
{
1002
}
1000
NORM
1070
     4
1000
7
1002
{
1002
}
1000
NORM2
1070
     4
1000
8
1002
{
1002
}
1000
WERKSTOFF
1070
     4
1000
9
1002
{
1002
}
1000
WERKSTOFF2
1070
     4
1000
10
1002
{
1002
}
1002
}
1000
DIN987
1070
     0
1002
{
1000
POSITION
1070
     4
1000
1
1002
{
1002
}
1000
MENGE
1070
     4
1000
2
1002
{
1002
}
1000
BLATT
1070
     4
1000
3
1002
{
1002
}
1000
BENENN
1070
     4
1000
5
1002
{
1002
}
1000
BENENN2
1070
     4
1000
6
1002
{
1002
}
1000
NORM
1070
     4
1000
7
1002
{
1002
}
1000
NORM2
1070
     4
1000
8
1002
{
1002
}
1000
WERKSTOFF
1070
     4
1000
9
1002
{
1002
}
1000
WERKSTOFF2
1070
     4
1000
10
1002
{
1002
}
1002
}
1002
}
  0
APPID
  5
2CD
330
9
100
AcDbSymbolTableRecord
100
AcDbRegAppTableRecord
  2
GENIUS_GENCFG1_13
 70
     0
1001
GENIUS_GENCFG_13
1071
893306154
1000
2CD
1000
GEN@LAYER@DEFS
1070
     9
1000
GenCfgObject
1000
GenCfgShort
1000
GenCfgReal
1000
GenCfgBool
1000
GenCfgString
1000
GenCfgDim
1000
GenCfgAttrInf
1000
GenCfgLaySection
1000
GenCfgLayer
1000
Basic
1070
     0
1002
{
1000
0
1070
     8
1000
0
1002
{
1000
Color
1070
     1
1070
     7
1002
{
1002
}
1000
LType
1070
     4
1000
CONTINUOUS
1002
{
1002
}
1000
Base
1070
     3
1070
     0
1002
{
1002
}
1002
}
1000
1
1070
     8
1000
1
1002
{
1000
Color
1070
     1
1070
     2
1002
{
1002
}
1000
LType
1070
     4
1000
CONTINUOUS
1002
{
1002
}
1000
Base
1070
     3
1070
     0
1002
{
1002
}
1002
}
1000
2
1070
     8
1000
2
1002
{
1000
Color
1070
     1
1070
     3
1002
{
1002
}
1000
LType
1070
     4
1000
CONTINUOUS
1002
{
1002
}
1000
Base
1070
     3
1070
     0
1002
{
1002
}
1002
}
1000
3
1070
     8
1000
3
1002
{
1000
Color
1070
     1
1070
     6
1002
{
1002
}
1000
LType
1070
     4
1000
GEN3
1002
{
1002
}
1000
Base
1070
     3
1070
     0
1002
{
1002
}
1002
}
1000
4
1070
     8
1000
4
1002
{
1000
Color
1070
     1
1070
     1
1002
{
1002
}
1000
LType
1070
     4
1000
GEN4A
1002
{
1002
}
1000
Base
1070
     3
1070
     0
1002
{
1002
}
1002
}
1000
5
1070
     8
1000
5
1002
{
1000
Color
1070
     1
1070
     3
1002
{
1002
}
1000
LType
1070
     4
1000
CONTINUOUS
1002
{
1002
}
1000
Base
1070
     3
1070
     0
1002
{
1002
}
1002
}
1000
6
1070
     8
1000
6
1002
{
1000
Color
1070
     1
1070
     3
1002
{
1002
}
1000
LType
1070
     4
1000
CONTINUOUS
1002
{
1002
}
1000
Base
1070
     3
1070
     0
1002
{
1002
}
1002
}
1000
7
1070
     8
1000
7
1002
{
1000
Color
1070
     1
1070
     4
1002
{
1002
}
1000
LType
1070
     4
1000
GEN7
1002
{
1002
}
1000
Base
1070
     3
1070
     0
1002
{
1002
}
1002
}
1000
8
1070
     8
1000
8
1002
{
1000
Color
1070
     1
1070
     5
1002
{
1002
}
1000
LType
1070
     4
1000
CONTINUOUS
1002
{
1002
}
1000
Base
1070
     3
1070
     0
1002
{
1002
}
1002
}
1000
3A
1070
     8
1000
3A
1002
{
1000
Color
1070
     1
1070
     6
1002
{
1002
}
1000
LType
1070
     4
1000
GEN3A
1002
{
1002
}
1000
Base
1070
     3
1070
     0
1002
{
1002
}
1002
}
1000
7A
1070
     8
1000
7A
1002
{
1000
Color
1070
     1
1070
     4
1002
{
1002
}
1000
LType
1070
     4
1000
GEN7A
1002
{
1002
}
1000
Base
1070
     3
1070
     0
1002
{
1002
}
1002
}
1000
2A
1070
     8
1000
2A
1002
{
1000
Color
1070
     1
1070
     7
1002
{
1002
}
1000
LType
1070
     4
1000
GEN7
1002
{
1002
}
1000
Base
1070
     3
1070
     0
1002
{
1002
}
1002
}
1000
4A
1070
     8
1000
4A
1002
{
1000
Color
1070
     1
1070
     3
1002
{
1002
}
1000
LType
1070
     4
1000
GEN4A
1002
{
1002
}
1000
Base
1070
     3
1070
     0
1002
{
1002
}
1002
}
1000
9
1070
     8
1000
9
1002
{
1000
Color
1070
     1
1070
   253
1002
{
1002
}
1000
LType
1070
     4
1000
CONTINUOUS
1002
{
1002
}
1000
Base
1070
     3
1070
     0
1002
{
1002
}
1002
}
1002
}
1000
Standard
1070
     0
1002
{
1000
0N
1070
     8
1000
0N
1002
{
1000
Color
1070
     1
1070
     7
1002
{
1002
}
1000
LType
1070
     4
1000
CONTINUOUS
1002
{
1002
}
1000
Base
1070
     3
1070
     0
1002
{
1002
}
1002
}
1000
1N
1070
     8
1000
1N
1002
{
1000
Color
1070
     1
1070
    14
1002
{
1002
}
1000
LType
1070
     4
1000
CONTINUOUS
1002
{
1002
}
1000
Base
1070
     3
1070
     0
1002
{
1002
}
1002
}
1000
2N
1070
     8
1000
2N
1002
{
1000
Color
1070
     1
1070
     5
1002
{
1002
}
1000
LType
1070
     4
1000
CONTINUOUS
1002
{
1002
}
1000
Base
1070
     3
1070
     0
1002
{
1002
}
1002
}
1000
3N
1070
     8
1000
3N
1002
{
1000
Color
1070
     1
1070
     6
1002
{
1002
}
1000
LType
1070
     4
1000
GEN3
1002
{
1002
}
1000
Base
1070
     3
1070
     0
1002
{
1002
}
1002
}
1000
4N
1070
     8
1000
4N
1002
{
1000
Color
1070
     1
1070
     3
1002
{
1002
}
1000
LType
1070
     4
1000
CONTINUOUS
1002
{
1002
}
1000
Base
1070
     3
1070
     0
1002
{
1002
}
1002
}
1000
5N
1070
     8
1000
5N
1002
{
1000
Color
1070
     1
1070
     3
1002
{
1002
}
1000
LType
1070
     4
1000
CONTINUOUS
1002
{
1002
}
1000
Base
1070
     3
1070
     0
1002
{
1002
}
1002
}
1000
6N
1070
     8
1000
6N
1002
{
1000
Color
1070
     1
1070
     2
1002
{
1002
}
1000
LType
1070
     4
1000
CONTINUOUS
1002
{
1002
}
1000
Base
1070
     3
1070
     0
1002
{
1002
}
1002
}
1000
7N
1070
     8
1000
7N
1002
{
1000
Color
1070
     1
1070
     4
1002
{
1002
}
1000
LType
1070
     4
1000
GEN7
1002
{
1002
}
1000
Base
1070
     3
1070
     0
1002
{
1002
}
1002
}
1000
8N
1070
     8
1000
8N
1002
{
1000
Color
1070
     1
1070
     1
1002
{
1002
}
1000
LType
1070
     4
1000
CONTINUOUS
1002
{
1002
}
1000
Base
1070
     3
1070
     0
1002
{
1002
}
1002
}
1000
3AN
1070
     8
1000
3AN
1002
{
1000
Color
1070
     1
1070
     6
1002
{
1002
}
1000
LType
1070
     4
1000
GEN3A
1002
{
1002
}
1000
Base
1070
     3
1070
     0
1002
{
1002
}
1002
}
1000
7AN
1070
     8
1000
7AN
1002
{
1000
Color
1070
     1
1070
     4
1002
{
1002
}
1000
LType
1070
     4
1000
GEN7A
1002
{
1002
}
1000
Base
1070
     3
1070
     0
1002
{
1002
}
1002
}
1000
2AN
1070
     8
1000
2AN
1002
{
1000
Color
1070
     1
1070
     7
1002
{
1002
}
1000
LType
1070
     4
1000
GEN7
1002
{
1002
}
1000
Base
1070
     3
1070
     0
1002
{
1002
}
1002
}
1000
4AN
1070
     8
1000
4AN
1002
{
1000
Color
1070
     1
1070
     3
1002
{
1002
}
1000
LType
1070
     4
1000
GEN4A
1002
{
1002
}
1000
Base
1070
     3
1070
     0
1002
{
1002
}
1002
}
1000
9N
1070
     8
1000
9N
1002
{
1000
Color
1070
     1
1070
   253
1002
{
1002
}
1000
LType
1070
     4
1000
CONTINUOUS
1002
{
1002
}
1000
Base
1070
     3
1070
     0
1002
{
1002
}
1002
}
1002
}
1000
Extra
1070
     0
1002
{
1000
Klin
1070
     8
1000
KLIN
1002
{
1000
Color
1070
     1
1070
     1
1002
{
1002
}
1000
LType
1070
     4
1000
CONTINUOUS
1002
{
1002
}
1000
Base
1070
     3
1070
     1
1002
{
1002
}
1002
}
1000
Info
1070
     8
1000
INFO
1002
{
1000
Color
1070
     1
1070
     4
1002
{
1002
}
1000
LType
1070
     4
1000
CONTINUOUS
1002
{
1002
}
1000
Base
1070
     3
1070
     1
1002
{
1002
}
1002
}
1000
Rahm2
1070
     8
1000
RAHM2
1002
{
1000
Color
1070
     1
1070
     1
1002
{
1002
}
1000
LType
1070
     4
1000
CONTINUOUS
1002
{
1002
}
1000
Base
1070
     3
1070
     1
1002
{
1002
}
1002
}
1000
Rahm3
1070
     8
1000
RAHM3
1002
{
1000
Color
1070
     1
1070
     2
1002
{
1002
}
1000
LType
1070
     4
1000
CONTINUOUS
1002
{
1002
}
1000
Base
1070
     3
1070
     1
1002
{
1002
}
1002
}
1000
Rahm5
1070
     8
1000
RAHM5
1002
{
1000
Color
1070
     1
1070
     7
1002
{
1002
}
1000
LType
1070
     4
1000
CONTINUOUS
1002
{
1002
}
1000
Base
1070
     3
1070
     1
1002
{
1002
}
1002
}
1000
View
1070
     8
1000
VIEW
1002
{
1000
Color
1070
     1
1070
     1
1002
{
1002
}
1000
LType
1070
     4
1000
CONTINUOUS
1002
{
1002
}
1000
Base
1070
     3
1070
     1
1002
{
1002
}
1002
}
1000
Behind
1070
     8
1000
BEHIND
1002
{
1000
Color
1070
     1
1070
   253
1002
{
1002
}
1000
LType
1070
     4
1000
CONTINUOUS
1002
{
1002
}
1000
Base
1070
     3
1070
     1
1002
{
1002
}
1002
}
1002
}
  0
APPID
  5
2CE
330
9
100
AcDbSymbolTableRecord
100
AcDbRegAppTableRecord
  2
GENIUS_GENCFG2_13
 70
     0
1001
GENIUS_GENCFG_13
1071
893306154
1000
2CE
1000
GEN@LAYER@ENTSORT
1070
    10
1000
GenCfgObject
1000
GenCfgShort
1000
GenCfgReal
1000
GenCfgBool
1000
GenCfgString
1000
GenCfgDim
1000
GenCfgAttrInf
1000
GenCfgLaySection
1000
GenCfgLayer
1000
GenCfgEntSort
1000
ALTR
1070
     9
1000
4
1002
{
1000
Class
1070
     4
1000

1002
{
1002
}
1000
Color
1070
     1
1070
     7
1002
{
1002
}
1000
LType
1070
     4
1000
GEN3A
1002
{
1002
}
1002
}
1000
BELI
1070
     9
1000
4
1002
{
1000
Class
1070
     4
1000

1002
{
1002
}
1000
Color
1070
     1
1070
   256
1002
{
1002
}
1000
LType
1070
     4
1000
BYLAYER
1002
{
1002
}
1002
}
1000
BHNV
1070
     9
1000
9
1002
{
1000
Class
1070
     4
1000
INV
1002
{
1002
}
1000
Color
1070
     1
1070
   256
1002
{
1002
}
1000
LType
1070
     4
1000
BYLAYER
1002
{
1002
}
1002
}
1000
BHNVS
1070
     9
1000
BEHIND
1002
{
1000
Class
1070
     4
1000
INV
1002
{
1002
}
1000
Color
1070
     1
1070
   256
1002
{
1002
}
1000
LType
1070
     4
1000
BYLAYER
1002
{
1002
}
1002
}
1000
BLID
1070
     9
1000
4A
1002
{
1000
Class
1070
     4
1000

1002
{
1002
}
1000
Color
1070
     1
1070
   256
1002
{
1002
}
1000
LType
1070
     4
1000
BYLAYER
1002
{
1002
}
1002
}
1000
BOAP
1070
     9
1000
4A
1002
{
1000
Class
1070
     4
1000

1002
{
1002
}
1000
Color
1070
     1
1070
   256
1002
{
1002
}
1000
LType
1070
     4
1000
BYLAYER
1002
{
1002
}
1002
}
1000
BOR2
1070
     9
1000
RAHM2
1002
{
1000
Class
1070
     4
1000
SPZ,SYM
1002
{
1002
}
1000
Color
1070
     1
1070
   256
1002
{
1002
}
1000
LType
1070
     4
1000
BYLAYER
1002
{
1002
}
1002
}
1000
BOR3
1070
     9
1000
RAHM3
1002
{
1000
Class
1070
     4
1000
SPZ,SYM
1002
{
1002
}
1000
Color
1070
     1
1070
   256
1002
{
1002
}
1000
LType
1070
     4
1000
BYLAYER
1002
{
1002
}
1002
}
1000
BOR5
1070
     9
1000
RAHM5
1002
{
1000
Class
1070
     4
1000
SPZ,SYM
1002
{
1002
}
1000
Color
1070
     1
1070
   256
1002
{
1002
}
1000
LType
1070
     4
1000
BYLAYER
1002
{
1002
}
1002
}
1000
BOR7
1070
     9
1000
RAHM5
1002
{
1000
Class
1070
     4
1000
SPZ,SYM
1002
{
1002
}
1000
Color
1070
     1
1070
     7
1002
{
1002
}
1000
LType
1070
     4
1000
CONTINUOUS
1002
{
1002
}
1002
}
1000
BPAP
1070
     9
1000
4A
1002
{
1000
Class
1070
     4
1000

1002
{
1002
}
1000
Color
1070
     1
1070
   256
1002
{
1002
}
1000
LType
1070
     4
1000
BYLAYER
1002
{
1002
}
1002
}
1000
BPEX
1070
     9
1000
4A
1002
{
1000
Class
1070
     4
1000

1002
{
1002
}
1000
Color
1070
     1
1070
   256
1002
{
1002
}
1000
LType
1070
     4
1000
BYLAYER
1002
{
1002
}
1002
}
1000
BTDI
1070
     9
1000
5
1002
{
1000
Class
1070
     4
1000
DIM,SYM
1002
{
1002
}
1000
Color
1070
     1
1070
   256
1002
{
1002
}
1000
LType
1070
     4
1000
BYLAYER
1002
{
1002
}
1002
}
1000
CAL2
1070
     9
1000
4
1002
{
1000
Class
1070
     4
1000
SYM
1002
{
1002
}
1000
Color
1070
     1
1070
   256
1002
{
1002
}
1000
LType
1070
     4
1000
BYLAYER
1002
{
1002
}
1002
}
1000
CAL3
1070
     9
1000
4
1002
{
1000
Class
1070
     4
1000
SYM
1002
{
1002
}
1000
Color
1070
     1
1070
     2
1002
{
1002
}
1000
LType
1070
     4
1000
BYLAYER
1002
{
1002
}
1002
}
1000
CAL5
1070
     9
1000
4
1002
{
1000
Class
1070
     4
1000
SYM
1002
{
1002
}
1000
Color
1070
     1
1070
     7
1002
{
1002
}
1000
LType
1070
     4
1000
BYLAYER
1002
{
1002
}
1002
}
1000
CAL7
1070
     9
1000
4
1002
{
1000
Class
1070
     4
1000
SYM
1002
{
1002
}
1000
Color
1070
     1
1070
     5
1002
{
1002
}
1000
LType
1070
     4
1000
BYLAYER
1002
{
1002
}
1002
}
1000
CENN
1070
     9
1000
7A
1002
{
1000
Class
1070
     4
1000
CEN
1002
{
1002
}
1000
Color
1070
     1
1070
   256
1002
{
1002
}
1000
LType
1070
     4
1000
BYLAYER
1002
{
1002
}
1002
}
1000
CENW
1070
     9
1000
7
1002
{
1000
Class
1070
     4
1000
CEN
1002
{
1002
}
1000
Color
1070
     1
1070
   256
1002
{
1002
}
1000
LType
1070
     4
1000
BYLAYER
1002
{
1002
}
1002
}
1000
CLIN
1070
     9
1000
KLIN
1002
{
1000
Class
1070
     4
1000
SPZ
1002
{
1002
}
1000
Color
1070
     1
1070
   256
1002
{
1002
}
1000
LType
1070
     4
1000
BYLAYER
1002
{
1002
}
1002
}
1000
CON1
1070
     9
1000
0
1002
{
1000
Class
1070
     4
1000
CON,BGD
1002
{
1002
}
1000
Color
1070
     1
1070
   256
1002
{
1002
}
1000
LType
1070
     4
1000
BYLAYER
1002
{
1002
}
1002
}
1000
CON2
1070
     9
1000
1
1002
{
1000
Class
1070
     4
1000
CON,BGD
1002
{
1002
}
1000
Color
1070
     1
1070
   256
1002
{
1002
}
1000
LType
1070
     4
1000
BYLAYER
1002
{
1002
}
1002
}
1000
CON3
1070
     9
1000
2
1002
{
1000
Class
1070
     4
1000
CON,BGD
1002
{
1002
}
1000
Color
1070
     1
1070
   256
1002
{
1002
}
1000
LType
1070
     4
1000
BYLAYER
1002
{
1002
}
1002
}
1000
CON4
1070
     9
1000
2
1002
{
1000
Class
1070
     4
1000
CON,BGD
1002
{
1002
}
1000
Color
1070
     1
1070
   256
1002
{
1002
}
1000
LType
1070
     4
1000
BYLAYER
1002
{
1002
}
1002
}
1000
DERP
1070
     9
1000
4
1002
{
1000
Class
1070
     4
1000

1002
{
1002
}
1000
Color
1070
     1
1070
   256
1002
{
1002
}
1000
LType
1070
     4
1000
BYLAYER
1002
{
1002
}
1002
}
1000
DETA
1070
     9
1000
4
1002
{
1000
Class
1070
     4
1000

1002
{
1002
}
1000
Color
1070
     1
1070
   256
1002
{
1002
}
1000
LType
1070
     4
1000
BYLAYER
1002
{
1002
}
1002
}
1000
DIAG
1070
     9
1000
5
1002
{
1000
Class
1070
     4
1000
SYM
1002
{
1002
}
1000
Color
1070
     1
1070
   256
1002
{
1002
}
1000
LType
1070
     4
1000
BYLAYER
1002
{
1002
}
1002
}
1000
DILI
1070
     9
1000
5
1002
{
1000
Class
1070
     4
1000
DIM,SYM
1002
{
1002
}
1000
Color
1070
     1
1070
   256
1002
{
1002
}
1000
LType
1070
     4
1000
BYLAYER
1002
{
1002
}
1002
}
1000
DITX
1070
     9
1000
5
1002
{
1000
Class
1070
     4
1000
DIM,SYM
1002
{
1002
}
1000
Color
1070
     1
1070
   250
1002
{
1002
}
1000
LType
1070
     4
1000
CONTINUOUS
1002
{
1002
}
1002
}
1000
DITO2
1070
     9
1000
5
1002
{
1000
Class
1070
     4
1000
DIM,SYM
1002
{
1002
}
1000
Color
1070
     1
1070
     3
1002
{
1002
}
1000
LType
1070
     4
1000
BYLAYER
1002
{
1002
}
1002
}
1000
DITO3
1070
     9
1000
5
1002
{
1000
Class
1070
     4
1000
DIM,SYM
1002
{
1002
}
1000
Color
1070
     1
1070
     2
1002
{
1002
}
1000
LType
1070
     4
1000
BYLAYER
1002
{
1002
}
1002
}
1000
DIXL
1070
     9
1000
5
1002
{
1000
Class
1070
     4
1000
DIM,SYM
1002
{
1002
}
1000
Color
1070
     1
1070
   256
1002
{
1002
}
1000
LType
1070
     4
1000
BYLAYER
1002
{
1002
}
1002
}
1000
EXMP
1070
     9
1000
4A
1002
{
1000
Class
1070
     4
1000

1002
{
1002
}
1000
Color
1070
     1
1070
   256
1002
{
1002
}
1000
LType
1070
     4
1000
BYLAYER
1002
{
1002
}
1002
}
1000
FEMN
1070
     9
1000
8
1002
{
1000
Class
1070
     4
1000

1002
{
1002
}
1000
Color
1070
     1
1070
   256
1002
{
1002
}
1000
LType
1070
     4
1000
BYLAYER
1002
{
1002
}
1002
}
1000
FEMPN
1070
     9
1000
8
1002
{
1000
Class
1070
     4
1000
SYM
1002
{
1002
}
1000
Color
1070
     1
1070
     3
1002
{
1002
}
1000
LType
1070
     4
1000
BYLAYER
1002
{
1002
}
1002
}
1000
FEMSP
1070
     9
1000
4A
1002
{
1000
Class
1070
     4
1000

1002
{
1002
}
1000
Color
1070
     1
1070
   256
1002
{
1002
}
1000
LType
1070
     4
1000
CONTINUOUS
1002
{
1002
}
1002
}
1000
FEMST
1070
     9
1000
4A
1002
{
1000
Class
1070
     4
1000
SYM
1002
{
1002
}
1000
Color
1070
     1
1070
     3
1002
{
1002
}
1000
LType
1070
     4
1000
BYLAYER
1002
{
1002
}
1002
}
1000
FEMVN
1070
     9
1000
2
1002
{
1000
Class
1070
     4
1000
CON
1002
{
1002
}
1000
Color
1070
     1
1070
   256
1002
{
1002
}
1000
LType
1070
     4
1000
BYLAYER
1002
{
1002
}
1002
}
1000
FEMVT
1070
     9
1000
2
1002
{
1000
Class
1070
     4
1000
SYM
1002
{
1002
}
1000
Color
1070
     1
1070
     3
1002
{
1002
}
1000
LType
1070
     4
1000
BYLAYER
1002
{
1002
}
1002
}
1000
FLAT
1070
     9
1000
0
1002
{
1000
Class
1070
     4
1000

1002
{
1002
}
1000
Color
1070
     1
1070
   256
1002
{
1002
}
1000
LType
1070
     4
1000
BYLAYER
1002
{
1002
}
1002
}
1000
FRAR
1070
     9
1000
4A
1002
{
1000
Class
1070
     4
1000

1002
{
1002
}
1000
Color
1070
     1
1070
   256
1002
{
1002
}
1000
LType
1070
     4
1000
BYLAYER
1002
{
1002
}
1002
}
1000
GRLI
1070
     9
1000
5
1002
{
1000
Class
1070
     4
1000
SYM
1002
{
1002
}
1000
Color
1070
     1
1070
   256
1002
{
1002
}
1000
LType
1070
     4
1000
BYLAYER
1002
{
1002
}
1002
}
1000
GVLI
1070
     9
1000
4A
1002
{
1000
Class
1070
     4
1000

1002
{
1002
}
1000
Color
1070
     1
1070
   256
1002
{
1002
}
1000
LType
1070
     4
1000
BYLAYER
1002
{
1002
}
1002
}
1000
HATC
1070
     9
1000
8
1002
{
1000
Class
1070
     4
1000
HTC,BGD
1002
{
1002
}
1000
Color
1070
     1
1070
   256
1002
{
1002
}
1000
LType
1070
     4
1000
BYLAYER
1002
{
1002
}
1002
}
1000
HIDN
1070
     9
1000
3A
1002
{
1000
Class
1070
     4
1000
HID,BGD
1002
{
1002
}
1000
Color
1070
     1
1070
   256
1002
{
1002
}
1000
LType
1070
     4
1000
BYLAYER
1002
{
1002
}
1002
}
1000
HIDW
1070
     9
1000
3
1002
{
1000
Class
1070
     4
1000
HID,BGD
1002
{
1002
}
1000
Color
1070
     1
1070
   256
1002
{
1002
}
1000
LType
1070
     4
1000
BYLAYER
1002
{
1002
}
1002
}
1000
HLIN
1070
     9
1000
4
1002
{
1000
Class
1070
     4
1000
BGD
1002
{
1002
}
1000
Color
1070
     1
1070
   256
1002
{
1002
}
1000
LType
1070
     4
1000
BYLAYER
1002
{
1002
}
1002
}
1000
HOCN
1070
     9
1000
7A
1002
{
1000
Class
1070
     4
1000
CEN
1002
{
1002
}
1000
Color
1070
     1
1070
   256
1002
{
1002
}
1000
LType
1070
     4
1000
BYLAYER
1002
{
1002
}
1002
}
1000
HOCW
1070
     9
1000
7
1002
{
1000
Class
1070
     4
1000
CEN
1002
{
1002
}
1000
Color
1070
     1
1070
   256
1002
{
1002
}
1000
LType
1070
     4
1000
BYLAYER
1002
{
1002
}
1002
}
1000
INFO
1070
     9
1000
INFO
1002
{
1000
Class
1070
     4
1000
SPZ,SYM
1002
{
1002
}
1000
Color
1070
     1
1070
   256
1002
{
1002
}
1000
LType
1070
     4
1000
BYLAYER
1002
{
1002
}
1002
}
1000
LADI
1070
     9
1000
4
1002
{
1000
Class
1070
     4
1000
BGD
1002
{
1002
}
1000
Color
1070
     1
1070
   256
1002
{
1002
}
1000
LType
1070
     4
1000
BYLAYER
1002
{
1002
}
1002
}
1000
LEAD
1070
     9
1000
5
1002
{
1000
Class
1070
     4
1000
SYM
1002
{
1002
}
1000
Color
1070
     1
1070
   256
1002
{
1002
}
1000
LType
1070
     4
1000
BYLAYER
1002
{
1002
}
1002
}
1000
N_BHNV
1070
     9
1000
9N
1002
{
1000
Class
1070
     4
1000
INV
1002
{
1002
}
1000
Color
1070
     1
1070
   256
1002
{
1002
}
1000
LType
1070
     4
1000
BYLAYER
1002
{
1002
}
1002
}
1000
N_CON1
1070
     9
1000
0N
1002
{
1000
Class
1070
     4
1000
CON,BGD
1002
{
1002
}
1000
Color
1070
     1
1070
   256
1002
{
1002
}
1000
LType
1070
     4
1000
BYLAYER
1002
{
1002
}
1002
}
1000
N_CON2
1070
     9
1000
1N
1002
{
1000
Class
1070
     4
1000
CON,BGD
1002
{
1002
}
1000
Color
1070
     1
1070
   256
1002
{
1002
}
1000
LType
1070
     4
1000
BYLAYER
1002
{
1002
}
1002
}
1000
N_CON3
1070
     9
1000
2N
1002
{
1000
Class
1070
     4
1000
CON,BGD
1002
{
1002
}
1000
Color
1070
     1
1070
   256
1002
{
1002
}
1000
LType
1070
     4
1000
BYLAYER
1002
{
1002
}
1002
}
1000
N_CON4
1070
     9
1000
2N
1002
{
1000
Class
1070
     4
1000
CON,BGD
1002
{
1002
}
1000
Color
1070
     1
1070
   256
1002
{
1002
}
1000
LType
1070
     4
1000
BYLAYER
1002
{
1002
}
1002
}
1000
N_CENN
1070
     9
1000
7AN
1002
{
1000
Class
1070
     4
1000
CEN
1002
{
1002
}
1000
Color
1070
     1
1070
   256
1002
{
1002
}
1000
LType
1070
     4
1000
BYLAYER
1002
{
1002
}
1002
}
1000
N_CENW
1070
     9
1000
7N
1002
{
1000
Class
1070
     4
1000
CEN
1002
{
1002
}
1000
Color
1070
     1
1070
   256
1002
{
1002
}
1000
LType
1070
     4
1000
BYLAYER
1002
{
1002
}
1002
}
1000
N_DILI
1070
     9
1000
5N
1002
{
1000
Class
1070
     4
1000
DIM,SYM
1002
{
1002
}
1000
Color
1070
     1
1070
   256
1002
{
1002
}
1000
LType
1070
     4
1000
BYLAYER
1002
{
1002
}
1002
}
1000
N_DITX
1070
     9
1000
5N
1002
{
1000
Class
1070
     4
1000
DIM,SYM
1002
{
1002
}
1000
Color
1070
     1
1070
     2
1002
{
1002
}
1000
LType
1070
     4
1000
CONTINUOUS
1002
{
1002
}
1002
}
1000
N_DIXL
1070
     9
1000
5N
1002
{
1000
Class
1070
     4
1000
DIM,SYM
1002
{
1002
}
1000
Color
1070
     1
1070
   256
1002
{
1002
}
1000
LType
1070
     4
1000
BYLAYER
1002
{
1002
}
1002
}
1000
N_HATC
1070
     9
1000
8N
1002
{
1000
Class
1070
     4
1000
HTC,BGD
1002
{
1002
}
1000
Color
1070
     1
1070
   256
1002
{
1002
}
1000
LType
1070
     4
1000
BYLAYER
1002
{
1002
}
1002
}
1000
N_HIDN
1070
     9
1000
3AN
1002
{
1000
Class
1070
     4
1000
HID,BGD
1002
{
1002
}
1000
Color
1070
     1
1070
   256
1002
{
1002
}
1000
LType
1070
     4
1000
BYLAYER
1002
{
1002
}
1002
}
1000
N_HIDW
1070
     9
1000
3N
1002
{
1000
Class
1070
     4
1000
HID,BGD
1002
{
1002
}
1000
Color
1070
     1
1070
   256
1002
{
1002
}
1000
LType
1070
     4
1000
BYLAYER
1002
{
1002
}
1002
}
1000
N_PHAN
1070
     9
1000
4AN
1002
{
1000
Class
1070
     4
1000

1002
{
1002
}
1000
Color
1070
     1
1070
   256
1002
{
1002
}
1000
LType
1070
     4
1000
BYLAYER
1002
{
1002
}
1002
}
1000
N_POSL
1070
     9
1000
5N
1002
{
1000
Class
1070
     4
1000
SYM
1002
{
1002
}
1000
Color
1070
     1
1070
   256
1002
{
1002
}
1000
LType
1070
     4
1000
BYLAYER
1002
{
1002
}
1002
}
1000
N_TCON
1070
     9
1000
0N
1002
{
1000
Class
1070
     4
1000
CON,BGD
1002
{
1002
}
1000
Color
1070
     1
1070
   256
1002
{
1002
}
1000
LType
1070
     4
1000
BYLAYER
1002
{
1002
}
1002
}
1000
N_THLI
1070
     9
1000
4N
1002
{
1000
Class
1070
     4
1000
BGD
1002
{
1002
}
1000
Color
1070
     1
1070
   256
1002
{
1002
}
1000
LType
1070
     4
1000
BYLAYER
1002
{
1002
}
1002
}
1000
N_TLEN
1070
     9
1000
0N
1002
{
1000
Class
1070
     4
1000
CON,BGD
1002
{
1002
}
1000
Color
1070
     1
1070
   256
1002
{
1002
}
1000
LType
1070
     4
1000
BYLAYER
1002
{
1002
}
1002
}
1000
N_TXT3
1070
     9
1000
6N
1002
{
1000
Class
1070
     4
1000
SYM
1002
{
1002
}
1000
Color
1070
     1
1070
   256
1002
{
1002
}
1000
LType
1070
     4
1000
BYLAYER
1002
{
1002
}
1002
}
1000
N_VPLI
1070
     9
1000
2AN
1002
{
1000
Class
1070
     4
1000

1002
{
1002
}
1000
Color
1070
     1
1070
   256
1002
{
1002
}
1000
LType
1070
     4
1000
BYLAYER
1002
{
1002
}
1002
}
1000
PAL2
1070
     9
1000
RAHM2
1002
{
1000
Class
1070
     4
1000
SPZ,SYM
1002
{
1002
}
1000
Color
1070
     1
1070
   256
1002
{
1002
}
1000
LType
1070
     4
1000
BYLAYER
1002
{
1002
}
1002
}
1000
PAL3
1070
     9
1000
RAHM3
1002
{
1000
Class
1070
     4
1000
SPZ,SYM
1002
{
1002
}
1000
Color
1070
     1
1070
   256
1002
{
1002
}
1000
LType
1070
     4
1000
BYLAYER
1002
{
1002
}
1002
}
1000
PAL5
1070
     9
1000
RAHM5
1002
{
1000
Class
1070
     4
1000
SPZ,SYM
1002
{
1002
}
1000
Color
1070
     1
1070
   256
1002
{
1002
}
1000
LType
1070
     4
1000
BYLAYER
1002
{
1002
}
1002
}
1000
PAL7
1070
     9
1000
RAHM5
1002
{
1000
Class
1070
     4
1000
SPZ,SYM
1002
{
1002
}
1000
Color
1070
     1
1070
     7
1002
{
1002
}
1000
LType
1070
     4
1000
CONTINUOUS
1002
{
1002
}
1002
}
1000
PHAN
1070
     9
1000
4A
1002
{
1000
Class
1070
     4
1000

1002
{
1002
}
1000
Color
1070
     1
1070
   256
1002
{
1002
}
1000
LType
1070
     4
1000
BYLAYER
1002
{
1002
}
1002
}
1000
POSL
1070
     9
1000
5
1002
{
1000
Class
1070
     4
1000
SYM
1002
{
1002
}
1000
Color
1070
     1
1070
   256
1002
{
1002
}
1000
LType
1070
     4
1000
BYLAYER
1002
{
1002
}
1002
}
1000
POSN
1070
     9
1000
6
1002
{
1000
Class
1070
     4
1000
SYM
1002
{
1002
}
1000
Color
1070
     1
1070
     7
1002
{
1002
}
1000
LType
1070
     4
1000
BYLAYER
1002
{
1002
}
1002
}
1000
POSREF
1070
     9
1000
6
1002
{
1000
Class
1070
     4
1000
SYM
1002
{
1002
}
1000
Color
1070
     1
1070
     5
1002
{
1002
}
1000
LType
1070
     4
1000
BYLAYER
1002
{
1002
}
1002
}
1000
POSX
1070
     9
1000
5
1002
{
1000
Class
1070
     4
1000
SYM
1002
{
1002
}
1000
Color
1070
     1
1070
     2
1002
{
1002
}
1000
LType
1070
     4
1000
CONTINUOUS
1002
{
1002
}
1002
}
1000
PSEC
1070
     9
1000
4A
1002
{
1000
Class
1070
     4
1000

1002
{
1002
}
1000
Color
1070
     1
1070
   256
1002
{
1002
}
1000
LType
1070
     4
1000
BYLAYER
1002
{
1002
}
1002
}
1000
RCGN
1070
     9
1000
7A
1002
{
1000
Class
1070
     4
1000
CEN
1002
{
1002
}
1000
Color
1070
     1
1070
   256
1002
{
1002
}
1000
LType
1070
     4
1000
BYLAYER
1002
{
1002
}
1002
}
1000
RCGW
1070
     9
1000
7
1002
{
1000
Class
1070
     4
1000
CEN
1002
{
1002
}
1000
Color
1070
     1
1070
   256
1002
{
1002
}
1000
LType
1070
     4
1000
BYLAYER
1002
{
1002
}
1002
}
1000
RFDI
1070
     9
1000
4
1002
{
1000
Class
1070
     4
1000
BGD
1002
{
1002
}
1000
Color
1070
     1
1070
   256
1002
{
1002
}
1000
LType
1070
     4
1000
BYLAYER
1002
{
1002
}
1002
}
1000
RQTR
1070
     9
1000
4
1002
{
1000
Class
1070
     4
1000

1002
{
1002
}
1000
Color
1070
     1
1070
     7
1002
{
1002
}
1000
LType
1070
     4
1000
GEN7A
1002
{
1002
}
1002
}
1000
RSBO
1070
     9
1000
4
1002
{
1000
Class
1070
     4
1000
BGD
1002
{
1002
}
1000
Color
1070
     1
1070
   256
1002
{
1002
}
1000
LType
1070
     4
1000
BYLAYER
1002
{
1002
}
1002
}
1000
SBRK
1070
     9
1000
4
1002
{
1000
Class
1070
     4
1000
BGD
1002
{
1002
}
1000
Color
1070
     1
1070
   256
1002
{
1002
}
1000
LType
1070
     4
1000
BYLAYER
1002
{
1002
}
1002
}
1000
SCEN
1070
     9
1000
7
1002
{
1000
Class
1070
     4
1000

1002
{
1002
}
1000
Color
1070
     1
1070
   256
1002
{
1002
}
1000
LType
1070
     4
1000
CONTINUOUS
1002
{
1002
}
1002
}
1000
SECT
1070
     9
1000
4
1002
{
1000
Class
1070
     4
1000
BGD
1002
{
1002
}
1000
Color
1070
     1
1070
   256
1002
{
1002
}
1000
LType
1070
     4
1000
BYLAYER
1002
{
1002
}
1002
}
1000
SELN
1070
     9
1000
7A
1002
{
1000
Class
1070
     4
1000

1002
{
1002
}
1000
Color
1070
     1
1070
   256
1002
{
1002
}
1000
LType
1070
     4
1000
BYLAYER
1002
{
1002
}
1002
}
1000
SELW
1070
     9
1000
7
1002
{
1000
Class
1070
     4
1000

1002
{
1002
}
1000
Color
1070
     1
1070
   256
1002
{
1002
}
1000
LType
1070
     4
1000
BYLAYER
1002
{
1002
}
1002
}
1000
SSYS
1070
     9
1000
0
1002
{
1000
Class
1070
     4
1000

1002
{
1002
}
1000
Color
1070
     1
1070
   256
1002
{
1002
}
1000
LType
1070
     4
1000
BYLAYER
1002
{
1002
}
1002
}
1000
STLI
1070
     9
1000
4
1002
{
1000
Class
1070
     4
1000

1002
{
1002
}
1000
Color
1070
     1
1070
     7
1002
{
1002
}
1000
LType
1070
     4
1000
GEN3A
1002
{
1002
}
1002
}
1000
SYB1
1070
     9
1000
5
1002
{
1000
Class
1070
     4
1000
SYM
1002
{
1002
}
1000
Color
1070
     1
1070
   256
1002
{
1002
}
1000
LType
1070
     4
1000
BYLAYER
1002
{
1002
}
1002
}
1000
SYB2
1070
     9
1000
5
1002
{
1000
Class
1070
     4
1000
SYM
1002
{
1002
}
1000
Color
1070
     1
1070
   256
1002
{
1002
}
1000
LType
1070
     4
1000
BYLAYER
1002
{
1002
}
1002
}
1000
SYB3
1070
     9
1000
6
1002
{
1000
Class
1070
     4
1000
SYM
1002
{
1002
}
1000
Color
1070
     1
1070
   256
1002
{
1002
}
1000
LType
1070
     4
1000
CONTINUOUS
1002
{
1002
}
1002
}
1000
SYB5
1070
     9
1000
5
1002
{
1000
Class
1070
     4
1000
SYM
1002
{
1002
}
1000
Color
1070
     1
1070
     7
1002
{
1002
}
1000
LType
1070
     4
1000
BYLAYER
1002
{
1002
}
1002
}
1000
SYMN
1070
     9
1000
7A
1002
{
1000
Class
1070
     4
1000
CEN
1002
{
1002
}
1000
Color
1070
     1
1070
   256
1002
{
1002
}
1000
LType
1070
     4
1000
BYLAYER
1002
{
1002
}
1002
}
1000
SYMW
1070
     9
1000
7
1002
{
1000
Class
1070
     4
1000
CEN
1002
{
1002
}
1000
Color
1070
     1
1070
   256
1002
{
1002
}
1000
LType
1070
     4
1000
BYLAYER
1002
{
1002
}
1002
}
1000
TCON
1070
     9
1000
0
1002
{
1000
Class
1070
     4
1000
CON,BGD
1002
{
1002
}
1000
Color
1070
     1
1070
   256
1002
{
1002
}
1000
LType
1070
     4
1000
BYLAYER
1002
{
1002
}
1002
}
1000
THLI
1070
     9
1000
4
1002
{
1000
Class
1070
     4
1000
BGD
1002
{
1002
}
1000
Color
1070
     1
1070
   256
1002
{
1002
}
1000
LType
1070
     4
1000
BYLAYER
1002
{
1002
}
1002
}
1000
TIT2
1070
     9
1000
RAHM2
1002
{
1000
Class
1070
     4
1000
SPZ,SYM
1002
{
1002
}
1000
Color
1070
     1
1070
   256
1002
{
1002
}
1000
LType
1070
     4
1000
BYLAYER
1002
{
1002
}
1002
}
1000
TIT3
1070
     9
1000
RAHM3
1002
{
1000
Class
1070
     4
1000
SPZ,SYM
1002
{
1002
}
1000
Color
1070
     1
1070
   256
1002
{
1002
}
1000
LType
1070
     4
1000
BYLAYER
1002
{
1002
}
1002
}
1000
TIT5
1070
     9
1000
RAHM5
1002
{
1000
Class
1070
     4
1000
SPZ,SYM
1002
{
1002
}
1000
Color
1070
     1
1070
   256
1002
{
1002
}
1000
LType
1070
     4
1000
BYLAYER
1002
{
1002
}
1002
}
1000
TIT7
1070
     9
1000
RAHM5
1002
{
1000
Class
1070
     4
1000
SPZ,SYM
1002
{
1002
}
1000
Color
1070
     1
1070
     7
1002
{
1002
}
1000
LType
1070
     4
1000
CONTINUOUS
1002
{
1002
}
1002
}
1000
TLEN
1070
     9
1000
0
1002
{
1000
Class
1070
     4
1000
CON,BGD
1002
{
1002
}
1000
Color
1070
     1
1070
   256
1002
{
1002
}
1000
LType
1070
     4
1000
BYLAYER
1002
{
1002
}
1002
}
1000
TRKN
1070
     9
1000
7A
1002
{
1000
Class
1070
     4
1000

1002
{
1002
}
1000
Color
1070
     1
1070
   256
1002
{
1002
}
1000
LType
1070
     4
1000
BYLAYER
1002
{
1002
}
1002
}
1000
TRKW
1070
     9
1000
7
1002
{
1000
Class
1070
     4
1000

1002
{
1002
}
1000
Color
1070
     1
1070
   256
1002
{
1002
}
1000
LType
1070
     4
1000
BYLAYER
1002
{
1002
}
1002
}
1000
TRLI
1070
     9
1000
4
1002
{
1000
Class
1070
     4
1000
BGD
1002
{
1002
}
1000
Color
1070
     1
1070
   256
1002
{
1002
}
1000
LType
1070
     4
1000
BYLAYER
1002
{
1002
}
1002
}
1000
TXT1
1070
     9
1000
6
1002
{
1000
Class
1070
     4
1000
SYM
1002
{
1002
}
1000
Color
1070
     1
1070
     2
1002
{
1002
}
1000
LType
1070
     4
1000
BYLAYER
1002
{
1002
}
1002
}
1000
TXT2
1070
     9
1000
6
1002
{
1000
Class
1070
     4
1000
SYM
1002
{
1002
}
1000
Color
1070
     1
1070
     2
1002
{
1002
}
1000
LType
1070
     4
1000
BYLAYER
1002
{
1002
}
1002
}
1000
TXT3
1070
     9
1000
6
1002
{
1000
Class
1070
     4
1000
SYM
1002
{
1002
}
1000
Color
1070
     1
1070
   256
1002
{
1002
}
1000
LType
1070
     4
1000
BYLAYER
1002
{
1002
}
1002
}
1000
TXT5
1070
     9
1000
6
1002
{
1000
Class
1070
     4
1000
SYM
1002
{
1002
}
1000
Color
1070
     1
1070
     7
1002
{
1002
}
1000
LType
1070
     4
1000
BYLAYER
1002
{
1002
}
1002
}
1000
TXT7
1070
     9
1000
6
1002
{
1000
Class
1070
     4
1000
SYM
1002
{
1002
}
1000
Color
1070
     1
1070
     7
1002
{
1002
}
1000
LType
1070
     4
1000
BYLAYER
1002
{
1002
}
1002
}
1000
VIEW
1070
     9
1000
VIEW
1002
{
1000
Class
1070
     4
1000
SPZ
1002
{
1002
}
1000
Color
1070
     1
1070
   256
1002
{
1002
}
1000
LType
1070
     4
1000
BYLAYER
1002
{
1002
}
1002
}
1000
VPLI
1070
     9
1000
2A
1002
{
1000
Class
1070
     4
1000

1002
{
1002
}
1000
Color
1070
     1
1070
   256
1002
{
1002
}
1000
LType
1070
     4
1000
BYLAYER
1002
{
1002
}
1002
}
1000
ZIZA
1070
     9
1000
4
1002
{
1000
Class
1070
     4
1000
BGD
1002
{
1002
}
1000
Color
1070
     1
1070
   256
1002
{
1002
}
1000
LType
1070
     4
1000
GENZIGZAG
1002
{
1002
}
1002
}
  0
APPID
  5
2CF
330
9
100
AcDbSymbolTableRecord
100
AcDbRegAppTableRecord
  2
GENIUS_GENCFG3_13
 70
     0
1001
GENIUS_GENCFG_13
1071
893306154
1000
2CF
1000
GEN@OSWIZ
1070
    12
1000
GenCfgObject
1000
GenCfgShort
1000
GenCfgReal
1000
GenCfgBool
1000
GenCfgString
1000
GenCfgDim
1000
GenCfgAttrInf
1000
GenCfgLaySection
1000
GenCfgLayer
1000
GenCfgEntSort
1000
GenCfgLType
1000
GenCfgFilter
1000
AngleStep
1070
     0
1002
{
1000
M
1070
     2
1040
10.0
1002
{
1002
}
1000
I
1070
     2
1040
0.4
1002
{
1002
}
1002
}
1000
AngleIncr
1070
     2
1040
45.0
1002
{
1002
}
1000
Filter
1070
     0
1002
{
1000
HATCH
1070
    11
1002
{
1000
EntityType
1070
     4
1000
LINE
1002
{
1002
}
1000
Layer
1070
     4
1000
8,8N,*-8,*-8N
1002
{
1002
}
1000
Linetype
1070
     4
1000
*
1002
{
1002
}
1000
Color
1070
     4
1000
*
1002
{
1002
}
1002
}
1000
SYMBOLS
1070
    11
1002
{
1000
EntityType
1070
     4
1000
*
1002
{
1002
}
1000
Layer
1070
     4
1000
[5-6],[5-6]N,*-[5-6],*-[5-6]N
1002
{
1002
}
1000
Linetype
1070
     4
1000
*
1002
{
1002
}
1000
Color
1070
     4
1000
*
1002
{
1002
}
1002
}
1000
FEM
1070
    11
1002
{
1000
EntityType
1070
     4
1000
*
1002
{
1002
}
1000
Layer
1070
     4
1000
4A,4AN,*-4A,*-4AN
1002
{
1002
}
1000
Linetype
1070
     4
1000
*
1002
{
1002
}
1000
Color
1070
     4
1000
*
1002
{
1002
}
1002
}
1002
}
1000
IconSize
1070
     2
1040
1.0
1002
{
1002
}
1000
SnapColor
1070
     1
1070
   230
1002
{
1002
}
  0
APPID
  5
2D0
330
9
100
AcDbSymbolTableRecord
100
AcDbRegAppTableRecord
  2
GENIUS_GENCFG4_13
 70
     0
1001
GENIUS_GENCFG_13
1071
895106846
1000
2D0
1000
GEN
1070
     9
1000
GenCfgObject
1000
GenCfgShort
1000
GenCfgReal
1000
GenCfgBool
1000
GenCfgString
1000
GenCfgDim
1000
GenCfgAttrInf
1000
GenCfgLaySection
1000
GenCfgLType
1000
Balloon
1070
     0
1002
{
1000
GenIF
1070
     1
1070
     0
1002
{
1002
}
1000
GenPosInc
1070
     1
1070
     1
1002
{
1002
}
1000
GenPosBlk
1070
     1
1070
     3
1002
{
1002
}
1000
GenPosVar
1070
     1
1070
     1
1002
{
1002
}
1000
GenZiCir
1070
     2
1040
1.5
1002
{
1002
}
1000
MaxCharForCenteredText
1070
     1
1070
    30
1002
{
1002
}
1000
Snap
1070
     0
1002
{
1000
ActivationRadius
1070
     2
1040
1.0
1002
{
1002
}
1000
M
1070
     0
1002
{
1000
SnapStepX
1070
     2
1040
15.0
1002
{
1002
}
1000
SnapStepY
1070
     2
1040
15.0
1002
{
1002
}
1002
}
1000
I
1070
     0
1002
{
1000
SnapStepX
1070
     2
1040
1.0
1002
{
1002
}
1000
SnapStepY
1070
     2
1040
0.5
1002
{
1002
}
1002
}
1002
}
1002
}
1000
Centerline
1070
     0
1002
{
1000
ScaleNot
1070
     3
1070
     0
1002
{
1002
}
1000
M
1070
     0
1002
{
1000
GenCenAng
1070
     4
1000
45|90|135
1002
{
1002
}
1000
GenCenDia
1070
     2
1040
250.0
1002
{
1002
}
1000
GenCenDias
1070
     4
1000
10|20|30
1002
{
1002
}
1000
GenCenDist
1070
     2
1040
3.0
1002
{
1002
}
1000
GenCenLen
1070
     2
1040
10.0
1002
{
1002
}
1000
GenCenOff
1070
     2
1040
10.0
1002
{
1002
}
1002
}
1000
I
1070
     0
1002
{
1000
GenCenAng
1070
     4
1000
45|90|135
1002
{
1002
}
1000
GenCenDia
1070
     2
1040
0.5
1002
{
1002
}
1000
GenCenDias
1070
     4
1000
0.5|1.0|1.5
1002
{
1002
}
1000
GenCenDist
1070
     2
1040
0.125
1002
{
1002
}
1000
GenCenLen
1070
     2
1040
0.5
1002
{
1002
}
1000
GenCenOff
1070
     2
1040
0.5
1002
{
1002
}
1002
}
1002
}
1000
CLine
1070
     0
1002
{
1000
CAngArray
1070
     4
1000
30|45|60
1002
{
1002
}
1000
Typ
1070
     4
1000
XLINE
1002
{
1002
}
1000
M
1070
     0
1002
{
1000
CLinArray
1070
     4
1000
2700
1002
{
1002
}
1002
}
1000
I
1070
     0
1002
{
1000
CLinArray
1070
     4
1000
0.125|0.25|0.5
1002
{
1002
}
1002
}
1002
}
1000
Constraints
1070
     0
1002
{
1000
Color
1070
     0
1002
{
1000
Active_Frame
1070
     1
1070
     2
1002
{
1002
}
1000
Inactive_Frame
1070
     1
1070
     8
1002
{
1002
}
1002
}
1000
Debug
1070
     0
1002
{
1002
}
1000
Editor
1070
     0
1002
{
1002
}
1000
Frame
1070
     0
1002
{
1002
}
1000
Sys
1070
     0
1002
{
1002
}
1002
}
1000
Detail
1070
     0
1002
{
1002
}
1000
Dimension
1070
     5
1002
{
1000
DIMALT
1070
     1
1070
     0
1002
{
1002
}
1000
DIMALTD
1070
     1
1070
     2
1002
{
1002
}
1000
DIMALTTD
1070
     1
1070
     4
1002
{
1002
}
1000
DIMALTTZ
1070
     1
1070
     0
1002
{
1002
}
1000
DIMALTU
1070
     1
1070
     2
1002
{
1002
}
1000
DIMALTZ
1070
     1
1070
     0
1002
{
1002
}
1000
DIMAPOST
1070
     4
1000

1002
{
1002
}
1000
DIMAUNIT
1070
     1
1070
     0
1002
{
1002
}
1000
DIMBLK
1070
     4
1000

1002
{
1002
}
1000
DIMBLK1
1070
     4
1000

1002
{
1002
}
1000
DIMBLK2
1070
     4
1000

1002
{
1002
}
1000
DIMDLE
1070
     2
1040
0.0
1002
{
1002
}
1000
DIMFIT
1070
     1
1070
     3
1002
{
1002
}
1000
DIMJUST
1070
     1
1070
     0
1002
{
1002
}
1000
DIMLFAC
1070
     2
1040
1.0
1002
{
1002
}
1000
DIMLIM
1070
     1
1070
     0
1002
{
1002
}
1000
DIMPOST
1070
     4
1000

1002
{
1002
}
1000
DIMRND
1070
     2
1040
0.0
1002
{
1002
}
1000
DIMSAH
1070
     1
1070
     0
1002
{
1002
}
1000
DIMSCALE
1070
     2
1040
1.0
1002
{
1002
}
1000
DIMSD1
1070
     1
1070
     0
1002
{
1002
}
1000
DIMSD2
1070
     1
1070
     0
1002
{
1002
}
1000
DIMSE1
1070
     1
1070
     0
1002
{
1002
}
1000
DIMSE2
1070
     1
1070
     0
1002
{
1002
}
1000
DIMSOXD
1070
     1
1070
     0
1002
{
1002
}
1000
DIMTAD
1070
     1
1070
     0
1002
{
1002
}
1000
DIMTFAC
1070
     2
1040
0.71
1002
{
1002
}
1000
DIMTIH
1070
     1
1070
     0
1002
{
1002
}
1000
DIMTIX
1070
     1
1070
     0
1002
{
1002
}
1000
DIMTM
1070
     2
1040
0.1
1002
{
1002
}
1000
DIMTOFL
1070
     1
1070
     0
1002
{
1002
}
1000
DIMTOH
1070
     1
1070
     0
1002
{
1002
}
1000
DIMTOL
1070
     1
1070
     0
1002
{
1002
}
1000
DIMTOLJ
1070
     1
1070
     1
1002
{
1002
}
1000
DIMTP
1070
     2
1040
0.1
1002
{
1002
}
1000
DIMTSZ
1070
     2
1040
0.0
1002
{
1002
}
1000
DIMTVP
1070
     2
1040
0.0
1002
{
1002
}
1000
DIMTXSTY
1070
     4
1000
STANDARD
1002
{
1002
}
1000
DIMTZIN
1070
     1
1070
     0
1002
{
1002
}
1000
DIMUNIT
1070
     1
1070
     2
1002
{
1002
}
1000
DIMUPT
1070
     1
1070
     0
1002
{
1002
}
1000
M
1070
     0
1002
{
1000
DIMALTF
1070
     2
1040
0.0393701
1002
{
1002
}
1000
DIMASZ
1070
     2
1040
2.5
1002
{
1002
}
1000
DIMCEN
1070
     2
1040
0.0
1002
{
1002
}
1000
DIMDEC
1070
     1
1070
     2
1002
{
1002
}
1000
DIMDLI
1070
     2
1040
10.0
1002
{
1002
}
1000
DIMEXE
1070
     2
1040
1.0
1002
{
1002
}
1000
DIMEXO
1070
     2
1040
1.0
1002
{
1002
}
1000
DIMGAP
1070
     2
1040
1.5
1002
{
1002
}
1000
DIMTDEC
1070
     1
1070
     3
1002
{
1002
}
1000
DIMTXT
1070
     2
1040
3.5
1002
{
1002
}
1000
DIMZIN
1070
     1
1070
     8
1002
{
1002
}
1002
}
1000
I
1070
     0
1002
{
1000
DIMALTF
1070
     2
1040
25.4
1002
{
1002
}
1000
DIMASZ
1070
     2
1040
0.1
1002
{
1002
}
1000
DIMCEN
1070
     2
1040
0.0
1002
{
1002
}
1000
DIMDEC
1070
     1
1070
     4
1002
{
1002
}
1000
DIMDLI
1070
     2
1040
0.5
1002
{
1002
}
1000
DIMEXE
1070
     2
1040
0.1
1002
{
1002
}
1000
DIMEXO
1070
     2
1040
0.05
1002
{
1002
}
1000
DIMGAP
1070
     2
1040
0.06
1002
{
1002
}
1000
DIMTDEC
1070
     1
1070
     4
1002
{
1002
}
1000
DIMTXT
1070
     2
1040
0.12
1002
{
1002
}
1000
DIMZIN
1070
     1
1070
     7
1002
{
1002
}
1002
}
1000
GEN-ISO
1070
     5
1002
{
1000
NAME
1070
     4
1000
GEN-ISO
1002
{
1002
}
1000
DIMTAD
1070
     1
1070
     1
1002
{
1002
}
1000
DIMTOLJ
1070
     1
1070
     0
1002
{
1002
}
1000
DIMTOFL
1070
     1
1070
     1
1002
{
1002
}
1000
M
1070
     0
1002
{
1002
}
1000
I
1070
     0
1002
{
1002
}
1002
}
1000
GEN-ISO-POS
1070
     5
1002
{
1000
NAME
1070
     4
1000
GEN-ISO-POS
1002
{
1002
}
1000
DIMTOLJ
1070
     1
1070
     0
1002
{
1002
}
1000
M
1070
     0
1002
{
1000
DIMASZ
1070
     2
1040
2.5
1002
{
1002
}
1000
DIMGAP
1070
     2
1040
1.5
1002
{
1002
}
1000
DIMTXT
1070
     2
1040
5.0
1002
{
1002
}
1002
}
1000
I
1070
     0
1002
{
1000
DIMASZ
1070
     2
1040
0.1
1002
{
1002
}
1000
DIMGAP
1070
     2
1040
0.06
1002
{
1002
}
1000
DIMTXT
1070
     2
1040
0.2
1002
{
1002
}
1002
}
1002
}
1000
GEN-ISO-CIR
1070
     5
1002
{
1000
NAME
1070
     4
1000
GEN-ISO$3
1002
{
1002
}
1000
DIMFIT
1070
     1
1070
     0
1002
{
1002
}
1000
DIMTAD
1070
     1
1070
     1
1002
{
1002
}
1000
DIMTIH
1070
     1
1070
     0
1002
{
1002
}
1000
DIMTIX
1070
     1
1070
     0
1002
{
1002
}
1000
DIMTOH
1070
     1
1070
     1
1002
{
1002
}
1000
DIMTOLJ
1070
     1
1070
     0
1002
{
1002
}
1000
DIMTOFL
1070
     1
1070
     0
1002
{
1002
}
1000
DIMUPT
1070
     1
1070
     1
1002
{
1002
}
1000
M
1070
     0
1002
{
1002
}
1000
I
1070
     0
1002
{
1002
}
1002
}
1000
GEN-ISO-RAD
1070
     5
1002
{
1000
NAME
1070
     4
1000
GEN-ISO$4
1002
{
1002
}
1000
DIMFIT
1070
     1
1070
     0
1002
{
1002
}
1000
DIMTAD
1070
     1
1070
     1
1002
{
1002
}
1000
DIMTIH
1070
     1
1070
     0
1002
{
1002
}
1000
DIMTIX
1070
     1
1070
     0
1002
{
1002
}
1000
DIMTOH
1070
     1
1070
     1
1002
{
1002
}
1000
DIMTOLJ
1070
     1
1070
     0
1002
{
1002
}
1000
DIMTOFL
1070
     1
1070
     0
1002
{
1002
}
1000
DIMUPT
1070
     1
1070
     1
1002
{
1002
}
1000
M
1070
     0
1002
{
1002
}
1000
I
1070
     0
1002
{
1002
}
1002
}
1000
GEN-ISO-ORD
1070
     5
1002
{
1000
NAME
1070
     4
1000
GEN-ISO$6
1002
{
1002
}
1000
DIMTOLJ
1070
     1
1070
     0
1002
{
1002
}
1000
M
1070
     0
1002
{
1002
}
1000
I
1070
     0
1002
{
1002
}
1002
}
1000
GEN-ISO-AXE-F
1070
     5
1002
{
1000
NAME
1070
     4
1000
GEN-ISO-AXE-F
1002
{
1002
}
1000
DIMSE1
1070
     1
1070
     1
1002
{
1002
}
1000
DIMSE2
1070
     1
1070
     1
1002
{
1002
}
1000
DIMTAD
1070
     1
1070
     1
1002
{
1002
}
1000
DIMTOLJ
1070
     1
1070
     0
1002
{
1002
}
1000
DIMTOFL
1070
     1
1070
     1
1002
{
1002
}
1000
M
1070
     0
1002
{
1002
}
1000
I
1070
     0
1002
{
1002
}
1002
}
1000
GEN-ISO-AXE-H
1070
     5
1002
{
1000
DIMBLK1
1070
     4
1000
GENAXEH
1002
{
1002
}
1000
DIMLFAC
1070
     2
1040
2.0
1002
{
1002
}
1000
DIMSAH
1070
     1
1070
     1
1002
{
1002
}
1000
DIMSE1
1070
     1
1070
     1
1002
{
1002
}
1000
DIMSE2
1070
     1
1070
     1
1002
{
1002
}
1000
DIMTAD
1070
     1
1070
     1
1002
{
1002
}
1000
DIMTOLJ
1070
     1
1070
     0
1002
{
1002
}
1000
DIMTOFL
1070
     1
1070
     1
1002
{
1002
}
1000
M
1070
     0
1002
{
1002
}
1000
I
1070
     0
1002
{
1002
}
1002
}
1000
GEN-ANSI
1070
     5
1002
{
1000
NAME
1070
     4
1000
GEN-ANSI
1002
{
1002
}
1000
DIMTIH
1070
     1
1070
     1
1002
{
1002
}
1000
DIMTOH
1070
     1
1070
     1
1002
{
1002
}
1000
DIMTAD
1070
     1
1070
     0
1002
{
1002
}
1000
DIMTOLJ
1070
     1
1070
     1
1002
{
1002
}
1000
M
1070
     0
1002
{
1002
}
1000
I
1070
     0
1002
{
1002
}
1002
}
1000
GEN-ANSI-POS
1070
     5
1002
{
1000
NAME
1070
     4
1000
GEN-ANSI-POS
1002
{
1002
}
1000
DIMTOLJ
1070
     1
1070
     1
1002
{
1002
}
1000
M
1070
     0
1002
{
1000
DIMASZ
1070
     2
1040
2.5
1002
{
1002
}
1000
DIMGAP
1070
     2
1040
1.5
1002
{
1002
}
1000
DIMTXT
1070
     2
1040
5.0
1002
{
1002
}
1002
}
1000
I
1070
     0
1002
{
1000
DIMASZ
1070
     2
1040
0.1
1002
{
1002
}
1000
DIMGAP
1070
     2
1040
0.06
1002
{
1002
}
1000
DIMTXT
1070
     2
1040
0.2
1002
{
1002
}
1002
}
1002
}
1000
GEN-ANSI-CIR
1070
     5
1002
{
1000
NAME
1070
     4
1000
GEN-ANSI$3
1002
{
1002
}
1000
DIMFIT
1070
     1
1070
     0
1002
{
1002
}
1000
DIMTAD
1070
     1
1070
     0
1002
{
1002
}
1000
DIMTIH
1070
     1
1070
     1
1002
{
1002
}
1000
DIMTIX
1070
     1
1070
     0
1002
{
1002
}
1000
DIMTOFL
1070
     1
1070
     0
1002
{
1002
}
1000
DIMTOH
1070
     1
1070
     1
1002
{
1002
}
1000
DIMTOLJ
1070
     1
1070
     1
1002
{
1002
}
1000
DIMUPT
1070
     1
1070
     1
1002
{
1002
}
1000
M
1070
     0
1002
{
1002
}
1000
I
1070
     0
1002
{
1002
}
1002
}
1000
GEN-ANSI-RAD
1070
     5
1002
{
1000
NAME
1070
     4
1000
GEN-ANSI$4
1002
{
1002
}
1000
DIMFIT
1070
     1
1070
     0
1002
{
1002
}
1000
DIMTAD
1070
     1
1070
     0
1002
{
1002
}
1000
DIMTIH
1070
     1
1070
     1
1002
{
1002
}
1000
DIMTIX
1070
     1
1070
     0
1002
{
1002
}
1000
DIMTOFL
1070
     1
1070
     0
1002
{
1002
}
1000
DIMTOH
1070
     1
1070
     1
1002
{
1002
}
1000
DIMTOLJ
1070
     1
1070
     1
1002
{
1002
}
1000
DIMUPT
1070
     1
1070
     1
1002
{
1002
}
1000
M
1070
     0
1002
{
1002
}
1000
I
1070
     0
1002
{
1002
}
1002
}
1000
GEN-ANSI-ORD
1070
     5
1002
{
1000
NAME
1070
     4
1000
GEN-ANSI$6
1002
{
1002
}
1000
DIMTAD
1070
     1
1070
     0
1002
{
1002
}
1000
DIMTIH
1070
     1
1070
     1
1002
{
1002
}
1000
DIMTOH
1070
     1
1070
     1
1002
{
1002
}
1000
DIMTOLJ
1070
     1
1070
     1
1002
{
1002
}
1000
M
1070
     0
1002
{
1002
}
1000
I
1070
     0
1002
{
1002
}
1002
}
1000
GEN-ANSI-AXE-F
1070
     5
1002
{
1000
NAME
1070
     4
1000
GEN-ANSI-AXE-F
1002
{
1002
}
1000
DIMBLK1
1070
     4
1000
GENAXEH
1002
{
1002
}
1000
DIMSAH
1070
     1
1070
     1
1002
{
1002
}
1000
DIMSE1
1070
     1
1070
     1
1002
{
1002
}
1000
DIMSE2
1070
     1
1070
     1
1002
{
1002
}
1000
DIMTAD
1070
     1
1070
     0
1002
{
1002
}
1000
DIMTIH
1070
     1
1070
     1
1002
{
1002
}
1000
DIMTOH
1070
     1
1070
     1
1002
{
1002
}
1000
DIMTOLJ
1070
     1
1070
     1
1002
{
1002
}
1000
M
1070
     0
1002
{
1002
}
1000
I
1070
     0
1002
{
1002
}
1002
}
1000
GEN-ANSI-AXE-H
1070
     5
1002
{
1000
NAME
1070
     4
1000
GEN-ANSI-AXE-H
1002
{
1002
}
1000
DIMBLK1
1070
     4
1000
GENAXEH
1002
{
1002
}
1000
DIMLFAC
1070
     2
1040
2.0
1002
{
1002
}
1000
DIMSAH
1070
     1
1070
     1
1002
{
1002
}
1000
DIMSE1
1070
     1
1070
     1
1002
{
1002
}
1000
DIMSE2
1070
     1
1070
     1
1002
{
1002
}
1000
DIMTAD
1070
     1
1070
     0
1002
{
1002
}
1000
DIMTOFL
1070
     1
1070
     1
1002
{
1002
}
1000
DIMTOLJ
1070
     1
1070
     1
1002
{
1002
}
1000
M
1070
     0
1002
{
1002
}
1000
I
1070
     0
1002
{
1002
}
1002
}
1002
}
1000
DimSet
1070
     0
1002
{
1000
ChainSum
1070
     3
1070
     0
1002
{
1002
}
1000
DimDclTyp0
1070
     4
1000
dim23
1002
{
1002
}
1000
HorBra
1070
     3
1070
     0
1002
{
1002
}
1000
StrDia
1070
     4
1000
%%c<>
1002
{
1002
}
1000
StrRad
1070
     4
1000
R<>
1002
{
1002
}
1000
TextMinus
1070
     4
1000
<>
1002
{
1002
}
1000
TextPlus
1070
     4
1000
<>
1002
{
1002
}
1000
M
1070
     0
1002
{
1000
DimdliFirst
1070
     2
1040
12.0
1002
{
1002
}
1000
PointMakeDist
1070
     2
1040
10.0
1002
{
1002
}
1002
}
1000
I
1070
     0
1002
{
1000
DimdliFirst
1070
     2
1040
0.5
1002
{
1002
}
1000
PointMakeDist
1070
     2
1040
0.5
1002
{
1002
}
1002
}
1000
ordinate
1070
     4
1000
JIS
1002
{
1002
}
1002
}
1000
Drawing
1070
     0
1002
{
1000
ChamferDim
1070
     3
1070
     0
1002
{
1002
}
1000
ChamferDimMode
1070
     1
1070
     2
1002
{
1002
}
1000
ChamferTrim
1070
     3
1070
     1
1002
{
1002
}
1000
Gen_Fiso
1070
    -3
1040
1.0
1002
{
1002
}
1000
GenDimStil
1070
     4
1000
ISO
1002
{
1002
}
1000
GenDwgUScale
1070
     2
1040
1.0
1002
{
1002
}
1000
GenInch
1070
     4
1000
M
1002
{
1002
}
1000
GenPlotScale
1070
     4
1000
1:6
1002
{
1002
}
1000
Revisi
1070
     4
1000
0
1002
{
1002
}
1000
Version
1070
    -5
1000
13.1/Jan 29 1997
1002
{
1002
}
1000
Platform
1070
    -5
1000
WINNT
1002
{
1002
}
1002
}
1000
DwgVar
1070
     0
1002
{
1000
M
1070
     0
1002
{
1002
}
1000
I
1070
     0
1002
{
1002
}
1002
}
1000
Hatch
1070
     0
1002
{
1000
GenHtcFlag
1070
     3
1070
     0
1002
{
1002
}
1002
}
1000
Info_Pos
1070
     0
1002
{
1000
DescrText
1070
     4
1000
5,6,7,8
1002
{
1002
}
1000
Attrib
1070
     0
1002
{
1000
0
1070
     6
1002
{
1000
Prompt
1070
     4
1000
(genmsg gendwg 103)
1002
{
1002
}
1000
Value
1070
     4
1000

1002
{
1002
}
1000
EditFlag
1070
     1
1070
     0
1002
{
1002
}
1002
}
1000
1
1070
     6
1002
{
1000
Prompt
1070
     4
1000
(genmsg gendwg 31)
1002
{
1002
}
1000
Value
1070
     4
1000
1
1002
{
1002
}
1000
EditFlag
1070
     1
1070
     1
1002
{
1002
}
1002
}
1000
2
1070
     6
1002
{
1000
Prompt
1070
     4
1000
(genmsg gendwg 32)
1002
{
1002
}
1000
Value
1070
     4
1000
1
1002
{
1002
}
1000
EditFlag
1070
     1
1070
     1
1002
{
1002
}
1002
}
1000
3
1070
     6
1002
{
1000
Prompt
1070
     4
1000
(genmsg gendwg 33)
1002
{
1002
}
1000
Value
1070
     4
1000

1002
{
1002
}
1000
EditFlag
1070
     1
1070
     1
1002
{
1002
}
1002
}
1000
4
1070
     6
1002
{
1000
Prompt
1070
     4
1000
(genmsg gendwg 34)
1002
{
1002
}
1000
Value
1070
     4
1000

1002
{
1002
}
1000
EditFlag
1070
     1
1070
     1
1002
{
1002
}
1002
}
1000
5
1070
     6
1002
{
1000
Prompt
1070
     4
1000
(genmsg gendwg 35)
1002
{
1002
}
1000
Value
1070
     4
1000

1002
{
1002
}
1000
EditFlag
1070
     1
1070
     1
1002
{
1002
}
1002
}
1000
6
1070
     6
1002
{
1000
Prompt
1070
     4
1000
(genmsg gendwg 36)
1002
{
1002
}
1000
Value
1070
     4
1000

1002
{
1002
}
1000
EditFlag
1070
     1
1070
     1
1002
{
1002
}
1002
}
1000
7
1070
     6
1002
{
1000
Prompt
1070
     4
1000
(genmsg gendwg 37)
1002
{
1002
}
1000
Value
1070
     4
1000

1002
{
1002
}
1000
EditFlag
1070
     1
1070
     1
1002
{
1002
}
1002
}
1000
8
1070
     6
1002
{
1000
Prompt
1070
     4
1000
(genmsg gendwg 38)
1002
{
1002
}
1000
Value
1070
     4
1000

1002
{
1002
}
1000
EditFlag
1070
     1
1070
     1
1002
{
1002
}
1002
}
1000
9
1070
     6
1002
{
1000
Prompt
1070
     4
1000
(genmsg gendwg 39)
1002
{
1002
}
1000
Value
1070
     4
1000

1002
{
1002
}
1000
EditFlag
1070
     1
1070
     1
1002
{
1002
}
1002
}
1000
10
1070
     6
1002
{
1000
Prompt
1070
     4
1000
(genmsg gendwg 40)
1002
{
1002
}
1000
Value
1070
     4
1000

1002
{
1002
}
1000
EditFlag
1070
     1
1070
     1
1002
{
1002
}
1002
}
1000
11
1070
     6
1002
{
1000
Prompt
1070
     4
1000
(genmsg gendwg 41)
1002
{
1002
}
1000
Value
1070
     4
1000

1002
{
1002
}
1000
EditFlag
1070
     1
1070
     1
1002
{
1002
}
1002
}
1000
12
1070
     6
1002
{
1000
Prompt
1070
     4
1000
(genmsg gendwg 42)
1002
{
1002
}
1000
Value
1070
     4
1000

1002
{
1002
}
1000
EditFlag
1070
     1
1070
     1
1002
{
1002
}
1002
}
1000
13
1070
     6
1002
{
1000
Prompt
1070
     4
1000
(genmsg gendwg 43)
1002
{
1002
}
1000
Value
1070
     4
1000

1002
{
1002
}
1000
EditFlag
1070
     1
1070
     1
1002
{
1002
}
1002
}
1000
14
1070
     6
1002
{
1000
Prompt
1070
     4
1000
(genmsg gendwg 44)
1002
{
1002
}
1000
Value
1070
     4
1000

1002
{
1002
}
1000
EditFlag
1070
     1
1070
     1
1002
{
1002
}
1002
}
1000
15
1070
     6
1002
{
1000
Prompt
1070
     4
1000
(genmsg gendwg 45)
1002
{
1002
}
1000
Value
1070
     4
1000

1002
{
1002
}
1000
EditFlag
1070
     1
1070
     1
1002
{
1002
}
1002
}
1000
16
1070
     6
1002
{
1000
Prompt
1070
     4
1000
(genmsg gendwg 46)
1002
{
1002
}
1000
Value
1070
     4
1000

1002
{
1002
}
1000
EditFlag
1070
     1
1070
     1
1002
{
1002
}
1002
}
1000
17
1070
     6
1002
{
1000
Prompt
1070
     4
1000
(genmsg gendwg 47)
1002
{
1002
}
1000
Value
1070
     4
1000

1002
{
1002
}
1000
EditFlag
1070
     1
1070
     1
1002
{
1002
}
1002
}
1000
18
1070
     6
1002
{
1000
Prompt
1070
     4
1000
(genmsg gendwg 48)
1002
{
1002
}
1000
Value
1070
     4
1000

1002
{
1002
}
1000
EditFlag
1070
     1
1070
     1
1002
{
1002
}
1002
}
1000
19
1070
     6
1002
{
1000
Prompt
1070
     4
1000
(genmsg gendwg 99)
1002
{
1002
}
1000
Value
1070
     4
1000

1002
{
1002
}
1000
EditFlag
1070
     1
1070
     1
1002
{
1002
}
1002
}
1000
20
1070
     6
1002
{
1000
Prompt
1070
     4
1000
(genmsg gendwg 100)
1002
{
1002
}
1000
Value
1070
     4
1000

1002
{
1002
}
1000
EditFlag
1070
     1
1070
     1
1002
{
1002
}
1002
}
1000
21
1070
     6
1002
{
1000
Prompt
1070
     4
1000
(genmsg gendwg 101)
1002
{
1002
}
1000
Value
1070
     4
1000

1002
{
1002
}
1000
EditFlag
1070
     1
1070
     1
1002
{
1002
}
1002
}
1000
22
1070
     6
1002
{
1000
Prompt
1070
     4
1000
(genmsg gendwg 102)
1002
{
1002
}
1000
Value
1070
     4
1000

1002
{
1002
}
1000
EditFlag
1070
     1
1070
     1
1002
{
1002
}
1002
}
1000
23
1070
     6
1002
{
1000
Prompt
1070
     4
1000
(genmsg gendwg 30)
1002
{
1002
}
1000
Value
1070
     4
1000

1002
{
1002
}
1000
EditFlag
1070
     1
1070
     1
1002
{
1002
}
1002
}
1000
24
1070
     6
1002
{
1000
Prompt
1070
     4
1000
(genmsg gendwg 104)
1002
{
1002
}
1000
Value
1070
     4
1000

1002
{
1002
}
1000
EditFlag
1070
     1
1070
     1
1002
{
1002
}
1002
}
1002
}
1000
Xlate
1070
     0
1002
{
1000
>
1002
}
1002
}
1000
Layer
1070
     7
1002
{
1000
Defs
1070
     0
1002
{
1000
>
1002
}
1000
EntSort
1070
     0
1002
{
1000
>
1002
}
1000
Match
1070
     0
1002
{
1002
}
1000
Settings
1070
     0
1002
{
1000
FocGrNC
1070
     3
1070
     0
1002
{
1002
}
1000
FocGrLo
1070
     3
1070
     0
1002
{
1002
}
1000
FocLoNC
1070
     3
1070
     0
1002
{
1002
}
1000
FocusCol
1070
     1
1070
   253
1002
{
1002
}
1000
GenStdLG
1070
     4
1000

1002
{
1002
}
1000
LayMatch
1070
     3
1070
     0
1002
{
1002
}
1000
LgOff
1070
     3
1070
     0
1002
{
1002
}
1000
CurLG
1070
    -5
1000

1002
{
1002
}
1002
}
1002
}
1000
LType
1070
     0
1002
{
1000
GEN3
1070
     8
1000
genius.lin
1002
{
1002
}
1000
GEN7
1070
     8
1000
genius.lin
1002
{
1002
}
1000
GEN4A
1070
     8
1000
genius.lin
1002
{
1002
}
1000
GEN3A
1070
     8
1000
genius.lin
1002
{
1002
}
1000
GEN7A
1070
     8
1000
genius.lin
1002
{
1002
}
1000
GENZIGZAG
1070
     8
1000
genius.lin
1002
{
1002
}
1002
}
1000
Objecter
1070
     0
1002
{
1000
CreateGroups
1070
     3
1070
     0
1002
{
1002
}
1000
LaySwitch
1070
     3
1070
     1
1002
{
1002
}
1000
LastObj
1070
    -5
1000
DD6
1002
{
1002
}
1002
}
1000
OSWiz
1070
     0
1002
{
1000
>
1002
}
1000
PaList
1070
     0
1002
{
1000
AutoUpdatePartList
1070
     3
1070
     0
1002
{
1002
}
1000
ReadInfoPoint
1070
     3
1070
     0
1002
{
1002
}
1000
ReadPosNr
1070
     3
1070
     1
1002
{
1002
}
1000
RevStr
1070
     4
1000
0
1002
{
1002
}
1002
}
1000
Paper
1070
     0
1002
{
1000
Layer
1070
    -5
1000
3,4A,8,6,7,5
1002
{
1002
}
1002
}
1000
PartDB
1070
     0
1002
{
1000
GenDbOwner
1070
     4
1000

1002
{
1002
}
1000
oang
1070
     2
1040
0.01
1002
{
1002
}
1000
Stang
1070
     2
1040
0.01
1002
{
1002
}
1002
}
1000
System
1070
     0
1002
{
1000
Menu
1070
     4
1000
GEV
1002
{
1002
}
1002
}
1000
Title
1070
     0
1002
{
1000
MakeView
1070
     1
1070
     2
1002
{
1002
}
1002
}
  0
APPID
  5
2D1
330
9
100
AcDbSymbolTableRecord
100
AcDbRegAppTableRecord
  2
GENIUS_GEVCFG0_13
 70
     0
1001
GENIUS_GENCFG_13
1071
893306154
1000
2D1
1000
GEV
1070
     1
1000
GenCfgObject
1000
System
1070
     0
1002
{
1002
}
1000
VED
1070
     0
1002
{
1002
}
  0
APPID
  5
348
330
9
100
AcDbSymbolTableRecord
100
AcDbRegAppTableRecord
  2
GEV_VCCNULL_SWITCH_OFF
 70
     0
  0
APPID
  5
349
330
9
100
AcDbSymbolTableRecord
100
AcDbRegAppTableRecord
  2
GENIUS_GENDTOL_13
 70
     0
  0
APPID
  5
380
330
9
100
AcDbSymbolTableRecord
100
AcDbRegAppTableRecord
  2
GENIUS_GENDREL_13
 70
     0
  0
APPID
  5
409
330
9
100
AcDbSymbolTableRecord
100
AcDbRegAppTableRecord
  2
GENIUS_GENOENT_13
 70
     0
  0
APPID
  5
D3B
330
9
100
AcDbSymbolTableRecord
100
AcDbRegAppTableRecord
  2
GENIUS_GENOBJ_13
 70
     0
  0
APPID
  5
D3C
330
9
100
AcDbSymbolTableRecord
100
AcDbRegAppTableRecord
  2
GENIUS_GENODEF_13
 70
     0
  0
APPID
  5
D3D
330
9
100
AcDbSymbolTableRecord
100
AcDbRegAppTableRecord
  2
GENIUS_GENOLIS_13
 70
     0
  0
APPID
  5
D3E
330
9
100
AcDbSymbolTableRecord
100
AcDbRegAppTableRecord
  2
GENIUS_GENOREF_13
 70
     0
  0
APPID
  5
D3F
330
9
100
AcDbSymbolTableRecord
100
AcDbRegAppTableRecord
  2
GENIUS_GENOBJ-N-TIT_13
 70
     0
  0
APPID
  5
D40
330
9
100
AcDbSymbolTableRecord
100
AcDbRegAppTableRecord
  2
GENIUS_GENTITLE_13
 70
     0
  0
APPID
  5
D41
330
9
100
AcDbSymbolTableRecord
100
AcDbRegAppTableRecord
  2
GENIUS_GENZVEED_13
 70
     0
  0
APPID
  5
D42
330
9
100
AcDbSymbolTableRecord
100
AcDbRegAppTableRecord
  2
GENIUS_GENOBJ-N-SDF_13
 70
     0
  0
APPID
  5
D43
330
9
100
AcDbSymbolTableRecord
100
AcDbRegAppTableRecord
  2
GENIUS_GENSCREG_13
 70
     0
  0
APPID
  5
D44
330
9
100
AcDbSymbolTableRecord
100
AcDbRegAppTableRecord
  2
GENIUS_GENOBJ-N-CRS_13
 70
     0
  0
APPID
  5
D45
330
9
100
AcDbSymbolTableRecord
100
AcDbRegAppTableRecord
  2
GENIUS_GENOBJ-N-CEN_13
 70
     0
  0
APPID
  5
D46
330
9
100
AcDbSymbolTableRecord
100
AcDbRegAppTableRecord
  2
GENIUS_GEFCFG0_13
 70
     0
1001
GENIUS_GENCFG_13
1071
889002489
1000
47B
1000
GEF
1070
     5
1000
GenCfgObject
1000
GenCfgString
1000
GenCfgReal
1000
GenCfgShort
1000
GenCfgBool
1000
System
1070
     0
1002
{
1002
}
1000
Prese
1070
     0
1002
{
1000
Funk
1070
     1
1000

1002
{
1002
}
1000
FunkDef
1070
     1
1000

1002
{
1002
}
1000
GefIso
1070
     1
1000
DIN
1002
{
1002
}
1002
}
1000
FEM
1070
     0
1002
{
1000
LayGroup
1070
     1
1000
FEM
1002
{
1002
}
1000
IncrCoef
1070
     2
1040
0.0
1002
{
1002
}
1002
}
1000
Shaft
1070
     0
1002
{
1000
Interrupt
1070
     3
1070
     0
1002
{
1002
}
1002
}
1000
PartDb
1070
     0
1002
{
1000
PartCreate
1070
     0
1002
{
1002
}
1002
}
1000
Symbol
1070
     0
1002
{
1000
WeldStyle
1070
     1
1000
JIS
1002
{
1002
}
1000
WeldSize
1070
     2
1040
1.0
1002
{
1002
}
1000
WeldFlag
1070
     4
1070
     1
1002
{
1002
}
1000
WeldOffset
1070
     4
1070
     1
1002
{
1002
}
1000
TolCType
1070
     1
1000
ISO
1002
{
1002
}
1000
TolCSize
1070
     2
1040
1.0
1002
{
1002
}
1000
STextureSize
1070
     2
1040
1.0
1002
{
1002
}
1000
SurfaceType
1070
     1
1000

1002
{
1002
}
1000
M
1070
     0
1002
{
1000
WeldWidth
1070
     2
1040
3.0
1002
{
1002
}
1002
}
1000
I
1070
     0
1002
{
1000
WeldWidth
1070
     2
1040
0.125
1002
{
1002
}
1002
}
1002
}
  0
APPID
  5
EBB
330
9
100
AcDbSymbolTableRecord
100
AcDbRegAppTableRecord
  2
MCAD_NO_VIS
 70
     0
  0
APPID
  5
EBC
330
9
100
AcDbSymbolTableRecord
100
AcDbRegAppTableRecord
  2
ACAD_TEMP_GRAPHIC
 70
     0
  0
APPID
  5
ECF
330
9
100
AcDbSymbolTableRecord
100
AcDbRegAppTableRecord
  2
ACATTRIBSERVICES
 70
     0
  0
APPID
  5
EDC
330
9
100
AcDbSymbolTableRecord
100
AcDbRegAppTableRecord
  2
GENIUS_GENBLLY_14
 70
     0
  0
APPID
  5
EDD
330
9
100
AcDbSymbolTableRecord
100
AcDbRegAppTableRecord
  2
GENIUS_GENTRA_14
 70
     0
  0
APPID
  5
EDE
330
9
100
AcDbSymbolTableRecord
100
AcDbRegAppTableRecord
  2
GENIUS_GENSCREG_15
 70
     0
  0
APPID
  5
EDF
330
9
100
AcDbSymbolTableRecord
100
AcDbRegAppTableRecord
  2
GEVID984623613
 70
     0
  0
APPID
  5
EE0
330
9
100
AcDbSymbolTableRecord
100
AcDbRegAppTableRecord
  2
GEVDC
 70
     0
  0
APPID
  5
EE1
330
9
100
AcDbSymbolTableRecord
100
AcDbRegAppTableRecord
  2
GEVCON
 70
     0
  0
APPID
  5
EE2
330
9
100
AcDbSymbolTableRecord
100
AcDbRegAppTableRecord
  2
GENIUS_GENBH_13
 70
     0
  0
APPID
  5
EE3
330
9
100
AcDbSymbolTableRecord
100
AcDbRegAppTableRecord
  2
GENIUS_GENOBJ-NBEHI-BHF_13
 70
     0
  0
APPID
  5
EE4
330
9
100
AcDbSymbolTableRecord
100
AcDbRegAppTableRecord
  2
GENIUS_GENOBJ-NBEHI-BHB_13
 70
     0
  0
APPID
  5
EE5
330
9
100
AcDbSymbolTableRecord
100
AcDbRegAppTableRecord
  2
GENIUS_GENOBJ-F-SCPASSM_13
 70
     0
  0
APPID
  5
EE6
330
9
100
AcDbSymbolTableRecord
100
AcDbRegAppTableRecord
  2
GEVID984623614
 70
     0
  0
APPID
  5
EE7
330
9
100
AcDbSymbolTableRecord
100
AcDbRegAppTableRecord
  2
GEVID984623615
 70
     0
  0
APPID
  5
EE8
330
9
100
AcDbSymbolTableRecord
100
AcDbRegAppTableRecord
  2
GENIUS_GENOBJ-N-REV_13
 70
     0
  0
APPID
  5
EE9
330
9
100
AcDbSymbolTableRecord
100
AcDbRegAppTableRecord
  2
GENIUS_GENOBJ-N-RSSYM_13
 70
     0
  0
APPID
  5
EEA
330
9
100
AcDbSymbolTableRecord
100
AcDbRegAppTableRecord
  2
GENIUS_GENSYMENT_13
 70
     0
  0
APPID
  5
EEB
330
9
100
AcDbSymbolTableRecord
100
AcDbRegAppTableRecord
  2
GENIUS_GENSCSYM_13
 70
     0
  0
APPID
  5
F7D
330
9
100
AcDbSymbolTableRecord
100
AcDbRegAppTableRecord
  2
AD_DRAW
 70
     0
  0
APPID
  5
F9B
330
9
100
AcDbSymbolTableRecord
100
AcDbRegAppTableRecord
  2
DESIGNERASSEMBLIES
 70
     0
  0
APPID
  5
FAB
330
9
100
AcDbSymbolTableRecord
100
AcDbRegAppTableRecord
  2
ACADM_DIM_EDIT
 70
     0
  0
APPID
  5
FAC
330
9
100
AcDbSymbolTableRecord
100
AcDbRegAppTableRecord
  2
AMDT_DM_ADJ
 70
     0
  0
APPID
  5
112D
330
9
100
AcDbSymbolTableRecord
100
AcDbRegAppTableRecord
  2
GENIUS_GENOBJ-N-FIL_13
 70
     0
  0
APPID
  5
122B
330
9
100
AcDbSymbolTableRecord
100
AcDbRegAppTableRecord
  2
GENIUS_AMGTXT_16
 70
     0
  0
APPID
  5
13CD
330
9
100
AcDbSymbolTableRecord
100
AcDbRegAppTableRecord
  2
DCO15
 70
     0
  0
ENDTAB
  0
TABLE
  2
DIMSTYLE
  5
A
330
0
100
AcDbSymbolTable
 70
    16
100
AcDbDimStyleTable
 71
     0
  0
DIMSTYLE
105
285
330
A
100
AcDbSymbolTableRecord
100
AcDbDimStyleTableRecord
  2
STANDARD
 70
     0
340
10
  0
DIMSTYLE
105
28E
102
{ACAD_REACTORS
330
32E
330
365
330
3BF
330
421
330
467
330
48D
330
4A9
330
500
330
55F
102
}
330
A
100
AcDbSymbolTableRecord
100
AcDbDimStyleTableRecord
  2
GEN-ISO
 70
     0
 40
6.0
 41
2.5
 42
1.0
 43
10.0
 44
1.0
 47
0.1
 48
0.1
 73
     0
 74
     0
 77
     1
 78
     8
140
3.5
141
0.0
143
0.0393701
146
0.71
147
1.5
172
     1
176
   256
177
   256
178
   250
271
     2
272
     3
274
     4
283
     0
340
10
  0
DIMSTYLE
105
F2D
330
A
100
AcDbSymbolTableRecord
100
AcDbDimStyleTableRecord
  2
AM_ISO
 70
     0
  4
"
 41
2.5
 42
1.0
 43
10.0
 44
1.0
 47
0.1
 48
0.1
 73
     0
 74
     0
 77
     1
 78
     8
 79
     2
140
3.5
141
0.0
143
0.0393701
146
0.71
147
1.5
172
     1
176
   256
177
   256
178
     2
271
     2
272
     3
274
     4
283
     0
284
     8
340
10
371
    -1
372
    -1
  0
DIMSTYLE
105
F2E
330
A
100
AcDbSymbolTableRecord
100
AcDbDimStyleTableRecord
  2
AM_ISO$3
 70
     0
  4
"
 41
2.5
 42
1.0
 43
10.0
 44
1.0
 47
0.1
 48
0.1
 73
     0
 77
     1
 78
     8
 79
     2
140
3.5
141
0.0
143
0.0393701
146
0.71
147
1.5
176
   256
177
   256
178
     2
271
     2
272
     3
274
     4
283
     0
284
     8
288
     1
289
     0
340
10
371
    -1
372
    -1
  0
DIMSTYLE
105
F2F
330
A
100
AcDbSymbolTableRecord
100
AcDbDimStyleTableRecord
  2
AM_ISO$4
 70
     0
  4
"
 41
2.5
 42
1.0
 43
10.0
 44
1.0
 47
0.1
 48
0.1
 73
     0
 77
     1
 78
     8
 79
     2
140
3.5
141
0.0
143
0.0393701
146
0.71
147
1.5
176
   256
177
   256
178
     2
271
     2
272
     3
274
     4
283
     0
284
     8
288
     1
289
     0
340
10
371
    -1
372
    -1
  0
DIMSTYLE
105
F30
330
A
100
AcDbSymbolTableRecord
100
AcDbDimStyleTableRecord
  2
AM_ISO$6
 70
     0
  4
"
 41
2.5
 42
1.0
 43
10.0
 44
1.0
 47
0.1
 48
0.1
 73
     0
 74
     0
 78
     8
 79
     2
140
3.5
141
0.0
143
0.0393701
146
0.71
147
1.5
172
     1
176
   256
177
   256
178
     2
271
     2
272
     3
274
     4
283
     0
284
     8
340
10
371
    -1
372
    -1
  0
DIMSTYLE
105
F31
330
A
100
AcDbSymbolTableRecord
100
AcDbDimStyleTableRecord
  2
AM_ISO$7
 70
     0
  4
"
 41
2.5
 42
1.0
 43
10.0
 44
1.0
 47
0.1
 48
0.1
 73
     0
 74
     0
 77
     1
 78
     8
 79
     2
140
5.0
141
0.0
143
0.0393701
146
0.71
147
1.5
172
     1
176
   256
177
   256
178
     2
271
     2
272
     3
274
     4
283
     0
284
     8
340
10
371
    -1
372
    -1
  0
DIMSTYLE
105
F32
330
A
100
AcDbSymbolTableRecord
100
AcDbDimStyleTableRecord
  2
AM_ISO$SF
 70
     0
  4
"
 41
2.5
 42
1.0
 43
10.0
 44
1.0
 47
0.1
 48
0.1
 73
     0
 74
     0
 75
     1
 76
     1
 77
     1
 78
     8
 79
     2
140
3.5
141
0.0
143
0.0393701
146
0.71
147
1.5
172
     1
176
   256
177
   256
178
     2
271
     2
272
     3
274
     4
283
     0
284
     8
340
10
371
    -1
372
    -1
  0
DIMSTYLE
105
F33
330
A
100
AcDbSymbolTableRecord
100
AcDbDimStyleTableRecord
  2
AM_ISO$SH
 70
     0
  4
"
 41
2.5
 42
1.0
 43
10.0
 44
1.0
 47
0.1
 48
0.1
 73
     0
 74
     0
 75
     1
 76
     1
 77
     1
 78
     8
 79
     2
140
3.5
141
0.0
143
0.0393701
144
2.0
146
0.71
147
1.5
172
     1
173
     1
176
   256
177
   256
178
     2
271
     2
272
     3
274
     4
283
     0
284
     8
340
10
343
F16
371
    -1
372
    -1
  0
DIMSTYLE
105
1066
330
A
100
AcDbSymbolTableRecord
100
AcDbDimStyleTableRecord
  2
IGS
 70
     0
  4
"
 41
2.5
 42
1.0
 43
10.0
 44
1.0
 47
0.1
 48
0.1
 73
     0
 74
     0
 77
     3
 78
     8
 79
     2
140
4.5
141
0.0
143
0.0393701
146
0.71
147
1.5
172
     1
176
   256
177
   256
178
     2
271
     2
272
     2
283
     0
284
     8
340
10
341
1050
342
1050
371
    -1
372
    -1
  0
DIMSTYLE
105
1067
330
A
100
AcDbSymbolTableRecord
100
AcDbDimStyleTableRecord
  2
IGS$3
 70
     0
  4
"
 41
2.5
 42
1.0
 43
10.0
 44
1.0
 47
0.1
 48
0.1
 73
     0
 77
     3
 78
     8
 79
     2
140
4.5
141
0.0
143
0.0393701
146
0.71
147
1.5
176
   256
177
   256
178
     2
271
     2
272
     2
283
     0
284
     8
288
     1
289
     0
340
10
341
1050
342
1050
371
    -1
372
    -1
  0
DIMSTYLE
105
1068
330
A
100
AcDbSymbolTableRecord
100
AcDbDimStyleTableRecord
  2
IGS$4
 70
     0
  4
"
 41
2.5
 42
1.0
 43
10.0
 44
1.0
 47
0.1
 48
0.1
 73
     0
 77
     3
 78
     8
 79
     2
140
4.5
141
0.0
143
0.0393701
146
0.71
147
1.5
176
   256
177
   256
178
     2
271
     2
272
     2
283
     0
284
     8
288
     1
289
     0
340
10
341
1050
342
1050
371
    -1
372
    -1
  0
DIMSTYLE
105
1069
330
A
100
AcDbSymbolTableRecord
100
AcDbDimStyleTableRecord
  2
IGS$6
 70
     0
  4
"
 41
2.5
 42
1.0
 43
10.0
 44
1.0
 47
0.1
 48
0.1
 73
     0
 74
     0
 78
     8
 79
     2
140
4.5
141
0.0
143
0.0393701
146
0.71
147
1.5
172
     1
176
   256
177
   256
178
     2
271
     2
272
     2
283
     0
284
     8
340
10
341
1050
342
1050
371
    -1
372
    -1
  0
DIMSTYLE
105
106A
330
A
100
AcDbSymbolTableRecord
100
AcDbDimStyleTableRecord
  2
IGS$7
 70
     0
  4
"
 41
2.5
 42
1.0
 43
10.0
 44
1.0
 47
0.1
 48
0.1
 73
     0
 74
     0
 77
     3
 78
     8
 79
     2
140
5.0
141
0.0
143
0.0393701
146
0.71
147
1.5
172
     1
176
   256
177
   256
178
     2
271
     2
272
     2
283
     0
284
     8
340
10
341
1050
342
1050
371
    -1
372
    -1
  0
DIMSTYLE
105
106B
330
A
100
AcDbSymbolTableRecord
100
AcDbDimStyleTableRecord
  2
IGS$SF
 70
     0
  4
"
 41
2.5
 42
1.0
 43
10.0
 44
1.0
 47
0.1
 48
0.1
 73
     0
 74
     0
 75
     1
 76
     1
 77
     3
 78
     8
 79
     2
140
3.5
141
0.0
143
0.0393701
146
0.71
147
1.5
172
     1
176
   256
177
   256
178
     2
271
     2
272
     3
274
     4
283
     0
284
     8
340
10
341
1050
342
1050
343
1050
344
1050
371
    -1
372
    -1
  0
DIMSTYLE
105
106C
330
A
100
AcDbSymbolTableRecord
100
AcDbDimStyleTableRecord
  2
IGS$SH
 70
     0
  4
"
 41
2.5
 42
1.0
 43
10.0
 44
1.0
 47
0.1
 48
0.1
 73
     0
 74
     0
 75
     1
 76
     1
 77
     3
 78
     8
 79
     2
140
3.5
141
0.0
143
0.0393701
144
2.0
146
0.71
147
1.5
172
     1
173
     1
176
   256
177
   256
178
     2
271
     2
272
     3
274
     4
283
     0
284
     8
340
10
341
1050
342
1050
343
F16
344
1050
371
    -1
372
    -1
  0
ENDTAB
  0
TABLE
  2
BLOCK_RECORD
  5
1
330
0
100
AcDbSymbolTable
 70
    21
  0
BLOCK_RECORD
  5
19
102
{ACAD_XDICTIONARY
360
F3C
102
}
330
1
100
AcDbSymbolTableRecord
100
AcDbBlockTableRecord
  2
*MODEL_SPACE
340
EB5
  0
BLOCK_RECORD
  5
16
330
1
100
AcDbSymbolTableRecord
100
AcDbBlockTableRecord
  2
*PAPER_SPACE
340
EB6
  0
BLOCK_RECORD
  5
2D
330
1
100
AcDbSymbolTableRecord
100
AcDbBlockTableRecord
  2
MAKR0
340
0
102
{BLKREFS
331
112
102
}
  0
BLOCK_RECORD
  5
32
330
1
100
AcDbSymbolTableRecord
100
AcDbBlockTableRecord
  2
MAKR1
340
0
102
{BLKREFS
331
113
102
}
  0
BLOCK_RECORD
  5
37
330
1
100
AcDbSymbolTableRecord
100
AcDbBlockTableRecord
  2
MAKR2
340
0
102
{BLKREFS
331
114
102
}
  0
BLOCK_RECORD
  5
3C
330
1
100
AcDbSymbolTableRecord
100
AcDbBlockTableRecord
  2
BALN0
340
0
  0
BLOCK_RECORD
  5
43
330
1
100
AcDbSymbolTableRecord
100
AcDbBlockTableRecord
  2
BALN1
340
0
  0
BLOCK_RECORD
  5
DB
330
1
100
AcDbSymbolTableRecord
100
AcDbBlockTableRecord
  2
BALN2
340
0
  0
BLOCK_RECORD
  5
322
330
1
100
AcDbSymbolTableRecord
100
AcDbBlockTableRecord
  2
*D6
340
0
  0
BLOCK_RECORD
  5
357
330
1
100
AcDbSymbolTableRecord
100
AcDbBlockTableRecord
  2
*D7
340
0
  0
BLOCK_RECORD
  5
3B3
330
1
100
AcDbSymbolTableRecord
100
AcDbBlockTableRecord
  2
*D8
340
0
  0
BLOCK_RECORD
  5
413
330
1
100
AcDbSymbolTableRecord
100
AcDbBlockTableRecord
  2
*D9
340
0
  0
BLOCK_RECORD
  5
459
330
1
100
AcDbSymbolTableRecord
100
AcDbBlockTableRecord
  2
*D10
340
0
  0
BLOCK_RECORD
  5
47F
330
1
100
AcDbSymbolTableRecord
100
AcDbBlockTableRecord
  2
*D11
340
0
  0
BLOCK_RECORD
  5
49D
330
1
100
AcDbSymbolTableRecord
100
AcDbBlockTableRecord
  2
*D12
340
0
  0
BLOCK_RECORD
  5
4F2
330
1
100
AcDbSymbolTableRecord
100
AcDbBlockTableRecord
  2
*D13
340
0
  0
BLOCK_RECORD
  5
553
330
1
100
AcDbSymbolTableRecord
100
AcDbBlockTableRecord
  2
*D14
340
0
  0
BLOCK_RECORD
  5
C2A
330
1
100
AcDbSymbolTableRecord
100
AcDbBlockTableRecord
  2
IGS_A3-T
340
0
102
{BLKREFS
331
C35
102
}
  0
BLOCK_RECORD
  5
D47
330
1
100
AcDbSymbolTableRecord
100
AcDbBlockTableRecord
  2
IGS-TITLE-NO2
340
0
102
{BLKREFS
331
DCD
102
}
  0
BLOCK_RECORD
  5
F16
330
1
100
AcDbSymbolTableRecord
100
AcDbBlockTableRecord
  2
GENAXEH
340
0
  0
BLOCK_RECORD
  5
1050
102
{ACAD_XDICTIONARY
360
113A
102
}
330
1
100
AcDbSymbolTableRecord
100
AcDbBlockTableRecord
  2
_Open30
340
0
  0
BLOCK_RECORD
  5
1056
330
1
100
AcDbSymbolTableRecord
100
AcDbBlockTableRecord
  2
NAKAMURA
340
0
310
2800000020000000200000000100080000000000000400000000000000000000000000000000000000000000000080000080000000808000800000008000800080800000C0C0C000C0DCC000F0CAA6000020400000206000002080000020A0000020C0000020E00000400000004020000040400000406000004080000040A0
310
000040C0000040E00000600000006020000060400000606000006080000060A0000060C0000060E00000800000008020000080400000806000008080000080A0000080C0000080E00000A0000000A0200000A0400000A0600000A0800000A0A00000A0C00000A0E00000C0000000C0200000C0400000C0600000C0800000C0
310
A00000C0C00000C0E00000E0000000E0200000E0400000E0600000E0800000E0A00000E0C00000E0E00040000000400020004000400040006000400080004000A0004000C0004000E00040200000402020004020400040206000402080004020A0004020C0004020E000404000004040200040404000404060004040800040
310
40A0004040C0004040E00040600000406020004060400040606000406080004060A0004060C0004060E00040800000408020004080400040806000408080004080A0004080C0004080E00040A0000040A0200040A0400040A0600040A0800040A0A00040A0C00040A0E00040C0000040C0200040C0400040C0600040C08000
310
40C0A00040C0C00040C0E00040E0000040E0200040E0400040E0600040E0800040E0A00040E0C00040E0E00080000000800020008000400080006000800080008000A0008000C0008000E00080200000802020008020400080206000802080008020A0008020C0008020E00080400000804020008040400080406000804080
310
008040A0008040C0008040E00080600000806020008060400080606000806080008060A0008060C0008060E00080800000808020008080400080806000808080008080A0008080C0008080E00080A0000080A0200080A0400080A0600080A0800080A0A00080A0C00080A0E00080C0000080C0200080C0400080C0600080C0
310
800080C0A00080C0C00080C0E00080E0000080E0200080E0400080E0600080E0800080E0A00080E0C00080E0E000C0000000C0002000C0004000C0006000C0008000C000A000C000C000C000E000C0200000C0202000C0204000C0206000C0208000C020A000C020C000C020E000C0400000C0402000C0404000C0406000C0
310
408000C040A000C040C000C040E000C0600000C0602000C0604000C0606000C0608000C060A000C060C000C060E000C0800000C0802000C0804000C0806000C0808000C080A000C080C000C080E000C0A00000C0A02000C0A04000C0A06000C0A08000C0A0A000C0A0C000C0A0E000C0C00000C0C02000C0C04000C0C06000
310
C0C08000C0C0A000F0FBFF00A4A0A000808080000000FF0000FF000000FFFF00FF000000FF00FF00FFFF0000FFFFFF000000000000000000000000000000000000000000000000000000000000000000000000000000000000000000000000FFFFFF000000000000000000000000000000000000000000000000FFFFFFFFFF
310
000000FFFF0000000000000000000000000000000000000000FFFF00000000000000000000FFFFFF00000000000000000000000000000000FF00000000FF0000000000FF00FFFF00FFFF00000000000000000000000000FF0000000000FF0000000000FF0000FF000000FF0000000000000000000000FF000000FFFFFFFFFF
310
FF00FF00FF00FFFF00000000FF000000000000000000FF00000000FF0000FF00FF0000FFFFFFFFFF0000000000FF0000000000000000FF00000000FF0000FF00FF0000FFFFFFFFFF0000000000FF00000000000000FF0000000000FF0000FF00FF00FFFFFFFFFFFFFF0000000000FF000000000000FF0000000000FFFFFFFF
310
FFFF000000FF0000FF00000000000000FF00000000FF000000000000000000FF0000000000FF0000FF00000000000000FF00000000FFFFFFFFFFFFFFFFFFFFFFFFFFFFFFFFFFFFFFFFFFFFFFFFFFFFFFFF00000000FF0000000000000000000000000000000000000000000000000000FF000000FF00000000000000000000
310
000000000000000000000000000000000000FF0000FF00000000000000000000000000000000000000000000000000000000FF0000FF00000000000000000000000000000000000000000000000000000000FF0000FF00000000000000000000000000000000000000000000000000000000FF000000FF0000000000000000
310
000000000000000000000000000000000000FF00000000FF0000000000000000000000000000000000000000000000000000FF00000000FF0000000000000000000000000000000000000000000000000000FF0000000000FF00000000000000000000000000000000000000000000000000FF0000000000FFFFFFFFFFFFFF
310
FFFFFFFFFFFFFFFFFFFFFFFFFFFFFFFFFFFFFF00000000000000FF000000000000FFFF00FFFF00FFFF00FF000000000000FF0000000000000000FF000000000000FF00FFFF0000FFFF00FF000000000000FF000000000000000000FF00000000FFFF00FFFF0000FFFFFFFF0000000000FF0000000000000000000000FF0000
310
0000FFFFFF00FFFFFFFFFFFF00000000FF00000000000000000000000000FF0000FFFFFFFFFFFF00FFFFFFFFFF00FFFF000000000000000000000000000000FFFF00FFFFFFFFFFFFFFFFFFFFFFFF00000000000000000000000000000000000000FFFFFFFFFF0000FFFFFFFF00000000000000000000000000000000000000
310
00000000000000FFFFFF00000000000000000000000000000000000000000000000000000000000000000000000000000000000000000000
1001
ACAD
1000
DesignCenter Data
1002
{
1070
     1
1070
     4
1002
}
  0
ENDTAB
  0
ENDSEC
  0
SECTION
  2
BLOCKS
  0
BLOCK
  5
1A
330
19
100
AcDbEntity
  8
0
100
AcDbBlockBegin
  2
*MODEL_SPACE
 70
     0
 10
0.0
 20
0.0
 30
0.0
  3
*MODEL_SPACE
  1

  0
ENDBLK
  5
1B
330
19
100
AcDbEntity
  8
0
100
AcDbBlockEnd
  0
BLOCK
  5
17
330
16
100
AcDbEntity
 67
     1
  8
0
100
AcDbBlockBegin
  2
*PAPER_SPACE
 70
     0
 10
0.0
 20
0.0
 30
0.0
  3
*PAPER_SPACE
  1

  0
ENDBLK
  5
18
330
16
100
AcDbEntity
 67
     1
  8
0
100
AcDbBlockEnd
  0
BLOCK
  5
2E
330
2D
100
AcDbEntity
  8
0
100
AcDbBlockBegin
  2
MAKR0
 70
     0
 10
474.5546032491
 20
921.5379039091999
 30
0.0
  3
MAKR0
  1

  0
CIRCLE
  5
2F
330
2D
100
AcDbEntity
  8
1
  6
ByBlock
 62
     7
100
AcDbCircle
 10
474.5546032491
 20
921.5379039091999
 30
0.0
 40
18.0
  0
TEXT
  5
30
330
2D
100
AcDbEntity
  8
1
  6
Continuous
 62
     7
100
AcDbText
 10
465.554603
 20
909.5379039999999
 30
0.0
 40
24.0
  1
１
 41
1.25
 72
     5
 11
483.554603
 21
909.5379039999999
 31
0.0
100
AcDbText
  0
ENDBLK
  5
31
330
2D
100
AcDbEntity
  8
0
100
AcDbBlockEnd
  0
BLOCK
  5
33
330
32
100
AcDbEntity
  8
0
100
AcDbBlockBegin
  2
MAKR1
 70
     0
 10
474.5546032491
 20
879.5379039091999
 30
0.0
  3
MAKR1
  1

  0
CIRCLE
  5
34
330
32
100
AcDbEntity
  8
1
  6
ByBlock
 62
     7
100
AcDbCircle
 10
474.5546032491
 20
879.5379039091999
 30
0.0
 40
18.0
  0
TEXT
  5
35
330
32
100
AcDbEntity
  8
1
  6
Continuous
 62
     7
100
AcDbText
 10
465.554603
 20
867.5379039999999
 30
0.0
 40
24.0
  1
２
 41
1.022727272727272
 72
     5
 11
483.554603
 21
867.5379039999999
 31
0.0
100
AcDbText
  0
ENDBLK
  5
36
330
32
100
AcDbEntity
  8
0
100
AcDbBlockEnd
  0
BLOCK
  5
38
330
37
100
AcDbEntity
  8
0
100
AcDbBlockBegin
  2
MAKR2
 70
     0
 10
474.5546032491
 20
837.5379039091999
 30
0.0
  3
MAKR2
  1

  0
CIRCLE
  5
39
330
37
100
AcDbEntity
  8
1
  6
ByBlock
 62
     7
100
AcDbCircle
 10
474.5546032491
 20
837.5379039091999
 30
0.0
 40
18.0
  0
TEXT
  5
3A
330
37
100
AcDbEntity
  8
1
  6
Continuous
 62
     7
100
AcDbText
 10
465.554603
 20
825.5379040000001
 30
0.0
 40
24.0
  1
３
 41
1.022727272727272
 72
     5
 11
483.554603
 21
825.5379040000001
 31
0.0
100
AcDbText
  0
ENDBLK
  5
3B
330
37
100
AcDbEntity
  8
0
100
AcDbBlockEnd
  0
BLOCK
  5
3D
330
3C
100
AcDbEntity
  8
0
100
AcDbBlockBegin
  2
BALN0
 70
     0
 10
-12.5997143046
 20
470.9929378133999
 30
0.0
  3
BALN0
  1

  0
SOLID
  5
3E
330
3C
100
AcDbEntity
  8
1
  6
Continuous
 62
     7
100
AcDbTrace
 10
-24.407307543
 20
473.1332045997
 30
0.0
 11
-21.7552566135
 21
478.7502598404
 31
0.0
 12
-12.5997143046
 22
470.9929378133999
 32
0.0
 13
-12.5997143046
 23
470.9929378133999
 33
0.0
  0
LINE
  5
3F
330
3C
100
AcDbEntity
  8
1
  6
ByBlock
 62
     7
100
AcDbLine
 10
-12.5997143046
 20
470.9929378133999
 30
0.0
 11
-162.3912470645
 21
541.7158979175
 31
0.0
  0
CIRCLE
  5
40
330
3C
100
AcDbEntity
  8
1
  6
ByBlock
 62
     7
100
AcDbCircle
 10
-189.519540688
 20
554.5243203448999
 30
0.0
 40
30.0
  0
TEXT
  5
41
330
3C
100
AcDbEntity
  8
1
  6
Continuous
 62
     7
100
AcDbText
 10
-204.519541
 20
536.52432
 30
0.0
 40
36.0
  1
１
 41
1.388888888888888
 72
     5
 11
-174.519541
 21
536.52432
 31
0.0
100
AcDbText
  0
ENDBLK
  5
42
330
3C
100
AcDbEntity
  8
0
100
AcDbBlockEnd
  0
BLOCK
  5
44
330
43
100
AcDbEntity
  8
0
100
AcDbBlockBegin
  2
BALN1
 70
     0
 10
-82.03622719489999
 20
117.3486596528
 30
0.0
  3
BALN1
  1

  0
SOLID
  5
45
330
43
100
AcDbEntity
  8
1
  6
Continuous
 62
     7
100
AcDbTrace
 10
-87.26897616549999
 20
106.54966256
 30
0.0
 11
-91.9674192815
 21
110.6128283203
 31
0.0
 12
-82.03622719489999
 22
117.3486596528
 32
0.0
 13
-82.03622719489999
 23
117.3486596528
 33
0.0
  0
LINE
  5
46
330
43
100
AcDbEntity
  8
1
  6
ByBlock
 62
     7
100
AcDbLine
 10
-82.03622719489999
 20
117.3486596528
 30
0.0
 11
-169.8959569661
 21
15.7520310957
 31
0.0
  0
CIRCLE
  5
47
330
43
100
AcDbEntity
  8
1
  6
ByBlock
 62
     7
100
AcDbCircle
 10
-189.519540688
 20
-6.9397066498
 30
0.0
 40
30.0
  0
TEXT
  5
48
330
43
100
AcDbEntity
  8
1
  6
Continuous
 62
     7
100
AcDbText
 10
-204.519541
 20
-24.939707
 30
0.0
 40
36.0
  1
３
 41
1.136363636363636
 72
     5
 11
-174.519541
 21
-24.939707
 31
0.0
100
AcDbText
  0
ENDBLK
  5
49
330
43
100
AcDbEntity
  8
0
100
AcDbBlockEnd
  0
BLOCK
  5
DC
330
DB
100
AcDbEntity
  8
0
100
AcDbBlockBegin
  2
BALN2
 70
     0
 10
1130.7862903226
 20
-769.6569564211
 30
0.0
  3
BALN2
  1

  0
SOLID
  5
DD
330
DB
100
AcDbEntity
  8
1
  6
Continuous
 62
     7
100
AcDbTrace
 10
1140.8109464762
 20
-776.252884635
 30
0.0
 11
1136.1699331089
 21
-780.3815258927
 31
0.0
 12
1130.7862903226
 22
-769.6569564211
 32
0.0
 13
1130.7862903226
 23
-769.6569564211
 33
0.0
  0
LINE
  5
DE
330
DB
100
AcDbEntity
  8
1
  6
ByBlock
 62
     7
100
AcDbLine
 10
1130.7862903226
 20
-769.6569564211
 30
0.0
 11
1191.1523152418
 21
-837.5145180485001
 31
0.0
  0
CIRCLE
  5
DF
330
DB
100
AcDbEntity
  8
1
  6
ByBlock
 62
     7
100
AcDbCircle
 10
1211.0921213332
 20
-859.9288914066001
 30
0.0
 40
30.0
  0
TEXT
  5
E0
330
DB
100
AcDbEntity
  8
1
  6
Continuous
 62
     7
100
AcDbText
 10
1196.092121
 20
-877.928891
 30
0.0
 40
36.0
  1
２
 41
1.136363636363636
 72
     5
 11
1226.092121
 21
-877.928891
 31
0.0
100
AcDbText
  0
ENDBLK
  5
E1
330
DB
100
AcDbEntity
  8
0
100
AcDbBlockEnd
  0
BLOCK
  5
DD7
330
322
100
AcDbEntity
  8
0
100
AcDbBlockBegin
  2
*D6
 70
     1
 10
0.0
 20
0.0
 30
0.0
  3
*D6
  1

  0
LINE
  5
1009
330
322
100
AcDbEntity
  8
5
370
    -2
100
AcDbLine
 10
214.4485990336625
 20
423.3452038824848
 30
0.0
 11
142.4485990336625
 21
423.3452038824848
 31
0.0
  0
LINE
  5
100A
330
322
100
AcDbEntity
  8
5
370
    -2
100
AcDbLine
 10
217.3462393138625
 20
303.3452038824848
 30
0.0
 11
142.4485990336625
 21
303.3452038824848
 31
0.0
  0
LINE
  5
100B
330
322
100
AcDbEntity
  8
5
370
    -2
100
AcDbLine
 10
148.4485990336625
 20
408.3452038824848
 30
0.0
 11
148.4485990336625
 21
318.3452038824849
 31
0.0
  0
SOLID
  5
100C
330
322
100
AcDbEntity
  8
5
100
AcDbTrace
 10
145.9485990336625
 20
408.3452038824848
 30
0.0
 11
150.9485990336625
 21
408.3452038824848
 31
0.0
 12
148.4485990336625
 22
423.3452038824848
 32
0.0
 13
148.4485990336625
 23
423.3452038824848
 33
0.0
  0
SOLID
  5
100D
330
322
100
AcDbEntity
  8
5
100
AcDbTrace
 10
145.9485990336625
 20
318.3452038824849
 30
0.0
 11
150.9485990336625
 21
318.3452038824849
 31
0.0
 12
148.4485990336625
 22
303.3452038824848
 32
0.0
 13
148.4485990336625
 23
303.3452038824848
 33
0.0
  0
MTEXT
  5
100E
330
322
100
AcDbEntity
  8
5
 62
     2
100
AcDbMText
 10
128.9465321045286
 20
363.3452038824849
 30
0.0
 40
21.0
 41
0.0
 71
     5
 72
     1
  1
120
 11
0.0000000000000001
 21
1.0
 31
0.0
 73
     1
 44
1.0
1001
ACAD
1000
MTEXTBEGIN
1070
    73
1070
     1
1070
    44
1040
1.0
1070
    74
1070
     0
1000
MTEXTEND
  0
POINT
  5
100F
330
322
100
AcDbEntity
  8
DEFPOINTS
 62
     0
100
AcDbPoint
 10
220.4485990336625
 20
423.3452038824848
 30
0.0
  0
POINT
  5
1010
330
322
100
AcDbEntity
  8
DEFPOINTS
 62
     0
100
AcDbPoint
 10
223.3462393138625
 20
303.3452038824848
 30
0.0
  0
POINT
  5
1011
330
322
100
AcDbEntity
  8
DEFPOINTS
 62
     0
100
AcDbPoint
 10
148.4485990336625
 20
303.3452038824848
 30
0.0
  0
ENDBLK
  5
DE1
330
322
100
AcDbEntity
  8
0
100
AcDbBlockEnd
  0
BLOCK
  5
DE2
330
357
100
AcDbEntity
  8
0
100
AcDbBlockBegin
  2
*D7
 70
     1
 10
0.0
 20
0.0
 30
0.0
  3
*D7
  1

  0
LINE
  5
1000
330
357
100
AcDbEntity
  8
5
370
    -2
100
AcDbLine
 10
217.3462393138625
 20
303.3452038824848
 30
0.0
 11
142.4485990336625
 21
303.3452038824848
 31
0.0
  0
LINE
  5
1001
330
357
100
AcDbEntity
  8
5
370
    -2
100
AcDbLine
 10
217.3462393138625
 20
253.3452038824848
 30
0.0
 11
142.4485990336625
 21
253.3452038824849
 31
0.0
  0
LINE
  5
1002
330
357
100
AcDbEntity
  8
5
370
    -2
100
AcDbLine
 10
148.4485990336625
 20
288.3452038824848
 30
0.0
 11
148.4485990336625
 21
268.3452038824849
 31
0.0
  0
SOLID
  5
1003
330
357
100
AcDbEntity
  8
5
100
AcDbTrace
 10
145.9485990336625
 20
288.3452038824848
 30
0.0
 11
150.9485990336625
 21
288.3452038824848
 31
0.0
 12
148.4485990336625
 22
303.3452038824848
 32
0.0
 13
148.4485990336625
 23
303.3452038824848
 33
0.0
  0
SOLID
  5
1004
330
357
100
AcDbEntity
  8
5
100
AcDbTrace
 10
145.9485990336625
 20
268.3452038824849
 30
0.0
 11
150.9485990336625
 21
268.3452038824849
 31
0.0
 12
148.4485990336625
 22
253.3452038824849
 32
0.0
 13
148.4485990336625
 23
253.3452038824849
 33
0.0
  0
MTEXT
  5
1005
330
357
100
AcDbEntity
  8
5
 62
     2
100
AcDbMText
 10
128.9485990336624
 20
278.3452038824849
 30
0.0
 40
21.0
 41
0.0
 71
     5
 72
     1
  1
50
 11
0.0000000000000001
 21
1.0
 31
0.0
 73
     1
 44
1.0
1001
ACAD
1000
MTEXTBEGIN
1070
    73
1070
     1
1070
    44
1040
1.0
1070
    74
1070
     0
1000
MTEXTEND
  0
POINT
  5
1006
330
357
100
AcDbEntity
  8
DEFPOINTS
 62
     0
100
AcDbPoint
 10
223.3462393138625
 20
303.3452038824848
 30
0.0
  0
POINT
  5
1007
330
357
100
AcDbEntity
  8
DEFPOINTS
 62
     0
100
AcDbPoint
 10
223.3462393138625
 20
253.3452038824848
 30
0.0
  0
POINT
  5
1008
330
357
100
AcDbEntity
  8
DEFPOINTS
 62
     0
100
AcDbPoint
 10
148.4485990336625
 20
253.3452038824849
 30
0.0
  0
ENDBLK
  5
DEE
330
357
100
AcDbEntity
  8
0
100
AcDbBlockEnd
  0
BLOCK
  5
DEF
330
3B3
100
AcDbEntity
  8
0
100
AcDbBlockBegin
  2
*D8
 70
     1
 10
0.0
 20
0.0
 30
0.0
  3
*D8
  1

  0
LINE
  5
FF7
330
3B3
100
AcDbEntity
  8
5
370
    -2
100
AcDbLine
 10
217.3462393138625
 20
253.3452038824848
 30
0.0
 11
142.4485990336625
 21
253.3452038824849
 31
0.0
  0
LINE
  5
FF8
330
3B3
100
AcDbEntity
  8
5
370
    -2
100
AcDbLine
 10
217.3462393138625
 20
153.3452038824848
 30
0.0
 11
142.4485990336625
 21
153.3452038824848
 31
0.0
  0
LINE
  5
FF9
330
3B3
100
AcDbEntity
  8
5
370
    -2
100
AcDbLine
 10
148.4485990336625
 20
238.3452038824849
 30
0.0
 11
148.4485990336625
 21
168.3452038824848
 31
0.0
  0
SOLID
  5
FFA
330
3B3
100
AcDbEntity
  8
5
100
AcDbTrace
 10
145.9485990336625
 20
238.3452038824849
 30
0.0
 11
150.9485990336625
 21
238.3452038824849
 31
0.0
 12
148.4485990336625
 22
253.3452038824849
 32
0.0
 13
148.4485990336625
 23
253.3452038824849
 33
0.0
  0
SOLID
  5
FFB
330
3B3
100
AcDbEntity
  8
5
100
AcDbTrace
 10
145.9485990336625
 20
168.3452038824848
 30
0.0
 11
150.9485990336625
 21
168.3452038824848
 31
0.0
 12
148.4485990336625
 22
153.3452038824848
 32
0.0
 13
148.4485990336625
 23
153.3452038824848
 33
0.0
  0
MTEXT
  5
FFC
330
3B3
100
AcDbEntity
  8
5
 62
     2
100
AcDbMText
 10
128.9485990336624
 20
203.3452038824849
 30
0.0
 40
21.0
 41
0.0
 71
     5
 72
     1
  1
100
 11
0.0000000000000001
 21
1.0
 31
0.0
 73
     1
 44
1.0
1001
ACAD
1000
MTEXTBEGIN
1070
    73
1070
     1
1070
    44
1040
1.0
1070
    74
1070
     0
1000
MTEXTEND
  0
POINT
  5
FFD
330
3B3
100
AcDbEntity
  8
DEFPOINTS
 62
     0
100
AcDbPoint
 10
223.3462393138625
 20
253.3452038824848
 30
0.0
  0
POINT
  5
FFE
330
3B3
100
AcDbEntity
  8
DEFPOINTS
 62
     0
100
AcDbPoint
 10
223.3462393138625
 20
153.3452038824848
 30
0.0
  0
POINT
  5
FFF
330
3B3
100
AcDbEntity
  8
DEFPOINTS
 62
     0
100
AcDbPoint
 10
148.4485990336625
 20
153.3452038824848
 30
0.0
  0
ENDBLK
  5
DF9
330
3B3
100
AcDbEntity
  8
0
100
AcDbBlockEnd
  0
BLOCK
  5
DFA
330
413
100
AcDbEntity
  8
0
100
AcDbBlockBegin
  2
*D9
 70
     1
 10
0.0
 20
0.0
 30
0.0
  3
*D9
  1

  0
LINE
  5
FEC
330
413
100
AcDbEntity
  8
5
370
    -2
100
AcDbLine
 10
1486.231687073467
 20
746.0289206302577
 30
0.0
 11
1558.231687073467
 21
746.0289206302577
 31
0.0
  0
LINE
  5
FED
330
413
100
AcDbEntity
  8
5
370
    -2
100
AcDbLine
 10
1486.231687073467
 20
706.0289206302869
 30
0.0
 11
1558.231687073467
 21
706.0289206302869
 31
0.0
  0
LINE
  5
FEE
330
413
100
AcDbEntity
  8
5
370
    -2
100
AcDbLine
 10
1552.231687073467
 20
761.0289206302577
 30
0.0
 11
1552.231687073467
 21
776.0289206302577
 31
0.0
  0
LINE
  5
FEF
330
413
100
AcDbEntity
  8
5
370
    -2
100
AcDbLine
 10
1552.231687073467
 20
691.0289206302868
 30
0.0
 11
1552.231687073467
 21
632.812385197216
 31
0.0
  0
LINE
  5
FF0
330
413
100
AcDbEntity
  8
5
370
    -2
100
AcDbLine
 10
1552.231687073467
 20
746.0289206302577
 30
0.0
 11
1552.231687073467
 21
706.0289206302869
 31
0.0
  0
SOLID
  5
FF1
330
413
100
AcDbEntity
  8
5
100
AcDbTrace
 10
1549.731687073467
 20
761.0289206302577
 30
0.0
 11
1554.731687073467
 21
761.0289206302577
 31
0.0
 12
1552.231687073467
 22
746.0289206302577
 32
0.0
 13
1552.231687073467
 23
746.0289206302577
 33
0.0
  0
SOLID
  5
FF2
330
413
100
AcDbEntity
  8
5
100
AcDbTrace
 10
1549.731687073467
 20
691.0289206302868
 30
0.0
 11
1554.731687073467
 21
691.0289206302868
 31
0.0
 12
1552.231687073467
 22
706.0289206302869
 32
0.0
 13
1552.231687073467
 23
706.0289206302869
 33
0.0
  0
MTEXT
  5
FF3
330
413
100
AcDbEntity
  8
5
 62
     2
100
AcDbMText
 10
1532.731687073467
 20
654.4206529137515
 30
0.0
 40
21.0
 41
0.0
 71
     5
 72
     1
  1
40
 11
0.0000000000000001
 21
1.0
 31
0.0
 73
     1
 44
1.0
1001
ACAD
1000
MTEXTBEGIN
1070
    73
1070
     1
1070
    44
1040
1.0
1070
    74
1070
     0
1000
MTEXTEND
  0
POINT
  5
FF4
330
413
100
AcDbEntity
  8
DEFPOINTS
 62
     0
100
AcDbPoint
 10
1480.231687073467
 20
746.0289206302577
 30
0.0
  0
POINT
  5
FF5
330
413
100
AcDbEntity
  8
DEFPOINTS
 62
     0
100
AcDbPoint
 10
1480.231687073467
 20
706.0289206302869
 30
0.0
  0
POINT
  5
FF6
330
413
100
AcDbEntity
  8
DEFPOINTS
 62
     0
100
AcDbPoint
 10
1552.231687073467
 20
706.0289206302869
 30
0.0
  0
ENDBLK
  5
E06
330
413
100
AcDbEntity
  8
0
100
AcDbBlockEnd
  0
BLOCK
  5
E07
330
459
100
AcDbEntity
  8
0
100
AcDbBlockBegin
  2
*D10
 70
     1
 10
0.0
 20
0.0
 30
0.0
  3
*D10
  1

  0
LINE
  5
1398
330
459
100
AcDbEntity
  8
5
370
    -2
100
AcDbLine
 10
298.5316870734673
 20
706.0289206302818
 30
0.0
 11
325.948940908389
 21
706.0289206302818
 31
0.0
  0
LINE
  5
1399
330
459
100
AcDbEntity
  8
5
370
    -2
100
AcDbLine
 10
302.2316870734671
 20
666.0289206302818
 30
0.0
 11
325.948940908389
 21
666.0289206302818
 31
0.0
  0
LINE
  5
139A
330
459
100
AcDbEntity
  8
5
370
    -2
100
AcDbLine
 10
319.948940908389
 20
721.0289206302818
 30
0.0
 11
319.948940908389
 21
736.0289206302818
 31
0.0
  0
LINE
  5
139B
330
459
100
AcDbEntity
  8
5
370
    -2
100
AcDbLine
 10
319.948940908389
 20
651.0289206302818
 30
0.0
 11
319.9489409083889
 21
592.812385197211
 31
0.0
  0
LINE
  5
139C
330
459
100
AcDbEntity
  8
5
370
    -2
100
AcDbLine
 10
319.948940908389
 20
706.0289206302818
 30
0.0
 11
319.948940908389
 21
666.0289206302818
 31
0.0
  0
SOLID
  5
139D
330
459
100
AcDbEntity
  8
5
100
AcDbTrace
 10
317.448940908389
 20
721.0289206302818
 30
0.0
 11
322.448940908389
 21
721.0289206302818
 31
0.0
 12
319.948940908389
 22
706.0289206302818
 32
0.0
 13
319.948940908389
 23
706.0289206302818
 33
0.0
  0
SOLID
  5
139E
330
459
100
AcDbEntity
  8
5
100
AcDbTrace
 10
317.448940908389
 20
651.0289206302818
 30
0.0
 11
322.448940908389
 21
651.0289206302818
 31
0.0
 12
319.948940908389
 22
666.0289206302818
 32
0.0
 13
319.948940908389
 23
666.0289206302818
 33
0.0
  0
MTEXT
  5
139F
330
459
100
AcDbEntity
  8
5
 62
     2
100
AcDbMText
 10
300.4489409083888
 20
614.4206529137465
 30
0.0
 40
21.0
 41
0.0
 71
     5
 72
     1
  1
40
 11
0.0000000000000001
 21
1.0
 31
0.0
 73
     1
 44
1.0
1001
ACAD
1000
MTEXTBEGIN
1070
    73
1070
     1
1070
    44
1040
1.0
1070
    74
1070
     0
1000
MTEXTEND
  0
POINT
  5
13A0
330
459
100
AcDbEntity
  8
DEFPOINTS
 62
     0
100
AcDbPoint
 10
292.5316870734673
 20
706.0289206302818
 30
0.0
  0
POINT
  5
13A1
330
459
100
AcDbEntity
  8
DEFPOINTS
 62
     0
100
AcDbPoint
 10
296.2316870734671
 20
666.0289206302818
 30
0.0
  0
POINT
  5
13A2
330
459
100
AcDbEntity
  8
DEFPOINTS
 62
     0
100
AcDbPoint
 10
319.948940908389
 20
666.0289206302818
 30
0.0
  0
ENDBLK
  5
E13
330
459
100
AcDbEntity
  8
0
100
AcDbBlockEnd
  0
BLOCK
  5
E14
330
47F
100
AcDbEntity
  8
0
100
AcDbBlockBegin
  2
*D11
 70
     1
 10
0.0
 20
0.0
 30
0.0
  3
*D11
  1

  0
LINE
  5
FD6
330
47F
100
AcDbEntity
  8
5
370
    -2
100
AcDbLine
 10
260.2316870734671
 20
752.0289206302577
 30
0.0
 11
260.2316870734671
 21
824.0289206302577
 31
0.0
  0
LINE
  5
FD7
330
47F
100
AcDbEntity
  8
5
370
    -2
100
AcDbLine
 10
265.2316870734671
 20
749.0289206302868
 30
0.0
 11
265.2316870734671
 21
824.0289206302577
 31
0.0
  0
LINE
  5
FD8
330
47F
100
AcDbEntity
  8
5
370
    -2
100
AcDbLine
 10
245.2316870734671
 20
818.0289206302576
 30
0.0
 11
230.2316870734671
 21
818.0289206302576
 31
0.0
  0
LINE
  5
FD9
330
47F
100
AcDbEntity
  8
5
370
    -2
100
AcDbLine
 10
280.2316870734671
 20
818.0289206302576
 30
0.0
 11
295.2316870734671
 21
818.0289206302576
 31
0.0
  0
LINE
  5
FDA
330
47F
100
AcDbEntity
  8
5
370
    -2
100
AcDbLine
 10
260.2316870734671
 20
818.0289206302576
 30
0.0
 11
265.2316870734671
 21
818.0289206302576
 31
0.0
  0
SOLID
  5
FDB
330
47F
100
AcDbEntity
  8
5
100
AcDbTrace
 10
245.2316870734671
 20
820.5289206302577
 30
0.0
 11
245.2316870734671
 21
815.5289206302578
 31
0.0
 12
260.2316870734671
 22
818.0289206302576
 32
0.0
 13
260.2316870734671
 23
818.0289206302576
 33
0.0
  0
SOLID
  5
FDC
330
47F
100
AcDbEntity
  8
5
100
AcDbTrace
 10
280.2316870734671
 20
820.5289206302577
 30
0.0
 11
280.2316870734671
 21
815.5289206302578
 31
0.0
 12
265.2316870734671
 22
818.0289206302576
 32
0.0
 13
265.2316870734671
 23
818.0289206302576
 33
0.0
  0
MTEXT
  5
FDD
330
47F
100
AcDbEntity
  8
5
 62
     2
100
AcDbMText
 10
262.7316870734671
 20
837.5289206302577
 30
0.0
 40
21.0
 41
0.0
 71
     5
 72
     1
  1
5
 73
     1
 44
1.0
1001
ACAD
1000
MTEXTBEGIN
1070
    73
1070
     1
1070
    44
1040
1.0
1070
    74
1070
     0
1000
MTEXTEND
  0
POINT
  5
FDE
330
47F
100
AcDbEntity
  8
DEFPOINTS
 62
     0
100
AcDbPoint
 10
260.2316870734671
 20
746.0289206302577
 30
0.0
  0
POINT
  5
FDF
330
47F
100
AcDbEntity
  8
DEFPOINTS
 62
     0
100
AcDbPoint
 10
265.2316870734671
 20
743.0289206302868
 30
0.0
  0
POINT
  5
FE0
330
47F
100
AcDbEntity
  8
DEFPOINTS
 62
     0
100
AcDbPoint
 10
265.2316870734671
 20
818.0289206302576
 30
0.0
  0
ENDBLK
  5
E20
330
47F
100
AcDbEntity
  8
0
100
AcDbBlockEnd
  0
BLOCK
  5
E21
330
49D
100
AcDbEntity
  8
0
100
AcDbBlockBegin
  2
*D12
 70
     1
 10
0.0
 20
0.0
 30
0.0
  3
*D12
  1

  0
LINE
  5
FCD
330
49D
100
AcDbEntity
  8
5
370
    -2
100
AcDbLine
 10
265.2316870734671
 20
749.0289206302868
 30
0.0
 11
265.2316870734671
 21
824.0289206302577
 31
0.0
  0
LINE
  5
FCE
330
49D
100
AcDbEntity
  8
5
370
    -2
100
AcDbLine
 10
1475.231687073467
 20
749.0289206302819
 30
0.0
 11
1475.231687073467
 21
824.0289206302577
 31
0.0
  0
LINE
  5
FCF
330
49D
100
AcDbEntity
  8
5
370
    -2
100
AcDbLine
 10
280.2316870734671
 20
818.0289206302576
 30
0.0
 11
1460.231687073467
 21
818.0289206302576
 31
0.0
  0
SOLID
  5
FD0
330
49D
100
AcDbEntity
  8
5
100
AcDbTrace
 10
280.2316870734671
 20
820.5289206302577
 30
0.0
 11
280.2316870734671
 21
815.5289206302578
 31
0.0
 12
265.2316870734671
 22
818.0289206302576
 32
0.0
 13
265.2316870734671
 23
818.0289206302576
 33
0.0
  0
SOLID
  5
FD1
330
49D
100
AcDbEntity
  8
5
100
AcDbTrace
 10
1460.231687073467
 20
820.5289206302577
 30
0.0
 11
1460.231687073467
 21
815.5289206302578
 31
0.0
 12
1475.231687073467
 22
818.0289206302576
 32
0.0
 13
1475.231687073467
 23
818.0289206302576
 33
0.0
  0
MTEXT
  5
FD2
330
49D
100
AcDbEntity
  8
5
 62
     2
100
AcDbMText
 10
870.2316870734671
 20
837.5309875593917
 30
0.0
 40
21.0
 41
0.0
 71
     5
 72
     1
  1
1210
 73
     1
 44
1.0
1001
ACAD
1000
MTEXTBEGIN
1070
    73
1070
     1
1070
    44
1040
1.0
1070
    74
1070
     0
1000
MTEXTEND
  0
POINT
  5
FD3
330
49D
100
AcDbEntity
  8
DEFPOINTS
 62
     0
100
AcDbPoint
 10
265.2316870734671
 20
743.0289206302868
 30
0.0
  0
POINT
  5
FD4
330
49D
100
AcDbEntity
  8
DEFPOINTS
 62
     0
100
AcDbPoint
 10
1475.231687073467
 20
743.0289206302818
 30
0.0
  0
POINT
  5
FD5
330
49D
100
AcDbEntity
  8
DEFPOINTS
 62
     0
100
AcDbPoint
 10
1475.231687073467
 20
818.0289206302576
 30
0.0
  0
ENDBLK
  5
E2B
330
49D
100
AcDbEntity
  8
0
100
AcDbBlockEnd
  0
BLOCK
  5
E2C
330
4F2
100
AcDbEntity
  8
0
100
AcDbBlockBegin
  2
*D13
 70
     1
 10
0.0
 20
0.0
 30
0.0
  3
*D13
  1

  0
LINE
  5
FC2
330
4F2
100
AcDbEntity
  8
5
370
    -2
100
AcDbLine
 10
1475.231687073467
 20
749.0289206302819
 30
0.0
 11
1475.231687073467
 21
824.0289206302577
 31
0.0
  0
LINE
  5
FC3
330
4F2
100
AcDbEntity
  8
5
370
    -2
100
AcDbLine
 10
1480.231687073467
 20
752.0289206302818
 30
0.0
 11
1480.231687073467
 21
824.0289206302577
 31
0.0
  0
LINE
  5
FC4
330
4F2
100
AcDbEntity
  8
5
370
    -2
100
AcDbLine
 10
1460.231687073467
 20
818.0289206302576
 30
0.0
 11
1445.231687073467
 21
818.0289206302576
 31
0.0
  0
LINE
  5
FC5
330
4F2
100
AcDbEntity
  8
5
370
    -2
100
AcDbLine
 10
1495.231687073467
 20
818.0289206302576
 30
0.0
 11
1510.231687073467
 21
818.0289206302576
 31
0.0
  0
LINE
  5
FC6
330
4F2
100
AcDbEntity
  8
5
370
    -2
100
AcDbLine
 10
1475.231687073467
 20
818.0289206302576
 30
0.0
 11
1480.231687073467
 21
818.0289206302576
 31
0.0
  0
SOLID
  5
FC7
330
4F2
100
AcDbEntity
  8
5
100
AcDbTrace
 10
1460.231687073467
 20
820.5289206302577
 30
0.0
 11
1460.231687073467
 21
815.5289206302578
 31
0.0
 12
1475.231687073467
 22
818.0289206302576
 32
0.0
 13
1475.231687073467
 23
818.0289206302576
 33
0.0
  0
SOLID
  5
FC8
330
4F2
100
AcDbEntity
  8
5
100
AcDbTrace
 10
1495.231687073467
 20
820.5289206302577
 30
0.0
 11
1495.231687073467
 21
815.5289206302578
 31
0.0
 12
1480.231687073467
 22
818.0289206302576
 32
0.0
 13
1480.231687073467
 23
818.0289206302576
 33
0.0
  0
MTEXT
  5
FC9
330
4F2
100
AcDbEntity
  8
5
 62
     2
100
AcDbMText
 10
1477.731687073467
 20
837.5289206302577
 30
0.0
 40
21.0
 41
0.0
 71
     5
 72
     1
  1
5
 73
     1
 44
1.0
1001
ACAD
1000
MTEXTBEGIN
1070
    73
1070
     1
1070
    44
1040
1.0
1070
    74
1070
     0
1000
MTEXTEND
  0
POINT
  5
FCA
330
4F2
100
AcDbEntity
  8
DEFPOINTS
 62
     0
100
AcDbPoint
 10
1475.231687073467
 20
743.0289206302818
 30
0.0
  0
POINT
  5
FCB
330
4F2
100
AcDbEntity
  8
DEFPOINTS
 62
     0
100
AcDbPoint
 10
1480.231687073467
 20
746.0289206302818
 30
0.0
  0
POINT
  5
FCC
330
4F2
100
AcDbEntity
  8
DEFPOINTS
 62
     0
100
AcDbPoint
 10
1480.231687073467
 20
818.0289206302576
 30
0.0
  0
ENDBLK
  5
E38
330
4F2
100
AcDbEntity
  8
0
100
AcDbBlockEnd
  0
BLOCK
  5
E39
330
553
100
AcDbEntity
  8
0
100
AcDbBlockBegin
  2
*D14
 70
     1
 10
0.0
 20
0.0
 30
0.0
  3
*D14
  1

  0
LINE
  5
FB9
330
553
100
AcDbEntity
  8
5
370
    -2
100
AcDbLine
 10
1480.231687073467
 20
752.0289206302818
 30
0.0
 11
1480.231687073467
 21
884.0289206302577
 31
0.0
  0
LINE
  5
FBA
330
553
100
AcDbEntity
  8
5
370
    -2
100
AcDbLine
 10
260.2316870734671
 20
752.0289206302818
 30
0.0
 11
260.2316870734671
 21
884.0289206302577
 31
0.0
  0
LINE
  5
FBB
330
553
100
AcDbEntity
  8
5
370
    -2
100
AcDbLine
 10
1465.231687073467
 20
878.0289206302578
 30
0.0
 11
275.2316870734671
 21
878.0289206302578
 31
0.0
  0
SOLID
  5
FBC
330
553
100
AcDbEntity
  8
5
100
AcDbTrace
 10
1465.231687073467
 20
880.5289206302576
 30
0.0
 11
1465.231687073467
 21
875.5289206302578
 31
0.0
 12
1480.231687073467
 22
878.0289206302578
 32
0.0
 13
1480.231687073467
 23
878.0289206302578
 33
0.0
  0
SOLID
  5
FBD
330
553
100
AcDbEntity
  8
5
100
AcDbTrace
 10
275.2316870734671
 20
880.5289206302576
 30
0.0
 11
275.2316870734671
 21
875.5289206302578
 31
0.0
 12
260.2316870734671
 22
878.0289206302578
 32
0.0
 13
260.2316870734671
 23
878.0289206302578
 33
0.0
  0
MTEXT
  5
FBE
330
553
100
AcDbEntity
  8
5
 62
     2
100
AcDbMText
 10
870.2316870734671
 20
897.5309875593916
 30
0.0
 40
21.0
 41
0.0
 71
     5
 72
     1
  1
1220
 73
     1
 44
1.0
1001
ACAD
1000
MTEXTBEGIN
1070
    73
1070
     1
1070
    44
1040
1.0
1070
    74
1070
     0
1000
MTEXTEND
  0
POINT
  5
FBF
330
553
100
AcDbEntity
  8
DEFPOINTS
 62
     0
100
AcDbPoint
 10
1480.231687073467
 20
746.0289206302818
 30
0.0
  0
POINT
  5
FC0
330
553
100
AcDbEntity
  8
DEFPOINTS
 62
     0
100
AcDbPoint
 10
260.2316870734671
 20
746.0289206302818
 30
0.0
  0
POINT
  5
FC1
330
553
100
AcDbEntity
  8
DEFPOINTS
 62
     0
100
AcDbPoint
 10
260.2316870734671
 20
878.0289206302578
 30
0.0
  0
ENDBLK
  5
E43
330
553
100
AcDbEntity
  8
0
100
AcDbBlockEnd
  0
BLOCK
  5
C33
330
C2A
100
AcDbEntity
  8
0
100
AcDbBlockBegin
  2
IGS_A3-T
 70
     0
 10
0.0
 20
0.0
 30
0.0
  3
IGS_A3-T
  1

  0
TEXT
  5
C2B
330
C2A
100
AcDbEntity
  8
0
 60
     1
100
AcDbText
 10
297.0000000000036
 20
420.0
 30
0.0
 40
2.0
  1
!GENTITLE-MAX
100
AcDbText
  0
TEXT
  5
C2C
330
C2A
100
AcDbEntity
  8
0
 60
     1
100
AcDbText
 10
287.0000000000036
 20
410.0
 30
0.0
 40
2.0
  1
!GENTITLE-RU
100
AcDbText
  0
TEXT
  5
C2D
330
C2A
100
AcDbEntity
  8
0
 60
     1
100
AcDbText
 10
287.0000000000036
 20
10.00000000000005
 30
0.0
 40
2.0
  1
!GENTITLE-INSERT
100
AcDbText
  0
TEXT
  5
C2E
330
C2A
100
AcDbEntity
  8
0
 60
     1
100
AcDbText
 10
10.0
 20
10.00000000000005
 30
0.0
 40
2.0
  1
!GENTITLE-LL
100
AcDbText
  0
LINE
  5
C2F
330
C2A
100
AcDbEntity
  8
RAHM2
100
AcDbLine
 10
10.00000000000358
 20
10.00000000000005
 30
0.0
 11
10.00000000000358
 21
410.0
 31
0.0
  0
LINE
  5
C30
330
C2A
100
AcDbEntity
  8
RAHM2
100
AcDbLine
 10
287.0000000000036
 20
10.00000000000005
 30
0.0
 11
10.00000000000358
 21
10.00000000000005
 31
0.0
  0
LINE
  5
C31
330
C2A
100
AcDbEntity
  8
RAHM2
100
AcDbLine
 10
10.00000000000358
 20
410.0
 30
0.0
 11
287.0000000000036
 21
410.0
 31
0.0
  0
LINE
  5
C32
330
C2A
100
AcDbEntity
  8
RAHM2
100
AcDbLine
 10
287.0000000000036
 20
410.0
 30
0.0
 11
287.0000000000035
 21
10.0
 31
0.0
  0
ENDBLK
  5
C34
330
C2A
100
AcDbEntity
  8
0
100
AcDbBlockEnd
  0
BLOCK
  5
DCB
330
D47
100
AcDbEntity
  8
0
100
AcDbBlockBegin
  2
IGS-TITLE-NO2
 70
     2
 10
0.0
 20
0.0
 30
0.0
  3
IGS-TITLE-NO2
  1

  0
POINT
  5
D48
330
D47
100
AcDbEntity
  8
0
 60
     1
100
AcDbPoint
 10
0.0
 20
0.0
 30
0.0
1001
GENIUS_GENODEF_13
1002
{
1000
HIER
1070
     1
1002
}
1002
{
1000
MANEDIT
1070
     0
1002
}
1002
{
1000
NOSEL
1070
     0
1002
}
1002
{
1000
BEHIND
1070
     0
1002
}
1002
{
1000
REACTOR
1002
}
1001
GENIUS_GENTITLE_13
1002
{
1000
SCALE
1000
1:1
1002
}
1002
{
1000
BORDER
1000
IGS-A4
1002
}
1002
{
1000
TITLE
1000
IGS-TITLE
1002
}
1002
{
1000
UNCHG
1002
{
1000
GEN-TITLE-SCA
1000
GEN-TITLE-SIZ
1002
}
1002
}
1002
{
1000
HRA
1005
0
1002
}
1002
{
1000
HTIT
1005
0
1002
}
1002
{
1000
GENIUSID
1005
D48
1002
}
1001
GENIUS_GENOBJ-N-TIT_13
1002
{
1000
OWNER
1000
GEN
1002
}
1001
GENIUS_GENOENT_13
1002
{
1000
MYREF
1005
D48
1002
}
1002
{
1000
GRP
1005
0
1002
}
1001
GENIUS_GENOLIS_13
1002
{
1000
ENT
1005
0
1005
0
1002
}
  0
LINE
  5
D49
330
D47
100
AcDbEntity
  8
RAHM3
100
AcDbLine
 10
-148.4080564410193
 20
8.825237325416161
 30
52.0
 11
-145.4319868410194
 21
8.825237325416161
 31
52.0
  0
ARC
  5
D4A
330
D47
100
AcDbEntity
  8
RAHM3
100
AcDbCircle
 10
-141.4638940410194
 20
7.833214125416168
 30
52.0
 40
0.9920232
100
AcDbArc
 50
90.0
 51
180.0
  0
LINE
  5
D4B
330
D47
100
AcDbEntity
  8
RAHM3
100
AcDbLine
 10
-137.6611384410193
 20
8.825237325416161
 30
52.0
 11
-141.4638940410194
 21
8.825237325416161
 31
52.0
  0
ARC
  5
D4C
330
D47
100
AcDbEntity
  8
RAHM3
100
AcDbCircle
 10
-137.6611384410193
 20
7.833214125416168
 30
52.0
 40
0.9920232
100
AcDbArc
 50
0.0
 51
90.0
  0
ARC
  5
D4D
330
D47
100
AcDbEntity
  8
RAHM3
100
AcDbCircle
 10
-129.0636040410194
 20
7.833214125416168
 30
52.0
 40
0.9920232
100
AcDbArc
 50
0.0
 51
90.0
  0
LINE
  5
D4E
330
D47
100
AcDbEntity
  8
RAHM3
100
AcDbLine
 10
-132.7010224410193
 20
8.825237325416161
 30
52.0
 11
-129.0636040410194
 21
8.825237325416161
 31
52.0
  0
ARC
  5
D4F
330
D47
100
AcDbEntity
  8
RAHM3
100
AcDbCircle
 10
-132.7010224410193
 20
7.833214125416168
 30
52.0
 40
0.9920232
100
AcDbArc
 50
90.0
 51
180.0
  0
LINE
  5
D50
330
D47
100
AcDbEntity
  8
RAHM3
100
AcDbLine
 10
-148.4080564410193
 20
8.163888525416165
 30
52.0
 11
-147.5813704410193
 21
8.163888525416165
 31
52.0
  0
LINE
  5
D51
330
D47
100
AcDbEntity
  8
RAHM3
100
AcDbLine
 10
-147.5813704410193
 20
8.163888525416165
 30
52.0
 11
-147.5813704410193
 21
3.865121325416145
 31
52.0
  0
LINE
  5
D52
330
D47
100
AcDbEntity
  8
RAHM3
100
AcDbLine
 10
-146.2586728410194
 20
3.865121325416145
 30
52.0
 11
-146.2586728410194
 21
8.163888525416165
 31
52.0
  0
LINE
  5
D53
330
D47
100
AcDbEntity
  8
RAHM3
100
AcDbLine
 10
-146.2586728410194
 20
8.163888525416165
 30
52.0
 11
-145.4319868410194
 21
8.163888525416165
 31
52.0
  0
LINE
  5
D54
330
D47
100
AcDbEntity
  8
RAHM3
100
AcDbLine
 10
-145.4319868410194
 20
8.825237325416161
 30
52.0
 11
-145.4319868410194
 21
8.163888525416165
 31
52.0
  0
LINE
  5
D55
330
D47
100
AcDbEntity
  8
RAHM3
100
AcDbLine
 10
-148.4080564410193
 20
8.163888525416165
 30
52.0
 11
-148.4080564410193
 21
8.825237325416161
 31
52.0
  0
LINE
  5
D56
330
D47
100
AcDbEntity
  8
RAHM3
100
AcDbLine
 10
-145.4319868410194
 20
3.203772525416149
 30
52.0
 11
-148.4080564410193
 21
3.203772525416149
 31
52.0
  0
CIRCLE
  5
D57
330
D47
100
AcDbEntity
  8
RAHM3
100
AcDbCircle
 10
-144.1092892410194
 20
3.865121325416145
 30
52.0
 40
0.6613488000000001
  0
LINE
  5
D58
330
D47
100
AcDbEntity
  8
RAHM3
100
AcDbLine
 10
-137.9918128410194
 20
3.865121325416145
 30
52.0
 11
-137.9918128410194
 21
3.203772525416149
 31
52.0
  0
LINE
  5
D59
330
D47
100
AcDbEntity
  8
RAHM3
100
AcDbLine
 10
-137.9918128410194
 20
3.203772525416149
 30
52.0
 11
-136.6691152410193
 21
3.203772525416149
 31
52.0
  0
ARC
  5
D5A
330
D47
100
AcDbEntity
  8
RAHM3
100
AcDbCircle
 10
-141.4638940410194
 20
4.195795725416166
 30
52.0
 40
0.9920232
100
AcDbArc
 50
180.0
 51
270.0
  0
LINE
  5
D5B
330
D47
100
AcDbEntity
  8
RAHM3
100
AcDbLine
 10
-141.4638940410194
 20
3.203772525416149
 30
52.0
 11
-141.1332196410193
 21
3.203772525416149
 31
52.0
  0
LINE
  5
D5C
330
D47
100
AcDbEntity
  8
RAHM3
100
AcDbLine
 10
-142.4559172410194
 20
4.195795725416166
 30
52.0
 11
-142.4559172410194
 21
7.833214125416168
 31
52.0
  0
CIRCLE
  5
D5D
330
D47
100
AcDbEntity
  8
RAHM3
100
AcDbCircle
 10
-135.5117548410193
 20
3.865121325416145
 30
52.0
 40
0.6613488000000001
  0
ARC
  5
D5E
330
D47
100
AcDbEntity
  8
RAHM3
100
AcDbCircle
 10
-132.7010224410193
 20
4.195795725416166
 30
52.0
 40
0.9920232
100
AcDbArc
 50
180.0
 51
270.0
  0
LINE
  5
D5F
330
D47
100
AcDbEntity
  8
RAHM3
100
AcDbLine
 10
-129.0636040410194
 20
3.203772525416149
 30
52.0
 11
-132.7010224410193
 21
3.203772525416149
 31
52.0
  0
ARC
  5
D60
330
D47
100
AcDbEntity
  8
RAHM3
100
AcDbCircle
 10
-129.0636040410194
 20
4.195795725416166
 30
52.0
 40
0.9920232
100
AcDbArc
 50
270.0
 51
0.0
  0
LINE
  5
D61
330
D47
100
AcDbEntity
  8
RAHM3
100
AcDbLine
 10
-133.6930456410194
 20
4.195795725416166
 30
52.0
 11
-133.6930456410194
 21
5.022481725416161
 31
52.0
  0
LINE
  5
D62
330
D47
100
AcDbEntity
  8
RAHM3
100
AcDbLine
 10
-128.0715808410194
 20
7.833214125416168
 30
52.0
 11
-128.0715808410194
 21
7.00652812541615
 31
52.0
  0
CIRCLE
  5
D63
330
D47
100
AcDbEntity
  8
RAHM3
100
AcDbCircle
 10
-126.9142204410194
 20
3.865121325416145
 30
52.0
 40
0.6613488000000001
  0
LINE
  5
D64
330
D47
100
AcDbEntity
  8
RAHM3
100
AcDbLine
 10
-136.6691152410193
 20
7.171865325416149
 30
52.0
 11
-137.8264756410194
 21
7.171865325416149
 31
52.0
  0
LINE
  5
D65
330
D47
100
AcDbEntity
  8
RAHM3
100
AcDbLine
 10
-137.8264756410194
 20
7.171865325416149
 30
52.0
 11
-137.8264756410194
 21
7.667876925416146
 31
52.0
  0
LINE
  5
D66
330
D47
100
AcDbEntity
  8
RAHM3
100
AcDbLine
 10
-137.8264756410194
 20
7.667876925416146
 30
52.0
 11
-141.2985568410193
 21
7.667876925416146
 31
52.0
  0
LINE
  5
D67
330
D47
100
AcDbEntity
  8
RAHM3
100
AcDbLine
 10
-141.2985568410193
 20
7.667876925416146
 30
52.0
 11
-141.2985568410193
 21
4.361132925416165
 31
52.0
  0
LINE
  5
D68
330
D47
100
AcDbEntity
  8
RAHM3
100
AcDbLine
 10
-137.8264756410194
 20
5.518493325416158
 30
52.0
 11
-139.4798476410193
 21
5.518493325416158
 31
52.0
  0
LINE
  5
D69
330
D47
100
AcDbEntity
  8
RAHM3
100
AcDbLine
 10
-139.4798476410193
 20
5.518493325416158
 30
52.0
 11
-139.4798476410193
 21
6.510516525416153
 31
52.0
  0
LINE
  5
D6A
330
D47
100
AcDbEntity
  8
RAHM3
100
AcDbLine
 10
-136.6691152410193
 20
7.171865325416149
 30
52.0
 11
-136.6691152410193
 21
7.833214125416168
 31
52.0
  0
LINE
  5
D6B
330
D47
100
AcDbEntity
  8
RAHM3
100
AcDbLine
 10
-137.8264756410194
 20
5.022481725416161
 30
52.0
 11
-137.8264756410194
 21
5.518493325416158
 31
52.0
  0
LINE
  5
D6C
330
D47
100
AcDbEntity
  8
RAHM3
100
AcDbLine
 10
-137.6611384410193
 20
6.510516525416153
 30
52.0
 11
-139.4798476410193
 21
6.510516525416153
 31
52.0
  0
LINE
  5
D6D
330
D47
100
AcDbEntity
  8
RAHM3
100
AcDbLine
 10
-136.6691152410193
 20
5.518493325416158
 30
52.0
 11
-136.6691152410193
 21
3.203772525416149
 31
52.0
  0
ARC
  5
D6E
330
D47
100
AcDbEntity
  8
RAHM3
100
AcDbCircle
 10
-137.6611384410193
 20
5.518493325416158
 30
52.0
 40
0.9920232
100
AcDbArc
 50
0.0
 51
90.0
  0
LINE
  5
D6F
330
D47
100
AcDbEntity
  8
RAHM3
100
AcDbLine
 10
-139.1930809214994
 20
5.022481725416161
 30
52.0
 11
-137.8264756410194
 21
5.022481725416161
 31
52.0
  0
ARC
  5
D70
330
D47
100
AcDbEntity
  8
RAHM3
100
AcDbCircle
 10
-139.1930809214994
 20
4.030458525416167
 30
52.0
 40
0.9920232
100
AcDbArc
 50
90.0
 51
119.7448812969
  0
LINE
  5
D71
330
D47
100
AcDbEntity
  8
RAHM3
100
AcDbLine
 10
-140.8773334868594
 20
4.361132925416165
 30
52.0
 11
-141.2985568410193
 21
4.361132925416165
 31
52.0
  0
LINE
  5
D72
330
D47
100
AcDbEntity
  8
RAHM3
100
AcDbLine
 10
-140.3851521495794
 20
4.491838785176161
 30
52.0
 11
-139.6852622587794
 21
4.891775865576152
 31
52.0
  0
ARC
  5
D73
330
D47
100
AcDbEntity
  8
RAHM3
100
AcDbCircle
 10
-140.8773334868594
 20
5.35315612541616
 30
52.0
 40
0.9920232
100
AcDbArc
 50
270.0
 51
299.7448812969
  0
ARC
  5
D74
330
D47
100
AcDbEntity
  8
RAHM3
100
AcDbCircle
 10
-138.8857271583794
 20
2.873098125416151
 30
52.0
 40
0.9920232
100
AcDbArc
 50
90.0
 51
119.7448812969
  0
LINE
  5
D75
330
D47
100
AcDbEntity
  8
RAHM3
100
AcDbLine
 10
-140.5699797237394
 20
3.203772525416149
 30
52.0
 11
-141.4638940410194
 21
3.203772525416149
 31
52.0
  0
ARC
  5
D76
330
D47
100
AcDbEntity
  8
RAHM3
100
AcDbCircle
 10
-140.5699797237394
 20
4.195795725416166
 30
52.0
 40
0.9920232
100
AcDbArc
 50
270.0
 51
299.7448812969
  0
LINE
  5
D77
330
D47
100
AcDbEntity
  8
RAHM3
100
AcDbLine
 10
-139.3779084956594
 20
3.734415465576159
 30
52.0
 11
-140.0777983864594
 21
3.334478385176168
 31
52.0
  0
LINE
  5
D78
330
D47
100
AcDbEntity
  8
RAHM3
100
AcDbLine
 10
-138.8857271583794
 20
3.865121325416145
 30
52.0
 11
-137.9918128410194
 21
3.865121325416145
 31
52.0
  0
LINE
  5
D79
330
D47
100
AcDbEntity
  8
RAHM3
100
AcDbLine
 10
-147.5813704410193
 20
3.865121325416145
 30
52.0
 11
-148.4080564410193
 21
3.865121325416145
 31
52.0
  0
LINE
  5
D7A
330
D47
100
AcDbEntity
  8
RAHM3
100
AcDbLine
 10
-146.2586728410194
 20
3.865121325416145
 30
52.0
 11
-145.4319868410194
 21
3.865121325416145
 31
52.0
  0
LINE
  5
D7B
330
D47
100
AcDbEntity
  8
RAHM3
100
AcDbLine
 10
-148.4080564410193
 20
3.203772525416149
 30
52.0
 11
-148.4080564410193
 21
3.865121325416145
 31
52.0
  0
LINE
  5
D7C
330
D47
100
AcDbEntity
  8
RAHM3
100
AcDbLine
 10
-145.4319868410194
 20
3.865121325416145
 30
52.0
 11
-145.4319868410194
 21
3.203772525416149
 31
52.0
  0
LINE
  5
D7D
330
D47
100
AcDbEntity
  8
RAHM3
100
AcDbLine
 10
-132.5356852410194
 20
7.667876925416146
 30
52.0
 11
-129.2289412410193
 21
7.667876925416146
 31
52.0
  0
LINE
  5
D7E
330
D47
100
AcDbEntity
  8
RAHM3
100
AcDbLine
 10
-129.2289412410193
 20
7.667876925416146
 30
52.0
 11
-129.2289412410193
 21
7.00652812541615
 31
52.0
  0
LINE
  5
D7F
330
D47
100
AcDbEntity
  8
RAHM3
100
AcDbLine
 10
-132.5356852410194
 20
5.022481725416161
 30
52.0
 11
-132.5356852410194
 21
4.361132925416165
 31
52.0
  0
LINE
  5
D80
330
D47
100
AcDbEntity
  8
RAHM3
100
AcDbLine
 10
-132.5356852410194
 20
4.361132925416165
 30
52.0
 11
-129.2289412410193
 21
4.361132925416165
 31
52.0
  0
LINE
  5
D81
330
D47
100
AcDbEntity
  8
RAHM3
100
AcDbLine
 10
-132.5356852410194
 20
5.022481725416161
 30
52.0
 11
-133.6930456410194
 21
5.022481725416161
 31
52.0
  0
LINE
  5
D82
330
D47
100
AcDbEntity
  8
RAHM3
100
AcDbLine
 10
-128.0715808410194
 20
7.00652812541615
 30
52.0
 11
-129.2289412410193
 21
7.00652812541615
 31
52.0
  0
LINE
  5
D83
330
D47
100
AcDbEntity
  8
RAHM3
100
AcDbLine
 10
-129.2289412410193
 20
4.361132925416165
 30
52.0
 11
-129.2289412410193
 21
5.518493325416158
 31
52.0
  0
LINE
  5
D84
330
D47
100
AcDbEntity
  8
RAHM3
100
AcDbLine
 10
-132.5356852410194
 20
6.510516525416153
 30
52.0
 11
-132.5356852410194
 21
7.667876925416146
 31
52.0
  0
LINE
  5
D85
330
D47
100
AcDbEntity
  8
RAHM3
100
AcDbLine
 10
-128.0715808410194
 20
5.518493325416158
 30
52.0
 11
-128.0715808410194
 21
4.195795725416166
 31
52.0
  0
LINE
  5
D86
330
D47
100
AcDbEntity
  8
RAHM3
100
AcDbLine
 10
-129.0636040410194
 20
6.510516525416153
 30
52.0
 11
-132.5356852410194
 21
6.510516525416153
 31
52.0
  0
ARC
  5
D87
330
D47
100
AcDbEntity
  8
RAHM3
100
AcDbCircle
 10
-129.0636040410194
 20
5.518493325416158
 30
52.0
 40
0.9920232
100
AcDbArc
 50
0.0
 51
90.0
  0
LINE
  5
D88
330
D47
100
AcDbEntity
  8
RAHM3
100
AcDbLine
 10
-132.7010224411794
 20
5.518493325416158
 30
52.0
 11
-129.2289412410193
 21
5.518493325416158
 31
52.0
  0
LINE
  5
D89
330
D47
100
AcDbEntity
  8
RAHM3
100
AcDbLine
 10
-133.6930456410194
 20
6.510516525416153
 30
52.0
 11
-133.6930456410194
 21
7.833214125416168
 31
52.0
  0
ARC
  5
D8A
330
D47
100
AcDbEntity
  8
RAHM3
100
AcDbCircle
 10
-132.7010224411794
 20
6.510516525416153
 30
52.0
 40
0.9920232
100
AcDbArc
 50
180.0
 51
270.0
  0
POINT
  5
D8B
330
D47
100
AcDbEntity
  8
0
 60
     1
100
AcDbPoint
 10
0.0
 20
0.0
 30
0.0
1001
GENIUS_GENODEF_13
1002
{
1000
HIER
1070
     1
1002
}
1002
{
1000
MANEDIT
1070
     0
1002
}
1002
{
1000
NOSEL
1070
     0
1002
}
1002
{
1000
BEHIND
1070
     0
1002
}
1002
{
1000
REACTOR
1002
}
1001
GENIUS_GENTITLE_13
1002
{
1000
SCALE
1000
1:1
1002
}
1002
{
1000
BORDER
1000
GEN_A4
1002
}
1002
{
1000
TITLE
1000
GENTITUS
1002
}
1002
{
1000
UNCHG
1002
{
1000
GEN-TITLE-SCA
1000
GEN-TITLE-SIZ
1002
}
1002
}
1002
{
1000
HRA
1005
0
1002
}
1002
{
1000
HTIT
1005
0
1002
}
1002
{
1000
GENIUSID
1005
D8B
1002
}
1001
GENIUS_GENOBJ-N-TIT_13
1002
{
1000
OWNER
1000
GEN
1002
}
1001
GENIUS_GENOENT_13
1002
{
1000
MYREF
1005
D8B
1002
}
1002
{
1000
GRP
1005
0
1002
}
1001
GENIUS_GENOLIS_13
1002
{
1000
ENT
1005
0
1005
0
1002
}
  0
TEXT
  5
D8C
330
D47
100
AcDbEntity
  8
0
 60
     1
100
AcDbText
 10
210.0
 20
297.0
 30
0.0
 40
3.5
  1
!GENTITLE-MAX
100
AcDbText
  0
TEXT
  5
D8D
330
D47
100
AcDbEntity
  8
0
 60
     1
100
AcDbText
 10
205.0
 20
287.0
 30
0.0
 40
3.5
  1
!GENTITLE-RU
100
AcDbText
  0
TEXT
  5
D8E
330
D47
100
AcDbEntity
  8
0
 60
     1
100
AcDbText
 10
15.0
 20
59.99
 30
0.0
 40
3.5
  1
!GENTITLE-LL
100
AcDbText
  0
TEXT
  5
D8F
330
D47
100
AcDbEntity
  8
0
 60
     1
100
AcDbText
 10
205.0
 20
5.0
 30
0.0
 40
3.5
  1
!GENTITLE-INSERT
100
AcDbText
  0
LINE
  5
D90
330
D47
100
AcDbEntity
  8
RAHM2
100
AcDbLine
 10
-155.0
 20
12.0
 30
0.0
 11
0.0
 21
12.0
 31
0.0
  0
LINE
  5
D91
330
D47
100
AcDbEntity
  8
RAHM2
100
AcDbLine
 10
-12.0
 20
12.0
 30
0.0
 11
-12.00000000000727
 21
0.0
 31
0.0
  0
LINE
  5
D92
330
D47
100
AcDbEntity
  8
RAHM2
100
AcDbLine
 10
-80.0
 20
19.99999999999272
 30
0.0
 11
0.0
 21
20.0
 31
0.0
  0
LINE
  5
D93
330
D47
100
AcDbEntity
  8
RAHM2
100
AcDbLine
 10
0.0
 20
27.0
 30
0.0
 11
-80.0
 21
27.0
 31
0.0
  0
MTEXT
  5
D94
330
D47
100
AcDbEntity
  8
RAHM2
100
AcDbMText
 10
-78.39748281353763
 20
37.79972226353243
 30
0.0
 40
2.5
 41
2.458156240282278
 71
     1
 72
     5
  1

 73
     1
 44
1.0
1001
ACAD
1000
MTEXTBEGIN
1070
    73
1070
     1
1070
    44
1040
1.0
1070
    74
1070
     0
1000
MTEXTEND
  0
TEXT
  5
D96
330
D47
100
AcDbEntity
  8
RAHM3
100
AcDbText
 10
-79.00900277736832
 20
36.89804600214973
 30
0.0
 40
2.299999999999999
  1
名称 ＴＩＴＬＥ
 41
0.8
100
AcDbText
  0
LINE
  5
D97
330
D47
100
AcDbEntity
  8
RAHM2
100
AcDbLine
 10
-80.0
 20
40.00000000000727
 30
0.0
 11
-80.0
 21
0.0
 31
0.0
  0
TEXT
  5
D98
330
D47
100
AcDbEntity
  8
RAHM3
100
AcDbText
 10
-79.00900277736832
 20
23.89804600216055
 30
0.0
 40
2.299999999999999
  1
符号 
 41
0.8
100
AcDbText
  0
TEXT
  5
D99
330
D47
100
AcDbEntity
  8
RAHM3
100
AcDbText
 10
-79.00900277736832
 20
16.89804600215146
 30
0.0
 40
2.299999999999999
  1
件名
 41
0.8
100
AcDbText
  0
TEXT
  5
D9A
330
D47
100
AcDbEntity
  8
RAHM3
100
AcDbText
 10
-79.00900277736832
 20
8.898046002160548
 30
0.0
 40
2.299999999999999
  1
図番 ＤＲＡＷＩＮＧ ＮＯ．
 41
0.8
100
AcDbText
  0
CIRCLE
  5
D9B
330
D47
100
AcDbEntity
  8
RAHM2
100
AcDbCircle
 10
-5.0
 20
5.0
 30
0.0
 40
4.5
  0
LINE
  5
D9C
330
D47
100
AcDbEntity
  8
RAHM2
100
AcDbLine
 10
-130.0000000000018
 20
40.00000000000916
 30
0.0
 11
-130.0000000000018
 21
12.0
 31
0.0
  0
LINE
  5
D9D
330
D47
100
AcDbEntity
  8
RAHM2
100
AcDbLine
 10
-130.0000000000018
 20
26.00000000000458
 30
0.0
 11
-80.0
 21
25.99999999999818
 31
0.0
  0
LINE
  5
D9E
330
D47
100
AcDbEntity
  8
RAHM2
100
AcDbLine
 10
-105.0000000000018
 20
40.00000000000916
 30
0.0
 11
-105.0000000000018
 21
12.0
 31
0.0
  0
TEXT
  5
D9F
330
D47
100
AcDbEntity
  8
RAHM3
100
AcDbText
 10
-129.0090027773683
 20
36.89804600215881
 30
0.0
 40
2.299999999999999
  1
承認 ＡＰＰＤ
 41
0.8
100
AcDbText
  0
TEXT
  5
DA0
330
D47
100
AcDbEntity
  8
RAHM3
100
AcDbText
 10
-104.0090027773683
 20
36.8980460021551
 30
0.0
 40
2.299999999999999
  1
検図 ＣＨＫ
 41
0.8
100
AcDbText
  0
TEXT
  5
DA1
330
D47
100
AcDbEntity
  8
RAHM3
100
AcDbText
 10
-129.0090027773683
 20
22.89804600215422
 30
0.0
 40
2.299999999999999
  1
設計 ＥＮＧＲ
 41
0.8
100
AcDbText
  0
TEXT
  5
DA2
330
D47
100
AcDbEntity
  8
RAHM3
100
AcDbText
 10
-104.0090027773683
 20
22.89804600214964
 30
0.0
 40
2.299999999999999
  1
製図 ＤＲ ＤＡＴＥ
 41
0.8
100
AcDbText
  0
LINE
  5
DA3
330
D47
100
AcDbEntity
  8
RAHM2
100
AcDbLine
 10
-155.0
 20
30.60000000000036
 30
0.0
 11
-130.0000000000018
 21
30.60000000000036
 31
0.0
  0
LINE
  5
DA4
330
D47
100
AcDbEntity
  8
RAHM2
100
AcDbLine
 10
-155.0
 20
21.29999999999927
 30
0.0
 11
-130.0000000000018
 21
21.30000000000109
 31
0.0
  0
TEXT
  5
DA5
330
D47
100
AcDbEntity
  8
RAHM3
100
AcDbText
 10
-121.7843516157921
 20
6.885079184961092
 30
0.0
 40
4.0
  1
伊藤鉄工株式会社
100
AcDbText
  0
TEXT
  5
DA6
330
D47
100
AcDbEntity
  8
RAHM3
100
AcDbText
 10
-120.6675998914835
 20
3.578884653066273
 30
0.0
 40
2.0
  1
ITO TEKKO  CO.,LTD.
100
AcDbText
  0
TEXT
  5
DA7
330
D47
100
AcDbEntity
  8
RAHM3
100
AcDbText
 10
-120.6675998914835
 20
0.9279960228792472
 30
0.0
 40
2.0
  1
KAWAGUCHI  JAPAN
100
AcDbText
  0
TEXT
  5
DA8
330
D47
100
AcDbEntity
  8
RAHM3
100
AcDbText
 10
-11.85206060358336
 20
9.69362381988742
 30
0.0
 40
1.8
  1
ＲＥＶ．ＭＡＲＫ
 41
0.6800000000000001
100
AcDbText
  0
TEXT
  5
DA9
330
D47
100
AcDbEntity
  8
RAHM3
100
AcDbText
 10
-11.57052530051805
 20
7.425435269030799
 30
0.0
 40
1.8
  1
変
100
AcDbText
  0
TEXT
  5
DAA
330
D47
100
AcDbEntity
  8
RAHM3
100
AcDbText
 10
-11.59004395148213
 20
4.996441785248862
 30
0.0
 40
1.8
  1
更
100
AcDbText
  0
TEXT
  5
DAB
330
D47
100
AcDbEntity
  8
RAHM3
100
AcDbText
 10
-11.62938531906752
 20
2.617267270587205
 30
0.0
 40
1.8
  1
回
100
AcDbText
  0
TEXT
  5
DAC
330
D47
100
AcDbEntity
  8
RAHM3
100
AcDbText
 10
-11.56556962136267
 20
0.3551115072955326
 30
0.0
 40
1.8
  1
数
100
AcDbText
  0
TEXT
  5
DAD
330
D47
100
AcDbEntity
  8
RAHM3
100
AcDbText
 10
-154.0090027773665
 20
36.89804600217056
 30
0.0
 40
2.299999999999999
  1
尺度 ＳＣＡＬＥ
 41
0.8
100
AcDbText
  0
TEXT
  5
DAE
330
D47
100
AcDbEntity
  8
RAHM3
100
AcDbText
 10
-154.0090027773665
 20
27.49804600215
 30
0.0
 40
2.299999999999999
  1
図面枚数 ＮＯ．  
 41
0.8
100
AcDbText
  0
LINE
  5
DAF
330
D47
100
AcDbEntity
  8
7A
100
AcDbLine
 10
-151.7551228444401
 20
16.64999999999988
 30
0.0
 11
-149.2551228444401
 21
16.64999999999988
 31
0.0
1001
GENIUS_GENOREF_13
1005
DB3
  0
LINE
  5
DB0
330
D47
100
AcDbEntity
  8
7A
100
AcDbLine
 10
-151.7551228444401
 20
16.64999999999988
 30
0.0
 11
-151.7551228444401
 21
19.14999999999988
 31
0.0
1001
GENIUS_GENOREF_13
1005
DB3
  0
LINE
  5
DB1
330
D47
100
AcDbEntity
  8
7A
100
AcDbLine
 10
-151.7551228444401
 20
16.64999999999988
 30
0.0
 11
-154.2551228444401
 21
16.64999999999988
 31
0.0
1001
GENIUS_GENOREF_13
1005
DB3
  0
LINE
  5
DB2
330
D47
100
AcDbEntity
  8
7A
100
AcDbLine
 10
-151.7551228444401
 20
16.64999999999988
 30
0.0
 11
-151.7551228444401
 21
14.14999999999988
 31
0.0
1001
GENIUS_GENOREF_13
1005
DB3
  0
POINT
  5
DB3
330
D47
100
AcDbEntity
  8
0
 60
     1
100
AcDbPoint
 10
0.0
 20
0.0
 30
0.0
1001
GENIUS_GENODEF_13
1002
{
1000
HIER
1070
    10
1002
}
1002
{
1000
MANEDIT
1070
     0
1002
}
1002
{
1000
NOSEL
1070
     0
1002
}
1002
{
1000
BEHIND
1070
     0
1002
}
1002
{
1000
REACTOR
1002
}
1001
GENIUS_GENOBJ-N-CRS_13
1002
{
1000
OWNER
1000
GEN
1002
}
1001
GENIUS_GENOENT_13
1002
{
1000
MYREF
1005
DB3
1002
}
1002
{
1000
GRP
1005
0
1002
}
1001
GENIUS_GENOLIS_13
1002
{
1000
ENT
1005
DB2
1005
DB1
1005
DB0
1005
DAF
1002
}
  0
CIRCLE
  5
DB4
330
D47
100
AcDbEntity
  8
RAHM3
100
AcDbCircle
 10
-151.7551228444401
 20
16.64999999999988
 30
0.0
 40
2.0
  0
CIRCLE
  5
DB5
330
D47
100
AcDbEntity
  8
RAHM3
100
AcDbCircle
 10
-151.7551228444401
 20
16.64999999999952
 30
0.0
 40
1.0
  0
LINE
  5
DB6
330
D47
100
AcDbEntity
  8
RAHM3
100
AcDbLine
 10
-147.7659442035316
 20
17.64999999999929
 30
0.0
 11
-147.7659442035316
 21
15.64999999999929
 31
0.0
  0
LINE
  5
DB7
330
D47
100
AcDbEntity
  8
RAHM3
100
AcDbLine
 10
-147.7659442035316
 20
15.64999999999929
 30
0.0
 11
-143.7659442035316
 21
14.64999999999928
 31
0.0
  0
LINE
  5
DB8
330
D47
100
AcDbEntity
  8
RAHM3
100
AcDbLine
 10
-143.7659442035316
 20
14.64999999999928
 30
0.0
 11
-143.7659442035316
 21
18.64999999999929
 31
0.0
  0
LINE
  5
DB9
330
D47
100
AcDbEntity
  8
RAHM3
100
AcDbLine
 10
-143.7659442035316
 20
18.64999999999929
 30
0.0
 11
-147.7659442035316
 21
17.64999999999929
 31
0.0
  0
LINE
  5
DBA
330
D47
100
AcDbEntity
  8
7A
100
AcDbLine
 10
-148.6350563849704
 20
16.64999999999929
 30
0.0
 11
-142.8462596443259
 21
16.64999999999929
 31
0.0
1001
GENIUS_GENODEF_13
1002
{
1000
HIER
1070
     0
1002
}
1002
{
1000
MANEDIT
1070
     0
1002
}
1002
{
1000
NOSEL
1070
     0
1002
}
1002
{
1000
BEHIND
1070
     0
1002
}
1002
{
1000
REACTOR
1002
}
1001
GENIUS_GENOBJ-N-CEN_13
1002
{
1000
OWNER
1000
GEN
1002
}
  0
TEXT
  5
DBB
330
D47
100
AcDbEntity
  8
RAHM3
100
AcDbText
 10
-141.8454810851357
 20
18.28209750892168
 30
0.0
 40
2.1
  1
単位 ＵＮＩＴ
 41
0.7
100
AcDbText
  0
LINE
  5
DBC
330
D47
100
AcDbEntity
  8
RAHM2
100
AcDbLine
 10
-142.5000000000009
 20
21.29999999999927
 30
0.0
 11
-142.5000000000009
 21
12.0
 31
0.0
  0
TEXT
  5
DBD
330
D47
100
AcDbEntity
  8
RAHM3
100
AcDbText
 10
-139.6782849929894
 20
13.82826889824218
 30
0.0
 40
4.0
  1
ｍｍ
 41
0.8
100
AcDbText
  0
POLYLINE
  5
DBE
330
D47
100
AcDbEntity
  8
RAHM2
100
AcDb2dPolyline
 66
     1
 10
0.0
 20
0.0
 30
0.0
 70
     1
  0
VERTEX
  5
DBF
330
DBE
100
AcDbEntity
  8
RAHM2
100
AcDbVertex
100
AcDb2dVertex
 10
-155.0
 20
-0.000000000001819
 30
0.0
  0
VERTEX
  5
DC0
330
DBE
100
AcDbEntity
  8
RAHM2
100
AcDbVertex
100
AcDb2dVertex
 10
-155.0
 20
40.00000000002091
 30
0.0
  0
VERTEX
  5
DC1
330
DBE
100
AcDbEntity
  8
RAHM2
100
AcDbVertex
100
AcDb2dVertex
 10
0.0
 20
39.99999999999273
 30
0.0
  0
VERTEX
  5
DC2
330
DBE
100
AcDbEntity
  8
RAHM2
100
AcDbVertex
100
AcDb2dVertex
 10
0.0
 20
0.0
 30
0.0
  0
SEQEND
  5
DC3
330
DBE
100
AcDbEntity
  8
RAHM2
  0
ATTDEF
  5
DC4
330
D47
100
AcDbEntity
  8
RAHM3
100
AcDbText
 10
-147.2595867131855
 20
31.94728899818607
 30
0.0
 40
4.0
  1

100
AcDbAttributeDefinition
  3
尺度
  2
GEN-TITLE-SCA
 70
     0
  0
ATTDEF
  5
DC5
330
D47
100
AcDbEntity
  8
RAHM3
100
AcDbText
 10
-73.09000000000001
 20
29.74
 30
0.0
 40
5.0
  1

100
AcDbAttributeDefinition
  3
名称
  2
ＴＩＴＬＥ
 70
     0
  0
ATTDEF
  5
DC6
330
D47
100
AcDbEntity
  8
RAHM3
100
AcDbText
 10
-71.56287815584043
 20
21.80438312711384
 30
0.0
 40
3.0
  1

100
AcDbAttributeDefinition
  3
符号
  2
ｃｏｄｅ
 70
     0
  0
ATTDEF
  5
DC7
330
D47
100
AcDbEntity
  8
RAHM3
100
AcDbText
 10
-70.74480649396313
 20
14.80438312710657
 30
0.0
 40
3.0
  1

100
AcDbAttributeDefinition
  3
件名
  2
件名
 70
     0
  0
ATTDEF
  5
DC8
330
D47
100
AcDbEntity
  8
RAHM3
100
AcDbText
 10
-73.09000000000001
 20
1.739999999992722
 30
0.0
 40
5.0
  1

100
AcDbAttributeDefinition
  3
図面番号
  2
Ｎｏ．
 70
     0
  0
ATTDEF
  5
DC9
330
D47
100
AcDbEntity
  8
RAHM3
100
AcDbText
 10
-100.45
 20
17.40708932112655
 30
0.0
 40
4.0
  1

100
AcDbAttributeDefinition
  3
製図者
  2
ＤＲ
 70
     0
  0
ATTDEF
  5
DCA
330
D47
100
AcDbEntity
  8
RAHM3
100
AcDbText
 10
-101.7393618882534
 20
12.76999999999999
 30
0.0
 40
3.0
  1

 41
0.8
100
AcDbAttributeDefinition
  3
日付
  2
ｄａｔｅ
 70
     0
  0
ENDBLK
  5
DCC
330
D47
100
AcDbEntity
  8
0
100
AcDbBlockEnd
  0
BLOCK
  5
F18
330
F16
100
AcDbEntity
  8
0
100
AcDbBlockBegin
  2
GENAXEH
 70
     0
 10
0.0
 20
0.0
 30
0.0
  3
GENAXEH
  1

  0
LINE
  5
F17
330
F16
100
AcDbEntity
  8
0
100
AcDbLine
 10
-1.0
 20
0.0
 30
0.0
 11
1.0
 21
0.0
 31
0.0
  0
ENDBLK
  5
F19
330
F16
100
AcDbEntity
  8
0
100
AcDbBlockEnd
  0
BLOCK
  5
1051
330
1050
100
AcDbEntity
  8
0
100
AcDbBlockBegin
  2
_Open30
 70
     0
 10
0.0
 20
0.0
 30
0.0
  3
_Open30
  1

  0
LINE
  5
1052
330
1050
100
AcDbEntity
  8
0
  6
ByBlock
 62
     0
370
    -2
100
AcDbLine
 10
-1.0
 20
0.26794919
 30
0.0
 11
0.0
 21
0.0
 31
0.0
  0
LINE
  5
1053
330
1050
100
AcDbEntity
  8
0
  6
ByBlock
 62
     0
370
    -2
100
AcDbLine
 10
0.0
 20
0.0
 30
0.0
 11
-1.0
 21
-0.26794919
 31
0.0
  0
LINE
  5
1054
330
1050
100
AcDbEntity
  8
0
  6
ByBlock
 62
     0
370
    -2
100
AcDbLine
 10
0.0
 20
0.0
 30
0.0
 11
-1.0
 21
0.0
 31
0.0
  0
ENDBLK
  5
1055
330
1050
100
AcDbEntity
  8
0
100
AcDbBlockEnd
  0
BLOCK
  5
1057
330
1056
100
AcDbEntity
  8
0
100
AcDbBlockBegin
  2
NAKAMURA
 70
     0
 10
0.0
 20
0.0
 30
0.0
  3
NAKAMURA
  1

  0
CIRCLE
  5
1058
330
1056
100
AcDbEntity
  8
0
100
AcDbCircle
 10
0.0
 20
-0.0000000000000071
 30
0.0
 40
5.75
  0
LINE
  5
1059
330
1056
100
AcDbEntity
  8
0
100
AcDbLine
 10
5.390964663212002
 20
2.0
 30
0.0
 11
-5.390964663211889
 21
1.999999999999985
 31
0.0
  0
TEXT
  5
105A
330
1056
100
AcDbEntity
  8
0
100
AcDbText
 10
-1.40956822548013
 20
2.272712767880801
 30
0.0
 40
2.875000000632499
  1
藤
 50
0.000000000000708
 72
     4
 11
-0.0679015585183152
 21
3.710212768197067
 31
0.0
100
AcDbText
  0
TEXT
  5
105B
330
1056
100
AcDbEntity
  8
0
100
AcDbText
 10
-1.227410318497265
 20
-5.354429741660606
 30
0.0
 40
2.875000000632499
  1
繁
 50
0.000000000000708
 72
     4
 11
0.1142563484645507
 21
-3.91692974134434
 31
0.0
100
AcDbText
  0
LINE
  5
105C
330
1056
100
AcDbEntity
  8
0
100
AcDbLine
 10
5.390964663212002
 20
-1.999999999999964
 30
0.0
 11
-5.390964663211889
 21
-2.000000000000021
 31
0.0
  0
ENDBLK
  5
105D
330
1056
100
AcDbEntity
  8
0
100
AcDbBlockEnd
  0
ENDSEC
  0
SECTION
  2
ENTITIES
  0
TEXT
  5
10E
330
19
100
AcDbEntity
  8
1
  6
Continuous
 62
     7
100
AcDbText
 10
1526.999999750922
 20
2427.0000000908
 30
0.0
 40
24.0
  1
表面処理
 11
1526.999999750922
 21
2427.0000000908
 31
0.0
100
AcDbText
 73
     1
  0
TEXT
  5
10F
330
19
100
AcDbEntity
  8
1
  6
Continuous
 62
     7
100
AcDbText
 10
1506.906530750921
 20
2385.0000000908
 30
0.0
 40
24.0
  1
樹脂系塗料塗装
 41
0.8299180327868855
 72
     5
 11
1668.906530750921
 21
2385.0000000908
 31
0.0
100
AcDbText
  0
TEXT
  5
110
330
19
100
AcDbEntity
  8
1
  6
Continuous
 62
     7
100
AcDbText
 10
874.1999997509214
 20
2427.0000000908
 30
0.0
 40
24.0
  1
部番
 41
0.7734375000000071
 72
     5
 11
913.7999997509218
 21
2427.0000000908
 31
0.0
100
AcDbText
  0
TEXT
  5
111
330
19
100
AcDbEntity
  8
1
  6
Continuous
 62
     7
100
AcDbText
 10
956.9999997509217
 20
2427.0000000908
 30
0.0
 40
24.0
  1
部品名
 11
956.9999997509217
 21
2427.0000000908
 31
0.0
100
AcDbText
 73
     1
  0
INSERT
  5
112
330
19
100
AcDbEntity
  8
1
  6
Continuous
 62
     7
100
AcDbBlockReference
  2
MAKR0
 10
894.0000000000217
 20
2397.0
 30
0.0
  0
INSERT
  5
113
330
19
100
AcDbEntity
  8
1
  6
Continuous
 62
     7
100
AcDbBlockReference
  2
MAKR1
 10
894.0000000000217
 20
2355.0
 30
0.0
  0
INSERT
  5
114
330
19
100
AcDbEntity
  8
1
  6
Continuous
 62
     7
100
AcDbBlockReference
  2
MAKR2
 10
894.0000000000217
 20
2313.0
 30
0.0
  0
LINE
  5
115
330
19
100
AcDbEntity
  8
1
  6
Continuous
 62
     7
100
AcDbLine
 10
864.0000000000219
 20
2292.0
 30
0.0
 11
1722.000000000021
 21
2292.0
 31
0.0
  0
LINE
  5
116
330
19
100
AcDbEntity
  8
1
  6
Continuous
 62
     7
100
AcDbLine
 10
1722.000000000021
 20
2334.0
 30
0.0
 11
864.0000000000219
 21
2334.0
 31
0.0
  0
LINE
  5
117
330
19
100
AcDbEntity
  8
1
  6
Continuous
 62
     7
100
AcDbLine
 10
864.0000000000219
 20
2376.0
 30
0.0
 11
1722.000000000021
 21
2376.0
 31
0.0
  0
LINE
  5
118
330
19
100
AcDbEntity
  8
1
  6
Continuous
 62
     7
100
AcDbLine
 10
864.0000000000219
 20
2418.0
 30
0.0
 11
1722.000000000021
 21
2418.0
 31
0.0
  0
LINE
  5
119
330
19
100
AcDbEntity
  8
1
  6
Continuous
 62
     7
100
AcDbLine
 10
864.0000000000219
 20
2292.0
 30
0.0
 11
864.0000000000219
 21
2460.0
 31
0.0
  0
LINE
  5
11A
330
19
100
AcDbEntity
  8
1
  6
Continuous
 62
     7
100
AcDbLine
 10
924.0000000000218
 20
2292.0
 30
0.0
 11
924.0000000000218
 21
2460.0
 31
0.0
  0
LINE
  5
11B
330
19
100
AcDbEntity
  8
1
  6
Continuous
 62
     7
100
AcDbLine
 10
1164.000000000022
 20
2460.0
 30
0.0
 11
1164.000000000022
 21
2292.0
 31
0.0
  0
LINE
  5
11C
330
19
100
AcDbEntity
  8
1
  6
Continuous
 62
     7
100
AcDbLine
 10
1494.000000000021
 20
2460.0
 30
0.0
 11
1494.000000000021
 21
2292.0
 31
0.0
  0
TEXT
  5
11D
330
19
100
AcDbEntity
  8
1
  6
Continuous
 62
     7
100
AcDbText
 10
953.9999997509216
 20
2301.0000000908
 30
0.0
 40
24.0
  1
組立ボルト
 41
1.219879518072288
 72
     5
 11
1115.999999750922
 21
2301.0000000908
 31
0.0
100
AcDbText
  0
TEXT
  5
11E
330
19
100
AcDbEntity
  8
1
  6
Continuous
 62
     7
100
AcDbText
 10
953.9999997509216
 20
2343.0000000908
 30
0.0
 40
24.0
  1
アンカ－
 41
1.211538461538461
 72
     5
 11
1079.999999750921
 21
2343.0000000908
 31
0.0
100
AcDbText
  0
TEXT
  5
120
330
19
100
AcDbEntity
  8
1
  6
Continuous
 62
     7
100
AcDbText
 10
1508.974013750921
 20
2301.0000000908
 30
0.0
 40
24.0
  1
ユニクロメッキ
 41
0.7687499999999998
 72
     5
 11
1656.574013750921
 21
2301.0000000908
 31
0.0
100
AcDbText
  0
TEXT
  5
121
330
19
100
AcDbEntity
  8
1
  6
Continuous
 62
     7
100
AcDbText
 10
1217.318745750922
 20
2427.0000000908
 30
0.0
 40
24.0
  1
材質
 11
1217.318745750922
 21
2427.0000000908
 31
0.0
100
AcDbText
 73
     1
  0
TEXT
  5
122
330
19
100
AcDbEntity
  8
1
  6
Continuous
 62
     7
100
AcDbText
 10
1175.318745750921
 20
2398.5000000908
 30
0.0
 40
18.0
  1
ＳＳ４００
 11
1175.318745750921
 21
2398.5000000908
 31
0.0
100
AcDbText
 73
     1
  0
TEXT
  5
123
330
19
100
AcDbEntity
  8
1
  6
Continuous
 62
     7
100
AcDbText
 10
1175.318745750921
 20
2377.5000000908
 30
0.0
 40
18.0
  1
Ｌ４０ｘ４０ｘ５
 11
1175.318745750921
 21
2377.5000000908
 31
0.0
100
AcDbText
 73
     1
  0
TEXT
  5
124
330
19
100
AcDbEntity
  8
1
  6
Continuous
 62
     7
100
AcDbText
 10
1175.318745750921
 20
2343.0000000908
 30
0.0
 40
24.0
  1
ＳＳ４００　φ９
 11
1175.318745750921
 21
2343.0000000908
 31
0.0
100
AcDbText
 73
     1
  0
TEXT
  5
125
330
19
100
AcDbEntity
  8
1
  6
Continuous
 62
     7
100
AcDbText
 10
1175.318745750921
 20
2301.0000000908
 30
0.0
 40
24.0
  1
Ｍ８×２５
 41
0.9799239833197477
 72
     5
 11
1305.452650735784
 21
2301.0000000908
 31
0.0
100
AcDbText
  0
LINE
  5
126
330
19
100
AcDbEntity
  8
1
  6
Continuous
 62
     7
100
AcDbLine
 10
1414.000000000022
 20
2460.0
 30
0.0
 11
1414.000000000022
 21
2292.0
 31
0.0
  0
TEXT
  5
127
330
19
100
AcDbEntity
  8
1
  6
Continuous
 62
     7
100
AcDbText
 10
953.9999997509216
 20
2385.0000000908
 30
0.0
 40
24.0
  1
受枠（２分割）
 41
0.8960176991150444
 72
     5
 11
1115.999999750922
 21
2385.0000000908
 31
0.0
100
AcDbText
  0
TEXT
  5
128
330
19
100
AcDbEntity
  8
1
  6
Continuous
 62
     7
100
AcDbText
 10
1434.199999750921
 20
2427.0000000908
 30
0.0
 40
24.0
  1
個数
 41
0.7734375000000071
 72
     5
 11
1473.799999750922
 21
2427.0000000908
 31
0.0
100
AcDbText
  0
TEXT
  5
129
330
19
100
AcDbEntity
  8
1
  6
Continuous
 62
     7
100
AcDbText
 10
1444.999999750922
 20
2385.0000000908
 30
0.0
 40
24.0
  1
１
 41
1.25
 72
     5
 11
1462.999999750921
 21
2385.0000000908
 31
0.0
100
AcDbText
  0
TEXT
  5
12A
330
19
100
AcDbEntity
  8
1
  6
Continuous
 62
     7
100
AcDbText
 10
1444.999999750922
 20
2343.0000000908
 30
0.0
 40
24.0
  1
８
 41
1.022727272727272
 72
     5
 11
1462.999999750921
 21
2343.0000000908
 31
0.0
100
AcDbText
  0
TEXT
  5
12B
330
19
100
AcDbEntity
  8
1
  6
Continuous
 62
     7
100
AcDbText
 10
1444.999999750922
 20
2301.0000000908
 30
0.0
 40
24.0
  1
４
 41
0.9375
 72
     5
 11
1462.999999750921
 21
2301.0000000908
 31
0.0
100
AcDbText
  0
LINE
  5
130
330
19
100
AcDbEntity
  8
7
100
AcDbLine
 10
214.061784914767
 20
1633.1387557436
 30
0.0
 11
1523.714370719967
 21
1633.1387557436
 31
0.0
  0
LINE
  5
131
330
19
100
AcDbEntity
  8
7
100
AcDbLine
 10
870.2316870734671
 20
2267.444470916801
 30
0.0
 11
870.2316870734671
 21
985.9474198965003
 31
0.0
  0
LINE
  5
132
330
19
100
AcDbEntity
  8
1
  6
Continuous
 62
     7
100
AcDbLine
 10
1440.226204590967
 20
1635.6387557436
 30
0.0
 11
1480.226564101067
 21
1635.6387557436
 31
0.0
  0
LINE
  5
133
330
19
100
AcDbEntity
  8
1
  6
Continuous
 62
     7
100
AcDbLine
 10
1480.226564101167
 20
1630.6387557436
 30
0.0
 11
1440.226204590967
 21
1630.6387557436
 31
0.0
  0
LINE
  5
134
330
19
100
AcDbEntity
  8
1
  6
Continuous
 62
     7
100
AcDbLine
 10
300.2371695559673
 20
1635.6387557436
 30
0.0
 11
260.236810045767
 21
1635.6387557436
 31
0.0
  0
LINE
  5
135
330
19
100
AcDbEntity
  8
1
  6
Continuous
 62
     7
100
AcDbLine
 10
260.236810045767
 20
1630.6387557436
 30
0.0
 11
300.2371695559673
 21
1630.6387557436
 31
0.0
  0
ARC
  5
136
330
19
100
AcDbEntity
  8
1
  6
Continuous
 62
     7
100
AcDbCircle
 10
870.2316870734671
 20
1633.1387557436
 30
0.0
 40
570.0
100
AcDbArc
 50
0.2512980843
 51
179.7487019157
  0
ARC
  5
137
330
19
100
AcDbEntity
  8
1
  6
Continuous
 62
     7
100
AcDbCircle
 10
870.2316870734671
 20
1633.1387557436
 30
0.0
 40
570.0
100
AcDbArc
 50
180.2512980843
 51
359.7487019157
  0
ARC
  5
138
330
19
100
AcDbEntity
  8
1
  6
Continuous
 62
     7
100
AcDbCircle
 10
870.2316870734671
 20
1633.1387557436
 30
0.0
 40
610.0
100
AcDbArc
 50
0.2348194259
 51
179.7651805741
  0
ARC
  5
139
330
19
100
AcDbEntity
  8
1
  6
Continuous
 62
     7
100
AcDbCircle
 10
870.2316870734671
 20
1633.1387557436
 30
0.0
 40
610.0
100
AcDbArc
 50
180.2348194259
 51
359.7651805741
  0
ARC
  5
13A
330
19
100
AcDbEntity
  8
1
  6
Continuous
 62
     7
100
AcDbCircle
 10
870.2316870734671
 20
1633.1387557436
 30
0.0
 40
605.0
100
AcDbArc
 50
0.2367600933
 51
179.7632399067
  0
ARC
  5
13B
330
19
100
AcDbEntity
  8
1
  6
Continuous
 62
     7
100
AcDbCircle
 10
870.2316870734671
 20
1633.1387557436
 30
0.0
 40
605.0
100
AcDbArc
 50
180.2367600933
 51
359.7632399067
  0
CIRCLE
  5
13C
330
19
100
AcDbEntity
  8
1
  6
Continuous
 62
     7
100
AcDbCircle
 10
280.2371695559673
 20
1620.6387557436
 30
0.0
 40
7.9
  0
CIRCLE
  5
13D
330
19
100
AcDbEntity
  8
1
  6
Continuous
 62
     7
100
AcDbCircle
 10
280.2371695559673
 20
1620.6387557436
 30
0.0
 40
6.714999999999999
  0
LINE
  5
13E
330
19
100
AcDbEntity
  8
1
  6
Continuous
 62
     7
100
AcDbLine
 10
283.0651695559673
 20
1623.4667557436
 30
0.0
 11
277.4091695559668
 21
1617.810755743601
 31
0.0
  0
LINE
  5
13F
330
19
100
AcDbEntity
  8
1
  6
Continuous
 62
     7
100
AcDbLine
 10
277.4091695559668
 20
1623.4667557436
 30
0.0
 11
283.0651695559673
 21
1617.810755743601
 31
0.0
  0
CIRCLE
  5
140
330
19
100
AcDbEntity
  8
1
  6
Continuous
 62
     7
100
AcDbCircle
 10
280.2371695559673
 20
1595.6387557436
 30
0.0
 40
7.9
  0
CIRCLE
  5
141
330
19
100
AcDbEntity
  8
1
  6
Continuous
 62
     7
100
AcDbCircle
 10
280.2371695559673
 20
1595.6387557436
 30
0.0
 40
6.714999999999999
  0
LINE
  5
142
330
19
100
AcDbEntity
  8
1
  6
Continuous
 62
     7
100
AcDbLine
 10
283.0651695559673
 20
1598.4667557436
 30
0.0
 11
277.4091695559668
 21
1592.8107557436
 31
0.0
  0
LINE
  5
143
330
19
100
AcDbEntity
  8
1
  6
Continuous
 62
     7
100
AcDbLine
 10
277.4091695559668
 20
1598.4667557436
 30
0.0
 11
283.0651695559673
 21
1592.8107557436
 31
0.0
  0
LINE
  5
144
330
19
100
AcDbEntity
  8
7
100
AcDbLine
 10
293.1371695559669
 20
1620.6387557436
 30
0.0
 11
267.3371695559672
 21
1620.6387557436
 31
0.0
  0
LINE
  5
145
330
19
100
AcDbEntity
  8
7
100
AcDbLine
 10
293.1371695559669
 20
1595.6387557436
 30
0.0
 11
267.3371695559672
 21
1595.6387557436
 31
0.0
  0
LINE
  5
146
330
19
100
AcDbEntity
  8
7
100
AcDbLine
 10
280.2371695559673
 20
1633.5387557436
 30
0.0
 11
280.2371695559673
 21
1585.7891108178
 31
0.0
  0
CIRCLE
  5
147
330
19
100
AcDbEntity
  8
1
  6
Continuous
 62
     7
100
AcDbCircle
 10
1460.226204590967
 20
1645.6387557436
 30
0.0
 40
7.9
  0
CIRCLE
  5
148
330
19
100
AcDbEntity
  8
1
  6
Continuous
 62
     7
100
AcDbCircle
 10
1460.226204590967
 20
1645.6387557436
 30
0.0
 40
6.714999999999999
  0
LINE
  5
149
330
19
100
AcDbEntity
  8
1
  6
Continuous
 62
     7
100
AcDbLine
 10
1457.398204590967
 20
1642.810755743601
 30
0.0
 11
1463.054204590967
 21
1648.4667557436
 31
0.0
  0
LINE
  5
14A
330
19
100
AcDbEntity
  8
1
  6
Continuous
 62
     7
100
AcDbLine
 10
1463.054204590967
 20
1642.810755743601
 30
0.0
 11
1457.398204590967
 21
1648.4667557436
 31
0.0
  0
CIRCLE
  5
14B
330
19
100
AcDbEntity
  8
1
  6
Continuous
 62
     7
100
AcDbCircle
 10
1460.226204590967
 20
1670.6387557436
 30
0.0
 40
7.9
  0
CIRCLE
  5
14C
330
19
100
AcDbEntity
  8
1
  6
Continuous
 62
     7
100
AcDbCircle
 10
1460.226204590967
 20
1670.6387557436
 30
0.0
 40
6.714999999999999
  0
LINE
  5
14D
330
19
100
AcDbEntity
  8
1
  6
Continuous
 62
     7
100
AcDbLine
 10
1457.398204590967
 20
1667.810755743601
 30
0.0
 11
1463.054204590967
 21
1673.4667557436
 31
0.0
  0
LINE
  5
14E
330
19
100
AcDbEntity
  8
1
  6
Continuous
 62
     7
100
AcDbLine
 10
1463.054204590967
 20
1667.810755743601
 30
0.0
 11
1457.398204590967
 21
1673.4667557436
 31
0.0
  0
LINE
  5
14F
330
19
100
AcDbEntity
  8
7
100
AcDbLine
 10
1447.326204590967
 20
1645.6387557436
 30
0.0
 11
1473.126204590967
 21
1645.6387557436
 31
0.0
  0
LINE
  5
150
330
19
100
AcDbEntity
  8
7
100
AcDbLine
 10
1447.326204590967
 20
1670.6387557436
 30
0.0
 11
1473.126204590967
 21
1670.6387557436
 31
0.0
  0
LINE
  5
151
330
19
100
AcDbEntity
  8
7
100
AcDbLine
 10
1460.226204590967
 20
1632.7387557436
 30
0.0
 11
1460.226204590967
 21
1680.488400669401
 31
0.0
  0
LINE
  5
1D4
330
19
100
AcDbEntity
  8
1
  6
Continuous
 62
     7
100
AcDbLine
 10
260.2316870734671
 20
706.0289206302818
 30
0.0
 11
260.2316870734671
 21
746.0289206302818
 31
0.0
  0
LINE
  5
1D5
330
19
100
AcDbEntity
  8
1
  6
Continuous
 62
     7
100
AcDbLine
 10
265.2316870734671
 20
743.0289206302818
 30
0.0
 11
265.2316870734671
 21
715.5289206302818
 31
0.0
  0
LINE
  5
1D6
330
19
100
AcDbEntity
  8
1
  6
Continuous
 62
     7
100
AcDbLine
 10
300.2316870734671
 20
708.0289206302818
 30
0.0
 11
300.2316870734671
 21
706.0289206302818
 31
0.0
  0
ARC
  5
1D7
330
19
100
AcDbEntity
  8
1
  6
Continuous
 62
     7
100
AcDbCircle
 10
262.2316870734671
 20
743.0289206302818
 30
0.0
 40
3.0
100
AcDbArc
 50
0.0
 51
90.0
  0
ARC
  5
1D8
330
19
100
AcDbEntity
  8
1
  6
Continuous
 62
     7
100
AcDbCircle
 10
297.2316870734671
 20
708.0289206302818
 30
0.0
 40
3.0
100
AcDbArc
 50
0.0
 51
90.0
  0
ARC
  5
1D9
330
19
100
AcDbEntity
  8
1
  6
Continuous
 62
     7
100
AcDbCircle
 10
269.7316870734671
 20
715.5289206302818
 30
0.0
 40
4.5
100
AcDbArc
 50
180.0
 51
270.0
  0
LINE
  5
1DA
330
19
100
AcDbEntity
  8
1
  6
Continuous
 62
     7
100
AcDbLine
 10
1480.231687073467
 20
706.0289206302818
 30
0.0
 11
1480.231687073467
 21
746.0289206302818
 31
0.0
  0
LINE
  5
1DB
330
19
100
AcDbEntity
  8
1
  6
Continuous
 62
     7
100
AcDbLine
 10
1475.231687073467
 20
743.0289206302818
 30
0.0
 11
1475.231687073467
 21
715.5289206302818
 31
0.0
  0
LINE
  5
1DC
330
19
100
AcDbEntity
  8
1
  6
Continuous
 62
     7
100
AcDbLine
 10
1440.231687073467
 20
708.0289206302818
 30
0.0
 11
1440.231687073467
 21
706.0289206302818
 31
0.0
  0
ARC
  5
1DD
330
19
100
AcDbEntity
  8
1
  6
Continuous
 62
     7
100
AcDbCircle
 10
1478.231687073467
 20
743.0289206302818
 30
0.0
 40
3.0
100
AcDbArc
 50
90.0
 51
180.0
  0
ARC
  5
1DE
330
19
100
AcDbEntity
  8
1
  6
Continuous
 62
     7
100
AcDbCircle
 10
1443.231687073467
 20
708.0289206302818
 30
0.0
 40
3.0
100
AcDbArc
 50
90.0
 51
180.0
  0
ARC
  5
1DF
330
19
100
AcDbEntity
  8
1
  6
Continuous
 62
     7
100
AcDbCircle
 10
1470.731687073467
 20
715.5289206302818
 30
0.0
 40
4.5
100
AcDbArc
 50
270.0
 51
0.0
  0
LINE
  5
1E0
330
19
100
AcDbEntity
  8
1
  6
Continuous
 62
     7
100
AcDbLine
 10
269.7316870734671
 20
711.0289206302818
 30
0.0
 11
1470.731687073467
 21
711.0289206302818
 31
0.0
  0
LINE
  5
1E1
330
19
100
AcDbEntity
  8
1
  6
Continuous
 62
     7
100
AcDbLine
 10
1480.231687073467
 20
706.0289206302818
 30
0.0
 11
260.2316870734671
 21
706.0289206302818
 31
0.0
  0
LINE
  5
1E2
330
19
100
AcDbEntity
  8
1
  6
Continuous
 62
     7
100
AcDbLine
 10
260.2316870734671
 20
746.0289206302818
 30
0.0
 11
1480.231687073467
 21
746.0289206302818
 31
0.0
  0
LINE
  5
1F7
330
19
100
AcDbEntity
  8
7
100
AcDbLine
 10
870.2316870734671
 20
769.9244123445819
 30
0.0
 11
870.2316870734671
 21
663.2870221957818
 31
0.0
  0
LINE
  5
212
330
19
100
AcDbEntity
  8
1
  6
Continuous
 62
     7
100
AcDbLine
 10
409.5990206133624
 20
383.3452038824848
 30
0.0
 11
409.5990206133624
 21
423.3452038824848
 31
0.0
  0
LINE
  5
213
330
19
100
AcDbEntity
  8
1
  6
Continuous
 62
     7
100
AcDbLine
 10
414.5990206133624
 20
420.3452038824848
 30
0.0
 11
414.5990206133624
 21
392.8452038824848
 31
0.0
  0
ARC
  5
214
330
19
100
AcDbEntity
  8
1
  6
Continuous
 62
     7
100
AcDbCircle
 10
411.5990206133623
 20
420.3452038824848
 30
0.0
 40
3.0
100
AcDbArc
 50
0.0
 51
90.0
  0
ARC
  5
215
330
19
100
AcDbEntity
  8
1
  6
Continuous
 62
     7
100
AcDbCircle
 10
446.5990206133624
 20
385.3452038824848
 30
0.0
 40
3.0
100
AcDbArc
 50
0.0
 51
90.0
  0
ARC
  5
216
330
19
100
AcDbEntity
  8
1
  6
Continuous
 62
     7
100
AcDbCircle
 10
419.0990206133624
 20
392.8452038824848
 30
0.0
 40
4.5
100
AcDbArc
 50
180.0
 51
270.0
  0
LINE
  5
22B
330
19
100
AcDbEntity
  8
1
  6
Continuous
 62
     7
100
AcDbLine
 10
419.0990206133624
 20
388.3452038824848
 30
0.0
 11
446.5990206133624
 21
388.3452038824848
 31
0.0
  0
LINE
  5
22C
330
19
100
AcDbEntity
  8
1
  6
Continuous
 62
     7
100
AcDbLine
 10
449.5990206133624
 20
383.3452038824848
 30
0.0
 11
409.5990206133624
 21
383.3452038824848
 31
0.0
  0
LINE
  5
22D
330
19
100
AcDbEntity
  8
1
  6
Continuous
 62
     7
100
AcDbLine
 10
449.5990206133624
 20
385.3452038824848
 30
0.0
 11
449.5990206133624
 21
383.3452038824848
 31
0.0
  0
LINE
  5
22E
330
19
100
AcDbEntity
  8
1
  6
Continuous
 62
     7
100
AcDbLine
 10
409.5990206133624
 20
423.3452038824848
 30
0.0
 11
411.5990206133623
 21
423.3452038824848
 31
0.0
  0
LINE
  5
22F
330
19
100
AcDbEntity
  8
1
100
AcDbLine
 10
449.5990206133624
 20
383.3452038824848
 30
0.0
 11
449.5990206133624
 21
153.3452038824848
 31
0.0
  0
LINE
  5
230
330
19
100
AcDbEntity
  8
1
100
AcDbLine
 10
409.5990206133624
 20
423.3452038824848
 30
0.0
 11
220.4485990336625
 21
423.3452038824848
 31
0.0
  0
LINE
  5
231
330
19
100
AcDbEntity
  8
1
100
AcDbLine
 10
449.5990206133624
 20
253.3452038824848
 30
0.0
 11
223.3462393138625
 21
253.3452038824848
 31
0.0
  0
LINE
  5
232
330
19
100
AcDbEntity
  8
1
100
AcDbLine
 10
449.5990206133624
 20
303.3452038824848
 30
0.0
 11
223.3462393138625
 21
303.3452038824848
 31
0.0
  0
LINE
  5
233
330
19
100
AcDbEntity
  8
1
100
AcDbLine
 10
449.5990206133624
 20
153.3452038824848
 30
0.0
 11
223.3462393138625
 21
153.3452038824848
 31
0.0
  0
LINE
  5
234
330
19
100
AcDbEntity
  8
8
100
AcDbLine
 10
273.3462393138625
 20
303.3452038824848
 30
0.0
 11
223.3462393138625
 21
253.3452038824848
 31
0.0
  0
LINE
  5
235
330
19
100
AcDbEntity
  8
8
100
AcDbLine
 10
231.8315206881625
 20
253.3452038824848
 30
0.0
 11
281.8315206881625
 21
303.3452038824848
 31
0.0
  0
LINE
  5
236
330
19
100
AcDbEntity
  8
8
100
AcDbLine
 10
290.3168020623625
 20
303.3452038824848
 30
0.0
 11
240.3168020623625
 21
253.3452038824848
 31
0.0
  0
LINE
  5
237
330
19
100
AcDbEntity
  8
8
100
AcDbLine
 10
381.7381582996627
 20
253.3452038824848
 30
0.0
 11
431.7381582996627
 21
303.3452038824848
 31
0.0
  0
LINE
  5
238
330
19
100
AcDbEntity
  8
8
100
AcDbLine
 10
440.2234396738626
 20
303.3452038824848
 30
0.0
 11
390.2234396738627
 21
253.3452038824848
 31
0.0
  0
LINE
  5
239
330
19
100
AcDbEntity
  8
8
100
AcDbLine
 10
398.7087210481627
 20
253.3452038824848
 30
0.0
 11
449.5990206133624
 21
303.3452038824848
 31
0.0
  0
LINE
  5
23A
330
19
100
AcDbEntity
  8
8
100
AcDbLine
 10
250.1411585569627
 20
253.3452038824848
 30
0.0
 11
223.3462393138625
 21
153.3452038824848
 31
0.0
  0
LINE
  5
23B
330
19
100
AcDbEntity
  8
8
100
AcDbLine
 10
239.4231908597626
 20
153.3452038824848
 30
0.0
 11
231.3847150867628
 21
183.3452038824848
 31
0.0
  0
LINE
  5
23C
330
19
100
AcDbEntity
  8
8
100
AcDbLine
 10
242.1026827840624
 20
223.3452038824848
 30
0.0
 11
234.0642070111626
 21
253.3452038824848
 31
0.0
  0
LINE
  5
23D
330
19
100
AcDbEntity
  8
8
100
AcDbLine
 10
439.4231908597626
 20
153.3452038824848
 30
0.0
 11
431.3847150867627
 21
183.3452038824848
 31
0.0
  0
LINE
  5
23E
330
19
100
AcDbEntity
  8
8
100
AcDbLine
 10
442.1026827840623
 20
223.3452038824848
 30
0.0
 11
434.0642070111625
 21
253.3452038824848
 31
0.0
  0
LINE
  5
23F
330
19
100
AcDbEntity
  8
8
100
AcDbLine
 10
400.1411585569626
 20
253.3452038824848
 30
0.0
 11
373.3462393138625
 21
153.3452038824848
 31
0.0
  0
LINE
  5
240
330
19
100
AcDbEntity
  8
8
100
AcDbLine
 10
389.4231908597626
 20
153.3452038824848
 30
0.0
 11
381.3847150867628
 21
183.3452038824848
 31
0.0
  0
LINE
  5
241
330
19
100
AcDbEntity
  8
8
100
AcDbLine
 10
392.1026827840624
 20
223.3452038824848
 30
0.0
 11
384.0642070111626
 21
253.3452038824848
 31
0.0
  0
LINE
  5
242
330
19
100
AcDbEntity
  8
8
100
AcDbLine
 10
350.1411585569627
 20
253.3452038824848
 30
0.0
 11
323.3462393138625
 21
153.3452038824848
 31
0.0
  0
LINE
  5
243
330
19
100
AcDbEntity
  8
8
100
AcDbLine
 10
339.4231908597626
 20
153.3452038824848
 30
0.0
 11
331.3847150867628
 21
183.3452038824848
 31
0.0
  0
LINE
  5
244
330
19
100
AcDbEntity
  8
8
100
AcDbLine
 10
342.1026827840624
 20
223.3452038824848
 30
0.0
 11
334.0642070111626
 21
253.3452038824848
 31
0.0
  0
LINE
  5
245
330
19
100
AcDbEntity
  8
8
100
AcDbLine
 10
300.1411585569627
 20
253.3452038824848
 30
0.0
 11
273.3462393138625
 21
153.3452038824848
 31
0.0
  0
LINE
  5
246
330
19
100
AcDbEntity
  8
8
100
AcDbLine
 10
289.4231908597626
 20
153.3452038824848
 30
0.0
 11
281.3847150867628
 21
183.3452038824848
 31
0.0
  0
LINE
  5
247
330
19
100
AcDbEntity
  8
8
100
AcDbLine
 10
292.1026827840624
 20
223.3452038824848
 30
0.0
 11
284.0642070111626
 21
253.3452038824848
 31
0.0
  0
LINE
  5
248
330
19
100
AcDbEntity
  8
8
100
AcDbLine
 10
449.5990206133624
 20
251.3219175320851
 30
0.0
 11
423.3462393138625
 21
153.3452038824848
 31
0.0
  0
ARC
  5
249
330
19
100
AcDbEntity
  8
1
  6
Continuous
 62
     7
100
AcDbCircle
 10
471.4724714232625
 20
400.3452038824848
 30
0.0
 40
3.0
100
AcDbArc
 50
7.5946433686
 51
90.0
  0
LINE
  5
24A
330
19
100
AcDbEntity
  8
1
  6
Continuous
 62
     7
100
AcDbLine
 10
475.8675976053623
 20
390.0808764423848
 30
0.0
 11
474.4461551252625
 21
400.7416950427848
 31
0.0
  0
ARC
  5
24B
330
19
100
AcDbEntity
  8
1
  6
Continuous
 62
     7
100
AcDbCircle
 10
477.8500534067624
 20
390.3452038824848
 30
0.0
 40
2.0
100
AcDbArc
 50
187.5946433686
 51
270.0
  0
LINE
  5
24F
330
19
100
AcDbEntity
  8
7
100
AcDbLine
 10
494.0990206133624
 20
425.7222813457847
 30
0.0
 11
494.0990206133624
 21
381.0552288856848
 31
0.0
  0
LINE
  5
250
330
19
100
AcDbEntity
  8
1
  6
Continuous
 62
     7
100
AcDbLine
 10
507.0990206133624
 20
408.3452038824848
 30
0.0
 11
481.0990206133624
 21
408.3452038824848
 31
0.0
  0
LINE
  5
251
330
19
100
AcDbEntity
  8
1
  6
Continuous
 62
     7
100
AcDbLine
 10
488.0990206133624
 20
408.3452038824848
 30
0.0
 11
488.0990206133624
 21
406.3452038824848
 31
0.0
  0
LINE
  5
252
330
19
100
AcDbEntity
  8
1
  6
Continuous
 62
     7
100
AcDbLine
 10
500.0990206133624
 20
408.3452038824848
 30
0.0
 11
500.0990206133624
 21
406.3452038824848
 31
0.0
  0
LINE
  5
253
330
19
100
AcDbEntity
  8
1
  6
Continuous
 62
     7
100
AcDbLine
 10
500.0990206133624
 20
406.3452038824848
 30
0.0
 11
501.2990206133626
 21
403.3452038824848
 31
0.0
  0
LINE
  5
254
330
19
100
AcDbEntity
  8
1
  6
Continuous
 62
     7
100
AcDbLine
 10
488.0990206133624
 20
406.3452038824848
 30
0.0
 11
486.8990206133625
 21
403.3452038824848
 31
0.0
  0
LINE
  5
255
330
19
100
AcDbEntity
  8
1
  6
Continuous
 62
     7
100
AcDbLine
 10
510.0990206133624
 20
418.3452038824848
 30
0.0
 11
507.0990206133624
 21
408.3452038824848
 31
0.0
  0
LINE
  5
256
330
19
100
AcDbEntity
  8
1
  6
Continuous
 62
     7
100
AcDbLine
 10
478.0990206133624
 20
418.3452038824848
 30
0.0
 11
481.0990206133624
 21
408.3452038824848
 31
0.0
  0
ARC
  5
257
330
19
100
AcDbEntity
  8
1
  6
Continuous
 62
     7
100
AcDbCircle
 10
435.7255698033627
 20
400.3452038824848
 30
0.0
 40
3.0
100
AcDbArc
 50
90.0
 51
172.4053566314
  0
LINE
  5
258
330
19
100
AcDbEntity
  8
1
  6
Continuous
 62
     7
100
AcDbLine
 10
431.3304436212624
 20
390.0808764423848
 30
0.0
 11
432.7518861013627
 21
400.7416950427848
 31
0.0
  0
ARC
  5
259
330
19
100
AcDbEntity
  8
1
  6
Continuous
 62
     7
100
AcDbCircle
 10
429.3479878199623
 20
390.3452038824848
 30
0.0
 40
2.0
100
AcDbArc
 50
270.0
 51
352.4053566314
  0
LINE
  5
25A
330
19
100
AcDbEntity
  8
1
  6
Continuous
 62
     7
100
AcDbLine
 10
420.9745564813625
 20
390.2121658614849
 30
0.0
 11
419.0990206133624
 21
418.3452038824848
 31
0.0
  0
ARC
  5
25B
330
19
100
AcDbEntity
  8
1
  6
Continuous
 62
     7
100
AcDbCircle
 10
422.9701267970626
 20
390.3452038824848
 30
0.0
 40
2.0
100
AcDbArc
 50
183.8140748343
 51
270.0
  0
LINE
  5
25C
330
19
100
AcDbEntity
  8
1
  6
Continuous
 62
     7
100
AcDbLine
 10
503.8990206133625
 20
408.3452038824848
 30
0.0
 11
503.8990206133625
 21
415.4452038824847
 31
0.0
  0
LINE
  5
25D
330
19
100
AcDbEntity
  8
1
  6
Continuous
 62
     7
100
AcDbLine
 10
503.8990206133625
 20
415.4452038824847
 30
0.0
 11
503.1738916133626
 21
415.8638568824849
 31
0.0
  0
LINE
  5
25E
330
19
100
AcDbEntity
  8
1
  6
Continuous
 62
     7
100
AcDbLine
 10
501.3774816133623
 20
416.3452038824848
 30
0.0
 11
486.8205596133625
 21
416.3452038824848
 31
0.0
  0
LINE
  5
25F
330
19
100
AcDbEntity
  8
1
  6
Continuous
 62
     7
100
AcDbLine
 10
485.0241496133626
 20
415.8638568824849
 30
0.0
 11
484.2990206133626
 21
415.4452038824847
 31
0.0
  0
LINE
  5
260
330
19
100
AcDbEntity
  8
1
  6
Continuous
 62
     7
100
AcDbLine
 10
484.2990206133626
 20
415.4452038824847
 30
0.0
 11
484.2990206133626
 21
408.3452038824848
 31
0.0
  0
LINE
  5
261
330
19
100
AcDbEntity
  8
1
  6
Continuous
 62
     7
100
AcDbLine
 10
489.1990206133623
 20
415.4452038824847
 30
0.0
 11
489.1990206133623
 21
408.3452038824848
 31
0.0
  0
LINE
  5
262
330
19
100
AcDbEntity
  8
1
  6
Continuous
 62
     7
100
AcDbLine
 10
498.9990206133625
 20
415.4452038824847
 30
0.0
 11
498.9990206133625
 21
408.3452038824848
 31
0.0
  0
ARC
  5
263
330
19
100
AcDbEntity
  8
1
  6
Continuous
 62
     7
100
AcDbCircle
 10
486.8205596133625
 20
412.7523838824847
 30
0.0
 40
3.5928201014
100
AcDbArc
 50
48.54711703020001
 51
120.0000031195
  0
ARC
  5
264
330
19
100
AcDbEntity
  8
1
  6
Continuous
 62
     7
100
AcDbCircle
 10
501.3774816133623
 20
412.7523838824847
 30
0.0
 40
3.5928196612
100
AcDbArc
 50
59.9999968805
 51
131.4528829698
  0
ARC
  5
265
330
19
100
AcDbEntity
  8
1
  6
Continuous
 62
     7
100
AcDbCircle
 10
494.0990206133624
 20
402.5563149936847
 30
0.0
 40
13.7888888889
100
AcDbArc
 50
69.184577375
 51
110.815422625
  0
LINE
  5
266
330
19
100
AcDbEntity
  8
4A
100
AcDbLine
 10
497.5990206133624
 20
383.3452038824848
 30
0.0
 11
497.5990206133624
 21
408.3452038824848
 31
0.0
  0
LINE
  5
267
330
19
100
AcDbEntity
  8
4A
100
AcDbLine
 10
490.5990206133624
 20
408.3452038824848
 30
0.0
 11
490.5990206133624
 21
383.3452038824848
 31
0.0
  0
LINE
  5
268
330
19
100
AcDbEntity
  8
1
  6
Continuous
 62
     7
100
AcDbLine
 10
473.7085394007626
 20
402.3452038824848
 30
0.0
 11
489.0990206133624
 21
402.3452038824848
 31
0.0
  0
LINE
  5
269
330
19
100
AcDbEntity
  8
1
  6
Continuous
 62
     7
100
AcDbLine
 10
435.7255698033627
 20
403.3452038824848
 30
0.0
 11
489.0990206133624
 21
403.3452038824848
 31
0.0
  0
LINE
  5
26A
330
19
100
AcDbEntity
  8
1
  6
Continuous
 62
     7
100
AcDbLine
 10
419.0990206133624
 20
418.3452038824848
 30
0.0
 11
544.6786353138627
 21
418.3452038824848
 31
0.0
  0
LINE
  5
26B
330
19
100
AcDbEntity
  8
1
  6
Continuous
 62
     7
100
AcDbLine
 10
499.0990206133623
 20
403.3452038824848
 30
0.0
 11
544.6786353138627
 21
403.3452038824848
 31
0.0
  0
LINE
  5
26C
330
19
100
AcDbEntity
  8
1
  6
Continuous
 62
     7
100
AcDbLine
 10
499.0990206133623
 20
402.3452038824848
 30
0.0
 11
544.6786353138627
 21
402.3452038824848
 31
0.0
  0
LINE
  5
26D
330
19
100
AcDbEntity
  8
1
  6
Continuous
 62
     7
100
AcDbLine
 10
489.0990206133624
 20
384.3452038824848
 30
0.0
 11
489.0990206133624
 21
408.3452038824848
 31
0.0
  0
LINE
  5
26E
330
19
100
AcDbEntity
  8
1
  6
Continuous
 62
     7
100
AcDbLine
 10
489.0990206133624
 20
384.3452038824848
 30
0.0
 11
490.0990206133624
 21
383.3452038824848
 31
0.0
  0
LINE
  5
26F
330
19
100
AcDbEntity
  8
1
  6
Continuous
 62
     7
100
AcDbLine
 10
499.0990206133623
 20
384.3452038824848
 30
0.0
 11
499.0990206133623
 21
408.3452038824848
 31
0.0
  0
LINE
  5
270
330
19
100
AcDbEntity
  8
1
  6
Continuous
 62
     7
100
AcDbLine
 10
498.0990206133624
 20
383.3452038824848
 30
0.0
 11
490.0990206133624
 21
383.3452038824848
 31
0.0
  0
LINE
  5
271
330
19
100
AcDbEntity
  8
1
  6
Continuous
 62
     7
100
AcDbLine
 10
498.0990206133624
 20
383.3452038824848
 30
0.0
 11
499.0990206133623
 21
384.3452038824848
 31
0.0
  0
LINE
  5
272
330
19
100
AcDbEntity
  8
1
  6
Continuous
 62
     7
100
AcDbLine
 10
477.8500534067624
 20
388.3452038824848
 30
0.0
 11
489.0990206133624
 21
388.3452038824848
 31
0.0
  0
LINE
  5
273
330
19
100
AcDbEntity
  8
1
  6
Continuous
 62
     7
100
AcDbLine
 10
499.0990206133623
 20
388.3452038824848
 30
0.0
 11
544.6786353138627
 21
388.3452038824848
 31
0.0
  0
LINE
  5
274
330
19
100
AcDbEntity
  8
4A
100
AcDbLine
 10
489.0990206133624
 20
384.3452038824848
 30
0.0
 11
499.0990206133623
 21
384.3452038824848
 31
0.0
  0
LINE
  5
27C
330
19
100
AcDbEntity
  8
1
100
AcDbLine
 10
399.5990206133624
 20
423.3452038824848
 30
0.0
 11
399.5990206133624
 21
393.3452038824849
 31
0.0
  0
LINE
  5
27D
330
19
100
AcDbEntity
  8
1
100
AcDbLine
 10
315.5990206133624
 20
393.3452038824849
 30
0.0
 11
315.5990206133624
 21
423.3452038824848
 31
0.0
  0
LINE
  5
27E
330
19
100
AcDbEntity
  8
1
100
AcDbLine
 10
307.5990206133624
 20
423.3452038824848
 30
0.0
 11
307.5990206133624
 21
393.3452038824849
 31
0.0
  0
LINE
  5
27F
330
19
100
AcDbEntity
  8
1
100
AcDbLine
 10
307.5990206133624
 20
393.3452038824849
 30
0.0
 11
215.5990206133624
 21
393.3452038824849
 31
0.0
  0
LINE
  5
280
330
19
100
AcDbEntity
  8
1
100
AcDbLine
 10
315.5990206133624
 20
393.3452038824849
 30
0.0
 11
399.5990206133624
 21
393.3452038824849
 31
0.0
  0
TEXT
  5
283
330
19
100
AcDbEntity
  8
1
  6
Continuous
 62
     7
100
AcDbText
 10
248.3136424375179
 20
96.35506203474438
 30
0.0
 40
30.0
  1
施工参考例
 41
0.8372093023255814
 72
     5
 11
392.313642437518
 21
96.35506203474438
 31
0.0
100
AcDbText
  0
SOLID
  5
2D8
330
19
100
AcDbEntity
  8
6
100
AcDbTrace
 10
417.6344215293624
 20
433.7169894463848
 30
0.0
 11
422.0117239105625
 21
429.3097332053848
 31
0.0
 12
411.5990206133623
 22
423.3452038824848
 32
0.0
 13
411.5990206133623
 23
423.3452038824848
 33
0.0
  0
TEXT
  5
2D9
330
19
100
AcDbEntity
  8
6
 62
     2
100
AcDbText
 10
543.3423013635624
 20
560.1930931737847
 30
0.0
 40
24.0
  1
アングル受枠
 41
0.7572115384615384
 72
     5
 11
669.3423013635624
 21
560.1930931737847
 31
0.0
100
AcDbText
  0
LINE
  5
2DA
330
19
100
AcDbEntity
  8
6
100
AcDbLine
 10
411.5990206133623
 20
423.3452038824848
 30
0.0
 11
543.3423016739625
 21
554.1930934450847
 31
0.0
  0
LINE
  5
2DB
330
19
100
AcDbEntity
  8
6
100
AcDbLine
 10
543.3423016739625
 20
554.1930934450847
 30
0.0
 11
669.3423016739625
 21
554.1930934450847
 31
0.0
  0
SOLID
  5
2DE
330
19
100
AcDbEntity
  8
6
100
AcDbTrace
 10
465.7366893321627
 20
427.7124159189847
 30
0.0
 11
469.4154381968624
 21
422.7072695174847
 31
0.0
 12
458.2363334296624
 22
418.3452038824848
 32
0.0
 13
458.2363334296624
 23
418.3452038824848
 33
0.0
  0
TEXT
  5
2DF
330
19
100
AcDbEntity
  8
6
 62
     2
100
AcDbText
 10
546.3528743635625
 20
489.1102681737847
 30
0.0
 40
24.0
  1
ツリ－エレガンス
 41
0.7663043478260883
 72
     5
 11
715.5528743635628
 21
489.1102681737847
 31
0.0
100
AcDbText
  0
LINE
  5
2E0
330
19
100
AcDbEntity
  8
6
100
AcDbLine
 10
458.2363334296624
 20
418.3452038824848
 30
0.0
 11
546.3528746803627
 21
483.1102676955847
 31
0.0
  0
LINE
  5
2E1
330
19
100
AcDbEntity
  8
6
100
AcDbLine
 10
546.3528746803627
 20
483.1102676955847
 30
0.0
 11
715.5528746803625
 21
483.1102676955847
 31
0.0
  0
SOLID
  5
2E2
330
19
100
AcDbEntity
  8
6
100
AcDbTrace
 10
461.1783377725624
 20
194.8722821246847
 30
0.0
 11
458.0522483613626
 21
189.504577894485
 31
0.0
 12
449.5990206133624
 22
198.021792265285
 32
0.0
 13
449.5990206133624
 23
198.021792265285
 33
0.0
  0
TEXT
  5
2E3
330
19
100
AcDbEntity
  8
6
 62
     2
100
AcDbText
 10
546.3528743635625
 20
147.6734571737847
 30
0.0
 40
24.0
  1
クラツシャ－ラン
 41
0.7663043478260884
 72
     5
 11
715.5528743635628
 21
147.6734571737847
 31
0.0
100
AcDbText
  0
LINE
  5
2E4
330
19
100
AcDbEntity
  8
6
100
AcDbLine
 10
449.5990206133624
 20
198.021792265285
 30
0.0
 11
546.3528746803627
 21
141.6734567917851
 31
0.0
  0
LINE
  5
2E5
330
19
100
AcDbEntity
  8
6
100
AcDbLine
 10
546.3528746803627
 20
141.6734567917851
 30
0.0
 11
715.5528746803625
 21
141.6734567917851
 31
0.0
  0
SOLID
  5
2E6
330
19
100
AcDbEntity
  8
6
100
AcDbTrace
 10
461.2625589263625
 20
272.4626060588848
 30
0.0
 11
458.2891014450624
 21
267.0088702459848
 31
0.0
 12
449.5990206133624
 22
275.2842853495849
 32
0.0
 13
449.5990206133624
 23
275.2842853495849
 33
0.0
  0
TEXT
  5
2E7
330
19
100
AcDbEntity
  8
6
 62
     2
100
AcDbText
 10
546.3528743635625
 20
228.5326521737848
 30
0.0
 40
24.0
  1
コンクリ－ト
 41
0.7797029702970296
 72
     5
 11
672.3528743635625
 21
228.5326521737848
 31
0.0
100
AcDbText
  0
LINE
  5
2E8
330
19
100
AcDbEntity
  8
6
100
AcDbLine
 10
449.5990206133624
 20
275.2842853495849
 30
0.0
 11
546.3528746803627
 21
222.5326521403849
 31
0.0
  0
LINE
  5
2E9
330
19
100
AcDbEntity
  8
6
100
AcDbLine
 10
546.3528746803627
 20
222.5326521403849
 30
0.0
 11
672.3528746803626
 21
222.5326521403849
 31
0.0
  0
SOLID
  5
2EA
330
19
100
AcDbEntity
  8
6
100
AcDbTrace
 10
461.3176551683623
 20
336.5091157525849
 30
0.0
 11
458.4559898411625
 21
330.9958993351847
 31
0.0
 12
449.5990206133624
 22
339.0924477416847
 32
0.0
 13
449.5990206133624
 23
339.0924477416847
 33
0.0
  0
TEXT
  5
2EB
330
19
100
AcDbEntity
  8
6
 62
     2
100
AcDbText
 10
546.3528743635625
 20
294.8718271737848
 30
0.0
 40
24.0
  1
モルタル
 41
0.784090909090911
 72
     5
 11
629.1528743635626
 21
294.8718271737848
 31
0.0
100
AcDbText
  0
LINE
  5
2EC
330
19
100
AcDbEntity
  8
6
100
AcDbLine
 10
449.5990206133624
 20
339.0924477416847
 30
0.0
 11
546.3528746803627
 21
288.8718272368846
 31
0.0
  0
LINE
  5
2ED
330
19
100
AcDbEntity
  8
6
100
AcDbLine
 10
546.3528746803627
 20
288.8718272368846
 30
0.0
 11
629.1528746803623
 21
288.8718272368846
 31
0.0
  0
SOLID
  5
2EF
330
19
100
AcDbEntity
  8
6
100
AcDbTrace
 10
367.0688214060624
 20
433.8116751463849
 30
0.0
 11
373.0884431739628
 21
435.3442668990846
 31
0.0
 12
372.9384874342627
 22
423.3452038824848
 32
0.0
 13
372.9384874342627
 23
423.3452038824848
 33
0.0
  0
TEXT
  5
2F0
330
19
100
AcDbEntity
  8
6
 62
     2
100
AcDbText
 10
188.5223413635626
 20
489.1102681737847
 30
0.0
 40
24.0
  1
レンガ・タイル等
 41
0.7553571428571415
 72
     5
 11
357.7223413635625
 21
489.1102681737847
 31
0.0
100
AcDbText
  0
LINE
  5
2F1
330
19
100
AcDbEntity
  8
6
100
AcDbLine
 10
372.9384874342627
 20
423.3452038824848
 30
0.0
 11
357.7223413984625
 21
483.1102676955847
 31
0.0
  0
LINE
  5
2F2
330
19
100
AcDbEntity
  8
6
100
AcDbLine
 10
357.7223413984625
 20
483.1102676955847
 30
0.0
 11
188.5223413984627
 21
483.1102676955847
 31
0.0
  0
DIMENSION
  5
32E
330
19
100
AcDbEntity
  8
5
100
AcDbDimension
  2
*D6
 10
148.4485990336625
 20
303.3452038824848
 30
0.0
 11
128.9465321045286
 21
363.3452038824849
 31
0.0
 70
    32
  1
<>
 71
     5
 42
120.0
  3
GEN-ISO
100
AcDbAlignedDimension
 13
220.4485990336625
 23
423.3452038824848
 33
0.0
 14
223.3462393138625
 24
303.3452038824848
 34
0.0
 50
90.0
100
AcDbRotatedDimension
1001
GENIUS_GENDREL_13
1005
0
1005
365
1040
0.0
1001
GENIUS_GENDTOL_13
1000

1000
JS7
1000

1040
0.0
1001
ACAD
1000
DSTYLE
1002
{
1070
   178
1070
     2
1070
   174
1070
     1
1070
   279
1070
     2
1002
}
  0
DIMENSION
  5
365
330
19
100
AcDbEntity
  8
5
100
AcDbDimension
  2
*D7
 10
148.4485990336625
 20
253.3452038824849
 30
0.0
 11
128.9485990336624
 21
278.3452038824849
 31
0.0
 70
    32
  1
<>
 71
     5
 42
50.0
  3
GEN-ISO
100
AcDbAlignedDimension
 13
223.3462393138625
 23
303.3452038824848
 33
0.0
 14
223.3462393138625
 24
253.3452038824848
 34
0.0
 50
90.0
100
AcDbRotatedDimension
1001
GENIUS_GENDREL_13
1005
32E
1005
3BF
1040
0.0
1001
GENIUS_GENDTOL_13
1000

1000
JS7
1000

1040
0.0
1001
ACAD
1000
DSTYLE
1002
{
1070
   178
1070
     2
1070
   174
1070
     1
1070
   279
1070
     2
1002
}
  0
DIMENSION
  5
3BF
330
19
100
AcDbEntity
  8
5
100
AcDbDimension
  2
*D8
 10
148.4485990336625
 20
153.3452038824848
 30
0.0
 11
128.9485990336624
 21
203.3452038824849
 31
0.0
 70
    32
  1
<>
 71
     5
 42
100.0
  3
GEN-ISO
100
AcDbAlignedDimension
 13
223.3462393138625
 23
253.3452038824848
 33
0.0
 14
223.3462393138625
 24
153.3452038824848
 34
0.0
 50
90.0
100
AcDbRotatedDimension
1001
GENIUS_GENDREL_13
1005
365
1005
0
1040
0.0
1001
GENIUS_GENDTOL_13
1000

1000
JS7
1000

1040
0.0
1001
ACAD
1000
DSTYLE
1002
{
1070
   178
1070
     2
1070
   174
1070
     1
1070
   279
1070
     2
1002
}
  0
DIMENSION
  5
421
330
19
100
AcDbEntity
  8
5
100
AcDbDimension
  2
*D9
 10
1552.231687073467
 20
706.0289206302869
 30
0.0
 11
1532.731687073467
 21
654.4206529137515
 31
0.0
 70
    32
  1
<>
 71
     5
 42
39.9999999999709
  3
GEN-ISO
100
AcDbAlignedDimension
 13
1480.231687073467
 23
746.0289206302577
 33
0.0
 14
1480.231687073467
 24
706.0289206302869
 34
0.0
 50
90.0
100
AcDbRotatedDimension
1001
GENIUS_GENDTOL_13
1000

1000
JS7
1000

1040
0.0
1001
ACAD
1000
DSTYLE
1002
{
1070
   178
1070
     2
1002
}
  0
DIMENSION
  5
467
330
19
100
AcDbEntity
  8
5
100
AcDbDimension
  2
*D10
 10
319.948940908389
 20
666.0289206302818
 30
0.0
 11
300.4489409083888
 21
614.4206529137465
 31
0.0
 70
    32
  1
<>
 71
     5
 42
40.0
  3
GEN-ISO
100
AcDbAlignedDimension
 13
292.5316870734673
 23
706.0289206302818
 33
0.0
 14
296.2316870734671
 24
666.0289206302818
 34
0.0
 50
90.0
100
AcDbRotatedDimension
1001
GENIUS_GENDTOL_13
1000

1000
JS7
1000

1040
0.0
1001
ACAD
1000
DSTYLE
1002
{
1070
   178
1070
     2
1002
}
  0
DIMENSION
  5
48D
330
19
100
AcDbEntity
  8
5
100
AcDbDimension
  2
*D11
 10
265.2316870734671
 20
818.0289206302576
 30
0.0
 11
262.7316870734671
 21
837.5289206302577
 31
0.0
 70
    32
  1
<>
 71
     5
 42
5.0
  3
GEN-ISO
100
AcDbAlignedDimension
 13
260.2316870734671
 23
746.0289206302577
 33
0.0
 14
265.2316870734671
 24
743.0289206302868
 34
0.0
100
AcDbRotatedDimension
1001
GENIUS_GENDREL_13
1005
0
1005
4A9
1040
0.0
1001
GENIUS_GENDTOL_13
1000

1000
JS7
1000

1040
0.0
1001
ACAD
1000
DSTYLE
1002
{
1070
   178
1070
     2
1070
   174
1070
     1
1070
   279
1070
     2
1002
}
  0
DIMENSION
  5
4A9
330
19
100
AcDbEntity
  8
5
100
AcDbDimension
  2
*D12
 10
1475.231687073467
 20
818.0289206302576
 30
0.0
 11
870.2316870734671
 21
837.5309875593917
 31
0.0
 70
    32
  1
<>
 71
     5
 42
1210.0
  3
GEN-ISO
100
AcDbAlignedDimension
 13
265.2316870734671
 23
743.0289206302868
 33
0.0
 14
1475.231687073467
 24
743.0289206302818
 34
0.0
100
AcDbRotatedDimension
1001
GENIUS_GENDREL_13
1005
48D
1005
55F
1040
0.0
1001
GENIUS_GENDTOL_13
1000

1000
JS7
1000

1040
0.0
1001
ACAD
1000
DSTYLE
1002
{
1070
   178
1070
     2
1070
   174
1070
     1
1070
   279
1070
     2
1002
}
  0
DIMENSION
  5
500
330
19
100
AcDbEntity
  8
5
100
AcDbDimension
  2
*D13
 10
1480.231687073467
 20
818.0289206302576
 30
0.0
 11
1477.731687073467
 21
837.5289206302577
 31
0.0
 70
    32
  1
<>
 71
     5
 42
5.0
  3
GEN-ISO
100
AcDbAlignedDimension
 13
1475.231687073467
 23
743.0289206302818
 33
0.0
 14
1480.231687073467
 24
746.0289206302818
 34
0.0
100
AcDbRotatedDimension
1001
GENIUS_GENDREL_13
1005
4A9
1005
0
1040
0.0
1001
GENIUS_GENDTOL_13
1000

1000
JS7
1000

1040
0.0
1001
ACAD
1000
DSTYLE
1002
{
1070
   178
1070
     2
1070
   174
1070
     1
1070
   279
1070
     2
1002
}
  0
DIMENSION
  5
55F
330
19
100
AcDbEntity
  8
5
100
AcDbDimension
  2
*D14
 10
260.2316870734671
 20
878.0289206302578
 30
0.0
 11
870.2316870734671
 21
897.5309875593916
 31
0.0
 70
    32
  1
<>
 71
     5
 42
1220.0
  3
GEN-ISO
100
AcDbAlignedDimension
 13
1480.231687073467
 23
746.0289206302818
 33
0.0
 14
260.2316870734671
 24
746.0289206302818
 34
0.0
100
AcDbRotatedDimension
1001
GENIUS_GENDREL_13
1005
4A9
1005
0
1040
10.0
1001
GENIUS_GENDTOL_13
1000

1000
JS7
1000

1040
0.0
1001
ACAD
1000
DSTYLE
1002
{
1070
   178
1070
     2
1002
}
  0
INSERT
  5
C35
330
19
100
AcDbEntity
  8
0
100
AcDbBlockReference
  2
IGS_A3-T
 10
0.0
 20
0.0
 30
0.0
 41
6.0
 42
6.0
 43
6.0
1001
GENIUS_GENSCREG_13
1040
6.0
1040
1.0
1011
0.0
1021
0.0
1031
0.0
1011
1662.0
1021
2400.0
1031
0.0
1001
GENIUS_GENODEF_13
1002
{
1000
HIER
1070
     0
1002
}
1002
{
1000
MANEDIT
1070
     0
1002
}
1002
{
1000
NOSEL
1070
     0
1002
}
1002
{
1000
BEHIND
1070
     0
1002
}
1002
{
1000
REACTOR
1002
}
1001
GENIUS_GENOBJ-N-SDF_13
1002
{
1000
OWNER
1000
GEN
1002
}
1001
GENIUS_GENOREF_13
1005
DD6
  0
INSERT
  5
DCD
330
19
100
AcDbEntity
  8
0
100
AcDbBlockReference
 66
     1
  2
IGS-TITLE-NO2
 10
1722.000000000022
 20
60.00000000000034
 30
0.0
 41
6.0
 42
6.0
 43
6.0
1001
GENIUS_GENOREF_13
1005
DD6
  0
ATTRIB
  5
DCE
330
DCD
100
AcDbEntity
  8
RAHM3
100
AcDbText
 10
838.4424797209089
 20
251.6837339891167
 30
0.0
 40
24.0
  1
1:6
100
AcDbAttribute
  2
GEN-TITLE-SCA
 70
     0
  0
ATTRIB
  5
DCF
330
DCD
100
AcDbEntity
  8
RAHM3
100
AcDbText
 10
1283.460000000022
 20
238.4400000000003
 30
0.0
 40
30.0
  1
ツリーエレガンス用受枠
100
AcDbAttribute
  2
ＴＩＴＬＥ
 70
     0
  0
ATTRIB
  5
DD0
330
DCD
100
AcDbEntity
  8
RAHM3
100
AcDbText
 10
1292.622731064979
 20
190.8262987626834
 30
0.0
 40
18.0
  1
IAR-12
100
AcDbAttribute
  2
ｃｏｄｅ
 70
     0
  0
ATTRIB
  5
DD1
330
DCD
100
AcDbEntity
  8
RAHM3
100
AcDbText
 10
1297.531161036243
 20
148.8262987626397
 30
0.0
 40
18.0
  1

100
AcDbAttribute
  2
件名
 70
     0
  0
ATTRIB
  5
DD2
330
DCD
100
AcDbEntity
  8
RAHM3
100
AcDbText
 10
1283.460000000022
 20
70.43999999995668
 30
0.0
 40
30.0
  1
Ｔ２２Ａ００３３１
100
AcDbAttribute
  2
Ｎｏ．
 70
     0
  0
ATTRIB
  5
DD3
330
DCD
100
AcDbEntity
  8
RAHM3
100
AcDbText
 10
1119.300000000022
 20
164.4425359267596
 30
0.0
 40
24.0
  1

100
AcDbAttribute
  2
ＤＲ
 70
     0
  0
ATTRIB
  5
DD4
330
DCD
100
AcDbEntity
  8
RAHM3
100
AcDbText
 10
1111.563828670501
 20
136.6200000000003
 30
0.0
 40
18.0
  1

 41
0.8000000000000001
100
AcDbAttribute
  2
ｄａｔｅ
 70
     0
  0
SEQEND
  5
DD5
330
DCD
100
AcDbEntity
  8
0
  0
POINT
  5
DD6
330
19
100
AcDbEntity
  8
0
 60
     1
100
AcDbPoint
 10
0.0
 20
0.0
 30
0.0
1001
GENIUS_GENODEF_13
1002
{
1000
HIER
1070
     1
1002
}
1002
{
1000
MANEDIT
1070
     0
1002
}
1002
{
1000
NOSEL
1070
     0
1002
}
1002
{
1000
BEHIND
1070
     0
1002
}
1002
{
1000
REACTOR
1002
}
1001
GENIUS_GENTITLE_13
1002
{
1000
SCALE
1000
1:6
1002
}
1002
{
1000
BORDER
1000
IGS_A3-T
1002
}
1002
{
1000
TITLE
1000
IGS-TITLE-NO2
1002
}
1002
{
1000
UNCHG
1002
{
1000
GEN-TITLE-SCA
1000
GEN-TITLE-SIZ
1002
}
1002
}
1002
{
1000
HRA
1005
C35
1002
}
1002
{
1000
HTIT
1005
DCD
1002
}
1002
{
1000
GENIUSID
1005
DD6
1002
}
1001
GENIUS_GENOBJ-N-TIT_13
1002
{
1000
OWNER
1000
GEN
1002
}
1001
GENIUS_GENOENT_13
1002
{
1000
MYREF
1005
DD6
1002
}
1002
{
1000
GRP
1005
0
1002
}
1001
GENIUS_GENOLIS_13
1002
{
1000
ENT
1005
DCD
1005
C35
1002
}
  0
SOLID
  5
1012
330
19
100
AcDbEntity
  8
6
100
AcDbTrace
 10
272.1764205853668
 20
1582.0117586508
 30
0.0
 11
267.4779774693669
 21
1586.0749244111
 31
0.0
 12
277.4091695559668
 22
1592.8107557436
 32
0.0
 13
277.4091695559668
 23
1592.8107557436
 33
0.0
  0
LINE
  5
1013
330
19
100
AcDbEntity
  8
6
100
AcDbLine
 10
277.4091695559668
 20
1592.8107557436
 30
0.0
 11
189.5494397847668
 21
1491.2141271865
 31
0.0
  0
CIRCLE
  5
1014
330
19
100
AcDbEntity
  8
6
100
AcDbCircle
 10
169.9258560628668
 20
1468.522389441
 30
0.0
 40
30.0
  0
TEXT
  5
1015
330
19
100
AcDbEntity
  8
1
  6
Continuous
 62
     7
100
AcDbText
 10
154.9258557508668
 20
1450.5223890908
 30
0.0
 40
36.0
  1
３
 41
1.136363636363636
 72
     5
 11
184.9258557508668
 21
1450.5223890908
 31
0.0
100
AcDbText
  0
SOLID
  5
1016
330
19
100
AcDbEntity
  8
6
100
AcDbTrace
 10
335.0380892078669
 20
1948.5953006905
 30
0.0
 11
337.6901401373669
 21
1954.2123559312
 31
0.0
 12
346.8456824462669
 22
1946.4550339042
 32
0.0
 13
346.8456824462669
 23
1946.4550339042
 33
0.0
  0
LINE
  5
1017
330
19
100
AcDbEntity
  8
6
100
AcDbLine
 10
346.8456824462669
 20
1946.4550339042
 30
0.0
 11
197.0541496863669
 21
2017.1779940083
 31
0.0
  0
CIRCLE
  5
1018
330
19
100
AcDbEntity
  8
6
100
AcDbCircle
 10
169.9258560628669
 20
2029.986416435701
 30
0.0
 40
30.0
  0
TEXT
  5
1019
330
19
100
AcDbEntity
  8
1
  6
Continuous
 62
     7
100
AcDbText
 10
146.571410902788
 20
2011.986416090801
 30
0.0
 40
36.0
  1
１
 41
1.388888888888888
 72
     5
 11
176.571410902788
 21
2011.986416090801
 31
0.0
100
AcDbText
  0
SOLID
  5
101A
330
19
100
AcDbEntity
  8
6
100
AcDbTrace
 10
1472.497262383519
 20
659.4329924163818
 30
0.0
 11
1467.856249016219
 21
655.3043511586817
 31
0.0
 12
1462.472606229919
 22
666.0289206302817
 32
0.0
 13
1462.472606229919
 23
666.0289206302817
 33
0.0
  0
LINE
  5
101B
330
19
100
AcDbEntity
  8
6
100
AcDbLine
 10
1462.472606229919
 20
666.0289206302817
 30
0.0
 11
1522.838631149119
 21
598.1713590028817
 31
0.0
  0
CIRCLE
  5
101C
330
19
100
AcDbEntity
  8
1
  6
ByBlock
 62
     7
100
AcDbCircle
 10
1542.778437240519
 20
575.7569856447816
 30
0.0
 40
30.0
  0
TEXT
  5
101D
330
19
100
AcDbEntity
  8
1
  6
Continuous
 62
     7
100
AcDbText
 10
1527.778436907319
 20
557.7569860513817
 30
0.0
 40
36.0
  1
２
 41
1.136363636363636
 72
     5
 11
1557.77843690732
 21
557.7569860513817
 31
0.0
100
AcDbText
  0
CIRCLE
  5
108C
330
19
100
AcDbEntity
  8
0
100
AcDbCircle
 10
1008.887972582291
 20
249.9258661962766
 30
0.0
 40
29.99999999340067
  0
LINE
  5
108D
330
19
100
AcDbEntity
  8
0
100
AcDbLine
 10
1037.014744731991
 20
260.3606488026768
 30
0.0
 11
980.7612004325902
 21
260.3606488026768
 31
0.0
  0
TEXT
  5
108E
330
19
100
AcDbEntity
  8
0
100
AcDbText
 10
1001.533703581404
 20
261.7834980260898
 30
0.0
 40
15.00000000000033
  1
篠
 72
     4
 11
1008.533703581404
 21
269.2834980260899
 31
0.0
100
AcDbText
  0
TEXT
  5
108F
330
19
100
AcDbEntity
  8
0
100
AcDbText
 10
1002.484092661104
 20
221.9897110285407
 30
0.0
 40
15.00000000000033
  1
崎
 72
     4
 11
1009.484092661104
 21
229.4897110285408
 31
0.0
100
AcDbText
  0
LINE
  5
1090
330
19
100
AcDbEntity
  8
0
100
AcDbLine
 10
1037.014744731991
 20
239.4910835898766
 30
0.0
 11
980.7612004325902
 21
239.4910835898762
 31
0.0
  0
LINE
  5
1091
330
19
100
AcDbEntity
  8
0
100
AcDbLine
 10
1187.686285789354
 20
157.0731952801636
 30
0.0
 11
1131.432741489952
 21
157.0731952801633
 31
0.0
  0
LINE
  5
1092
330
19
100
AcDbEntity
  8
0
100
AcDbLine
 10
1187.686285789354
 20
177.9427604929639
 30
0.0
 11
1131.432741489952
 21
177.9427604929639
 31
0.0
  0
CIRCLE
  5
1093
330
19
100
AcDbEntity
  8
0
100
AcDbCircle
 10
1159.559513639652
 20
167.5079778865637
 30
0.0
 40
29.99999999340067
  0
TEXT
  5
1094
330
19
100
AcDbEntity
  8
TEXT
100
AcDbText
 10
1133.352333859876
 20
159.6818909317634
 30
0.0
 40
15.6521739096
  1
98.09.06
 41
0.6889623377593637
 72
     5
 11
1184.107116457405
 21
159.6818909317634
 31
0.0
100
AcDbText
  0
TEXT
  5
1095
330
19
100
AcDbEntity
  8
0
100
AcDbText
 10
1153.155633718466
 20
139.5718227188277
 30
0.0
 40
15.00000000000033
  1
本
 72
     4
 11
1160.155633718467
 21
147.0718227188279
 31
0.0
100
AcDbText
  0
TEXT
  5
1096
330
19
100
AcDbEntity
  8
0
100
AcDbText
 10
1152.205244638766
 20
179.3656097163768
 30
0.0
 40
15.00000000000033
  1
松
 72
     4
 11
1159.205244638766
 21
186.865609716377
 31
0.0
100
AcDbText
  0
LINE
  5
1097
330
19
100
AcDbEntity
  8
0
100
AcDbLine
 10
1187.686285789354
 20
241.073195280172
 30
0.0
 11
1131.432741489952
 21
241.0731952801717
 31
0.0
  0
LINE
  5
1098
330
19
100
AcDbEntity
  8
0
100
AcDbLine
 10
1187.686285789354
 20
261.9427604929723
 30
0.0
 11
1131.432741489952
 21
261.9427604929723
 31
0.0
  0
CIRCLE
  5
1099
330
19
100
AcDbEntity
  8
0
100
AcDbCircle
 10
1159.559513639652
 20
251.5079778865721
 30
0.0
 40
29.99999999340067
  0
TEXT
  5
109B
330
19
100
AcDbEntity
  8
0
100
AcDbText
 10
1153.155633718466
 20
223.5718227188361
 30
0.0
 40
15.00000000000033
  1
木
 72
     4
 11
1160.155633718467
 21
231.0718227188363
 31
0.0
100
AcDbText
  0
TEXT
  5
109C
330
19
100
AcDbEntity
  8
0
100
AcDbText
 10
1152.205244638766
 20
263.3656097163852
 30
0.0
 40
15.00000000000033
  1
鈴
 72
     4
 11
1159.205244638766
 21
270.8656097163854
 31
0.0
100
AcDbText
  0
TEXT
  5
10A2
330
19
100
AcDbEntity
  8
0
100
AcDbText
 10
1002.205244638766
 20
179.3656097163768
 30
0.0
 40
15.00000000000033
  1
松
 72
     4
 11
1009.205244638766
 21
186.865609716377
 31
0.0
100
AcDbText
  0
TEXT
  5
10A3
330
19
100
AcDbEntity
  8
0
100
AcDbText
 10
1003.155633718467
 20
139.5718227188277
 30
0.0
 40
15.00000000000033
  1
本
 72
     4
 11
1010.155633718467
 21
147.0718227188279
 31
0.0
100
AcDbText
  0
TEXT
  5
10A4
330
19
100
AcDbEntity
  8
TEXT
100
AcDbText
 10
983.3523338598761
 20
159.6818909317634
 30
0.0
 40
15.6521739096
  1
98.09.06
 41
0.6889623377593637
 72
     5
 11
1034.107116457405
 21
159.6818909317634
 31
0.0
100
AcDbText
  0
CIRCLE
  5
10A5
330
19
100
AcDbEntity
  8
0
100
AcDbCircle
 10
1009.559513639652
 20
167.5079778865637
 30
0.0
 40
29.99999999340067
  0
LINE
  5
10A6
330
19
100
AcDbEntity
  8
0
100
AcDbLine
 10
1037.686285789354
 20
177.9427604929639
 30
0.0
 11
981.4327414899517
 21
177.9427604929639
 31
0.0
  0
LINE
  5
10A7
330
19
100
AcDbEntity
  8
0
100
AcDbLine
 10
1037.686285789354
 20
157.0731952801636
 30
0.0
 11
981.4327414899517
 21
157.0731952801633
 31
0.0
  0
TEXT
  5
10A9
330
19
100
AcDbEntity
  8
TEXT
100
AcDbText
 10
983.3523338598761
 20
243.6818909317718
 30
0.0
 40
15.6521739096
  1
98.09.06
 41
0.6889623377593637
 72
     5
 11
1034.107116457405
 21
243.6818909317718
 31
0.0
100
AcDbText
  0
TEXT
  5
10AA
330
19
100
AcDbEntity
  8
TEXT
100
AcDbText
 10
1133.352333859876
 20
243.6818909317718
 30
0.0
 40
15.6521739096
  1
98.09.06
 41
0.6889623377593637
 72
     5
 11
1184.107116457405
 21
243.6818909317718
 31
0.0
100
AcDbText
  0
LINE
  5
113F
330
19
100
AcDbEntity
  8
AM_0
100
AcDbLine
 10
296.2316870734671
 20
675.0289206302818
 30
0.0
 11
296.2316870734671
 21
666.0289206302818
 31
0.0
  0
ARC
  5
1140
330
19
100
AcDbEntity
  8
AM_0
100
AcDbCircle
 10
280.2316870734671
 20
680.0289206302818
 30
0.0
 40
14.0
100
AcDbArc
 50
180.0
 51
270.0
1001
GENIUS_GENOBJ-N-FIL_13
1002
{
1000
OWNER
1000
GEN
1002
}
1001
GENIUS_GENODEF_13
1002
{
1000
HIER
1070
     0
1002
}
1002
{
1000
MANEDIT
1070
     0
1002
}
1002
{
1000
NOSEL
1070
     0
1002
}
1002
{
1000
BEHIND
1070
     0
1002
}
1002
{
1000
OTHER
1070
     0
1002
}
1002
{
1000
REACTOR
1002
}
  0
ARC
  5
1141
330
19
100
AcDbEntity
  8
AM_7
100
AcDbCircle
 10
280.2316870734671
 20
680.0289206302818
 30
0.0
 40
9.5
100
AcDbArc
 50
180.0
 51
270.0
1001
GENIUS_GENOBJ-N-FIL_13
1002
{
1000
OWNER
1000
GEN
1002
}
1001
GENIUS_GENODEF_13
1002
{
1000
HIER
1070
     0
1002
}
1002
{
1000
MANEDIT
1070
     0
1002
}
1002
{
1000
NOSEL
1070
     0
1002
}
1002
{
1000
BEHIND
1070
     0
1002
}
1002
{
1000
OTHER
1070
     0
1002
}
1002
{
1000
REACTOR
1002
}
  0
ARC
  5
1142
330
19
100
AcDbEntity
  8
AM_0
100
AcDbCircle
 10
280.2316870734671
 20
680.0289206302818
 30
0.0
 40
5.0
100
AcDbArc
 50
180.0
 51
270.0
1001
GENIUS_GENOBJ-N-FIL_13
1002
{
1000
OWNER
1000
GEN
1002
}
1001
GENIUS_GENODEF_13
1002
{
1000
HIER
1070
     0
1002
}
1002
{
1000
MANEDIT
1070
     0
1002
}
1002
{
1000
NOSEL
1070
     0
1002
}
1002
{
1000
BEHIND
1070
     0
1002
}
1002
{
1000
OTHER
1070
     0
1002
}
1002
{
1000
REACTOR
1002
}
  0
LINE
  5
1143
330
19
100
AcDbEntity
  8
AM_0
100
AcDbLine
 10
280.2316870734671
 20
675.0289206302818
 30
0.0
 11
296.2316870734671
 21
675.0289206302818
 31
0.0
  0
LINE
  5
1144
330
19
100
AcDbEntity
  8
AM_7
100
AcDbLine
 10
280.2316870734671
 20
670.5289206302818
 30
0.0
 11
301.1719174592058
 21
670.5289206302818
 31
0.0
  0
LINE
  5
1145
330
19
100
AcDbEntity
  8
AM_0
100
AcDbLine
 10
280.2316870734671
 20
666.0289206302818
 30
0.0
 11
296.2316870734671
 21
666.0289206302818
 31
0.0
  0
LINE
  5
1146
330
19
100
AcDbEntity
  8
AM_0
100
AcDbLine
 10
275.2316870734671
 20
680.0289206302818
 30
0.0
 11
275.2316870734671
 21
706.0289206302818
 31
0.0
  0
LINE
  5
1147
330
19
100
AcDbEntity
  8
AM_0
100
AcDbLine
 10
266.2316870734671
 20
680.0289206302818
 30
0.0
 11
266.2316870734671
 21
706.0289206302818
 31
0.0
  0
LINE
  5
1148
330
19
100
AcDbEntity
  8
AM_7
100
AcDbLine
 10
270.7316870734671
 20
680.0289206302818
 30
0.0
 11
270.7316870734671
 21
707.706455097988
 31
0.0
  0
LINE
  5
1154
330
19
100
AcDbEntity
  8
AM_0
100
AcDbLine
 10
1460.231687073467
 20
666.0289206302818
 30
0.0
 11
1444.231687073467
 21
666.0289206302818
 31
0.0
  0
LINE
  5
1155
330
19
100
AcDbEntity
  8
AM_7
100
AcDbLine
 10
1460.231687073467
 20
670.5289206302818
 30
0.0
 11
1439.291456687728
 21
670.5289206302818
 31
0.0
  0
LINE
  5
1156
330
19
100
AcDbEntity
  8
AM_0
100
AcDbLine
 10
1460.231687073467
 20
675.0289206302818
 30
0.0
 11
1444.231687073467
 21
675.0289206302818
 31
0.0
  0
ARC
  5
1157
330
19
100
AcDbEntity
  8
AM_0
100
AcDbCircle
 10
1460.231687073467
 20
680.0289206302818
 30
0.0
 40
5.0
100
AcDbArc
 50
270.0
 51
0.000000000000007
1001
GENIUS_GENOBJ-N-FIL_13
1002
{
1000
OWNER
1000
GEN
1002
}
1001
GENIUS_GENODEF_13
1002
{
1000
HIER
1070
     0
1002
}
1002
{
1000
MANEDIT
1070
     0
1002
}
1002
{
1000
NOSEL
1070
     0
1002
}
1002
{
1000
BEHIND
1070
     0
1002
}
1002
{
1000
OTHER
1070
     0
1002
}
1002
{
1000
REACTOR
1002
}
  0
ARC
  5
1158
330
19
100
AcDbEntity
  8
AM_7
100
AcDbCircle
 10
1460.231687073467
 20
680.0289206302818
 30
0.0
 40
9.5
100
AcDbArc
 50
270.0
 51
0.000000000000007
1001
GENIUS_GENOBJ-N-FIL_13
1002
{
1000
OWNER
1000
GEN
1002
}
1001
GENIUS_GENODEF_13
1002
{
1000
HIER
1070
     0
1002
}
1002
{
1000
MANEDIT
1070
     0
1002
}
1002
{
1000
NOSEL
1070
     0
1002
}
1002
{
1000
BEHIND
1070
     0
1002
}
1002
{
1000
OTHER
1070
     0
1002
}
1002
{
1000
REACTOR
1002
}
  0
ARC
  5
1159
330
19
100
AcDbEntity
  8
AM_0
100
AcDbCircle
 10
1460.231687073467
 20
680.0289206302818
 30
0.0
 40
14.0
100
AcDbArc
 50
270.0
 51
0.000000000000007
1001
GENIUS_GENOBJ-N-FIL_13
1002
{
1000
OWNER
1000
GEN
1002
}
1001
GENIUS_GENODEF_13
1002
{
1000
HIER
1070
     0
1002
}
1002
{
1000
MANEDIT
1070
     0
1002
}
1002
{
1000
NOSEL
1070
     0
1002
}
1002
{
1000
BEHIND
1070
     0
1002
}
1002
{
1000
OTHER
1070
     0
1002
}
1002
{
1000
REACTOR
1002
}
  0
LINE
  5
115A
330
19
100
AcDbEntity
  8
AM_0
100
AcDbLine
 10
1444.231687073467
 20
675.0289206302818
 30
0.0
 11
1444.231687073467
 21
666.0289206302818
 31
0.0
  0
LINE
  5
115B
330
19
100
AcDbEntity
  8
AM_7
100
AcDbLine
 10
1469.731687073467
 20
680.0289206302818
 30
0.0
 11
1469.731687073467
 21
707.706455097988
 31
0.0
  0
LINE
  5
115C
330
19
100
AcDbEntity
  8
AM_0
100
AcDbLine
 10
1474.231687073467
 20
680.0289206302818
 30
0.0
 11
1474.231687073467
 21
706.0289206302818
 31
0.0
  0
LINE
  5
115D
330
19
100
AcDbEntity
  8
AM_0
100
AcDbLine
 10
1465.231687073467
 20
680.0289206302818
 30
0.0
 11
1465.231687073467
 21
706.0289206302818
 31
0.0
  0
CIRCLE
  5
1194
330
19
100
AcDbEntity
  8
3A
 48
0.5
100
AcDbCircle
 10
1099.650404776266
 20
1079.272976003054
 30
0.0
 40
4.500000000050022
  0
LINE
  5
1195
330
19
100
AcDbEntity
  8
3A
 48
0.5
100
AcDbLine
 10
1085.734519354589
 20
1101.109828636358
 30
0.0
 11
1094.049435147302
 21
1104.553979527708
 31
0.0
  0
LINE
  5
1196
330
19
100
AcDbEntity
  8
7
100
AcDbLine
 10
1085.553114133038
 20
1113.306846266347
 30
0.0
 11
1104.460168363443
 21
1067.66117951901
 31
0.0
  0
LINE
  5
1197
330
19
100
AcDbEntity
  8
3A
 48
0.5
100
AcDbLine
 10
1094.049435147302
 20
1104.553979527708
 30
0.0
 11
1103.807862672517
 21
1080.995051448685
 31
0.0
  0
LINE
  5
1198
330
19
100
AcDbEntity
  8
3A
 48
0.5
100
AcDbLine
 10
1095.492946879922
 20
1077.550900557384
 30
0.0
 11
1085.734519354589
 21
1101.109828636358
 31
0.0
  0
LINE
  5
1199
330
19
100
AcDbEntity
  8
7
100
AcDbLine
 10
1088.038608292194
 20
1074.463212415811
 30
0.0
 11
1111.262201260337
 21
1084.082739590297
 31
0.0
  0
MTEXT
  5
1233
330
19
100
AcDbEntity
  8
建築-AM_6
100
AcDbMText
 10
1692.000000000022
 20
90.00000000000055
 30
0.0
 40
21.0
 41
14.38526454346065
 71
     5
 72
     5
  1
1
 73
     1
 44
1.0
1001
GENIUS_AMGTXT_16
1040
3.5
1040
0.12
1001
ACAD
1000
MTEXTBEGIN
1070
    73
1070
     1
1070
    44
1040
1.0
1070
    74
1070
     0
1000
MTEXTEND
  0
LINE
  5
1285
330
19
100
AcDbEntity
  8
7
100
AcDbLine
 10
1419.287703226752
 20
1392.108241556569
 30
0.0
 11
1428.907230401154
 21
1415.331834524745
 31
0.0
  0
LINE
  5
1286
330
19
100
AcDbEntity
  8
3A
 48
0.5
100
AcDbLine
 10
1422.375391368299
 20
1399.562580144307
 30
0.0
 11
1398.81646328929
 21
1409.321007669555
 31
0.0
  0
LINE
  5
1287
330
19
100
AcDbEntity
  8
3A
 48
0.5
100
AcDbLine
 10
1402.260614180609
 20
1417.635923462281
 30
0.0
 11
1425.81954225957
 21
1407.877495936915
 31
0.0
  0
LINE
  5
1288
330
19
100
AcDbEntity
  8
7
100
AcDbLine
 10
1390.063596550572
 20
1417.817328683671
 30
0.0
 11
1435.709263297976
 21
1398.910274453428
 31
0.0
  0
LINE
  5
1289
330
19
100
AcDbEntity
  8
3A
 48
0.5
100
AcDbLine
 10
1398.81646328929
 20
1409.321007669555
 30
0.0
 11
1402.260614180609
 21
1417.635923462281
 31
0.0
  0
CIRCLE
  5
128A
330
19
100
AcDbEntity
  8
3A
 48
0.5
100
AcDbCircle
 10
1424.097466813953
 20
1403.720038040657
 30
0.0
 40
4.500000000050022
  0
LINE
  5
128B
330
19
100
AcDbEntity
  8
7
100
AcDbLine
 10
1428.907230401277
 20
1850.945676962277
 30
0.0
 11
1419.287703226791
 21
1874.16926993042
 31
0.0
  0
LINE
  5
128C
330
19
100
AcDbEntity
  8
3A
 48
0.5
100
AcDbLine
 10
1425.819542259704
 20
1858.400015550005
 30
0.0
 11
1402.26061418073
 21
1848.641588024672
 31
0.0
  0
LINE
  5
128D
330
19
100
AcDbEntity
  8
3A
 48
0.5
100
AcDbLine
 10
1398.81646328938
 20
1856.956503817385
 30
0.0
 11
1422.375391368403
 21
1866.7149313426
 31
0.0
  0
LINE
  5
128E
330
19
100
AcDbEntity
  8
7
100
AcDbLine
 10
1390.063596550741
 20
1848.460182803121
 30
0.0
 11
1435.709263298078
 21
1867.367237033526
 31
0.0
  0
LINE
  5
128F
330
19
100
AcDbEntity
  8
3A
 48
0.5
100
AcDbLine
 10
1402.26061418073
 20
1848.641588024672
 30
0.0
 11
1398.81646328938
 21
1856.956503817385
 31
0.0
  0
CIRCLE
  5
1290
330
19
100
AcDbEntity
  8
3A
 48
0.5
100
AcDbCircle
 10
1424.097466814035
 20
1862.557473446349
 30
0.0
 40
4.500000000050022
  0
LINE
  5
1291
330
19
100
AcDbEntity
  8
7
100
AcDbLine
 10
1111.262201260499
 20
2182.194771896885
 30
0.0
 11
1088.038608292322
 21
2191.814299071288
 31
0.0
  0
LINE
  5
1292
330
19
100
AcDbEntity
  8
3A
 48
0.5
100
AcDbLine
 10
1103.807862672761
 20
2185.282460038433
 30
0.0
 11
1094.049435147512
 21
2161.723531959423
 31
0.0
  0
LINE
  5
1293
330
19
100
AcDbEntity
  8
3A
 48
0.5
100
AcDbLine
 10
1085.734519354787
 20
2165.167682850743
 30
0.0
 11
1095.492946880153
 21
2188.726610929703
 31
0.0
  0
LINE
  5
1294
330
19
100
AcDbEntity
  8
7
100
AcDbLine
 10
1085.553114133397
 20
2152.970665220705
 30
0.0
 11
1104.460168363639
 21
2198.61633196811
 31
0.0
  0
LINE
  5
1295
330
19
100
AcDbEntity
  8
3A
 48
0.5
100
AcDbLine
 10
1094.049435147512
 20
2161.723531959423
 30
0.0
 11
1085.734519354787
 21
2165.167682850743
 31
0.0
  0
CIRCLE
  5
1296
330
19
100
AcDbEntity
  8
3A
 48
0.5
100
AcDbCircle
 10
1099.65040477641
 20
2187.004535484087
 30
0.0
 40
4.500000000050022
  0
LINE
  5
1297
330
19
100
AcDbEntity
  8
7
100
AcDbLine
 10
652.424765854744
 20
2191.814299071392
 30
0.0
 11
629.2011728866016
 21
2182.194771896905
 31
0.0
  0
LINE
  5
1298
330
19
100
AcDbEntity
  8
3A
 48
0.5
100
AcDbLine
 10
644.9704272670165
 20
2188.726610929818
 30
0.0
 11
654.7288547923496
 21
2165.167682850844
 31
0.0
  0
LINE
  5
1299
330
19
100
AcDbEntity
  8
3A
 48
0.5
100
AcDbLine
 10
646.4139389996364
 20
2161.723531959494
 30
0.0
 11
636.6555114744212
 21
2185.282460038517
 31
0.0
  0
LINE
  5
129A
330
19
100
AcDbEntity
  8
7
100
AcDbLine
 10
654.9102600139006
 20
2152.970665220856
 30
0.0
 11
636.0032057834953
 21
2198.616331968192
 31
0.0
  0
LINE
  5
129B
330
19
100
AcDbEntity
  8
3A
 48
0.5
100
AcDbLine
 10
654.7288547923496
 20
2165.167682850844
 30
0.0
 11
646.4139389996364
 21
2161.723531959494
 31
0.0
  0
CIRCLE
  5
129C
330
19
100
AcDbEntity
  8
3A
 48
0.5
100
AcDbCircle
 10
640.8129693706727
 20
2187.004535484148
 30
0.0
 40
4.500000000050022
  0
LINE
  5
129D
330
19
100
AcDbEntity
  8
7
100
AcDbLine
 10
321.1756709201822
 20
1874.169269930633
 30
0.0
 11
311.5561437457799
 21
1850.945676962456
 31
0.0
  0
LINE
  5
129E
330
19
100
AcDbEntity
  8
3A
 48
0.5
100
AcDbLine
 10
318.0879827786355
 20
1866.714931342895
 30
0.0
 11
341.6469108576448
 21
1856.956503817647
 31
0.0
  0
LINE
  5
129F
330
19
100
AcDbEntity
  8
3A
 48
0.5
100
AcDbLine
 10
338.202759966325
 20
1848.641588024921
 30
0.0
 11
314.6438318873649
 21
1858.400015550287
 31
0.0
  0
LINE
  5
12A0
330
19
100
AcDbEntity
  8
7
100
AcDbLine
 10
350.3997775963629
 20
1848.460182803531
 30
0.0
 11
304.7541108489582
 21
1867.367237033773
 31
0.0
  0
LINE
  5
12A1
330
19
100
AcDbEntity
  8
3A
 48
0.5
100
AcDbLine
 10
341.6469108576448
 20
1856.956503817647
 30
0.0
 11
338.202759966325
 21
1848.641588024921
 31
0.0
  0
CIRCLE
  5
12A2
330
19
100
AcDbEntity
  8
3A
 48
0.5
100
AcDbCircle
 10
316.3659073329809
 20
1862.557473446545
 30
0.0
 40
4.500000000050022
  0
LINE
  5
12A3
330
19
100
AcDbEntity
  8
7
100
AcDbLine
 10
311.5561437456755
 20
1415.331834524878
 30
0.0
 11
321.1756709201615
 21
1392.108241556736
 31
0.0
  0
LINE
  5
12A4
330
19
100
AcDbEntity
  8
3A
 48
0.5
100
AcDbLine
 10
314.6438318872489
 20
1407.87749593715
 30
0.0
 11
338.202759966223
 21
1417.635923462484
 31
0.0
  0
LINE
  5
12A5
330
19
100
AcDbEntity
  8
3A
 48
0.5
100
AcDbLine
 10
341.6469108575726
 20
1409.32100766977
 30
0.0
 11
318.0879827785499
 21
1399.562580144555
 31
0.0
  0
LINE
  5
12A6
330
19
100
AcDbEntity
  8
7
100
AcDbLine
 10
350.3997775962117
 20
1417.817328684035
 30
0.0
 11
304.7541108488746
 21
1398.910274453629
 31
0.0
  0
LINE
  5
12A7
330
19
100
AcDbEntity
  8
3A
 48
0.5
100
AcDbLine
 10
338.202759966223
 20
1417.635923462484
 30
0.0
 11
341.6469108575726
 21
1409.32100766977
 31
0.0
  0
CIRCLE
  5
12A8
330
19
100
AcDbEntity
  8
3A
 48
0.5
100
AcDbCircle
 10
316.3659073329184
 20
1403.720038040806
 30
0.0
 40
4.500000000050022
  0
LINE
  5
12A9
330
19
100
AcDbEntity
  8
7
100
AcDbLine
 10
629.2011728864346
 20
1084.082739590315
 30
0.0
 11
652.4247658546116
 21
1074.463212415913
 31
0.0
  0
LINE
  5
12AA
330
19
100
AcDbEntity
  8
3A
 48
0.5
100
AcDbLine
 10
636.6555114741733
 20
1080.995051448768
 30
0.0
 11
646.4139389994212
 21
1104.553979527778
 31
0.0
  0
LINE
  5
12AB
330
19
100
AcDbEntity
  8
3A
 48
0.5
100
AcDbLine
 10
654.7288547921468
 20
1101.109828636458
 30
0.0
 11
644.970427266781
 21
1077.550900557498
 31
0.0
  0
LINE
  5
12AC
330
19
100
AcDbEntity
  8
7
100
AcDbLine
 10
654.9102600135369
 20
1113.306846266496
 30
0.0
 11
636.0032057832949
 21
1067.661179519091
 31
0.0
  0
LINE
  5
12AD
330
19
100
AcDbEntity
  8
3A
 48
0.5
100
AcDbLine
 10
646.4139389994212
 20
1104.553979527778
 30
0.0
 11
654.7288547921468
 21
1101.109828636458
 31
0.0
  0
CIRCLE
  5
12AE
330
19
100
AcDbEntity
  8
3A
 48
0.5
100
AcDbCircle
 10
640.8129693705229
 20
1079.272976003114
 30
0.0
 40
4.500000000050022
  0
LINE
  5
12AF
330
19
100
AcDbEntity
  8
AM_0
100
AcDbLine
 10
429.5990206133624
 20
343.3452038824849
 30
0.0
 11
445.5990206133624
 21
343.3452038824849
 31
0.0
  0
LINE
  5
12B0
330
19
100
AcDbEntity
  8
AM_7
100
AcDbLine
 10
429.5990206133624
 20
347.8452038824848
 30
0.0
 11
450.539250999101
 21
347.8452038824848
 31
0.0
  0
LINE
  5
12B1
330
19
100
AcDbEntity
  8
AM_0
100
AcDbLine
 10
429.5990206133624
 20
352.3452038824848
 30
0.0
 11
445.5990206133624
 21
352.3452038824848
 31
0.0
  0
ARC
  5
12B2
330
19
100
AcDbEntity
  8
AM_0
100
AcDbCircle
 10
429.5990206133624
 20
357.3452038824848
 30
0.0
 40
5.0
100
AcDbArc
 50
180.0
 51
270.0
1001
GENIUS_GENOBJ-N-FIL_13
1002
{
1000
OWNER
1000
GEN
1002
}
1001
GENIUS_GENODEF_13
1002
{
1000
HIER
1070
     0
1002
}
1002
{
1000
MANEDIT
1070
     0
1002
}
1002
{
1000
NOSEL
1070
     0
1002
}
1002
{
1000
BEHIND
1070
     0
1002
}
1002
{
1000
OTHER
1070
     0
1002
}
1002
{
1000
REACTOR
1002
}
  0
ARC
  5
12B3
330
19
100
AcDbEntity
  8
AM_7
100
AcDbCircle
 10
429.5990206133624
 20
357.3452038824848
 30
0.0
 40
9.5
100
AcDbArc
 50
180.0
 51
270.0
1001
GENIUS_GENOBJ-N-FIL_13
1002
{
1000
OWNER
1000
GEN
1002
}
1001
GENIUS_GENODEF_13
1002
{
1000
HIER
1070
     0
1002
}
1002
{
1000
MANEDIT
1070
     0
1002
}
1002
{
1000
NOSEL
1070
     0
1002
}
1002
{
1000
BEHIND
1070
     0
1002
}
1002
{
1000
OTHER
1070
     0
1002
}
1002
{
1000
REACTOR
1002
}
  0
ARC
  5
12B4
330
19
100
AcDbEntity
  8
AM_0
100
AcDbCircle
 10
429.5990206133624
 20
357.3452038824848
 30
0.0
 40
14.0
100
AcDbArc
 50
180.0
 51
270.0
1001
GENIUS_GENOBJ-N-FIL_13
1002
{
1000
OWNER
1000
GEN
1002
}
1001
GENIUS_GENODEF_13
1002
{
1000
HIER
1070
     0
1002
}
1002
{
1000
MANEDIT
1070
     0
1002
}
1002
{
1000
NOSEL
1070
     0
1002
}
1002
{
1000
BEHIND
1070
     0
1002
}
1002
{
1000
OTHER
1070
     0
1002
}
1002
{
1000
REACTOR
1002
}
  0
LINE
  5
12B5
330
19
100
AcDbEntity
  8
AM_0
100
AcDbLine
 10
445.5990206133624
 20
352.3452038824848
 30
0.0
 11
445.5990206133624
 21
343.3452038824849
 31
0.0
  0
LINE
  5
12B6
330
19
100
AcDbEntity
  8
AM_7
100
AcDbLine
 10
420.0990206133623
 20
357.3452038824848
 30
0.0
 11
420.0990206133623
 21
385.0227383501911
 31
0.0
  0
LINE
  5
12B7
330
19
100
AcDbEntity
  8
AM_0
100
AcDbLine
 10
415.5990206133624
 20
357.3452038824848
 30
0.0
 11
415.5990206133624
 21
383.3452038824848
 31
0.0
  0
LINE
  5
12B8
330
19
100
AcDbEntity
  8
AM_0
100
AcDbLine
 10
424.5990206133624
 20
357.3452038824848
 30
0.0
 11
424.5990206133624
 21
383.3452038824848
 31
0.0
  0
TEXT
  5
1305
330
19
100
AcDbEntity
  8
1
  6
Continuous
 62
     7
100
AcDbText
 10
1506.906530750921
 20
2343.0000000908
 30
0.0
 40
24.0
  1
樹脂系塗料塗装
 41
0.8299180327868851
 72
     5
 11
1668.906530750921
 21
2343.0000000908
 31
0.0
100
AcDbText
  0
ENDSEC
  0
SECTION
  2
OBJECTS
  0
DICTIONARY
  5
C
330
0
100
AcDbDictionary
281
     1
  3
ACAD_COLOR
350
F4E
  3
ACAD_GROUP
350
D
  3
ACAD_LAYOUT
350
EB3
  3
ACAD_MATERIAL
350
F4D
  3
ACAD_MLINESTYLE
350
E
  3
ACAD_PLOTSETTINGS
350
EB4
  3
ACAD_PLOTSTYLENAME
350
EB1
  3
ACDBHEADERROUNDTRIPXREC
350
13D4
  3
AcDbVariableDictionary
350
EBF
  3
AcmDictionary
350
ED6
  3
AMG
350
ED2
  3
AMGSNAPSETTINGS
350
FB2
  3
ASE_INDEX_DICTIONARY
350
13CC
  3
DWGPROPS
350
13D3
  0
DICTIONARY
  5
106D
330
2
100
AcDbDictionary
280
     1
281
     1
  3
ACAD_LAYERSTATES
360
106E
  0
DICTIONARY
  5
F3C
330
19
100
AcDbDictionary
280
     1
281
     1
  3
ACAD_INDEX
360
10DF
  0
DICTIONARY
  5
113A
330
1050
100
AcDbDictionary
280
     1
281
     1
  3
ACAD_SORTENTS
360
122F
  0
DICTIONARY
  5
F4E
102
{ACAD_REACTORS
330
C
102
}
330
C
100
AcDbDictionary
281
     1
  0
DICTIONARY
  5
D
102
{ACAD_REACTORS
330
C
102
}
330
C
100
AcDbDictionary
281
     1
  0
DICTIONARY
  5
EB3
102
{ACAD_REACTORS
330
C
102
}
330
C
100
AcDbDictionary
281
     1
  3
Model
350
EB5
  3
ﾚｲｱｳﾄ1
350
EB6
  0
DICTIONARY
  5
F4D
102
{ACAD_REACTORS
330
C
102
}
330
C
100
AcDbDictionary
281
     1
  0
DICTIONARY
  5
E
102
{ACAD_REACTORS
330
C
102
}
330
C
100
AcDbDictionary
281
     1
  3
STANDARD
350
1C
  0
DICTIONARY
  5
EB4
102
{ACAD_REACTORS
330
C
102
}
330
C
100
AcDbDictionary
281
     1
  0
ACDBDICTIONARYWDFLT
  5
EB1
102
{ACAD_REACTORS
330
C
102
}
330
C
100
AcDbDictionary
281
     1
  3
Normal
350
EB2
100
AcDbDictionaryWithDefault
340
EB2
  0
DICTIONARY
  5
13D4
102
{ACAD_REACTORS
330
C
102
}
330
C
100
AcDbDictionary
281
     1
  0
DICTIONARY
  5
EBF
102
{ACAD_REACTORS
330
C
102
}
330
C
100
AcDbDictionary
281
     1
  3
DIMASSOC
350
13D0
  3
INDEXCTL
350
EC0
  3
PROJECTNAME
350
13D1
  3
SORTENTS
350
13CF
  0
DICTIONARY
  5
ED6
102
{ACAD_REACTORS
330
C
102
}
330
C
100
AcDbDictionary
281
     1
  3
AcmStdDictionary
350
EDB
  3
AMDTSECTSYM_ARROWCOLOR
350
F55
  0
DICTIONARY
  5
ED2
102
{ACAD_REACTORS
330
C
102
}
330
C
100
AcDbDictionary
281
     1
  0
DICTIONARY
  5
FB2
102
{ACAD_REACTORS
330
C
102
}
330
C
100
AcDbDictionary
281
     1
  0
DICTIONARY
  5
13CC
102
{ACAD_REACTORS
330
C
102
}
330
C
100
AcDbDictionary
281
     1
  3
ASEBlockHierarchyIndexRecord
350
13CE
1001
DCO15
1040
1687091346.656
  0
XRECORD
  5
13D3
102
{ACAD_REACTORS
330
C
102
}
330
C
100
AcDbXrecord
280
     1
  1
DWGPROPS COOKIE
  2

  3

  4

  6

  7

  8

  9

300
AmdtFileType=84
301
=
302
=
303
=
304
=
305
=
306
=
307
=
308
=
309
=
 40
0.093758113425926
 41
2449465.0
 42
2455329.732067778
  1

 90
        1
  0
DICTIONARY
  5
106E
102
{ACAD_REACTORS
330
106D
102
}
330
106D
100
AcDbDictionary
281
     1
  0
DICTIONARY
  5
10DF
102
{ACAD_REACTORS
330
F3C
102
}
330
F3C
100
AcDbDictionary
281
     1
  3
*A1
350
10E0
  0
SORTENTSTABLE
  5
122F
102
{ACAD_REACTORS
330
113A
102
}
330
113A
100
AcDbSortentsTable
330
1050
  0
LAYOUT
  5
EB5
102
{ACAD_XDICTIONARY
360
13D5
102
}
102
{ACAD_REACTORS
330
EB3
102
}
330
EB3
100
AcDbPlotSettings
  1

  2
Kyocera KM-C2520(J) KX
  4
A3
  6
GEN1
 40
4.984749794006347
 41
5.111746788024902
 42
5.154083251953125
 43
4.9847412109375
 44
297.0106506347656
 45
419.9889831542968
 46
4.94
 47
4.95
 48
0.0
 49
0.0
140
0.0
141
0.0
142
1.0
143
6.0
 70
 11940
 72
     1
 73
     0
 74
     2
  7
KY-monochrome.ctb
 75
     0
147
0.1666666666666666
148
-60.00000000002149
149
-60.00000000000034
100
AcDbLayout
  1
Model
 70
     1
 71
     0
 10
0.0
 20
0.0
 11
12.0
 21
9.0
 12
0.0
 22
0.0
 32
0.0
 14
0.0
 24
0.0
 34
0.0
 15
0.0
 25
0.0
 35
0.0
146
0.0
 13
0.0
 23
0.0
 33
0.0
 16
1.0
 26
0.0
 36
0.0
 17
0.0
 27
1.0
 37
0.0
 76
     0
330
19
  0
LAYOUT
  5
EB6
102
{ACAD_XDICTIONARY
360
13D7
102
}
102
{ACAD_REACTORS
330
EB3
102
}
330
EB3
100
AcDbPlotSettings
  1

  2
CASIO SPEEDIA N4
  4

  6

 40
0.0
 41
0.0
 42
0.0
 43
0.0
 44
0.0
 45
0.0
 46
0.0
 47
0.0
 48
0.0
 49
0.0
140
0.0
141
0.0
142
1.0
143
1.0
 70
   688
 72
     0
 73
     0
 74
     5
  7
monochrome.ctb
 75
    16
147
1.0
148
0.0
149
0.0
100
AcDbLayout
  1
ﾚｲｱｳﾄ1
 70
     1
 71
     1
 10
0.0
 20
0.0
 11
12.0
 21
9.0
 12
0.0
 22
0.0
 32
0.0
 14
1.000000000000000E+20
 24
1.000000000000000E+20
 34
1.000000000000000E+20
 15
-1.000000000000000E+20
 25
-1.000000000000000E+20
 35
-1.000000000000000E+20
146
0.0
 13
0.0
 23
0.0
 33
0.0
 16
1.0
 26
0.0
 36
0.0
 17
0.0
 27
1.0
 37
0.0
 76
     0
330
16
  0
MLINESTYLE
  5
1C
102
{ACAD_REACTORS
330
E
102
}
330
E
100
AcDbMlineStyle
  2
STANDARD
 70
     0
  3

 62
     0
 51
90.0
 52
90.0
 71
     2
 49
0.5
 62
   256
  6
BYLAYER
 49
-0.5
 62
   256
  6
BYLAYER
  0
ACDBPLACEHOLDER
  5
EB2
102
{ACAD_REACTORS
330
EB1
102
}
330
EB1
  0
DICTIONARYVAR
  5
13D0
102
{ACAD_REACTORS
330
EBF
102
}
330
EBF
100
DictionaryVariables
280
     0
  1
1
  0
DICTIONARYVAR
  5
EC0
102
{ACAD_REACTORS
330
EBF
102
}
330
EBF
100
DictionaryVariables
280
     0
  1
1
  0
DICTIONARYVAR
  5
13D1
102
{ACAD_REACTORS
330
EBF
102
}
330
EBF
100
DictionaryVariables
280
     0
  1

  0
DICTIONARYVAR
  5
13CF
102
{ACAD_REACTORS
330
EBF
102
}
330
EBF
100
DictionaryVariables
280
     0
  1
103
  0
DICTIONARY
  5
EDB
102
{ACAD_REACTORS
330
ED6
102
}
330
ED6
100
AcDbDictionary
281
     1
  0
XRECORD
  5
F55
102
{ACAD_REACTORS
330
ED6
102
}
330
ED6
100
AcDbXrecord
280
     1
 90
-1023410169
  0
XRECORD
  5
13CE
102
{ACAD_REACTORS
330
13CC
102
}
330
13CC
100
AcDbXrecord
280
     1
330
C35
330
DCD
330
112
330
113
330
114
  0
LAYER_INDEX
  5
10E0
102
{ACAD_REACTORS
330
10DF
102
}
330
10DF
100
AcDbIndex
 40
2455329.732067778
100
AcDbLayerIndex
  8
0
360
10E1
 90
       23
  8
1
360
10E2
 90
      132
  8
DEFPOINTS
360
10E3
 90
        0
  8
5
360
10E4
 90
        9
  8
7
360
10E5
 90
       26
  8
6
360
10E6
 90
       32
  8
8
360
10E7
 90
       21
  8
RAHM2
360
10E8
 90
        0
  8
RAHM3
360
10E9
 90
        0
  8
7A
360
10EA
 90
        0
  8
4A
360
10EB
 90
        3
  8
3
360
10EC
 90
        0
  8
TEXT
360
10ED
 90
        4
  8
AM_7
360
1234
 90
        9
  8
AM_0
360
1235
 90
       21
  8
3A
360
1236
 90
       32
  8
KLIN
360
1237
 90
        0
  8
建築-AM_6
360
1238
 90
        1
  0
DICTIONARY
  5
13D5
330
EB5
100
AcDbDictionary
280
     1
281
     1
  3
ACAD_XREC_ROUNDTRIP
360
13D6
  0
DICTIONARY
  5
13D7
330
EB6
100
AcDbDictionary
280
     1
281
     1
  3
ACAD_XREC_ROUNDTRIP
360
13D8
  0
IDBUFFER
  5
10E1
330
0
100
AcDbIdBuffer
330
C35
330
DCD
330
DD6
330
108C
330
108D
330
108E
330
108F
330
1090
330
1091
330
1092
330
1093
330
1095
330
1096
330
1097
330
1098
330
1099
330
109B
330
109C
330
10A2
330
10A3
330
10A5
330
10A6
330
10A7
  0
IDBUFFER
  5
10E2
330
0
100
AcDbIdBuffer
330
249
330
24A
330
24B
330
250
330
251
330
252
330
253
330
254
330
255
330
256
330
257
330
258
330
259
330
25A
330
25B
330
25C
330
25D
330
25E
330
25F
330
260
330
261
330
262
330
263
330
264
330
265
330
268
330
269
330
26A
330
26B
330
26C
330
26D
330
26E
330
26F
330
270
330
271
330
272
330
273
330
1305
330
10E
330
10F
330
110
330
111
330
112
330
113
330
114
330
115
330
116
330
117
330
118
330
119
330
11A
330
11B
330
11C
330
11D
330
11E
330
120
330
121
330
122
330
123
330
124
330
125
330
126
330
127
330
128
330
129
330
12A
330
12B
330
132
330
133
330
134
330
135
330
136
330
137
330
138
330
139
330
13A
330
13B
330
13C
330
13D
330
13E
330
13F
330
140
330
141
330
142
330
143
330
147
330
148
330
149
330
14A
330
14B
330
14C
330
14D
330
14E
330
1D4
330
1D5
330
1D6
330
1D7
330
1D8
330
1D9
330
1DA
330
1DB
330
1DC
330
1DD
330
1DE
330
1DF
330
1E0
330
1E1
330
1E2
330
212
330
213
330
214
330
215
330
216
330
22B
330
22C
330
22D
330
22E
330
22F
330
230
330
231
330
232
330
233
330
27C
330
27D
330
27E
330
27F
330
280
330
283
330
1015
330
1019
330
101C
330
101D
  0
IDBUFFER
  5
10E3
330
0
100
AcDbIdBuffer
  0
IDBUFFER
  5
10E4
330
0
100
AcDbIdBuffer
330
32E
330
365
330
3BF
330
421
330
467
330
48D
330
4A9
330
500
330
55F
  0
IDBUFFER
  5
10E5
330
0
100
AcDbIdBuffer
330
24F
330
1285
330
1288
330
128B
330
128E
330
1291
330
1294
330
1297
330
129A
330
129D
330
12A0
330
12A3
330
12A6
330
12A9
330
12AC
330
130
330
131
330
144
330
145
330
146
330
14F
330
150
330
151
330
1F7
330
1196
330
1199
  0
IDBUFFER
  5
10E6
330
0
100
AcDbIdBuffer
330
2D8
330
2D9
330
2DA
330
2DB
330
2DE
330
2DF
330
2E0
330
2E1
330
2E2
330
2E3
330
2E4
330
2E5
330
2E6
330
2E7
330
2E8
330
2E9
330
2EA
330
2EB
330
2EC
330
2ED
330
2EF
330
2F0
330
2F1
330
2F2
330
1012
330
1013
330
1014
330
1016
330
1017
330
1018
330
101A
330
101B
  0
IDBUFFER
  5
10E7
330
0
100
AcDbIdBuffer
330
234
330
235
330
236
330
237
330
238
330
239
330
23A
330
23B
330
23C
330
23D
330
23E
330
23F
330
240
330
241
330
242
330
243
330
244
330
245
330
246
330
247
330
248
  0
IDBUFFER
  5
10E8
330
0
100
AcDbIdBuffer
  0
IDBUFFER
  5
10E9
330
0
100
AcDbIdBuffer
  0
IDBUFFER
  5
10EA
330
0
100
AcDbIdBuffer
  0
IDBUFFER
  5
10EB
330
0
100
AcDbIdBuffer
330
274
330
267
330
266
  0
IDBUFFER
  5
10EC
330
0
100
AcDbIdBuffer
  0
IDBUFFER
  5
10ED
330
0
100
AcDbIdBuffer
330
1094
330
10A4
330
10A9
330
10AA
  0
IDBUFFER
  5
1234
330
0
100
AcDbIdBuffer
330
12B0
330
12B3
330
12B6
330
1141
330
1144
330
1148
330
1155
330
1158
330
115B
  0
IDBUFFER
  5
1235
330
0
100
AcDbIdBuffer
330
12AF
330
12B1
330
12B2
330
12B4
330
12B5
330
12B7
330
12B8
330
115D
330
115C
330
115A
330
1159
330
1157
330
113F
330
1140
330
1142
330
1143
330
1145
330
1146
330
1147
330
1154
330
1156
  0
IDBUFFER
  5
1236
330
0
100
AcDbIdBuffer
330
1286
330
1287
330
1289
330
128A
330
128C
330
128D
330
128F
330
1290
330
1292
330
1293
330
1295
330
1296
330
1298
330
1299
330
129B
330
129C
330
129E
330
129F
330
12A1
330
12A2
330
12A4
330
12A5
330
12A7
330
12A8
330
12AA
330
12AB
330
12AD
330
12AE
330
1198
330
1197
330
1195
330
1194
  0
IDBUFFER
  5
1237
330
0
100
AcDbIdBuffer
  0
IDBUFFER
  5
1238
330
0
100
AcDbIdBuffer
330
1233
  0
XRECORD
  5
13D6
102
{ACAD_REACTORS
330
13D5
102
}
330
13D5
100
AcDbXrecord
280
     1
102
SHADEPLOT
 70
     0
102
SHADEPLOTRESLEVEL
 70
     2
102
SHADEPLOTCUSTOMDPI
 70
   300
  0
XRECORD
  5
13D8
102
{ACAD_REACTORS
330
13D7
102
}
330
13D7
100
AcDbXrecord
280
     1
102
SHADEPLOT
 70
     0
102
SHADEPLOTRESLEVEL
 70
     2
102
SHADEPLOTCUSTOMDPI
 70
   300
  0
ENDSEC
  0
EOF
