  0
SECTION
  2
HEADER
  9
$ACADVER
  1
AC1015
  9
$ACADMAINTVER
 70
    20
  9
$DWGCODEPAGE
  3
ANSI_932
  9
$INSBASE
 10
-299.4453967509
 20
984.5379039092
 30
0.0
  9
$EXTMIN
 10
1954.776163927505
 20
-1120.475058820485
 30
-0.0190373747720969
  9
$EXTMAX
 10
3617.502679262243
 20
1279.754280213612
 30
312.0190471822084
  9
$LIMMIN
 10
-1786.5028204232
 20
-1568.4620960908
  9
$LIMMAX
 10
2791.465489436
 20
1317.5379039092
  9
$ORTHOMODE
 70
     1
  9
$REGENMODE
 70
     0
  9
$FILLMODE
 70
     1
  9
$QTEXTMODE
 70
     0
  9
$MIRRTEXT
 70
     1
  9
$LTSCALE
 40
6.0
  9
$ATTMODE
 70
     1
  9
$TEXTSIZE
 40
24.0
  9
$TRACEWID
 40
0.05
  9
$TEXTSTYLE
  7
STANDARD
  9
$CLAYER
  8
0
  9
$CELTYPE
  6
BYLAYER
  9
$CECOLOR
 62
   256
  9
$CELTSCALE
 40
1.0
  9
$DISPSILH
 70
     0
  9
$DIMSCALE
 40
6.0
  9
$DIMASZ
 40
2.5
  9
$DIMEXO
 40
1.0
  9
$DIMDLI
 40
10.0
  9
$DIMRND
 40
0.0
  9
$DIMDLE
 40
0.0
  9
$DIMEXE
 40
1.0
  9
$DIMTP
 40
0.1
  9
$DIMTM
 40
0.1
  9
$DIMTXT
 40
3.5
  9
$DIMCEN
 40
0.0
  9
$DIMTSZ
 40
0.0
  9
$DIMTOL
 70
     0
  9
$DIMLIM
 70
     0
  9
$DIMTIH
 70
     0
  9
$DIMTOH
 70
     0
  9
$DIMSE1
 70
     0
  9
$DIMSE2
 70
     0
  9
$DIMTAD
 70
     1
  9
$DIMZIN
 70
     0
  9
$DIMBLK
  1

  9
$DIMASO
 70
     1
  9
$DIMSHO
 70
     0
  9
$DIMPOST
  1

  9
$DIMAPOST
  1

  9
$DIMALT
 70
     0
  9
$DIMALTD
 70
     2
  9
$DIMALTF
 40
0.0393701
  9
$DIMLFAC
 40
1.0
  9
$DIMTOFL
 70
     1
  9
$DIMTVP
 40
0.0
  9
$DIMTIX
 70
     0
  9
$DIMSOXD
 70
     0
  9
$DIMSAH
 70
     0
  9
$DIMBLK1
  1

  9
$DIMBLK2
  1

  9
$DIMSTYLE
  2
GEN-ISO
  9
$DIMCLRD
 70
   256
  9
$DIMCLRE
 70
   256
  9
$DIMCLRT
 70
   250
  9
$DIMTFAC
 40
0.71
  9
$DIMGAP
 40
1.5
  9
$DIMJUST
 70
     0
  9
$DIMSD1
 70
     0
  9
$DIMSD2
 70
     0
  9
$DIMTOLJ
 70
     0
  9
$DIMTZIN
 70
     0
  9
$DIMALTZ
 70
     0
  9
$DIMALTTZ
 70
     0
  9
$DIMUPT
 70
     0
  9
$DIMDEC
 70
     4
  9
$DIMTDEC
 70
     3
  9
$DIMALTU
 70
     2
  9
$DIMALTTD
 70
     4
  9
$DIMTXSTY
  7
STANDARD
  9
$DIMAUNIT
 70
     0
  9
$DIMADEC
 70
     0
  9
$DIMALTRND
 40
0.0
  9
$DIMAZIN
 70
     0
  9
$DIMDSEP
 70
    46
  9
$DIMATFIT
 70
     3
  9
$DIMFRAC
 70
     0
  9
$DIMLDRBLK
  1

  9
$DIMLUNIT
 70
     2
  9
$DIMLWD
 70
    -2
  9
$DIMLWE
 70
    -2
  9
$DIMTMOVE
 70
     0
  9
$LUNITS
 70
     2
  9
$LUPREC
 70
     4
  9
$SKETCHINC
 40
0.1
  9
$FILLETRAD
 40
0.0
  9
$AUNITS
 70
     0
  9
$AUPREC
 70
     0
  9
$MENU
  1
ACAD
  9
$ELEVATION
 40
0.0
  9
$PELEVATION
 40
0.0
  9
$THICKNESS
 40
0.0
  9
$LIMCHECK
 70
     0
  9
$CHAMFERA
 40
0.0
  9
$CHAMFERB
 40
0.0
  9
$CHAMFERC
 40
0.0
  9
$CHAMFERD
 40
0.0
  9
$SKPOLY
 70
     0
  9
$TDCREATE
 40
2450480.000000000
  9
$TDUCREATE
 40
2450479.625000000
  9
$TDUPDATE
 40
2455329.735948704
  9
$TDUUPDATE
 40
2455329.360948704
  9
$TDINDWG
 40
0.0496716667
  9
$TDUSRTIMER
 40
0.0496716667
  9
$USRTIMER
 70
     1
  9
$ANGBASE
 50
0.0
  9
$ANGDIR
 70
     0
  9
$PDMODE
 70
    65
  9
$PDSIZE
 40
0.2
  9
$PLINEWID
 40
0.0
  9
$SPLFRAME
 70
     0
  9
$SPLINETYPE
 70
     6
  9
$SPLINESEGS
 70
     8
  9
$HANDSEED
  5
219E
  9
$SURFTAB1
 70
     6
  9
$SURFTAB2
 70
     6
  9
$SURFTYPE
 70
     6
  9
$SURFU
 70
     6
  9
$SURFV
 70
     6
  9
$UCSBASE
  2

  9
$UCSNAME
  2

  9
$UCSORG
 10
0.0
 20
0.0
 30
0.0
  9
$UCSXDIR
 10
1.0
 20
0.0
 30
0.0
  9
$UCSYDIR
 10
0.0
 20
1.0
 30
0.0
  9
$UCSORTHOREF
  2

  9
$UCSORTHOVIEW
 70
     0
  9
$UCSORGTOP
 10
0.0
 20
0.0
 30
0.0
  9
$UCSORGBOTTOM
 10
0.0
 20
0.0
 30
0.0
  9
$UCSORGLEFT
 10
0.0
 20
0.0
 30
0.0
  9
$UCSORGRIGHT
 10
0.0
 20
0.0
 30
0.0
  9
$UCSORGFRONT
 10
0.0
 20
0.0
 30
0.0
  9
$UCSORGBACK
 10
0.0
 20
0.0
 30
0.0
  9
$PUCSBASE
  2

  9
$PUCSNAME
  2

  9
$PUCSORG
 10
0.0
 20
0.0
 30
0.0
  9
$PUCSXDIR
 10
1.0
 20
0.0
 30
0.0
  9
$PUCSYDIR
 10
0.0
 20
1.0
 30
0.0
  9
$PUCSORTHOREF
  2

  9
$PUCSORTHOVIEW
 70
     0
  9
$PUCSORGTOP
 10
0.0
 20
0.0
 30
0.0
  9
$PUCSORGBOTTOM
 10
0.0
 20
0.0
 30
0.0
  9
$PUCSORGLEFT
 10
0.0
 20
0.0
 30
0.0
  9
$PUCSORGRIGHT
 10
0.0
 20
0.0
 30
0.0
  9
$PUCSORGFRONT
 10
0.0
 20
0.0
 30
0.0
  9
$PUCSORGBACK
 10
0.0
 20
0.0
 30
0.0
  9
$USERI1
 70
     0
  9
$USERI2
 70
     0
  9
$USERI3
 70
     0
  9
$USERI4
 70
     0
  9
$USERI5
 70
     0
  9
$USERR1
 40
0.0
  9
$USERR2
 40
0.0
  9
$USERR3
 40
0.0
  9
$USERR4
 40
0.0
  9
$USERR5
 40
0.0
  9
$WORLDVIEW
 70
     1
  9
$SHADEDGE
 70
     3
  9
$SHADEDIF
 70
    70
  9
$TILEMODE
 70
     1
  9
$MAXACTVP
 70
    16
  9
$PINSBASE
 10
0.0
 20
0.0
 30
0.0
  9
$PLIMCHECK
 70
     0
  9
$PEXTMIN
 10
1.000000000000000E+20
 20
1.000000000000000E+20
 30
1.000000000000000E+20
  9
$PEXTMAX
 10
-1.000000000000000E+20
 20
-1.000000000000000E+20
 30
-1.000000000000000E+20
  9
$PLIMMIN
 10
0.0
 20
0.0
  9
$PLIMMAX
 10
12.0
 20
9.0
  9
$UNITMODE
 70
     0
  9
$VISRETAIN
 70
     0
  9
$PLINEGEN
 70
     0
  9
$PSLTSCALE
 70
     1
  9
$TREEDEPTH
 70
  3020
  9
$CMLSTYLE
  2
STANDARD
  9
$CMLJUST
 70
     0
  9
$CMLSCALE
 40
1.0
  9
$PROXYGRAPHICS
 70
     1
  9
$MEASUREMENT
 70
     1
  9
$CELWEIGHT
370
    -1
  9
$ENDCAPS
280
     0
  9
$JOINSTYLE
280
     0
  9
$LWDISPLAY
290
     0
  9
$INSUNITS
 70
     4
  9
$HYPERLINKBASE
  1

  9
$STYLESHEET
  1
monochrome.ctb
  9
$XEDIT
290
     1
  9
$CEPSNTYPE
380
     0
  9
$PSTYLEMODE
290
     1
  9
$FINGERPRINTGUID
  2
{892398AD-48BF-11D5-9B05-00B0D0A1237C}
  9
$VERSIONGUID
  2
{C8B85D88-6D61-4F9F-A745-8FD3B4516E22}
  9
$EXTNAMES
290
     1
  9
$PSVPSCALE
 40
0.0
  9
$OLESTARTUP
290
     0
  0
ENDSEC
  0
SECTION
  2
CLASSES
  0
CLASS
  1
ACDBDICTIONARYWDFLT
  2
AcDbDictionaryWithDefault
  3
ObjectDBX Classes
 90
        0
280
     0
281
     0
  0
CLASS
  1
ACDBPLACEHOLDER
  2
AcDbPlaceHolder
  3
ObjectDBX Classes
 90
        0
280
     0
281
     0
  0
CLASS
  1
LAYOUT
  2
AcDbLayout
  3
ObjectDBX Classes
 90
        0
280
     0
281
     0
  0
CLASS
  1
ACME_DOCUMENT
  2
AcMeDbDoc
  3
AcMeServices
 90
        0
280
     0
281
     0
  0
CLASS
  1
AMGSETTINGSOBJ
  2
AmgSettingsObj
  3
"AcadM|Product Description: AutoCAD Mechanical 2000|Company: Autodesk"
 90
        0
280
     0
281
     0
  0
CLASS
  1
ACMESCOPE
  2
AcMeScope
  3
AcMeServices
 90
        0
280
     0
281
     0
  0
CLASS
  1
ACMECOMMANDHISTORY
  2
AcMeCommandHistory
  3
AcMeServices
 90
        0
280
     0
281
     0
  0
CLASS
  1
DICTIONARYVAR
  2
AcDbDictionaryVar
  3
ObjectDBX Classes
 90
        0
280
     0
281
     0
  0
CLASS
  1
ACIMSYSVARMAN
  2
AcImSysVarManager
  3
AcMeServices
 90
        0
280
     0
281
     0
  0
CLASS
  1
ACIMREALSYSVAR
  2
AcImRealSysVar
  3
AcMeServices
 90
        0
280
     0
281
     0
  0
CLASS
  1
ACIMINTSYSVAR
  2
AcImIntSysVar
  3
AcMeServices
 90
        0
280
     0
281
     0
  0
CLASS
  1
ACMEDRAWINGMAN
  2
AcMeDrawingMan
  3
AcMeServices
 90
        0
280
     0
281
     0
  0
CLASS
  1
ACMEVIEW
  2
AcMeView
  3
AcMeServices
 90
        0
280
     0
281
     0
  0
CLASS
  1
ACDBENTITYCACHE
  2
AcMeEntityCache
  3
AcMeServices
 90
        0
280
     0
281
     0
  0
CLASS
  1
GSMANAGER
  2
AcMeGSManager
  3
AcMeServices
 90
        0
280
     0
281
     0
  0
CLASS
  1
AMDTINTERNALREACTOR
  2
AmdtInternalReactor
  3
AcMeServices
 90
        0
280
     0
281
     0
  0
CLASS
  1
ACMESTATEMGR
  2
AcMeStateMgr
  3
AcMeServices
 90
        0
280
     0
281
     0
  0
CLASS
  1
ACGREFMASTER
  2
AcGrefMaster
  3
AcAttribServices
 90
        0
280
     0
281
     0
  0
CLASS
  1
ACME_DATABASE
  2
AcMeDbDatabase
  3
AcMeServices
 90
        0
280
     0
281
     0
  0
CLASS
  1
ACRFINSADJUSTERMGR
  2
AcRfInsAdjusterMgr
  3
AcMeServices
 90
        0
280
     0
281
     0
  0
CLASS
  1
ACGREFACADMASTER
  2
AcGrefacadMaster
  3
AcGrefServices
 90
        0
280
     0
281
     0
  0
CLASS
  1
AMIMASTER
  2
AmiMaster
  3
AmiServices
 90
        0
280
     0
281
     0
  0
CLASS
  1
ACMDATADICTIONARY
  2
AcmDataDictionary
  3
"AcmSymBB|Product Description: AutoCAD Mechanical 2004 DX|Company: Autodesk"
 90
        0
280
     0
281
     0
  0
CLASS
  1
ACMDATAENTRYBLOCK
  2
AcmDataEntryBlock
  3
"AcmSymBB|Product Description: AutoCAD Mechanical 2004 DX|Company: Autodesk"
 90
        0
280
     0
281
     0
  0
CLASS
  1
ACMSTANDARDJIS
  2
AcmStandardJIS
  3
"Amdt_StdImp|Product Description: AutoCAD Mechanical 2004 DX|Company: Autodesk"
 90
        0
280
     0
281
     0
  0
CLASS
  1
ACMSURFSTANDARDJIS
  2
AcmSurfTextStdJIS
  3
"Amdt_StdImp|Product Description: AutoCAD Mechanical 2004 DX|Company: Autodesk"
 90
        0
280
     0
281
     0
  0
CLASS
  1
ACMFCFSTANDARDJIS
  2
AcmFCFStdJIS
  3
"Amdt_StdImp|Product Description: AutoCAD Mechanical 2004 DX|Company: Autodesk"
 90
        0
280
     0
281
     0
  0
CLASS
  1
ACMWELDSTANDARDJIS
  2
AcmWeldingStdJIS
  3
"Amdt_StdImp|Product Description: AutoCAD Mechanical 2004 DX|Company: Autodesk"
 90
        0
280
     0
281
     0
  0
CLASS
  1
ACMIDSTANDARDJIS
  2
AcmIdStdJIS
  3
"Amdt_StdImp|Product Description: AutoCAD Mechanical 2004 DX|Company: Autodesk"
 90
        0
280
     0
281
     0
  0
CLASS
  1
ACMDATUMSTANDARDJIS
  2
AcmDatumStdJIS
  3
"Amdt_StdImp|Product Description: AutoCAD Mechanical 2004 DX|Company: Autodesk"
 90
        0
280
     0
281
     0
  0
CLASS
  1
ACMBOMSTANDARDJIS
  2
AcmBOMStdJIS
  3
"Amdt_StdImp|Product Description: AutoCAD Mechanical 2004 DX|Company: Autodesk"
 90
        0
280
     0
281
     0
  0
CLASS
  1
ACMDETAILSTANDARDJIS
  2
AmdtDetailSymStdJIS
  3
"Amdt_StdImp|Product Description: AutoCAD Mechanical 2004 DX|Company: Autodesk"
 90
        0
280
     0
281
     0
  0
CLASS
  1
ACMSECTIONSTANDARDJIS
  2
AmdtSectionSymStdJIS
  3
"Amdt_StdImp|Product Description: AutoCAD Mechanical 2004 DX|Company: Autodesk"
 90
        0
280
     0
281
     0
  0
CLASS
  1
ACMCENTERLINESTANDARDJIS
  2
AmdtCenterLineStdJIS
  3
"Amdt_StdImp|Product Description: AutoCAD Mechanical 2004 DX|Company: Autodesk"
 90
        0
280
     0
281
     0
  0
CLASS
  1
ACAMGLAYSTD
  2
AcAmgLayStd
  3
"AcAmgLayStd|Product Description: AutoCAD Mechanical 2000|Company: Autodesk"
 90
        0
280
     0
281
     0
  0
CLASS
  1
AMGOBJPROPCFG
  2
AmgObjPropCfg
  3
"AmgLay|Product Description: AutoCAD Mechanical 2000|Company: Autodesk"
 90
        1
280
     0
281
     0
  0
CLASS
  1
ACAMGDIMSTD
  2
AcAmgDimStd
  3
"AcAmgDimStd|Product Description: AutoCAD Mechanical 2000|Company: Autodesk"
 90
        0
280
     0
281
     0
  0
CLASS
  1
ACAMGTITLESTD
  2
AcAmgTitleStd
  3
"TITLEAPP"
 90
        0
280
     0
281
     0
  0
CLASS
  1
ACMSTANDARDISO
  2
AcmStandardISO
  3
"Amdt_StdImp|Product Description: AutoCAD Mechanical 2004 DX|Company: Autodesk"
 90
        0
280
     0
281
     0
  0
CLASS
  1
AMDTEDGESTANDARDISO
  2
AmdtEdgeStdISO
  3
"Amdt_StdImp|Product Description: AutoCAD Mechanical 2004 DX|Company: Autodesk"
 90
        0
280
     0
281
     0
  0
CLASS
  1
ACMSURFSTANDARDISO
  2
AcmSurfTextStdISO
  3
"Amdt_StdImp|Product Description: AutoCAD Mechanical 2004 DX|Company: Autodesk"
 90
        0
280
     0
281
     0
  0
CLASS
  1
ACMFCFSTANDARDISO
  2
AcmFCFStdISO
  3
"Amdt_StdImp|Product Description: AutoCAD Mechanical 2004 DX|Company: Autodesk"
 90
        0
280
     0
281
     0
  0
CLASS
  1
ACMWELDSTANDARDISO
  2
AcmWeldingStdISO
  3
"Amdt_StdImp|Product Description: AutoCAD Mechanical 2004 DX|Company: Autodesk"
 90
        0
280
     0
281
     0
  0
CLASS
  1
ACMIDSTANDARDISO
  2
AcmIdStdISO
  3
"Amdt_StdImp|Product Description: AutoCAD Mechanical 2004 DX|Company: Autodesk"
 90
        0
280
     0
281
     0
  0
CLASS
  1
ACMDATUMSTANDARDISO
  2
AcmDatumStdISO
  3
"Amdt_StdImp|Product Description: AutoCAD Mechanical 2004 DX|Company: Autodesk"
 90
        0
280
     0
281
     0
  0
CLASS
  1
ACMBOMSTANDARDISO
  2
AcmBOMStdISO
  3
"Amdt_StdImp|Product Description: AutoCAD Mechanical 2004 DX|Company: Autodesk"
 90
        0
280
     0
281
     0
  0
CLASS
  1
ACMDETAILSTANDARDISO
  2
AmdtDetailSymStdISO
  3
"Amdt_StdImp|Product Description: AutoCAD Mechanical 2004 DX|Company: Autodesk"
 90
        0
280
     0
281
     0
  0
CLASS
  1
ACMSECTIONSTANDARDISO
  2
AmdtSectionSymStdISO
  3
"Amdt_StdImp|Product Description: AutoCAD Mechanical 2004 DX|Company: Autodesk"
 90
        0
280
     0
281
     0
  0
CLASS
  1
ACMCENTERLINESTANDARDISO
  2
AmdtCenterLineStdISO
  3
"Amdt_StdImp|Product Description: AutoCAD Mechanical 2004 DX|Company: Autodesk"
 90
        0
280
     0
281
     0
  0
CLASS
  1
ACIMSTRSYSVAR
  2
AcImStrSysVar
  3
AcMeServices
 90
        0
280
     0
281
     0
  0
CLASS
  1
LAYER_INDEX
  2
AcDbLayerIndex
  3
ObjectDBX Classes
 90
        0
280
     0
281
     0
  0
CLASS
  1
IDBUFFER
  2
AcDbIdBuffer
  3
ObjectDBX Classes
 90
        0
280
     0
281
     0
  0
CLASS
  1
AM_DRAWING_MGR
  2
AcDmDwgMgr
  3
AcMechDwgViewMgmt
 90
        0
280
     0
281
     0
  0
CLASS
  1
AM_DWG_DOCUMENT
  2
AcDmDwgDocument
  3
AcMechDwgViewMgmt
 90
        0
280
     0
281
     0
  0
CLASS
  1
AM_DWG_SHEET
  2
AcDmSheet
  3
AcMechDwgViewMgmt
 90
        0
280
     0
281
     0
  0
CLASS
  1
AM_VIEWDIMPARMAP
  2
AcDmViewDimParMap
  3
AcMechDwgViewMgmt
 90
        0
280
     0
281
     0
  0
CLASS
  1
AM_DWGMGR_NAME
  2
AcDmDwgMgrName
  3
AcMechDwgViewMgmt
 90
        0
280
     0
281
     0
  0
CLASS
  1
AMDTMENUSTATEMGR
  2
AmdtMenuStateMgr
  3
McadcomServices
 90
        0
280
     0
281
     0
  0
CLASS
  1
AMDTMCOMMENUSTATE
  2
AmdtMcomMenuState
  3
McadcomServices
 90
        0
280
     0
281
     0
  0
CLASS
  1
MAPIAMMOUDLE
  2
MApiAmModule
  3
MApiAmServices
 90
        0
280
     0
281
     0
  0
CLASS
  1
AMDTADMENUSTATE
  2
AmdtAdMenuState
  3
DesignerServices
 90
        0
280
     0
281
     0
  0
CLASS
  1
ADAPPL
  2
AcAdAppl
  3
DesignerServices
 90
        0
280
     0
281
     0
  0
CLASS
  1
DEPMGR
  2
AcAdDepMgr
  3
DesignerServices
 90
        0
280
     0
281
     0
  0
CLASS
  1
PARAMMGR
  2
AcAdParamMgr
  3
DesignerServices
 90
        0
280
     0
281
     0
  0
CLASS
  1
PARAMSCOPE
  2
AcAdParamScope
  3
DesignerServices
 90
        0
280
     0
281
     0
  0
CLASS
  1
NAMEDAPPL
  2
AcAdNamedAppl
  3
DesignerServices
 90
        0
280
     0
281
     0
  0
CLASS
  1
AMDTDMMENUSTATE
  2
AmdtDmMenuState
  3
AcMechDwgViewMgmt
 90
        0
280
     0
281
     0
  0
CLASS
  1
AMDTAMMENUSTATE
  2
AmdtAmMenuState
  3
DesignerAssemblies
 90
        0
280
     0
281
     0
  0
CLASS
  1
ACAMPROJECT
  2
AcAmProject
  3
DesignerAssemblies
 90
        0
280
     0
281
     0
  0
CLASS
  1
ACAMGRCOMPDEF
  2
AcAmGrCompDef
  3
DesignerAssemblies
 90
        0
280
     0
281
     0
  0
CLASS
  1
ACCMCONTEXT
  2
AcCmContext
  3
DesignerAssemblies
 90
        0
280
     0
281
     0
  0
CLASS
  1
ACAMCOMPDEF
  2
AcAmCompDef
  3
DesignerAssemblies
 90
        0
280
     0
281
     0
  0
CLASS
  1
ACAMCOMPDEFMGR
  2
AcAmCompDefMgr
  3
DesignerAssemblies
 90
        0
280
     0
281
     0
  0
CLASS
  1
AMCONTEXTMGR
  2
AcAmContextMgr
  3
DesignerAssemblies
 90
        0
280
     0
281
     0
  0
CLASS
  1
ACAMCONTEXTMODELER
  2
AcAmContextModeler
  3
DesignerAssemblies
 90
        0
280
     0
281
     0
  0
CLASS
  1
ACMTHREADLINESTANDARDJIS
  2
AmdtThreadLineStdJIS
  3
"Amdt_StdImp|Product Description: AutoCAD Mechanical 2004 DX|Company: Autodesk"
 90
        0
280
     0
281
     0
  0
CLASS
  1
ACMNOTESTANDARDJIS
  2
AmdtNoteStdJIS
  3
"Amdt_StdImp|Product Description: AutoCAD Mechanical 2004 DX|Company: Autodesk"
 90
        0
280
     0
281
     0
  0
CLASS
  1
AMDTNOTETEMPLATEDB
  2
AmdtNoteTemplateDB
  3
AMDT_STDIMP_MODULE_NAME
 90
        0
280
     0
281
     0
  0
CLASS
  1
ACMTHREADLINESTANDARDISO
  2
AmdtThreadLineStdISO
  3
"Amdt_StdImp|Product Description: AutoCAD Mechanical 2004 DX|Company: Autodesk"
 90
        0
280
     0
281
     0
  0
CLASS
  1
ACMNOTESTANDARDISO
  2
AmdtNoteStdISO
  3
"Amdt_StdImp|Product Description: AutoCAD Mechanical 2004 DX|Company: Autodesk"
 90
        0
280
     0
281
     0
  0
CLASS
  1
CATALOGSTATE
  2
AcAmCatalogState
  3
DesignerAssemblies
 90
        0
280
     0
281
     0
  0
CLASS
  1
ACAMGRCOMPDEFSET
  2
AcAmGrCompDefSet
  3
DesignerAssemblies
 90
        0
280
     0
281
     0
  0
CLASS
  1
AMDTBROWSERDBTAB
  2
AmdtBrowserDbTab
  3
McadcomServices
 90
        0
280
     0
281
     0
  0
CLASS
  1
CBROWSERAPPOBJECT
  2
CBrowserAppObject
  3
McadcomServices
 90
        0
280
     0
281
     0
  0
CLASS
  1
DM_PLACEHOLDER
  2
AcDmSelsetPlaceholder
  3
AcMechDwgViewMgmt
 90
        0
280
     0
281
     0
  0
CLASS
  1
ACAMGFILTERDAT
  2
AcAmgFilterDat
  3
"AcadM|Product Description: AutoCAD Mechanical 2000|Company: Autodesk"
 90
        0
280
     0
281
     0
  0
CLASS
  1
SORTENTSTABLE
  2
AcDbSortentsTable
  3
ObjectDBX Classes
 90
        0
280
     0
281
     0
  0
ENDSEC
  0
SECTION
  2
TABLES
  0
TABLE
  2
VPORT
  5
8
330
0
100
AcDbSymbolTable
 70
     3
  0
VPORT
  5
2197
330
8
100
AcDbSymbolTableRecord
100
AcDbViewportTableRecord
  2
*Active
 70
     0
 10
0.0
 20
0.0
 11
1.0
 21
1.0
 12
2786.139421594874
 22
79.63961069656352
 13
0.0
 23
0.0
 14
1.0
 24
1.0
 15
0.0
 25
0.0
 16
0.0
 26
0.0
 36
1.0
 17
0.0
 27
0.0
 37
0.0
 40
2419.054667183385
 41
1.544502617801047
 42
50.0
 43
0.0
 44
0.0
 50
0.0
 51
0.0
 71
     0
 72
   100
 73
     1
 74
     1
 75
     0
 76
     0
 77
     0
 78
     0
281
     0
 65
     1
110
0.0
120
0.0
130
0.0
111
1.0
121
0.0
131
0.0
112
0.0
122
1.0
132
0.0
 79
     0
146
0.0
  0
ENDTAB
  0
TABLE
  2
LTYPE
  5
5
330
0
100
AcDbSymbolTable
 70
    22
  0
LTYPE
  5
13
330
5
100
AcDbSymbolTableRecord
100
AcDbLinetypeTableRecord
  2
BYBLOCK
 70
     0
  3

 72
    65
 73
     0
 40
0.0
  0
LTYPE
  5
14
330
5
100
AcDbSymbolTableRecord
100
AcDbLinetypeTableRecord
  2
BYLAYER
 70
     0
  3

 72
    65
 73
     0
 40
0.0
  0
LTYPE
  5
15
330
5
100
AcDbSymbolTableRecord
100
AcDbLinetypeTableRecord
  2
CONTINUOUS
 70
     0
  3
Solid line
 72
    65
 73
     0
 40
0.0
  0
LTYPE
  5
21
330
5
100
AcDbSymbolTableRecord
100
AcDbLinetypeTableRecord
  2
CENTER
 70
     0
  3
__ . __
 72
    65
 73
     4
 40
7.0
 49
4.0
 74
     0
 49
-1.0
 74
     0
 49
1.0
 74
     0
 49
-1.0
 74
     0
  0
LTYPE
  5
50D
330
5
100
AcDbSymbolTableRecord
100
AcDbLinetypeTableRecord
  2
GEN7A
 70
     0
  3
__ . __ . __
 72
    65
 73
     4
 40
6.875
 49
5.0
 74
     0
 49
-0.625
 74
     0
 49
0.625
 74
     0
 49
-0.625
 74
     0
  0
LTYPE
  5
50E
330
5
100
AcDbSymbolTableRecord
100
AcDbLinetypeTableRecord
  2
GEN7
 70
     0
  3
____ . ____ . ____ . ____ . ____ . ____ . ____
 72
    65
 73
     4
 40
13.75
 49
10.0
 74
     0
 49
-1.25
 74
     0
 49
1.25
 74
     0
 49
-1.25
 74
     0
  0
LTYPE
  5
1558
330
5
100
AcDbSymbolTableRecord
100
AcDbLinetypeTableRecord
  2
GEN4A
 70
     0
  3
_____ . . _____ . . _____ . . ____ .. ____
 72
    65
 73
     6
 40
16.25
 49
10.0
 74
     0
 49
-1.25
 74
     0
 49
1.25
 74
     0
 49
-1.25
 74
     0
 49
1.25
 74
     0
 49
-1.25
 74
     0
  0
LTYPE
  5
1559
330
5
100
AcDbSymbolTableRecord
100
AcDbLinetypeTableRecord
  2
GEN3
 70
     0
  3
-- -- -- -- -- -- -- -- -- -- -- -- -- -- --
 72
    65
 73
     2
 40
6.25
 49
5.0
 74
     0
 49
-1.25
 74
     0
  0
LTYPE
  5
1D95
330
5
100
AcDbSymbolTableRecord
100
AcDbLinetypeTableRecord
  2
ACJISTGB
 70
     0
  3
__ . . __ . .
 72
    65
 73
     6
 40
9.0
 49
4.0
 74
     0
 49
-1.0
 74
     0
 49
1.0
 74
     0
 49
-1.0
 74
     0
 49
1.0
 74
     0
 49
-1.0
 74
     0
  0
LTYPE
  5
1D96
330
5
100
AcDbSymbolTableRecord
100
AcDbLinetypeTableRecord
  2
ACJISTGL
 70
     0
  3
_ _ _ _ _
 72
    65
 73
     2
 40
3.0
 49
2.0
 74
     0
 49
-1.0
 74
     0
  0
LTYPE
  5
1D9F
330
5
100
AcDbSymbolTableRecord
100
AcDbLinetypeTableRecord
  2
AM_ISO02W050
 70
     0
  3
__ __ __ __ __ __ __ __ __ __ __ __ __ __ __
 72
    65
 73
     2
 40
7.5
 49
6.0
 74
     0
 49
-1.5
 74
     0
  0
LTYPE
  5
1DC1
330
5
100
AcDbSymbolTableRecord
100
AcDbLinetypeTableRecord
  2
ACISOWELD
 70
     0
  3
_ _ _ _ _
 72
    65
 73
     2
 40
2.0
 49
2.0
 74
     0
 49
-1.0
 74
     0
  0
LTYPE
  5
1DC4
330
5
100
AcDbSymbolTableRecord
100
AcDbLinetypeTableRecord
  2
ACISOTGB
 70
     0
  3
__ . . __ . .
 72
    65
 73
     6
 40
9.0
 49
4.0
 74
     0
 49
-1.0
 74
     0
 49
1.0
 74
     0
 49
-1.0
 74
     0
 49
1.0
 74
     0
 49
-1.0
 74
     0
  0
LTYPE
  5
1DC5
330
5
100
AcDbSymbolTableRecord
100
AcDbLinetypeTableRecord
  2
ACISOTGL
 70
     0
  3
_ _ _ _ _
 72
    65
 73
     2
 40
3.0
 49
2.0
 74
     0
 49
-1.0
 74
     0
  0
LTYPE
  5
1DD6
330
5
100
AcDbSymbolTableRecord
100
AcDbLinetypeTableRecord
  2
gen3a
 70
     0
  3
 - - - - -
 72
    65
 73
     2
 40
3.125
 49
2.25
 74
     0
 49
-0.875
 74
     0
  0
LTYPE
  5
1DD9
330
5
100
AcDbSymbolTableRecord
100
AcDbLinetypeTableRecord
  2
genzigzag
 70
     0
  3
/\/-/\/-/\/-/\/-/\/-/\/
 72
    65
 73
     2
 40
12.0001
 49
0.0001
 74
     4
 75
   135
340
1DD8
 46
2.0
 50
0.0
 44
0.0
 45
0.0
 49
-12.0
 74
     0
  0
LTYPE
  5
1E06
330
5
100
AcDbSymbolTableRecord
100
AcDbLinetypeTableRecord
  2
HIDDEN
 70
     0
  3
Hidden __ __ __ __ __ __ __ __ __ __ __ __ __ _
 72
    65
 73
     2
 40
9.524999999999998
 49
6.349999999999999
 74
     0
 49
-3.174999999999999
 74
     0
  0
LTYPE
  5
1E07
330
5
100
AcDbSymbolTableRecord
100
AcDbLinetypeTableRecord
  2
PHANTOM2
 70
     0
  3
Phantom (.5x) ___ _ _ ___ _ _ ___ _ _ ___ _ _
 72
    65
 73
     6
 40
31.75
 49
15.875
 74
     0
 49
-3.174999999999999
 74
     0
 49
3.174999999999999
 74
     0
 49
-3.174999999999999
 74
     0
 49
3.174999999999999
 74
     0
 49
-3.174999999999999
 74
     0
  0
LTYPE
  5
1F29
330
5
100
AcDbSymbolTableRecord
100
AcDbLinetypeTableRecord
  2
AM_ISO08W050
 70
     0
  3
____ . ____ . ____ . ____ . ____ . ____ . ____
 72
    65
 73
     4
 40
18.0
 49
12.0
 74
     0
 49
-1.5
 74
     0
 49
3.0
 74
     0
 49
-1.5
 74
     0
  0
LTYPE
  5
1F2A
330
5
100
AcDbSymbolTableRecord
100
AcDbLinetypeTableRecord
  2
AM_ISO09W050
 70
     0
  3
_____ . . _____ . . _____ . . ____ .. ____
 72
    65
 73
     6
 40
22.5
 49
12.0
 74
     0
 49
-1.5
 74
     0
 49
3.0
 74
     0
 49
-1.5
 74
     0
 49
3.0
 74
     0
 49
-1.5
 74
     0
  0
LTYPE
  5
1F2B
330
5
100
AcDbSymbolTableRecord
100
AcDbLinetypeTableRecord
  2
Amconstr
 70
     0
  3
_______________________
 72
    65
 73
     2
 40
9999.0
 49
9999.0
 74
     0
 49
0.0
 74
     0
  0
LTYPE
  5
1F2C
330
5
100
AcDbSymbolTableRecord
100
AcDbLinetypeTableRecord
  2
AM_ISO08W050x2
 70
     0
  3
__ . __ . __ . __ . __ . __
 72
    65
 73
     4
 40
9.0
 49
6.0
 74
     0
 49
-0.75
 74
     0
 49
1.5
 74
     0
 49
-0.75
 74
     0
  0
LTYPE
  5
1F2D
330
5
100
AcDbSymbolTableRecord
100
AcDbLinetypeTableRecord
  2
AM_ISO02W050x2
 70
     0
  3
 _ _ _ _ _ _ _ _ _ _ _ _
 72
    65
 73
     2
 40
3.75
 49
3.0
 74
     0
 49
-0.75
 74
     0
  0
LTYPE
  5
1F2E
330
5
100
AcDbSymbolTableRecord
100
AcDbLinetypeTableRecord
  2
Amzigzag
 70
     0
  3
/\/-/\/-/\/-/\/-/\/-/\/
 72
    65
 73
     2
 40
11.0001
 49
0.0001
 74
     4
 75
   135
340
1F2F
 46
0.04
 50
0.0
 44
0.0
 45
0.0
 49
-11.0
 74
     0
  0
ENDTAB
  0
TABLE
  2
LAYER
  5
2
102
{ACAD_XDICTIONARY
360
1F70
102
}
330
0
100
AcDbSymbolTable
 70
    18
  0
LAYER
  5
F
330
2
100
AcDbSymbolTableRecord
100
AcDbLayerTableRecord
  2
0
 70
     0
 62
     7
  6
CONTINUOUS
370
    -3
390
1D50
  0
LAYER
  5
27
330
2
100
AcDbSymbolTableRecord
100
AcDbLayerTableRecord
  2
1
 70
     0
 62
     7
  6
CONTINUOUS
370
    -3
390
1D50
  0
LAYER
  5
28
330
2
100
AcDbSymbolTableRecord
100
AcDbLayerTableRecord
  2
DEFPOINTS
 70
     0
 62
     7
  6
CONTINUOUS
290
     0
370
    -3
390
1D50
  0
LAYER
  5
50F
330
2
100
AcDbSymbolTableRecord
100
AcDbLayerTableRecord
  2
RAHM2
 70
     0
 62
     1
  6
CONTINUOUS
370
    -3
390
1D50
  0
LAYER
  5
510
330
2
100
AcDbSymbolTableRecord
100
AcDbLayerTableRecord
  2
5
 70
     0
 62
     3
  6
CONTINUOUS
370
    -3
390
1D50
  0
LAYER
  5
515
330
2
100
AcDbSymbolTableRecord
100
AcDbLayerTableRecord
  2
RAHM3
 70
     0
 62
     2
  6
CONTINUOUS
370
    -3
390
1D50
  0
LAYER
  5
517
330
2
100
AcDbSymbolTableRecord
100
AcDbLayerTableRecord
  2
7A
 70
     0
 62
     4
  6
GEN7A
370
    -3
390
1D50
  0
LAYER
  5
518
330
2
100
AcDbSymbolTableRecord
100
AcDbLayerTableRecord
  2
7
 70
     0
 62
     4
  6
GEN7
370
    -3
390
1D50
  0
LAYER
  5
519
330
2
100
AcDbSymbolTableRecord
100
AcDbLayerTableRecord
  2
6
 70
     0
 62
     3
  6
CONTINUOUS
370
    -3
390
1D50
  0
LAYER
  5
155A
330
2
100
AcDbSymbolTableRecord
100
AcDbLayerTableRecord
  2
8
 70
     0
 62
     5
  6
CONTINUOUS
370
    -3
390
1D50
  0
LAYER
  5
155B
330
2
100
AcDbSymbolTableRecord
100
AcDbLayerTableRecord
  2
4A
 70
     0
 62
     3
  6
GEN4A
370
    -3
390
1D50
  0
LAYER
  5
155C
330
2
100
AcDbSymbolTableRecord
100
AcDbLayerTableRecord
  2
3
 70
     0
 62
     6
  6
GEN3
370
    -3
390
1D50
  0
LAYER
  5
1F6F
330
2
100
AcDbSymbolTableRecord
100
AcDbLayerTableRecord
  2
TEXT
 70
     0
 62
     7
  6
CONTINUOUS
370
    -3
390
1D50
  0
LAYER
  5
1FCC
330
2
100
AcDbSymbolTableRecord
100
AcDbLayerTableRecord
  2
建築-AM_6
 70
     0
 62
     2
  6
CONTINUOUS
370
    35
390
1D50
  0
LAYER
  5
1FE2
330
2
100
AcDbSymbolTableRecord
100
AcDbLayerTableRecord
  2
KLIN
 70
     0
 62
     1
  6
CONTINUOUS
370
    -3
390
1D50
  0
LAYER
  5
2004
330
2
100
AcDbSymbolTableRecord
100
AcDbLayerTableRecord
  2
AM_0
 70
     0
 62
     7
  6
CONTINUOUS
370
    50
390
1D50
  0
LAYER
  5
2005
330
2
100
AcDbSymbolTableRecord
100
AcDbLayerTableRecord
  2
AM_7
 70
     0
 62
     4
  6
AM_ISO08W050
370
    25
390
1D50
  0
LAYER
  5
2056
330
2
100
AcDbSymbolTableRecord
100
AcDbLayerTableRecord
  2
3A
 70
     0
 62
     6
  6
gen3a
370
    -3
390
1D50
  0
ENDTAB
  0
TABLE
  2
STYLE
  5
3
330
0
100
AcDbSymbolTable
 70
     7
  0
STYLE
  5
10
330
3
100
AcDbSymbolTableRecord
100
AcDbTextStyleTableRecord
  2
STANDARD
 70
     0
 40
0.0
 41
1.0
 50
0.0
 71
     0
 42
24.0
  3
ISOCP.SHX
  4
extfont.shx
  0
STYLE
  5
1D8E
330
3
100
AcDbSymbolTableRecord
100
AcDbTextStyleTableRecord
  2
ACJISTS
 70
     0
 40
1.0
 41
1.0
 50
0.0
 71
     0
 42
2.5
  3
isocp.shx
  4
extfont.shx
  0
STYLE
  5
1D91
330
3
100
AcDbSymbolTableRecord
100
AcDbTextStyleTableRecord
  2
ACJISGDT
 70
     0
 40
0.0
 41
1.0
 50
0.0
 71
     0
 42
2.5
  3
amgdt.shx
  4

  0
STYLE
  5
1DBB
330
3
100
AcDbSymbolTableRecord
100
AcDbTextStyleTableRecord
  2
ACISOTS
 70
     0
 40
1.0
 41
1.0
 50
0.0
 71
     0
 42
2.5
  3
isocp.shx
  4
extfont.shx
  0
STYLE
  5
1DBF
330
3
100
AcDbSymbolTableRecord
100
AcDbTextStyleTableRecord
  2
ACISOGDT
 70
     0
 40
0.0
 41
1.0
 50
0.0
 71
     0
 42
2.5
  3
amgdt.shx
  4

  0
STYLE
  5
1DD8
330
3
100
AcDbSymbolTableRecord
100
AcDbTextStyleTableRecord
  2

 70
     1
 40
0.0
 41
1.0
 50
0.0
 71
     0
 42
24.0
  3
genltshp.shx
  4

  0
STYLE
  5
1F2F
330
3
100
AcDbSymbolTableRecord
100
AcDbTextStyleTableRecord
  2

 70
     1
 40
0.0
 41
1.0
 50
0.0
 71
     0
 42
2.5
  3
ltypeshp.shx
  4

  0
ENDTAB
  0
TABLE
  2
VIEW
  5
6
330
0
100
AcDbSymbolTable
 70
     0
  0
ENDTAB
  0
TABLE
  2
UCS
  5
7
330
0
100
AcDbSymbolTable
 70
     0
  0
ENDTAB
  0
TABLE
  2
APPID
  5
9
330
0
100
AcDbSymbolTable
 70
    52
  0
APPID
  5
11
330
9
100
AcDbSymbolTableRecord
100
AcDbRegAppTableRecord
  2
ACAD
 70
     0
  0
APPID
  5
2D5
330
9
100
AcDbSymbolTableRecord
100
AcDbRegAppTableRecord
  2
GENIUS_GENCFG_13
 70
     0
1001
GENIUS_GEVCFG0_13
1000
GEV
1001
GENIUS_GENCFG0_13
1000
GEN@INFO_POS@XLATE
1001
GENIUS_GENCFG1_13
1000
GEN@LAYER@DEFS
1001
GENIUS_GENCFG2_13
1000
GEN@LAYER@ENTSORT
1001
GENIUS_GENCFG3_13
1000
GEN@OSWIZ
1001
GENIUS_GENCFG4_13
1000
GEN
  0
APPID
  5
2D6
330
9
100
AcDbSymbolTableRecord
100
AcDbRegAppTableRecord
  2
GENIUS_GEVCFG0_13
 70
     0
1001
GENIUS_GENCFG_13
1071
902383083
1000
2D6
1000
GEV
1070
     1
1000
GenCfgObject
1000
System
1070
     0
1002
{
1002
}
1000
VED
1070
     0
1002
{
1002
}
  0
APPID
  5
2D7
330
9
100
AcDbSymbolTableRecord
100
AcDbRegAppTableRecord
  2
GENIUS_GENCFG0_13
 70
     0
1001
GENIUS_GENCFG_13
1071
902383083
1000
2D7
1000
GEN@INFO_POS@XLATE
1070
     7
1000
GenCfgObject
1000
GenCfgShort
1000
GenCfgReal
1000
GenCfgBool
1000
GenCfgString
1000
GenCfgDim
1000
GenCfgAttrInf
1000
INFOPOINTS
1070
     0
1002
{
1000
GENINF13
1070
     0
1002
{
1000
2GENINF
1070
     4
1000
2
1002
{
1002
}
1000
3GENINF
1070
     4
1000
3
1002
{
1002
}
1000
4GENINF
1070
     4
1000
4
1002
{
1002
}
1000
5GENINF
1070
     4
1000
5
1002
{
1002
}
1000
6GENINF
1070
     4
1000
6
1002
{
1002
}
1000
7GENINF
1070
     4
1000
7
1002
{
1002
}
1000
8GENINF
1070
     4
1000
8
1002
{
1002
}
1000
9GENINF
1070
     4
1000
9
1002
{
1002
}
1000
10GENINF
1070
     4
1000
10
1002
{
1002
}
1000
11GENINF
1070
     4
1000
11
1002
{
1002
}
1000
12GENINF
1070
     4
1000
12
1002
{
1002
}
1000
13GENINF
1070
     4
1000
13
1002
{
1002
}
1000
14GENINF
1070
     4
1000
14
1002
{
1002
}
1000
15GENINF
1070
     4
1000
15
1002
{
1002
}
1000
16GENINF
1070
     4
1000
16
1002
{
1002
}
1000
17GENINF
1070
     4
1000
17
1002
{
1002
}
1000
18GENINF
1070
     4
1000
18
1002
{
1002
}
1000
19GENINF
1070
     4
1000
19
1002
{
1002
}
1000
20GENINF
1070
     4
1000
20
1002
{
1002
}
1000
21GENINF
1070
     4
1000
21
1002
{
1002
}
1000
22GENINF
1070
     4
1000
22
1002
{
1002
}
1000
23GENINF
1070
     4
1000
23
1002
{
1002
}
1000
24GENINF
1070
     4
1000
24
1002
{
1002
}
1000
0GENINF
1070
     4
1000
0
1002
{
1002
}
1002
}
1000
GENINFO
1070
     0
1002
{
1000
3GENINF
1070
     4
1000
3
1002
{
1002
}
1000
4GENINF
1070
     4
1000
4
1002
{
1002
}
1000
5GENINF
1070
     4
1000
5
1002
{
1002
}
1000
6GENINF
1070
     4
1000
6
1002
{
1002
}
1000
7GENINF
1070
     4
1000
7
1002
{
1002
}
1000
8GENINF
1070
     4
1000
8
1002
{
1002
}
1000
9GENINF
1070
     4
1000
9
1002
{
1002
}
1000
10GENINF
1070
     4
1000
10
1002
{
1002
}
1000
11GENINF
1070
     4
1000
11
1002
{
1002
}
1000
12GENINF
1070
     4
1000
12
1002
{
1002
}
1000
13GENINF
1070
     4
1000
13
1002
{
1002
}
1000
14GENINF
1070
     4
1000
14
1002
{
1002
}
1000
15GENINF
1070
     4
1000
15
1002
{
1002
}
1000
16GENINF
1070
     4
1000
16
1002
{
1002
}
1000
17GENINF
1070
     4
1000
17
1002
{
1002
}
1000
18GENINF
1070
     4
1000
18
1002
{
1002
}
1000
19GENINF
1070
     4
1000
19
1002
{
1002
}
1000
20GENINF
1070
     4
1000
20
1002
{
1002
}
1000
21GENINF
1070
     4
1000
21
1002
{
1002
}
1000
22GENINF
1070
     4
1000
22
1002
{
1002
}
1002
}
1000
DININFO
1070
     0
1002
{
1000
ST-NAME1
1070
     4
1000
5
1002
{
1002
}
1000
ST-NAME2
1070
     4
1000
6
1002
{
1002
}
1000
ST-NORM1
1070
     4
1000
7
1002
{
1002
}
1000
ST-NORM2
1070
     4
1000
8
1002
{
1002
}
1000
ST-MAT1
1070
     4
1000
9
1002
{
1002
}
1000
ST-MAT2
1070
     4
1000
10
1002
{
1002
}
1002
}
1002
}
1000
POS_NUMBERS
1070
     0
1002
{
1000
GENPOS13
1070
     0
1002
{
1000
1GENPOS
1070
     4
1000
1
1002
{
1002
}
1000
2GENPOS
1070
     4
1000
2
1002
{
1002
}
1000
3GENPOS
1070
     4
1000
3
1002
{
1002
}
1000
4GENPOS
1070
     4
1000
4
1002
{
1002
}
1000
5GENPOS
1070
     4
1000
5
1002
{
1002
}
1000
6GENPOS
1070
     4
1000
6
1002
{
1002
}
1000
7GENPOS
1070
     4
1000
7
1002
{
1002
}
1000
8GENPOS
1070
     4
1000
8
1002
{
1002
}
1000
9GENPOS
1070
     4
1000
9
1002
{
1002
}
1000
10GENPOS
1070
     4
1000
10
1002
{
1002
}
1000
11GENPOS
1070
     4
1000
11
1002
{
1002
}
1000
12GENPOS
1070
     4
1000
12
1002
{
1002
}
1000
13GENPOS
1070
     4
1000
13
1002
{
1002
}
1000
14GENPOS
1070
     4
1000
14
1002
{
1002
}
1000
15GENPOS
1070
     4
1000
15
1002
{
1002
}
1000
16GENPOS
1070
     4
1000
16
1002
{
1002
}
1000
17GENPOS
1070
     4
1000
17
1002
{
1002
}
1000
18GENPOS
1070
     4
1000
18
1002
{
1002
}
1000
19GENPOS
1070
     4
1000
19
1002
{
1002
}
1000
20GENPOS
1070
     4
1000
20
1002
{
1002
}
1000
21GENPOS
1070
     4
1000
21
1002
{
1002
}
1000
22GENPOS
1070
     4
1000
22
1002
{
1002
}
1000
23GENPOS
1070
     4
1000
23
1002
{
1002
}
1000
24GENPOS
1070
     4
1000
24
1002
{
1002
}
1000
0GENPOS
1070
     4
1000
0
1002
{
1002
}
1002
}
1000
GENPOS
1070
     0
1002
{
1000
1GENPOS
1070
     4
1000
1
1002
{
1002
}
1000
2GENPOS
1070
     4
1000
2
1002
{
1002
}
1000
3GENPOS
1070
     4
1000
3
1002
{
1002
}
1000
4GENPOS
1070
     4
1000
4
1002
{
1002
}
1000
5GENPOS
1070
     4
1000
5
1002
{
1002
}
1000
6GENPOS
1070
     4
1000
6
1002
{
1002
}
1000
7GENPOS
1070
     4
1000
7
1002
{
1002
}
1000
8GENPOS
1070
     4
1000
8
1002
{
1002
}
1000
9GENPOS
1070
     4
1000
9
1002
{
1002
}
1000
10GENPOS
1070
     4
1000
10
1002
{
1002
}
1000
11GENPOS
1070
     4
1000
11
1002
{
1002
}
1000
12GENPOS
1070
     4
1000
12
1002
{
1002
}
1000
13GENPOS
1070
     4
1000
13
1002
{
1002
}
1000
14GENPOS
1070
     4
1000
14
1002
{
1002
}
1000
15GENPOS
1070
     4
1000
15
1002
{
1002
}
1000
16GENPOS
1070
     4
1000
16
1002
{
1002
}
1000
17GENPOS
1070
     4
1000
17
1002
{
1002
}
1000
18GENPOS
1070
     4
1000
18
1002
{
1002
}
1000
19GENPOS
1070
     4
1000
19
1002
{
1002
}
1000
20GENPOS
1070
     4
1000
20
1002
{
1002
}
1000
21GENPOS
1070
     4
1000
21
1002
{
1002
}
1000
22GENPOS
1070
     4
1000
22
1002
{
1002
}
1000
23GENPOS
1070
     4
1000
23
1002
{
1002
}
1002
}
1000
DIN985
1070
     0
1002
{
1000
POSITION
1070
     4
1000
1
1002
{
1002
}
1000
MENGE
1070
     4
1000
2
1002
{
1002
}
1000
BLATT
1070
     4
1000
3
1002
{
1002
}
1000
BENENN
1070
     4
1000
5
1002
{
1002
}
1000
BENENN2
1070
     4
1000
6
1002
{
1002
}
1000
NORM
1070
     4
1000
7
1002
{
1002
}
1000
NORM2
1070
     4
1000
8
1002
{
1002
}
1000
WERKSTOFF
1070
     4
1000
9
1002
{
1002
}
1000
WERKSTOFF2
1070
     4
1000
10
1002
{
1002
}
1002
}
1000
DIN986
1070
     0
1002
{
1000
POSITION
1070
     4
1000
1
1002
{
1002
}
1000
MENGE
1070
     4
1000
2
1002
{
1002
}
1000
BLATT
1070
     4
1000
3
1002
{
1002
}
1000
BENENN
1070
     4
1000
5
1002
{
1002
}
1000
BENENN2
1070
     4
1000
6
1002
{
1002
}
1000
NORM
1070
     4
1000
7
1002
{
1002
}
1000
NORM2
1070
     4
1000
8
1002
{
1002
}
1000
WERKSTOFF
1070
     4
1000
9
1002
{
1002
}
1000
WERKSTOFF2
1070
     4
1000
10
1002
{
1002
}
1002
}
1000
DIN987
1070
     0
1002
{
1000
POSITION
1070
     4
1000
1
1002
{
1002
}
1000
MENGE
1070
     4
1000
2
1002
{
1002
}
1000
BLATT
1070
     4
1000
3
1002
{
1002
}
1000
BENENN
1070
     4
1000
5
1002
{
1002
}
1000
BENENN2
1070
     4
1000
6
1002
{
1002
}
1000
NORM
1070
     4
1000
7
1002
{
1002
}
1000
NORM2
1070
     4
1000
8
1002
{
1002
}
1000
WERKSTOFF
1070
     4
1000
9
1002
{
1002
}
1000
WERKSTOFF2
1070
     4
1000
10
1002
{
1002
}
1002
}
1002
}
  0
APPID
  5
2D8
330
9
100
AcDbSymbolTableRecord
100
AcDbRegAppTableRecord
  2
GENIUS_GENCFG1_13
 70
     0
1001
GENIUS_GENCFG_13
1071
902383083
1000
2D8
1000
GEN@LAYER@DEFS
1070
     9
1000
GenCfgObject
1000
GenCfgShort
1000
GenCfgReal
1000
GenCfgBool
1000
GenCfgString
1000
GenCfgDim
1000
GenCfgAttrInf
1000
GenCfgLaySection
1000
GenCfgLayer
1000
Basic
1070
     0
1002
{
1000
0
1070
     8
1000
0
1002
{
1000
Color
1070
     1
1070
     7
1002
{
1002
}
1000
LType
1070
     4
1000
CONTINUOUS
1002
{
1002
}
1000
Base
1070
     3
1070
     0
1002
{
1002
}
1002
}
1000
1
1070
     8
1000
1
1002
{
1000
Color
1070
     1
1070
     2
1002
{
1002
}
1000
LType
1070
     4
1000
CONTINUOUS
1002
{
1002
}
1000
Base
1070
     3
1070
     0
1002
{
1002
}
1002
}
1000
2
1070
     8
1000
2
1002
{
1000
Color
1070
     1
1070
     3
1002
{
1002
}
1000
LType
1070
     4
1000
CONTINUOUS
1002
{
1002
}
1000
Base
1070
     3
1070
     0
1002
{
1002
}
1002
}
1000
3
1070
     8
1000
3
1002
{
1000
Color
1070
     1
1070
     6
1002
{
1002
}
1000
LType
1070
     4
1000
GEN3
1002
{
1002
}
1000
Base
1070
     3
1070
     0
1002
{
1002
}
1002
}
1000
4
1070
     8
1000
4
1002
{
1000
Color
1070
     1
1070
     1
1002
{
1002
}
1000
LType
1070
     4
1000
GEN4A
1002
{
1002
}
1000
Base
1070
     3
1070
     0
1002
{
1002
}
1002
}
1000
5
1070
     8
1000
5
1002
{
1000
Color
1070
     1
1070
     3
1002
{
1002
}
1000
LType
1070
     4
1000
CONTINUOUS
1002
{
1002
}
1000
Base
1070
     3
1070
     0
1002
{
1002
}
1002
}
1000
6
1070
     8
1000
6
1002
{
1000
Color
1070
     1
1070
     3
1002
{
1002
}
1000
LType
1070
     4
1000
CONTINUOUS
1002
{
1002
}
1000
Base
1070
     3
1070
     0
1002
{
1002
}
1002
}
1000
7
1070
     8
1000
7
1002
{
1000
Color
1070
     1
1070
     4
1002
{
1002
}
1000
LType
1070
     4
1000
GEN7
1002
{
1002
}
1000
Base
1070
     3
1070
     0
1002
{
1002
}
1002
}
1000
8
1070
     8
1000
8
1002
{
1000
Color
1070
     1
1070
     5
1002
{
1002
}
1000
LType
1070
     4
1000
CONTINUOUS
1002
{
1002
}
1000
Base
1070
     3
1070
     0
1002
{
1002
}
1002
}
1000
3A
1070
     8
1000
3A
1002
{
1000
Color
1070
     1
1070
     6
1002
{
1002
}
1000
LType
1070
     4
1000
GEN3A
1002
{
1002
}
1000
Base
1070
     3
1070
     0
1002
{
1002
}
1002
}
1000
7A
1070
     8
1000
7A
1002
{
1000
Color
1070
     1
1070
     4
1002
{
1002
}
1000
LType
1070
     4
1000
GEN7A
1002
{
1002
}
1000
Base
1070
     3
1070
     0
1002
{
1002
}
1002
}
1000
2A
1070
     8
1000
2A
1002
{
1000
Color
1070
     1
1070
     7
1002
{
1002
}
1000
LType
1070
     4
1000
GEN7
1002
{
1002
}
1000
Base
1070
     3
1070
     0
1002
{
1002
}
1002
}
1000
4A
1070
     8
1000
4A
1002
{
1000
Color
1070
     1
1070
     3
1002
{
1002
}
1000
LType
1070
     4
1000
GEN4A
1002
{
1002
}
1000
Base
1070
     3
1070
     0
1002
{
1002
}
1002
}
1000
9
1070
     8
1000
9
1002
{
1000
Color
1070
     1
1070
   253
1002
{
1002
}
1000
LType
1070
     4
1000
CONTINUOUS
1002
{
1002
}
1000
Base
1070
     3
1070
     0
1002
{
1002
}
1002
}
1002
}
1000
Standard
1070
     0
1002
{
1000
0N
1070
     8
1000
0N
1002
{
1000
Color
1070
     1
1070
     7
1002
{
1002
}
1000
LType
1070
     4
1000
CONTINUOUS
1002
{
1002
}
1000
Base
1070
     3
1070
     0
1002
{
1002
}
1002
}
1000
1N
1070
     8
1000
1N
1002
{
1000
Color
1070
     1
1070
    14
1002
{
1002
}
1000
LType
1070
     4
1000
CONTINUOUS
1002
{
1002
}
1000
Base
1070
     3
1070
     0
1002
{
1002
}
1002
}
1000
2N
1070
     8
1000
2N
1002
{
1000
Color
1070
     1
1070
     5
1002
{
1002
}
1000
LType
1070
     4
1000
CONTINUOUS
1002
{
1002
}
1000
Base
1070
     3
1070
     0
1002
{
1002
}
1002
}
1000
3N
1070
     8
1000
3N
1002
{
1000
Color
1070
     1
1070
     6
1002
{
1002
}
1000
LType
1070
     4
1000
GEN3
1002
{
1002
}
1000
Base
1070
     3
1070
     0
1002
{
1002
}
1002
}
1000
4N
1070
     8
1000
4N
1002
{
1000
Color
1070
     1
1070
     3
1002
{
1002
}
1000
LType
1070
     4
1000
CONTINUOUS
1002
{
1002
}
1000
Base
1070
     3
1070
     0
1002
{
1002
}
1002
}
1000
5N
1070
     8
1000
5N
1002
{
1000
Color
1070
     1
1070
     3
1002
{
1002
}
1000
LType
1070
     4
1000
CONTINUOUS
1002
{
1002
}
1000
Base
1070
     3
1070
     0
1002
{
1002
}
1002
}
1000
6N
1070
     8
1000
6N
1002
{
1000
Color
1070
     1
1070
     2
1002
{
1002
}
1000
LType
1070
     4
1000
CONTINUOUS
1002
{
1002
}
1000
Base
1070
     3
1070
     0
1002
{
1002
}
1002
}
1000
7N
1070
     8
1000
7N
1002
{
1000
Color
1070
     1
1070
     4
1002
{
1002
}
1000
LType
1070
     4
1000
GEN7
1002
{
1002
}
1000
Base
1070
     3
1070
     0
1002
{
1002
}
1002
}
1000
8N
1070
     8
1000
8N
1002
{
1000
Color
1070
     1
1070
     1
1002
{
1002
}
1000
LType
1070
     4
1000
CONTINUOUS
1002
{
1002
}
1000
Base
1070
     3
1070
     0
1002
{
1002
}
1002
}
1000
3AN
1070
     8
1000
3AN
1002
{
1000
Color
1070
     1
1070
     6
1002
{
1002
}
1000
LType
1070
     4
1000
GEN3A
1002
{
1002
}
1000
Base
1070
     3
1070
     0
1002
{
1002
}
1002
}
1000
7AN
1070
     8
1000
7AN
1002
{
1000
Color
1070
     1
1070
     4
1002
{
1002
}
1000
LType
1070
     4
1000
GEN7A
1002
{
1002
}
1000
Base
1070
     3
1070
     0
1002
{
1002
}
1002
}
1000
2AN
1070
     8
1000
2AN
1002
{
1000
Color
1070
     1
1070
     7
1002
{
1002
}
1000
LType
1070
     4
1000
GEN7
1002
{
1002
}
1000
Base
1070
     3
1070
     0
1002
{
1002
}
1002
}
1000
4AN
1070
     8
1000
4AN
1002
{
1000
Color
1070
     1
1070
     3
1002
{
1002
}
1000
LType
1070
     4
1000
GEN4A
1002
{
1002
}
1000
Base
1070
     3
1070
     0
1002
{
1002
}
1002
}
1000
9N
1070
     8
1000
9N
1002
{
1000
Color
1070
     1
1070
   253
1002
{
1002
}
1000
LType
1070
     4
1000
CONTINUOUS
1002
{
1002
}
1000
Base
1070
     3
1070
     0
1002
{
1002
}
1002
}
1002
}
1000
Extra
1070
     0
1002
{
1000
Klin
1070
     8
1000
KLIN
1002
{
1000
Color
1070
     1
1070
     1
1002
{
1002
}
1000
LType
1070
     4
1000
CONTINUOUS
1002
{
1002
}
1000
Base
1070
     3
1070
     1
1002
{
1002
}
1002
}
1000
Info
1070
     8
1000
INFO
1002
{
1000
Color
1070
     1
1070
     4
1002
{
1002
}
1000
LType
1070
     4
1000
CONTINUOUS
1002
{
1002
}
1000
Base
1070
     3
1070
     1
1002
{
1002
}
1002
}
1000
Rahm2
1070
     8
1000
RAHM2
1002
{
1000
Color
1070
     1
1070
     1
1002
{
1002
}
1000
LType
1070
     4
1000
CONTINUOUS
1002
{
1002
}
1000
Base
1070
     3
1070
     1
1002
{
1002
}
1002
}
1000
Rahm3
1070
     8
1000
RAHM3
1002
{
1000
Color
1070
     1
1070
     2
1002
{
1002
}
1000
LType
1070
     4
1000
CONTINUOUS
1002
{
1002
}
1000
Base
1070
     3
1070
     1
1002
{
1002
}
1002
}
1000
Rahm5
1070
     8
1000
RAHM5
1002
{
1000
Color
1070
     1
1070
     7
1002
{
1002
}
1000
LType
1070
     4
1000
CONTINUOUS
1002
{
1002
}
1000
Base
1070
     3
1070
     1
1002
{
1002
}
1002
}
1000
View
1070
     8
1000
VIEW
1002
{
1000
Color
1070
     1
1070
     1
1002
{
1002
}
1000
LType
1070
     4
1000
CONTINUOUS
1002
{
1002
}
1000
Base
1070
     3
1070
     1
1002
{
1002
}
1002
}
1000
Behind
1070
     8
1000
BEHIND
1002
{
1000
Color
1070
     1
1070
   253
1002
{
1002
}
1000
LType
1070
     4
1000
CONTINUOUS
1002
{
1002
}
1000
Base
1070
     3
1070
     1
1002
{
1002
}
1002
}
1002
}
  0
APPID
  5
2D9
330
9
100
AcDbSymbolTableRecord
100
AcDbRegAppTableRecord
  2
GENIUS_GENCFG2_13
 70
     0
1001
GENIUS_GENCFG_13
1071
902383083
1000
2D9
1000
GEN@LAYER@ENTSORT
1070
    10
1000
GenCfgObject
1000
GenCfgShort
1000
GenCfgReal
1000
GenCfgBool
1000
GenCfgString
1000
GenCfgDim
1000
GenCfgAttrInf
1000
GenCfgLaySection
1000
GenCfgLayer
1000
GenCfgEntSort
1000
ALTR
1070
     9
1000
4
1002
{
1000
Class
1070
     4
1000

1002
{
1002
}
1000
Color
1070
     1
1070
     7
1002
{
1002
}
1000
LType
1070
     4
1000
GEN3A
1002
{
1002
}
1002
}
1000
BELI
1070
     9
1000
4
1002
{
1000
Class
1070
     4
1000

1002
{
1002
}
1000
Color
1070
     1
1070
   256
1002
{
1002
}
1000
LType
1070
     4
1000
BYLAYER
1002
{
1002
}
1002
}
1000
BHNV
1070
     9
1000
9
1002
{
1000
Class
1070
     4
1000
INV
1002
{
1002
}
1000
Color
1070
     1
1070
   256
1002
{
1002
}
1000
LType
1070
     4
1000
BYLAYER
1002
{
1002
}
1002
}
1000
BHNVS
1070
     9
1000
BEHIND
1002
{
1000
Class
1070
     4
1000
INV
1002
{
1002
}
1000
Color
1070
     1
1070
   256
1002
{
1002
}
1000
LType
1070
     4
1000
BYLAYER
1002
{
1002
}
1002
}
1000
BLID
1070
     9
1000
4A
1002
{
1000
Class
1070
     4
1000

1002
{
1002
}
1000
Color
1070
     1
1070
   256
1002
{
1002
}
1000
LType
1070
     4
1000
BYLAYER
1002
{
1002
}
1002
}
1000
BOAP
1070
     9
1000
4A
1002
{
1000
Class
1070
     4
1000

1002
{
1002
}
1000
Color
1070
     1
1070
   256
1002
{
1002
}
1000
LType
1070
     4
1000
BYLAYER
1002
{
1002
}
1002
}
1000
BOR2
1070
     9
1000
RAHM2
1002
{
1000
Class
1070
     4
1000
SPZ,SYM
1002
{
1002
}
1000
Color
1070
     1
1070
   256
1002
{
1002
}
1000
LType
1070
     4
1000
BYLAYER
1002
{
1002
}
1002
}
1000
BOR3
1070
     9
1000
RAHM3
1002
{
1000
Class
1070
     4
1000
SPZ,SYM
1002
{
1002
}
1000
Color
1070
     1
1070
   256
1002
{
1002
}
1000
LType
1070
     4
1000
BYLAYER
1002
{
1002
}
1002
}
1000
BOR5
1070
     9
1000
RAHM5
1002
{
1000
Class
1070
     4
1000
SPZ,SYM
1002
{
1002
}
1000
Color
1070
     1
1070
   256
1002
{
1002
}
1000
LType
1070
     4
1000
BYLAYER
1002
{
1002
}
1002
}
1000
BOR7
1070
     9
1000
RAHM5
1002
{
1000
Class
1070
     4
1000
SPZ,SYM
1002
{
1002
}
1000
Color
1070
     1
1070
     7
1002
{
1002
}
1000
LType
1070
     4
1000
CONTINUOUS
1002
{
1002
}
1002
}
1000
BPAP
1070
     9
1000
4A
1002
{
1000
Class
1070
     4
1000

1002
{
1002
}
1000
Color
1070
     1
1070
   256
1002
{
1002
}
1000
LType
1070
     4
1000
BYLAYER
1002
{
1002
}
1002
}
1000
BPEX
1070
     9
1000
4A
1002
{
1000
Class
1070
     4
1000

1002
{
1002
}
1000
Color
1070
     1
1070
   256
1002
{
1002
}
1000
LType
1070
     4
1000
BYLAYER
1002
{
1002
}
1002
}
1000
BTDI
1070
     9
1000
5
1002
{
1000
Class
1070
     4
1000
DIM,SYM
1002
{
1002
}
1000
Color
1070
     1
1070
   256
1002
{
1002
}
1000
LType
1070
     4
1000
BYLAYER
1002
{
1002
}
1002
}
1000
CAL2
1070
     9
1000
4
1002
{
1000
Class
1070
     4
1000
SYM
1002
{
1002
}
1000
Color
1070
     1
1070
   256
1002
{
1002
}
1000
LType
1070
     4
1000
BYLAYER
1002
{
1002
}
1002
}
1000
CAL3
1070
     9
1000
4
1002
{
1000
Class
1070
     4
1000
SYM
1002
{
1002
}
1000
Color
1070
     1
1070
     2
1002
{
1002
}
1000
LType
1070
     4
1000
BYLAYER
1002
{
1002
}
1002
}
1000
CAL5
1070
     9
1000
4
1002
{
1000
Class
1070
     4
1000
SYM
1002
{
1002
}
1000
Color
1070
     1
1070
     7
1002
{
1002
}
1000
LType
1070
     4
1000
BYLAYER
1002
{
1002
}
1002
}
1000
CAL7
1070
     9
1000
4
1002
{
1000
Class
1070
     4
1000
SYM
1002
{
1002
}
1000
Color
1070
     1
1070
     5
1002
{
1002
}
1000
LType
1070
     4
1000
BYLAYER
1002
{
1002
}
1002
}
1000
CENN
1070
     9
1000
7A
1002
{
1000
Class
1070
     4
1000
CEN
1002
{
1002
}
1000
Color
1070
     1
1070
   256
1002
{
1002
}
1000
LType
1070
     4
1000
BYLAYER
1002
{
1002
}
1002
}
1000
CENW
1070
     9
1000
7
1002
{
1000
Class
1070
     4
1000
CEN
1002
{
1002
}
1000
Color
1070
     1
1070
   256
1002
{
1002
}
1000
LType
1070
     4
1000
BYLAYER
1002
{
1002
}
1002
}
1000
CLIN
1070
     9
1000
KLIN
1002
{
1000
Class
1070
     4
1000
SPZ
1002
{
1002
}
1000
Color
1070
     1
1070
   256
1002
{
1002
}
1000
LType
1070
     4
1000
BYLAYER
1002
{
1002
}
1002
}
1000
CON1
1070
     9
1000
0
1002
{
1000
Class
1070
     4
1000
CON,BGD
1002
{
1002
}
1000
Color
1070
     1
1070
   256
1002
{
1002
}
1000
LType
1070
     4
1000
BYLAYER
1002
{
1002
}
1002
}
1000
CON2
1070
     9
1000
1
1002
{
1000
Class
1070
     4
1000
CON,BGD
1002
{
1002
}
1000
Color
1070
     1
1070
   256
1002
{
1002
}
1000
LType
1070
     4
1000
BYLAYER
1002
{
1002
}
1002
}
1000
CON3
1070
     9
1000
2
1002
{
1000
Class
1070
     4
1000
CON,BGD
1002
{
1002
}
1000
Color
1070
     1
1070
   256
1002
{
1002
}
1000
LType
1070
     4
1000
BYLAYER
1002
{
1002
}
1002
}
1000
CON4
1070
     9
1000
2
1002
{
1000
Class
1070
     4
1000
CON,BGD
1002
{
1002
}
1000
Color
1070
     1
1070
   256
1002
{
1002
}
1000
LType
1070
     4
1000
BYLAYER
1002
{
1002
}
1002
}
1000
DERP
1070
     9
1000
4
1002
{
1000
Class
1070
     4
1000

1002
{
1002
}
1000
Color
1070
     1
1070
   256
1002
{
1002
}
1000
LType
1070
     4
1000
BYLAYER
1002
{
1002
}
1002
}
1000
DETA
1070
     9
1000
4
1002
{
1000
Class
1070
     4
1000

1002
{
1002
}
1000
Color
1070
     1
1070
   256
1002
{
1002
}
1000
LType
1070
     4
1000
BYLAYER
1002
{
1002
}
1002
}
1000
DIAG
1070
     9
1000
5
1002
{
1000
Class
1070
     4
1000
SYM
1002
{
1002
}
1000
Color
1070
     1
1070
   256
1002
{
1002
}
1000
LType
1070
     4
1000
BYLAYER
1002
{
1002
}
1002
}
1000
DILI
1070
     9
1000
5
1002
{
1000
Class
1070
     4
1000
DIM,SYM
1002
{
1002
}
1000
Color
1070
     1
1070
   256
1002
{
1002
}
1000
LType
1070
     4
1000
BYLAYER
1002
{
1002
}
1002
}
1000
DITX
1070
     9
1000
5
1002
{
1000
Class
1070
     4
1000
DIM,SYM
1002
{
1002
}
1000
Color
1070
     1
1070
   250
1002
{
1002
}
1000
LType
1070
     4
1000
CONTINUOUS
1002
{
1002
}
1002
}
1000
DITO2
1070
     9
1000
5
1002
{
1000
Class
1070
     4
1000
DIM,SYM
1002
{
1002
}
1000
Color
1070
     1
1070
     3
1002
{
1002
}
1000
LType
1070
     4
1000
BYLAYER
1002
{
1002
}
1002
}
1000
DITO3
1070
     9
1000
5
1002
{
1000
Class
1070
     4
1000
DIM,SYM
1002
{
1002
}
1000
Color
1070
     1
1070
     2
1002
{
1002
}
1000
LType
1070
     4
1000
BYLAYER
1002
{
1002
}
1002
}
1000
DIXL
1070
     9
1000
5
1002
{
1000
Class
1070
     4
1000
DIM,SYM
1002
{
1002
}
1000
Color
1070
     1
1070
   256
1002
{
1002
}
1000
LType
1070
     4
1000
BYLAYER
1002
{
1002
}
1002
}
1000
EXMP
1070
     9
1000
4A
1002
{
1000
Class
1070
     4
1000

1002
{
1002
}
1000
Color
1070
     1
1070
   256
1002
{
1002
}
1000
LType
1070
     4
1000
BYLAYER
1002
{
1002
}
1002
}
1000
FEMN
1070
     9
1000
8
1002
{
1000
Class
1070
     4
1000

1002
{
1002
}
1000
Color
1070
     1
1070
   256
1002
{
1002
}
1000
LType
1070
     4
1000
BYLAYER
1002
{
1002
}
1002
}
1000
FEMPN
1070
     9
1000
8
1002
{
1000
Class
1070
     4
1000
SYM
1002
{
1002
}
1000
Color
1070
     1
1070
     3
1002
{
1002
}
1000
LType
1070
     4
1000
BYLAYER
1002
{
1002
}
1002
}
1000
FEMSP
1070
     9
1000
4A
1002
{
1000
Class
1070
     4
1000

1002
{
1002
}
1000
Color
1070
     1
1070
   256
1002
{
1002
}
1000
LType
1070
     4
1000
CONTINUOUS
1002
{
1002
}
1002
}
1000
FEMST
1070
     9
1000
4A
1002
{
1000
Class
1070
     4
1000
SYM
1002
{
1002
}
1000
Color
1070
     1
1070
     3
1002
{
1002
}
1000
LType
1070
     4
1000
BYLAYER
1002
{
1002
}
1002
}
1000
FEMVN
1070
     9
1000
2
1002
{
1000
Class
1070
     4
1000
CON
1002
{
1002
}
1000
Color
1070
     1
1070
   256
1002
{
1002
}
1000
LType
1070
     4
1000
BYLAYER
1002
{
1002
}
1002
}
1000
FEMVT
1070
     9
1000
2
1002
{
1000
Class
1070
     4
1000
SYM
1002
{
1002
}
1000
Color
1070
     1
1070
     3
1002
{
1002
}
1000
LType
1070
     4
1000
BYLAYER
1002
{
1002
}
1002
}
1000
FLAT
1070
     9
1000
0
1002
{
1000
Class
1070
     4
1000

1002
{
1002
}
1000
Color
1070
     1
1070
   256
1002
{
1002
}
1000
LType
1070
     4
1000
BYLAYER
1002
{
1002
}
1002
}
1000
FRAR
1070
     9
1000
4A
1002
{
1000
Class
1070
     4
1000

1002
{
1002
}
1000
Color
1070
     1
1070
   256
1002
{
1002
}
1000
LType
1070
     4
1000
BYLAYER
1002
{
1002
}
1002
}
1000
GRLI
1070
     9
1000
5
1002
{
1000
Class
1070
     4
1000
SYM
1002
{
1002
}
1000
Color
1070
     1
1070
   256
1002
{
1002
}
1000
LType
1070
     4
1000
BYLAYER
1002
{
1002
}
1002
}
1000
GVLI
1070
     9
1000
4A
1002
{
1000
Class
1070
     4
1000

1002
{
1002
}
1000
Color
1070
     1
1070
   256
1002
{
1002
}
1000
LType
1070
     4
1000
BYLAYER
1002
{
1002
}
1002
}
1000
HATC
1070
     9
1000
8
1002
{
1000
Class
1070
     4
1000
HTC,BGD
1002
{
1002
}
1000
Color
1070
     1
1070
   256
1002
{
1002
}
1000
LType
1070
     4
1000
BYLAYER
1002
{
1002
}
1002
}
1000
HIDN
1070
     9
1000
3A
1002
{
1000
Class
1070
     4
1000
HID,BGD
1002
{
1002
}
1000
Color
1070
     1
1070
   256
1002
{
1002
}
1000
LType
1070
     4
1000
BYLAYER
1002
{
1002
}
1002
}
1000
HIDW
1070
     9
1000
3
1002
{
1000
Class
1070
     4
1000
HID,BGD
1002
{
1002
}
1000
Color
1070
     1
1070
   256
1002
{
1002
}
1000
LType
1070
     4
1000
BYLAYER
1002
{
1002
}
1002
}
1000
HLIN
1070
     9
1000
4
1002
{
1000
Class
1070
     4
1000
BGD
1002
{
1002
}
1000
Color
1070
     1
1070
   256
1002
{
1002
}
1000
LType
1070
     4
1000
BYLAYER
1002
{
1002
}
1002
}
1000
HOCN
1070
     9
1000
7A
1002
{
1000
Class
1070
     4
1000
CEN
1002
{
1002
}
1000
Color
1070
     1
1070
   256
1002
{
1002
}
1000
LType
1070
     4
1000
BYLAYER
1002
{
1002
}
1002
}
1000
HOCW
1070
     9
1000
7
1002
{
1000
Class
1070
     4
1000
CEN
1002
{
1002
}
1000
Color
1070
     1
1070
   256
1002
{
1002
}
1000
LType
1070
     4
1000
BYLAYER
1002
{
1002
}
1002
}
1000
INFO
1070
     9
1000
INFO
1002
{
1000
Class
1070
     4
1000
SPZ,SYM
1002
{
1002
}
1000
Color
1070
     1
1070
   256
1002
{
1002
}
1000
LType
1070
     4
1000
BYLAYER
1002
{
1002
}
1002
}
1000
LADI
1070
     9
1000
4
1002
{
1000
Class
1070
     4
1000
BGD
1002
{
1002
}
1000
Color
1070
     1
1070
   256
1002
{
1002
}
1000
LType
1070
     4
1000
BYLAYER
1002
{
1002
}
1002
}
1000
LEAD
1070
     9
1000
5
1002
{
1000
Class
1070
     4
1000
SYM
1002
{
1002
}
1000
Color
1070
     1
1070
   256
1002
{
1002
}
1000
LType
1070
     4
1000
BYLAYER
1002
{
1002
}
1002
}
1000
N_BHNV
1070
     9
1000
9N
1002
{
1000
Class
1070
     4
1000
INV
1002
{
1002
}
1000
Color
1070
     1
1070
   256
1002
{
1002
}
1000
LType
1070
     4
1000
BYLAYER
1002
{
1002
}
1002
}
1000
N_CON1
1070
     9
1000
0N
1002
{
1000
Class
1070
     4
1000
CON,BGD
1002
{
1002
}
1000
Color
1070
     1
1070
   256
1002
{
1002
}
1000
LType
1070
     4
1000
BYLAYER
1002
{
1002
}
1002
}
1000
N_CON2
1070
     9
1000
1N
1002
{
1000
Class
1070
     4
1000
CON,BGD
1002
{
1002
}
1000
Color
1070
     1
1070
   256
1002
{
1002
}
1000
LType
1070
     4
1000
BYLAYER
1002
{
1002
}
1002
}
1000
N_CON3
1070
     9
1000
2N
1002
{
1000
Class
1070
     4
1000
CON,BGD
1002
{
1002
}
1000
Color
1070
     1
1070
   256
1002
{
1002
}
1000
LType
1070
     4
1000
BYLAYER
1002
{
1002
}
1002
}
1000
N_CON4
1070
     9
1000
2N
1002
{
1000
Class
1070
     4
1000
CON,BGD
1002
{
1002
}
1000
Color
1070
     1
1070
   256
1002
{
1002
}
1000
LType
1070
     4
1000
BYLAYER
1002
{
1002
}
1002
}
1000
N_CENN
1070
     9
1000
7AN
1002
{
1000
Class
1070
     4
1000
CEN
1002
{
1002
}
1000
Color
1070
     1
1070
   256
1002
{
1002
}
1000
LType
1070
     4
1000
BYLAYER
1002
{
1002
}
1002
}
1000
N_CENW
1070
     9
1000
7N
1002
{
1000
Class
1070
     4
1000
CEN
1002
{
1002
}
1000
Color
1070
     1
1070
   256
1002
{
1002
}
1000
LType
1070
     4
1000
BYLAYER
1002
{
1002
}
1002
}
1000
N_DILI
1070
     9
1000
5N
1002
{
1000
Class
1070
     4
1000
DIM,SYM
1002
{
1002
}
1000
Color
1070
     1
1070
   256
1002
{
1002
}
1000
LType
1070
     4
1000
BYLAYER
1002
{
1002
}
1002
}
1000
N_DITX
1070
     9
1000
5N
1002
{
1000
Class
1070
     4
1000
DIM,SYM
1002
{
1002
}
1000
Color
1070
     1
1070
     2
1002
{
1002
}
1000
LType
1070
     4
1000
CONTINUOUS
1002
{
1002
}
1002
}
1000
N_DIXL
1070
     9
1000
5N
1002
{
1000
Class
1070
     4
1000
DIM,SYM
1002
{
1002
}
1000
Color
1070
     1
1070
   256
1002
{
1002
}
1000
LType
1070
     4
1000
BYLAYER
1002
{
1002
}
1002
}
1000
N_HATC
1070
     9
1000
8N
1002
{
1000
Class
1070
     4
1000
HTC,BGD
1002
{
1002
}
1000
Color
1070
     1
1070
   256
1002
{
1002
}
1000
LType
1070
     4
1000
BYLAYER
1002
{
1002
}
1002
}
1000
N_HIDN
1070
     9
1000
3AN
1002
{
1000
Class
1070
     4
1000
HID,BGD
1002
{
1002
}
1000
Color
1070
     1
1070
   256
1002
{
1002
}
1000
LType
1070
     4
1000
BYLAYER
1002
{
1002
}
1002
}
1000
N_HIDW
1070
     9
1000
3N
1002
{
1000
Class
1070
     4
1000
HID,BGD
1002
{
1002
}
1000
Color
1070
     1
1070
   256
1002
{
1002
}
1000
LType
1070
     4
1000
BYLAYER
1002
{
1002
}
1002
}
1000
N_PHAN
1070
     9
1000
4AN
1002
{
1000
Class
1070
     4
1000

1002
{
1002
}
1000
Color
1070
     1
1070
   256
1002
{
1002
}
1000
LType
1070
     4
1000
BYLAYER
1002
{
1002
}
1002
}
1000
N_POSL
1070
     9
1000
5N
1002
{
1000
Class
1070
     4
1000
SYM
1002
{
1002
}
1000
Color
1070
     1
1070
   256
1002
{
1002
}
1000
LType
1070
     4
1000
BYLAYER
1002
{
1002
}
1002
}
1000
N_TCON
1070
     9
1000
0N
1002
{
1000
Class
1070
     4
1000
CON,BGD
1002
{
1002
}
1000
Color
1070
     1
1070
   256
1002
{
1002
}
1000
LType
1070
     4
1000
BYLAYER
1002
{
1002
}
1002
}
1000
N_THLI
1070
     9
1000
4N
1002
{
1000
Class
1070
     4
1000
BGD
1002
{
1002
}
1000
Color
1070
     1
1070
   256
1002
{
1002
}
1000
LType
1070
     4
1000
BYLAYER
1002
{
1002
}
1002
}
1000
N_TLEN
1070
     9
1000
0N
1002
{
1000
Class
1070
     4
1000
CON,BGD
1002
{
1002
}
1000
Color
1070
     1
1070
   256
1002
{
1002
}
1000
LType
1070
     4
1000
BYLAYER
1002
{
1002
}
1002
}
1000
N_TXT3
1070
     9
1000
6N
1002
{
1000
Class
1070
     4
1000
SYM
1002
{
1002
}
1000
Color
1070
     1
1070
   256
1002
{
1002
}
1000
LType
1070
     4
1000
BYLAYER
1002
{
1002
}
1002
}
1000
N_VPLI
1070
     9
1000
2AN
1002
{
1000
Class
1070
     4
1000

1002
{
1002
}
1000
Color
1070
     1
1070
   256
1002
{
1002
}
1000
LType
1070
     4
1000
BYLAYER
1002
{
1002
}
1002
}
1000
PAL2
1070
     9
1000
RAHM2
1002
{
1000
Class
1070
     4
1000
SPZ,SYM
1002
{
1002
}
1000
Color
1070
     1
1070
   256
1002
{
1002
}
1000
LType
1070
     4
1000
BYLAYER
1002
{
1002
}
1002
}
1000
PAL3
1070
     9
1000
RAHM3
1002
{
1000
Class
1070
     4
1000
SPZ,SYM
1002
{
1002
}
1000
Color
1070
     1
1070
   256
1002
{
1002
}
1000
LType
1070
     4
1000
BYLAYER
1002
{
1002
}
1002
}
1000
PAL5
1070
     9
1000
RAHM5
1002
{
1000
Class
1070
     4
1000
SPZ,SYM
1002
{
1002
}
1000
Color
1070
     1
1070
   256
1002
{
1002
}
1000
LType
1070
     4
1000
BYLAYER
1002
{
1002
}
1002
}
1000
PAL7
1070
     9
1000
RAHM5
1002
{
1000
Class
1070
     4
1000
SPZ,SYM
1002
{
1002
}
1000
Color
1070
     1
1070
     7
1002
{
1002
}
1000
LType
1070
     4
1000
CONTINUOUS
1002
{
1002
}
1002
}
1000
PHAN
1070
     9
1000
4A
1002
{
1000
Class
1070
     4
1000

1002
{
1002
}
1000
Color
1070
     1
1070
   256
1002
{
1002
}
1000
LType
1070
     4
1000
BYLAYER
1002
{
1002
}
1002
}
1000
POSL
1070
     9
1000
5
1002
{
1000
Class
1070
     4
1000
SYM
1002
{
1002
}
1000
Color
1070
     1
1070
   256
1002
{
1002
}
1000
LType
1070
     4
1000
BYLAYER
1002
{
1002
}
1002
}
1000
POSN
1070
     9
1000
6
1002
{
1000
Class
1070
     4
1000
SYM
1002
{
1002
}
1000
Color
1070
     1
1070
     7
1002
{
1002
}
1000
LType
1070
     4
1000
BYLAYER
1002
{
1002
}
1002
}
1000
POSREF
1070
     9
1000
6
1002
{
1000
Class
1070
     4
1000
SYM
1002
{
1002
}
1000
Color
1070
     1
1070
     5
1002
{
1002
}
1000
LType
1070
     4
1000
BYLAYER
1002
{
1002
}
1002
}
1000
POSX
1070
     9
1000
5
1002
{
1000
Class
1070
     4
1000
SYM
1002
{
1002
}
1000
Color
1070
     1
1070
     2
1002
{
1002
}
1000
LType
1070
     4
1000
CONTINUOUS
1002
{
1002
}
1002
}
1000
PSEC
1070
     9
1000
4A
1002
{
1000
Class
1070
     4
1000

1002
{
1002
}
1000
Color
1070
     1
1070
   256
1002
{
1002
}
1000
LType
1070
     4
1000
BYLAYER
1002
{
1002
}
1002
}
1000
RCGN
1070
     9
1000
7A
1002
{
1000
Class
1070
     4
1000
CEN
1002
{
1002
}
1000
Color
1070
     1
1070
   256
1002
{
1002
}
1000
LType
1070
     4
1000
BYLAYER
1002
{
1002
}
1002
}
1000
RCGW
1070
     9
1000
7
1002
{
1000
Class
1070
     4
1000
CEN
1002
{
1002
}
1000
Color
1070
     1
1070
   256
1002
{
1002
}
1000
LType
1070
     4
1000
BYLAYER
1002
{
1002
}
1002
}
1000
RFDI
1070
     9
1000
4
1002
{
1000
Class
1070
     4
1000
BGD
1002
{
1002
}
1000
Color
1070
     1
1070
   256
1002
{
1002
}
1000
LType
1070
     4
1000
BYLAYER
1002
{
1002
}
1002
}
1000
RQTR
1070
     9
1000
4
1002
{
1000
Class
1070
     4
1000

1002
{
1002
}
1000
Color
1070
     1
1070
     7
1002
{
1002
}
1000
LType
1070
     4
1000
GEN7A
1002
{
1002
}
1002
}
1000
RSBO
1070
     9
1000
4
1002
{
1000
Class
1070
     4
1000
BGD
1002
{
1002
}
1000
Color
1070
     1
1070
   256
1002
{
1002
}
1000
LType
1070
     4
1000
BYLAYER
1002
{
1002
}
1002
}
1000
SBRK
1070
     9
1000
4
1002
{
1000
Class
1070
     4
1000
BGD
1002
{
1002
}
1000
Color
1070
     1
1070
   256
1002
{
1002
}
1000
LType
1070
     4
1000
BYLAYER
1002
{
1002
}
1002
}
1000
SCEN
1070
     9
1000
7
1002
{
1000
Class
1070
     4
1000

1002
{
1002
}
1000
Color
1070
     1
1070
   256
1002
{
1002
}
1000
LType
1070
     4
1000
CONTINUOUS
1002
{
1002
}
1002
}
1000
SECT
1070
     9
1000
4
1002
{
1000
Class
1070
     4
1000
BGD
1002
{
1002
}
1000
Color
1070
     1
1070
   256
1002
{
1002
}
1000
LType
1070
     4
1000
BYLAYER
1002
{
1002
}
1002
}
1000
SELN
1070
     9
1000
7A
1002
{
1000
Class
1070
     4
1000

1002
{
1002
}
1000
Color
1070
     1
1070
   256
1002
{
1002
}
1000
LType
1070
     4
1000
BYLAYER
1002
{
1002
}
1002
}
1000
SELW
1070
     9
1000
7
1002
{
1000
Class
1070
     4
1000

1002
{
1002
}
1000
Color
1070
     1
1070
   256
1002
{
1002
}
1000
LType
1070
     4
1000
BYLAYER
1002
{
1002
}
1002
}
1000
SSYS
1070
     9
1000
0
1002
{
1000
Class
1070
     4
1000

1002
{
1002
}
1000
Color
1070
     1
1070
   256
1002
{
1002
}
1000
LType
1070
     4
1000
BYLAYER
1002
{
1002
}
1002
}
1000
STLI
1070
     9
1000
4
1002
{
1000
Class
1070
     4
1000

1002
{
1002
}
1000
Color
1070
     1
1070
     7
1002
{
1002
}
1000
LType
1070
     4
1000
GEN3A
1002
{
1002
}
1002
}
1000
SYB1
1070
     9
1000
5
1002
{
1000
Class
1070
     4
1000
SYM
1002
{
1002
}
1000
Color
1070
     1
1070
   256
1002
{
1002
}
1000
LType
1070
     4
1000
BYLAYER
1002
{
1002
}
1002
}
1000
SYB2
1070
     9
1000
5
1002
{
1000
Class
1070
     4
1000
SYM
1002
{
1002
}
1000
Color
1070
     1
1070
   256
1002
{
1002
}
1000
LType
1070
     4
1000
BYLAYER
1002
{
1002
}
1002
}
1000
SYB3
1070
     9
1000
6
1002
{
1000
Class
1070
     4
1000
SYM
1002
{
1002
}
1000
Color
1070
     1
1070
   256
1002
{
1002
}
1000
LType
1070
     4
1000
CONTINUOUS
1002
{
1002
}
1002
}
1000
SYB5
1070
     9
1000
5
1002
{
1000
Class
1070
     4
1000
SYM
1002
{
1002
}
1000
Color
1070
     1
1070
     7
1002
{
1002
}
1000
LType
1070
     4
1000
BYLAYER
1002
{
1002
}
1002
}
1000
SYMN
1070
     9
1000
7A
1002
{
1000
Class
1070
     4
1000
CEN
1002
{
1002
}
1000
Color
1070
     1
1070
   256
1002
{
1002
}
1000
LType
1070
     4
1000
BYLAYER
1002
{
1002
}
1002
}
1000
SYMW
1070
     9
1000
7
1002
{
1000
Class
1070
     4
1000
CEN
1002
{
1002
}
1000
Color
1070
     1
1070
   256
1002
{
1002
}
1000
LType
1070
     4
1000
BYLAYER
1002
{
1002
}
1002
}
1000
TCON
1070
     9
1000
0
1002
{
1000
Class
1070
     4
1000
CON,BGD
1002
{
1002
}
1000
Color
1070
     1
1070
   256
1002
{
1002
}
1000
LType
1070
     4
1000
BYLAYER
1002
{
1002
}
1002
}
1000
THLI
1070
     9
1000
4
1002
{
1000
Class
1070
     4
1000
BGD
1002
{
1002
}
1000
Color
1070
     1
1070
   256
1002
{
1002
}
1000
LType
1070
     4
1000
BYLAYER
1002
{
1002
}
1002
}
1000
TIT2
1070
     9
1000
RAHM2
1002
{
1000
Class
1070
     4
1000
SPZ,SYM
1002
{
1002
}
1000
Color
1070
     1
1070
   256
1002
{
1002
}
1000
LType
1070
     4
1000
BYLAYER
1002
{
1002
}
1002
}
1000
TIT3
1070
     9
1000
RAHM3
1002
{
1000
Class
1070
     4
1000
SPZ,SYM
1002
{
1002
}
1000
Color
1070
     1
1070
   256
1002
{
1002
}
1000
LType
1070
     4
1000
BYLAYER
1002
{
1002
}
1002
}
1000
TIT5
1070
     9
1000
RAHM5
1002
{
1000
Class
1070
     4
1000
SPZ,SYM
1002
{
1002
}
1000
Color
1070
     1
1070
   256
1002
{
1002
}
1000
LType
1070
     4
1000
BYLAYER
1002
{
1002
}
1002
}
1000
TIT7
1070
     9
1000
RAHM5
1002
{
1000
Class
1070
     4
1000
SPZ,SYM
1002
{
1002
}
1000
Color
1070
     1
1070
     7
1002
{
1002
}
1000
LType
1070
     4
1000
CONTINUOUS
1002
{
1002
}
1002
}
1000
TLEN
1070
     9
1000
0
1002
{
1000
Class
1070
     4
1000
CON,BGD
1002
{
1002
}
1000
Color
1070
     1
1070
   256
1002
{
1002
}
1000
LType
1070
     4
1000
BYLAYER
1002
{
1002
}
1002
}
1000
TRKN
1070
     9
1000
7A
1002
{
1000
Class
1070
     4
1000

1002
{
1002
}
1000
Color
1070
     1
1070
   256
1002
{
1002
}
1000
LType
1070
     4
1000
BYLAYER
1002
{
1002
}
1002
}
1000
TRKW
1070
     9
1000
7
1002
{
1000
Class
1070
     4
1000

1002
{
1002
}
1000
Color
1070
     1
1070
   256
1002
{
1002
}
1000
LType
1070
     4
1000
BYLAYER
1002
{
1002
}
1002
}
1000
TRLI
1070
     9
1000
4
1002
{
1000
Class
1070
     4
1000
BGD
1002
{
1002
}
1000
Color
1070
     1
1070
   256
1002
{
1002
}
1000
LType
1070
     4
1000
BYLAYER
1002
{
1002
}
1002
}
1000
TXT1
1070
     9
1000
6
1002
{
1000
Class
1070
     4
1000
SYM
1002
{
1002
}
1000
Color
1070
     1
1070
     2
1002
{
1002
}
1000
LType
1070
     4
1000
BYLAYER
1002
{
1002
}
1002
}
1000
TXT2
1070
     9
1000
6
1002
{
1000
Class
1070
     4
1000
SYM
1002
{
1002
}
1000
Color
1070
     1
1070
     2
1002
{
1002
}
1000
LType
1070
     4
1000
BYLAYER
1002
{
1002
}
1002
}
1000
TXT3
1070
     9
1000
6
1002
{
1000
Class
1070
     4
1000
SYM
1002
{
1002
}
1000
Color
1070
     1
1070
   256
1002
{
1002
}
1000
LType
1070
     4
1000
BYLAYER
1002
{
1002
}
1002
}
1000
TXT5
1070
     9
1000
6
1002
{
1000
Class
1070
     4
1000
SYM
1002
{
1002
}
1000
Color
1070
     1
1070
     7
1002
{
1002
}
1000
LType
1070
     4
1000
BYLAYER
1002
{
1002
}
1002
}
1000
TXT7
1070
     9
1000
6
1002
{
1000
Class
1070
     4
1000
SYM
1002
{
1002
}
1000
Color
1070
     1
1070
     7
1002
{
1002
}
1000
LType
1070
     4
1000
BYLAYER
1002
{
1002
}
1002
}
1000
VIEW
1070
     9
1000
VIEW
1002
{
1000
Class
1070
     4
1000
SPZ
1002
{
1002
}
1000
Color
1070
     1
1070
   256
1002
{
1002
}
1000
LType
1070
     4
1000
BYLAYER
1002
{
1002
}
1002
}
1000
VPLI
1070
     9
1000
2A
1002
{
1000
Class
1070
     4
1000

1002
{
1002
}
1000
Color
1070
     1
1070
   256
1002
{
1002
}
1000
LType
1070
     4
1000
BYLAYER
1002
{
1002
}
1002
}
1000
ZIZA
1070
     9
1000
4
1002
{
1000
Class
1070
     4
1000
BGD
1002
{
1002
}
1000
Color
1070
     1
1070
   256
1002
{
1002
}
1000
LType
1070
     4
1000
GENZIGZAG
1002
{
1002
}
1002
}
  0
APPID
  5
2DA
330
9
100
AcDbSymbolTableRecord
100
AcDbRegAppTableRecord
  2
GENIUS_GENCFG3_13
 70
     0
1001
GENIUS_GENCFG_13
1071
902383083
1000
2DA
1000
GEN@OSWIZ
1070
    12
1000
GenCfgObject
1000
GenCfgShort
1000
GenCfgReal
1000
GenCfgBool
1000
GenCfgString
1000
GenCfgDim
1000
GenCfgAttrInf
1000
GenCfgLaySection
1000
GenCfgLayer
1000
GenCfgEntSort
1000
GenCfgLType
1000
GenCfgFilter
1000
AngleStep
1070
     0
1002
{
1000
M
1070
     2
1040
10.0
1002
{
1002
}
1000
I
1070
     2
1040
0.4
1002
{
1002
}
1002
}
1000
AngleIncr
1070
     2
1040
45.0
1002
{
1002
}
1000
Filter
1070
     0
1002
{
1000
HATCH
1070
    11
1002
{
1000
EntityType
1070
     4
1000
LINE
1002
{
1002
}
1000
Layer
1070
     4
1000
8,8N,*-8,*-8N
1002
{
1002
}
1000
Linetype
1070
     4
1000
*
1002
{
1002
}
1000
Color
1070
     4
1000
*
1002
{
1002
}
1002
}
1000
SYMBOLS
1070
    11
1002
{
1000
EntityType
1070
     4
1000
*
1002
{
1002
}
1000
Layer
1070
     4
1000
[5-6],[5-6]N,*-[5-6],*-[5-6]N
1002
{
1002
}
1000
Linetype
1070
     4
1000
*
1002
{
1002
}
1000
Color
1070
     4
1000
*
1002
{
1002
}
1002
}
1000
FEM
1070
    11
1002
{
1000
EntityType
1070
     4
1000
*
1002
{
1002
}
1000
Layer
1070
     4
1000
4A,4AN,*-4A,*-4AN
1002
{
1002
}
1000
Linetype
1070
     4
1000
*
1002
{
1002
}
1000
Color
1070
     4
1000
*
1002
{
1002
}
1002
}
1002
}
1000
IconSize
1070
     2
1040
1.0
1002
{
1002
}
1000
SnapColor
1070
     1
1070
   230
1002
{
1002
}
  0
APPID
  5
2DB
330
9
100
AcDbSymbolTableRecord
100
AcDbRegAppTableRecord
  2
GENIUS_GENCFG4_13
 70
     0
1001
GENIUS_GENCFG_13
1071
902384733
1000
2DB
1000
GEN
1070
     9
1000
GenCfgObject
1000
GenCfgShort
1000
GenCfgReal
1000
GenCfgBool
1000
GenCfgString
1000
GenCfgDim
1000
GenCfgAttrInf
1000
GenCfgLaySection
1000
GenCfgLType
1000
Balloon
1070
     0
1002
{
1000
GenIF
1070
     1
1070
     0
1002
{
1002
}
1000
GenPosInc
1070
     1
1070
     1
1002
{
1002
}
1000
GenPosBlk
1070
     1
1070
     3
1002
{
1002
}
1000
GenPosVar
1070
     1
1070
     1
1002
{
1002
}
1000
GenZiCir
1070
     2
1040
1.5
1002
{
1002
}
1000
MaxCharForCenteredText
1070
     1
1070
    30
1002
{
1002
}
1000
Snap
1070
     0
1002
{
1000
ActivationRadius
1070
     2
1040
1.0
1002
{
1002
}
1000
M
1070
     0
1002
{
1000
SnapStepX
1070
     2
1040
15.0
1002
{
1002
}
1000
SnapStepY
1070
     2
1040
15.0
1002
{
1002
}
1002
}
1000
I
1070
     0
1002
{
1000
SnapStepX
1070
     2
1040
1.0
1002
{
1002
}
1000
SnapStepY
1070
     2
1040
0.5
1002
{
1002
}
1002
}
1002
}
1002
}
1000
Centerline
1070
     0
1002
{
1000
ScaleNot
1070
     3
1070
     0
1002
{
1002
}
1000
M
1070
     0
1002
{
1000
GenCenAng
1070
     4
1000
45|90|135
1002
{
1002
}
1000
GenCenDia
1070
     2
1040
250.0
1002
{
1002
}
1000
GenCenDias
1070
     4
1000
10|20|30
1002
{
1002
}
1000
GenCenDist
1070
     2
1040
3.0
1002
{
1002
}
1000
GenCenLen
1070
     2
1040
10.0
1002
{
1002
}
1000
GenCenOff
1070
     2
1040
10.0
1002
{
1002
}
1002
}
1000
I
1070
     0
1002
{
1000
GenCenAng
1070
     4
1000
45|90|135
1002
{
1002
}
1000
GenCenDia
1070
     2
1040
0.5
1002
{
1002
}
1000
GenCenDias
1070
     4
1000
0.5|1.0|1.5
1002
{
1002
}
1000
GenCenDist
1070
     2
1040
0.125
1002
{
1002
}
1000
GenCenLen
1070
     2
1040
0.5
1002
{
1002
}
1000
GenCenOff
1070
     2
1040
0.5
1002
{
1002
}
1002
}
1002
}
1000
CLine
1070
     0
1002
{
1000
CAngArray
1070
     4
1000
30|45|60
1002
{
1002
}
1000
Typ
1070
     4
1000
XLINE
1002
{
1002
}
1000
M
1070
     0
1002
{
1000
CLinArray
1070
     4
1000
2700
1002
{
1002
}
1002
}
1000
I
1070
     0
1002
{
1000
CLinArray
1070
     4
1000
0.125|0.25|0.5
1002
{
1002
}
1002
}
1002
}
1000
Constraints
1070
     0
1002
{
1000
Color
1070
     0
1002
{
1000
Active_Frame
1070
     1
1070
     2
1002
{
1002
}
1000
Inactive_Frame
1070
     1
1070
     8
1002
{
1002
}
1002
}
1000
Debug
1070
     0
1002
{
1002
}
1000
Editor
1070
     0
1002
{
1002
}
1000
Frame
1070
     0
1002
{
1002
}
1000
Sys
1070
     0
1002
{
1002
}
1002
}
1000
Detail
1070
     0
1002
{
1002
}
1000
Dimension
1070
     5
1002
{
1000
DIMALT
1070
     1
1070
     0
1002
{
1002
}
1000
DIMALTD
1070
     1
1070
     2
1002
{
1002
}
1000
DIMALTTD
1070
     1
1070
     4
1002
{
1002
}
1000
DIMALTTZ
1070
     1
1070
     0
1002
{
1002
}
1000
DIMALTU
1070
     1
1070
     2
1002
{
1002
}
1000
DIMALTZ
1070
     1
1070
     0
1002
{
1002
}
1000
DIMAPOST
1070
     4
1000

1002
{
1002
}
1000
DIMAUNIT
1070
     1
1070
     0
1002
{
1002
}
1000
DIMBLK
1070
     4
1000

1002
{
1002
}
1000
DIMBLK1
1070
     4
1000

1002
{
1002
}
1000
DIMBLK2
1070
     4
1000

1002
{
1002
}
1000
DIMDLE
1070
     2
1040
0.0
1002
{
1002
}
1000
DIMFIT
1070
     1
1070
     3
1002
{
1002
}
1000
DIMJUST
1070
     1
1070
     0
1002
{
1002
}
1000
DIMLFAC
1070
     2
1040
1.0
1002
{
1002
}
1000
DIMLIM
1070
     1
1070
     0
1002
{
1002
}
1000
DIMPOST
1070
     4
1000

1002
{
1002
}
1000
DIMRND
1070
     2
1040
0.0
1002
{
1002
}
1000
DIMSAH
1070
     1
1070
     0
1002
{
1002
}
1000
DIMSCALE
1070
     2
1040
1.0
1002
{
1002
}
1000
DIMSD1
1070
     1
1070
     0
1002
{
1002
}
1000
DIMSD2
1070
     1
1070
     0
1002
{
1002
}
1000
DIMSE1
1070
     1
1070
     0
1002
{
1002
}
1000
DIMSE2
1070
     1
1070
     0
1002
{
1002
}
1000
DIMSOXD
1070
     1
1070
     0
1002
{
1002
}
1000
DIMTAD
1070
     1
1070
     0
1002
{
1002
}
1000
DIMTFAC
1070
     2
1040
0.71
1002
{
1002
}
1000
DIMTIH
1070
     1
1070
     0
1002
{
1002
}
1000
DIMTIX
1070
     1
1070
     0
1002
{
1002
}
1000
DIMTM
1070
     2
1040
0.1
1002
{
1002
}
1000
DIMTOFL
1070
     1
1070
     0
1002
{
1002
}
1000
DIMTOH
1070
     1
1070
     0
1002
{
1002
}
1000
DIMTOL
1070
     1
1070
     0
1002
{
1002
}
1000
DIMTOLJ
1070
     1
1070
     1
1002
{
1002
}
1000
DIMTP
1070
     2
1040
0.1
1002
{
1002
}
1000
DIMTSZ
1070
     2
1040
0.0
1002
{
1002
}
1000
DIMTVP
1070
     2
1040
0.0
1002
{
1002
}
1000
DIMTXSTY
1070
     4
1000
STANDARD
1002
{
1002
}
1000
DIMTZIN
1070
     1
1070
     0
1002
{
1002
}
1000
DIMUNIT
1070
     1
1070
     2
1002
{
1002
}
1000
DIMUPT
1070
     1
1070
     0
1002
{
1002
}
1000
M
1070
     0
1002
{
1000
DIMALTF
1070
     2
1040
0.0393701
1002
{
1002
}
1000
DIMASZ
1070
     2
1040
2.5
1002
{
1002
}
1000
DIMCEN
1070
     2
1040
0.0
1002
{
1002
}
1000
DIMDEC
1070
     1
1070
     2
1002
{
1002
}
1000
DIMDLI
1070
     2
1040
10.0
1002
{
1002
}
1000
DIMEXE
1070
     2
1040
1.0
1002
{
1002
}
1000
DIMEXO
1070
     2
1040
1.0
1002
{
1002
}
1000
DIMGAP
1070
     2
1040
1.5
1002
{
1002
}
1000
DIMTDEC
1070
     1
1070
     3
1002
{
1002
}
1000
DIMTXT
1070
     2
1040
3.5
1002
{
1002
}
1000
DIMZIN
1070
     1
1070
     8
1002
{
1002
}
1002
}
1000
I
1070
     0
1002
{
1000
DIMALTF
1070
     2
1040
25.4
1002
{
1002
}
1000
DIMASZ
1070
     2
1040
0.1
1002
{
1002
}
1000
DIMCEN
1070
     2
1040
0.0
1002
{
1002
}
1000
DIMDEC
1070
     1
1070
     4
1002
{
1002
}
1000
DIMDLI
1070
     2
1040
0.5
1002
{
1002
}
1000
DIMEXE
1070
     2
1040
0.1
1002
{
1002
}
1000
DIMEXO
1070
     2
1040
0.05
1002
{
1002
}
1000
DIMGAP
1070
     2
1040
0.06
1002
{
1002
}
1000
DIMTDEC
1070
     1
1070
     4
1002
{
1002
}
1000
DIMTXT
1070
     2
1040
0.12
1002
{
1002
}
1000
DIMZIN
1070
     1
1070
     7
1002
{
1002
}
1002
}
1000
GEN-ISO
1070
     5
1002
{
1000
NAME
1070
     4
1000
GEN-ISO
1002
{
1002
}
1000
DIMTAD
1070
     1
1070
     1
1002
{
1002
}
1000
DIMTOLJ
1070
     1
1070
     0
1002
{
1002
}
1000
DIMTOFL
1070
     1
1070
     1
1002
{
1002
}
1000
M
1070
     0
1002
{
1002
}
1000
I
1070
     0
1002
{
1002
}
1002
}
1000
GEN-ISO-POS
1070
     5
1002
{
1000
NAME
1070
     4
1000
GEN-ISO-POS
1002
{
1002
}
1000
DIMTOLJ
1070
     1
1070
     0
1002
{
1002
}
1000
M
1070
     0
1002
{
1000
DIMASZ
1070
     2
1040
2.5
1002
{
1002
}
1000
DIMGAP
1070
     2
1040
1.5
1002
{
1002
}
1000
DIMTXT
1070
     2
1040
5.0
1002
{
1002
}
1002
}
1000
I
1070
     0
1002
{
1000
DIMASZ
1070
     2
1040
0.1
1002
{
1002
}
1000
DIMGAP
1070
     2
1040
0.06
1002
{
1002
}
1000
DIMTXT
1070
     2
1040
0.2
1002
{
1002
}
1002
}
1002
}
1000
GEN-ISO-CIR
1070
     5
1002
{
1000
NAME
1070
     4
1000
GEN-ISO$3
1002
{
1002
}
1000
DIMFIT
1070
     1
1070
     0
1002
{
1002
}
1000
DIMTAD
1070
     1
1070
     1
1002
{
1002
}
1000
DIMTIH
1070
     1
1070
     0
1002
{
1002
}
1000
DIMTIX
1070
     1
1070
     0
1002
{
1002
}
1000
DIMTOH
1070
     1
1070
     1
1002
{
1002
}
1000
DIMTOLJ
1070
     1
1070
     0
1002
{
1002
}
1000
DIMTOFL
1070
     1
1070
     0
1002
{
1002
}
1000
DIMUPT
1070
     1
1070
     1
1002
{
1002
}
1000
M
1070
     0
1002
{
1002
}
1000
I
1070
     0
1002
{
1002
}
1002
}
1000
GEN-ISO-RAD
1070
     5
1002
{
1000
NAME
1070
     4
1000
GEN-ISO$4
1002
{
1002
}
1000
DIMFIT
1070
     1
1070
     0
1002
{
1002
}
1000
DIMTAD
1070
     1
1070
     1
1002
{
1002
}
1000
DIMTIH
1070
     1
1070
     0
1002
{
1002
}
1000
DIMTIX
1070
     1
1070
     0
1002
{
1002
}
1000
DIMTOH
1070
     1
1070
     1
1002
{
1002
}
1000
DIMTOLJ
1070
     1
1070
     0
1002
{
1002
}
1000
DIMTOFL
1070
     1
1070
     0
1002
{
1002
}
1000
DIMUPT
1070
     1
1070
     1
1002
{
1002
}
1000
M
1070
     0
1002
{
1002
}
1000
I
1070
     0
1002
{
1002
}
1002
}
1000
GEN-ISO-ORD
1070
     5
1002
{
1000
NAME
1070
     4
1000
GEN-ISO$6
1002
{
1002
}
1000
DIMTOLJ
1070
     1
1070
     0
1002
{
1002
}
1000
M
1070
     0
1002
{
1002
}
1000
I
1070
     0
1002
{
1002
}
1002
}
1000
GEN-ISO-AXE-F
1070
     5
1002
{
1000
NAME
1070
     4
1000
GEN-ISO-AXE-F
1002
{
1002
}
1000
DIMSE1
1070
     1
1070
     1
1002
{
1002
}
1000
DIMSE2
1070
     1
1070
     1
1002
{
1002
}
1000
DIMTAD
1070
     1
1070
     1
1002
{
1002
}
1000
DIMTOLJ
1070
     1
1070
     0
1002
{
1002
}
1000
DIMTOFL
1070
     1
1070
     1
1002
{
1002
}
1000
M
1070
     0
1002
{
1002
}
1000
I
1070
     0
1002
{
1002
}
1002
}
1000
GEN-ISO-AXE-H
1070
     5
1002
{
1000
DIMBLK1
1070
     4
1000
GENAXEH
1002
{
1002
}
1000
DIMLFAC
1070
     2
1040
2.0
1002
{
1002
}
1000
DIMSAH
1070
     1
1070
     1
1002
{
1002
}
1000
DIMSE1
1070
     1
1070
     1
1002
{
1002
}
1000
DIMSE2
1070
     1
1070
     1
1002
{
1002
}
1000
DIMTAD
1070
     1
1070
     1
1002
{
1002
}
1000
DIMTOLJ
1070
     1
1070
     0
1002
{
1002
}
1000
DIMTOFL
1070
     1
1070
     1
1002
{
1002
}
1000
M
1070
     0
1002
{
1002
}
1000
I
1070
     0
1002
{
1002
}
1002
}
1000
GEN-ANSI
1070
     5
1002
{
1000
NAME
1070
     4
1000
GEN-ANSI
1002
{
1002
}
1000
DIMTIH
1070
     1
1070
     1
1002
{
1002
}
1000
DIMTOH
1070
     1
1070
     1
1002
{
1002
}
1000
DIMTAD
1070
     1
1070
     0
1002
{
1002
}
1000
DIMTOLJ
1070
     1
1070
     1
1002
{
1002
}
1000
M
1070
     0
1002
{
1002
}
1000
I
1070
     0
1002
{
1002
}
1002
}
1000
GEN-ANSI-POS
1070
     5
1002
{
1000
NAME
1070
     4
1000
GEN-ANSI-POS
1002
{
1002
}
1000
DIMTOLJ
1070
     1
1070
     1
1002
{
1002
}
1000
M
1070
     0
1002
{
1000
DIMASZ
1070
     2
1040
2.5
1002
{
1002
}
1000
DIMGAP
1070
     2
1040
1.5
1002
{
1002
}
1000
DIMTXT
1070
     2
1040
5.0
1002
{
1002
}
1002
}
1000
I
1070
     0
1002
{
1000
DIMASZ
1070
     2
1040
0.1
1002
{
1002
}
1000
DIMGAP
1070
     2
1040
0.06
1002
{
1002
}
1000
DIMTXT
1070
     2
1040
0.2
1002
{
1002
}
1002
}
1002
}
1000
GEN-ANSI-CIR
1070
     5
1002
{
1000
NAME
1070
     4
1000
GEN-ANSI$3
1002
{
1002
}
1000
DIMFIT
1070
     1
1070
     0
1002
{
1002
}
1000
DIMTAD
1070
     1
1070
     0
1002
{
1002
}
1000
DIMTIH
1070
     1
1070
     1
1002
{
1002
}
1000
DIMTIX
1070
     1
1070
     0
1002
{
1002
}
1000
DIMTOFL
1070
     1
1070
     0
1002
{
1002
}
1000
DIMTOH
1070
     1
1070
     1
1002
{
1002
}
1000
DIMTOLJ
1070
     1
1070
     1
1002
{
1002
}
1000
DIMUPT
1070
     1
1070
     1
1002
{
1002
}
1000
M
1070
     0
1002
{
1002
}
1000
I
1070
     0
1002
{
1002
}
1002
}
1000
GEN-ANSI-RAD
1070
     5
1002
{
1000
NAME
1070
     4
1000
GEN-ANSI$4
1002
{
1002
}
1000
DIMFIT
1070
     1
1070
     0
1002
{
1002
}
1000
DIMTAD
1070
     1
1070
     0
1002
{
1002
}
1000
DIMTIH
1070
     1
1070
     1
1002
{
1002
}
1000
DIMTIX
1070
     1
1070
     0
1002
{
1002
}
1000
DIMTOFL
1070
     1
1070
     0
1002
{
1002
}
1000
DIMTOH
1070
     1
1070
     1
1002
{
1002
}
1000
DIMTOLJ
1070
     1
1070
     1
1002
{
1002
}
1000
DIMUPT
1070
     1
1070
     1
1002
{
1002
}
1000
M
1070
     0
1002
{
1002
}
1000
I
1070
     0
1002
{
1002
}
1002
}
1000
GEN-ANSI-ORD
1070
     5
1002
{
1000
NAME
1070
     4
1000
GEN-ANSI$6
1002
{
1002
}
1000
DIMTAD
1070
     1
1070
     0
1002
{
1002
}
1000
DIMTIH
1070
     1
1070
     1
1002
{
1002
}
1000
DIMTOH
1070
     1
1070
     1
1002
{
1002
}
1000
DIMTOLJ
1070
     1
1070
     1
1002
{
1002
}
1000
M
1070
     0
1002
{
1002
}
1000
I
1070
     0
1002
{
1002
}
1002
}
1000
GEN-ANSI-AXE-F
1070
     5
1002
{
1000
NAME
1070
     4
1000
GEN-ANSI-AXE-F
1002
{
1002
}
1000
DIMBLK1
1070
     4
1000
GENAXEH
1002
{
1002
}
1000
DIMSAH
1070
     1
1070
     1
1002
{
1002
}
1000
DIMSE1
1070
     1
1070
     1
1002
{
1002
}
1000
DIMSE2
1070
     1
1070
     1
1002
{
1002
}
1000
DIMTAD
1070
     1
1070
     0
1002
{
1002
}
1000
DIMTIH
1070
     1
1070
     1
1002
{
1002
}
1000
DIMTOH
1070
     1
1070
     1
1002
{
1002
}
1000
DIMTOLJ
1070
     1
1070
     1
1002
{
1002
}
1000
M
1070
     0
1002
{
1002
}
1000
I
1070
     0
1002
{
1002
}
1002
}
1000
GEN-ANSI-AXE-H
1070
     5
1002
{
1000
NAME
1070
     4
1000
GEN-ANSI-AXE-H
1002
{
1002
}
1000
DIMBLK1
1070
     4
1000
GENAXEH
1002
{
1002
}
1000
DIMLFAC
1070
     2
1040
2.0
1002
{
1002
}
1000
DIMSAH
1070
     1
1070
     1
1002
{
1002
}
1000
DIMSE1
1070
     1
1070
     1
1002
{
1002
}
1000
DIMSE2
1070
     1
1070
     1
1002
{
1002
}
1000
DIMTAD
1070
     1
1070
     0
1002
{
1002
}
1000
DIMTOFL
1070
     1
1070
     1
1002
{
1002
}
1000
DIMTOLJ
1070
     1
1070
     1
1002
{
1002
}
1000
M
1070
     0
1002
{
1002
}
1000
I
1070
     0
1002
{
1002
}
1002
}
1002
}
1000
DimSet
1070
     0
1002
{
1000
ChainSum
1070
     3
1070
     0
1002
{
1002
}
1000
DimDclTyp0
1070
     4
1000
dim23
1002
{
1002
}
1000
HorBra
1070
     3
1070
     0
1002
{
1002
}
1000
StrDia
1070
     4
1000
%%c<>
1002
{
1002
}
1000
StrRad
1070
     4
1000
R<>
1002
{
1002
}
1000
TextMinus
1070
     4
1000
<>
1002
{
1002
}
1000
TextPlus
1070
     4
1000
<>
1002
{
1002
}
1000
M
1070
     0
1002
{
1000
DimdliFirst
1070
     2
1040
12.0
1002
{
1002
}
1000
PointMakeDist
1070
     2
1040
10.0
1002
{
1002
}
1002
}
1000
I
1070
     0
1002
{
1000
DimdliFirst
1070
     2
1040
0.5
1002
{
1002
}
1000
PointMakeDist
1070
     2
1040
0.5
1002
{
1002
}
1002
}
1000
ordinate
1070
     4
1000
JIS
1002
{
1002
}
1002
}
1000
Drawing
1070
     0
1002
{
1000
ChamferDim
1070
     3
1070
     0
1002
{
1002
}
1000
ChamferDimMode
1070
     1
1070
     2
1002
{
1002
}
1000
ChamferTrim
1070
     3
1070
     1
1002
{
1002
}
1000
Gen_Fiso
1070
    -3
1040
1.0
1002
{
1002
}
1000
GenDimStil
1070
     4
1000
ISO
1002
{
1002
}
1000
GenDwgUScale
1070
     2
1040
1.0
1002
{
1002
}
1000
GenInch
1070
     4
1000
M
1002
{
1002
}
1000
GenPlotScale
1070
     4
1000
1:6
1002
{
1002
}
1000
Revisi
1070
     4
1000
0
1002
{
1002
}
1000
Version
1070
    -5
1000
13.1/Jan 29 1997
1002
{
1002
}
1000
Platform
1070
    -5
1000
WINNT
1002
{
1002
}
1002
}
1000
DwgVar
1070
     0
1002
{
1000
M
1070
     0
1002
{
1002
}
1000
I
1070
     0
1002
{
1002
}
1002
}
1000
Hatch
1070
     0
1002
{
1000
GenHtcFlag
1070
     3
1070
     0
1002
{
1002
}
1002
}
1000
Info_Pos
1070
     0
1002
{
1000
DescrText
1070
     4
1000
5,6,7,8
1002
{
1002
}
1000
Attrib
1070
     0
1002
{
1000
0
1070
     6
1002
{
1000
Prompt
1070
     4
1000
(genmsg gendwg 103)
1002
{
1002
}
1000
Value
1070
     4
1000

1002
{
1002
}
1000
EditFlag
1070
     1
1070
     0
1002
{
1002
}
1002
}
1000
1
1070
     6
1002
{
1000
Prompt
1070
     4
1000
(genmsg gendwg 31)
1002
{
1002
}
1000
Value
1070
     4
1000
1
1002
{
1002
}
1000
EditFlag
1070
     1
1070
     1
1002
{
1002
}
1002
}
1000
2
1070
     6
1002
{
1000
Prompt
1070
     4
1000
(genmsg gendwg 32)
1002
{
1002
}
1000
Value
1070
     4
1000
1
1002
{
1002
}
1000
EditFlag
1070
     1
1070
     1
1002
{
1002
}
1002
}
1000
3
1070
     6
1002
{
1000
Prompt
1070
     4
1000
(genmsg gendwg 33)
1002
{
1002
}
1000
Value
1070
     4
1000

1002
{
1002
}
1000
EditFlag
1070
     1
1070
     1
1002
{
1002
}
1002
}
1000
4
1070
     6
1002
{
1000
Prompt
1070
     4
1000
(genmsg gendwg 34)
1002
{
1002
}
1000
Value
1070
     4
1000

1002
{
1002
}
1000
EditFlag
1070
     1
1070
     1
1002
{
1002
}
1002
}
1000
5
1070
     6
1002
{
1000
Prompt
1070
     4
1000
(genmsg gendwg 35)
1002
{
1002
}
1000
Value
1070
     4
1000

1002
{
1002
}
1000
EditFlag
1070
     1
1070
     1
1002
{
1002
}
1002
}
1000
6
1070
     6
1002
{
1000
Prompt
1070
     4
1000
(genmsg gendwg 36)
1002
{
1002
}
1000
Value
1070
     4
1000

1002
{
1002
}
1000
EditFlag
1070
     1
1070
     1
1002
{
1002
}
1002
}
1000
7
1070
     6
1002
{
1000
Prompt
1070
     4
1000
(genmsg gendwg 37)
1002
{
1002
}
1000
Value
1070
     4
1000

1002
{
1002
}
1000
EditFlag
1070
     1
1070
     1
1002
{
1002
}
1002
}
1000
8
1070
     6
1002
{
1000
Prompt
1070
     4
1000
(genmsg gendwg 38)
1002
{
1002
}
1000
Value
1070
     4
1000

1002
{
1002
}
1000
EditFlag
1070
     1
1070
     1
1002
{
1002
}
1002
}
1000
9
1070
     6
1002
{
1000
Prompt
1070
     4
1000
(genmsg gendwg 39)
1002
{
1002
}
1000
Value
1070
     4
1000

1002
{
1002
}
1000
EditFlag
1070
     1
1070
     1
1002
{
1002
}
1002
}
1000
10
1070
     6
1002
{
1000
Prompt
1070
     4
1000
(genmsg gendwg 40)
1002
{
1002
}
1000
Value
1070
     4
1000

1002
{
1002
}
1000
EditFlag
1070
     1
1070
     1
1002
{
1002
}
1002
}
1000
11
1070
     6
1002
{
1000
Prompt
1070
     4
1000
(genmsg gendwg 41)
1002
{
1002
}
1000
Value
1070
     4
1000

1002
{
1002
}
1000
EditFlag
1070
     1
1070
     1
1002
{
1002
}
1002
}
1000
12
1070
     6
1002
{
1000
Prompt
1070
     4
1000
(genmsg gendwg 42)
1002
{
1002
}
1000
Value
1070
     4
1000

1002
{
1002
}
1000
EditFlag
1070
     1
1070
     1
1002
{
1002
}
1002
}
1000
13
1070
     6
1002
{
1000
Prompt
1070
     4
1000
(genmsg gendwg 43)
1002
{
1002
}
1000
Value
1070
     4
1000

1002
{
1002
}
1000
EditFlag
1070
     1
1070
     1
1002
{
1002
}
1002
}
1000
14
1070
     6
1002
{
1000
Prompt
1070
     4
1000
(genmsg gendwg 44)
1002
{
1002
}
1000
Value
1070
     4
1000

1002
{
1002
}
1000
EditFlag
1070
     1
1070
     1
1002
{
1002
}
1002
}
1000
15
1070
     6
1002
{
1000
Prompt
1070
     4
1000
(genmsg gendwg 45)
1002
{
1002
}
1000
Value
1070
     4
1000

1002
{
1002
}
1000
EditFlag
1070
     1
1070
     1
1002
{
1002
}
1002
}
1000
16
1070
     6
1002
{
1000
Prompt
1070
     4
1000
(genmsg gendwg 46)
1002
{
1002
}
1000
Value
1070
     4
1000

1002
{
1002
}
1000
EditFlag
1070
     1
1070
     1
1002
{
1002
}
1002
}
1000
17
1070
     6
1002
{
1000
Prompt
1070
     4
1000
(genmsg gendwg 47)
1002
{
1002
}
1000
Value
1070
     4
1000

1002
{
1002
}
1000
EditFlag
1070
     1
1070
     1
1002
{
1002
}
1002
}
1000
18
1070
     6
1002
{
1000
Prompt
1070
     4
1000
(genmsg gendwg 48)
1002
{
1002
}
1000
Value
1070
     4
1000

1002
{
1002
}
1000
EditFlag
1070
     1
1070
     1
1002
{
1002
}
1002
}
1000
19
1070
     6
1002
{
1000
Prompt
1070
     4
1000
(genmsg gendwg 99)
1002
{
1002
}
1000
Value
1070
     4
1000

1002
{
1002
}
1000
EditFlag
1070
     1
1070
     1
1002
{
1002
}
1002
}
1000
20
1070
     6
1002
{
1000
Prompt
1070
     4
1000
(genmsg gendwg 100)
1002
{
1002
}
1000
Value
1070
     4
1000

1002
{
1002
}
1000
EditFlag
1070
     1
1070
     1
1002
{
1002
}
1002
}
1000
21
1070
     6
1002
{
1000
Prompt
1070
     4
1000
(genmsg gendwg 101)
1002
{
1002
}
1000
Value
1070
     4
1000

1002
{
1002
}
1000
EditFlag
1070
     1
1070
     1
1002
{
1002
}
1002
}
1000
22
1070
     6
1002
{
1000
Prompt
1070
     4
1000
(genmsg gendwg 102)
1002
{
1002
}
1000
Value
1070
     4
1000

1002
{
1002
}
1000
EditFlag
1070
     1
1070
     1
1002
{
1002
}
1002
}
1000
23
1070
     6
1002
{
1000
Prompt
1070
     4
1000
(genmsg gendwg 30)
1002
{
1002
}
1000
Value
1070
     4
1000

1002
{
1002
}
1000
EditFlag
1070
     1
1070
     1
1002
{
1002
}
1002
}
1000
24
1070
     6
1002
{
1000
Prompt
1070
     4
1000
(genmsg gendwg 104)
1002
{
1002
}
1000
Value
1070
     4
1000

1002
{
1002
}
1000
EditFlag
1070
     1
1070
     1
1002
{
1002
}
1002
}
1002
}
1000
Xlate
1070
     0
1002
{
1000
>
1002
}
1002
}
1000
Layer
1070
     7
1002
{
1000
Defs
1070
     0
1002
{
1000
>
1002
}
1000
EntSort
1070
     0
1002
{
1000
>
1002
}
1000
Match
1070
     0
1002
{
1002
}
1000
Settings
1070
     0
1002
{
1000
FocGrNC
1070
     3
1070
     0
1002
{
1002
}
1000
FocGrLo
1070
     3
1070
     0
1002
{
1002
}
1000
FocLoNC
1070
     3
1070
     0
1002
{
1002
}
1000
FocusCol
1070
     1
1070
   253
1002
{
1002
}
1000
GenStdLG
1070
     4
1000

1002
{
1002
}
1000
LayMatch
1070
     3
1070
     0
1002
{
1002
}
1000
LgOff
1070
     3
1070
     0
1002
{
1002
}
1000
CurLG
1070
    -5
1000

1002
{
1002
}
1002
}
1002
}
1000
LType
1070
     0
1002
{
1000
GEN3
1070
     8
1000
genius.lin
1002
{
1002
}
1000
GEN7
1070
     8
1000
genius.lin
1002
{
1002
}
1000
GEN4A
1070
     8
1000
genius.lin
1002
{
1002
}
1000
GEN3A
1070
     8
1000
genius.lin
1002
{
1002
}
1000
GEN7A
1070
     8
1000
genius.lin
1002
{
1002
}
1000
GENZIGZAG
1070
     8
1000
genius.lin
1002
{
1002
}
1002
}
1000
Objecter
1070
     0
1002
{
1000
CreateGroups
1070
     3
1070
     0
1002
{
1002
}
1000
LaySwitch
1070
     3
1070
     1
1002
{
1002
}
1000
LastObj
1070
    -5
1000
1A80
1002
{
1002
}
1002
}
1000
OSWiz
1070
     0
1002
{
1000
>
1002
}
1000
PaList
1070
     0
1002
{
1000
AutoUpdatePartList
1070
     3
1070
     0
1002
{
1002
}
1000
ReadInfoPoint
1070
     3
1070
     0
1002
{
1002
}
1000
ReadPosNr
1070
     3
1070
     1
1002
{
1002
}
1000
RevStr
1070
     4
1000
0
1002
{
1002
}
1002
}
1000
Paper
1070
     0
1002
{
1002
}
1000
PartDB
1070
     0
1002
{
1000
GenDbOwner
1070
     4
1000

1002
{
1002
}
1000
oang
1070
     2
1040
0.01
1002
{
1002
}
1000
Stang
1070
     2
1040
0.01
1002
{
1002
}
1002
}
1000
System
1070
     0
1002
{
1000
Menu
1070
     4
1000
GEV
1002
{
1002
}
1002
}
1000
Title
1070
     0
1002
{
1000
MakeView
1070
     1
1070
     2
1002
{
1002
}
1002
}
  0
APPID
  5
524
330
9
100
AcDbSymbolTableRecord
100
AcDbRegAppTableRecord
  2
GENIUS_GENOENT_13
 70
     0
  0
APPID
  5
525
330
9
100
AcDbSymbolTableRecord
100
AcDbRegAppTableRecord
  2
GEV_VCCNULL_SWITCH_OFF
 70
     0
  0
APPID
  5
526
330
9
100
AcDbSymbolTableRecord
100
AcDbRegAppTableRecord
  2
GENIUS_GENDTOL_13
 70
     0
  0
APPID
  5
527
330
9
100
AcDbSymbolTableRecord
100
AcDbRegAppTableRecord
  2
GENIUS_GENREC_13
 70
     0
  0
APPID
  5
528
330
9
100
AcDbSymbolTableRecord
100
AcDbRegAppTableRecord
  2
GENIUS_GENODEF_13
 70
     0
  0
APPID
  5
529
330
9
100
AcDbSymbolTableRecord
100
AcDbRegAppTableRecord
  2
GENIUS_GENOBJ-N-REC_13
 70
     0
  0
APPID
  5
52A
330
9
100
AcDbSymbolTableRecord
100
AcDbRegAppTableRecord
  2
GENIUS_GENOBJ_13
 70
     0
  0
APPID
  5
52B
330
9
100
AcDbSymbolTableRecord
100
AcDbRegAppTableRecord
  2
GENIUS_GENOLIS_13
 70
     0
  0
APPID
  5
52C
330
9
100
AcDbSymbolTableRecord
100
AcDbRegAppTableRecord
  2
GENIUS_GENOREF_13
 70
     0
  0
APPID
  5
52D
330
9
100
AcDbSymbolTableRecord
100
AcDbRegAppTableRecord
  2
GENIUS_GENOBJ-N-TIT_13
 70
     0
  0
APPID
  5
52E
330
9
100
AcDbSymbolTableRecord
100
AcDbRegAppTableRecord
  2
GENIUS_GENTITLE_13
 70
     0
  0
APPID
  5
52F
330
9
100
AcDbSymbolTableRecord
100
AcDbRegAppTableRecord
  2
GENIUS_GENZVEED_13
 70
     0
  0
APPID
  5
530
330
9
100
AcDbSymbolTableRecord
100
AcDbRegAppTableRecord
  2
GENIUS_GENOBJ-N-SDF_13
 70
     0
  0
APPID
  5
531
330
9
100
AcDbSymbolTableRecord
100
AcDbRegAppTableRecord
  2
GENIUS_GENSCREG_13
 70
     0
  0
APPID
  5
532
330
9
100
AcDbSymbolTableRecord
100
AcDbRegAppTableRecord
  2
GENIUS_GENOBJ-N-CRS_13
 70
     0
  0
APPID
  5
533
330
9
100
AcDbSymbolTableRecord
100
AcDbRegAppTableRecord
  2
GENIUS_GENOBJ-N-CEN_13
 70
     0
  0
APPID
  5
534
330
9
100
AcDbSymbolTableRecord
100
AcDbRegAppTableRecord
  2
GENIUS_GEFCFG0_13
 70
     0
1001
GENIUS_GENCFG_13
1071
889002489
1000
47B
1000
GEF
1070
     5
1000
GenCfgObject
1000
GenCfgString
1000
GenCfgReal
1000
GenCfgShort
1000
GenCfgBool
1000
System
1070
     0
1002
{
1002
}
1000
Prese
1070
     0
1002
{
1000
Funk
1070
     1
1000

1002
{
1002
}
1000
FunkDef
1070
     1
1000

1002
{
1002
}
1000
GefIso
1070
     1
1000
DIN
1002
{
1002
}
1002
}
1000
FEM
1070
     0
1002
{
1000
LayGroup
1070
     1
1000
FEM
1002
{
1002
}
1000
IncrCoef
1070
     2
1040
0.0
1002
{
1002
}
1002
}
1000
Shaft
1070
     0
1002
{
1000
Interrupt
1070
     3
1070
     0
1002
{
1002
}
1002
}
1000
PartDb
1070
     0
1002
{
1000
PartCreate
1070
     0
1002
{
1002
}
1002
}
1000
Symbol
1070
     0
1002
{
1000
WeldStyle
1070
     1
1000
JIS
1002
{
1002
}
1000
WeldSize
1070
     2
1040
1.0
1002
{
1002
}
1000
WeldFlag
1070
     4
1070
     1
1002
{
1002
}
1000
WeldOffset
1070
     4
1070
     1
1002
{
1002
}
1000
TolCType
1070
     1
1000
ISO
1002
{
1002
}
1000
TolCSize
1070
     2
1040
1.0
1002
{
1002
}
1000
STextureSize
1070
     2
1040
1.0
1002
{
1002
}
1000
SurfaceType
1070
     1
1000

1002
{
1002
}
1000
M
1070
     0
1002
{
1000
WeldWidth
1070
     2
1040
3.0
1002
{
1002
}
1002
}
1000
I
1070
     0
1002
{
1000
WeldWidth
1070
     2
1040
0.125
1002
{
1002
}
1002
}
1002
}
  0
APPID
  5
155D
330
9
100
AcDbSymbolTableRecord
100
AcDbRegAppTableRecord
  2
GENIUS_GENDREL_13
 70
     0
  0
APPID
  5
1D5E
330
9
100
AcDbSymbolTableRecord
100
AcDbRegAppTableRecord
  2
MCAD_NO_VIS
 70
     0
  0
APPID
  5
1D5F
330
9
100
AcDbSymbolTableRecord
100
AcDbRegAppTableRecord
  2
ACAD_TEMP_GRAPHIC
 70
     0
  0
APPID
  5
1D72
330
9
100
AcDbSymbolTableRecord
100
AcDbRegAppTableRecord
  2
ACATTRIBSERVICES
 70
     0
  0
APPID
  5
1D7B
330
9
100
AcDbSymbolTableRecord
100
AcDbRegAppTableRecord
  2
GENIUS_GENBLLY_14
 70
     0
  0
APPID
  5
1D7C
330
9
100
AcDbSymbolTableRecord
100
AcDbRegAppTableRecord
  2
GENIUS_GENTRA_14
 70
     0
  0
APPID
  5
1D7D
330
9
100
AcDbSymbolTableRecord
100
AcDbRegAppTableRecord
  2
GENIUS_GENSCREG_15
 70
     0
  0
APPID
  5
1D7E
330
9
100
AcDbSymbolTableRecord
100
AcDbRegAppTableRecord
  2
GEVID984623613
 70
     0
  0
APPID
  5
1D7F
330
9
100
AcDbSymbolTableRecord
100
AcDbRegAppTableRecord
  2
GEVDC
 70
     0
  0
APPID
  5
1D80
330
9
100
AcDbSymbolTableRecord
100
AcDbRegAppTableRecord
  2
GEVCON
 70
     0
  0
APPID
  5
1D81
330
9
100
AcDbSymbolTableRecord
100
AcDbRegAppTableRecord
  2
GENIUS_GENBH_13
 70
     0
  0
APPID
  5
1D82
330
9
100
AcDbSymbolTableRecord
100
AcDbRegAppTableRecord
  2
GENIUS_GENOBJ-NBEHI-BHF_13
 70
     0
  0
APPID
  5
1D83
330
9
100
AcDbSymbolTableRecord
100
AcDbRegAppTableRecord
  2
GENIUS_GENOBJ-NBEHI-BHB_13
 70
     0
  0
APPID
  5
1D84
330
9
100
AcDbSymbolTableRecord
100
AcDbRegAppTableRecord
  2
GENIUS_GENOBJ-F-SCPASSM_13
 70
     0
  0
APPID
  5
1D85
330
9
100
AcDbSymbolTableRecord
100
AcDbRegAppTableRecord
  2
GEVID984623614
 70
     0
  0
APPID
  5
1D86
330
9
100
AcDbSymbolTableRecord
100
AcDbRegAppTableRecord
  2
GEVID984623615
 70
     0
  0
APPID
  5
1D87
330
9
100
AcDbSymbolTableRecord
100
AcDbRegAppTableRecord
  2
GENIUS_GENOBJ-N-REV_13
 70
     0
  0
APPID
  5
1D88
330
9
100
AcDbSymbolTableRecord
100
AcDbRegAppTableRecord
  2
GENIUS_GENOBJ-N-RSSYM_13
 70
     0
  0
APPID
  5
1D89
330
9
100
AcDbSymbolTableRecord
100
AcDbRegAppTableRecord
  2
GENIUS_GENSYMENT_13
 70
     0
  0
APPID
  5
1D8A
330
9
100
AcDbSymbolTableRecord
100
AcDbRegAppTableRecord
  2
GENIUS_GENSCSYM_13
 70
     0
  0
APPID
  5
1E1C
330
9
100
AcDbSymbolTableRecord
100
AcDbRegAppTableRecord
  2
AD_DRAW
 70
     0
  0
APPID
  5
1E3A
330
9
100
AcDbSymbolTableRecord
100
AcDbRegAppTableRecord
  2
DESIGNERASSEMBLIES
 70
     0
  0
APPID
  5
1E4A
330
9
100
AcDbSymbolTableRecord
100
AcDbRegAppTableRecord
  2
ACADM_DIM_EDIT
 70
     0
  0
APPID
  5
1E4B
330
9
100
AcDbSymbolTableRecord
100
AcDbRegAppTableRecord
  2
AMDT_DM_ADJ
 70
     0
  0
APPID
  5
1FCD
330
9
100
AcDbSymbolTableRecord
100
AcDbRegAppTableRecord
  2
GENIUS_AMGTXT_16
 70
     0
  0
APPID
  5
2006
330
9
100
AcDbSymbolTableRecord
100
AcDbRegAppTableRecord
  2
GENIUS_GENOBJ-N-FIL_13
 70
     0
  0
APPID
  5
2192
330
9
100
AcDbSymbolTableRecord
100
AcDbRegAppTableRecord
  2
DCO15
 70
     0
  0
ENDTAB
  0
TABLE
  2
DIMSTYLE
  5
A
330
0
100
AcDbSymbolTable
 70
    16
100
AcDbDimStyleTable
 71
     0
  0
DIMSTYLE
105
2D4
330
A
100
AcDbSymbolTableRecord
100
AcDbDimStyleTableRecord
  2
STANDARD
 70
     0
340
10
  0
DIMSTYLE
105
51C
102
{ACAD_REACTORS
330
1A6D
330
1A6E
330
1A6F
330
1C0F
330
1C31
330
1C53
330
1C6F
330
1CC6
330
1D24
102
}
330
A
100
AcDbSymbolTableRecord
100
AcDbDimStyleTableRecord
  2
GEN-ISO
 70
     0
 40
6.0
 41
2.5
 42
1.0
 43
10.0
 44
1.0
 47
0.1
 48
0.1
 73
     0
 74
     0
 77
     1
 78
     8
140
3.5
141
0.0
143
0.0393701
146
0.71
147
1.5
172
     1
176
   256
177
   256
178
   250
271
     2
272
     3
274
     4
283
     0
340
10
  0
DIMSTYLE
105
1DCC
330
A
100
AcDbSymbolTableRecord
100
AcDbDimStyleTableRecord
  2
AM_ISO
 70
     0
  4
"
 41
2.5
 42
1.0
 43
10.0
 44
1.0
 47
0.1
 48
0.1
 73
     0
 74
     0
 77
     1
 78
     8
 79
     2
140
3.5
141
0.0
143
0.0393701
146
0.71
147
1.5
172
     1
176
   256
177
   256
178
     2
271
     2
272
     3
274
     4
283
     0
284
     8
340
10
371
    -1
372
    -1
  0
DIMSTYLE
105
1DCD
330
A
100
AcDbSymbolTableRecord
100
AcDbDimStyleTableRecord
  2
AM_ISO$3
 70
     0
  4
"
 41
2.5
 42
1.0
 43
10.0
 44
1.0
 47
0.1
 48
0.1
 73
     0
 77
     1
 78
     8
 79
     2
140
3.5
141
0.0
143
0.0393701
146
0.71
147
1.5
176
   256
177
   256
178
     2
271
     2
272
     3
274
     4
283
     0
284
     8
288
     1
289
     0
340
10
371
    -1
372
    -1
  0
DIMSTYLE
105
1DCE
330
A
100
AcDbSymbolTableRecord
100
AcDbDimStyleTableRecord
  2
AM_ISO$4
 70
     0
  4
"
 41
2.5
 42
1.0
 43
10.0
 44
1.0
 47
0.1
 48
0.1
 73
     0
 77
     1
 78
     8
 79
     2
140
3.5
141
0.0
143
0.0393701
146
0.71
147
1.5
176
   256
177
   256
178
     2
271
     2
272
     3
274
     4
283
     0
284
     8
288
     1
289
     0
340
10
371
    -1
372
    -1
  0
DIMSTYLE
105
1DCF
330
A
100
AcDbSymbolTableRecord
100
AcDbDimStyleTableRecord
  2
AM_ISO$6
 70
     0
  4
"
 41
2.5
 42
1.0
 43
10.0
 44
1.0
 47
0.1
 48
0.1
 73
     0
 74
     0
 78
     8
 79
     2
140
3.5
141
0.0
143
0.0393701
146
0.71
147
1.5
172
     1
176
   256
177
   256
178
     2
271
     2
272
     3
274
     4
283
     0
284
     8
340
10
371
    -1
372
    -1
  0
DIMSTYLE
105
1DD0
330
A
100
AcDbSymbolTableRecord
100
AcDbDimStyleTableRecord
  2
AM_ISO$7
 70
     0
  4
"
 41
2.5
 42
1.0
 43
10.0
 44
1.0
 47
0.1
 48
0.1
 73
     0
 74
     0
 77
     1
 78
     8
 79
     2
140
5.0
141
0.0
143
0.0393701
146
0.71
147
1.5
172
     1
176
   256
177
   256
178
     2
271
     2
272
     3
274
     4
283
     0
284
     8
340
10
371
    -1
372
    -1
  0
DIMSTYLE
105
1DD1
330
A
100
AcDbSymbolTableRecord
100
AcDbDimStyleTableRecord
  2
AM_ISO$SF
 70
     0
  4
"
 41
2.5
 42
1.0
 43
10.0
 44
1.0
 47
0.1
 48
0.1
 73
     0
 74
     0
 75
     1
 76
     1
 77
     1
 78
     8
 79
     2
140
3.5
141
0.0
143
0.0393701
146
0.71
147
1.5
172
     1
176
   256
177
   256
178
     2
271
     2
272
     3
274
     4
283
     0
284
     8
340
10
371
    -1
372
    -1
  0
DIMSTYLE
105
1DD2
330
A
100
AcDbSymbolTableRecord
100
AcDbDimStyleTableRecord
  2
AM_ISO$SH
 70
     0
  4
"
 41
2.5
 42
1.0
 43
10.0
 44
1.0
 47
0.1
 48
0.1
 73
     0
 74
     0
 75
     1
 76
     1
 77
     1
 78
     8
 79
     2
140
3.5
141
0.0
143
0.0393701
144
2.0
146
0.71
147
1.5
172
     1
173
     1
176
   256
177
   256
178
     2
271
     2
272
     3
274
     4
283
     0
284
     8
340
10
343
1DB5
371
    -1
372
    -1
  0
DIMSTYLE
105
1F30
330
A
100
AcDbSymbolTableRecord
100
AcDbDimStyleTableRecord
  2
IGS
 70
     0
  4
"
 41
2.5
 42
1.0
 43
10.0
 44
1.0
 47
0.1
 48
0.1
 73
     0
 74
     0
 77
     3
 78
     8
 79
     2
140
4.5
141
0.0
143
0.0393701
146
0.71
147
1.5
172
     1
176
   256
177
   256
178
     2
271
     2
272
     2
283
     0
284
     8
340
10
341
1E9E
342
1E9E
371
    -1
372
    -1
  0
DIMSTYLE
105
1F31
330
A
100
AcDbSymbolTableRecord
100
AcDbDimStyleTableRecord
  2
IGS$3
 70
     0
  4
"
 41
2.5
 42
1.0
 43
10.0
 44
1.0
 47
0.1
 48
0.1
 73
     0
 77
     3
 78
     8
 79
     2
140
4.5
141
0.0
143
0.0393701
146
0.71
147
1.5
176
   256
177
   256
178
     2
271
     2
272
     2
283
     0
284
     8
288
     1
289
     0
340
10
341
1E9E
342
1E9E
371
    -1
372
    -1
  0
DIMSTYLE
105
1F32
330
A
100
AcDbSymbolTableRecord
100
AcDbDimStyleTableRecord
  2
IGS$4
 70
     0
  4
"
 41
2.5
 42
1.0
 43
10.0
 44
1.0
 47
0.1
 48
0.1
 73
     0
 77
     3
 78
     8
 79
     2
140
4.5
141
0.0
143
0.0393701
146
0.71
147
1.5
176
   256
177
   256
178
     2
271
     2
272
     2
283
     0
284
     8
288
     1
289
     0
340
10
341
1E9E
342
1E9E
371
    -1
372
    -1
  0
DIMSTYLE
105
1F33
330
A
100
AcDbSymbolTableRecord
100
AcDbDimStyleTableRecord
  2
IGS$6
 70
     0
  4
"
 41
2.5
 42
1.0
 43
10.0
 44
1.0
 47
0.1
 48
0.1
 73
     0
 74
     0
 78
     8
 79
     2
140
4.5
141
0.0
143
0.0393701
146
0.71
147
1.5
172
     1
176
   256
177
   256
178
     2
271
     2
272
     2
283
     0
284
     8
340
10
341
1E9E
342
1E9E
371
    -1
372
    -1
  0
DIMSTYLE
105
1F34
330
A
100
AcDbSymbolTableRecord
100
AcDbDimStyleTableRecord
  2
IGS$7
 70
     0
  4
"
 41
2.5
 42
1.0
 43
10.0
 44
1.0
 47
0.1
 48
0.1
 73
     0
 74
     0
 77
     3
 78
     8
 79
     2
140
5.0
141
0.0
143
0.0393701
146
0.71
147
1.5
172
     1
176
   256
177
   256
178
     2
271
     2
272
     2
283
     0
284
     8
340
10
341
1E9E
342
1E9E
371
    -1
372
    -1
  0
DIMSTYLE
105
1F35
330
A
100
AcDbSymbolTableRecord
100
AcDbDimStyleTableRecord
  2
IGS$SF
 70
     0
  4
"
 41
2.5
 42
1.0
 43
10.0
 44
1.0
 47
0.1
 48
0.1
 73
     0
 74
     0
 75
     1
 76
     1
 77
     3
 78
     8
 79
     2
140
3.5
141
0.0
143
0.0393701
146
0.71
147
1.5
172
     1
176
   256
177
   256
178
     2
271
     2
272
     3
274
     4
283
     0
284
     8
340
10
341
1E9E
342
1E9E
343
1E9E
344
1E9E
371
    -1
372
    -1
  0
DIMSTYLE
105
1F36
330
A
100
AcDbSymbolTableRecord
100
AcDbDimStyleTableRecord
  2
IGS$SH
 70
     0
  4
"
 41
2.5
 42
1.0
 43
10.0
 44
1.0
 47
0.1
 48
0.1
 73
     0
 74
     0
 75
     1
 76
     1
 77
     3
 78
     8
 79
     2
140
3.5
141
0.0
143
0.0393701
144
2.0
146
0.71
147
1.5
172
     1
173
     1
176
   256
177
   256
178
     2
271
     2
272
     3
274
     4
283
     0
284
     8
340
10
341
1E9E
342
1E9E
343
1DB5
344
1E9E
371
    -1
372
    -1
  0
ENDTAB
  0
TABLE
  2
BLOCK_RECORD
  5
1
330
0
100
AcDbSymbolTable
 70
    20
  0
BLOCK_RECORD
  5
19
102
{ACAD_XDICTIONARY
360
1DDB
102
}
330
1
100
AcDbSymbolTableRecord
100
AcDbBlockTableRecord
  2
*MODEL_SPACE
340
1D53
  0
BLOCK_RECORD
  5
16
330
1
100
AcDbSymbolTableRecord
100
AcDbBlockTableRecord
  2
*PAPER_SPACE
340
1D54
  0
BLOCK_RECORD
  5
2E
330
1
100
AcDbSymbolTableRecord
100
AcDbBlockTableRecord
  2
BALN0
340
0
102
{BLKREFS
331
1B5
102
}
  0
BLOCK_RECORD
  5
35
330
1
100
AcDbSymbolTableRecord
100
AcDbBlockTableRecord
  2
BALN1
340
0
102
{BLKREFS
331
1B6
102
}
  0
BLOCK_RECORD
  5
8B
330
1
100
AcDbSymbolTableRecord
100
AcDbBlockTableRecord
  2
MAKR0
340
0
102
{BLKREFS
331
18F8
102
}
  0
BLOCK_RECORD
  5
90
330
1
100
AcDbSymbolTableRecord
100
AcDbBlockTableRecord
  2
MAKR1
340
0
102
{BLKREFS
331
18F9
102
}
  0
BLOCK_RECORD
  5
95
330
1
100
AcDbSymbolTableRecord
100
AcDbBlockTableRecord
  2
MAKR2
340
0
102
{BLKREFS
331
18FA
102
}
  0
BLOCK_RECORD
  5
A5
330
1
100
AcDbSymbolTableRecord
100
AcDbBlockTableRecord
  2
BALN2
340
0
102
{BLKREFS
331
2A6
102
}
  0
BLOCK_RECORD
  5
43D
330
1
100
AcDbSymbolTableRecord
100
AcDbBlockTableRecord
  2
IGS-TITLE-NO2
340
0
  0
BLOCK_RECORD
  5
1A81
330
1
100
AcDbSymbolTableRecord
100
AcDbBlockTableRecord
  2
*D7
340
0
  0
BLOCK_RECORD
  5
1A8D
330
1
100
AcDbSymbolTableRecord
100
AcDbBlockTableRecord
  2
*D8
340
0
  0
BLOCK_RECORD
  5
1A9B
330
1
100
AcDbSymbolTableRecord
100
AcDbBlockTableRecord
  2
*D9
340
0
  0
BLOCK_RECORD
  5
1C01
330
1
100
AcDbSymbolTableRecord
100
AcDbBlockTableRecord
  2
*D10
340
0
  0
BLOCK_RECORD
  5
1C23
330
1
100
AcDbSymbolTableRecord
100
AcDbBlockTableRecord
  2
*D11
340
0
  0
BLOCK_RECORD
  5
1C45
330
1
100
AcDbSymbolTableRecord
100
AcDbBlockTableRecord
  2
*D12
340
0
  0
BLOCK_RECORD
  5
1C63
330
1
100
AcDbSymbolTableRecord
100
AcDbBlockTableRecord
  2
*D13
340
0
  0
BLOCK_RECORD
  5
1CB8
330
1
100
AcDbSymbolTableRecord
100
AcDbBlockTableRecord
  2
*D14
340
0
  0
BLOCK_RECORD
  5
1D18
330
1
100
AcDbSymbolTableRecord
100
AcDbBlockTableRecord
  2
*D15
340
0
  0
BLOCK_RECORD
  5
1DB5
330
1
100
AcDbSymbolTableRecord
100
AcDbBlockTableRecord
  2
GENAXEH
340
0
  0
BLOCK_RECORD
  5
1E9E
102
{ACAD_XDICTIONARY
360
1FD1
102
}
330
1
100
AcDbSymbolTableRecord
100
AcDbBlockTableRecord
  2
_Open30
340
0
310
2800000020000000200000000100080000000000000400000000000000000000000000000000000000000000000080000080000000808000800000008000800080800000C0C0C000C0DCC000F0CAA6000020400000206000002080000020A0000020C0000020E00000400000004020000040400000406000004080000040A0
310
000040C0000040E00000600000006020000060400000606000006080000060A0000060C0000060E00000800000008020000080400000806000008080000080A0000080C0000080E00000A0000000A0200000A0400000A0600000A0800000A0A00000A0C00000A0E00000C0000000C0200000C0400000C0600000C0800000C0
310
A00000C0C00000C0E00000E0000000E0200000E0400000E0600000E0800000E0A00000E0C00000E0E00040000000400020004000400040006000400080004000A0004000C0004000E00040200000402020004020400040206000402080004020A0004020C0004020E000404000004040200040404000404060004040800040
310
40A0004040C0004040E00040600000406020004060400040606000406080004060A0004060C0004060E00040800000408020004080400040806000408080004080A0004080C0004080E00040A0000040A0200040A0400040A0600040A0800040A0A00040A0C00040A0E00040C0000040C0200040C0400040C0600040C08000
310
40C0A00040C0C00040C0E00040E0000040E0200040E0400040E0600040E0800040E0A00040E0C00040E0E00080000000800020008000400080006000800080008000A0008000C0008000E00080200000802020008020400080206000802080008020A0008020C0008020E00080400000804020008040400080406000804080
310
008040A0008040C0008040E00080600000806020008060400080606000806080008060A0008060C0008060E00080800000808020008080400080806000808080008080A0008080C0008080E00080A0000080A0200080A0400080A0600080A0800080A0A00080A0C00080A0E00080C0000080C0200080C0400080C0600080C0
310
800080C0A00080C0C00080C0E00080E0000080E0200080E0400080E0600080E0800080E0A00080E0C00080E0E000C0000000C0002000C0004000C0006000C0008000C000A000C000C000C000E000C0200000C0202000C0204000C0206000C0208000C020A000C020C000C020E000C0400000C0402000C0404000C0406000C0
310
408000C040A000C040C000C040E000C0600000C0602000C0604000C0606000C0608000C060A000C060C000C060E000C0800000C0802000C0804000C0806000C0808000C080A000C080C000C080E000C0A00000C0A02000C0A04000C0A06000C0A08000C0A0A000C0A0C000C0A0E000C0C00000C0C02000C0C04000C0C06000
310
C0C08000C0C0A000F0FBFF00A4A0A000808080000000FF0000FF000000FFFF00FF000000FF00FF00FFFF0000FFFFFF0000000000000000000000000000000000000000000000000000000000000000000000000000000000000000000000000000000000000000000000000000000000000000000000000000000000000000
310
00000000000000000000000000000000000000000000000000000000000000000000000000000000000000000000000000000000000000000000000000000000000000000000000000000000000000000000000000000000000000000000000000000000000000000000000000000000000000000000000000000000000000
310
000000000000000000000000000000000000000000000000000000000000000000000000000000000000000000000000000000FFFF0000000000000000000000000000000000000000000000000000000000000000FFFFFFFF0000000000000000000000000000000000000000000000000000000000000000FFFFFFFF0000
310
000000000000000000000000000000000000000000000000000000000000FFFFFF0000000000000000000000000000000000000000000000000000000000000000FFFFFFFF0000000000000000000000000000000000000000000000000000000000000000FFFFFF0000000000000000000000000000000000000000000000
310
000000000000000000FFFFFFFF0000000000000000000000000000000000000000000000000000000000000000FFFFFFFF00000000FFFFFFFFFFFFFFFFFFFFFFFFFFFFFFFFFFFFFFFFFFFFFFFFFFFFFFFFFFFF00000000000000000000000000000000000000000000000000FFFFFFFF000000000000000000000000000000
310
000000000000000000FFFFFFFF000000000000000000000000000000000000000000000000FFFFFFFF000000000000000000000000000000000000000000000000FFFFFFFF000000000000000000000000000000000000000000000000FFFFFFFF000000000000000000000000000000000000000000000000FFFFFFFF0000
310
0000000000000000000000000000000000000000000000FFFFFF0000000000000000000000000000000000000000000000000000000000000000000000000000000000000000000000000000000000000000000000000000000000000000000000000000000000000000000000000000000000000000000000000000000000
310
00000000000000000000000000000000000000000000000000000000000000000000000000000000000000000000000000000000000000000000000000000000000000000000000000000000000000000000000000000000000000000000000000000000000000000000000000000000000000000000000000000000000000
310
0000000000000000000000000000000000000000000000000000000000000000000000000000000000000000000000000000000000000000
  0
BLOCK_RECORD
  5
1EA4
330
1
100
AcDbSymbolTableRecord
100
AcDbBlockTableRecord
  2
IGS2
340
0
310
2800000020000000200000000100080000000000000400000000000000000000000000000000000000000000000080000080000000808000800000008000800080800000C0C0C000C0DCC000F0CAA6000020400000206000002080000020A0000020C0000020E00000400000004020000040400000406000004080000040A0
310
000040C0000040E00000600000006020000060400000606000006080000060A0000060C0000060E00000800000008020000080400000806000008080000080A0000080C0000080E00000A0000000A0200000A0400000A0600000A0800000A0A00000A0C00000A0E00000C0000000C0200000C0400000C0600000C0800000C0
310
A00000C0C00000C0E00000E0000000E0200000E0400000E0600000E0800000E0A00000E0C00000E0E00040000000400020004000400040006000400080004000A0004000C0004000E00040200000402020004020400040206000402080004020A0004020C0004020E000404000004040200040404000404060004040800040
310
40A0004040C0004040E00040600000406020004060400040606000406080004060A0004060C0004060E00040800000408020004080400040806000408080004080A0004080C0004080E00040A0000040A0200040A0400040A0600040A0800040A0A00040A0C00040A0E00040C0000040C0200040C0400040C0600040C08000
310
40C0A00040C0C00040C0E00040E0000040E0200040E0400040E0600040E0800040E0A00040E0C00040E0E00080000000800020008000400080006000800080008000A0008000C0008000E00080200000802020008020400080206000802080008020A0008020C0008020E00080400000804020008040400080406000804080
310
008040A0008040C0008040E00080600000806020008060400080606000806080008060A0008060C0008060E00080800000808020008080400080806000808080008080A0008080C0008080E00080A0000080A0200080A0400080A0600080A0800080A0A00080A0C00080A0E00080C0000080C0200080C0400080C0600080C0
310
800080C0A00080C0C00080C0E00080E0000080E0200080E0400080E0600080E0800080E0A00080E0C00080E0E000C0000000C0002000C0004000C0006000C0008000C000A000C000C000C000E000C0200000C0202000C0204000C0206000C0208000C020A000C020C000C020E000C0400000C0402000C0404000C0406000C0
310
408000C040A000C040C000C040E000C0600000C0602000C0604000C0606000C0608000C060A000C060C000C060E000C0800000C0802000C0804000C0806000C0808000C080A000C080C000C080E000C0A00000C0A02000C0A04000C0A06000C0A08000C0A0A000C0A0C000C0A0E000C0C00000C0C02000C0C04000C0C06000
310
C0C08000C0C0A000F0FBFF00A4A0A000808080000000FF0000FF000000FFFF00FF000000FF00FF00FFFF0000FFFFFF0000000000000000000000000000000000000000000000000000000000000000000000000000000000000000000000000000000000000000000000000000000000000000000000000000000000000000
310
00000000000000000000000000000000000000000000000000000000000000000000000000000000000000000000000000000000000000000000000000000000000000000000000000000000000000000000F9FBFBF9F9F9FBFBF9F9F9F90000000000000000000000000000000000000000F9F9FBFBFBFBFBFBFBF9F9F900
310
00000000000000000000000000000000000000F9FBFBFBFBFBFBFBFBF9F9F90000000000000000000000000000000000000000F9F9F9F9F9F9F9F9F9F9F9F900000000000000000000000000000000000000000000000000000000000000000000000000000000000000000000000000000000000000000000000000000000
310
00000000000000000000000000000000000000000000000000000000000000000000000000000000000000000000000000000000000000000000000000000000000000000000000000000000000000000000000000000000000000000000000000000000000000000000000000000000000000000000000000000000000000
310
00000000000000000000000000000000000000000000000000000000000000000000000000000000000000000000000000000000000000000000000000000000000000000000000000000000000000000000000000000000000000000000000000000000000000000000000000000000000000000000000000000000000000
310
00000000000000000000000000000000000000000000000000000000000000000000000000000000000000000000000000000000000000000000000000000000000000000000000000000000000000000000000000000000000000000000000000000000000000000000000000000000000000000000000000000000000000
310
00000000000000000000000000000000000000000000000000000000000000000000000000000000000000000000000000000000000000000000000000000000000000000000000000000000000000000000000000000000000000000000000000000000000000000000000000000000000000000000000000000000000000
310
00000000000000000000000000000000000000000000000000000000000000000000000000000000000000000000000000000000000000000000000000000000000000000000000000000000000000000000000000000000000000000000000000000000000000000000000000000000000000000000000000000000000000
310
0000000000000000000000000000000000000000000000000000000000000000000000000000000000000000000000000000000000000000
102
{BLKREFS
331
1F46
102
}
  0
ENDTAB
  0
ENDSEC
  0
SECTION
  2
BLOCKS
  0
BLOCK
  5
1A
330
19
100
AcDbEntity
  8
0
100
AcDbBlockBegin
  2
*MODEL_SPACE
 70
     0
 10
0.0
 20
0.0
 30
0.0
  3
*MODEL_SPACE
  1

  0
ENDBLK
  5
1B
330
19
100
AcDbEntity
  8
0
100
AcDbBlockEnd
  0
BLOCK
  5
17
330
16
100
AcDbEntity
 67
     1
  8
0
100
AcDbBlockBegin
  2
*PAPER_SPACE
 70
     0
 10
0.0
 20
0.0
 30
0.0
  3
*PAPER_SPACE
  1

  0
ENDBLK
  5
18
330
16
100
AcDbEntity
 67
     1
  8
0
100
AcDbBlockEnd
  0
BLOCK
  5
2F
330
2E
100
AcDbEntity
  8
0
100
AcDbBlockBegin
  2
BALN0
 70
     0
 10
-85.2834660014
 20
-270.8957457097
 30
0.0
  3
BALN0
  1

  0
SOLID
  5
30
330
2E
100
AcDbEntity
  8
1
  6
Continuous
 62
     7
100
AcDbTrace
 10
-90.5162149719
 20
-281.6947428026
 30
0.0
 11
-95.21465808790001
 21
-277.6315770422
 31
0.0
 12
-85.2834660014
 22
-270.8957457097
 32
0.0
 13
-85.2834660014
 23
-270.8957457097
 33
0.0
  0
LINE
  5
31
330
2E
100
AcDbEntity
  8
1
  6
ByBlock
 62
     7
100
AcDbLine
 10
-85.2834660014
 20
-270.8957457097
 30
0.0
 11
-173.1431957726
 21
-372.4923742668
 31
0.0
  0
CIRCLE
  5
32
330
2E
100
AcDbEntity
  8
1
  6
ByBlock
 62
     7
100
AcDbCircle
 10
-192.7667794945
 20
-395.1841120123
 30
0.0
 40
30.0
  0
TEXT
  5
33
330
2E
100
AcDbEntity
  8
1
  6
Continuous
 62
     7
100
AcDbText
 10
-207.766779
 20
-413.184112
 30
0.0
 40
36.0
  1
３
 41
1.136363636363636
 72
     5
 11
-177.766779
 21
-413.184112
 31
0.0
100
AcDbText
  0
ENDBLK
  5
34
330
2E
100
AcDbEntity
  8
0
100
AcDbBlockEnd
  0
BLOCK
  5
36
330
35
100
AcDbEntity
  8
0
100
AcDbBlockBegin
  2
BALN1
 70
     0
 10
-99.21370967740001
 20
325.5927697839
 30
0.0
  3
BALN1
  1

  0
SOLID
  5
37
330
35
100
AcDbEntity
  8
1
  6
Continuous
 62
     7
100
AcDbTrace
 10
-110.5522459336
 20
329.5218403567
 30
0.0
 11
-107.0686348306
 21
334.6647128413
 31
0.0
 12
-99.21370967740001
 22
325.5927697839
 32
0.0
 13
-99.21370967740001
 23
325.5927697839
 33
0.0
  0
LINE
  5
38
330
35
100
AcDbEntity
  8
1
  6
ByBlock
 62
     7
100
AcDbLine
 10
-99.21370967740001
 20
325.5927697839
 30
0.0
 11
-167.9286127235
 21
372.1379641108
 31
0.0
  0
CIRCLE
  5
39
330
35
100
AcDbEntity
  8
1
  6
ByBlock
 62
     7
100
AcDbCircle
 10
-192.7667794945
 20
388.9625137766
 30
0.0
 40
30.0
  0
TEXT
  5
3A
330
35
100
AcDbEntity
  8
1
  6
Continuous
 62
     7
100
AcDbText
 10
-207.766779
 20
370.962514
 30
0.0
 40
36.0
  1
１
 41
1.388888888888888
 72
     5
 11
-177.766779
 21
370.962514
 31
0.0
100
AcDbText
  0
ENDBLK
  5
3B
330
35
100
AcDbEntity
  8
0
100
AcDbBlockEnd
  0
BLOCK
  5
8C
330
8B
100
AcDbEntity
  8
0
100
AcDbBlockBegin
  2
MAKR0
 70
     0
 10
324.5546032491
 20
921.5379039091999
 30
0.0
  3
MAKR0
  1

  0
CIRCLE
  5
8D
330
8B
100
AcDbEntity
  8
1
  6
ByBlock
 62
     7
100
AcDbCircle
 10
324.5546032491
 20
921.5379039091999
 30
0.0
 40
18.0
  0
TEXT
  5
8E
330
8B
100
AcDbEntity
  8
1
  6
Continuous
 62
     7
100
AcDbText
 10
315.554603
 20
909.5379039999999
 30
0.0
 40
24.0
  1
１
 41
1.25
 72
     5
 11
333.554603
 21
909.5379039999999
 31
0.0
100
AcDbText
  0
ENDBLK
  5
8F
330
8B
100
AcDbEntity
  8
0
100
AcDbBlockEnd
  0
BLOCK
  5
91
330
90
100
AcDbEntity
  8
0
100
AcDbBlockBegin
  2
MAKR1
 70
     0
 10
324.5546032491
 20
879.5379039091999
 30
0.0
  3
MAKR1
  1

  0
CIRCLE
  5
92
330
90
100
AcDbEntity
  8
1
  6
ByBlock
 62
     7
100
AcDbCircle
 10
324.5546032491
 20
879.5379039091999
 30
0.0
 40
18.0
  0
TEXT
  5
93
330
90
100
AcDbEntity
  8
1
  6
Continuous
 62
     7
100
AcDbText
 10
315.554603
 20
867.5379039999999
 30
0.0
 40
24.0
  1
２
 41
1.022727272727272
 72
     5
 11
333.554603
 21
867.5379039999999
 31
0.0
100
AcDbText
  0
ENDBLK
  5
94
330
90
100
AcDbEntity
  8
0
100
AcDbBlockEnd
  0
BLOCK
  5
96
330
95
100
AcDbEntity
  8
0
100
AcDbBlockBegin
  2
MAKR2
 70
     0
 10
324.5546032501
 20
837.5379039091999
 30
0.0
  3
MAKR2
  1

  0
CIRCLE
  5
97
330
95
100
AcDbEntity
  8
1
  6
ByBlock
 62
     7
100
AcDbCircle
 10
324.5546032501
 20
837.5379039091999
 30
0.0
 40
18.0
  0
TEXT
  5
98
330
95
100
AcDbEntity
  8
1
  6
Continuous
 62
     7
100
AcDbText
 10
315.554603
 20
825.5379040000001
 30
0.0
 40
24.0
  1
３
 41
1.022727272727272
 72
     5
 11
333.554603
 21
825.5379040000001
 31
0.0
100
AcDbText
  0
ENDBLK
  5
99
330
95
100
AcDbEntity
  8
0
100
AcDbBlockEnd
  0
BLOCK
  5
A6
330
A5
100
AcDbEntity
  8
0
100
AcDbBlockBegin
  2
BALN2
 70
     0
 10
1098.7021157613
 20
-739.6569564211
 30
0.0
  3
BALN2
  1

  0
SOLID
  5
A7
330
A5
100
AcDbEntity
  8
1
  6
Continuous
 62
     7
100
AcDbTrace
 10
1093.318472975
 20
-750.3815258925999
 30
0.0
 11
1088.6774596077
 21
-746.2528846349999
 31
0.0
 12
1098.7021157613
 22
-739.6569564211
 32
0.0
 13
1098.7021157613
 23
-739.6569564211
 33
0.0
  0
LINE
  5
A8
330
A5
100
AcDbEntity
  8
1
  6
ByBlock
 62
     7
100
AcDbLine
 10
1098.7021157613
 20
-739.6569564211
 30
0.0
 11
1038.3360908421
 21
-807.5145180485
 31
0.0
  0
CIRCLE
  5
A9
330
A5
100
AcDbEntity
  8
1
  6
ByBlock
 62
     7
100
AcDbCircle
 10
1018.3962847507
 20
-829.9288914066
 30
0.0
 40
30.0
  0
TEXT
  5
AA
330
A5
100
AcDbEntity
  8
1
  6
Continuous
 62
     7
100
AcDbText
 10
1003.396285
 20
-847.9288910000001
 30
0.0
 40
36.0
  1
２
 41
1.13636363636364
 72
     5
 11
1033.396285
 21
-847.9288910000001
 31
0.0
100
AcDbText
  0
ENDBLK
  5
AB
330
A5
100
AcDbEntity
  8
0
100
AcDbBlockEnd
  0
BLOCK
  5
4C0
330
43D
100
AcDbEntity
  8
0
100
AcDbBlockBegin
  2
IGS-TITLE-NO2
 70
     2
 10
0.0
 20
0.0
 30
0.0
  3
IGS-TITLE-NO2
  1

  0
POINT
  5
43E
330
43D
100
AcDbEntity
  8
0
 60
     1
100
AcDbPoint
 10
0.0
 20
0.0
 30
0.0
1001
GENIUS_GENODEF_13
1002
{
1000
HIER
1070
     1
1002
}
1002
{
1000
MANEDIT
1070
     0
1002
}
1002
{
1000
NOSEL
1070
     0
1002
}
1002
{
1000
BEHIND
1070
     0
1002
}
1002
{
1000
REACTOR
1002
}
1001
GENIUS_GENTITLE_13
1002
{
1000
SCALE
1000
1:1
1002
}
1002
{
1000
BORDER
1000
IGS-A4
1002
}
1002
{
1000
TITLE
1000
IGS-TITLE
1002
}
1002
{
1000
UNCHG
1002
{
1000
GEN-TITLE-SCA
1000
GEN-TITLE-SIZ
1002
}
1002
}
1002
{
1000
HRA
1005
0
1002
}
1002
{
1000
HTIT
1005
0
1002
}
1002
{
1000
GENIUSID
1005
43E
1002
}
1001
GENIUS_GENOBJ-N-TIT_13
1002
{
1000
OWNER
1000
GEN
1002
}
1001
GENIUS_GENOENT_13
1002
{
1000
MYREF
1005
43E
1002
}
1002
{
1000
GRP
1005
0
1002
}
1001
GENIUS_GENOLIS_13
1002
{
1000
ENT
1005
0
1005
0
1002
}
  0
LINE
  5
43F
330
43D
100
AcDbEntity
  8
RAHM3
100
AcDbLine
 10
-148.4080564410193
 20
8.825237325416161
 30
52.0
 11
-145.4319868410194
 21
8.825237325416161
 31
52.0
  0
ARC
  5
440
330
43D
100
AcDbEntity
  8
RAHM3
100
AcDbCircle
 10
-141.4638940410194
 20
7.833214125416168
 30
52.0
 40
0.9920232
100
AcDbArc
 50
90.0
 51
180.0
  0
LINE
  5
441
330
43D
100
AcDbEntity
  8
RAHM3
100
AcDbLine
 10
-137.6611384410193
 20
8.825237325416161
 30
52.0
 11
-141.4638940410194
 21
8.825237325416161
 31
52.0
  0
ARC
  5
442
330
43D
100
AcDbEntity
  8
RAHM3
100
AcDbCircle
 10
-137.6611384410193
 20
7.833214125416168
 30
52.0
 40
0.9920232
100
AcDbArc
 50
0.0
 51
90.0
  0
ARC
  5
443
330
43D
100
AcDbEntity
  8
RAHM3
100
AcDbCircle
 10
-129.0636040410194
 20
7.833214125416168
 30
52.0
 40
0.9920232
100
AcDbArc
 50
0.0
 51
90.0
  0
LINE
  5
444
330
43D
100
AcDbEntity
  8
RAHM3
100
AcDbLine
 10
-132.7010224410193
 20
8.825237325416161
 30
52.0
 11
-129.0636040410194
 21
8.825237325416161
 31
52.0
  0
ARC
  5
445
330
43D
100
AcDbEntity
  8
RAHM3
100
AcDbCircle
 10
-132.7010224410193
 20
7.833214125416168
 30
52.0
 40
0.9920232
100
AcDbArc
 50
90.0
 51
180.0
  0
LINE
  5
446
330
43D
100
AcDbEntity
  8
RAHM3
100
AcDbLine
 10
-148.4080564410193
 20
8.163888525416165
 30
52.0
 11
-147.5813704410193
 21
8.163888525416165
 31
52.0
  0
LINE
  5
447
330
43D
100
AcDbEntity
  8
RAHM3
100
AcDbLine
 10
-147.5813704410193
 20
8.163888525416165
 30
52.0
 11
-147.5813704410193
 21
3.865121325416145
 31
52.0
  0
LINE
  5
448
330
43D
100
AcDbEntity
  8
RAHM3
100
AcDbLine
 10
-146.2586728410194
 20
3.865121325416145
 30
52.0
 11
-146.2586728410194
 21
8.163888525416165
 31
52.0
  0
LINE
  5
449
330
43D
100
AcDbEntity
  8
RAHM3
100
AcDbLine
 10
-146.2586728410194
 20
8.163888525416165
 30
52.0
 11
-145.4319868410194
 21
8.163888525416165
 31
52.0
  0
LINE
  5
44A
330
43D
100
AcDbEntity
  8
RAHM3
100
AcDbLine
 10
-145.4319868410194
 20
8.825237325416161
 30
52.0
 11
-145.4319868410194
 21
8.163888525416165
 31
52.0
  0
LINE
  5
44B
330
43D
100
AcDbEntity
  8
RAHM3
100
AcDbLine
 10
-148.4080564410193
 20
8.163888525416165
 30
52.0
 11
-148.4080564410193
 21
8.825237325416161
 31
52.0
  0
LINE
  5
44C
330
43D
100
AcDbEntity
  8
RAHM3
100
AcDbLine
 10
-145.4319868410194
 20
3.203772525416149
 30
52.0
 11
-148.4080564410193
 21
3.203772525416149
 31
52.0
  0
CIRCLE
  5
44D
330
43D
100
AcDbEntity
  8
RAHM3
100
AcDbCircle
 10
-144.1092892410194
 20
3.865121325416145
 30
52.0
 40
0.6613488000000001
  0
LINE
  5
44E
330
43D
100
AcDbEntity
  8
RAHM3
100
AcDbLine
 10
-137.9918128410194
 20
3.865121325416145
 30
52.0
 11
-137.9918128410194
 21
3.203772525416149
 31
52.0
  0
LINE
  5
44F
330
43D
100
AcDbEntity
  8
RAHM3
100
AcDbLine
 10
-137.9918128410194
 20
3.203772525416149
 30
52.0
 11
-136.6691152410193
 21
3.203772525416149
 31
52.0
  0
ARC
  5
450
330
43D
100
AcDbEntity
  8
RAHM3
100
AcDbCircle
 10
-141.4638940410194
 20
4.195795725416166
 30
52.0
 40
0.9920232
100
AcDbArc
 50
180.0
 51
270.0
  0
LINE
  5
451
330
43D
100
AcDbEntity
  8
RAHM3
100
AcDbLine
 10
-141.4638940410194
 20
3.203772525416149
 30
52.0
 11
-141.1332196410193
 21
3.203772525416149
 31
52.0
  0
LINE
  5
452
330
43D
100
AcDbEntity
  8
RAHM3
100
AcDbLine
 10
-142.4559172410194
 20
4.195795725416166
 30
52.0
 11
-142.4559172410194
 21
7.833214125416168
 31
52.0
  0
CIRCLE
  5
453
330
43D
100
AcDbEntity
  8
RAHM3
100
AcDbCircle
 10
-135.5117548410193
 20
3.865121325416145
 30
52.0
 40
0.6613488000000001
  0
ARC
  5
454
330
43D
100
AcDbEntity
  8
RAHM3
100
AcDbCircle
 10
-132.7010224410193
 20
4.195795725416166
 30
52.0
 40
0.9920232
100
AcDbArc
 50
180.0
 51
270.0
  0
LINE
  5
455
330
43D
100
AcDbEntity
  8
RAHM3
100
AcDbLine
 10
-129.0636040410194
 20
3.203772525416149
 30
52.0
 11
-132.7010224410193
 21
3.203772525416149
 31
52.0
  0
ARC
  5
456
330
43D
100
AcDbEntity
  8
RAHM3
100
AcDbCircle
 10
-129.0636040410194
 20
4.195795725416166
 30
52.0
 40
0.9920232
100
AcDbArc
 50
270.0
 51
0.0
  0
LINE
  5
457
330
43D
100
AcDbEntity
  8
RAHM3
100
AcDbLine
 10
-133.6930456410194
 20
4.195795725416166
 30
52.0
 11
-133.6930456410194
 21
5.022481725416161
 31
52.0
  0
LINE
  5
458
330
43D
100
AcDbEntity
  8
RAHM3
100
AcDbLine
 10
-128.0715808410194
 20
7.833214125416168
 30
52.0
 11
-128.0715808410194
 21
7.00652812541615
 31
52.0
  0
CIRCLE
  5
459
330
43D
100
AcDbEntity
  8
RAHM3
100
AcDbCircle
 10
-126.9142204410194
 20
3.865121325416145
 30
52.0
 40
0.6613488000000001
  0
LINE
  5
45A
330
43D
100
AcDbEntity
  8
RAHM3
100
AcDbLine
 10
-136.6691152410193
 20
7.171865325416149
 30
52.0
 11
-137.8264756410194
 21
7.171865325416149
 31
52.0
  0
LINE
  5
45B
330
43D
100
AcDbEntity
  8
RAHM3
100
AcDbLine
 10
-137.8264756410194
 20
7.171865325416149
 30
52.0
 11
-137.8264756410194
 21
7.667876925416146
 31
52.0
  0
LINE
  5
45C
330
43D
100
AcDbEntity
  8
RAHM3
100
AcDbLine
 10
-137.8264756410194
 20
7.667876925416146
 30
52.0
 11
-141.2985568410193
 21
7.667876925416146
 31
52.0
  0
LINE
  5
45D
330
43D
100
AcDbEntity
  8
RAHM3
100
AcDbLine
 10
-141.2985568410193
 20
7.667876925416146
 30
52.0
 11
-141.2985568410193
 21
4.361132925416165
 31
52.0
  0
LINE
  5
45E
330
43D
100
AcDbEntity
  8
RAHM3
100
AcDbLine
 10
-137.8264756410194
 20
5.518493325416158
 30
52.0
 11
-139.4798476410193
 21
5.518493325416158
 31
52.0
  0
LINE
  5
45F
330
43D
100
AcDbEntity
  8
RAHM3
100
AcDbLine
 10
-139.4798476410193
 20
5.518493325416158
 30
52.0
 11
-139.4798476410193
 21
6.510516525416153
 31
52.0
  0
LINE
  5
460
330
43D
100
AcDbEntity
  8
RAHM3
100
AcDbLine
 10
-136.6691152410193
 20
7.171865325416149
 30
52.0
 11
-136.6691152410193
 21
7.833214125416168
 31
52.0
  0
LINE
  5
461
330
43D
100
AcDbEntity
  8
RAHM3
100
AcDbLine
 10
-137.8264756410194
 20
5.022481725416161
 30
52.0
 11
-137.8264756410194
 21
5.518493325416158
 31
52.0
  0
LINE
  5
462
330
43D
100
AcDbEntity
  8
RAHM3
100
AcDbLine
 10
-137.6611384410193
 20
6.510516525416153
 30
52.0
 11
-139.4798476410193
 21
6.510516525416153
 31
52.0
  0
LINE
  5
463
330
43D
100
AcDbEntity
  8
RAHM3
100
AcDbLine
 10
-136.6691152410193
 20
5.518493325416158
 30
52.0
 11
-136.6691152410193
 21
3.203772525416149
 31
52.0
  0
ARC
  5
464
330
43D
100
AcDbEntity
  8
RAHM3
100
AcDbCircle
 10
-137.6611384410193
 20
5.518493325416158
 30
52.0
 40
0.9920232
100
AcDbArc
 50
0.0
 51
90.0
  0
LINE
  5
465
330
43D
100
AcDbEntity
  8
RAHM3
100
AcDbLine
 10
-139.1930809214994
 20
5.022481725416161
 30
52.0
 11
-137.8264756410194
 21
5.022481725416161
 31
52.0
  0
ARC
  5
466
330
43D
100
AcDbEntity
  8
RAHM3
100
AcDbCircle
 10
-139.1930809214994
 20
4.030458525416167
 30
52.0
 40
0.9920232
100
AcDbArc
 50
90.0
 51
119.7448812969
  0
LINE
  5
467
330
43D
100
AcDbEntity
  8
RAHM3
100
AcDbLine
 10
-140.8773334868594
 20
4.361132925416165
 30
52.0
 11
-141.2985568410193
 21
4.361132925416165
 31
52.0
  0
LINE
  5
468
330
43D
100
AcDbEntity
  8
RAHM3
100
AcDbLine
 10
-140.3851521495794
 20
4.491838785176161
 30
52.0
 11
-139.6852622587794
 21
4.891775865576152
 31
52.0
  0
ARC
  5
469
330
43D
100
AcDbEntity
  8
RAHM3
100
AcDbCircle
 10
-140.8773334868594
 20
5.35315612541616
 30
52.0
 40
0.9920232
100
AcDbArc
 50
270.0
 51
299.7448812969
  0
ARC
  5
46A
330
43D
100
AcDbEntity
  8
RAHM3
100
AcDbCircle
 10
-138.8857271583794
 20
2.873098125416151
 30
52.0
 40
0.9920232
100
AcDbArc
 50
90.0
 51
119.7448812969
  0
LINE
  5
46B
330
43D
100
AcDbEntity
  8
RAHM3
100
AcDbLine
 10
-140.5699797237394
 20
3.203772525416149
 30
52.0
 11
-141.4638940410194
 21
3.203772525416149
 31
52.0
  0
ARC
  5
46C
330
43D
100
AcDbEntity
  8
RAHM3
100
AcDbCircle
 10
-140.5699797237394
 20
4.195795725416166
 30
52.0
 40
0.9920232
100
AcDbArc
 50
270.0
 51
299.7448812969
  0
LINE
  5
46D
330
43D
100
AcDbEntity
  8
RAHM3
100
AcDbLine
 10
-139.3779084956594
 20
3.734415465576159
 30
52.0
 11
-140.0777983864594
 21
3.334478385176168
 31
52.0
  0
LINE
  5
46E
330
43D
100
AcDbEntity
  8
RAHM3
100
AcDbLine
 10
-138.8857271583794
 20
3.865121325416145
 30
52.0
 11
-137.9918128410194
 21
3.865121325416145
 31
52.0
  0
LINE
  5
46F
330
43D
100
AcDbEntity
  8
RAHM3
100
AcDbLine
 10
-147.5813704410193
 20
3.865121325416145
 30
52.0
 11
-148.4080564410193
 21
3.865121325416145
 31
52.0
  0
LINE
  5
470
330
43D
100
AcDbEntity
  8
RAHM3
100
AcDbLine
 10
-146.2586728410194
 20
3.865121325416145
 30
52.0
 11
-145.4319868410194
 21
3.865121325416145
 31
52.0
  0
LINE
  5
471
330
43D
100
AcDbEntity
  8
RAHM3
100
AcDbLine
 10
-148.4080564410193
 20
3.203772525416149
 30
52.0
 11
-148.4080564410193
 21
3.865121325416145
 31
52.0
  0
LINE
  5
472
330
43D
100
AcDbEntity
  8
RAHM3
100
AcDbLine
 10
-145.4319868410194
 20
3.865121325416145
 30
52.0
 11
-145.4319868410194
 21
3.203772525416149
 31
52.0
  0
LINE
  5
473
330
43D
100
AcDbEntity
  8
RAHM3
100
AcDbLine
 10
-132.5356852410194
 20
7.667876925416146
 30
52.0
 11
-129.2289412410193
 21
7.667876925416146
 31
52.0
  0
LINE
  5
474
330
43D
100
AcDbEntity
  8
RAHM3
100
AcDbLine
 10
-129.2289412410193
 20
7.667876925416146
 30
52.0
 11
-129.2289412410193
 21
7.00652812541615
 31
52.0
  0
LINE
  5
475
330
43D
100
AcDbEntity
  8
RAHM3
100
AcDbLine
 10
-132.5356852410194
 20
5.022481725416161
 30
52.0
 11
-132.5356852410194
 21
4.361132925416165
 31
52.0
  0
LINE
  5
476
330
43D
100
AcDbEntity
  8
RAHM3
100
AcDbLine
 10
-132.5356852410194
 20
4.361132925416165
 30
52.0
 11
-129.2289412410193
 21
4.361132925416165
 31
52.0
  0
LINE
  5
477
330
43D
100
AcDbEntity
  8
RAHM3
100
AcDbLine
 10
-132.5356852410194
 20
5.022481725416161
 30
52.0
 11
-133.6930456410194
 21
5.022481725416161
 31
52.0
  0
LINE
  5
478
330
43D
100
AcDbEntity
  8
RAHM3
100
AcDbLine
 10
-128.0715808410194
 20
7.00652812541615
 30
52.0
 11
-129.2289412410193
 21
7.00652812541615
 31
52.0
  0
LINE
  5
479
330
43D
100
AcDbEntity
  8
RAHM3
100
AcDbLine
 10
-129.2289412410193
 20
4.361132925416165
 30
52.0
 11
-129.2289412410193
 21
5.518493325416158
 31
52.0
  0
LINE
  5
47A
330
43D
100
AcDbEntity
  8
RAHM3
100
AcDbLine
 10
-132.5356852410194
 20
6.510516525416153
 30
52.0
 11
-132.5356852410194
 21
7.667876925416146
 31
52.0
  0
LINE
  5
47B
330
43D
100
AcDbEntity
  8
RAHM3
100
AcDbLine
 10
-128.0715808410194
 20
5.518493325416158
 30
52.0
 11
-128.0715808410194
 21
4.195795725416166
 31
52.0
  0
LINE
  5
47C
330
43D
100
AcDbEntity
  8
RAHM3
100
AcDbLine
 10
-129.0636040410194
 20
6.510516525416153
 30
52.0
 11
-132.5356852410194
 21
6.510516525416153
 31
52.0
  0
ARC
  5
47D
330
43D
100
AcDbEntity
  8
RAHM3
100
AcDbCircle
 10
-129.0636040410194
 20
5.518493325416158
 30
52.0
 40
0.9920232
100
AcDbArc
 50
0.0
 51
90.0
  0
LINE
  5
47E
330
43D
100
AcDbEntity
  8
RAHM3
100
AcDbLine
 10
-132.7010224411794
 20
5.518493325416158
 30
52.0
 11
-129.2289412410193
 21
5.518493325416158
 31
52.0
  0
LINE
  5
47F
330
43D
100
AcDbEntity
  8
RAHM3
100
AcDbLine
 10
-133.6930456410194
 20
6.510516525416153
 30
52.0
 11
-133.6930456410194
 21
7.833214125416168
 31
52.0
  0
ARC
  5
480
330
43D
100
AcDbEntity
  8
RAHM3
100
AcDbCircle
 10
-132.7010224411794
 20
6.510516525416153
 30
52.0
 40
0.9920232
100
AcDbArc
 50
180.0
 51
270.0
  0
POINT
  5
481
330
43D
100
AcDbEntity
  8
0
 60
     1
100
AcDbPoint
 10
0.0
 20
0.0
 30
0.0
1001
GENIUS_GENODEF_13
1002
{
1000
HIER
1070
     1
1002
}
1002
{
1000
MANEDIT
1070
     0
1002
}
1002
{
1000
NOSEL
1070
     0
1002
}
1002
{
1000
BEHIND
1070
     0
1002
}
1002
{
1000
REACTOR
1002
}
1001
GENIUS_GENTITLE_13
1002
{
1000
SCALE
1000
1:1
1002
}
1002
{
1000
BORDER
1000
GEN_A4
1002
}
1002
{
1000
TITLE
1000
GENTITUS
1002
}
1002
{
1000
UNCHG
1002
{
1000
GEN-TITLE-SCA
1000
GEN-TITLE-SIZ
1002
}
1002
}
1002
{
1000
HRA
1005
0
1002
}
1002
{
1000
HTIT
1005
0
1002
}
1002
{
1000
GENIUSID
1005
481
1002
}
1001
GENIUS_GENOBJ-N-TIT_13
1002
{
1000
OWNER
1000
GEN
1002
}
1001
GENIUS_GENOENT_13
1002
{
1000
MYREF
1005
481
1002
}
1002
{
1000
GRP
1005
0
1002
}
1001
GENIUS_GENOLIS_13
1002
{
1000
ENT
1005
0
1005
0
1002
}
  0
TEXT
  5
482
330
43D
100
AcDbEntity
  8
0
 60
     1
100
AcDbText
 10
210.0
 20
297.0
 30
0.0
 40
3.5
  1
!GENTITLE-MAX
100
AcDbText
  0
TEXT
  5
483
330
43D
100
AcDbEntity
  8
0
 60
     1
100
AcDbText
 10
205.0
 20
287.0
 30
0.0
 40
3.5
  1
!GENTITLE-RU
100
AcDbText
  0
TEXT
  5
484
330
43D
100
AcDbEntity
  8
0
 60
     1
100
AcDbText
 10
15.0
 20
59.99
 30
0.0
 40
3.5
  1
!GENTITLE-LL
100
AcDbText
  0
TEXT
  5
485
330
43D
100
AcDbEntity
  8
0
 60
     1
100
AcDbText
 10
205.0
 20
5.0
 30
0.0
 40
3.5
  1
!GENTITLE-INSERT
100
AcDbText
  0
LINE
  5
486
330
43D
100
AcDbEntity
  8
RAHM2
100
AcDbLine
 10
-155.0
 20
12.0
 30
0.0
 11
0.0
 21
12.0
 31
0.0
  0
LINE
  5
487
330
43D
100
AcDbEntity
  8
RAHM2
100
AcDbLine
 10
-12.0
 20
12.0
 30
0.0
 11
-12.00000000000727
 21
0.0
 31
0.0
  0
LINE
  5
488
330
43D
100
AcDbEntity
  8
RAHM2
100
AcDbLine
 10
-80.0
 20
19.99999999999272
 30
0.0
 11
0.0
 21
20.0
 31
0.0
  0
LINE
  5
489
330
43D
100
AcDbEntity
  8
RAHM2
100
AcDbLine
 10
0.0
 20
27.0
 30
0.0
 11
-80.0
 21
27.0
 31
0.0
  0
MTEXT
  5
48A
330
43D
100
AcDbEntity
  8
RAHM2
100
AcDbMText
 10
-78.39748281353763
 20
37.79972226353243
 30
0.0
 40
2.5
 41
2.458156240282278
 71
     1
 72
     5
  1

 73
     1
 44
1.0
1001
ACAD
1000
MTEXTBEGIN
1070
    73
1070
     1
1070
    44
1040
1.0
1070
    74
1070
     0
1000
MTEXTEND
  0
TEXT
  5
48B
330
43D
100
AcDbEntity
  8
RAHM3
100
AcDbText
 10
-79.00900277736832
 20
36.89804600214973
 30
0.0
 40
2.299999999999999
  1
名称 ＴＩＴＬＥ
 41
0.8
100
AcDbText
  0
LINE
  5
48C
330
43D
100
AcDbEntity
  8
RAHM2
100
AcDbLine
 10
-80.0
 20
40.00000000000727
 30
0.0
 11
-80.0
 21
0.0
 31
0.0
  0
TEXT
  5
48D
330
43D
100
AcDbEntity
  8
RAHM3
100
AcDbText
 10
-79.00900277736832
 20
23.89804600216055
 30
0.0
 40
2.299999999999999
  1
符号 
 41
0.8
100
AcDbText
  0
TEXT
  5
48E
330
43D
100
AcDbEntity
  8
RAHM3
100
AcDbText
 10
-79.00900277736832
 20
16.89804600215146
 30
0.0
 40
2.299999999999999
  1
件名
 41
0.8
100
AcDbText
  0
TEXT
  5
48F
330
43D
100
AcDbEntity
  8
RAHM3
100
AcDbText
 10
-79.00900277736832
 20
8.898046002160548
 30
0.0
 40
2.299999999999999
  1
図番 ＤＲＡＷＩＮＧ ＮＯ．
 41
0.8
100
AcDbText
  0
CIRCLE
  5
490
330
43D
100
AcDbEntity
  8
RAHM2
100
AcDbCircle
 10
-5.0
 20
5.0
 30
0.0
 40
4.5
  0
LINE
  5
491
330
43D
100
AcDbEntity
  8
RAHM2
100
AcDbLine
 10
-130.0000000000018
 20
40.00000000000916
 30
0.0
 11
-130.0000000000018
 21
12.0
 31
0.0
  0
LINE
  5
492
330
43D
100
AcDbEntity
  8
RAHM2
100
AcDbLine
 10
-130.0000000000018
 20
26.00000000000458
 30
0.0
 11
-80.0
 21
25.99999999999818
 31
0.0
  0
LINE
  5
493
330
43D
100
AcDbEntity
  8
RAHM2
100
AcDbLine
 10
-105.0000000000018
 20
40.00000000000916
 30
0.0
 11
-105.0000000000018
 21
12.0
 31
0.0
  0
TEXT
  5
494
330
43D
100
AcDbEntity
  8
RAHM3
100
AcDbText
 10
-129.0090027773683
 20
36.89804600215881
 30
0.0
 40
2.299999999999999
  1
承認 ＡＰＰＤ
 41
0.8
100
AcDbText
  0
TEXT
  5
495
330
43D
100
AcDbEntity
  8
RAHM3
100
AcDbText
 10
-104.0090027773683
 20
36.8980460021551
 30
0.0
 40
2.299999999999999
  1
検図 ＣＨＫ
 41
0.8
100
AcDbText
  0
TEXT
  5
496
330
43D
100
AcDbEntity
  8
RAHM3
100
AcDbText
 10
-129.0090027773683
 20
22.89804600215422
 30
0.0
 40
2.299999999999999
  1
設計 ＥＮＧＲ
 41
0.8
100
AcDbText
  0
TEXT
  5
497
330
43D
100
AcDbEntity
  8
RAHM3
100
AcDbText
 10
-104.0090027773683
 20
22.89804600214964
 30
0.0
 40
2.299999999999999
  1
製図 ＤＲ ＤＡＴＥ
 41
0.8
100
AcDbText
  0
LINE
  5
498
330
43D
100
AcDbEntity
  8
RAHM2
100
AcDbLine
 10
-155.0
 20
30.60000000000036
 30
0.0
 11
-130.0000000000018
 21
30.60000000000036
 31
0.0
  0
LINE
  5
499
330
43D
100
AcDbEntity
  8
RAHM2
100
AcDbLine
 10
-155.0
 20
21.29999999999927
 30
0.0
 11
-130.0000000000018
 21
21.30000000000109
 31
0.0
  0
TEXT
  5
49A
330
43D
100
AcDbEntity
  8
RAHM3
100
AcDbText
 10
-121.7843516157921
 20
6.885079184961092
 30
0.0
 40
4.0
  1
伊藤鉄工株式会社
100
AcDbText
  0
TEXT
  5
49B
330
43D
100
AcDbEntity
  8
RAHM3
100
AcDbText
 10
-120.6675998914835
 20
3.578884653066273
 30
0.0
 40
2.0
  1
ITO TEKKO  CO.,LTD.
100
AcDbText
  0
TEXT
  5
49C
330
43D
100
AcDbEntity
  8
RAHM3
100
AcDbText
 10
-120.6675998914835
 20
0.9279960228792472
 30
0.0
 40
2.0
  1
KAWAGUCHI  JAPAN
100
AcDbText
  0
TEXT
  5
49D
330
43D
100
AcDbEntity
  8
RAHM3
100
AcDbText
 10
-11.85206060358336
 20
9.69362381988742
 30
0.0
 40
1.8
  1
ＲＥＶ．ＭＡＲＫ
 41
0.6800000000000001
100
AcDbText
  0
TEXT
  5
49E
330
43D
100
AcDbEntity
  8
RAHM3
100
AcDbText
 10
-11.57052530051805
 20
7.425435269030799
 30
0.0
 40
1.8
  1
変
100
AcDbText
  0
TEXT
  5
49F
330
43D
100
AcDbEntity
  8
RAHM3
100
AcDbText
 10
-11.59004395148213
 20
4.996441785248862
 30
0.0
 40
1.8
  1
更
100
AcDbText
  0
TEXT
  5
4A0
330
43D
100
AcDbEntity
  8
RAHM3
100
AcDbText
 10
-11.62938531906752
 20
2.617267270587205
 30
0.0
 40
1.8
  1
回
100
AcDbText
  0
TEXT
  5
4A1
330
43D
100
AcDbEntity
  8
RAHM3
100
AcDbText
 10
-11.56556962136267
 20
0.3551115072955326
 30
0.0
 40
1.8
  1
数
100
AcDbText
  0
TEXT
  5
4A2
330
43D
100
AcDbEntity
  8
RAHM3
100
AcDbText
 10
-154.0090027773665
 20
36.89804600217056
 30
0.0
 40
2.299999999999999
  1
尺度 ＳＣＡＬＥ
 41
0.8
100
AcDbText
  0
TEXT
  5
4A3
330
43D
100
AcDbEntity
  8
RAHM3
100
AcDbText
 10
-154.0090027773665
 20
27.49804600215
 30
0.0
 40
2.299999999999999
  1
図面枚数 ＮＯ．  
 41
0.8
100
AcDbText
  0
LINE
  5
4A4
330
43D
100
AcDbEntity
  8
7A
100
AcDbLine
 10
-151.7551228444401
 20
16.64999999999988
 30
0.0
 11
-149.2551228444401
 21
16.64999999999988
 31
0.0
1001
GENIUS_GENOREF_13
1005
4A8
  0
LINE
  5
4A5
330
43D
100
AcDbEntity
  8
7A
100
AcDbLine
 10
-151.7551228444401
 20
16.64999999999988
 30
0.0
 11
-151.7551228444401
 21
19.14999999999988
 31
0.0
1001
GENIUS_GENOREF_13
1005
4A8
  0
LINE
  5
4A6
330
43D
100
AcDbEntity
  8
7A
100
AcDbLine
 10
-151.7551228444401
 20
16.64999999999988
 30
0.0
 11
-154.2551228444401
 21
16.64999999999988
 31
0.0
1001
GENIUS_GENOREF_13
1005
4A8
  0
LINE
  5
4A7
330
43D
100
AcDbEntity
  8
7A
100
AcDbLine
 10
-151.7551228444401
 20
16.64999999999988
 30
0.0
 11
-151.7551228444401
 21
14.14999999999988
 31
0.0
1001
GENIUS_GENOREF_13
1005
4A8
  0
POINT
  5
4A8
330
43D
100
AcDbEntity
  8
0
 60
     1
100
AcDbPoint
 10
0.0
 20
0.0
 30
0.0
1001
GENIUS_GENODEF_13
1002
{
1000
HIER
1070
    10
1002
}
1002
{
1000
MANEDIT
1070
     0
1002
}
1002
{
1000
NOSEL
1070
     0
1002
}
1002
{
1000
BEHIND
1070
     0
1002
}
1002
{
1000
REACTOR
1002
}
1001
GENIUS_GENOBJ-N-CRS_13
1002
{
1000
OWNER
1000
GEN
1002
}
1001
GENIUS_GENOENT_13
1002
{
1000
MYREF
1005
4A8
1002
}
1002
{
1000
GRP
1005
0
1002
}
1001
GENIUS_GENOLIS_13
1002
{
1000
ENT
1005
4A7
1005
4A6
1005
4A5
1005
4A4
1002
}
  0
CIRCLE
  5
4A9
330
43D
100
AcDbEntity
  8
RAHM3
100
AcDbCircle
 10
-151.7551228444401
 20
16.64999999999988
 30
0.0
 40
2.0
  0
CIRCLE
  5
4AA
330
43D
100
AcDbEntity
  8
RAHM3
100
AcDbCircle
 10
-151.7551228444401
 20
16.64999999999952
 30
0.0
 40
1.0
  0
LINE
  5
4AB
330
43D
100
AcDbEntity
  8
RAHM3
100
AcDbLine
 10
-147.7659442035316
 20
17.64999999999929
 30
0.0
 11
-147.7659442035316
 21
15.64999999999929
 31
0.0
  0
LINE
  5
4AC
330
43D
100
AcDbEntity
  8
RAHM3
100
AcDbLine
 10
-147.7659442035316
 20
15.64999999999929
 30
0.0
 11
-143.7659442035316
 21
14.64999999999928
 31
0.0
  0
LINE
  5
4AD
330
43D
100
AcDbEntity
  8
RAHM3
100
AcDbLine
 10
-143.7659442035316
 20
14.64999999999928
 30
0.0
 11
-143.7659442035316
 21
18.64999999999929
 31
0.0
  0
LINE
  5
4AE
330
43D
100
AcDbEntity
  8
RAHM3
100
AcDbLine
 10
-143.7659442035316
 20
18.64999999999929
 30
0.0
 11
-147.7659442035316
 21
17.64999999999929
 31
0.0
  0
LINE
  5
4AF
330
43D
100
AcDbEntity
  8
7A
100
AcDbLine
 10
-148.6350563849704
 20
16.64999999999929
 30
0.0
 11
-142.8462596443259
 21
16.64999999999929
 31
0.0
1001
GENIUS_GENODEF_13
1002
{
1000
HIER
1070
     0
1002
}
1002
{
1000
MANEDIT
1070
     0
1002
}
1002
{
1000
NOSEL
1070
     0
1002
}
1002
{
1000
BEHIND
1070
     0
1002
}
1002
{
1000
REACTOR
1002
}
1001
GENIUS_GENOBJ-N-CEN_13
1002
{
1000
OWNER
1000
GEN
1002
}
  0
TEXT
  5
4B0
330
43D
100
AcDbEntity
  8
RAHM3
100
AcDbText
 10
-141.8454810851357
 20
18.28209750892168
 30
0.0
 40
2.1
  1
単位 ＵＮＩＴ
 41
0.7
100
AcDbText
  0
LINE
  5
4B1
330
43D
100
AcDbEntity
  8
RAHM2
100
AcDbLine
 10
-142.5000000000009
 20
21.29999999999927
 30
0.0
 11
-142.5000000000009
 21
12.0
 31
0.0
  0
TEXT
  5
4B2
330
43D
100
AcDbEntity
  8
RAHM3
100
AcDbText
 10
-139.6782849929894
 20
13.82826889824218
 30
0.0
 40
4.0
  1
ｍｍ
 41
0.8
100
AcDbText
  0
POLYLINE
  5
4B3
330
43D
100
AcDbEntity
  8
RAHM2
100
AcDb2dPolyline
 66
     1
 10
0.0
 20
0.0
 30
0.0
 70
     1
  0
VERTEX
  5
4B4
330
4B3
100
AcDbEntity
  8
RAHM2
100
AcDbVertex
100
AcDb2dVertex
 10
-155.0
 20
-0.000000000001819
 30
0.0
  0
VERTEX
  5
4B5
330
4B3
100
AcDbEntity
  8
RAHM2
100
AcDbVertex
100
AcDb2dVertex
 10
-155.0
 20
40.00000000002091
 30
0.0
  0
VERTEX
  5
4B6
330
4B3
100
AcDbEntity
  8
RAHM2
100
AcDbVertex
100
AcDb2dVertex
 10
0.0
 20
39.99999999999273
 30
0.0
  0
VERTEX
  5
4B7
330
4B3
100
AcDbEntity
  8
RAHM2
100
AcDbVertex
100
AcDb2dVertex
 10
0.0
 20
0.0
 30
0.0
  0
SEQEND
  5
4B8
330
4B3
100
AcDbEntity
  8
RAHM2
  0
ATTDEF
  5
4B9
330
43D
100
AcDbEntity
  8
RAHM3
100
AcDbText
 10
-147.2595867131855
 20
31.94728899818607
 30
0.0
 40
4.0
  1

100
AcDbAttributeDefinition
  3
尺度
  2
GEN-TITLE-SCA
 70
     0
  0
ATTDEF
  5
4BA
330
43D
100
AcDbEntity
  8
RAHM3
100
AcDbText
 10
-73.09000000000001
 20
29.74
 30
0.0
 40
5.0
  1

100
AcDbAttributeDefinition
  3
名称
  2
ＴＩＴＬＥ
 70
     0
  0
ATTDEF
  5
4BB
330
43D
100
AcDbEntity
  8
RAHM3
100
AcDbText
 10
-71.56287815584043
 20
21.80438312711384
 30
0.0
 40
3.0
  1

100
AcDbAttributeDefinition
  3
符号
  2
ｃｏｄｅ
 70
     0
  0
ATTDEF
  5
4BC
330
43D
100
AcDbEntity
  8
RAHM3
100
AcDbText
 10
-70.74480649396313
 20
14.80438312710657
 30
0.0
 40
3.0
  1

100
AcDbAttributeDefinition
  3
件名
  2
件名
 70
     0
  0
ATTDEF
  5
4BD
330
43D
100
AcDbEntity
  8
RAHM3
100
AcDbText
 10
-73.09000000000001
 20
1.739999999992722
 30
0.0
 40
5.0
  1

100
AcDbAttributeDefinition
  3
図面番号
  2
Ｎｏ．
 70
     0
  0
ATTDEF
  5
4BE
330
43D
100
AcDbEntity
  8
RAHM3
100
AcDbText
 10
-100.45
 20
17.40708932112655
 30
0.0
 40
4.0
  1

100
AcDbAttributeDefinition
  3
製図者
  2
ＤＲ
 70
     0
  0
ATTDEF
  5
4BF
330
43D
100
AcDbEntity
  8
RAHM3
100
AcDbText
 10
-101.7393618882534
 20
12.76999999999999
 30
0.0
 40
3.0
  1

 41
0.8
100
AcDbAttributeDefinition
  3
日付
  2
ｄａｔｅ
 70
     0
  0
ENDBLK
  5
4C1
330
43D
100
AcDbEntity
  8
0
100
AcDbBlockEnd
  0
BLOCK
  5
1AF7
330
1A81
100
AcDbEntity
  8
0
100
AcDbBlockBegin
  2
*D7
 70
     1
 10
0.0
 20
0.0
 30
0.0
  3
*D7
  1

  0
LINE
  5
1E92
330
1A81
100
AcDbEntity
  8
5
370
    -2
100
AcDbLine
 10
2130.389702803194
 20
-740.1060900081012
 30
0.0
 11
2058.389702803194
 21
-740.1060900081012
 31
0.0
  0
LINE
  5
1E93
330
1A81
100
AcDbEntity
  8
5
370
    -2
100
AcDbLine
 10
2133.287343083394
 20
-860.1060900081012
 30
0.0
 11
2058.389702803194
 21
-860.1060900081012
 31
0.0
  0
LINE
  5
1E94
330
1A81
100
AcDbEntity
  8
5
370
    -2
100
AcDbLine
 10
2064.389702803194
 20
-755.1060900081012
 30
0.0
 11
2064.389702803194
 21
-845.1060900081012
 31
0.0
  0
SOLID
  5
1E95
330
1A81
100
AcDbEntity
  8
5
100
AcDbTrace
 10
2061.889702803194
 20
-755.1060900081012
 30
0.0
 11
2066.889702803194
 21
-755.1060900081012
 31
0.0
 12
2064.389702803194
 22
-740.1060900081012
 32
0.0
 13
2064.389702803194
 23
-740.1060900081012
 33
0.0
  0
SOLID
  5
1E96
330
1A81
100
AcDbEntity
  8
5
100
AcDbTrace
 10
2061.889702803194
 20
-845.1060900081012
 30
0.0
 11
2066.889702803194
 21
-845.1060900081012
 31
0.0
 12
2064.389702803194
 22
-860.1060900081012
 32
0.0
 13
2064.389702803194
 23
-860.1060900081012
 33
0.0
  0
MTEXT
  5
1E97
330
1A81
100
AcDbEntity
  8
5
 62
     2
100
AcDbMText
 10
2044.88763587406
 20
-800.1060900081009
 30
0.0
 40
21.0
 41
0.0
 71
     5
 72
     1
  1
120
 11
0.0000000000000001
 21
1.0
 31
0.0
 73
     1
 44
1.0
1001
ACAD
1000
MTEXTBEGIN
1070
    73
1070
     1
1070
    44
1040
1.0
1070
    74
1070
     0
1000
MTEXTEND
  0
POINT
  5
1E98
330
1A81
100
AcDbEntity
  8
DEFPOINTS
 62
     0
100
AcDbPoint
 10
2136.389702803194
 20
-740.1060900081012
 30
0.0
  0
POINT
  5
1E99
330
1A81
100
AcDbEntity
  8
DEFPOINTS
 62
     0
100
AcDbPoint
 10
2139.287343083394
 20
-860.1060900081012
 30
0.0
  0
POINT
  5
1E9A
330
1A81
100
AcDbEntity
  8
DEFPOINTS
 62
     0
100
AcDbPoint
 10
2064.389702803194
 20
-860.1060900081012
 30
0.0
  0
ENDBLK
  5
1B01
330
1A81
100
AcDbEntity
  8
0
100
AcDbBlockEnd
  0
BLOCK
  5
1B02
330
1A8D
100
AcDbEntity
  8
0
100
AcDbBlockBegin
  2
*D8
 70
     1
 10
0.0
 20
0.0
 30
0.0
  3
*D8
  1

  0
LINE
  5
1E89
330
1A8D
100
AcDbEntity
  8
5
370
    -2
100
AcDbLine
 10
2133.287343083394
 20
-860.1060900081012
 30
0.0
 11
2058.389702803194
 21
-860.1060900081012
 31
0.0
  0
LINE
  5
1E8A
330
1A8D
100
AcDbEntity
  8
5
370
    -2
100
AcDbLine
 10
2133.287343083394
 20
-910.106090008101
 30
0.0
 11
2058.389702803194
 21
-910.106090008101
 31
0.0
  0
LINE
  5
1E8B
330
1A8D
100
AcDbEntity
  8
5
370
    -2
100
AcDbLine
 10
2064.389702803194
 20
-875.1060900081013
 30
0.0
 11
2064.389702803194
 21
-895.106090008101
 31
0.0
  0
SOLID
  5
1E8C
330
1A8D
100
AcDbEntity
  8
5
100
AcDbTrace
 10
2061.889702803194
 20
-875.1060900081013
 30
0.0
 11
2066.889702803194
 21
-875.1060900081013
 31
0.0
 12
2064.389702803194
 22
-860.1060900081012
 32
0.0
 13
2064.389702803194
 23
-860.1060900081012
 33
0.0
  0
SOLID
  5
1E8D
330
1A8D
100
AcDbEntity
  8
5
100
AcDbTrace
 10
2061.889702803194
 20
-895.106090008101
 30
0.0
 11
2066.889702803194
 21
-895.106090008101
 31
0.0
 12
2064.389702803194
 22
-910.106090008101
 32
0.0
 13
2064.389702803194
 23
-910.106090008101
 33
0.0
  0
MTEXT
  5
1E8E
330
1A8D
100
AcDbEntity
  8
5
 62
     2
100
AcDbMText
 10
2044.889702803194
 20
-885.1060900081007
 30
0.0
 40
21.0
 41
0.0
 71
     5
 72
     1
  1
50
 11
0.0000000000000001
 21
1.0
 31
0.0
 73
     1
 44
1.0
1001
ACAD
1000
MTEXTBEGIN
1070
    73
1070
     1
1070
    44
1040
1.0
1070
    74
1070
     0
1000
MTEXTEND
  0
POINT
  5
1E8F
330
1A8D
100
AcDbEntity
  8
DEFPOINTS
 62
     0
100
AcDbPoint
 10
2139.287343083394
 20
-860.1060900081012
 30
0.0
  0
POINT
  5
1E90
330
1A8D
100
AcDbEntity
  8
DEFPOINTS
 62
     0
100
AcDbPoint
 10
2139.287343083394
 20
-910.106090008101
 30
0.0
  0
POINT
  5
1E91
330
1A8D
100
AcDbEntity
  8
DEFPOINTS
 62
     0
100
AcDbPoint
 10
2064.389702803194
 20
-910.106090008101
 30
0.0
  0
ENDBLK
  5
1B0E
330
1A8D
100
AcDbEntity
  8
0
100
AcDbBlockEnd
  0
BLOCK
  5
1B0F
330
1A9B
100
AcDbEntity
  8
0
100
AcDbBlockBegin
  2
*D9
 70
     1
 10
0.0
 20
0.0
 30
0.0
  3
*D9
  1

  0
LINE
  5
1E80
330
1A9B
100
AcDbEntity
  8
5
370
    -2
100
AcDbLine
 10
2133.287343083394
 20
-910.106090008101
 30
0.0
 11
2058.389702803194
 21
-910.106090008101
 31
0.0
  0
LINE
  5
1E81
330
1A9B
100
AcDbEntity
  8
5
370
    -2
100
AcDbLine
 10
2133.287343083394
 20
-1010.106090008101
 30
0.0
 11
2058.389702803194
 21
-1010.106090008101
 31
0.0
  0
LINE
  5
1E82
330
1A9B
100
AcDbEntity
  8
5
370
    -2
100
AcDbLine
 10
2064.389702803194
 20
-925.1060900081011
 30
0.0
 11
2064.389702803194
 21
-995.1060900081014
 31
0.0
  0
SOLID
  5
1E83
330
1A9B
100
AcDbEntity
  8
5
100
AcDbTrace
 10
2061.889702803194
 20
-925.1060900081011
 30
0.0
 11
2066.889702803194
 21
-925.1060900081011
 31
0.0
 12
2064.389702803194
 22
-910.106090008101
 32
0.0
 13
2064.389702803194
 23
-910.106090008101
 33
0.0
  0
SOLID
  5
1E84
330
1A9B
100
AcDbEntity
  8
5
100
AcDbTrace
 10
2061.889702803194
 20
-995.1060900081014
 30
0.0
 11
2066.889702803194
 21
-995.1060900081014
 31
0.0
 12
2064.389702803194
 22
-1010.106090008101
 32
0.0
 13
2064.389702803194
 23
-1010.106090008101
 33
0.0
  0
MTEXT
  5
1E85
330
1A9B
100
AcDbEntity
  8
5
 62
     2
100
AcDbMText
 10
2044.889702803194
 20
-960.1060900081009
 30
0.0
 40
21.0
 41
0.0
 71
     5
 72
     1
  1
100
 11
0.0000000000000001
 21
1.0
 31
0.0
 73
     1
 44
1.0
1001
ACAD
1000
MTEXTBEGIN
1070
    73
1070
     1
1070
    44
1040
1.0
1070
    74
1070
     0
1000
MTEXTEND
  0
POINT
  5
1E86
330
1A9B
100
AcDbEntity
  8
DEFPOINTS
 62
     0
100
AcDbPoint
 10
2139.287343083394
 20
-910.106090008101
 30
0.0
  0
POINT
  5
1E87
330
1A9B
100
AcDbEntity
  8
DEFPOINTS
 62
     0
100
AcDbPoint
 10
2139.287343083394
 20
-1010.106090008101
 30
0.0
  0
POINT
  5
1E88
330
1A9B
100
AcDbEntity
  8
DEFPOINTS
 62
     0
100
AcDbPoint
 10
2064.389702803194
 20
-1010.106090008101
 30
0.0
  0
ENDBLK
  5
1B19
330
1A9B
100
AcDbEntity
  8
0
100
AcDbBlockEnd
  0
BLOCK
  5
1C10
330
1C01
100
AcDbEntity
  8
0
100
AcDbBlockBegin
  2
*D10
 70
     1
 10
0.0
 20
0.0
 30
0.0
  3
*D10
  1
GEVFRAME
  0
LINE
  5
1E6A
330
1C01
100
AcDbEntity
  8
5
370
    -2
100
AcDbLine
 10
3402.172790843004
 20
-427.4223732603042
 30
0.0
 11
3474.172790843005
 21
-427.4223732603042
 31
0.0
  0
LINE
  5
1E6B
330
1C01
100
AcDbEntity
  8
5
370
    -2
100
AcDbLine
 10
3402.172790843004
 20
-467.4223732603041
 30
0.0
 11
3474.172790843005
 21
-467.4223732603042
 31
0.0
  0
LINE
  5
1E6C
330
1C01
100
AcDbEntity
  8
5
370
    -2
100
AcDbLine
 10
3468.172790843004
 20
-412.4223732603042
 30
0.0
 11
3468.172790843004
 21
-397.4223732603043
 31
0.0
  0
LINE
  5
1E6D
330
1C01
100
AcDbEntity
  8
5
370
    -2
100
AcDbLine
 10
3468.172790843004
 20
-482.4223732603043
 30
0.0
 11
3468.172790843004
 21
-540.6389086933751
 31
0.0
  0
LINE
  5
1E6E
330
1C01
100
AcDbEntity
  8
5
370
    -2
100
AcDbLine
 10
3468.172790843004
 20
-427.4223732603042
 30
0.0
 11
3468.172790843004
 21
-467.4223732603042
 31
0.0
  0
SOLID
  5
1E6F
330
1C01
100
AcDbEntity
  8
5
100
AcDbTrace
 10
3465.672790843004
 20
-412.4223732603042
 30
0.0
 11
3470.672790843004
 21
-412.4223732603042
 31
0.0
 12
3468.172790843004
 22
-427.4223732603042
 32
0.0
 13
3468.172790843004
 23
-427.4223732603042
 33
0.0
  0
SOLID
  5
1E70
330
1C01
100
AcDbEntity
  8
5
100
AcDbTrace
 10
3465.672790843004
 20
-482.4223732603043
 30
0.0
 11
3470.672790843004
 21
-482.4223732603043
 31
0.0
 12
3468.172790843004
 22
-467.4223732603042
 32
0.0
 13
3468.172790843004
 23
-467.4223732603042
 33
0.0
  0
MTEXT
  5
1E71
330
1C01
100
AcDbEntity
  8
5
 62
     2
100
AcDbMText
 10
3448.672790843004
 20
-519.0306409768391
 30
0.0
 40
21.0
 41
0.0
 71
     5
 72
     1
  1
40
 11
0.0000000000000001
 21
1.0
 31
0.0
 73
     1
 44
1.0
1001
ACAD
1000
MTEXTBEGIN
1070
    73
1070
     1
1070
    44
1040
1.0
1070
    74
1070
     0
1000
MTEXTEND
  0
POINT
  5
1E72
330
1C01
100
AcDbEntity
  8
DEFPOINTS
 62
     0
100
AcDbPoint
 10
3396.172790843004
 20
-427.4223732603042
 30
0.0
  0
POINT
  5
1E73
330
1C01
100
AcDbEntity
  8
DEFPOINTS
 62
     0
100
AcDbPoint
 10
3396.172790843004
 20
-467.4223732603041
 30
0.0
  0
POINT
  5
1E74
330
1C01
100
AcDbEntity
  8
DEFPOINTS
 62
     0
100
AcDbPoint
 10
3468.172790843004
 20
-467.4223732603042
 30
0.0
  0
ENDBLK
  5
1C1C
330
1C01
100
AcDbEntity
  8
0
100
AcDbBlockEnd
  0
BLOCK
  5
1C32
330
1C23
100
AcDbEntity
  8
0
100
AcDbBlockBegin
  2
*D11
 70
     1
 10
0.0
 20
0.0
 30
0.0
  3
*D11
  1
GEVFRAME
  0
LINE
  5
215D
330
1C23
100
AcDbEntity
  8
5
370
    -2
100
AcDbLine
 10
2224.672790842999
 20
-467.4223732603041
 30
0.0
 11
2296.672790842999
 21
-467.4223732603041
 31
0.0
  0
LINE
  5
215E
330
1C23
100
AcDbEntity
  8
5
370
    -2
100
AcDbLine
 10
2218.172790842999
 20
-507.4223732603041
 30
0.0
 11
2296.672790842999
 21
-507.4223732603041
 31
0.0
  0
LINE
  5
215F
330
1C23
100
AcDbEntity
  8
5
370
    -2
100
AcDbLine
 10
2290.672790842998
 20
-452.4223732603042
 30
0.0
 11
2290.672790842998
 21
-437.4223732603041
 31
0.0
  0
LINE
  5
2160
330
1C23
100
AcDbEntity
  8
5
370
    -2
100
AcDbLine
 10
2290.672790842998
 20
-522.422373260304
 30
0.0
 11
2290.672790842998
 21
-580.6389086933749
 31
0.0
  0
LINE
  5
2161
330
1C23
100
AcDbEntity
  8
5
370
    -2
100
AcDbLine
 10
2290.672790842998
 20
-467.4223732603041
 30
0.0
 11
2290.672790842998
 21
-507.4223732603041
 31
0.0
  0
SOLID
  5
2162
330
1C23
100
AcDbEntity
  8
5
100
AcDbTrace
 10
2288.172790842998
 20
-452.4223732603042
 30
0.0
 11
2293.172790842998
 21
-452.4223732603042
 31
0.0
 12
2290.672790842998
 22
-467.4223732603041
 32
0.0
 13
2290.672790842998
 23
-467.4223732603041
 33
0.0
  0
SOLID
  5
2163
330
1C23
100
AcDbEntity
  8
5
100
AcDbTrace
 10
2288.172790842998
 20
-522.422373260304
 30
0.0
 11
2293.172790842998
 21
-522.422373260304
 31
0.0
 12
2290.672790842998
 22
-507.4223732603041
 32
0.0
 13
2290.672790842998
 23
-507.4223732603041
 33
0.0
  0
MTEXT
  5
2164
330
1C23
100
AcDbEntity
  8
5
 62
     2
100
AcDbMText
 10
2271.172790842999
 20
-559.0306409768392
 30
0.0
 40
21.0
 41
0.0
 71
     5
 72
     1
  1
40
 11
0.0000000000000001
 21
1.0
 31
0.0
 73
     1
 44
1.0
1001
ACAD
1000
MTEXTBEGIN
1070
    73
1070
     1
1070
    44
1040
1.0
1070
    74
1070
     0
1000
MTEXTEND
  0
POINT
  5
2165
330
1C23
100
AcDbEntity
  8
DEFPOINTS
 62
     0
100
AcDbPoint
 10
2218.672790842998
 20
-467.4223732603041
 30
0.0
  0
POINT
  5
2166
330
1C23
100
AcDbEntity
  8
DEFPOINTS
 62
     0
100
AcDbPoint
 10
2212.172790842998
 20
-507.4223732603041
 30
0.0
  0
POINT
  5
2167
330
1C23
100
AcDbEntity
  8
DEFPOINTS
 62
     0
100
AcDbPoint
 10
2290.672790842998
 20
-507.4223732603041
 30
0.0
  0
ENDBLK
  5
1C3E
330
1C23
100
AcDbEntity
  8
0
100
AcDbBlockEnd
  0
BLOCK
  5
1C9E
330
1C45
100
AcDbEntity
  8
0
100
AcDbBlockBegin
  2
*D12
 70
     1
 10
0.0
 20
0.0
 30
0.0
  3
*D12
  1
GEVFRAME
  0
LINE
  5
1C9F
330
1C45
100
AcDbEntity
  8
0
  6
ByBlock
100
AcDbLine
 10
2176.172790843004
 20
-411.4223732603042
 30
0.0
 11
2176.172790843004
 21
-339.4223732603042
 31
0.0
  0
LINE
  5
1CA0
330
1C45
100
AcDbEntity
  8
0
  6
ByBlock
100
AcDbLine
 10
2181.172790842999
 20
-414.4223732603132
 30
0.0
 11
2181.172790842999
 21
-339.4223732603042
 31
0.0
  0
LINE
  5
1CA1
330
1C45
100
AcDbEntity
  8
0
  6
ByBlock
100
AcDbLine
 10
2161.172790843004
 20
-345.4223732603042
 30
0.0
 11
2146.172790843004
 21
-345.4223732603042
 31
0.0
  0
LINE
  5
1CA2
330
1C45
100
AcDbEntity
  8
0
  6
ByBlock
100
AcDbLine
 10
2196.172790842999
 20
-345.4223732603042
 30
0.0
 11
2211.172790842999
 21
-345.4223732603042
 31
0.0
  0
LINE
  5
1CA3
330
1C45
100
AcDbEntity
  8
0
  6
ByBlock
100
AcDbLine
 10
2176.172790843004
 20
-345.4223732603042
 30
0.0
 11
2181.172790842999
 21
-345.4223732603042
 31
0.0
  0
SOLID
  5
1CA4
330
1C45
100
AcDbEntity
  8
0
  6
ByBlock
100
AcDbTrace
 10
2161.172790843004
 20
-342.9223732603042
 30
0.0
 11
2161.172790843004
 21
-347.9223732603042
 31
0.0
 12
2176.172790843004
 22
-345.4223732603042
 32
0.0
 13
2176.172790843004
 23
-345.4223732603042
 33
0.0
  0
SOLID
  5
1CA5
330
1C45
100
AcDbEntity
  8
0
  6
ByBlock
100
AcDbTrace
 10
2196.172790842999
 20
-342.9223732603042
 30
0.0
 11
2196.172790842999
 21
-347.9223732603042
 31
0.0
 12
2181.172790842999
 22
-345.4223732603042
 32
0.0
 13
2181.172790842999
 23
-345.4223732603042
 33
0.0
  0
MTEXT
  5
1CA6
330
1C45
100
AcDbEntity
  8
0
  6
ByBlock
 62
   250
100
AcDbMText
 10
2178.672790843001
 20
-325.9223732603042
 30
0.0
 40
21.0
 41
0.0
 71
     5
 72
     5
  1
5
 73
     1
 44
1.0
1001
ACAD
1000
MTEXTBEGIN
1070
    73
1070
     1
1070
    44
1040
1.0
1070
    74
1070
     0
1000
MTEXTEND
  0
POINT
  5
1CA7
330
1C45
100
AcDbEntity
  8
DEFPOINTS
  6
ByBlock
 62
     0
100
AcDbPoint
 10
2176.172790843004
 20
-417.4223732603041
 30
0.0
  0
POINT
  5
1CA8
330
1C45
100
AcDbEntity
  8
DEFPOINTS
  6
ByBlock
 62
     0
100
AcDbPoint
 10
2181.172790842999
 20
-420.4223732603131
 30
0.0
  0
POINT
  5
1CA9
330
1C45
100
AcDbEntity
  8
DEFPOINTS
  6
ByBlock
 62
     0
100
AcDbPoint
 10
2181.172790842999
 20
-345.4223732603042
 30
0.0
  0
ENDBLK
  5
1CAA
330
1C45
100
AcDbEntity
  8
0
100
AcDbBlockEnd
  0
BLOCK
  5
1D30
330
1C63
100
AcDbEntity
  8
0
100
AcDbBlockBegin
  2
*D13
 70
     1
 10
0.0
 20
0.0
 30
0.0
  3
*D13
  1
GEVFRAME
  0
LINE
  5
1E61
330
1C63
100
AcDbEntity
  8
5
370
    -2
100
AcDbLine
 10
2181.172790842999
 20
-424.4223732603131
 30
0.0
 11
2181.172790842999
 21
-349.4223732603042
 31
0.0
  0
LINE
  5
1E62
330
1C63
100
AcDbEntity
  8
5
370
    -2
100
AcDbLine
 10
3391.172790842999
 20
-424.4223732603042
 30
0.0
 11
3391.172790842999
 21
-349.4223732603042
 31
0.0
  0
LINE
  5
1E63
330
1C63
100
AcDbEntity
  8
5
370
    -2
100
AcDbLine
 10
2196.172790842999
 20
-355.4223732603042
 30
0.0
 11
3376.172790842999
 21
-355.4223732603042
 31
0.0
  0
SOLID
  5
1E64
330
1C63
100
AcDbEntity
  8
5
100
AcDbTrace
 10
2196.172790842999
 20
-352.9223732603042
 30
0.0
 11
2196.172790842999
 21
-357.9223732603042
 31
0.0
 12
2181.172790842999
 22
-355.4223732603042
 32
0.0
 13
2181.172790842999
 23
-355.4223732603042
 33
0.0
  0
SOLID
  5
1E65
330
1C63
100
AcDbEntity
  8
5
100
AcDbTrace
 10
3376.172790842999
 20
-352.9223732603042
 30
0.0
 11
3376.172790842999
 21
-357.9223732603042
 31
0.0
 12
3391.172790842999
 22
-355.4223732603042
 32
0.0
 13
3391.172790842999
 23
-355.4223732603042
 33
0.0
  0
MTEXT
  5
1E66
330
1C63
100
AcDbEntity
  8
5
 62
     2
100
AcDbMText
 10
2786.172790842999
 20
-335.9203063311704
 30
0.0
 40
21.0
 41
0.0
 71
     5
 72
     1
  1
1210
 73
     1
 44
1.0
1001
ACAD
1000
MTEXTBEGIN
1070
    73
1070
     1
1070
    44
1040
1.0
1070
    74
1070
     0
1000
MTEXTEND
  0
POINT
  5
1E67
330
1C63
100
AcDbEntity
  8
DEFPOINTS
 62
     0
100
AcDbPoint
 10
2181.172790842999
 20
-430.4223732603132
 30
0.0
  0
POINT
  5
1E68
330
1C63
100
AcDbEntity
  8
DEFPOINTS
 62
     0
100
AcDbPoint
 10
3391.172790842999
 20
-430.4223732603041
 30
0.0
  0
POINT
  5
1E69
330
1C63
100
AcDbEntity
  8
DEFPOINTS
 62
     0
100
AcDbPoint
 10
3391.172790842999
 20
-355.4223732603042
 30
0.0
  0
ENDBLK
  5
1D3A
330
1C63
100
AcDbEntity
  8
0
100
AcDbBlockEnd
  0
BLOCK
  5
1D04
330
1CB8
100
AcDbEntity
  8
0
100
AcDbBlockBegin
  2
*D14
 70
     1
 10
0.0
 20
0.0
 30
0.0
  3
*D14
  1
GEVFRAME
  0
LINE
  5
1D05
330
1CB8
100
AcDbEntity
  8
0
  6
ByBlock
100
AcDbLine
 10
3391.172790842999
 20
-414.4223732603042
 30
0.0
 11
3391.172790842999
 21
-339.4223732603042
 31
0.0
  0
LINE
  5
1D06
330
1CB8
100
AcDbEntity
  8
0
  6
ByBlock
100
AcDbLine
 10
3396.172790842999
 20
-411.4223732603042
 30
0.0
 11
3396.172790842999
 21
-339.4223732603042
 31
0.0
  0
LINE
  5
1D07
330
1CB8
100
AcDbEntity
  8
0
  6
ByBlock
100
AcDbLine
 10
3376.172790842999
 20
-345.4223732603042
 30
0.0
 11
3361.172790842999
 21
-345.4223732603042
 31
0.0
  0
LINE
  5
1D08
330
1CB8
100
AcDbEntity
  8
0
  6
ByBlock
100
AcDbLine
 10
3411.172790842999
 20
-345.4223732603042
 30
0.0
 11
3426.172790842999
 21
-345.4223732603042
 31
0.0
  0
LINE
  5
1D09
330
1CB8
100
AcDbEntity
  8
0
  6
ByBlock
100
AcDbLine
 10
3391.172790842999
 20
-345.4223732603042
 30
0.0
 11
3396.172790842999
 21
-345.4223732603042
 31
0.0
  0
SOLID
  5
1D0A
330
1CB8
100
AcDbEntity
  8
0
  6
ByBlock
100
AcDbTrace
 10
3376.172790842999
 20
-342.9223732603042
 30
0.0
 11
3376.172790842999
 21
-347.9223732603042
 31
0.0
 12
3391.172790842999
 22
-345.4223732603042
 32
0.0
 13
3391.172790842999
 23
-345.4223732603042
 33
0.0
  0
SOLID
  5
1D0B
330
1CB8
100
AcDbEntity
  8
0
  6
ByBlock
100
AcDbTrace
 10
3411.172790842999
 20
-342.9223732603042
 30
0.0
 11
3411.172790842999
 21
-347.9223732603042
 31
0.0
 12
3396.172790842999
 22
-345.4223732603042
 32
0.0
 13
3396.172790842999
 23
-345.4223732603042
 33
0.0
  0
MTEXT
  5
1D0C
330
1CB8
100
AcDbEntity
  8
0
  6
ByBlock
 62
   250
100
AcDbMText
 10
3393.672790842999
 20
-325.9223732603042
 30
0.0
 40
21.0
 41
0.0
 71
     5
 72
     5
  1
5
 73
     1
 44
1.0
1001
ACAD
1000
MTEXTBEGIN
1070
    73
1070
     1
1070
    44
1040
1.0
1070
    74
1070
     0
1000
MTEXTEND
  0
POINT
  5
1D0D
330
1CB8
100
AcDbEntity
  8
DEFPOINTS
  6
ByBlock
 62
     0
100
AcDbPoint
 10
3391.172790842999
 20
-420.4223732603042
 30
0.0
  0
POINT
  5
1D0E
330
1CB8
100
AcDbEntity
  8
DEFPOINTS
  6
ByBlock
 62
     0
100
AcDbPoint
 10
3396.172790842999
 20
-417.4223732603041
 30
0.0
  0
POINT
  5
1D0F
330
1CB8
100
AcDbEntity
  8
DEFPOINTS
  6
ByBlock
 62
     0
100
AcDbPoint
 10
3396.172790842999
 20
-345.4223732603042
 30
0.0
  0
ENDBLK
  5
1D10
330
1CB8
100
AcDbEntity
  8
0
100
AcDbBlockEnd
  0
BLOCK
  5
1D3B
330
1D18
100
AcDbEntity
  8
0
100
AcDbBlockBegin
  2
*D15
 70
     1
 10
0.0
 20
0.0
 30
0.0
  3
*D15
  1
GEVFRAME
  0
LINE
  5
1E58
330
1D18
100
AcDbEntity
  8
5
370
    -2
100
AcDbLine
 10
3396.172790842999
 20
-421.4223732603041
 30
0.0
 11
3396.172790842999
 21
-289.4223732603042
 31
0.0
  0
LINE
  5
1E59
330
1D18
100
AcDbEntity
  8
5
370
    -2
100
AcDbLine
 10
2176.172790842999
 20
-421.4223732603041
 30
0.0
 11
2176.172790842999
 21
-289.4223732603042
 31
0.0
  0
LINE
  5
1E5A
330
1D18
100
AcDbEntity
  8
5
370
    -2
100
AcDbLine
 10
3381.172790842999
 20
-295.4223732603042
 30
0.0
 11
2191.172790842999
 21
-295.4223732603042
 31
0.0
  0
SOLID
  5
1E5B
330
1D18
100
AcDbEntity
  8
5
100
AcDbTrace
 10
3381.172790842999
 20
-292.9223732603042
 30
0.0
 11
3381.172790842999
 21
-297.9223732603042
 31
0.0
 12
3396.172790842999
 22
-295.4223732603042
 32
0.0
 13
3396.172790842999
 23
-295.4223732603042
 33
0.0
  0
SOLID
  5
1E5C
330
1D18
100
AcDbEntity
  8
5
100
AcDbTrace
 10
2191.172790842999
 20
-292.9223732603042
 30
0.0
 11
2191.172790842999
 21
-297.9223732603042
 31
0.0
 12
2176.172790842999
 22
-295.4223732603042
 32
0.0
 13
2176.172790842999
 23
-295.4223732603042
 33
0.0
  0
MTEXT
  5
1E5D
330
1D18
100
AcDbEntity
  8
5
 62
     2
100
AcDbMText
 10
2786.172790842999
 20
-275.9203063311703
 30
0.0
 40
21.0
 41
0.0
 71
     5
 72
     1
  1
1220
 73
     1
 44
1.0
1001
ACAD
1000
MTEXTBEGIN
1070
    73
1070
     1
1070
    44
1040
1.0
1070
    74
1070
     0
1000
MTEXTEND
  0
POINT
  5
1E5E
330
1D18
100
AcDbEntity
  8
DEFPOINTS
 62
     0
100
AcDbPoint
 10
3396.172790842999
 20
-427.4223732603042
 30
0.0
  0
POINT
  5
1E5F
330
1D18
100
AcDbEntity
  8
DEFPOINTS
 62
     0
100
AcDbPoint
 10
2176.172790842999
 20
-427.4223732603042
 30
0.0
  0
POINT
  5
1E60
330
1D18
100
AcDbEntity
  8
DEFPOINTS
 62
     0
100
AcDbPoint
 10
2176.172790842999
 20
-295.4223732603042
 30
0.0
  0
ENDBLK
  5
1D45
330
1D18
100
AcDbEntity
  8
0
100
AcDbBlockEnd
  0
BLOCK
  5
1DB7
330
1DB5
100
AcDbEntity
  8
0
100
AcDbBlockBegin
  2
GENAXEH
 70
     0
 10
0.0
 20
0.0
 30
0.0
  3
GENAXEH
  1

  0
LINE
  5
1DB6
330
1DB5
100
AcDbEntity
  8
0
100
AcDbLine
 10
-1.0
 20
0.0
 30
0.0
 11
1.0
 21
0.0
 31
0.0
  0
ENDBLK
  5
1DB8
330
1DB5
100
AcDbEntity
  8
0
100
AcDbBlockEnd
  0
BLOCK
  5
1E9F
330
1E9E
100
AcDbEntity
  8
0
100
AcDbBlockBegin
  2
_Open30
 70
     0
 10
0.0
 20
0.0
 30
0.0
  3
_Open30
  1

  0
LINE
  5
1EA0
330
1E9E
100
AcDbEntity
  8
0
  6
ByBlock
 62
     0
370
    -2
100
AcDbLine
 10
-1.0
 20
0.26794919
 30
0.0
 11
0.0
 21
0.0
 31
0.0
  0
LINE
  5
1EA1
330
1E9E
100
AcDbEntity
  8
0
  6
ByBlock
 62
     0
370
    -2
100
AcDbLine
 10
0.0
 20
0.0
 30
0.0
 11
-1.0
 21
-0.26794919
 31
0.0
  0
LINE
  5
1EA2
330
1E9E
100
AcDbEntity
  8
0
  6
ByBlock
 62
     0
370
    -2
100
AcDbLine
 10
0.0
 20
0.0
 30
0.0
 11
-1.0
 21
0.0
 31
0.0
  0
ENDBLK
  5
1EA3
330
1E9E
100
AcDbEntity
  8
0
100
AcDbBlockEnd
  0
BLOCK
  5
1EA5
330
1EA4
100
AcDbEntity
  8
0
100
AcDbBlockBegin
  2
IGS2
 70
     2
 10
0.0
 20
0.0
 30
0.0
  3
IGS2
  1

  0
POINT
  5
1EA6
330
1EA4
100
AcDbEntity
  8
0
 60
     1
100
AcDbPoint
 10
0.0
 20
0.0
 30
0.0
1001
GENIUS_GENODEF_13
1002
{
1000
HIER
1070
     1
1002
}
1002
{
1000
MANEDIT
1070
     0
1002
}
1002
{
1000
NOSEL
1070
     0
1002
}
1002
{
1000
BEHIND
1070
     0
1002
}
1002
{
1000
REACTOR
1002
}
1001
GENIUS_GENTITLE_13
1002
{
1000
SCALE
1000
1:1
1002
}
1002
{
1000
BORDER
1000
IGS-A4
1002
}
1002
{
1000
TITLE
1000
IGS-TITLE
1002
}
1002
{
1000
UNCHG
1002
{
1000
GEN-TITLE-SCA
1000
GEN-TITLE-SIZ
1002
}
1002
}
1002
{
1000
HRA
1005
0
1002
}
1002
{
1000
HTIT
1005
0
1002
}
1002
{
1000
GENIUSID
1005
1EA6
1002
}
1001
GENIUS_GENOBJ-N-TIT_13
1002
{
1000
OWNER
1000
GEN
1002
}
1001
GENIUS_GENOENT_13
1002
{
1000
MYREF
1005
1EA6
1002
}
1002
{
1000
GRP
1005
0
1002
}
1001
GENIUS_GENOLIS_13
1002
{
1000
ENT
1005
0
1005
0
1002
}
  0
LINE
  5
1EA7
330
1EA4
100
AcDbEntity
  8
RAHM3
100
AcDbLine
 10
-148.4080564410193
 20
8.825237325416161
 30
52.0
 11
-145.4319868410194
 21
8.825237325416161
 31
52.0
  0
ARC
  5
1EA8
330
1EA4
100
AcDbEntity
  8
RAHM3
100
AcDbCircle
 10
-141.4638940410194
 20
7.833214125416168
 30
52.0
 40
0.9920232
100
AcDbArc
 50
90.0
 51
180.0
  0
LINE
  5
1EA9
330
1EA4
100
AcDbEntity
  8
RAHM3
100
AcDbLine
 10
-137.6611384410193
 20
8.825237325416161
 30
52.0
 11
-141.4638940410194
 21
8.825237325416161
 31
52.0
  0
ARC
  5
1EAA
330
1EA4
100
AcDbEntity
  8
RAHM3
100
AcDbCircle
 10
-137.6611384410193
 20
7.833214125416168
 30
52.0
 40
0.9920232
100
AcDbArc
 50
0.0
 51
90.0
  0
ARC
  5
1EAB
330
1EA4
100
AcDbEntity
  8
RAHM3
100
AcDbCircle
 10
-129.0636040410194
 20
7.833214125416168
 30
52.0
 40
0.9920232
100
AcDbArc
 50
0.0
 51
90.0
  0
LINE
  5
1EAC
330
1EA4
100
AcDbEntity
  8
RAHM3
100
AcDbLine
 10
-132.7010224410193
 20
8.825237325416161
 30
52.0
 11
-129.0636040410194
 21
8.825237325416161
 31
52.0
  0
ARC
  5
1EAD
330
1EA4
100
AcDbEntity
  8
RAHM3
100
AcDbCircle
 10
-132.7010224410193
 20
7.833214125416168
 30
52.0
 40
0.9920232
100
AcDbArc
 50
90.0
 51
180.0
  0
LINE
  5
1EAE
330
1EA4
100
AcDbEntity
  8
RAHM3
100
AcDbLine
 10
-148.4080564410193
 20
8.163888525416165
 30
52.0
 11
-147.5813704410193
 21
8.163888525416165
 31
52.0
  0
LINE
  5
1EAF
330
1EA4
100
AcDbEntity
  8
RAHM3
100
AcDbLine
 10
-147.5813704410193
 20
8.163888525416165
 30
52.0
 11
-147.5813704410193
 21
3.865121325416145
 31
52.0
  0
LINE
  5
1EB0
330
1EA4
100
AcDbEntity
  8
RAHM3
100
AcDbLine
 10
-146.2586728410194
 20
3.865121325416145
 30
52.0
 11
-146.2586728410194
 21
8.163888525416165
 31
52.0
  0
LINE
  5
1EB1
330
1EA4
100
AcDbEntity
  8
RAHM3
100
AcDbLine
 10
-146.2586728410194
 20
8.163888525416165
 30
52.0
 11
-145.4319868410194
 21
8.163888525416165
 31
52.0
  0
LINE
  5
1EB2
330
1EA4
100
AcDbEntity
  8
RAHM3
100
AcDbLine
 10
-145.4319868410194
 20
8.825237325416161
 30
52.0
 11
-145.4319868410194
 21
8.163888525416165
 31
52.0
  0
LINE
  5
1EB3
330
1EA4
100
AcDbEntity
  8
RAHM3
100
AcDbLine
 10
-148.4080564410193
 20
8.163888525416165
 30
52.0
 11
-148.4080564410193
 21
8.825237325416161
 31
52.0
  0
LINE
  5
1EB4
330
1EA4
100
AcDbEntity
  8
RAHM3
100
AcDbLine
 10
-145.4319868410194
 20
3.203772525416149
 30
52.0
 11
-148.4080564410193
 21
3.203772525416149
 31
52.0
  0
CIRCLE
  5
1EB5
330
1EA4
100
AcDbEntity
  8
RAHM3
100
AcDbCircle
 10
-144.1092892410194
 20
3.865121325416145
 30
52.0
 40
0.6613488000000001
  0
LINE
  5
1EB6
330
1EA4
100
AcDbEntity
  8
RAHM3
100
AcDbLine
 10
-137.9918128410194
 20
3.865121325416145
 30
52.0
 11
-137.9918128410194
 21
3.203772525416149
 31
52.0
  0
LINE
  5
1EB7
330
1EA4
100
AcDbEntity
  8
RAHM3
100
AcDbLine
 10
-137.9918128410194
 20
3.203772525416149
 30
52.0
 11
-136.6691152410193
 21
3.203772525416149
 31
52.0
  0
ARC
  5
1EB8
330
1EA4
100
AcDbEntity
  8
RAHM3
100
AcDbCircle
 10
-141.4638940410194
 20
4.195795725416166
 30
52.0
 40
0.9920232
100
AcDbArc
 50
180.0
 51
270.0
  0
LINE
  5
1EB9
330
1EA4
100
AcDbEntity
  8
RAHM3
100
AcDbLine
 10
-141.4638940410194
 20
3.203772525416149
 30
52.0
 11
-141.1332196410193
 21
3.203772525416149
 31
52.0
  0
LINE
  5
1EBA
330
1EA4
100
AcDbEntity
  8
RAHM3
100
AcDbLine
 10
-142.4559172410194
 20
4.195795725416166
 30
52.0
 11
-142.4559172410194
 21
7.833214125416168
 31
52.0
  0
CIRCLE
  5
1EBB
330
1EA4
100
AcDbEntity
  8
RAHM3
100
AcDbCircle
 10
-135.5117548410193
 20
3.865121325416145
 30
52.0
 40
0.6613488000000001
  0
ARC
  5
1EBC
330
1EA4
100
AcDbEntity
  8
RAHM3
100
AcDbCircle
 10
-132.7010224410193
 20
4.195795725416166
 30
52.0
 40
0.9920232
100
AcDbArc
 50
180.0
 51
270.0
  0
LINE
  5
1EBD
330
1EA4
100
AcDbEntity
  8
RAHM3
100
AcDbLine
 10
-129.0636040410194
 20
3.203772525416149
 30
52.0
 11
-132.7010224410193
 21
3.203772525416149
 31
52.0
  0
ARC
  5
1EBE
330
1EA4
100
AcDbEntity
  8
RAHM3
100
AcDbCircle
 10
-129.0636040410194
 20
4.195795725416166
 30
52.0
 40
0.9920232
100
AcDbArc
 50
270.0
 51
0.0
  0
LINE
  5
1EBF
330
1EA4
100
AcDbEntity
  8
RAHM3
100
AcDbLine
 10
-133.6930456410194
 20
4.195795725416166
 30
52.0
 11
-133.6930456410194
 21
5.022481725416161
 31
52.0
  0
LINE
  5
1EC0
330
1EA4
100
AcDbEntity
  8
RAHM3
100
AcDbLine
 10
-128.0715808410194
 20
7.833214125416168
 30
52.0
 11
-128.0715808410194
 21
7.00652812541615
 31
52.0
  0
CIRCLE
  5
1EC1
330
1EA4
100
AcDbEntity
  8
RAHM3
100
AcDbCircle
 10
-126.9142204410194
 20
3.865121325416145
 30
52.0
 40
0.6613488000000001
  0
LINE
  5
1EC2
330
1EA4
100
AcDbEntity
  8
RAHM3
100
AcDbLine
 10
-136.6691152410193
 20
7.171865325416149
 30
52.0
 11
-137.8264756410194
 21
7.171865325416149
 31
52.0
  0
LINE
  5
1EC3
330
1EA4
100
AcDbEntity
  8
RAHM3
100
AcDbLine
 10
-137.8264756410194
 20
7.171865325416149
 30
52.0
 11
-137.8264756410194
 21
7.667876925416146
 31
52.0
  0
LINE
  5
1EC4
330
1EA4
100
AcDbEntity
  8
RAHM3
100
AcDbLine
 10
-137.8264756410194
 20
7.667876925416146
 30
52.0
 11
-141.2985568410193
 21
7.667876925416146
 31
52.0
  0
LINE
  5
1EC5
330
1EA4
100
AcDbEntity
  8
RAHM3
100
AcDbLine
 10
-141.2985568410193
 20
7.667876925416146
 30
52.0
 11
-141.2985568410193
 21
4.361132925416165
 31
52.0
  0
LINE
  5
1EC6
330
1EA4
100
AcDbEntity
  8
RAHM3
100
AcDbLine
 10
-137.8264756410194
 20
5.518493325416158
 30
52.0
 11
-139.4798476410193
 21
5.518493325416158
 31
52.0
  0
LINE
  5
1EC7
330
1EA4
100
AcDbEntity
  8
RAHM3
100
AcDbLine
 10
-139.4798476410193
 20
5.518493325416158
 30
52.0
 11
-139.4798476410193
 21
6.510516525416153
 31
52.0
  0
LINE
  5
1EC8
330
1EA4
100
AcDbEntity
  8
RAHM3
100
AcDbLine
 10
-136.6691152410193
 20
7.171865325416149
 30
52.0
 11
-136.6691152410193
 21
7.833214125416168
 31
52.0
  0
LINE
  5
1EC9
330
1EA4
100
AcDbEntity
  8
RAHM3
100
AcDbLine
 10
-137.8264756410194
 20
5.022481725416161
 30
52.0
 11
-137.8264756410194
 21
5.518493325416158
 31
52.0
  0
LINE
  5
1ECA
330
1EA4
100
AcDbEntity
  8
RAHM3
100
AcDbLine
 10
-137.6611384410193
 20
6.510516525416153
 30
52.0
 11
-139.4798476410193
 21
6.510516525416153
 31
52.0
  0
LINE
  5
1ECB
330
1EA4
100
AcDbEntity
  8
RAHM3
100
AcDbLine
 10
-136.6691152410193
 20
5.518493325416158
 30
52.0
 11
-136.6691152410193
 21
3.203772525416149
 31
52.0
  0
ARC
  5
1ECC
330
1EA4
100
AcDbEntity
  8
RAHM3
100
AcDbCircle
 10
-137.6611384410193
 20
5.518493325416158
 30
52.0
 40
0.9920232
100
AcDbArc
 50
0.0
 51
90.0
  0
LINE
  5
1ECD
330
1EA4
100
AcDbEntity
  8
RAHM3
100
AcDbLine
 10
-139.1930809214994
 20
5.022481725416161
 30
52.0
 11
-137.8264756410194
 21
5.022481725416161
 31
52.0
  0
ARC
  5
1ECE
330
1EA4
100
AcDbEntity
  8
RAHM3
100
AcDbCircle
 10
-139.1930809214994
 20
4.030458525416167
 30
52.0
 40
0.9920232
100
AcDbArc
 50
90.0
 51
119.7448812969
  0
LINE
  5
1ECF
330
1EA4
100
AcDbEntity
  8
RAHM3
100
AcDbLine
 10
-140.8773334868594
 20
4.361132925416165
 30
52.0
 11
-141.2985568410193
 21
4.361132925416165
 31
52.0
  0
LINE
  5
1ED0
330
1EA4
100
AcDbEntity
  8
RAHM3
100
AcDbLine
 10
-140.3851521495794
 20
4.491838785176161
 30
52.0
 11
-139.6852622587794
 21
4.891775865576152
 31
52.0
  0
ARC
  5
1ED1
330
1EA4
100
AcDbEntity
  8
RAHM3
100
AcDbCircle
 10
-140.8773334868594
 20
5.35315612541616
 30
52.0
 40
0.9920232
100
AcDbArc
 50
270.0
 51
299.7448812969
  0
ARC
  5
1ED2
330
1EA4
100
AcDbEntity
  8
RAHM3
100
AcDbCircle
 10
-138.8857271583794
 20
2.873098125416151
 30
52.0
 40
0.9920232
100
AcDbArc
 50
90.0
 51
119.7448812969
  0
LINE
  5
1ED3
330
1EA4
100
AcDbEntity
  8
RAHM3
100
AcDbLine
 10
-140.5699797237394
 20
3.203772525416149
 30
52.0
 11
-141.4638940410194
 21
3.203772525416149
 31
52.0
  0
ARC
  5
1ED4
330
1EA4
100
AcDbEntity
  8
RAHM3
100
AcDbCircle
 10
-140.5699797237394
 20
4.195795725416166
 30
52.0
 40
0.9920232
100
AcDbArc
 50
270.0
 51
299.7448812969
  0
LINE
  5
1ED5
330
1EA4
100
AcDbEntity
  8
RAHM3
100
AcDbLine
 10
-139.3779084956594
 20
3.734415465576159
 30
52.0
 11
-140.0777983864594
 21
3.334478385176168
 31
52.0
  0
LINE
  5
1ED6
330
1EA4
100
AcDbEntity
  8
RAHM3
100
AcDbLine
 10
-138.8857271583794
 20
3.865121325416145
 30
52.0
 11
-137.9918128410194
 21
3.865121325416145
 31
52.0
  0
LINE
  5
1ED7
330
1EA4
100
AcDbEntity
  8
RAHM3
100
AcDbLine
 10
-147.5813704410193
 20
3.865121325416145
 30
52.0
 11
-148.4080564410193
 21
3.865121325416145
 31
52.0
  0
LINE
  5
1ED8
330
1EA4
100
AcDbEntity
  8
RAHM3
100
AcDbLine
 10
-146.2586728410194
 20
3.865121325416145
 30
52.0
 11
-145.4319868410194
 21
3.865121325416145
 31
52.0
  0
LINE
  5
1ED9
330
1EA4
100
AcDbEntity
  8
RAHM3
100
AcDbLine
 10
-148.4080564410193
 20
3.203772525416149
 30
52.0
 11
-148.4080564410193
 21
3.865121325416145
 31
52.0
  0
LINE
  5
1EDA
330
1EA4
100
AcDbEntity
  8
RAHM3
100
AcDbLine
 10
-145.4319868410194
 20
3.865121325416145
 30
52.0
 11
-145.4319868410194
 21
3.203772525416149
 31
52.0
  0
LINE
  5
1EDB
330
1EA4
100
AcDbEntity
  8
RAHM3
100
AcDbLine
 10
-132.5356852410194
 20
7.667876925416146
 30
52.0
 11
-129.2289412410193
 21
7.667876925416146
 31
52.0
  0
LINE
  5
1EDC
330
1EA4
100
AcDbEntity
  8
RAHM3
100
AcDbLine
 10
-129.2289412410193
 20
7.667876925416146
 30
52.0
 11
-129.2289412410193
 21
7.00652812541615
 31
52.0
  0
LINE
  5
1EDD
330
1EA4
100
AcDbEntity
  8
RAHM3
100
AcDbLine
 10
-132.5356852410194
 20
5.022481725416161
 30
52.0
 11
-132.5356852410194
 21
4.361132925416165
 31
52.0
  0
LINE
  5
1EDE
330
1EA4
100
AcDbEntity
  8
RAHM3
100
AcDbLine
 10
-132.5356852410194
 20
4.361132925416165
 30
52.0
 11
-129.2289412410193
 21
4.361132925416165
 31
52.0
  0
LINE
  5
1EDF
330
1EA4
100
AcDbEntity
  8
RAHM3
100
AcDbLine
 10
-132.5356852410194
 20
5.022481725416161
 30
52.0
 11
-133.6930456410194
 21
5.022481725416161
 31
52.0
  0
LINE
  5
1EE0
330
1EA4
100
AcDbEntity
  8
RAHM3
100
AcDbLine
 10
-128.0715808410194
 20
7.00652812541615
 30
52.0
 11
-129.2289412410193
 21
7.00652812541615
 31
52.0
  0
LINE
  5
1EE1
330
1EA4
100
AcDbEntity
  8
RAHM3
100
AcDbLine
 10
-129.2289412410193
 20
4.361132925416165
 30
52.0
 11
-129.2289412410193
 21
5.518493325416158
 31
52.0
  0
LINE
  5
1EE2
330
1EA4
100
AcDbEntity
  8
RAHM3
100
AcDbLine
 10
-132.5356852410194
 20
6.510516525416153
 30
52.0
 11
-132.5356852410194
 21
7.667876925416146
 31
52.0
  0
LINE
  5
1EE3
330
1EA4
100
AcDbEntity
  8
RAHM3
100
AcDbLine
 10
-128.0715808410194
 20
5.518493325416158
 30
52.0
 11
-128.0715808410194
 21
4.195795725416166
 31
52.0
  0
LINE
  5
1EE4
330
1EA4
100
AcDbEntity
  8
RAHM3
100
AcDbLine
 10
-129.0636040410194
 20
6.510516525416153
 30
52.0
 11
-132.5356852410194
 21
6.510516525416153
 31
52.0
  0
ARC
  5
1EE5
330
1EA4
100
AcDbEntity
  8
RAHM3
100
AcDbCircle
 10
-129.0636040410194
 20
5.518493325416158
 30
52.0
 40
0.9920232
100
AcDbArc
 50
0.0
 51
90.0
  0
LINE
  5
1EE6
330
1EA4
100
AcDbEntity
  8
RAHM3
100
AcDbLine
 10
-132.7010224411794
 20
5.518493325416158
 30
52.0
 11
-129.2289412410193
 21
5.518493325416158
 31
52.0
  0
LINE
  5
1EE7
330
1EA4
100
AcDbEntity
  8
RAHM3
100
AcDbLine
 10
-133.6930456410194
 20
6.510516525416153
 30
52.0
 11
-133.6930456410194
 21
7.833214125416168
 31
52.0
  0
ARC
  5
1EE8
330
1EA4
100
AcDbEntity
  8
RAHM3
100
AcDbCircle
 10
-132.7010224411794
 20
6.510516525416153
 30
52.0
 40
0.9920232
100
AcDbArc
 50
180.0
 51
270.0
  0
POINT
  5
1EE9
330
1EA4
100
AcDbEntity
  8
0
 60
     1
100
AcDbPoint
 10
0.0
 20
0.0
 30
0.0
1001
GENIUS_GENODEF_13
1002
{
1000
HIER
1070
     1
1002
}
1002
{
1000
MANEDIT
1070
     0
1002
}
1002
{
1000
NOSEL
1070
     0
1002
}
1002
{
1000
BEHIND
1070
     0
1002
}
1002
{
1000
REACTOR
1002
}
1001
GENIUS_GENTITLE_13
1002
{
1000
SCALE
1000
1:1
1002
}
1002
{
1000
BORDER
1000
GEN_A4
1002
}
1002
{
1000
TITLE
1000
GENTITUS
1002
}
1002
{
1000
UNCHG
1002
{
1000
GEN-TITLE-SCA
1000
GEN-TITLE-SIZ
1002
}
1002
}
1002
{
1000
HRA
1005
0
1002
}
1002
{
1000
HTIT
1005
0
1002
}
1002
{
1000
GENIUSID
1005
1EE9
1002
}
1001
GENIUS_GENOBJ-N-TIT_13
1002
{
1000
OWNER
1000
GEN
1002
}
1001
GENIUS_GENOENT_13
1002
{
1000
MYREF
1005
1EE9
1002
}
1002
{
1000
GRP
1005
0
1002
}
1001
GENIUS_GENOLIS_13
1002
{
1000
ENT
1005
0
1005
0
1002
}
  0
TEXT
  5
1EEA
330
1EA4
100
AcDbEntity
  8
0
 60
     1
100
AcDbText
 10
210.0
 20
297.0
 30
0.0
 40
3.5
  1
!GENTITLE-MAX
100
AcDbText
  0
TEXT
  5
1EEB
330
1EA4
100
AcDbEntity
  8
0
 60
     1
100
AcDbText
 10
205.0
 20
287.0
 30
0.0
 40
3.5
  1
!GENTITLE-RU
100
AcDbText
  0
TEXT
  5
1EEC
330
1EA4
100
AcDbEntity
  8
0
 60
     1
100
AcDbText
 10
15.0
 20
59.99
 30
0.0
 40
3.5
  1
!GENTITLE-LL
100
AcDbText
  0
TEXT
  5
1EED
330
1EA4
100
AcDbEntity
  8
0
 60
     1
100
AcDbText
 10
205.0
 20
5.0
 30
0.0
 40
3.5
  1
!GENTITLE-INSERT
100
AcDbText
  0
LINE
  5
1EEE
330
1EA4
100
AcDbEntity
  8
RAHM2
100
AcDbLine
 10
-155.0
 20
12.0
 30
0.0
 11
0.0
 21
12.0
 31
0.0
  0
LINE
  5
1EEF
330
1EA4
100
AcDbEntity
  8
RAHM2
100
AcDbLine
 10
-12.0
 20
12.0
 30
0.0
 11
-12.00000000000727
 21
0.0
 31
0.0
  0
LINE
  5
1EF0
330
1EA4
100
AcDbEntity
  8
RAHM2
100
AcDbLine
 10
-80.0
 20
19.99999999999272
 30
0.0
 11
0.0
 21
20.0
 31
0.0
  0
LINE
  5
1EF1
330
1EA4
100
AcDbEntity
  8
RAHM2
100
AcDbLine
 10
0.0
 20
27.0
 30
0.0
 11
-80.0
 21
27.0
 31
0.0
  0
MTEXT
  5
1EF2
330
1EA4
100
AcDbEntity
  8
RAHM2
100
AcDbMText
 10
-78.39748281353763
 20
37.79972226353243
 30
0.0
 40
2.5
 41
2.458156240282278
 71
     1
 72
     5
  1

 73
     1
 44
1.0
1001
ACAD
1000
MTEXTBEGIN
1070
    73
1070
     1
1070
    44
1040
1.0
1070
    74
1070
     0
1000
MTEXTEND
  0
TEXT
  5
1EF3
330
1EA4
100
AcDbEntity
  8
RAHM3
100
AcDbText
 10
-79.00900277736832
 20
36.89804600214973
 30
0.0
 40
2.299999999999999
  1
名称 ＴＩＴＬＥ
 41
0.8
100
AcDbText
  0
LINE
  5
1EF4
330
1EA4
100
AcDbEntity
  8
RAHM2
100
AcDbLine
 10
-80.0
 20
40.00000000000727
 30
0.0
 11
-80.0
 21
0.0
 31
0.0
  0
TEXT
  5
1EF5
330
1EA4
100
AcDbEntity
  8
RAHM3
100
AcDbText
 10
-79.00900277736832
 20
23.89804600216055
 30
0.0
 40
2.299999999999999
  1
符号 
 41
0.8
100
AcDbText
  0
TEXT
  5
1EF6
330
1EA4
100
AcDbEntity
  8
RAHM3
100
AcDbText
 10
-79.00900277736832
 20
16.89804600215146
 30
0.0
 40
2.299999999999999
  1
件名
 41
0.8
100
AcDbText
  0
TEXT
  5
1EF7
330
1EA4
100
AcDbEntity
  8
RAHM3
100
AcDbText
 10
-79.00900277736832
 20
8.898046002160548
 30
0.0
 40
2.299999999999999
  1
図番 ＤＲＡＷＩＮＧ ＮＯ．
 41
0.8
100
AcDbText
  0
CIRCLE
  5
1EF8
330
1EA4
100
AcDbEntity
  8
RAHM2
100
AcDbCircle
 10
-5.0
 20
5.0
 30
0.0
 40
4.5
  0
LINE
  5
1EF9
330
1EA4
100
AcDbEntity
  8
RAHM2
100
AcDbLine
 10
-130.0000000000018
 20
40.00000000000916
 30
0.0
 11
-130.0000000000018
 21
12.0
 31
0.0
  0
LINE
  5
1EFA
330
1EA4
100
AcDbEntity
  8
RAHM2
100
AcDbLine
 10
-130.0000000000018
 20
26.00000000000458
 30
0.0
 11
-80.0
 21
25.99999999999818
 31
0.0
  0
LINE
  5
1EFB
330
1EA4
100
AcDbEntity
  8
RAHM2
100
AcDbLine
 10
-105.0000000000018
 20
40.00000000000916
 30
0.0
 11
-105.0000000000018
 21
12.0
 31
0.0
  0
TEXT
  5
1EFC
330
1EA4
100
AcDbEntity
  8
RAHM3
100
AcDbText
 10
-129.0090027773683
 20
36.89804600215881
 30
0.0
 40
2.299999999999999
  1
承認 ＡＰＰＤ
 41
0.8
100
AcDbText
  0
TEXT
  5
1EFD
330
1EA4
100
AcDbEntity
  8
RAHM3
100
AcDbText
 10
-104.0090027773683
 20
36.8980460021551
 30
0.0
 40
2.299999999999999
  1
検図 ＣＨＫ
 41
0.8
100
AcDbText
  0
TEXT
  5
1EFE
330
1EA4
100
AcDbEntity
  8
RAHM3
100
AcDbText
 10
-129.0090027773683
 20
22.89804600215422
 30
0.0
 40
2.299999999999999
  1
設計 ＥＮＧＲ
 41
0.8
100
AcDbText
  0
TEXT
  5
1EFF
330
1EA4
100
AcDbEntity
  8
RAHM3
100
AcDbText
 10
-104.0090027773683
 20
22.89804600214964
 30
0.0
 40
2.299999999999999
  1
製図 ＤＲ ＤＡＴＥ
 41
0.8
100
AcDbText
  0
LINE
  5
1F00
330
1EA4
100
AcDbEntity
  8
RAHM2
100
AcDbLine
 10
-155.0
 20
30.60000000000036
 30
0.0
 11
-130.0000000000018
 21
30.60000000000036
 31
0.0
  0
LINE
  5
1F01
330
1EA4
100
AcDbEntity
  8
RAHM2
100
AcDbLine
 10
-155.0
 20
21.29999999999927
 30
0.0
 11
-130.0000000000018
 21
21.30000000000109
 31
0.0
  0
TEXT
  5
1F02
330
1EA4
100
AcDbEntity
  8
RAHM3
100
AcDbText
 10
-121.7843516157921
 20
6.885079184961092
 30
0.0
 40
4.0
  1
伊藤鉄工株式会社
100
AcDbText
  0
TEXT
  5
1F03
330
1EA4
100
AcDbEntity
  8
RAHM3
100
AcDbText
 10
-120.6675998914835
 20
3.578884653066273
 30
0.0
 40
2.0
  1
ITO TEKKO  CO.,LTD.
100
AcDbText
1001
GENIUS_GENTRA_14
1002
{
1070
     1
1000
/
1000
ITO TEKKO  CO.,LTD.
1000
JPN
1070
     0
1040
1.0
1070
     0
1002
}
  0
TEXT
  5
1F04
330
1EA4
100
AcDbEntity
  8
RAHM3
100
AcDbText
 10
-120.6675998914835
 20
0.9279960228792472
 30
0.0
 40
2.0
  1
KAWAGUCHI  JAPAN
100
AcDbText
  0
TEXT
  5
1F05
330
1EA4
100
AcDbEntity
  8
RAHM3
100
AcDbText
 10
-11.85206060358336
 20
9.69362381988742
 30
0.0
 40
1.8
  1
ＲＥＶ．ＭＡＲＫ
 41
0.6800000000000001
100
AcDbText
  0
TEXT
  5
1F06
330
1EA4
100
AcDbEntity
  8
RAHM3
100
AcDbText
 10
-11.57052530051805
 20
7.425435269030799
 30
0.0
 40
1.8
  1
変
100
AcDbText
  0
TEXT
  5
1F07
330
1EA4
100
AcDbEntity
  8
RAHM3
100
AcDbText
 10
-11.59004395148213
 20
4.996441785248862
 30
0.0
 40
1.8
  1
更
100
AcDbText
  0
TEXT
  5
1F08
330
1EA4
100
AcDbEntity
  8
RAHM3
100
AcDbText
 10
-11.62938531906752
 20
2.617267270587205
 30
0.0
 40
1.8
  1
回
100
AcDbText
  0
TEXT
  5
1F09
330
1EA4
100
AcDbEntity
  8
RAHM3
100
AcDbText
 10
-11.56556962136267
 20
0.3551115072955326
 30
0.0
 40
1.8
  1
数
100
AcDbText
  0
TEXT
  5
1F0A
330
1EA4
100
AcDbEntity
  8
RAHM3
100
AcDbText
 10
-154.0090027773665
 20
36.89804600217056
 30
0.0
 40
2.299999999999999
  1
尺度 ＳＣＡＬＥ
 41
0.8
100
AcDbText
  0
TEXT
  5
1F0B
330
1EA4
100
AcDbEntity
  8
RAHM3
100
AcDbText
 10
-154.0090027773665
 20
27.49804600215
 30
0.0
 40
2.299999999999999
  1
図面枚数 ＮＯ．  
 41
0.8
100
AcDbText
  0
LINE
  5
1F0C
330
1EA4
100
AcDbEntity
  8
7A
100
AcDbLine
 10
-151.7551228444401
 20
16.64999999999988
 30
0.0
 11
-149.2551228444401
 21
16.64999999999988
 31
0.0
1001
GENIUS_GENOREF_13
1005
1F10
  0
LINE
  5
1F0D
330
1EA4
100
AcDbEntity
  8
7A
100
AcDbLine
 10
-151.7551228444401
 20
16.64999999999988
 30
0.0
 11
-151.7551228444401
 21
19.14999999999988
 31
0.0
1001
GENIUS_GENOREF_13
1005
1F10
  0
LINE
  5
1F0E
330
1EA4
100
AcDbEntity
  8
7A
100
AcDbLine
 10
-151.7551228444401
 20
16.64999999999988
 30
0.0
 11
-154.2551228444401
 21
16.64999999999988
 31
0.0
1001
GENIUS_GENOREF_13
1005
1F10
  0
LINE
  5
1F0F
330
1EA4
100
AcDbEntity
  8
7A
100
AcDbLine
 10
-151.7551228444401
 20
16.64999999999988
 30
0.0
 11
-151.7551228444401
 21
14.14999999999988
 31
0.0
1001
GENIUS_GENOREF_13
1005
1F10
  0
POINT
  5
1F10
330
1EA4
100
AcDbEntity
  8
0
 60
     1
100
AcDbPoint
 10
0.0
 20
0.0
 30
0.0
1001
GENIUS_GENODEF_13
1002
{
1000
HIER
1070
    10
1002
}
1002
{
1000
MANEDIT
1070
     0
1002
}
1002
{
1000
NOSEL
1070
     0
1002
}
1002
{
1000
BEHIND
1070
     0
1002
}
1002
{
1000
REACTOR
1002
}
1001
GENIUS_GENOBJ-N-CRS_13
1002
{
1000
OWNER
1000
GEN
1002
}
1001
GENIUS_GENOENT_13
1002
{
1000
MYREF
1005
1F10
1002
}
1002
{
1000
GRP
1005
0
1002
}
1001
GENIUS_GENOLIS_13
1002
{
1000
ENT
1005
1F0F
1005
1F0E
1005
1F0D
1005
1F0C
1002
}
  0
CIRCLE
  5
1F11
330
1EA4
100
AcDbEntity
  8
RAHM3
100
AcDbCircle
 10
-151.7551228444401
 20
16.64999999999988
 30
0.0
 40
2.0
  0
CIRCLE
  5
1F12
330
1EA4
100
AcDbEntity
  8
RAHM3
100
AcDbCircle
 10
-151.7551228444401
 20
16.64999999999952
 30
0.0
 40
1.0
  0
LINE
  5
1F13
330
1EA4
100
AcDbEntity
  8
RAHM3
100
AcDbLine
 10
-147.7659442035316
 20
17.64999999999929
 30
0.0
 11
-147.7659442035316
 21
15.64999999999929
 31
0.0
  0
LINE
  5
1F14
330
1EA4
100
AcDbEntity
  8
RAHM3
100
AcDbLine
 10
-147.7659442035316
 20
15.64999999999929
 30
0.0
 11
-143.7659442035316
 21
14.64999999999928
 31
0.0
  0
LINE
  5
1F15
330
1EA4
100
AcDbEntity
  8
RAHM3
100
AcDbLine
 10
-143.7659442035316
 20
14.64999999999928
 30
0.0
 11
-143.7659442035316
 21
18.64999999999929
 31
0.0
  0
LINE
  5
1F16
330
1EA4
100
AcDbEntity
  8
RAHM3
100
AcDbLine
 10
-143.7659442035316
 20
18.64999999999929
 30
0.0
 11
-147.7659442035316
 21
17.64999999999929
 31
0.0
  0
LINE
  5
1F17
330
1EA4
100
AcDbEntity
  8
7A
100
AcDbLine
 10
-148.6350563849704
 20
16.64999999999929
 30
0.0
 11
-142.8462596443259
 21
16.64999999999929
 31
0.0
1001
GENIUS_GENODEF_13
1002
{
1000
HIER
1070
     0
1002
}
1002
{
1000
MANEDIT
1070
     0
1002
}
1002
{
1000
NOSEL
1070
     0
1002
}
1002
{
1000
BEHIND
1070
     0
1002
}
1002
{
1000
REACTOR
1002
}
1001
GENIUS_GENOBJ-N-CEN_13
1002
{
1000
OWNER
1000
GEN
1002
}
  0
TEXT
  5
1F18
330
1EA4
100
AcDbEntity
  8
RAHM3
100
AcDbText
 10
-141.8454810851357
 20
18.28209750892168
 30
0.0
 40
2.1
  1
単位 ＵＮＩＴ
 41
0.7
100
AcDbText
  0
LINE
  5
1F19
330
1EA4
100
AcDbEntity
  8
RAHM2
100
AcDbLine
 10
-142.5000000000009
 20
21.29999999999927
 30
0.0
 11
-142.5000000000009
 21
12.0
 31
0.0
  0
TEXT
  5
1F1A
330
1EA4
100
AcDbEntity
  8
RAHM3
100
AcDbText
 10
-139.6782849929894
 20
13.82826889824218
 30
0.0
 40
4.0
  1
ｍｍ
 41
0.8
100
AcDbText
  0
POLYLINE
  5
1F1B
330
1EA4
100
AcDbEntity
  8
RAHM2
100
AcDb2dPolyline
 66
     1
 10
0.0
 20
0.0
 30
0.0
 70
     1
  0
VERTEX
  5
1F1C
330
1F1B
100
AcDbEntity
  8
RAHM2
100
AcDbVertex
100
AcDb2dVertex
 10
-155.0
 20
-0.000000000001819
 30
0.0
  0
VERTEX
  5
1F1D
330
1F1B
100
AcDbEntity
  8
RAHM2
100
AcDbVertex
100
AcDb2dVertex
 10
-155.0
 20
40.00000000002091
 30
0.0
  0
VERTEX
  5
1F1E
330
1F1B
100
AcDbEntity
  8
RAHM2
100
AcDbVertex
100
AcDb2dVertex
 10
0.0
 20
39.99999999999273
 30
0.0
  0
VERTEX
  5
1F1F
330
1F1B
100
AcDbEntity
  8
RAHM2
100
AcDbVertex
100
AcDb2dVertex
 10
0.0
 20
0.0
 30
0.0
  0
SEQEND
  5
1F20
330
1F1B
100
AcDbEntity
  8
RAHM2
  0
ATTDEF
  5
1F21
330
1EA4
100
AcDbEntity
  8
RAHM3
100
AcDbText
 10
-147.2595867131855
 20
31.94728899818607
 30
0.0
 40
4.0
  1

100
AcDbAttributeDefinition
  3
尺度
  2
GEN-TITLE-SCA
 70
     0
  0
ATTDEF
  5
1F22
330
1EA4
100
AcDbEntity
  8
RAHM3
100
AcDbText
 10
-73.09000000000001
 20
29.74
 30
0.0
 40
5.0
  1

100
AcDbAttributeDefinition
  3
名称
  2
ＴＩＴＬＥ
 70
     0
  0
ATTDEF
  5
1F23
330
1EA4
100
AcDbEntity
  8
RAHM3
100
AcDbText
 10
-71.56287815584043
 20
21.80438312711384
 30
0.0
 40
3.0
  1

100
AcDbAttributeDefinition
  3
符号
  2
ｃｏｄｅ
 70
     0
  0
ATTDEF
  5
1F24
330
1EA4
100
AcDbEntity
  8
RAHM3
100
AcDbText
 10
-70.74480649396313
 20
14.80438312710657
 30
0.0
 40
3.0
  1

100
AcDbAttributeDefinition
  3
件名
  2
件名
 70
     0
  0
ATTDEF
  5
1F25
330
1EA4
100
AcDbEntity
  8
RAHM3
100
AcDbText
 10
-73.09000000000001
 20
1.739999999992722
 30
0.0
 40
5.0
  1

100
AcDbAttributeDefinition
  3
図面番号
  2
Ｎｏ．
 70
     0
  0
ATTDEF
  5
1F26
330
1EA4
100
AcDbEntity
  8
RAHM3
100
AcDbText
 10
-100.45
 20
17.40708932112655
 30
0.0
 40
4.0
  1

100
AcDbAttributeDefinition
  3
製図者
  2
ＤＲ
 70
     0
  0
ATTDEF
  5
1F27
330
1EA4
100
AcDbEntity
  8
RAHM3
100
AcDbText
 10
-103.7180853038729
 20
12.76999999999999
 30
0.0
 40
3.0
  1

 41
0.8
100
AcDbAttributeDefinition
  3
日付
  2
ｄａｔｅ
 70
     0
  0
ENDBLK
  5
1F28
330
1EA4
100
AcDbEntity
  8
0
100
AcDbBlockEnd
  0
ENDSEC
  0
SECTION
  2
ENTITIES
  0
LINE
  5
E7
330
19
100
AcDbEntity
  8
7
100
AcDbLine
 10
2130.002888684299
 20
391.3953241926959
 30
0.0
 11
3439.655474489499
 21
391.3953241926959
 31
0.0
  0
LINE
  5
E8
330
19
100
AcDbEntity
  8
7
100
AcDbLine
 10
2786.172790842999
 20
1025.701039365896
 30
0.0
 11
2786.172790842999
 21
-255.7960116544041
 31
0.0
  0
LINE
  5
E9
330
19
100
AcDbEntity
  8
1
  6
Continuous
 62
     7
100
AcDbLine
 10
3396.172790842999
 20
1001.395324192696
 30
0.0
 11
2176.172790842999
 21
1001.395324192696
 31
0.0
  0
LINE
  5
EA
330
19
100
AcDbEntity
  8
1
  6
Continuous
 62
     7
100
AcDbLine
 10
2176.172790842999
 20
-218.6046758073041
 30
0.0
 11
3396.172790842999
 21
-218.6046758073041
 31
0.0
  0
LINE
  5
EB
330
19
100
AcDbEntity
  8
1
  6
Continuous
 62
     7
100
AcDbLine
 10
3391.172790842999
 20
-213.6046758073042
 30
0.0
 11
2181.172790842999
 21
-213.6046758073042
 31
0.0
  0
LINE
  5
EC
330
19
100
AcDbEntity
  8
1
  6
Continuous
 62
     7
100
AcDbLine
 10
2181.172790842999
 20
996.3953241926958
 30
0.0
 11
3391.172790842999
 21
996.3953241926958
 31
0.0
  0
LINE
  5
ED
330
19
100
AcDbEntity
  8
1
  6
Continuous
 62
     7
100
AcDbLine
 10
3356.172790842999
 20
-178.6046758073041
 30
0.0
 11
2216.172790842999
 21
-178.6046758073041
 31
0.0
  0
LINE
  5
EE
330
19
100
AcDbEntity
  8
1
  6
Continuous
 62
     7
100
AcDbLine
 10
2216.172790842999
 20
961.3953241926958
 30
0.0
 11
3356.172790842999
 21
961.3953241926958
 31
0.0
  0
LINE
  5
EF
330
19
100
AcDbEntity
  8
1
  6
Continuous
 62
     7
100
AcDbLine
 10
3356.172790842999
 20
-68.60467580730414
 30
0.0
 11
3396.172790842999
 21
-68.60467580730414
 31
0.0
  0
LINE
  5
F0
330
19
100
AcDbEntity
  8
1
  6
Continuous
 62
     7
100
AcDbLine
 10
3356.172790842999
 20
-63.60467580730414
 30
0.0
 11
3396.172790842999
 21
-63.60467580730414
 31
0.0
  0
LINE
  5
F1
330
19
100
AcDbEntity
  8
1
  6
Continuous
 62
     7
100
AcDbLine
 10
2216.172790842999
 20
-68.60467580730414
 30
0.0
 11
2176.172790842999
 21
-68.60467580730414
 31
0.0
  0
LINE
  5
F2
330
19
100
AcDbEntity
  8
1
  6
Continuous
 62
     7
100
AcDbLine
 10
2216.172790842999
 20
-63.60467580730414
 30
0.0
 11
2176.172790842999
 21
-63.60467580730414
 31
0.0
  0
LINE
  5
F3
330
19
100
AcDbEntity
  8
1
  6
Continuous
 62
     7
100
AcDbLine
 10
3356.172790842999
 20
851.3953241926959
 30
0.0
 11
3396.172790842999
 21
851.3953241926959
 31
0.0
  0
LINE
  5
F4
330
19
100
AcDbEntity
  8
1
  6
Continuous
 62
     7
100
AcDbLine
 10
3356.172790842999
 20
846.3953241926958
 30
0.0
 11
3396.172790842999
 21
846.3953241926958
 31
0.0
  0
LINE
  5
F5
330
19
100
AcDbEntity
  8
1
  6
Continuous
 62
     7
100
AcDbLine
 10
2216.172790842999
 20
851.3953241926959
 30
0.0
 11
2176.172790842999
 21
851.3953241926959
 31
0.0
  0
LINE
  5
F6
330
19
100
AcDbEntity
  8
1
  6
Continuous
 62
     7
100
AcDbLine
 10
2216.172790842999
 20
846.3953241926958
 30
0.0
 11
2176.172790842999
 21
846.3953241926958
 31
0.0
  0
LINE
  5
F7
330
19
100
AcDbEntity
  8
1
  6
Continuous
 62
     7
100
AcDbLine
 10
3391.172790842999
 20
-68.60467580730414
 30
0.0
 11
3391.172790842999
 21
-213.6046758073042
 31
0.0
  0
LINE
  5
F8
330
19
100
AcDbEntity
  8
1
  6
Continuous
 62
     7
100
AcDbLine
 10
3356.172790842999
 20
-68.60467580730414
 30
0.0
 11
3356.172790842999
 21
-178.6046758073041
 31
0.0
  0
LINE
  5
F9
330
19
100
AcDbEntity
  8
1
  6
Continuous
 62
     7
100
AcDbLine
 10
3396.172790842999
 20
-218.6046758073041
 30
0.0
 11
3396.172790842999
 21
-68.60467580730414
 31
0.0
  0
LINE
  5
FA
330
19
100
AcDbEntity
  8
1
  6
Continuous
 62
     7
100
AcDbLine
 10
2216.172790842999
 20
-178.6046758073041
 30
0.0
 11
2216.172790842999
 21
-68.60467580730414
 31
0.0
  0
LINE
  5
FB
330
19
100
AcDbEntity
  8
1
  6
Continuous
 62
     7
100
AcDbLine
 10
2181.172790842999
 20
-213.6046758073042
 30
0.0
 11
2181.172790842999
 21
-68.60467580730414
 31
0.0
  0
LINE
  5
FC
330
19
100
AcDbEntity
  8
1
  6
Continuous
 62
     7
100
AcDbLine
 10
2176.172790842999
 20
-68.60467580730414
 30
0.0
 11
2176.172790842999
 21
-218.6046758073041
 31
0.0
  0
LINE
  5
FD
330
19
100
AcDbEntity
  8
1
  6
Continuous
 62
     7
100
AcDbLine
 10
2216.172790842999
 20
-63.60467580730414
 30
0.0
 11
2216.172790842999
 21
846.3953241926958
 31
0.0
  0
LINE
  5
FE
330
19
100
AcDbEntity
  8
1
  6
Continuous
 62
     7
100
AcDbLine
 10
2216.172790842999
 20
851.3953241926959
 30
0.0
 11
2216.172790842999
 21
961.3953241926958
 31
0.0
  0
LINE
  5
FF
330
19
100
AcDbEntity
  8
1
  6
Continuous
 62
     7
100
AcDbLine
 10
2181.172790842999
 20
-63.60467580730414
 30
0.0
 11
2181.172790842999
 21
846.3953241926958
 31
0.0
  0
LINE
  5
100
330
19
100
AcDbEntity
  8
1
  6
Continuous
 62
     7
100
AcDbLine
 10
2181.172790842999
 20
851.3953241926959
 30
0.0
 11
2181.172790842999
 21
996.3953241926958
 31
0.0
  0
LINE
  5
101
330
19
100
AcDbEntity
  8
1
  6
Continuous
 62
     7
100
AcDbLine
 10
2176.172790842999
 20
1001.395324192696
 30
0.0
 11
2176.172790842999
 21
851.3953241926959
 31
0.0
  0
LINE
  5
102
330
19
100
AcDbEntity
  8
1
  6
Continuous
 62
     7
100
AcDbLine
 10
2176.172790842999
 20
846.3953241926958
 30
0.0
 11
2176.172790842999
 21
-63.60467580730414
 31
0.0
  0
LINE
  5
103
330
19
100
AcDbEntity
  8
1
  6
Continuous
 62
     7
100
AcDbLine
 10
3356.172790842999
 20
961.3953241926958
 30
0.0
 11
3356.172790842999
 21
851.3953241926959
 31
0.0
  0
LINE
  5
104
330
19
100
AcDbEntity
  8
1
  6
Continuous
 62
     7
100
AcDbLine
 10
3356.172790842999
 20
846.3953241926958
 30
0.0
 11
3356.172790842999
 21
-63.60467580730414
 31
0.0
  0
LINE
  5
105
330
19
100
AcDbEntity
  8
1
  6
Continuous
 62
     7
100
AcDbLine
 10
3391.172790842999
 20
996.3953241926958
 30
0.0
 11
3391.172790842999
 21
851.3953241926959
 31
0.0
  0
LINE
  5
106
330
19
100
AcDbEntity
  8
1
  6
Continuous
 62
     7
100
AcDbLine
 10
3391.172790842999
 20
846.3953241926958
 30
0.0
 11
3391.172790842999
 21
-63.60467580730414
 31
0.0
  0
LINE
  5
107
330
19
100
AcDbEntity
  8
1
  6
Continuous
 62
     7
100
AcDbLine
 10
3396.172790842999
 20
-63.60467580730414
 30
0.0
 11
3396.172790842999
 21
846.3953241926958
 31
0.0
  0
LINE
  5
108
330
19
100
AcDbEntity
  8
1
  6
Continuous
 62
     7
100
AcDbLine
 10
3396.172790842999
 20
851.3953241926959
 30
0.0
 11
3396.172790842999
 21
1001.395324192696
 31
0.0
  0
CIRCLE
  5
109
330
19
100
AcDbEntity
  8
1
  6
Continuous
 62
     7
100
AcDbCircle
 10
2196.172790842999
 20
-23.60467580730415
 30
0.0
 40
7.9
  0
CIRCLE
  5
10A
330
19
100
AcDbEntity
  8
1
  6
Continuous
 62
     7
100
AcDbCircle
 10
2196.172790842999
 20
-23.60467580730415
 30
0.0
 40
6.714999999999999
  0
LINE
  5
10B
330
19
100
AcDbEntity
  8
1
  6
Continuous
 62
     7
100
AcDbLine
 10
2193.344790842999
 20
-20.77667580730417
 30
0.0
 11
2199.000790842999
 21
-26.43267580730412
 31
0.0
  0
LINE
  5
10C
330
19
100
AcDbEntity
  8
1
  6
Continuous
 62
     7
100
AcDbLine
 10
2199.000790842999
 20
-20.77667580730417
 30
0.0
 11
2193.344790842999
 21
-26.43267580730412
 31
0.0
  0
CIRCLE
  5
10D
330
19
100
AcDbEntity
  8
1
  6
Continuous
 62
     7
100
AcDbCircle
 10
2196.172790842999
 20
-48.60467580730414
 30
0.0
 40
7.9
  0
CIRCLE
  5
10E
330
19
100
AcDbEntity
  8
1
  6
Continuous
 62
     7
100
AcDbCircle
 10
2196.172790842999
 20
-48.60467580730414
 30
0.0
 40
6.714999999999999
  0
LINE
  5
10F
330
19
100
AcDbEntity
  8
1
  6
Continuous
 62
     7
100
AcDbLine
 10
2193.344790842999
 20
-45.77667580730417
 30
0.0
 11
2199.000790842999
 21
-51.43267580730412
 31
0.0
  0
LINE
  5
110
330
19
100
AcDbEntity
  8
1
  6
Continuous
 62
     7
100
AcDbLine
 10
2199.000790842999
 20
-45.77667580730417
 30
0.0
 11
2193.344790842999
 21
-51.43267580730412
 31
0.0
  0
LINE
  5
111
330
19
100
AcDbEntity
  8
7
100
AcDbLine
 10
2183.272790842999
 20
-23.60467580730415
 30
0.0
 11
2209.072790842999
 21
-23.60467580730415
 31
0.0
  0
LINE
  5
112
330
19
100
AcDbEntity
  8
7
100
AcDbLine
 10
2183.272790842999
 20
-48.60467580730414
 30
0.0
 11
2209.072790842999
 21
-48.60467580730414
 31
0.0
  0
LINE
  5
113
330
19
100
AcDbEntity
  8
7
100
AcDbLine
 10
2196.172790842999
 20
-10.70467580730417
 30
0.0
 11
2196.172790842999
 21
-58.45432073310417
 31
0.0
  0
CIRCLE
  5
114
330
19
100
AcDbEntity
  8
1
  6
Continuous
 62
     7
100
AcDbCircle
 10
3376.172790842999
 20
-23.60467580730415
 30
0.0
 40
7.9
  0
CIRCLE
  5
115
330
19
100
AcDbEntity
  8
1
  6
Continuous
 62
     7
100
AcDbCircle
 10
3376.172790842999
 20
-23.60467580730415
 30
0.0
 40
6.714999999999999
  0
LINE
  5
116
330
19
100
AcDbEntity
  8
1
  6
Continuous
 62
     7
100
AcDbLine
 10
3379.000790842999
 20
-20.77667580730417
 30
0.0
 11
3373.344790842999
 21
-26.43267580730412
 31
0.0
  0
LINE
  5
117
330
19
100
AcDbEntity
  8
1
  6
Continuous
 62
     7
100
AcDbLine
 10
3373.344790842999
 20
-20.77667580730417
 30
0.0
 11
3379.000790842999
 21
-26.43267580730412
 31
0.0
  0
CIRCLE
  5
118
330
19
100
AcDbEntity
  8
1
  6
Continuous
 62
     7
100
AcDbCircle
 10
3376.172790842999
 20
-48.60467580730414
 30
0.0
 40
7.9
  0
CIRCLE
  5
119
330
19
100
AcDbEntity
  8
1
  6
Continuous
 62
     7
100
AcDbCircle
 10
3376.172790842999
 20
-48.60467580730414
 30
0.0
 40
6.714999999999999
  0
LINE
  5
11A
330
19
100
AcDbEntity
  8
1
  6
Continuous
 62
     7
100
AcDbLine
 10
3379.000790842999
 20
-45.77667580730417
 30
0.0
 11
3373.344790842999
 21
-51.43267580730412
 31
0.0
  0
LINE
  5
11B
330
19
100
AcDbEntity
  8
1
  6
Continuous
 62
     7
100
AcDbLine
 10
3373.344790842999
 20
-45.77667580730417
 30
0.0
 11
3379.000790842999
 21
-51.43267580730412
 31
0.0
  0
LINE
  5
11C
330
19
100
AcDbEntity
  8
7
100
AcDbLine
 10
3389.072790842999
 20
-23.60467580730415
 30
0.0
 11
3363.272790842999
 21
-23.60467580730415
 31
0.0
  0
LINE
  5
11D
330
19
100
AcDbEntity
  8
7
100
AcDbLine
 10
3389.072790842999
 20
-48.60467580730414
 30
0.0
 11
3363.272790842999
 21
-48.60467580730414
 31
0.0
  0
LINE
  5
11E
330
19
100
AcDbEntity
  8
7
100
AcDbLine
 10
3376.172790842999
 20
-10.70467580730417
 30
0.0
 11
3376.172790842999
 21
-58.45432073310417
 31
0.0
  0
CIRCLE
  5
11F
330
19
100
AcDbEntity
  8
1
  6
Continuous
 62
     7
100
AcDbCircle
 10
2196.172790842999
 20
806.3953241926958
 30
0.0
 40
7.9
  0
CIRCLE
  5
120
330
19
100
AcDbEntity
  8
1
  6
Continuous
 62
     7
100
AcDbCircle
 10
2196.172790842999
 20
806.3953241926958
 30
0.0
 40
6.714999999999999
  0
LINE
  5
121
330
19
100
AcDbEntity
  8
1
  6
Continuous
 62
     7
100
AcDbLine
 10
2193.344790842999
 20
803.5673241926959
 30
0.0
 11
2199.000790842999
 21
809.223324192696
 31
0.0
  0
LINE
  5
122
330
19
100
AcDbEntity
  8
1
  6
Continuous
 62
     7
100
AcDbLine
 10
2199.000790842999
 20
803.5673241926959
 30
0.0
 11
2193.344790842999
 21
809.223324192696
 31
0.0
  0
CIRCLE
  5
123
330
19
100
AcDbEntity
  8
1
  6
Continuous
 62
     7
100
AcDbCircle
 10
2196.172790842999
 20
831.3953241926958
 30
0.0
 40
7.9
  0
CIRCLE
  5
124
330
19
100
AcDbEntity
  8
1
  6
Continuous
 62
     7
100
AcDbCircle
 10
2196.172790842999
 20
831.3953241926958
 30
0.0
 40
6.714999999999999
  0
LINE
  5
125
330
19
100
AcDbEntity
  8
1
  6
Continuous
 62
     7
100
AcDbLine
 10
2193.344790842999
 20
828.5673241926959
 30
0.0
 11
2199.000790842999
 21
834.223324192696
 31
0.0
  0
LINE
  5
126
330
19
100
AcDbEntity
  8
1
  6
Continuous
 62
     7
100
AcDbLine
 10
2199.000790842999
 20
828.5673241926959
 30
0.0
 11
2193.344790842999
 21
834.223324192696
 31
0.0
  0
LINE
  5
127
330
19
100
AcDbEntity
  8
7
100
AcDbLine
 10
2183.272790842999
 20
806.3953241926958
 30
0.0
 11
2209.072790842999
 21
806.3953241926958
 31
0.0
  0
LINE
  5
128
330
19
100
AcDbEntity
  8
7
100
AcDbLine
 10
2183.272790842999
 20
831.3953241926958
 30
0.0
 11
2209.072790842999
 21
831.3953241926958
 31
0.0
  0
LINE
  5
129
330
19
100
AcDbEntity
  8
7
100
AcDbLine
 10
2196.172790842999
 20
793.495324192696
 30
0.0
 11
2196.172790842999
 21
841.2449691184958
 31
0.0
  0
CIRCLE
  5
12A
330
19
100
AcDbEntity
  8
1
  6
Continuous
 62
     7
100
AcDbCircle
 10
3376.172790842999
 20
806.3953241926958
 30
0.0
 40
7.9
  0
CIRCLE
  5
12B
330
19
100
AcDbEntity
  8
1
  6
Continuous
 62
     7
100
AcDbCircle
 10
3376.172790842999
 20
806.3953241926958
 30
0.0
 40
6.714999999999999
  0
LINE
  5
12C
330
19
100
AcDbEntity
  8
1
  6
Continuous
 62
     7
100
AcDbLine
 10
3379.000790842999
 20
803.5673241926959
 30
0.0
 11
3373.344790842999
 21
809.223324192696
 31
0.0
  0
LINE
  5
12D
330
19
100
AcDbEntity
  8
1
  6
Continuous
 62
     7
100
AcDbLine
 10
3373.344790842999
 20
803.5673241926959
 30
0.0
 11
3379.000790842999
 21
809.223324192696
 31
0.0
  0
CIRCLE
  5
12E
330
19
100
AcDbEntity
  8
1
  6
Continuous
 62
     7
100
AcDbCircle
 10
3376.172790842999
 20
831.3953241926958
 30
0.0
 40
7.9
  0
CIRCLE
  5
12F
330
19
100
AcDbEntity
  8
1
  6
Continuous
 62
     7
100
AcDbCircle
 10
3376.172790842999
 20
831.3953241926958
 30
0.0
 40
6.714999999999999
  0
LINE
  5
130
330
19
100
AcDbEntity
  8
1
  6
Continuous
 62
     7
100
AcDbLine
 10
3379.000790842999
 20
828.5673241926959
 30
0.0
 11
3373.344790842999
 21
834.223324192696
 31
0.0
  0
LINE
  5
131
330
19
100
AcDbEntity
  8
1
  6
Continuous
 62
     7
100
AcDbLine
 10
3373.344790842999
 20
828.5673241926959
 30
0.0
 11
3379.000790842999
 21
834.223324192696
 31
0.0
  0
LINE
  5
132
330
19
100
AcDbEntity
  8
7
100
AcDbLine
 10
3389.072790842999
 20
806.3953241926958
 30
0.0
 11
3363.272790842999
 21
806.3953241926958
 31
0.0
  0
LINE
  5
133
330
19
100
AcDbEntity
  8
7
100
AcDbLine
 10
3389.072790842999
 20
831.3953241926958
 30
0.0
 11
3363.272790842999
 21
831.3953241926958
 31
0.0
  0
LINE
  5
134
330
19
100
AcDbEntity
  8
7
100
AcDbLine
 10
3376.172790842999
 20
793.495324192696
 30
0.0
 11
3376.172790842999
 21
841.2449691184958
 31
0.0
  0
INSERT
  5
1B5
330
19
100
AcDbEntity
  8
1
  6
Continuous
 62
     7
100
AcDbBlockReference
  2
BALN0
 10
2190.103034518999
 20
-28.66116254890414
 30
0.0
  0
INSERT
  5
1B6
330
19
100
AcDbEntity
  8
1
  6
Continuous
 62
     7
100
AcDbBlockReference
  2
BALN1
 10
2176.172790842999
 20
567.8273529446958
 30
0.0
  0
LINE
  5
1B7
330
19
100
AcDbEntity
  8
1
  6
Continuous
 62
     7
100
AcDbLine
 10
2176.172790842999
 20
-467.4223732603041
 30
0.0
 11
2176.172790842999
 21
-427.4223732603042
 31
0.0
  0
LINE
  5
1B8
330
19
100
AcDbEntity
  8
1
  6
Continuous
 62
     7
100
AcDbLine
 10
2181.172790842999
 20
-430.4223732603041
 30
0.0
 11
2181.172790842999
 21
-457.9223732603042
 31
0.0
  0
LINE
  5
1B9
330
19
100
AcDbEntity
  8
1
  6
Continuous
 62
     7
100
AcDbLine
 10
2216.172790842999
 20
-465.4223732603042
 30
0.0
 11
2216.172790842999
 21
-467.4223732603041
 31
0.0
  0
ARC
  5
1BA
330
19
100
AcDbEntity
  8
1
  6
Continuous
 62
     7
100
AcDbCircle
 10
2178.172790842999
 20
-430.4223732603041
 30
0.0
 40
3.0
100
AcDbArc
 50
0.0
 51
90.0
  0
ARC
  5
1BB
330
19
100
AcDbEntity
  8
1
  6
Continuous
 62
     7
100
AcDbCircle
 10
2213.172790842999
 20
-465.4223732603042
 30
0.0
 40
3.0
100
AcDbArc
 50
0.0
 51
90.0
  0
ARC
  5
1BC
330
19
100
AcDbEntity
  8
1
  6
Continuous
 62
     7
100
AcDbCircle
 10
2185.672790842999
 20
-457.9223732603042
 30
0.0
 40
4.5
100
AcDbArc
 50
180.0
 51
270.0
  0
LINE
  5
1BD
330
19
100
AcDbEntity
  8
1
  6
Continuous
 62
     7
100
AcDbLine
 10
3396.172790842999
 20
-467.4223732603041
 30
0.0
 11
3396.172790842999
 21
-427.4223732603042
 31
0.0
  0
LINE
  5
1BE
330
19
100
AcDbEntity
  8
1
  6
Continuous
 62
     7
100
AcDbLine
 10
3391.172790842999
 20
-430.4223732603041
 30
0.0
 11
3391.172790842999
 21
-457.9223732603042
 31
0.0
  0
LINE
  5
1BF
330
19
100
AcDbEntity
  8
1
  6
Continuous
 62
     7
100
AcDbLine
 10
3356.172790842999
 20
-465.4223732603042
 30
0.0
 11
3356.172790842999
 21
-467.4223732603041
 31
0.0
  0
ARC
  5
1C0
330
19
100
AcDbEntity
  8
1
  6
Continuous
 62
     7
100
AcDbCircle
 10
3394.172790842999
 20
-430.4223732603041
 30
0.0
 40
3.0
100
AcDbArc
 50
90.0
 51
180.0
  0
ARC
  5
1C1
330
19
100
AcDbEntity
  8
1
  6
Continuous
 62
     7
100
AcDbCircle
 10
3359.172790842999
 20
-465.4223732603042
 30
0.0
 40
3.0
100
AcDbArc
 50
90.0
 51
180.0
  0
ARC
  5
1C2
330
19
100
AcDbEntity
  8
1
  6
Continuous
 62
     7
100
AcDbCircle
 10
3386.672790842999
 20
-457.9223732603042
 30
0.0
 40
4.5
100
AcDbArc
 50
270.0
 51
0.0
  0
LINE
  5
1C3
330
19
100
AcDbEntity
  8
1
  6
Continuous
 62
     7
100
AcDbLine
 10
2185.672790842999
 20
-462.4223732603041
 30
0.0
 11
3386.672790842999
 21
-462.4223732603041
 31
0.0
  0
LINE
  5
1C4
330
19
100
AcDbEntity
  8
1
  6
Continuous
 62
     7
100
AcDbLine
 10
3396.172790842999
 20
-467.4223732603041
 30
0.0
 11
2176.172790842999
 21
-467.4223732603041
 31
0.0
  0
LINE
  5
1C5
330
19
100
AcDbEntity
  8
1
  6
Continuous
 62
     7
100
AcDbLine
 10
2176.172790842999
 20
-427.4223732603042
 30
0.0
 11
3396.172790842999
 21
-427.4223732603042
 31
0.0
  0
LINE
  5
1DA
330
19
100
AcDbEntity
  8
7
100
AcDbLine
 10
2786.172790842999
 20
-403.5268815460041
 30
0.0
 11
2786.172790842999
 21
-510.1642716948041
 31
0.0
  0
INSERT
  5
2A6
330
19
100
AcDbEntity
  8
1
  6
Continuous
 62
     7
100
AcDbBlockReference
  2
BALN2
 10
3371.5886162817
 20
-507.4223732603042
 30
0.0
  0
TEXT
  5
142A
330
19
100
AcDbEntity
  8
0
 60
     1
100
AcDbText
 10
3677.172790843006
 20
1339.689244026561
 30
0.0
 40
12.0
  1
!GENTITLE-MAX
100
AcDbText
  0
TEXT
  5
142B
330
19
100
AcDbEntity
  8
0
 60
     1
100
AcDbText
 10
3617.172790843006
 20
1279.689244026561
 30
0.0
 40
12.0
  1
!GENTITLE-RU
100
AcDbText
  0
TEXT
  5
142C
330
19
100
AcDbEntity
  8
0
 60
     1
100
AcDbText
 10
3617.172790843007
 20
-1120.310755973438
 30
0.0
 40
12.0
  1
!GENTITLE-INSERT
100
AcDbText
  0
TEXT
  5
142D
330
19
100
AcDbEntity
  8
0
 60
     1
100
AcDbText
 10
1955.172790842985
 20
-1120.310755973438
 30
0.0
 40
12.0
  1
!GENTITLE-LL
100
AcDbText
  0
LINE
  5
142E
330
19
100
AcDbEntity
  8
RAHM2
100
AcDbLine
 10
1955.172790843006
 20
-1120.310755973438
 30
0.0
 11
1955.172790843006
 21
1279.689244026562
 31
0.0
  0
LINE
  5
142F
330
19
100
AcDbEntity
  8
RAHM2
100
AcDbLine
 10
3617.172790843006
 20
-1120.310755973438
 30
0.0
 11
1955.172790843006
 21
-1120.310755973438
 31
0.0
  0
LINE
  5
1430
330
19
100
AcDbEntity
  8
RAHM2
100
AcDbLine
 10
1955.172790843006
 20
1279.689244026562
 30
0.0
 11
3617.172790843006
 21
1279.689244026561
 31
0.0
  0
LINE
  5
1431
330
19
100
AcDbEntity
  8
RAHM2
100
AcDbLine
 10
3617.172790843006
 20
1279.689244026561
 30
0.0
 11
3617.172790843006
 21
-1120.310755973439
 31
0.0
  0
TEXT
  5
18F4
330
19
100
AcDbEntity
  8
1
  6
Continuous
 62
     7
100
AcDbText
 10
3422.172790593906
 20
1246.689244117361
 30
0.0
 40
24.0
  1
表面処理
 11
3422.172790593906
 21
1246.689244117361
 31
0.0
100
AcDbText
 73
     1
  0
TEXT
  5
18F5
330
19
100
AcDbEntity
  8
1
  6
Continuous
 62
     7
100
AcDbText
 10
3402.079321593906
 20
1204.689244117361
 30
0.0
 40
24.0
  1
樹脂系塗料塗装
 41
0.8299180327868855
 72
     5
 11
3564.079321593906
 21
1204.689244117361
 31
0.0
100
AcDbText
  0
TEXT
  5
18F6
330
19
100
AcDbEntity
  8
1
  6
Continuous
 62
     7
100
AcDbText
 10
2769.372790593906
 20
1246.689244117361
 30
0.0
 40
24.0
  1
部番
 41
0.7734375000000071
 72
     5
 11
2808.972790593907
 21
1246.689244117361
 31
0.0
100
AcDbText
  0
TEXT
  5
18F7
330
19
100
AcDbEntity
  8
1
  6
Continuous
 62
     7
100
AcDbText
 10
2852.172790593906
 20
1246.689244117361
 30
0.0
 40
24.0
  1
部品名
 11
2852.172790593906
 21
1246.689244117361
 31
0.0
100
AcDbText
 73
     1
  0
INSERT
  5
18F8
330
19
100
AcDbEntity
  8
1
  6
Continuous
 62
     7
100
AcDbBlockReference
  2
MAKR0
 10
2789.172790843006
 20
1216.689244026561
 30
0.0
  0
INSERT
  5
18F9
330
19
100
AcDbEntity
  8
1
  6
Continuous
 62
     7
100
AcDbBlockReference
  2
MAKR1
 10
2789.172790843006
 20
1174.689244026561
 30
0.0
  0
INSERT
  5
18FA
330
19
100
AcDbEntity
  8
1
  6
Continuous
 62
     7
100
AcDbBlockReference
  2
MAKR2
 10
2789.172790843006
 20
1132.689244026561
 30
0.0
  0
LINE
  5
18FB
330
19
100
AcDbEntity
  8
1
  6
Continuous
 62
     7
100
AcDbLine
 10
2759.172790843006
 20
1111.689244026561
 30
0.0
 11
3617.172790843006
 21
1111.689244026561
 31
0.0
  0
LINE
  5
18FC
330
19
100
AcDbEntity
  8
1
  6
Continuous
 62
     7
100
AcDbLine
 10
3617.172790843006
 20
1153.689244026561
 30
0.0
 11
2759.172790843006
 21
1153.689244026561
 31
0.0
  0
LINE
  5
18FD
330
19
100
AcDbEntity
  8
1
  6
Continuous
 62
     7
100
AcDbLine
 10
2759.172790843006
 20
1195.689244026561
 30
0.0
 11
3617.172790843006
 21
1195.689244026561
 31
0.0
  0
LINE
  5
18FE
330
19
100
AcDbEntity
  8
1
  6
Continuous
 62
     7
100
AcDbLine
 10
2759.172790843006
 20
1237.689244026561
 30
0.0
 11
3617.172790843006
 21
1237.689244026561
 31
0.0
  0
LINE
  5
18FF
330
19
100
AcDbEntity
  8
1
  6
Continuous
 62
     7
100
AcDbLine
 10
2759.172790843006
 20
1111.689244026561
 30
0.0
 11
2759.172790843006
 21
1279.689244026561
 31
0.0
  0
LINE
  5
1900
330
19
100
AcDbEntity
  8
1
  6
Continuous
 62
     7
100
AcDbLine
 10
2819.172790843006
 20
1111.689244026561
 30
0.0
 11
2819.172790843006
 21
1279.689244026561
 31
0.0
  0
LINE
  5
1901
330
19
100
AcDbEntity
  8
1
  6
Continuous
 62
     7
100
AcDbLine
 10
3059.172790843006
 20
1279.689244026561
 30
0.0
 11
3059.172790843006
 21
1111.689244026561
 31
0.0
  0
LINE
  5
1902
330
19
100
AcDbEntity
  8
1
  6
Continuous
 62
     7
100
AcDbLine
 10
3389.172790843006
 20
1279.689244026561
 30
0.0
 11
3389.172790843006
 21
1111.689244026561
 31
0.0
  0
TEXT
  5
1903
330
19
100
AcDbEntity
  8
1
  6
Continuous
 62
     7
100
AcDbText
 10
2849.172790593906
 20
1120.689244117361
 30
0.0
 40
24.0
  1
組立ボルト
 41
1.219879518072288
 72
     5
 11
3011.172790593906
 21
1120.689244117361
 31
0.0
100
AcDbText
  0
TEXT
  5
1904
330
19
100
AcDbEntity
  8
1
  6
Continuous
 62
     7
100
AcDbText
 10
2849.172790593906
 20
1162.689244117361
 30
0.0
 40
24.0
  1
アンカ－
 41
1.211538461538461
 72
     5
 11
2975.172790593906
 21
1162.689244117361
 31
0.0
100
AcDbText
  0
TEXT
  5
1906
330
19
100
AcDbEntity
  8
1
  6
Continuous
 62
     7
100
AcDbText
 10
3404.146804593906
 20
1120.689244117361
 30
0.0
 40
24.0
  1
ユニクロメッキ
 41
0.7687500000000022
 72
     5
 11
3551.746804593906
 21
1120.689244117361
 31
0.0
100
AcDbText
  0
TEXT
  5
1907
330
19
100
AcDbEntity
  8
1
  6
Continuous
 62
     7
100
AcDbText
 10
3112.491536593906
 20
1246.689244117361
 30
0.0
 40
24.0
  1
材質
 11
3112.491536593906
 21
1246.689244117361
 31
0.0
100
AcDbText
 73
     1
  0
TEXT
  5
1908
330
19
100
AcDbEntity
  8
1
  6
Continuous
 62
     7
100
AcDbText
 10
3070.491536593906
 20
1218.189244117361
 30
0.0
 40
18.0
  1
ＳＳ４００
 11
3070.491536593906
 21
1218.189244117361
 31
0.0
100
AcDbText
 73
     1
  0
TEXT
  5
1909
330
19
100
AcDbEntity
  8
1
  6
Continuous
 62
     7
100
AcDbText
 10
3070.491536593906
 20
1197.189244117361
 30
0.0
 40
18.0
  1
Ｌ４０ｘ４０ｘ５
 11
3070.491536593906
 21
1197.189244117361
 31
0.0
100
AcDbText
 73
     1
  0
TEXT
  5
190A
330
19
100
AcDbEntity
  8
1
  6
Continuous
 62
     7
100
AcDbText
 10
3070.491536593906
 20
1162.689244117361
 30
0.0
 40
24.0
  1
ＳＳ４００　φ９
 11
3070.491536593906
 21
1162.689244117361
 31
0.0
100
AcDbText
 73
     1
  0
TEXT
  5
190B
330
19
100
AcDbEntity
  8
1
  6
Continuous
 62
     7
100
AcDbText
 10
3070.491536593906
 20
1120.689244117361
 30
0.0
 40
24.0
  1
Ｍ８×２５
 41
0.6955472474793917
 72
     5
 11
3162.860211059169
 21
1120.689244117361
 31
0.0
100
AcDbText
  0
LINE
  5
190C
330
19
100
AcDbEntity
  8
1
  6
Continuous
 62
     7
100
AcDbLine
 10
3309.172790843006
 20
1279.689244026561
 30
0.0
 11
3309.172790843006
 21
1111.689244026561
 31
0.0
  0
TEXT
  5
190D
330
19
100
AcDbEntity
  8
1
  6
Continuous
 62
     7
100
AcDbText
 10
2849.172790593906
 20
1204.689244117361
 30
0.0
 40
24.0
  1
受枠（４分割）
 41
0.896017699115044
 72
     5
 11
3011.172790593906
 21
1204.689244117361
 31
0.0
100
AcDbText
  0
TEXT
  5
190E
330
19
100
AcDbEntity
  8
1
  6
Continuous
 62
     7
100
AcDbText
 10
3329.372790593906
 20
1246.689244117361
 30
0.0
 40
24.0
  1
個数
 41
0.7734375000000071
 72
     5
 11
3368.972790593907
 21
1246.689244117361
 31
0.0
100
AcDbText
  0
TEXT
  5
190F
330
19
100
AcDbEntity
  8
1
  6
Continuous
 62
     7
100
AcDbText
 10
3340.172790593906
 20
1204.689244117361
 30
0.0
 40
24.0
  1
１
 41
1.25
 72
     5
 11
3358.172790593906
 21
1204.689244117361
 31
0.0
100
AcDbText
  0
TEXT
  5
1910
330
19
100
AcDbEntity
  8
1
  6
Continuous
 62
     7
100
AcDbText
 10
3340.172790593906
 20
1162.689244117361
 30
0.0
 40
24.0
  1
８
 41
1.022727272727272
 72
     5
 11
3358.172790593906
 21
1162.689244117361
 31
0.0
100
AcDbText
  0
TEXT
  5
1911
330
19
100
AcDbEntity
  8
1
  6
Continuous
 62
     7
100
AcDbText
 10
3340.172790593906
 20
1120.689244117361
 30
0.0
 40
24.0
  1
８
 41
1.022727272727272
 72
     5
 11
3358.172790593906
 21
1120.689244117361
 31
0.0
100
AcDbText
  0
LINE
  5
19EE
330
19
100
AcDbEntity
  8
1
  6
Continuous
 62
     7
100
AcDbLine
 10
2325.540124382894
 20
-780.1060900081012
 30
0.0
 11
2325.540124382894
 21
-740.1060900081012
 31
0.0
  0
LINE
  5
19EF
330
19
100
AcDbEntity
  8
1
  6
Continuous
 62
     7
100
AcDbLine
 10
2330.540124382894
 20
-743.1060900081011
 30
0.0
 11
2330.540124382894
 21
-770.6060900081012
 31
0.0
  0
ARC
  5
19F0
330
19
100
AcDbEntity
  8
1
  6
Continuous
 62
     7
100
AcDbCircle
 10
2327.540124382894
 20
-743.1060900081011
 30
0.0
 40
3.0
100
AcDbArc
 50
0.0
 51
90.0
  0
ARC
  5
19F1
330
19
100
AcDbEntity
  8
1
  6
Continuous
 62
     7
100
AcDbCircle
 10
2362.540124382894
 20
-778.1060900081012
 30
0.0
 40
3.0
100
AcDbArc
 50
0.0
 51
90.0
  0
ARC
  5
19F2
330
19
100
AcDbEntity
  8
1
  6
Continuous
 62
     7
100
AcDbCircle
 10
2335.040124382894
 20
-770.6060900081012
 30
0.0
 40
4.5
100
AcDbArc
 50
180.0
 51
270.0
  0
LINE
  5
1A07
330
19
100
AcDbEntity
  8
1
  6
Continuous
 62
     7
100
AcDbLine
 10
2335.040124382894
 20
-775.1060900081012
 30
0.0
 11
2362.540124382894
 21
-775.1060900081012
 31
0.0
  0
LINE
  5
1A08
330
19
100
AcDbEntity
  8
1
  6
Continuous
 62
     7
100
AcDbLine
 10
2365.540124382894
 20
-780.1060900081012
 30
0.0
 11
2325.540124382894
 21
-780.1060900081012
 31
0.0
  0
LINE
  5
1A09
330
19
100
AcDbEntity
  8
1
  6
Continuous
 62
     7
100
AcDbLine
 10
2365.540124382894
 20
-778.1060900081012
 30
0.0
 11
2365.540124382894
 21
-780.1060900081012
 31
0.0
  0
LINE
  5
1A0A
330
19
100
AcDbEntity
  8
1
  6
Continuous
 62
     7
100
AcDbLine
 10
2325.540124382894
 20
-740.1060900081012
 30
0.0
 11
2327.540124382894
 21
-740.1060900081012
 31
0.0
  0
LINE
  5
1A0B
330
19
100
AcDbEntity
  8
1
100
AcDbLine
 10
2365.540124382894
 20
-780.1060900081012
 30
0.0
 11
2365.540124382894
 21
-1010.106090008101
 31
0.0
  0
LINE
  5
1A0C
330
19
100
AcDbEntity
  8
1
100
AcDbLine
 10
2325.540124382894
 20
-740.1060900081012
 30
0.0
 11
2136.389702803194
 21
-740.1060900081012
 31
0.0
  0
LINE
  5
1A0D
330
19
100
AcDbEntity
  8
1
100
AcDbLine
 10
2365.540124382894
 20
-910.106090008101
 30
0.0
 11
2139.287343083394
 21
-910.106090008101
 31
0.0
  0
LINE
  5
1A0E
330
19
100
AcDbEntity
  8
1
100
AcDbLine
 10
2365.540124382894
 20
-860.1060900081012
 30
0.0
 11
2139.287343083394
 21
-860.1060900081012
 31
0.0
  0
LINE
  5
1A0F
330
19
100
AcDbEntity
  8
1
100
AcDbLine
 10
2365.540124382894
 20
-1010.106090008101
 30
0.0
 11
2139.287343083394
 21
-1010.106090008101
 31
0.0
  0
LINE
  5
1A10
330
19
100
AcDbEntity
  8
8
100
AcDbLine
 10
2189.287343083394
 20
-860.1060900081012
 30
0.0
 11
2139.287343083394
 21
-910.106090008101
 31
0.0
  0
LINE
  5
1A11
330
19
100
AcDbEntity
  8
8
100
AcDbLine
 10
2147.772624457694
 20
-910.106090008101
 30
0.0
 11
2197.772624457694
 21
-860.1060900081012
 31
0.0
  0
LINE
  5
1A12
330
19
100
AcDbEntity
  8
8
100
AcDbLine
 10
2206.257905831894
 20
-860.1060900081012
 30
0.0
 11
2156.257905831894
 21
-910.106090008101
 31
0.0
  0
LINE
  5
1A13
330
19
100
AcDbEntity
  8
8
100
AcDbLine
 10
2297.679262069195
 20
-910.106090008101
 30
0.0
 11
2347.679262069195
 21
-860.1060900081012
 31
0.0
  0
LINE
  5
1A14
330
19
100
AcDbEntity
  8
8
100
AcDbLine
 10
2356.164543443394
 20
-860.1060900081012
 30
0.0
 11
2306.164543443395
 21
-910.106090008101
 31
0.0
  0
LINE
  5
1A15
330
19
100
AcDbEntity
  8
8
100
AcDbLine
 10
2314.649824817695
 20
-910.106090008101
 30
0.0
 11
2365.540124382894
 21
-860.1060900081012
 31
0.0
  0
LINE
  5
1A16
330
19
100
AcDbEntity
  8
8
100
AcDbLine
 10
2166.082262326495
 20
-910.106090008101
 30
0.0
 11
2139.287343083394
 21
-1010.106090008101
 31
0.0
  0
LINE
  5
1A17
330
19
100
AcDbEntity
  8
8
100
AcDbLine
 10
2155.364294629294
 20
-1010.106090008101
 30
0.0
 11
2147.325818856295
 21
-980.1060900081013
 31
0.0
  0
LINE
  5
1A18
330
19
100
AcDbEntity
  8
8
100
AcDbLine
 10
2158.043786553594
 20
-940.1060900081013
 30
0.0
 11
2150.005310780694
 21
-910.106090008101
 31
0.0
  0
LINE
  5
1A19
330
19
100
AcDbEntity
  8
8
100
AcDbLine
 10
2355.364294629294
 20
-1010.106090008101
 30
0.0
 11
2347.325818856294
 21
-980.1060900081013
 31
0.0
  0
LINE
  5
1A1A
330
19
100
AcDbEntity
  8
8
100
AcDbLine
 10
2358.043786553594
 20
-940.1060900081013
 30
0.0
 11
2350.005310780694
 21
-910.106090008101
 31
0.0
  0
LINE
  5
1A1B
330
19
100
AcDbEntity
  8
8
100
AcDbLine
 10
2316.082262326494
 20
-910.106090008101
 30
0.0
 11
2289.287343083394
 21
-1010.106090008101
 31
0.0
  0
LINE
  5
1A1C
330
19
100
AcDbEntity
  8
8
100
AcDbLine
 10
2305.364294629294
 20
-1010.106090008101
 30
0.0
 11
2297.325818856295
 21
-980.1060900081013
 31
0.0
  0
LINE
  5
1A1D
330
19
100
AcDbEntity
  8
8
100
AcDbLine
 10
2308.043786553594
 20
-940.1060900081013
 30
0.0
 11
2300.005310780694
 21
-910.106090008101
 31
0.0
  0
LINE
  5
1A1E
330
19
100
AcDbEntity
  8
8
100
AcDbLine
 10
2266.082262326495
 20
-910.106090008101
 30
0.0
 11
2239.287343083394
 21
-1010.106090008101
 31
0.0
  0
LINE
  5
1A1F
330
19
100
AcDbEntity
  8
8
100
AcDbLine
 10
2255.364294629294
 20
-1010.106090008101
 30
0.0
 11
2247.325818856294
 21
-980.1060900081013
 31
0.0
  0
LINE
  5
1A20
330
19
100
AcDbEntity
  8
8
100
AcDbLine
 10
2258.043786553594
 20
-940.1060900081013
 30
0.0
 11
2250.005310780694
 21
-910.106090008101
 31
0.0
  0
LINE
  5
1A21
330
19
100
AcDbEntity
  8
8
100
AcDbLine
 10
2216.082262326494
 20
-910.106090008101
 30
0.0
 11
2189.287343083394
 21
-1010.106090008101
 31
0.0
  0
LINE
  5
1A22
330
19
100
AcDbEntity
  8
8
100
AcDbLine
 10
2205.364294629294
 20
-1010.106090008101
 30
0.0
 11
2197.325818856294
 21
-980.1060900081013
 31
0.0
  0
LINE
  5
1A23
330
19
100
AcDbEntity
  8
8
100
AcDbLine
 10
2208.043786553594
 20
-940.1060900081013
 30
0.0
 11
2200.005310780694
 21
-910.106090008101
 31
0.0
  0
LINE
  5
1A24
330
19
100
AcDbEntity
  8
8
100
AcDbLine
 10
2365.540124382894
 20
-912.1293763585008
 30
0.0
 11
2339.287343083394
 21
-1010.106090008101
 31
0.0
  0
ARC
  5
1A25
330
19
100
AcDbEntity
  8
1
  6
Continuous
 62
     7
100
AcDbCircle
 10
2387.413575192794
 20
-763.1060900081012
 30
0.0
 40
3.0
100
AcDbArc
 50
7.5946433686
 51
90.0
  0
LINE
  5
1A26
330
19
100
AcDbEntity
  8
1
  6
Continuous
 62
     7
100
AcDbLine
 10
2391.808701374894
 20
-773.3704174482012
 30
0.0
 11
2390.387258894794
 21
-762.7095988478012
 31
0.0
  0
ARC
  5
1A27
330
19
100
AcDbEntity
  8
1
  6
Continuous
 62
     7
100
AcDbCircle
 10
2393.791157176294
 20
-773.1060900081012
 30
0.0
 40
2.0
100
AcDbArc
 50
187.5946433686
 51
270.0
  0
LINE
  5
1A28
330
19
100
AcDbEntity
  8
7
100
AcDbLine
 10
2410.040124382894
 20
-737.7290125448013
 30
0.0
 11
2410.040124382894
 21
-782.3960650049013
 31
0.0
  0
LINE
  5
1A29
330
19
100
AcDbEntity
  8
1
  6
Continuous
 62
     7
100
AcDbLine
 10
2423.040124382894
 20
-755.1060900081012
 30
0.0
 11
2397.040124382894
 21
-755.1060900081012
 31
0.0
  0
LINE
  5
1A2A
330
19
100
AcDbEntity
  8
1
  6
Continuous
 62
     7
100
AcDbLine
 10
2404.040124382894
 20
-755.1060900081012
 30
0.0
 11
2404.040124382894
 21
-757.1060900081012
 31
0.0
  0
LINE
  5
1A2B
330
19
100
AcDbEntity
  8
1
  6
Continuous
 62
     7
100
AcDbLine
 10
2416.040124382894
 20
-755.1060900081012
 30
0.0
 11
2416.040124382894
 21
-757.1060900081012
 31
0.0
  0
LINE
  5
1A2C
330
19
100
AcDbEntity
  8
1
  6
Continuous
 62
     7
100
AcDbLine
 10
2416.040124382894
 20
-757.1060900081012
 30
0.0
 11
2417.240124382894
 21
-760.1060900081011
 31
0.0
  0
LINE
  5
1A2D
330
19
100
AcDbEntity
  8
1
  6
Continuous
 62
     7
100
AcDbLine
 10
2404.040124382894
 20
-757.1060900081012
 30
0.0
 11
2402.840124382894
 21
-760.1060900081011
 31
0.0
  0
LINE
  5
1A2E
330
19
100
AcDbEntity
  8
1
  6
Continuous
 62
     7
100
AcDbLine
 10
2426.040124382894
 20
-745.1060900081012
 30
0.0
 11
2423.040124382894
 21
-755.1060900081012
 31
0.0
  0
LINE
  5
1A2F
330
19
100
AcDbEntity
  8
1
  6
Continuous
 62
     7
100
AcDbLine
 10
2394.040124382895
 20
-745.1060900081012
 30
0.0
 11
2397.040124382894
 21
-755.1060900081012
 31
0.0
  0
ARC
  5
1A30
330
19
100
AcDbEntity
  8
1
  6
Continuous
 62
     7
100
AcDbCircle
 10
2351.666673572895
 20
-763.1060900081012
 30
0.0
 40
3.0
100
AcDbArc
 50
90.0
 51
172.4053566314
  0
LINE
  5
1A31
330
19
100
AcDbEntity
  8
1
  6
Continuous
 62
     7
100
AcDbLine
 10
2347.271547390795
 20
-773.3704174482012
 30
0.0
 11
2348.692989870895
 21
-762.7095988478012
 31
0.0
  0
ARC
  5
1A32
330
19
100
AcDbEntity
  8
1
  6
Continuous
 62
     7
100
AcDbCircle
 10
2345.289091589494
 20
-773.1060900081012
 30
0.0
 40
2.0
100
AcDbArc
 50
270.0
 51
352.4053566314
  0
LINE
  5
1A33
330
19
100
AcDbEntity
  8
1
  6
Continuous
 62
     7
100
AcDbLine
 10
2336.915660250895
 20
-773.2391280291011
 30
0.0
 11
2335.040124382894
 21
-745.1060900081012
 31
0.0
  0
ARC
  5
1A34
330
19
100
AcDbEntity
  8
1
  6
Continuous
 62
     7
100
AcDbCircle
 10
2338.911230566594
 20
-773.1060900081012
 30
0.0
 40
2.0
100
AcDbArc
 50
183.8140748343
 51
270.0
  0
LINE
  5
1A35
330
19
100
AcDbEntity
  8
1
  6
Continuous
 62
     7
100
AcDbLine
 10
2419.840124382894
 20
-755.1060900081012
 30
0.0
 11
2419.840124382894
 21
-748.0060900081013
 31
0.0
  0
LINE
  5
1A36
330
19
100
AcDbEntity
  8
1
  6
Continuous
 62
     7
100
AcDbLine
 10
2419.840124382894
 20
-748.0060900081013
 30
0.0
 11
2419.114995382894
 21
-747.5874370081011
 31
0.0
  0
LINE
  5
1A37
330
19
100
AcDbEntity
  8
1
  6
Continuous
 62
     7
100
AcDbLine
 10
2417.318585382894
 20
-747.1060900081011
 30
0.0
 11
2402.761663382895
 21
-747.1060900081011
 31
0.0
  0
LINE
  5
1A38
330
19
100
AcDbEntity
  8
1
  6
Continuous
 62
     7
100
AcDbLine
 10
2400.965253382894
 20
-747.5874370081011
 30
0.0
 11
2400.240124382894
 21
-748.0060900081013
 31
0.0
  0
LINE
  5
1A39
330
19
100
AcDbEntity
  8
1
  6
Continuous
 62
     7
100
AcDbLine
 10
2400.240124382894
 20
-748.0060900081013
 30
0.0
 11
2400.240124382894
 21
-755.1060900081012
 31
0.0
  0
LINE
  5
1A3A
330
19
100
AcDbEntity
  8
1
  6
Continuous
 62
     7
100
AcDbLine
 10
2405.140124382894
 20
-748.0060900081013
 30
0.0
 11
2405.140124382894
 21
-755.1060900081012
 31
0.0
  0
LINE
  5
1A3B
330
19
100
AcDbEntity
  8
1
  6
Continuous
 62
     7
100
AcDbLine
 10
2414.940124382894
 20
-748.0060900081013
 30
0.0
 11
2414.940124382894
 21
-755.1060900081012
 31
0.0
  0
ARC
  5
1A3C
330
19
100
AcDbEntity
  8
1
  6
Continuous
 62
     7
100
AcDbCircle
 10
2402.761663382895
 20
-750.6989100081012
 30
0.0
 40
3.5928201014
100
AcDbArc
 50
48.54711703020001
 51
120.0000031195
  0
ARC
  5
1A3D
330
19
100
AcDbEntity
  8
1
  6
Continuous
 62
     7
100
AcDbCircle
 10
2417.318585382894
 20
-750.6989100081012
 30
0.0
 40
3.5928196612
100
AcDbArc
 50
59.9999968805
 51
131.4528829698
  0
ARC
  5
1A3E
330
19
100
AcDbEntity
  8
1
  6
Continuous
 62
     7
100
AcDbCircle
 10
2410.040124382894
 20
-760.8949788969013
 30
0.0
 40
13.7888888889
100
AcDbArc
 50
69.184577375
 51
110.815422625
  0
LINE
  5
1A3F
330
19
100
AcDbEntity
  8
4A
100
AcDbLine
 10
2413.540124382894
 20
-780.1060900081012
 30
0.0
 11
2413.540124382894
 21
-755.1060900081012
 31
0.0
  0
LINE
  5
1A40
330
19
100
AcDbEntity
  8
4A
100
AcDbLine
 10
2406.540124382895
 20
-755.1060900081012
 30
0.0
 11
2406.540124382895
 21
-780.1060900081012
 31
0.0
  0
LINE
  5
1A41
330
19
100
AcDbEntity
  8
1
  6
Continuous
 62
     7
100
AcDbLine
 10
2389.649643170294
 20
-761.1060900081012
 30
0.0
 11
2405.040124382895
 21
-761.1060900081012
 31
0.0
  0
LINE
  5
1A42
330
19
100
AcDbEntity
  8
1
  6
Continuous
 62
     7
100
AcDbLine
 10
2351.666673572895
 20
-760.1060900081011
 30
0.0
 11
2405.040124382895
 21
-760.1060900081011
 31
0.0
  0
LINE
  5
1A43
330
19
100
AcDbEntity
  8
1
  6
Continuous
 62
     7
100
AcDbLine
 10
2335.040124382894
 20
-745.1060900081012
 30
0.0
 11
2460.619739083395
 21
-745.1060900081012
 31
0.0
  0
LINE
  5
1A44
330
19
100
AcDbEntity
  8
1
  6
Continuous
 62
     7
100
AcDbLine
 10
2415.040124382894
 20
-760.1060900081011
 30
0.0
 11
2460.619739083395
 21
-760.1060900081011
 31
0.0
  0
LINE
  5
1A45
330
19
100
AcDbEntity
  8
1
  6
Continuous
 62
     7
100
AcDbLine
 10
2415.040124382894
 20
-761.1060900081012
 30
0.0
 11
2460.619739083395
 21
-761.1060900081012
 31
0.0
  0
LINE
  5
1A46
330
19
100
AcDbEntity
  8
1
  6
Continuous
 62
     7
100
AcDbLine
 10
2405.040124382895
 20
-779.1060900081012
 30
0.0
 11
2405.040124382895
 21
-755.1060900081012
 31
0.0
  0
LINE
  5
1A47
330
19
100
AcDbEntity
  8
1
  6
Continuous
 62
     7
100
AcDbLine
 10
2405.040124382895
 20
-779.1060900081012
 30
0.0
 11
2406.040124382894
 21
-780.1060900081012
 31
0.0
  0
LINE
  5
1A48
330
19
100
AcDbEntity
  8
1
  6
Continuous
 62
     7
100
AcDbLine
 10
2415.040124382894
 20
-779.1060900081012
 30
0.0
 11
2415.040124382894
 21
-755.1060900081012
 31
0.0
  0
LINE
  5
1A49
330
19
100
AcDbEntity
  8
1
  6
Continuous
 62
     7
100
AcDbLine
 10
2414.040124382895
 20
-780.1060900081012
 30
0.0
 11
2406.040124382894
 21
-780.1060900081012
 31
0.0
  0
LINE
  5
1A4A
330
19
100
AcDbEntity
  8
1
  6
Continuous
 62
     7
100
AcDbLine
 10
2414.040124382895
 20
-780.1060900081012
 30
0.0
 11
2415.040124382894
 21
-779.1060900081012
 31
0.0
  0
LINE
  5
1A4B
330
19
100
AcDbEntity
  8
1
  6
Continuous
 62
     7
100
AcDbLine
 10
2393.791157176294
 20
-775.1060900081012
 30
0.0
 11
2405.040124382895
 21
-775.1060900081012
 31
0.0
  0
LINE
  5
1A4C
330
19
100
AcDbEntity
  8
1
  6
Continuous
 62
     7
100
AcDbLine
 10
2415.040124382894
 20
-775.1060900081012
 30
0.0
 11
2460.619739083395
 21
-775.1060900081012
 31
0.0
  0
LINE
  5
1A4D
330
19
100
AcDbEntity
  8
4A
100
AcDbLine
 10
2405.040124382895
 20
-779.1060900081012
 30
0.0
 11
2415.040124382894
 21
-779.1060900081012
 31
0.0
  0
LINE
  5
1A4E
330
19
100
AcDbEntity
  8
1
100
AcDbLine
 10
2315.540124382895
 20
-740.1060900081012
 30
0.0
 11
2315.540124382895
 21
-770.1060900081012
 31
0.0
  0
LINE
  5
1A4F
330
19
100
AcDbEntity
  8
1
100
AcDbLine
 10
2231.540124382894
 20
-770.1060900081012
 30
0.0
 11
2231.540124382894
 21
-740.1060900081012
 31
0.0
  0
LINE
  5
1A50
330
19
100
AcDbEntity
  8
1
100
AcDbLine
 10
2223.540124382894
 20
-740.1060900081012
 30
0.0
 11
2223.540124382894
 21
-770.1060900081012
 31
0.0
  0
LINE
  5
1A51
330
19
100
AcDbEntity
  8
1
100
AcDbLine
 10
2223.540124382894
 20
-770.1060900081012
 30
0.0
 11
2131.540124382894
 21
-770.1060900081012
 31
0.0
  0
LINE
  5
1A52
330
19
100
AcDbEntity
  8
1
100
AcDbLine
 10
2231.540124382894
 20
-770.1060900081012
 30
0.0
 11
2315.540124382895
 21
-770.1060900081012
 31
0.0
  0
TEXT
  5
1A53
330
19
100
AcDbEntity
  8
1
  6
Continuous
 62
     7
100
AcDbText
 10
2164.254746207049
 20
-1067.096231855841
 30
0.0
 40
30.0
  1
施工参考例
 41
0.8372093023255814
 72
     5
 11
2308.254746207049
 21
-1067.096231855841
 31
0.0
100
AcDbText
  0
SOLID
  5
1A55
330
19
100
AcDbEntity
  8
6
100
AcDbTrace
 10
2333.575525298894
 20
-729.7343044442012
 30
0.0
 11
2337.952827680094
 21
-734.1415606852011
 31
0.0
 12
2327.540124382894
 22
-740.1060900081012
 32
0.0
 13
2327.540124382894
 23
-740.1060900081012
 33
0.0
  0
TEXT
  5
1A56
330
19
100
AcDbEntity
  8
6
 62
     2
100
AcDbText
 10
2459.283405133094
 20
-603.2582007168013
 30
0.0
 40
24.0
  1
アングル受枠
 41
0.7572115384615384
 72
     5
 11
2585.283405133095
 21
-603.2582007168013
 31
0.0
100
AcDbText
  0
LINE
  5
1A57
330
19
100
AcDbEntity
  8
6
100
AcDbLine
 10
2327.540124382894
 20
-740.1060900081012
 30
0.0
 11
2459.283405443494
 21
-609.2582004455013
 31
0.0
  0
LINE
  5
1A58
330
19
100
AcDbEntity
  8
6
100
AcDbLine
 10
2459.283405443494
 20
-609.2582004455013
 30
0.0
 11
2585.283405443494
 21
-609.2582004455013
 31
0.0
  0
SOLID
  5
1A59
330
19
100
AcDbEntity
  8
6
100
AcDbTrace
 10
2381.677793101695
 20
-735.7388779716012
 30
0.0
 11
2385.356541966394
 21
-740.7440243731013
 31
0.0
 12
2374.177437199194
 22
-745.1060900081012
 32
0.0
 13
2374.177437199194
 23
-745.1060900081012
 33
0.0
  0
TEXT
  5
1A5A
330
19
100
AcDbEntity
  8
6
 62
     2
100
AcDbText
 10
2462.293978133094
 20
-674.3410257168013
 30
0.0
 40
24.0
  1
ツリ－エレガンス
 41
0.7663043478260896
 72
     5
 11
2631.493978133095
 21
-674.3410257168013
 31
0.0
100
AcDbText
  0
LINE
  5
1A5B
330
19
100
AcDbEntity
  8
6
100
AcDbLine
 10
2374.177437199194
 20
-745.1060900081012
 30
0.0
 11
2462.293978449895
 21
-680.3410261950013
 31
0.0
  0
LINE
  5
1A5C
330
19
100
AcDbEntity
  8
6
100
AcDbLine
 10
2462.293978449895
 20
-680.3410261950013
 30
0.0
 11
2631.493978449894
 21
-680.3410261950013
 31
0.0
  0
SOLID
  5
1A5D
330
19
100
AcDbEntity
  8
6
100
AcDbTrace
 10
2377.119441542093
 20
-968.5790117659013
 30
0.0
 11
2373.993352130895
 21
-973.946715996101
 31
0.0
 12
2365.540124382894
 22
-965.429501625301
 32
0.0
 13
2365.540124382894
 23
-965.429501625301
 33
0.0
  0
TEXT
  5
1A5E
330
19
100
AcDbEntity
  8
6
 62
     2
100
AcDbText
 10
2462.293978133094
 20
-1015.777836716801
 30
0.0
 40
24.0
  1
クラツシャ－ラン
 41
0.7663043478260902
 72
     5
 11
2631.493978133095
 21
-1015.777836716801
 31
0.0
100
AcDbText
  0
LINE
  5
1A5F
330
19
100
AcDbEntity
  8
6
100
AcDbLine
 10
2365.540124382894
 20
-965.429501625301
 30
0.0
 11
2462.293978449895
 21
-1021.777837098801
 31
0.0
  0
LINE
  5
1A60
330
19
100
AcDbEntity
  8
6
100
AcDbLine
 10
2462.293978449895
 20
-1021.777837098801
 30
0.0
 11
2631.493978449894
 21
-1021.777837098801
 31
0.0
  0
SOLID
  5
1A61
330
19
100
AcDbEntity
  8
6
100
AcDbTrace
 10
2377.203662695894
 20
-890.9886878317012
 30
0.0
 11
2374.230205214594
 21
-896.4424236446012
 31
0.0
 12
2365.540124382894
 22
-888.1670085410011
 32
0.0
 13
2365.540124382894
 23
-888.1670085410011
 33
0.0
  0
TEXT
  5
1A62
330
19
100
AcDbEntity
  8
6
 62
     2
100
AcDbText
 10
2462.293978133094
 20
-934.9186417168013
 30
0.0
 40
24.0
  1
コンクリ－ト
 41
0.7797029702970299
 72
     5
 11
2588.293978133094
 21
-934.9186417168013
 31
0.0
100
AcDbText
  0
LINE
  5
1A63
330
19
100
AcDbEntity
  8
6
100
AcDbLine
 10
2365.540124382894
 20
-888.1670085410011
 30
0.0
 11
2462.293978449895
 21
-940.9186417502011
 31
0.0
  0
LINE
  5
1A64
330
19
100
AcDbEntity
  8
6
100
AcDbLine
 10
2462.293978449895
 20
-940.9186417502011
 30
0.0
 11
2588.293978449895
 21
-940.9186417502011
 31
0.0
  0
SOLID
  5
1A65
330
19
100
AcDbEntity
  8
6
100
AcDbTrace
 10
2377.258758937894
 20
-826.9421781380012
 30
0.0
 11
2374.397093610694
 21
-832.4553945554013
 31
0.0
 12
2365.540124382894
 22
-824.3588461489013
 32
0.0
 13
2365.540124382894
 23
-824.3588461489013
 33
0.0
  0
TEXT
  5
1A66
330
19
100
AcDbEntity
  8
6
 62
     2
100
AcDbText
 10
2462.293978133094
 20
-868.5794667168012
 30
0.0
 40
24.0
  1
モルタル
 41
0.784090909090911
 72
     5
 11
2545.093978133094
 21
-868.5794667168012
 31
0.0
100
AcDbText
  0
LINE
  5
1A67
330
19
100
AcDbEntity
  8
6
100
AcDbLine
 10
2365.540124382894
 20
-824.3588461489013
 30
0.0
 11
2462.293978449895
 21
-874.5794666537014
 31
0.0
  0
LINE
  5
1A68
330
19
100
AcDbEntity
  8
6
100
AcDbLine
 10
2462.293978449895
 20
-874.5794666537014
 30
0.0
 11
2545.093978449894
 21
-874.5794666537014
 31
0.0
  0
SOLID
  5
1A69
330
19
100
AcDbEntity
  8
6
100
AcDbTrace
 10
2283.009925175594
 20
-729.6396187442011
 30
0.0
 11
2289.029546943495
 21
-728.1070269915013
 31
0.0
 12
2288.879591203794
 22
-740.1060900081012
 32
0.0
 13
2288.879591203794
 23
-740.1060900081012
 33
0.0
  0
TEXT
  5
1A6A
330
19
100
AcDbEntity
  8
6
 62
     2
100
AcDbText
 10
2104.463445133094
 20
-674.3410257168013
 30
0.0
 40
24.0
  1
レンガ・タイル等
 41
0.7553571428571442
 72
     5
 11
2273.663445133094
 21
-674.3410257168013
 31
0.0
100
AcDbText
  0
LINE
  5
1A6B
330
19
100
AcDbEntity
  8
6
100
AcDbLine
 10
2288.879591203794
 20
-740.1060900081012
 30
0.0
 11
2273.663445167994
 21
-680.3410261950013
 31
0.0
  0
LINE
  5
1A6C
330
19
100
AcDbEntity
  8
6
100
AcDbLine
 10
2273.663445167994
 20
-680.3410261950013
 30
0.0
 11
2104.463445167994
 21
-680.3410261950013
 31
0.0
  0
DIMENSION
  5
1A6D
330
19
100
AcDbEntity
  8
5
100
AcDbDimension
  2
*D7
 10
2064.389702803194
 20
-860.1060900081012
 30
0.0
 11
2044.88763587406
 21
-800.1060900081009
 31
0.0
 70
    32
  1
<>
 71
     5
 42
120.0
  3
GEN-ISO
100
AcDbAlignedDimension
 13
2136.389702803194
 23
-740.1060900081012
 33
0.0
 14
2139.287343083394
 24
-860.1060900081012
 34
0.0
 50
90.0
100
AcDbRotatedDimension
1001
GENIUS_GENDREL_13
1005
0
1005
1A6E
1040
0.0
1001
GENIUS_GENDTOL_13
1000

1000
JS7
1000

1040
0.0
1001
ACAD
1000
DSTYLE
1002
{
1070
   178
1070
     2
1070
   174
1070
     1
1070
   279
1070
     2
1002
}
  0
DIMENSION
  5
1A6E
330
19
100
AcDbEntity
  8
5
100
AcDbDimension
  2
*D8
 10
2064.389702803194
 20
-910.106090008101
 30
0.0
 11
2044.889702803194
 21
-885.1060900081007
 31
0.0
 70
    32
  1
<>
 71
     5
 42
49.99999999999989
  3
GEN-ISO
100
AcDbAlignedDimension
 13
2139.287343083394
 23
-860.1060900081012
 33
0.0
 14
2139.287343083394
 24
-910.106090008101
 34
0.0
 50
90.0
100
AcDbRotatedDimension
1001
GENIUS_GENDREL_13
1005
1A6D
1005
1A6F
1040
0.0
1001
GENIUS_GENDTOL_13
1000

1000
JS7
1000

1040
0.0
1001
ACAD
1000
DSTYLE
1002
{
1070
   178
1070
     2
1070
   174
1070
     1
1070
   279
1070
     2
1002
}
  0
DIMENSION
  5
1A6F
330
19
100
AcDbEntity
  8
5
100
AcDbDimension
  2
*D9
 10
2064.389702803194
 20
-1010.106090008101
 30
0.0
 11
2044.889702803194
 21
-960.1060900081009
 31
0.0
 70
    32
  1
<>
 71
     5
 42
100.0000000000002
  3
GEN-ISO
100
AcDbAlignedDimension
 13
2139.287343083394
 23
-910.106090008101
 33
0.0
 14
2139.287343083394
 24
-1010.106090008101
 34
0.0
 50
90.0
100
AcDbRotatedDimension
1001
GENIUS_GENDREL_13
1005
1A6E
1005
0
1040
0.0
1001
GENIUS_GENDTOL_13
1000

1000
JS7
1000

1040
0.0
1001
ACAD
1000
DSTYLE
1002
{
1070
   178
1070
     2
1070
   174
1070
     1
1070
   279
1070
     2
1002
}
  0
DIMENSION
  5
1C0F
330
19
100
AcDbEntity
  8
5
100
AcDbDimension
  2
*D10
 10
3468.172790843004
 20
-467.4223732603042
 30
0.0
 11
3448.672790843004
 21
-519.0306409768391
 31
0.0
 70
    32
  1
<>
 71
     5
 42
40.0
  3
GEN-ISO
100
AcDbAlignedDimension
 13
3396.172790843004
 23
-427.4223732603042
 33
0.0
 14
3396.172790843004
 24
-467.4223732603041
 34
0.0
 50
90.0
100
AcDbRotatedDimension
1001
GENIUS_GENDTOL_13
1000

1000
JS7
1000

1040
0.0
1001
ACAD
1000
DSTYLE
1002
{
1070
   178
1070
     2
1070
   271
1070
     4
1002
}
  0
DIMENSION
  5
1C31
330
19
100
AcDbEntity
  8
5
100
AcDbDimension
  2
*D11
 10
2290.672790842998
 20
-507.4223732603041
 30
0.0
 11
2271.172790842999
 21
-559.0306409768392
 31
0.0
 70
    32
  1
<>
 71
     5
 42
39.99999999999995
  3
GEN-ISO
100
AcDbAlignedDimension
 13
2218.672790842998
 23
-467.4223732603041
 33
0.0
 14
2212.172790842998
 24
-507.4223732603041
 34
0.0
 50
90.0
100
AcDbRotatedDimension
1001
GENIUS_GENDTOL_13
1000

1000
JS7
1000

1040
0.0
1001
ACAD
1000
DSTYLE
1002
{
1070
   178
1070
     2
1070
   271
1070
     4
1002
}
  0
DIMENSION
  5
1C53
330
19
100
AcDbEntity
  8
5
100
AcDbDimension
  2
*D12
 10
2181.172790842999
 20
-355.4223732603042
 30
0.0
 11
2178.672790843001
 21
-335.9223732603042
 31
0.0
 12
0.0
 22
-10.0
 32
0.0
 70
    32
  1
<>
 71
     5
 42
-1.0
  3
GEN-ISO
100
AcDbAlignedDimension
 13
2176.172790843004
 23
-427.4223732603042
 33
0.0
 14
2181.172790842999
 24
-430.4223732603132
 34
0.0
100
AcDbRotatedDimension
1001
GENIUS_GENDREL_13
1005
0
1005
1C6F
1040
0.0
1001
GENIUS_GENDTOL_13
1000

1000
JS7
1000

1040
0.0
1001
ACAD
1000
DSTYLE
1002
{
1070
   174
1070
     1
1070
   271
1070
     4
1070
   279
1070
     2
1002
}
  0
DIMENSION
  5
1C6F
330
19
100
AcDbEntity
  8
5
100
AcDbDimension
  2
*D13
 10
3391.172790842999
 20
-355.4223732603042
 30
0.0
 11
2786.172790842999
 21
-335.9203063311704
 31
0.0
 70
    32
  1
<>
 71
     5
 42
1210.0
  3
GEN-ISO
100
AcDbAlignedDimension
 13
2181.172790842999
 23
-430.4223732603132
 33
0.0
 14
3391.172790842999
 24
-430.4223732603041
 34
0.0
100
AcDbRotatedDimension
1001
GENIUS_GENDREL_13
1005
1C53
1005
1D24
1040
0.0
1001
GENIUS_GENDTOL_13
1000

1000
JS7
1000

1040
0.0
1001
ACAD
1000
DSTYLE
1002
{
1070
   178
1070
     2
1070
   174
1070
     1
1070
   271
1070
     4
1070
   279
1070
     2
1002
}
  0
DIMENSION
  5
1CC6
330
19
100
AcDbEntity
  8
5
100
AcDbDimension
  2
*D14
 10
3396.172790842999
 20
-355.4223732603042
 30
0.0
 11
3393.672790842999
 21
-335.9223732603042
 31
0.0
 12
0.0
 22
-10.0
 32
0.0
 70
    32
  1
<>
 71
     5
 42
-1.0
  3
GEN-ISO
100
AcDbAlignedDimension
 13
3391.172790842999
 23
-430.4223732603041
 33
0.0
 14
3396.172790842999
 24
-427.4223732603042
 34
0.0
100
AcDbRotatedDimension
1001
GENIUS_GENDREL_13
1005
1C6F
1005
0
1040
0.0
1001
GENIUS_GENDTOL_13
1000

1000
JS7
1000

1040
0.0
1001
ACAD
1000
DSTYLE
1002
{
1070
   174
1070
     1
1070
   271
1070
     4
1070
   279
1070
     2
1002
}
  0
DIMENSION
  5
1D24
330
19
100
AcDbEntity
  8
5
100
AcDbDimension
  2
*D15
 10
2176.172790842999
 20
-295.4223732603042
 30
0.0
 11
2786.172790842999
 21
-275.9203063311703
 31
0.0
 70
    32
  1
<>
 71
     5
 42
1220.0
  3
GEN-ISO
100
AcDbAlignedDimension
 13
3396.172790842999
 23
-427.4223732603042
 33
0.0
 14
2176.172790842999
 24
-427.4223732603042
 34
0.0
100
AcDbRotatedDimension
1001
GENIUS_GENDREL_13
1005
1C6F
1005
0
1040
10.0
1001
GENIUS_GENDTOL_13
1000

1000
JS7
1000

1040
0.0
1001
ACAD
1000
DSTYLE
1002
{
1070
   178
1070
     2
1070
   271
1070
     4
1002
}
  0
INSERT
  5
1F46
330
19
100
AcDbEntity
  8
0
370
     0
100
AcDbBlockReference
 66
     1
  2
IGS2
 10
3617.172790843006
 20
-1120.310755973438
 30
0.0
 41
6.0
 42
6.0
 43
6.0
1001
GENIUS_GENOREF_13
1005
0
  0
ATTRIB
  5
1F47
330
1F46
100
AcDbEntity
  8
RAHM3
100
AcDbText
 10
2733.615270563892
 20
-928.627021984322
 30
0.0
 40
24.0
  1
1:6
100
AcDbAttribute
  2
GEN-TITLE-SCA
 70
     0
  0
ATTRIB
  5
1F48
330
1F46
100
AcDbEntity
  8
RAHM3
100
AcDbText
 10
3178.632790843006
 20
-941.8707559734384
 30
0.0
 40
30.0
  1
ツリーエレガンス用受枠
100
AcDbAttribute
  2
ＴＩＴＬＥ
 70
     0
  0
ATTRIB
  5
1F49
330
1F46
100
AcDbEntity
  8
RAHM3
100
AcDbText
 10
3187.795521907963
 20
-989.4844572107555
 30
0.0
 40
18.0
  1
IAS-12
100
AcDbAttribute
  2
ｃｏｄｅ
 70
     0
  0
ATTRIB
  5
1F4A
330
1F46
100
AcDbEntity
  8
RAHM3
100
AcDbText
 10
3192.703951879228
 20
-1031.484457210799
 30
0.0
 40
18.0
  1

100
AcDbAttribute
  2
件名
 70
     0
  0
ATTRIB
  5
1F4B
330
1F46
100
AcDbEntity
  8
RAHM3
100
AcDbText
 10
3178.632790843006
 20
-1109.870755973482
 30
0.0
 40
30.0
  1
Ｔ２２Ａ００３０２
100
AcDbAttribute
  2
Ｎｏ．
 70
     0
  0
ATTRIB
  5
1F4C
330
1F46
100
AcDbEntity
  8
RAHM3
100
AcDbText
 10
3014.472790843006
 20
-1015.868220046679
 30
0.0
 40
24.0
  1

100
AcDbAttribute
  2
ＤＲ
 70
     0
  0
ATTRIB
  5
1F4D
330
1F46
100
AcDbEntity
  8
RAHM3
100
AcDbText
 10
2994.864279019768
 20
-1043.690755973438
 30
0.0
 40
18.0
  1

 41
0.8000000000000001
100
AcDbAttribute
  2
ｄａｔｅ
 70
     0
  0
SEQEND
  5
1F4E
330
1F46
100
AcDbEntity
  8
0
370
     0
  0
LINE
  5
1F91
330
19
100
AcDbEntity
  8
0
100
AcDbLine
 10
2932.859076632338
 20
-1023.237560693275
 30
0.0
 11
2876.605532332936
 21
-1023.237560693275
 31
0.0
  0
LINE
  5
1F92
330
19
100
AcDbEntity
  8
0
100
AcDbLine
 10
2932.859076632338
 20
-1002.367995480475
 30
0.0
 11
2876.605532332936
 21
-1002.367995480475
 31
0.0
  0
CIRCLE
  5
1F93
330
19
100
AcDbEntity
  8
0
100
AcDbCircle
 10
2904.732304482637
 20
-1012.802778086875
 30
0.0
 40
29.99999999340067
  0
TEXT
  5
1F94
330
19
100
AcDbEntity
  8
TEXT
100
AcDbText
 10
2878.52512470286
 20
-1020.628865041675
 30
0.0
 40
15.6521739096
  1
98.08.06
 41
0.6894742260423897
 72
     5
 11
2929.279907300389
 21
-1020.628865041675
 31
0.0
100
AcDbText
  0
TEXT
  5
1F95
330
19
100
AcDbEntity
  8
0
100
AcDbText
 10
2898.328424561451
 20
-1040.738933254611
 30
0.0
 40
15.00000000000033
  1
本
 72
     4
 11
2905.328424561451
 21
-1033.238933254611
 31
0.0
100
AcDbText
  0
TEXT
  5
1F96
330
19
100
AcDbEntity
  8
0
100
AcDbText
 10
2897.37803548175
 20
-1000.945146257062
 30
0.0
 40
15.00000000000033
  1
松
 72
     4
 11
2904.37803548175
 21
-993.4451462570619
 31
0.0
100
AcDbText
  0
TEXT
  5
1F97
330
19
100
AcDbEntity
  8
0
100
AcDbText
 10
3047.37803548175
 20
-916.9451462570535
 30
0.0
 40
15.00000000000033
  1
鈴
 72
     4
 11
3054.37803548175
 21
-909.4451462570534
 31
0.0
100
AcDbText
  0
TEXT
  5
1F98
330
19
100
AcDbEntity
  8
0
100
AcDbText
 10
3048.328424561451
 20
-956.7389332546026
 30
0.0
 40
15.00000000000033
  1
木
 72
     4
 11
3055.328424561451
 21
-949.2389332546025
 31
0.0
100
AcDbText
  0
CIRCLE
  5
1F99
330
19
100
AcDbEntity
  8
0
100
AcDbCircle
 10
3054.732304482636
 20
-928.8027780868667
 30
0.0
 40
29.99999999340067
  0
LINE
  5
1F9A
330
19
100
AcDbEntity
  8
0
100
AcDbLine
 10
3082.859076632339
 20
-918.3679954804665
 30
0.0
 11
3026.605532332936
 21
-918.3679954804665
 31
0.0
  0
LINE
  5
1F9B
330
19
100
AcDbEntity
  8
0
100
AcDbLine
 10
3082.859076632339
 20
-939.2375606932668
 30
0.0
 11
3026.605532332936
 21
-939.2375606932672
 31
0.0
  0
TEXT
  5
1F9C
330
19
100
AcDbEntity
  8
0
100
AcDbText
 10
3047.37803548175
 20
-1000.945146257062
 30
0.0
 40
15.00000000000033
  1
松
 72
     4
 11
3054.37803548175
 21
-993.4451462570619
 31
0.0
100
AcDbText
  0
TEXT
  5
1F9D
330
19
100
AcDbEntity
  8
0
100
AcDbText
 10
3048.328424561451
 20
-1040.738933254611
 30
0.0
 40
15.00000000000033
  1
本
 72
     4
 11
3055.328424561451
 21
-1033.238933254611
 31
0.0
100
AcDbText
  0
CIRCLE
  5
1F9F
330
19
100
AcDbEntity
  8
0
100
AcDbCircle
 10
3054.732304482636
 20
-1012.802778086875
 30
0.0
 40
29.99999999340067
  0
LINE
  5
1FA0
330
19
100
AcDbEntity
  8
0
100
AcDbLine
 10
3082.859076632339
 20
-1002.367995480475
 30
0.0
 11
3026.605532332936
 21
-1002.367995480475
 31
0.0
  0
LINE
  5
1FA1
330
19
100
AcDbEntity
  8
0
100
AcDbLine
 10
3082.859076632339
 20
-1023.237560693275
 30
0.0
 11
3026.605532332936
 21
-1023.237560693275
 31
0.0
  0
LINE
  5
1FA2
330
19
100
AcDbEntity
  8
0
100
AcDbLine
 10
2932.187535574975
 20
-940.8196723835622
 30
0.0
 11
2875.933991275574
 21
-940.8196723835626
 31
0.0
  0
TEXT
  5
1FA3
330
19
100
AcDbEntity
  8
0
100
AcDbText
 10
2897.656883504088
 20
-958.321044944898
 30
0.0
 40
15.00000000000033
  1
崎
 72
     4
 11
2904.656883504088
 21
-950.8210449448979
 31
0.0
100
AcDbText
  0
TEXT
  5
1FA4
330
19
100
AcDbEntity
  8
0
100
AcDbText
 10
2896.706494424389
 20
-918.527257947349
 30
0.0
 40
15.00000000000033
  1
篠
 72
     4
 11
2903.706494424389
 21
-911.0272579473489
 31
0.0
100
AcDbText
  0
LINE
  5
1FA5
330
19
100
AcDbEntity
  8
0
100
AcDbLine
 10
2932.187535574975
 20
-919.950107170762
 30
0.0
 11
2875.933991275574
 21
-919.950107170762
 31
0.0
  0
CIRCLE
  5
1FA6
330
19
100
AcDbEntity
  8
0
100
AcDbCircle
 10
2904.060763425275
 20
-930.3848897771622
 30
0.0
 40
29.99999999340067
  0
TEXT
  5
1FA8
330
19
100
AcDbEntity
  8
TEXT
100
AcDbText
 10
2877.853583645498
 20
-938.2109767319624
 30
0.0
 40
15.6521739096
  1
98.08.06
 41
0.6894742260423897
 72
     5
 11
2928.608366243027
 21
-938.2109767319624
 31
0.0
100
AcDbText
  0
TEXT
  5
1FA9
330
19
100
AcDbEntity
  8
TEXT
100
AcDbText
 10
3028.52512470286
 20
-936.628865041667
 30
0.0
 40
15.6521739096
  1
98.08.06
 41
0.6894742260423897
 72
     5
 11
3079.279907300389
 21
-936.628865041667
 31
0.0
100
AcDbText
  0
TEXT
  5
1FAA
330
19
100
AcDbEntity
  8
TEXT
100
AcDbText
 10
3028.52512470286
 20
-1020.628865041675
 30
0.0
 40
15.6521739096
  1
98.08.06
 41
0.6894742260423897
 72
     5
 11
3079.279907300389
 21
-1020.628865041675
 31
0.0
100
AcDbText
  0
MTEXT
  5
1FD6
330
19
100
AcDbEntity
  8
建築-AM_6
100
AcDbMText
 10
3587.172790843006
 20
-1090.310755973438
 30
0.0
 40
21.0
 41
14.38526454346065
 71
     5
 72
     5
  1
1
 73
     1
 44
1.0
1001
GENIUS_AMGTXT_16
1040
3.5
1040
0.12
1001
ACAD
1000
MTEXTBEGIN
1070
    73
1070
     1
1070
    44
1040
1.0
1070
    74
1070
     0
1000
MTEXTEND
  0
LINE
  5
2017
330
19
100
AcDbEntity
  8
AM_0
100
AcDbLine
 10
2196.172790842998
 20
-507.4223732603042
 30
0.0
 11
2212.172790842998
 21
-507.4223732603042
 31
0.0
  0
LINE
  5
2018
330
19
100
AcDbEntity
  8
AM_7
100
AcDbLine
 10
2196.172790842998
 20
-502.9223732603042
 30
0.0
 11
2217.113021228738
 21
-502.9223732603042
 31
0.0
  0
LINE
  5
2019
330
19
100
AcDbEntity
  8
AM_0
100
AcDbLine
 10
2196.172790842998
 20
-498.4223732603042
 30
0.0
 11
2212.172790842998
 21
-498.4223732603042
 31
0.0
  0
ARC
  5
201A
330
19
100
AcDbEntity
  8
AM_0
100
AcDbCircle
 10
2196.172790842998
 20
-493.4223732603042
 30
0.0
 40
5.0
100
AcDbArc
 50
180.0
 51
270.0
1001
GENIUS_GENOBJ-N-FIL_13
1002
{
1000
OWNER
1000
GEN
1002
}
1001
GENIUS_GENODEF_13
1002
{
1000
HIER
1070
     0
1002
}
1002
{
1000
MANEDIT
1070
     0
1002
}
1002
{
1000
NOSEL
1070
     0
1002
}
1002
{
1000
BEHIND
1070
     0
1002
}
1002
{
1000
OTHER
1070
     0
1002
}
1002
{
1000
REACTOR
1002
}
  0
ARC
  5
201B
330
19
100
AcDbEntity
  8
AM_7
100
AcDbCircle
 10
2196.172790842998
 20
-493.4223732603042
 30
0.0
 40
9.5
100
AcDbArc
 50
180.0
 51
270.0
1001
GENIUS_GENOBJ-N-FIL_13
1002
{
1000
OWNER
1000
GEN
1002
}
1001
GENIUS_GENODEF_13
1002
{
1000
HIER
1070
     0
1002
}
1002
{
1000
MANEDIT
1070
     0
1002
}
1002
{
1000
NOSEL
1070
     0
1002
}
1002
{
1000
BEHIND
1070
     0
1002
}
1002
{
1000
OTHER
1070
     0
1002
}
1002
{
1000
REACTOR
1002
}
  0
ARC
  5
201C
330
19
100
AcDbEntity
  8
AM_0
100
AcDbCircle
 10
2196.172790842998
 20
-493.4223732603042
 30
0.0
 40
14.0
100
AcDbArc
 50
180.0
 51
270.0
1001
GENIUS_GENOBJ-N-FIL_13
1002
{
1000
OWNER
1000
GEN
1002
}
1001
GENIUS_GENODEF_13
1002
{
1000
HIER
1070
     0
1002
}
1002
{
1000
MANEDIT
1070
     0
1002
}
1002
{
1000
NOSEL
1070
     0
1002
}
1002
{
1000
BEHIND
1070
     0
1002
}
1002
{
1000
OTHER
1070
     0
1002
}
1002
{
1000
REACTOR
1002
}
  0
LINE
  5
201D
330
19
100
AcDbEntity
  8
AM_0
100
AcDbLine
 10
2212.172790842998
 20
-498.4223732603042
 30
0.0
 11
2212.172790842998
 21
-507.4223732603042
 31
0.0
  0
LINE
  5
201E
330
19
100
AcDbEntity
  8
AM_7
100
AcDbLine
 10
2186.672790842999
 20
-493.4223732603042
 30
0.0
 11
2186.672790842999
 21
-465.7448387925982
 31
0.0
  0
LINE
  5
201F
330
19
100
AcDbEntity
  8
AM_0
100
AcDbLine
 10
2182.172790842999
 20
-493.4223732603042
 30
0.0
 11
2182.172790842999
 21
-467.4223732603041
 31
0.0
  0
LINE
  5
2020
330
19
100
AcDbEntity
  8
AM_0
100
AcDbLine
 10
2191.172790842998
 20
-493.4223732603042
 30
0.0
 11
2191.172790842998
 21
-467.4223732603041
 31
0.0
  0
LINE
  5
202C
330
19
100
AcDbEntity
  8
AM_0
100
AcDbLine
 10
3360.172790843
 20
-498.4223732602679
 30
0.0
 11
3360.172790843001
 21
-507.4223732602679
 31
0.0
  0
ARC
  5
202D
330
19
100
AcDbEntity
  8
AM_0
100
AcDbCircle
 10
3376.172790843
 20
-493.4223732602669
 30
0.0
 40
14.0
100
AcDbArc
 50
270.0000000000037
 51
0.0000000000036123
1001
GENIUS_GENOBJ-N-FIL_13
1002
{
1000
OWNER
1000
GEN
1002
}
1001
GENIUS_GENODEF_13
1002
{
1000
HIER
1070
     0
1002
}
1002
{
1000
MANEDIT
1070
     0
1002
}
1002
{
1000
NOSEL
1070
     0
1002
}
1002
{
1000
BEHIND
1070
     0
1002
}
1002
{
1000
OTHER
1070
     0
1002
}
1002
{
1000
REACTOR
1002
}
  0
ARC
  5
202E
330
19
100
AcDbEntity
  8
AM_7
100
AcDbCircle
 10
3376.172790843
 20
-493.4223732602669
 30
0.0
 40
9.5
100
AcDbArc
 50
270.0000000000037
 51
0.0000000000036123
1001
GENIUS_GENOBJ-N-FIL_13
1002
{
1000
OWNER
1000
GEN
1002
}
1001
GENIUS_GENODEF_13
1002
{
1000
HIER
1070
     0
1002
}
1002
{
1000
MANEDIT
1070
     0
1002
}
1002
{
1000
NOSEL
1070
     0
1002
}
1002
{
1000
BEHIND
1070
     0
1002
}
1002
{
1000
OTHER
1070
     0
1002
}
1002
{
1000
REACTOR
1002
}
  0
ARC
  5
202F
330
19
100
AcDbEntity
  8
AM_0
100
AcDbCircle
 10
3376.172790843
 20
-493.4223732602669
 30
0.0
 40
5.0
100
AcDbArc
 50
270.0000000000037
 51
0.0000000000036123
1001
GENIUS_GENOBJ-N-FIL_13
1002
{
1000
OWNER
1000
GEN
1002
}
1001
GENIUS_GENODEF_13
1002
{
1000
HIER
1070
     0
1002
}
1002
{
1000
MANEDIT
1070
     0
1002
}
1002
{
1000
NOSEL
1070
     0
1002
}
1002
{
1000
BEHIND
1070
     0
1002
}
1002
{
1000
OTHER
1070
     0
1002
}
1002
{
1000
REACTOR
1002
}
  0
LINE
  5
2030
330
19
100
AcDbEntity
  8
AM_0
100
AcDbLine
 10
3376.172790843
 20
-498.4223732602669
 30
0.0
 11
3360.172790843
 21
-498.4223732602679
 31
0.0
  0
LINE
  5
2031
330
19
100
AcDbEntity
  8
AM_7
100
AcDbLine
 10
3376.172790843001
 20
-502.9223732602669
 30
0.0
 11
3355.232560457262
 21
-502.9223732602682
 31
0.0
  0
LINE
  5
2032
330
19
100
AcDbEntity
  8
AM_0
100
AcDbLine
 10
3376.172790843001
 20
-507.4223732602669
 30
0.0
 11
3360.172790843001
 21
-507.4223732602679
 31
0.0
  0
LINE
  5
2033
330
19
100
AcDbEntity
  8
AM_0
100
AcDbLine
 10
3381.172790843
 20
-493.4223732602666
 30
0.0
 11
3381.172790842999
 21
-467.4223732602666
 31
0.0
  0
LINE
  5
2034
330
19
100
AcDbEntity
  8
AM_0
100
AcDbLine
 10
3390.172790843
 20
-493.422373260266
 30
0.0
 11
3390.172790842998
 21
-467.422373260266
 31
0.0
  0
ARC
  5
204B
330
19
100
AcDbEntity
  8
0
100
AcDbCircle
 10
2426.172790842978
 20
-502.9223732603042
 30
0.0
 40
4.5
100
AcDbArc
 50
0.0
 51
180.0
  0
LINE
  5
204C
330
19
100
AcDbEntity
  8
0
100
AcDbLine
 10
2421.672790842978
 20
-502.9223732603042
 30
0.0
 11
2421.672790842978
 21
-467.4223732603041
 31
0.0
  0
ARC
  5
204D
330
19
100
AcDbEntity
  8
0
100
AcDbCircle
 10
2426.172790842978
 20
-502.9223732603042
 30
0.0
 40
4.5
100
AcDbArc
 50
180.0
 51
0.0
  0
LINE
  5
204E
330
19
100
AcDbEntity
  8
0
100
AcDbLine
 10
2430.672790842978
 20
-502.9223732603042
 30
0.0
 11
2430.672790842978
 21
-467.4223732603041
 31
0.0
  0
LINE
  5
204F
330
19
100
AcDbEntity
  8
AM_7
  6
AM_ISO08W050x2
100
AcDbLine
 10
2426.172790842978
 20
-516.8923732603042
 30
0.0
 11
2426.172790842978
 21
-453.4523732603041
 31
0.0
1001
GENIUS_GENODEF_13
1002
{
1000
HIER
1070
     0
1002
}
1002
{
1000
MANEDIT
1070
     0
1002
}
1002
{
1000
NOSEL
1070
     0
1002
}
1002
{
1000
BEHIND
1070
     0
1002
}
1002
{
1000
OTHER
1070
     0
1002
}
1002
{
1000
REACTOR
1002
}
1001
GENIUS_GENOBJ-N-CEN_13
1002
{
1000
OWNER
1000
GEN
1002
}
  0
LINE
  5
2050
330
19
100
AcDbEntity
  8
AM_7
  6
AM_ISO08W050x2
100
AcDbLine
 10
3146.17279084302
 20
-516.8923732603042
 30
0.0
 11
3146.17279084302
 21
-453.4523732603041
 31
0.0
1001
GENIUS_GENODEF_13
1002
{
1000
HIER
1070
     0
1002
}
1002
{
1000
MANEDIT
1070
     0
1002
}
1002
{
1000
NOSEL
1070
     0
1002
}
1002
{
1000
BEHIND
1070
     0
1002
}
1002
{
1000
OTHER
1070
     0
1002
}
1002
{
1000
REACTOR
1002
}
1001
GENIUS_GENOBJ-N-CEN_13
1002
{
1000
OWNER
1000
GEN
1002
}
  0
LINE
  5
2051
330
19
100
AcDbEntity
  8
0
100
AcDbLine
 10
3141.672790843021
 20
-502.9223732603042
 30
0.0
 11
3141.672790843021
 21
-467.4223732603041
 31
0.0
  0
ARC
  5
2052
330
19
100
AcDbEntity
  8
0
100
AcDbCircle
 10
3146.17279084302
 20
-502.9223732603042
 30
0.0
 40
4.5
100
AcDbArc
 50
180.0
 51
0.000000000000007
  0
LINE
  5
2053
330
19
100
AcDbEntity
  8
0
100
AcDbLine
 10
3150.67279084302
 20
-502.9223732603042
 30
0.0
 11
3150.67279084302
 21
-467.4223732603041
 31
0.0
  0
ARC
  5
2054
330
19
100
AcDbEntity
  8
0
100
AcDbCircle
 10
3146.17279084302
 20
-502.9223732603042
 30
0.0
 40
4.5
100
AcDbArc
 50
0.000000000000007
 51
180.0
  0
LINE
  5
2063
330
19
100
AcDbEntity
  8
7
100
AcDbLine
 10
2413.604272897277
 20
-208.1046758073041
 30
0.0
 11
2438.741308788778
 21
-208.1046758073041
 31
0.0
  0
LINE
  5
2064
330
19
100
AcDbEntity
  8
3A
 48
0.5
100
AcDbLine
 10
2421.672790842978
 20
-208.1046758073041
 30
0.0
 11
2421.672790842978
 21
-182.6046758073541
 31
0.0
  0
LINE
  5
2065
330
19
100
AcDbEntity
  8
3A
 48
0.5
100
AcDbLine
 10
2430.672790843105
 20
-182.6046758073541
 30
0.0
 11
2430.672790842978
 21
-208.1046758073041
 31
0.0
  0
LINE
  5
2066
330
19
100
AcDbEntity
  8
7
100
AcDbLine
 10
2426.172790842978
 20
-171.2666800885042
 30
0.0
 11
2426.172790842978
 21
-220.6731937530042
 31
0.0
  0
LINE
  5
2067
330
19
100
AcDbEntity
  8
3A
 48
0.5
100
AcDbLine
 10
2421.672790842978
 20
-182.6046758073541
 30
0.0
 11
2430.672790843105
 21
-182.6046758073541
 31
0.0
  0
CIRCLE
  5
2068
330
19
100
AcDbEntity
  8
3A
 48
0.5
100
AcDbCircle
 10
2426.172790843028
 20
-208.1046758073041
 30
0.0
 40
4.500000000050022
  0
CIRCLE
  5
2069
330
19
100
AcDbEntity
  8
3A
 48
0.5
100
AcDbCircle
 10
3146.172790842971
 20
-208.1046758073041
 30
0.0
 40
4.500000000050022
  0
LINE
  5
206A
330
19
100
AcDbEntity
  8
3A
 48
0.5
100
AcDbLine
 10
3150.67279084302
 20
-182.6046758073541
 30
0.0
 11
3141.672790842893
 21
-182.6046758073541
 31
0.0
  0
LINE
  5
206B
330
19
100
AcDbEntity
  8
7
100
AcDbLine
 10
3146.17279084302
 20
-171.2666800885042
 30
0.0
 11
3146.17279084302
 21
-220.6731937530042
 31
0.0
  0
LINE
  5
206C
330
19
100
AcDbEntity
  8
3A
 48
0.5
100
AcDbLine
 10
3141.672790842893
 20
-182.6046758073541
 30
0.0
 11
3141.672790843021
 21
-208.1046758073041
 31
0.0
  0
LINE
  5
206D
330
19
100
AcDbEntity
  8
3A
 48
0.5
100
AcDbLine
 10
3150.67279084302
 20
-208.1046758073041
 30
0.0
 11
3150.67279084302
 21
-182.6046758073541
 31
0.0
  0
LINE
  5
206E
330
19
100
AcDbEntity
  8
7
100
AcDbLine
 10
3158.74130878872
 20
-208.1046758073041
 30
0.0
 11
3133.60427289722
 21
-208.1046758073041
 31
0.0
  0
CIRCLE
  5
206F
330
19
100
AcDbEntity
  8
3A
 48
0.5
100
AcDbCircle
 10
2426.172790843028
 20
990.8953241926958
 30
0.0
 40
4.500000000050022
  0
LINE
  5
2070
330
19
100
AcDbEntity
  8
3A
 48
0.5
100
AcDbLine
 10
2421.672790842978
 20
965.395324192746
 30
0.0
 11
2430.672790843105
 21
965.395324192746
 31
0.0
  0
LINE
  5
2071
330
19
100
AcDbEntity
  8
7
100
AcDbLine
 10
2426.172790842978
 20
954.0573284738961
 30
0.0
 11
2426.172790842978
 21
1003.463842138396
 31
0.0
  0
LINE
  5
2072
330
19
100
AcDbEntity
  8
3A
 48
0.5
100
AcDbLine
 10
2430.672790843105
 20
965.395324192746
 30
0.0
 11
2430.672790842978
 21
990.8953241926958
 31
0.0
  0
LINE
  5
2073
330
19
100
AcDbEntity
  8
3A
 48
0.5
100
AcDbLine
 10
2421.672790842978
 20
990.8953241926958
 30
0.0
 11
2421.672790842978
 21
965.395324192746
 31
0.0
  0
LINE
  5
2074
330
19
100
AcDbEntity
  8
7
100
AcDbLine
 10
2413.604272897277
 20
990.8953241926958
 30
0.0
 11
2438.741308788778
 21
990.8953241926958
 31
0.0
  0
LINE
  5
2075
330
19
100
AcDbEntity
  8
7
100
AcDbLine
 10
3158.74130878872
 20
990.8953241926958
 30
0.0
 11
3133.60427289722
 21
990.8953241926958
 31
0.0
  0
LINE
  5
2076
330
19
100
AcDbEntity
  8
3A
 48
0.5
100
AcDbLine
 10
3150.67279084302
 20
990.8953241926958
 30
0.0
 11
3150.67279084302
 21
965.395324192746
 31
0.0
  0
LINE
  5
2077
330
19
100
AcDbEntity
  8
3A
 48
0.5
100
AcDbLine
 10
3141.672790842893
 20
965.395324192746
 30
0.0
 11
3141.672790843021
 21
990.8953241926958
 31
0.0
  0
LINE
  5
2078
330
19
100
AcDbEntity
  8
7
100
AcDbLine
 10
3146.17279084302
 20
954.0573284738961
 30
0.0
 11
3146.17279084302
 21
1003.463842138396
 31
0.0
  0
LINE
  5
2079
330
19
100
AcDbEntity
  8
3A
 48
0.5
100
AcDbLine
 10
3150.67279084302
 20
965.395324192746
 30
0.0
 11
3141.672790842893
 21
965.395324192746
 31
0.0
  0
CIRCLE
  5
207A
330
19
100
AcDbEntity
  8
3A
 48
0.5
100
AcDbCircle
 10
3146.172790842971
 20
990.8953241926958
 30
0.0
 40
4.500000000050022
  0
LINE
  5
2092
330
19
100
AcDbEntity
  8
7
100
AcDbLine
 10
2186.672790842999
 20
43.96384213837473
 30
0.0
 11
2186.672790842999
 21
18.82680624687464
 31
0.0
  0
LINE
  5
2093
330
19
100
AcDbEntity
  8
3A
 48
0.5
100
AcDbLine
 10
2186.672790842999
 20
35.89532419267471
 30
0.0
 11
2212.172790842949
 21
35.89532419267471
 31
0.0
  0
LINE
  5
2094
330
19
100
AcDbEntity
  8
3A
 48
0.5
100
AcDbLine
 10
2212.172790842949
 20
26.89532419254715
 30
0.0
 11
2186.672790842999
 21
26.89532419267471
 31
0.0
  0
LINE
  5
2095
330
19
100
AcDbEntity
  8
7
100
AcDbLine
 10
2223.510786561799
 20
31.39532419267471
 30
0.0
 11
2174.104272897299
 21
31.39532419267471
 31
0.0
  0
LINE
  5
2096
330
19
100
AcDbEntity
  8
3A
 48
0.5
100
AcDbLine
 10
2212.172790842949
 20
35.89532419267471
 30
0.0
 11
2212.172790842949
 21
26.89532419254715
 31
0.0
  0
CIRCLE
  5
2097
330
19
100
AcDbEntity
  8
3A
 48
0.5
100
AcDbCircle
 10
2186.672790842999
 20
31.39532419262469
 30
0.0
 40
4.500000000050022
  0
CIRCLE
  5
2098
330
19
100
AcDbEntity
  8
3A
 48
0.5
100
AcDbCircle
 10
2186.672790842999
 20
751.395324192767
 30
0.0
 40
4.500000000050022
  0
LINE
  5
2099
330
19
100
AcDbEntity
  8
3A
 48
0.5
100
AcDbLine
 10
2212.172790842949
 20
746.8953241927169
 30
0.0
 11
2212.172790842949
 21
755.8953241928445
 31
0.0
  0
LINE
  5
209A
330
19
100
AcDbEntity
  8
7
100
AcDbLine
 10
2223.510786561799
 20
751.3953241927169
 30
0.0
 11
2174.104272897299
 21
751.3953241927169
 31
0.0
  0
LINE
  5
209B
330
19
100
AcDbEntity
  8
3A
 48
0.5
100
AcDbLine
 10
2212.172790842949
 20
755.8953241928445
 30
0.0
 11
2186.672790842999
 21
755.895324192717
 31
0.0
  0
LINE
  5
209C
330
19
100
AcDbEntity
  8
3A
 48
0.5
100
AcDbLine
 10
2186.672790842999
 20
746.8953241927169
 30
0.0
 11
2212.172790842949
 21
746.8953241927169
 31
0.0
  0
LINE
  5
209D
330
19
100
AcDbEntity
  8
7
100
AcDbLine
 10
2186.672790842999
 20
738.8268062470169
 30
0.0
 11
2186.672790842999
 21
763.963842138517
 31
0.0
  0
CIRCLE
  5
209E
330
19
100
AcDbEntity
  8
3A
 48
0.5
100
AcDbCircle
 10
3385.672790842999
 20
31.39532419262469
 30
0.0
 40
4.500000000050022
  0
LINE
  5
209F
330
19
100
AcDbEntity
  8
3A
 48
0.5
100
AcDbLine
 10
3360.172790843049
 20
35.89532419267471
 30
0.0
 11
3360.172790843049
 21
26.89532419254715
 31
0.0
  0
LINE
  5
20A0
330
19
100
AcDbEntity
  8
7
100
AcDbLine
 10
3348.834795124199
 20
31.39532419267471
 30
0.0
 11
3398.241308788699
 21
31.39532419267471
 31
0.0
  0
LINE
  5
20A1
330
19
100
AcDbEntity
  8
3A
 48
0.5
100
AcDbLine
 10
3360.172790843049
 20
26.89532419254715
 30
0.0
 11
3385.672790842999
 21
26.89532419267471
 31
0.0
  0
LINE
  5
20A2
330
19
100
AcDbEntity
  8
3A
 48
0.5
100
AcDbLine
 10
3385.672790842999
 20
35.89532419267471
 30
0.0
 11
3360.172790843049
 21
35.89532419267471
 31
0.0
  0
LINE
  5
20A3
330
19
100
AcDbEntity
  8
7
100
AcDbLine
 10
3385.672790842999
 20
43.96384213837473
 30
0.0
 11
3385.672790842999
 21
18.82680624687464
 31
0.0
  0
LINE
  5
20A4
330
19
100
AcDbEntity
  8
7
100
AcDbLine
 10
3385.672790842999
 20
738.8268062470169
 30
0.0
 11
3385.672790842999
 21
763.963842138517
 31
0.0
  0
LINE
  5
20A5
330
19
100
AcDbEntity
  8
3A
 48
0.5
100
AcDbLine
 10
3385.672790842999
 20
746.8953241927169
 30
0.0
 11
3360.172790843049
 21
746.8953241927169
 31
0.0
  0
LINE
  5
20A6
330
19
100
AcDbEntity
  8
3A
 48
0.5
100
AcDbLine
 10
3360.172790843049
 20
755.8953241928445
 30
0.0
 11
3385.672790842999
 21
755.895324192717
 31
0.0
  0
LINE
  5
20A7
330
19
100
AcDbEntity
  8
7
100
AcDbLine
 10
3348.834795124199
 20
751.3953241927169
 30
0.0
 11
3398.241308788699
 21
751.3953241927169
 31
0.0
  0
LINE
  5
20A8
330
19
100
AcDbEntity
  8
3A
 48
0.5
100
AcDbLine
 10
3360.172790843049
 20
746.8953241927169
 30
0.0
 11
3360.172790843049
 21
755.8953241928445
 31
0.0
  0
CIRCLE
  5
20A9
330
19
100
AcDbEntity
  8
3A
 48
0.5
100
AcDbCircle
 10
3385.672790842999
 20
751.395324192767
 30
0.0
 40
4.500000000050022
  0
LINE
  5
20AA
330
19
100
AcDbEntity
  8
AM_7
100
AcDbLine
 10
3385.672790842999
 20
-493.422373260316
 30
0.0
 11
3385.672790842999
 21
-465.7448387926101
 31
0.0
  0
LINE
  5
20AB
330
19
100
AcDbEntity
  8
AM_0
100
AcDbLine
 10
2361.540124382894
 20
-811.1060900081012
 30
0.0
 11
2361.540124382894
 21
-820.1060900081012
 31
0.0
  0
ARC
  5
20AC
330
19
100
AcDbEntity
  8
AM_0
100
AcDbCircle
 10
2345.540124382894
 20
-806.1060900081011
 30
0.0
 40
14.0
100
AcDbArc
 50
180.0
 51
270.0
1001
GENIUS_GENOBJ-N-FIL_13
1002
{
1000
OWNER
1000
GEN
1002
}
1001
GENIUS_GENODEF_13
1002
{
1000
HIER
1070
     0
1002
}
1002
{
1000
MANEDIT
1070
     0
1002
}
1002
{
1000
NOSEL
1070
     0
1002
}
1002
{
1000
BEHIND
1070
     0
1002
}
1002
{
1000
OTHER
1070
     0
1002
}
1002
{
1000
REACTOR
1002
}
  0
ARC
  5
20AD
330
19
100
AcDbEntity
  8
AM_7
100
AcDbCircle
 10
2345.540124382894
 20
-806.1060900081011
 30
0.0
 40
9.5
100
AcDbArc
 50
180.0
 51
270.0
1001
GENIUS_GENOBJ-N-FIL_13
1002
{
1000
OWNER
1000
GEN
1002
}
1001
GENIUS_GENODEF_13
1002
{
1000
HIER
1070
     0
1002
}
1002
{
1000
MANEDIT
1070
     0
1002
}
1002
{
1000
NOSEL
1070
     0
1002
}
1002
{
1000
BEHIND
1070
     0
1002
}
1002
{
1000
OTHER
1070
     0
1002
}
1002
{
1000
REACTOR
1002
}
  0
ARC
  5
20AE
330
19
100
AcDbEntity
  8
AM_0
100
AcDbCircle
 10
2345.540124382894
 20
-806.1060900081011
 30
0.0
 40
5.0
100
AcDbArc
 50
180.0
 51
270.0
1001
GENIUS_GENOBJ-N-FIL_13
1002
{
1000
OWNER
1000
GEN
1002
}
1001
GENIUS_GENODEF_13
1002
{
1000
HIER
1070
     0
1002
}
1002
{
1000
MANEDIT
1070
     0
1002
}
1002
{
1000
NOSEL
1070
     0
1002
}
1002
{
1000
BEHIND
1070
     0
1002
}
1002
{
1000
OTHER
1070
     0
1002
}
1002
{
1000
REACTOR
1002
}
  0
LINE
  5
20AF
330
19
100
AcDbEntity
  8
AM_0
100
AcDbLine
 10
2345.540124382894
 20
-811.1060900081012
 30
0.0
 11
2361.540124382894
 21
-811.1060900081012
 31
0.0
  0
LINE
  5
20B0
330
19
100
AcDbEntity
  8
AM_7
100
AcDbLine
 10
2345.540124382894
 20
-815.6060900081012
 30
0.0
 11
2366.480354768633
 21
-815.6060900081012
 31
0.0
  0
LINE
  5
20B1
330
19
100
AcDbEntity
  8
AM_0
100
AcDbLine
 10
2345.540124382894
 20
-820.1060900081012
 30
0.0
 11
2361.540124382894
 21
-820.1060900081012
 31
0.0
  0
LINE
  5
20B2
330
19
100
AcDbEntity
  8
AM_0
100
AcDbLine
 10
2340.540124382894
 20
-806.1060900081011
 30
0.0
 11
2340.540124382894
 21
-780.1060900081012
 31
0.0
  0
LINE
  5
20B3
330
19
100
AcDbEntity
  8
AM_0
100
AcDbLine
 10
2331.540124382894
 20
-806.1060900081011
 30
0.0
 11
2331.540124382894
 21
-780.1060900081012
 31
0.0
  0
LINE
  5
20B4
330
19
100
AcDbEntity
  8
AM_7
100
AcDbLine
 10
2336.040124382894
 20
-806.1060900081011
 30
0.0
 11
2336.040124382894
 21
-778.4285555403952
 31
0.0
  0
TEXT
  5
20D8
330
19
100
AcDbEntity
  8
1
  6
Continuous
 62
     7
100
AcDbText
 10
3402.079321593905
 20
1162.689244117361
 30
0.0
 40
24.0
  1
樹脂系塗料塗装
 41
0.8299180327868851
 72
     5
 11
3564.079321593906
 21
1162.689244117361
 31
0.0
100
AcDbText
  0
ENDSEC
  0
SECTION
  2
OBJECTS
  0
DICTIONARY
  5
C
330
0
100
AcDbDictionary
281
     1
  3
ACAD_COLOR
350
1DED
  3
ACAD_GROUP
350
D
  3
ACAD_LAYOUT
350
1D51
  3
ACAD_MATERIAL
350
1DEC
  3
ACAD_MLINESTYLE
350
E
  3
ACAD_PLOTSETTINGS
350
1D52
  3
ACAD_PLOTSTYLENAME
350
1D4F
  3
ACDBHEADERROUNDTRIPXREC
350
2199
  3
AcDbVariableDictionary
350
1D62
  3
AcmDictionary
350
1D75
  3
AMG
350
1D59
  3
AMGSNAPSETTINGS
350
1E51
  3
ASE_INDEX_DICTIONARY
350
2191
  3
DWGPROPS
350
2198
  0
DICTIONARY
  5
1F70
330
2
100
AcDbDictionary
280
     1
281
     1
  3
ACAD_LAYERSTATES
360
1F71
  0
DICTIONARY
  5
1DDB
330
19
100
AcDbDictionary
280
     1
281
     1
  3
ACAD_INDEX
360
1DDC
  0
DICTIONARY
  5
1FD1
330
1E9E
100
AcDbDictionary
280
     1
281
     1
  3
ACAD_SORTENTS
360
208E
  0
DICTIONARY
  5
1DED
102
{ACAD_REACTORS
330
C
102
}
330
C
100
AcDbDictionary
281
     1
  0
DICTIONARY
  5
D
102
{ACAD_REACTORS
330
C
102
}
330
C
100
AcDbDictionary
281
     1
  0
DICTIONARY
  5
1D51
102
{ACAD_REACTORS
330
C
102
}
330
C
100
AcDbDictionary
281
     1
  3
Model
350
1D53
  3
ﾚｲｱｳﾄ1
350
1D54
  0
DICTIONARY
  5
1DEC
102
{ACAD_REACTORS
330
C
102
}
330
C
100
AcDbDictionary
281
     1
  0
DICTIONARY
  5
E
102
{ACAD_REACTORS
330
C
102
}
330
C
100
AcDbDictionary
281
     1
  3
STANDARD
350
1C
  0
DICTIONARY
  5
1D52
102
{ACAD_REACTORS
330
C
102
}
330
C
100
AcDbDictionary
281
     1
  0
ACDBDICTIONARYWDFLT
  5
1D4F
102
{ACAD_REACTORS
330
C
102
}
330
C
100
AcDbDictionary
281
     1
  3
Normal
350
1D50
100
AcDbDictionaryWithDefault
340
1D50
  0
DICTIONARY
  5
2199
102
{ACAD_REACTORS
330
C
102
}
330
C
100
AcDbDictionary
281
     1
  0
DICTIONARY
  5
1D62
102
{ACAD_REACTORS
330
C
102
}
330
C
100
AcDbDictionary
281
     1
  3
DIMASSOC
350
2195
  3
INDEXCTL
350
1D63
  3
PROJECTNAME
350
2196
  3
SORTENTS
350
2194
  0
DICTIONARY
  5
1D75
102
{ACAD_REACTORS
330
C
102
}
330
C
100
AcDbDictionary
281
     1
  3
AcmStdDictionary
350
1D7A
  3
AMDTSECTSYM_ARROWCOLOR
350
1DF4
  0
DICTIONARY
  5
1D59
102
{ACAD_REACTORS
330
C
102
}
330
C
100
AcDbDictionary
281
     1
  0
DICTIONARY
  5
1E51
102
{ACAD_REACTORS
330
C
102
}
330
C
100
AcDbDictionary
281
     1
  0
DICTIONARY
  5
2191
102
{ACAD_REACTORS
330
C
102
}
330
C
100
AcDbDictionary
281
     1
  3
ASEBlockHierarchyIndexRecord
350
2193
1001
DCO15
1040
1687091681.968
  0
XRECORD
  5
2198
102
{ACAD_REACTORS
330
C
102
}
330
C
100
AcDbXrecord
280
     1
  1
DWGPROPS COOKIE
  2

  3

  4

  6

  7

  8

  9

300
AmdtFileType=84
301
=
302
=
303
=
304
=
305
=
306
=
307
=
308
=
309
=
 40
0.0496707523148148
 41
2450480.0
 42
2455329.735948704
  1

 90
        1
  0
DICTIONARY
  5
1F71
102
{ACAD_REACTORS
330
1F70
102
}
330
1F70
100
AcDbDictionary
281
     1
  0
DICTIONARY
  5
1DDC
102
{ACAD_REACTORS
330
1DDB
102
}
330
1DDB
100
AcDbDictionary
281
     1
  3
*A1
350
1DDD
  0
SORTENTSTABLE
  5
208E
102
{ACAD_REACTORS
330
1FD1
102
}
330
1FD1
100
AcDbSortentsTable
330
1E9E
  0
LAYOUT
  5
1D53
102
{ACAD_XDICTIONARY
360
219A
102
}
102
{ACAD_REACTORS
330
1D51
102
}
330
1D51
100
AcDbPlotSettings
  1

  2
none_device
  4
Letter_(8.50_x_11.00_Inches)
  6

 40
6.349999904632568
 41
6.349999904632568
 42
6.350006103515625
 43
6.350006103515625
 44
215.8999938964844
 45
279.3999938964844
 46
0.0
 47
0.0
 48
0.0
 49
0.0
140
0.0
141
0.0
142
1.0
143
1.0
 70
 11952
 72
     1
 73
     1
 74
     0
  7
monochrome.ctb
 75
     0
147
1.0
148
-1576.582229123399
149
1129.850954676087
100
AcDbLayout
  1
Model
 70
     1
 71
     0
 10
0.0
 20
0.0
 11
12.0
 21
9.0
 12
0.0
 22
0.0
 32
0.0
 14
0.0
 24
0.0
 34
0.0
 15
0.0
 25
0.0
 35
0.0
146
0.0
 13
0.0
 23
0.0
 33
0.0
 16
1.0
 26
0.0
 36
0.0
 17
0.0
 27
1.0
 37
0.0
 76
     0
330
19
  0
LAYOUT
  5
1D54
102
{ACAD_XDICTIONARY
360
219C
102
}
102
{ACAD_REACTORS
330
1D51
102
}
330
1D51
100
AcDbPlotSettings
  1

  2
CASIO SPEEDIA N4
  4

  6

 40
0.0
 41
0.0
 42
0.0
 43
0.0
 44
0.0
 45
0.0
 46
0.0
 47
0.0
 48
0.0
 49
0.0
140
0.0
141
0.0
142
1.0
143
1.0
 70
   688
 72
     0
 73
     0
 74
     5
  7
KY-monochrome.ctb
 75
    16
147
1.0
148
0.0
149
0.0
100
AcDbLayout
  1
ﾚｲｱｳﾄ1
 70
     1
 71
     1
 10
0.0
 20
0.0
 11
12.0
 21
9.0
 12
0.0
 22
0.0
 32
0.0
 14
1.000000000000000E+20
 24
1.000000000000000E+20
 34
1.000000000000000E+20
 15
-1.000000000000000E+20
 25
-1.000000000000000E+20
 35
-1.000000000000000E+20
146
0.0
 13
0.0
 23
0.0
 33
0.0
 16
1.0
 26
0.0
 36
0.0
 17
0.0
 27
1.0
 37
0.0
 76
     0
330
16
  0
MLINESTYLE
  5
1C
102
{ACAD_REACTORS
330
E
102
}
330
E
100
AcDbMlineStyle
  2
STANDARD
 70
     0
  3

 62
     0
 51
90.0
 52
90.0
 71
     2
 49
0.5
 62
   256
  6
BYLAYER
 49
-0.5
 62
   256
  6
BYLAYER
  0
ACDBPLACEHOLDER
  5
1D50
102
{ACAD_REACTORS
330
1D4F
102
}
330
1D4F
  0
DICTIONARYVAR
  5
2195
102
{ACAD_REACTORS
330
1D62
102
}
330
1D62
100
DictionaryVariables
280
     0
  1
1
  0
DICTIONARYVAR
  5
1D63
102
{ACAD_REACTORS
330
1D62
102
}
330
1D62
100
DictionaryVariables
280
     0
  1
1
  0
DICTIONARYVAR
  5
2196
102
{ACAD_REACTORS
330
1D62
102
}
330
1D62
100
DictionaryVariables
280
     0
  1

  0
DICTIONARYVAR
  5
2194
102
{ACAD_REACTORS
330
1D62
102
}
330
1D62
100
DictionaryVariables
280
     0
  1
103
  0
DICTIONARY
  5
1D7A
102
{ACAD_REACTORS
330
1D75
102
}
330
1D75
100
AcDbDictionary
281
     1
  0
XRECORD
  5
1DF4
102
{ACAD_REACTORS
330
1D75
102
}
330
1D75
100
AcDbXrecord
280
     1
 90
-1023410169
  0
XRECORD
  5
2193
102
{ACAD_REACTORS
330
2191
102
}
330
2191
100
AcDbXrecord
280
     1
330
1B5
330
1B6
330
2A6
330
18F8
330
18F9
330
18FA
330
1F46
  0
LAYER_INDEX
  5
1DDD
102
{ACAD_REACTORS
330
1DDC
102
}
330
1DDC
100
AcDbIndex
 40
2455329.735948704
100
AcDbLayerIndex
  8
0
360
1DDE
 90
       33
  8
1
360
1DDF
 90
      169
  8
DEFPOINTS
360
1DE0
 90
        0
  8
RAHM2
360
1DE1
 90
        4
  8
5
360
1DE2
 90
        9
  8
RAHM3
360
1DE3
 90
        0
  8
7A
360
1DE4
 90
        0
  8
7
360
1DE5
 90
       32
  8
6
360
1DE6
 90
       24
  8
8
360
1DE7
 90
       21
  8
4A
360
1DE8
 90
        3
  8
3
360
1DE9
 90
        0
  8
TEXT
360
1FAC
 90
        4
  8
建築-AM_6
360
20B5
 90
        1
  8
KLIN
360
20B6
 90
        0
  8
AM_0
360
20B7
 90
       21
  8
AM_7
360
20B8
 90
       11
  8
3A
360
20B9
 90
       32
  0
DICTIONARY
  5
219A
330
1D53
100
AcDbDictionary
280
     1
281
     1
  3
ACAD_XREC_ROUNDTRIP
360
219B
  0
DICTIONARY
  5
219C
330
1D54
100
AcDbDictionary
280
     1
281
     1
  3
ACAD_XREC_ROUNDTRIP
360
219D
  0
IDBUFFER
  5
1DDE
330
0
100
AcDbIdBuffer
330
204B
330
204C
330
204D
330
204E
330
2051
330
2052
330
2053
330
2054
330
142A
330
142B
330
142C
330
142D
330
1F46
330
1F91
330
1F92
330
1F93
330
1F95
330
1F96
330
1F97
330
1F98
330
1F99
330
1F9A
330
1F9B
330
1F9C
330
1F9D
330
1F9F
330
1FA0
330
1FA1
330
1FA2
330
1FA3
330
1FA4
330
1FA5
330
1FA6
  0
IDBUFFER
  5
1DDF
330
0
100
AcDbIdBuffer
330
1A25
330
1A26
330
1A27
330
1A29
330
1A2A
330
1A2B
330
1A2C
330
1A2D
330
1A2E
330
1A2F
330
1A30
330
1A31
330
1A32
330
1A33
330
1A34
330
1A35
330
1A36
330
1A37
330
1A38
330
1A39
330
1A3A
330
1A3B
330
1A3C
330
1A3D
330
1A3E
330
1A41
330
1A42
330
1A43
330
1A44
330
1A45
330
1A46
330
1A47
330
1A48
330
1A49
330
1A4A
330
1A4B
330
1A4C
330
20D8
330
E9
330
EA
330
EB
330
EC
330
ED
330
EE
330
EF
330
F0
330
F1
330
F2
330
F3
330
F4
330
F5
330
F6
330
F7
330
F8
330
F9
330
FA
330
FB
330
FC
330
FD
330
FE
330
FF
330
100
330
101
330
102
330
103
330
104
330
105
330
106
330
107
330
108
330
109
330
10A
330
10B
330
10C
330
10D
330
10E
330
10F
330
110
330
114
330
115
330
116
330
117
330
118
330
119
330
11A
330
11B
330
11F
330
120
330
121
330
122
330
123
330
124
330
125
330
126
330
12A
330
12B
330
12C
330
12D
330
12E
330
12F
330
130
330
131
330
1B5
330
1B6
330
1B7
330
1B8
330
1B9
330
1BA
330
1BB
330
1BC
330
1BD
330
1BE
330
1BF
330
1C0
330
1C1
330
1C2
330
1C3
330
1C4
330
1C5
330
2A6
330
18F4
330
18F5
330
18F6
330
18F7
330
18F8
330
18F9
330
18FA
330
18FB
330
18FC
330
18FD
330
18FE
330
18FF
330
1900
330
1901
330
1902
330
1903
330
1904
330
1906
330
1907
330
1908
330
1909
330
190A
330
190B
330
190C
330
190D
330
190E
330
190F
330
1910
330
1911
330
19EE
330
19EF
330
19F0
330
19F1
330
19F2
330
1A07
330
1A08
330
1A09
330
1A0A
330
1A0B
330
1A0C
330
1A0D
330
1A0E
330
1A0F
330
1A4E
330
1A4F
330
1A50
330
1A51
330
1A52
330
1A53
  0
IDBUFFER
  5
1DE0
330
0
100
AcDbIdBuffer
  0
IDBUFFER
  5
1DE1
330
0
100
AcDbIdBuffer
330
142E
330
142F
330
1430
330
1431
  0
IDBUFFER
  5
1DE2
330
0
100
AcDbIdBuffer
330
1A6D
330
1A6E
330
1A6F
330
1C0F
330
1C31
330
1C53
330
1C6F
330
1CC6
330
1D24
  0
IDBUFFER
  5
1DE3
330
0
100
AcDbIdBuffer
  0
IDBUFFER
  5
1DE4
330
0
100
AcDbIdBuffer
  0
IDBUFFER
  5
1DE5
330
0
100
AcDbIdBuffer
330
1A28
330
E7
330
E8
330
111
330
112
330
113
330
11C
330
11D
330
11E
330
127
330
128
330
129
330
132
330
133
330
134
330
1DA
330
2063
330
2066
330
206B
330
206E
330
2071
330
2074
330
2075
330
2078
330
2092
330
2095
330
209A
330
209D
330
20A0
330
20A3
330
20A4
330
20A7
  0
IDBUFFER
  5
1DE6
330
0
100
AcDbIdBuffer
330
1A55
330
1A56
330
1A57
330
1A58
330
1A59
330
1A5A
330
1A5B
330
1A5C
330
1A5D
330
1A5E
330
1A5F
330
1A60
330
1A61
330
1A62
330
1A63
330
1A64
330
1A65
330
1A66
330
1A67
330
1A68
330
1A69
330
1A6A
330
1A6B
330
1A6C
  0
IDBUFFER
  5
1DE7
330
0
100
AcDbIdBuffer
330
1A10
330
1A11
330
1A12
330
1A13
330
1A14
330
1A15
330
1A16
330
1A17
330
1A18
330
1A19
330
1A1A
330
1A1B
330
1A1C
330
1A1D
330
1A1E
330
1A1F
330
1A20
330
1A21
330
1A22
330
1A23
330
1A24
  0
IDBUFFER
  5
1DE8
330
0
100
AcDbIdBuffer
330
1A4D
330
1A40
330
1A3F
  0
IDBUFFER
  5
1DE9
330
0
100
AcDbIdBuffer
  0
IDBUFFER
  5
1FAC
330
0
100
AcDbIdBuffer
330
1F94
330
1FA8
330
1FA9
330
1FAA
  0
IDBUFFER
  5
20B5
330
0
100
AcDbIdBuffer
330
1FD6
  0
IDBUFFER
  5
20B6
330
0
100
AcDbIdBuffer
  0
IDBUFFER
  5
20B7
330
0
100
AcDbIdBuffer
330
20AE
330
20AF
330
20B1
330
20B2
330
20B3
330
2017
330
2019
330
201A
330
201C
330
201D
330
201F
330
2020
330
202C
330
202D
330
202F
330
2030
330
2032
330
2033
330
2034
330
20AB
330
20AC
  0
IDBUFFER
  5
20B8
330
0
100
AcDbIdBuffer
330
2018
330
201B
330
201E
330
202E
330
2031
330
204F
330
2050
330
20AA
330
20AD
330
20B0
330
20B4
  0
IDBUFFER
  5
20B9
330
0
100
AcDbIdBuffer
330
2093
330
2094
330
2096
330
2097
330
2098
330
2099
330
209B
330
209C
330
209E
330
209F
330
20A1
330
20A2
330
20A5
330
20A6
330
20A8
330
20A9
330
2064
330
2065
330
2067
330
2068
330
2069
330
206A
330
206C
330
206D
330
206F
330
2070
330
2072
330
2073
330
2076
330
2077
330
2079
330
207A
  0
XRECORD
  5
219B
102
{ACAD_REACTORS
330
219A
102
}
330
219A
100
AcDbXrecord
280
     1
102
SHADEPLOT
 70
     0
102
SHADEPLOTRESLEVEL
 70
     2
102
SHADEPLOTCUSTOMDPI
 70
   300
  0
XRECORD
  5
219D
102
{ACAD_REACTORS
330
219C
102
}
330
219C
100
AcDbXrecord
280
     1
102
SHADEPLOT
 70
     0
102
SHADEPLOTRESLEVEL
 70
     2
102
SHADEPLOTCUSTOMDPI
 70
   300
  0
ENDSEC
  0
EOF
