  0
SECTION
  2
HEADER
  9
$ACADVER
  1
AC1018
  9
$ACADMAINTVER
 70
     2
  9
$DWGCODEPAGE
  3
ANSI_932
  9
$CUSTOMPROPERTYTAG
  1
AmdtFileType
  9
$CUSTOMPROPERTY
  1
84
  9
$INSBASE
 10
0.0
 20
0.0
 30
0.0
  9
$EXTMIN
 10
9474.788039934013
 20
3574.984834870651
 30
0.0
  9
$EXTMAX
 10
12444.78803993401
 20
7774.98483487065
 30
520.0
  9
$LIMMIN
 10
4965.957115544043
 20
2298.282691175617
  9
$LIMMAX
 10
9165.957115544044
 20
5268.282691175617
  9
$ORTHOMODE
 70
     0
  9
$REGENMODE
 70
     1
  9
$FILLMODE
 70
     1
  9
$QTEXTMODE
 70
     0
  9
$MIRRTEXT
 70
     1
  9
$LTSCALE
 40
10.0
  9
$ATTMODE
 70
     1
  9
$TEXTSIZE
 40
2.5
  9
$TRACEWID
 40
1.0
  9
$TEXTSTYLE
  7
STANDARD
  9
$CLAYER
  8
0
  9
$CELTYPE
  6
ByLayer
  9
$CECOLOR
 62
   256
  9
$CELTSCALE
 40
1.0
  9
$DISPSILH
 70
     0
  9
$DIMSCALE
 40
10.0
  9
$DIMASZ
 40
2.5
  9
$DIMEXO
 40
1.0
  9
$DIMDLI
 40
10.0
  9
$DIMRND
 40
0.0
  9
$DIMDLE
 40
0.0
  9
$DIMEXE
 40
1.0
  9
$DIMTP
 40
0.1
  9
$DIMTM
 40
0.1
  9
$DIMTXT
 40
4.5
  9
$DIMCEN
 40
0.0
  9
$DIMTSZ
 40
0.0
  9
$DIMTOL
 70
     0
  9
$DIMLIM
 70
     0
  9
$DIMTIH
 70
     0
  9
$DIMTOH
 70
     0
  9
$DIMSE1
 70
     0
  9
$DIMSE2
 70
     0
  9
$DIMTAD
 70
     3
  9
$DIMZIN
 70
     8
  9
$DIMBLK
  1
Open30
  9
$DIMASO
 70
     1
  9
$DIMSHO
 70
     1
  9
$DIMPOST
  1

  9
$DIMAPOST
  1
"
  9
$DIMALT
 70
     0
  9
$DIMALTD
 70
     2
  9
$DIMALTF
 40
0.0393701
  9
$DIMLFAC
 40
1.0
  9
$DIMTOFL
 70
     1
  9
$DIMTVP
 40
0.0
  9
$DIMTIX
 70
     0
  9
$DIMSOXD
 70
     0
  9
$DIMSAH
 70
     0
  9
$DIMBLK1
  1

  9
$DIMBLK2
  1

  9
$DIMSTYLE
  2
IGS
  9
$DIMCLRD
 70
   256
  9
$DIMCLRE
 70
   256
  9
$DIMCLRT
 70
     2
  9
$DIMTFAC
 40
0.71
  9
$DIMGAP
 40
1.5
  9
$DIMJUST
 70
     0
  9
$DIMSD1
 70
     0
  9
$DIMSD2
 70
     0
  9
$DIMTOLJ
 70
     0
  9
$DIMTZIN
 70
     8
  9
$DIMALTZ
 70
     0
  9
$DIMALTTZ
 70
     0
  9
$DIMUPT
 70
     0
  9
$DIMDEC
 70
     2
  9
$DIMTDEC
 70
     2
  9
$DIMALTU
 70
     2
  9
$DIMALTTD
 70
     2
  9
$DIMTXSTY
  7
STANDARD
  9
$DIMAUNIT
 70
     0
  9
$DIMADEC
 70
     0
  9
$DIMALTRND
 40
0.0
  9
$DIMAZIN
 70
     2
  9
$DIMDSEP
 70
    46
  9
$DIMATFIT
 70
     3
  9
$DIMFRAC
 70
     0
  9
$DIMLDRBLK
  1
Open30
  9
$DIMLUNIT
 70
     2
  9
$DIMLWD
 70
    -1
  9
$DIMLWE
 70
    -1
  9
$DIMTMOVE
 70
     0
  9
$LUNITS
 70
     2
  9
$LUPREC
 70
     2
  9
$SKETCHINC
 40
1.0
  9
$FILLETRAD
 40
0.0
  9
$AUNITS
 70
     0
  9
$AUPREC
 70
     0
  9
$MENU
  1
.
  9
$ELEVATION
 40
0.0
  9
$PELEVATION
 40
0.0
  9
$THICKNESS
 40
0.0
  9
$LIMCHECK
 70
     0
  9
$CHAMFERA
 40
25.0
  9
$CHAMFERB
 40
25.0
  9
$CHAMFERC
 40
20.0
  9
$CHAMFERD
 40
0.0
  9
$SKPOLY
 70
     0
  9
$TDCREATE
 40
2453237.371376771
  9
$TDUCREATE
 40
2453236.996376771
  9
$TDUPDATE
 40
2454715.495360417
  9
$TDUUPDATE
 40
2454715.120360417
  9
$TDINDWG
 40
0.0173650926
  9
$TDUSRTIMER
 40
0.0173649074
  9
$USRTIMER
 70
     1
  9
$ANGBASE
 50
0.0
  9
$ANGDIR
 70
     0
  9
$PDMODE
 70
     0
  9
$PDSIZE
 40
0.0
  9
$PLINEWID
 40
0.0
  9
$SPLFRAME
 70
     0
  9
$SPLINETYPE
 70
     6
  9
$SPLINESEGS
 70
     8
  9
$HANDSEED
  5
1254
  9
$SURFTAB1
 70
     6
  9
$SURFTAB2
 70
     6
  9
$SURFTYPE
 70
     6
  9
$SURFU
 70
     6
  9
$SURFV
 70
     6
  9
$UCSBASE
  2

  9
$UCSNAME
  2

  9
$UCSORG
 10
0.0
 20
0.0
 30
0.0
  9
$UCSXDIR
 10
1.0
 20
0.0
 30
0.0
  9
$UCSYDIR
 10
0.0
 20
1.0
 30
0.0
  9
$UCSORTHOREF
  2

  9
$UCSORTHOVIEW
 70
     0
  9
$UCSORGTOP
 10
0.0
 20
0.0
 30
0.0
  9
$UCSORGBOTTOM
 10
0.0
 20
0.0
 30
0.0
  9
$UCSORGLEFT
 10
0.0
 20
0.0
 30
0.0
  9
$UCSORGRIGHT
 10
0.0
 20
0.0
 30
0.0
  9
$UCSORGFRONT
 10
0.0
 20
0.0
 30
0.0
  9
$UCSORGBACK
 10
0.0
 20
0.0
 30
0.0
  9
$PUCSBASE
  2

  9
$PUCSNAME
  2

  9
$PUCSORG
 10
0.0
 20
0.0
 30
0.0
  9
$PUCSXDIR
 10
1.0
 20
0.0
 30
0.0
  9
$PUCSYDIR
 10
0.0
 20
1.0
 30
0.0
  9
$PUCSORTHOREF
  2

  9
$PUCSORTHOVIEW
 70
     0
  9
$PUCSORGTOP
 10
0.0
 20
0.0
 30
0.0
  9
$PUCSORGBOTTOM
 10
0.0
 20
0.0
 30
0.0
  9
$PUCSORGLEFT
 10
0.0
 20
0.0
 30
0.0
  9
$PUCSORGRIGHT
 10
0.0
 20
0.0
 30
0.0
  9
$PUCSORGFRONT
 10
0.0
 20
0.0
 30
0.0
  9
$PUCSORGBACK
 10
0.0
 20
0.0
 30
0.0
  9
$USERI1
 70
     0
  9
$USERI2
 70
     0
  9
$USERI3
 70
     0
  9
$USERI4
 70
     0
  9
$USERI5
 70
     0
  9
$USERR1
 40
0.0
  9
$USERR2
 40
0.0
  9
$USERR3
 40
0.0
  9
$USERR4
 40
0.0
  9
$USERR5
 40
0.0
  9
$WORLDVIEW
 70
     1
  9
$SHADEDGE
 70
     3
  9
$SHADEDIF
 70
    70
  9
$TILEMODE
 70
     1
  9
$MAXACTVP
 70
    64
  9
$PINSBASE
 10
0.0
 20
0.0
 30
0.0
  9
$PLIMCHECK
 70
     0
  9
$PEXTMIN
 10
1.000000000000000E+20
 20
1.000000000000000E+20
 30
1.000000000000000E+20
  9
$PEXTMAX
 10
-1.000000000000000E+20
 20
-1.000000000000000E+20
 30
-1.000000000000000E+20
  9
$PLIMMIN
 10
0.0
 20
0.0
  9
$PLIMMAX
 10
420.0
 20
297.0
  9
$UNITMODE
 70
     0
  9
$VISRETAIN
 70
     1
  9
$PLINEGEN
 70
     0
  9
$PSLTSCALE
 70
     1
  9
$TREEDEPTH
 70
  3020
  9
$CMLSTYLE
  2
Standard
  9
$CMLJUST
 70
     0
  9
$CMLSCALE
 40
20.0
  9
$PROXYGRAPHICS
 70
     1
  9
$MEASUREMENT
 70
     1
  9
$CELWEIGHT
370
    -1
  9
$ENDCAPS
280
     0
  9
$JOINSTYLE
280
     0
  9
$LWDISPLAY
290
     0
  9
$INSUNITS
 70
     4
  9
$HYPERLINKBASE
  1

  9
$STYLESHEET
  1
monochrome.ctb
  9
$XEDIT
290
     1
  9
$CEPSNTYPE
380
     0
  9
$PSTYLEMODE
290
     1
  9
$FINGERPRINTGUID
  2
{A179640A-E7AE-11D4-BDB4-00B0D0A1239A}
  9
$VERSIONGUID
  2
{8D8A35AC-887B-4A6B-96DB-60BB15D03109}
  9
$EXTNAMES
290
     1
  9
$PSVPSCALE
 40
0.0
  9
$OLESTARTUP
290
     0
  9
$SORTENTS
280
   103
  9
$INDEXCTL
280
     1
  9
$HIDETEXT
280
     0
  9
$XCLIPFRAME
290
     0
  9
$HALOGAP
280
     0
  9
$OBSCOLOR
 70
   257
  9
$OBSLTYPE
280
     0
  9
$INTERSECTIONDISPLAY
280
     0
  9
$INTERSECTIONCOLOR
 70
   257
  9
$DIMASSOC
280
     1
  9
$PROJECTNAME
  1

  0
ENDSEC
  0
SECTION
  2
CLASSES
  0
CLASS
  1
ACDBDICTIONARYWDFLT
  2
AcDbDictionaryWithDefault
  3
ObjectDBX Classes
 90
        0
 91
        1
280
     0
281
     0
  0
CLASS
  1
AMGSETTINGSOBJ
  2
AmgSettingsObj
  3
"AcadM|Product Description: AutoCAD Mechanical 2000|Company: Autodesk"
 90
        0
 91
        4
280
     0
281
     0
  0
CLASS
  1
AMGOBJPROPCFG
  2
AmgObjPropCfg
  3
"AmgLay|Product Description: AutoCAD Mechanical 2000|Company: Autodesk"
 90
        1
 91
        1
280
     0
281
     0
  0
CLASS
  1
ACME_DOCUMENT
  2
AcMeDbDoc
  3
AcMeServices
 90
        0
 91
        2
280
     0
281
     0
  0
CLASS
  1
ACMESCOPE
  2
AcMeScope
  3
AcMeServices
 90
        0
 91
        1
280
     0
281
     0
  0
CLASS
  1
ACMECOMMANDHISTORY
  2
AcMeCommandHistory
  3
AcMeServices
 90
        0
 91
        1
280
     0
281
     0
  0
CLASS
  1
DICTIONARYVAR
  2
AcDbDictionaryVar
  3
ObjectDBX Classes
 90
        0
 91
        2
280
     0
281
     0
  0
CLASS
  1
ACIMSYSVARMAN
  2
AcImSysVarManager
  3
AcMeServices
 90
        0
 91
        5
280
     0
281
     0
  0
CLASS
  1
ACIMREALSYSVAR
  2
AcImRealSysVar
  3
AcMeServices
 90
        0
 91
        3
280
     0
281
     0
  0
CLASS
  1
ACIMINTSYSVAR
  2
AcImIntSysVar
  3
AcMeServices
 90
        0
 91
       26
280
     0
281
     0
  0
CLASS
  1
ACMEDRAWINGMAN
  2
AcMeDrawingMan
  3
AcMeServices
 90
        0
 91
        1
280
     0
281
     0
  0
CLASS
  1
ACMEVIEW
  2
AcMeView
  3
AcMeServices
 90
        0
 91
        1
280
     0
281
     0
  0
CLASS
  1
ACDBENTITYCACHE
  2
AcMeEntityCache
  3
AcMeServices
 90
        0
 91
        1
280
     0
281
     0
  0
CLASS
  1
GSMANAGER
  2
AcMeGSManager
  3
AcMeServices
 90
        0
 91
        1
280
     0
281
     0
  0
CLASS
  1
AMDTINTERNALREACTOR
  2
AmdtInternalReactor
  3
AcMeServices
 90
        0
 91
        2
280
     0
281
     0
  0
CLASS
  1
ACMESTATEMGR
  2
AcMeStateMgr
  3
AcMeServices
 90
        0
 91
        1
280
     0
281
     0
  0
CLASS
  1
ACGREFMASTER
  2
AcGrefMaster
  3
AcAttribServices
 90
        0
 91
        1
280
     0
281
     0
  0
CLASS
  1
ACME_DATABASE
  2
AcMeDbDatabase
  3
AcMeServices
 90
        0
 91
        1
280
     0
281
     0
  0
CLASS
  1
ACRFINSADJUSTERMGR
  2
AcRfInsAdjusterMgr
  3
AcMeServices
 90
        0
 91
        1
280
     0
281
     0
  0
CLASS
  1
ACGREFACADMASTER
  2
AcGrefacadMaster
  3
AcGrefServices
 90
        0
 91
        1
280
     0
281
     0
  0
CLASS
  1
AMIMASTER
  2
AmiMaster
  3
AmiServices
 90
        0
 91
        1
280
     0
281
     0
  0
CLASS
  1
ACMDATADICTIONARY
  2
AcmDataDictionary
  3
"AcmSymBB|Product Description: AutoCAD Mechanical 2004 DX|Company: Autodesk"
 90
        0
 91
        1
280
     0
281
     0
  0
CLASS
  1
ACMDATAENTRYBLOCK
  2
AcmDataEntryBlock
  3
"AcmSymBB|Product Description: AutoCAD Mechanical 2004 DX|Company: Autodesk"
 90
        0
 91
        1
280
     0
281
     0
  0
CLASS
  1
ACMSTANDARDJIS
  2
AcmStandardJIS
  3
"Amdt_StdImp|Product Description: AutoCAD Mechanical 2004 DX|Company: Autodesk"
 90
        0
 91
        1
280
     0
281
     0
  0
CLASS
  1
ACMSURFSTANDARDJIS
  2
AcmSurfTextStdJIS
  3
"Amdt_StdImp|Product Description: AutoCAD Mechanical 2004 DX|Company: Autodesk"
 90
        0
 91
        1
280
     0
281
     0
  0
CLASS
  1
ACMFCFSTANDARDJIS
  2
AcmFCFStdJIS
  3
"Amdt_StdImp|Product Description: AutoCAD Mechanical 2004 DX|Company: Autodesk"
 90
        0
 91
        1
280
     0
281
     0
  0
CLASS
  1
ACMWELDSTANDARDJIS
  2
AcmWeldingStdJIS
  3
"Amdt_StdImp|Product Description: AutoCAD Mechanical 2004 DX|Company: Autodesk"
 90
        0
 91
        1
280
     0
281
     0
  0
CLASS
  1
ACMIDSTANDARDJIS
  2
AcmIdStdJIS
  3
"Amdt_StdImp|Product Description: AutoCAD Mechanical 2004 DX|Company: Autodesk"
 90
        0
 91
        1
280
     0
281
     0
  0
CLASS
  1
ACMDATUMSTANDARDJIS
  2
AcmDatumStdJIS
  3
"Amdt_StdImp|Product Description: AutoCAD Mechanical 2004 DX|Company: Autodesk"
 90
        0
 91
        1
280
     0
281
     0
  0
CLASS
  1
ACMBOMSTANDARDJIS
  2
AcmBOMStdJIS
  3
"Amdt_StdImp|Product Description: AutoCAD Mechanical 2004 DX|Company: Autodesk"
 90
        0
 91
        1
280
     0
281
     0
  0
CLASS
  1
ACMDETAILSTANDARDJIS
  2
AmdtDetailSymStdJIS
  3
"Amdt_StdImp|Product Description: AutoCAD Mechanical 2004 DX|Company: Autodesk"
 90
        0
 91
        1
280
     0
281
     0
  0
CLASS
  1
ACMSECTIONSTANDARDJIS
  2
AmdtSectionSymStdJIS
  3
"Amdt_StdImp|Product Description: AutoCAD Mechanical 2004 DX|Company: Autodesk"
 90
        0
 91
        1
280
     0
281
     0
  0
CLASS
  1
ACMCENTERLINESTANDARDJIS
  2
AmdtCenterLineStdJIS
  3
"Amdt_StdImp|Product Description: AutoCAD Mechanical 2004 DX|Company: Autodesk"
 90
        0
 91
        1
280
     0
281
     0
  0
CLASS
  1
ACAMGLAYSTD
  2
AcAmgLayStd
  3
"AcAmgLayStd|Product Description: AutoCAD Mechanical 2000|Company: Autodesk"
 90
        0
 91
        3
280
     0
281
     0
  0
CLASS
  1
ACAMGDIMSTD
  2
AcAmgDimStd
  3
"AcAmgDimStd|Product Description: AutoCAD Mechanical 2000|Company: Autodesk"
 90
        0
 91
        3
280
     0
281
     0
  0
CLASS
  1
ACAMGTITLESTD
  2
AcAmgTitleStd
  3
"TITLEAPP"
 90
        0
 91
        3
280
     0
281
     0
  0
CLASS
  1
ACMSTANDARDISO
  2
AcmStandardISO
  3
"Amdt_StdImp|Product Description: AutoCAD Mechanical 2004 DX|Company: Autodesk"
 90
        0
 91
        1
280
     0
281
     0
  0
CLASS
  1
AMDTEDGESTANDARDISO
  2
AmdtEdgeStdISO
  3
"Amdt_StdImp|Product Description: AutoCAD Mechanical 2004 DX|Company: Autodesk"
 90
        0
 91
        1
280
     0
281
     0
  0
CLASS
  1
ACMSURFSTANDARDISO
  2
AcmSurfTextStdISO
  3
"Amdt_StdImp|Product Description: AutoCAD Mechanical 2004 DX|Company: Autodesk"
 90
        0
 91
        1
280
     0
281
     0
  0
CLASS
  1
ACMFCFSTANDARDISO
  2
AcmFCFStdISO
  3
"Amdt_StdImp|Product Description: AutoCAD Mechanical 2004 DX|Company: Autodesk"
 90
        0
 91
        1
280
     0
281
     0
  0
CLASS
  1
ACMWELDSTANDARDISO
  2
AcmWeldingStdISO
  3
"Amdt_StdImp|Product Description: AutoCAD Mechanical 2004 DX|Company: Autodesk"
 90
        0
 91
        1
280
     0
281
     0
  0
CLASS
  1
ACMIDSTANDARDISO
  2
AcmIdStdISO
  3
"Amdt_StdImp|Product Description: AutoCAD Mechanical 2004 DX|Company: Autodesk"
 90
        0
 91
        1
280
     0
281
     0
  0
CLASS
  1
ACMDATUMSTANDARDISO
  2
AcmDatumStdISO
  3
"Amdt_StdImp|Product Description: AutoCAD Mechanical 2004 DX|Company: Autodesk"
 90
        0
 91
        1
280
     0
281
     0
  0
CLASS
  1
ACMBOMSTANDARDISO
  2
AcmBOMStdISO
  3
"Amdt_StdImp|Product Description: AutoCAD Mechanical 2004 DX|Company: Autodesk"
 90
        0
 91
        1
280
     0
281
     0
  0
CLASS
  1
ACMDETAILSTANDARDISO
  2
AmdtDetailSymStdISO
  3
"Amdt_StdImp|Product Description: AutoCAD Mechanical 2004 DX|Company: Autodesk"
 90
        0
 91
        1
280
     0
281
     0
  0
CLASS
  1
ACMSECTIONSTANDARDISO
  2
AmdtSectionSymStdISO
  3
"Amdt_StdImp|Product Description: AutoCAD Mechanical 2004 DX|Company: Autodesk"
 90
        0
 91
        1
280
     0
281
     0
  0
CLASS
  1
ACMCENTERLINESTANDARDISO
  2
AmdtCenterLineStdISO
  3
"Amdt_StdImp|Product Description: AutoCAD Mechanical 2004 DX|Company: Autodesk"
 90
        0
 91
        1
280
     0
281
     0
  0
CLASS
  1
ACIMSTRSYSVAR
  2
AcImStrSysVar
  3
AcMeServices
 90
        0
 91
        5
280
     0
281
     0
  0
CLASS
  1
ACAMGFILTERDAT
  2
AcAmgFilterDat
  3
"AcadM|Product Description: AutoCAD Mechanical 2000|Company: Autodesk"
 90
        0
 91
        6
280
     0
281
     0
  0
CLASS
  1
LAYER_INDEX
  2
AcDbLayerIndex
  3
ObjectDBX Classes
 90
        0
 91
        1
280
     0
281
     0
  0
CLASS
  1
IDBUFFER
  2
AcDbIdBuffer
  3
ObjectDBX Classes
 90
        0
 91
       13
280
     0
281
     0
  0
CLASS
  1
AMDTFORMULAUPDATEDISPATCHER
  2
AmdtFormulaUpdateDispatcher
  3
AcMeServices
 90
        0
 91
        1
280
     0
281
     0
  0
CLASS
  1
ACMDATAENTRYPART
  2
AcmDataEntryPart
  3
"AcmSymBB|Product Description: AutoCAD Mechanical 2004 DX|Company: Autodesk"
 90
        0
 91
        0
280
     0
281
     0
  0
CLASS
  1
ACMPARTREF
  2
AcmPartRef
  3
"AcmSymBB|Product Description: AutoCAD Mechanical 2004 DX|Company: Autodesk"
 90
     1023
 91
        0
280
     0
281
     1
  0
CLASS
  1
ACMDATAENTRY
  2
AcmDataEntry
  3
"AcmSymBB|Product Description: AutoCAD Mechanical 2004 DX|Company: Autodesk"
 90
        0
 91
        4
280
     0
281
     0
  0
CLASS
  1
ACMBOM
  2
AcmBom
  3
"AcmSymBB|Product Description: AutoCAD Mechanical 2004 DX|Company: Autodesk"
 90
        0
 91
        1
280
     0
281
     0
  0
CLASS
  1
ACMBOMROW
  2
AcmBomRow
  3
"AcmSymBB|Product Description: AutoCAD Mechanical 2004 DX|Company: Autodesk"
 90
        0
 91
        0
280
     0
281
     0
  0
CLASS
  1
ACMBALLOON
  2
AcmBalloon
  3
"AcmSymBB|Product Description: AutoCAD Mechanical 2004 DX|Company: Autodesk"
 90
     1023
 91
        0
280
     0
281
     1
  0
CLASS
  1
ACMPARTLIST
  2
AcmPartList
  3
"AcmSymBB|Product Description: AutoCAD Mechanical 2004 DX|Company: Autodesk"
 90
     1023
 91
        0
280
     0
281
     1
  0
CLASS
  1
ACDBLINERES
  2
AcDbLineRes
  3
AcGrefServices
 90
        0
 91
        0
280
     0
281
     0
  0
CLASS
  1
ACRFINSADJ
  2
AcRfInsAdjuster
  3
AcMeServices
 90
        0
 91
        0
280
     0
281
     0
  0
CLASS
  1
STDPART2D
  2
AmgStdPart
  3
"AmgStdPart|Product Description: AutoCAD Mechanical 2000|Company: Autodesk"
 90
     1023
 91
        0
280
     0
281
     1
  0
CLASS
  1
ACDBSTDPARTRES_ARC
  2
AcDbStdPartRes_Arc
  3
"AcDbStdPartRes_Arc|Product Description: AutoCAD Mechanical 2000|Company: Autodesk"
 90
        0
 91
        0
280
     0
281
     0
  0
CLASS
  1
ACMPICKOBJ
  2
AcmPickEnt
  3
"AcmSymBB|Product Description: AutoCAD Mechanical 2004 DX|Company: Autodesk"
 90
        0
 91
        0
280
     0
281
     1
  0
CLASS
  1
ACDBSTDPARTRES_LINE
  2
AcDbStdPartRes_Line
  3
"AcDbStdPartRes_Line|Product Description: AutoCAD Mechanical 2000|Company: Autodesk"
 90
        0
 91
        0
280
     0
281
     0
  0
CLASS
  1
AM_DRAWING_MGR
  2
AcDmDwgMgr
  3
AcMechDwgViewMgmt
 90
        0
 91
        1
280
     0
281
     0
  0
CLASS
  1
AM_DWG_DOCUMENT
  2
AcDmDwgDocument
  3
AcMechDwgViewMgmt
 90
        0
 91
        1
280
     0
281
     0
  0
CLASS
  1
AM_DWG_SHEET
  2
AcDmSheet
  3
AcMechDwgViewMgmt
 90
        0
 91
        2
280
     0
281
     0
  0
CLASS
  1
AM_VIEWDIMPARMAP
  2
AcDmViewDimParMap
  3
AcMechDwgViewMgmt
 90
        0
 91
        2
280
     0
281
     0
  0
CLASS
  1
AM_DWGMGR_NAME
  2
AcDmDwgMgrName
  3
AcMechDwgViewMgmt
 90
        0
 91
        1
280
     0
281
     0
  0
CLASS
  1
AMDTMENUSTATEMGR
  2
AmdtMenuStateMgr
  3
McadcomServices
 90
        0
 91
        1
280
     0
281
     0
  0
CLASS
  1
AMDTMCOMMENUSTATE
  2
AmdtMcomMenuState
  3
McadcomServices
 90
        0
 91
        1
280
     0
281
     0
  0
CLASS
  1
MAPIAMMOUDLE
  2
MApiAmModule
  3
MApiAmServices
 90
        0
 91
        1
280
     0
281
     0
  0
CLASS
  1
AMDTADMENUSTATE
  2
AmdtAdMenuState
  3
DesignerServices
 90
        0
 91
        1
280
     0
281
     0
  0
CLASS
  1
ADAPPL
  2
AcAdAppl
  3
DesignerServices
 90
        0
 91
        1
280
     0
281
     0
  0
CLASS
  1
DEPMGR
  2
AcAdDepMgr
  3
DesignerServices
 90
        0
 91
        1
280
     0
281
     0
  0
CLASS
  1
PARAMMGR
  2
AcAdParamMgr
  3
DesignerServices
 90
        0
 91
        1
280
     0
281
     0
  0
CLASS
  1
PARAMSCOPE
  2
AcAdParamScope
  3
DesignerServices
 90
        0
 91
        1
280
     0
281
     0
  0
CLASS
  1
NAMEDAPPL
  2
AcAdNamedAppl
  3
DesignerServices
 90
        0
 91
        1
280
     0
281
     0
  0
CLASS
  1
AMDTDMMENUSTATE
  2
AmdtDmMenuState
  3
AcMechDwgViewMgmt
 90
        0
 91
        1
280
     0
281
     0
  0
CLASS
  1
AMDTAMMENUSTATE
  2
AmdtAmMenuState
  3
DesignerAssemblies
 90
        0
 91
        1
280
     0
281
     0
  0
CLASS
  1
ACAMPROJECT
  2
AcAmProject
  3
DesignerAssemblies
 90
        0
 91
        1
280
     0
281
     0
  0
CLASS
  1
ACAMGRCOMPDEF
  2
AcAmGrCompDef
  3
DesignerAssemblies
 90
        0
 91
        1
280
     0
281
     0
  0
CLASS
  1
ACCMCONTEXT
  2
AcCmContext
  3
DesignerAssemblies
 90
        0
 91
        1
280
     0
281
     0
  0
CLASS
  1
ACAMCOMPDEF
  2
AcAmCompDef
  3
DesignerAssemblies
 90
        0
 91
        1
280
     0
281
     0
  0
CLASS
  1
ACAMCOMPDEFMGR
  2
AcAmCompDefMgr
  3
DesignerAssemblies
 90
        0
 91
        1
280
     0
281
     0
  0
CLASS
  1
AMCONTEXTMGR
  2
AcAmContextMgr
  3
DesignerAssemblies
 90
        0
 91
        1
280
     0
281
     0
  0
CLASS
  1
ACAMCONTEXTMODELER
  2
AcAmContextModeler
  3
DesignerAssemblies
 90
        0
 91
        1
280
     0
281
     0
  0
CLASS
  1
ACMTHREADLINESTANDARDJIS
  2
AmdtThreadLineStdJIS
  3
"Amdt_StdImp|Product Description: AutoCAD Mechanical 2004 DX|Company: Autodesk"
 90
        0
 91
        1
280
     0
281
     0
  0
CLASS
  1
ACMNOTESTANDARDJIS
  2
AmdtNoteStdJIS
  3
"Amdt_StdImp|Product Description: AutoCAD Mechanical 2004 DX|Company: Autodesk"
 90
        0
 91
        1
280
     0
281
     0
  0
CLASS
  1
AMDTNOTETEMPLATEDB
  2
AmdtNoteTemplateDB
  3
AMDT_STDIMP_MODULE_NAME
 90
        0
 91
       12
280
     0
281
     0
  0
CLASS
  1
ACMTHREADLINESTANDARDISO
  2
AmdtThreadLineStdISO
  3
"Amdt_StdImp|Product Description: AutoCAD Mechanical 2004 DX|Company: Autodesk"
 90
        0
 91
        1
280
     0
281
     0
  0
CLASS
  1
ACMNOTESTANDARDISO
  2
AmdtNoteStdISO
  3
"Amdt_StdImp|Product Description: AutoCAD Mechanical 2004 DX|Company: Autodesk"
 90
        0
 91
        1
280
     0
281
     0
  0
CLASS
  1
CATALOGSTATE
  2
AcAmCatalogState
  3
DesignerAssemblies
 90
        0
 91
        1
280
     0
281
     0
  0
CLASS
  1
ACAMGRCOMPDEFSET
  2
AcAmGrCompDefSet
  3
DesignerAssemblies
 90
        0
 91
        1
280
     0
281
     0
  0
CLASS
  1
AMDTBROWSERDBTAB
  2
AmdtBrowserDbTab
  3
McadcomServices
 90
        0
 91
        1
280
     0
281
     0
  0
CLASS
  1
CBROWSERAPPOBJECT
  2
CBrowserAppObject
  3
McadcomServices
 90
        0
 91
        3
280
     0
281
     0
  0
CLASS
  1
DM_PLACEHOLDER
  2
AcDmSelsetPlaceholder
  3
AcMechDwgViewMgmt
 90
        0
 91
        1
280
     0
281
     0
  0
CLASS
  1
ACMSTANDARDANSI
  2
AcmStandardANSI
  3
"Amdt_StdImp|Product Description: AutoCAD Mechanical 2004 DX|Company: Autodesk"
 90
        0
 91
        1
280
     0
281
     0
  0
CLASS
  1
ACMSURFSTANDARDANSI
  2
AcmSurfTextStdANSI
  3
"Amdt_StdImp|Product Description: AutoCAD Mechanical 2004 DX|Company: Autodesk"
 90
        0
 91
        1
280
     0
281
     0
  0
CLASS
  1
ACMFCFSTANDARDANSI
  2
AcmFCFStdANSI
  3
"Amdt_StdImp|Product Description: AutoCAD Mechanical 2004 DX|Company: Autodesk"
 90
        0
 91
        1
280
     0
281
     0
  0
CLASS
  1
ACMWELDSTANDARDANSI
  2
AcmWeldingStdANSI
  3
"Amdt_StdImp|Product Description: AutoCAD Mechanical 2004 DX|Company: Autodesk"
 90
        0
 91
        1
280
     0
281
     0
  0
CLASS
  1
ACMIDSTANDARDANSI
  2
AcmIdStdANSI
  3
"Amdt_StdImp|Product Description: AutoCAD Mechanical 2004 DX|Company: Autodesk"
 90
        0
 91
        1
280
     0
281
     0
  0
CLASS
  1
ACMDATUMSTANDARDANSI
  2
AcmDatumStdANSI
  3
"Amdt_StdImp|Product Description: AutoCAD Mechanical 2004 DX|Company: Autodesk"
 90
        0
 91
        1
280
     0
281
     0
  0
CLASS
  1
ACMBOMSTANDARDANSI
  2
AcmBOMStdANSI
  3
"Amdt_StdImp|Product Description: AutoCAD Mechanical 2004 DX|Company: Autodesk"
 90
        0
 91
        1
280
     0
281
     0
  0
CLASS
  1
ACMDETAILSTANDARDANSI
  2
AmdtDetailSymStdANSI
  3
"Amdt_StdImp|Product Description: AutoCAD Mechanical 2004 DX|Company: Autodesk"
 90
        0
 91
        1
280
     0
281
     0
  0
CLASS
  1
ACMSECTIONSTANDARDANSI
  2
AmdtSectionSymStdANSI
  3
"Amdt_StdImp|Product Description: AutoCAD Mechanical 2004 DX|Company: Autodesk"
 90
        0
 91
        1
280
     0
281
     0
  0
CLASS
  1
ACMCENTERLINESTANDARDANSI
  2
AmdtCenterLineStdANSI
  3
"Amdt_StdImp|Product Description: AutoCAD Mechanical 2004 DX|Company: Autodesk"
 90
        0
 91
        1
280
     0
281
     0
  0
CLASS
  1
ACMTHREADLINESTANDARDANSI
  2
AmdtThreadLineStdANSI
  3
"Amdt_StdImp|Product Description: AutoCAD Mechanical 2004 DX|Company: Autodesk"
 90
        0
 91
        1
280
     0
281
     0
  0
CLASS
  1
ACMNOTESTANDARDANSI
  2
AmdtNoteStdANSI
  3
"Amdt_StdImp|Product Description: AutoCAD Mechanical 2004 DX|Company: Autodesk"
 90
        0
 91
        1
280
     0
281
     0
  0
CLASS
  1
ACAMGHOLECHARTSTDANSI
  2
AcAmgHoleChartStdANSI
  3
ACMSYMBB_MODULE_NAME
 90
        0
 91
        1
280
     0
281
     0
  0
ENDSEC
  0
SECTION
  2
TABLES
  0
TABLE
  2
VPORT
  5
8
330
0
100
AcDbSymbolTable
 70
     3
  0
VPORT
  5
1253
330
8
100
AcDbSymbolTableRecord
100
AcDbViewportTableRecord
  2
*Active
 70
     0
 10
0.0
 20
0.0
 11
1.0
 21
1.0
 12
10996.15984592452
 22
5674.880353511516
 13
0.0
 23
0.0
 14
25.0
 24
25.0
 15
100.0
 25
100.0
 16
0.0
 26
0.0
 36
1.0
 17
0.0
 27
0.0
 37
0.0
 40
4231.528511651637
 41
1.498730964467005
 42
50.0
 43
0.0
 44
0.0
 50
0.0
 51
0.0
 71
    16
 72
   100
 73
     1
 74
     3
 75
     0
 76
     0
 77
     0
 78
     0
281
     0
 65
     1
110
0.0
120
0.0
130
0.0
111
1.0
121
0.0
131
0.0
112
0.0
122
1.0
132
0.0
 79
     0
146
0.0
  0
ENDTAB
  0
TABLE
  2
LTYPE
  5
5
330
0
100
AcDbSymbolTable
 70
    28
  0
LTYPE
  5
14
330
5
100
AcDbSymbolTableRecord
100
AcDbLinetypeTableRecord
  2
ByBlock
 70
     0
  3

 72
    65
 73
     0
 40
0.0
  0
LTYPE
  5
15
330
5
100
AcDbSymbolTableRecord
100
AcDbLinetypeTableRecord
  2
ByLayer
 70
     0
  3

 72
    65
 73
     0
 40
0.0
  0
LTYPE
  5
16
330
5
100
AcDbSymbolTableRecord
100
AcDbLinetypeTableRecord
  2
Continuous
 70
     0
  3
Solid line
 72
    65
 73
     0
 40
0.0
  0
LTYPE
  5
35
330
5
100
AcDbSymbolTableRecord
100
AcDbLinetypeTableRecord
  2
AM_ISO02W050
 70
     0
  3
__ __ __ __ __ __ __ __ __ __ __ __ __ __ __
 72
    65
 73
     2
 40
7.5
 49
6.0
 74
     0
 49
-1.5
 74
     0
  0
LTYPE
  5
36
330
5
100
AcDbSymbolTableRecord
100
AcDbLinetypeTableRecord
  2
AM_ISO08W050
 70
     0
  3
____ . ____ . ____ . ____ . ____ . ____ . ____
 72
    65
 73
     4
 40
18.0
 49
12.0
 74
     0
 49
-1.5
 74
     0
 49
3.0
 74
     0
 49
-1.5
 74
     0
  0
LTYPE
  5
37
330
5
100
AcDbSymbolTableRecord
100
AcDbLinetypeTableRecord
  2
AM_ISO09W050
 70
     0
  3
_____ . . _____ . . _____ . . ____ .. ____
 72
    65
 73
     6
 40
22.5
 49
12.0
 74
     0
 49
-1.5
 74
     0
 49
3.0
 74
     0
 49
-1.5
 74
     0
 49
3.0
 74
     0
 49
-1.5
 74
     0
  0
LTYPE
  5
38
330
5
100
AcDbSymbolTableRecord
100
AcDbLinetypeTableRecord
  2
Amconstr
 70
     0
  3
_______________________
 72
    65
 73
     2
 40
9999.0
 49
9999.0
 74
     0
 49
0.0
 74
     0
  0
LTYPE
  5
39
330
5
100
AcDbSymbolTableRecord
100
AcDbLinetypeTableRecord
  2
AM_ISO08W050x2
 70
     0
  3
__ . __ . __ . __ . __ . __
 72
    65
 73
     4
 40
9.0
 49
6.0
 74
     0
 49
-0.75
 74
     0
 49
1.5
 74
     0
 49
-0.75
 74
     0
  0
LTYPE
  5
3A
330
5
100
AcDbSymbolTableRecord
100
AcDbLinetypeTableRecord
  2
AM_ISO02W050x2
 70
     0
  3
 _ _ _ _ _ _ _ _ _ _ _ _
 72
    65
 73
     2
 40
3.75
 49
3.0
 74
     0
 49
-0.75
 74
     0
  0
LTYPE
  5
3B
330
5
100
AcDbSymbolTableRecord
100
AcDbLinetypeTableRecord
  2
Amzigzag
 70
     0
  3
/\/-/\/-/\/-/\/-/\/-/\/
 72
    65
 73
     2
 40
11.0001
 49
0.0001
 74
     4
 75
   135
340
3C
 46
0.04
 50
0.0
 44
0.0
 45
0.0
 49
-11.0
 74
     0
  0
LTYPE
  5
64
330
5
100
AcDbSymbolTableRecord
100
AcDbLinetypeTableRecord
  2
ACJISTGB
 70
     0
  3
__ . . __ . .
 72
    65
 73
     6
 40
9.0
 49
4.0
 74
     0
 49
-1.0
 74
     0
 49
1.0
 74
     0
 49
-1.0
 74
     0
 49
1.0
 74
     0
 49
-1.0
 74
     0
  0
LTYPE
  5
65
330
5
100
AcDbSymbolTableRecord
100
AcDbLinetypeTableRecord
  2
ACJISTGL
 70
     0
  3
_ _ _ _ _
 72
    65
 73
     2
 40
3.0
 49
2.0
 74
     0
 49
-1.0
 74
     0
  0
LTYPE
  5
69
330
5
100
AcDbSymbolTableRecord
100
AcDbLinetypeTableRecord
  2
CENTER
 70
     0
  3
__ . __
 72
    65
 73
     4
 40
7.0
 49
4.0
 74
     0
 49
-1.0
 74
     0
 49
1.0
 74
     0
 49
-1.0
 74
     0
  0
LTYPE
  5
8F
330
5
100
AcDbSymbolTableRecord
100
AcDbLinetypeTableRecord
  2
ACISOWELD
 70
     0
  3
_ _ _ _ _
 72
    65
 73
     2
 40
2.0
 49
2.0
 74
     0
 49
-1.0
 74
     0
  0
LTYPE
  5
92
330
5
100
AcDbSymbolTableRecord
100
AcDbLinetypeTableRecord
  2
ACISOTGB
 70
     0
  3
__ . . __ . .
 72
    65
 73
     6
 40
9.0
 49
4.0
 74
     0
 49
-1.0
 74
     0
 49
1.0
 74
     0
 49
-1.0
 74
     0
 49
1.0
 74
     0
 49
-1.0
 74
     0
  0
LTYPE
  5
93
330
5
100
AcDbSymbolTableRecord
100
AcDbLinetypeTableRecord
  2
ACISOTGL
 70
     0
  3
_ _ _ _ _
 72
    65
 73
     2
 40
3.0
 49
2.0
 74
     0
 49
-1.0
 74
     0
  0
LTYPE
  5
308
330
5
100
AcDbSymbolTableRecord
100
AcDbLinetypeTableRecord
  2
DASHED
 70
     0
  3
__ __ __ __ __ __ __ __ __ __ __ __ __ __ __
 72
    65
 73
     2
 40
3.0
 49
2.0
 74
     0
 49
-1.0
 74
     0
  0
LTYPE
  5
309
330
5
100
AcDbSymbolTableRecord
100
AcDbLinetypeTableRecord
  2
HIDDEN
 70
     0
  3
_ _ _ _ _ _ _ _ _ _ _ _ _ _ _ _ _ _ _ _ _ _ _
 72
    65
 73
     2
 40
1.5
 49
1.0
 74
     0
 49
-0.5
 74
     0
  0
LTYPE
  5
30A
330
5
100
AcDbSymbolTableRecord
100
AcDbLinetypeTableRecord
  2
PHANTOM
 70
     0
  3
_____ _ _ _____ _ _ _____ _ _ _____ _ _ ____
 72
    65
 73
     6
 40
27.0
 49
20.0
 74
     0
 49
-1.0
 74
     0
 49
2.0
 74
     0
 49
-1.0
 74
     0
 49
2.0
 74
     0
 49
-1.0
 74
     0
  0
LTYPE
  5
30B
330
5
100
AcDbSymbolTableRecord
100
AcDbLinetypeTableRecord
  2
DOT
 70
     0
  3
...............................................
 72
    65
 73
     2
 40
1.5
 49
0.5
 74
     0
 49
-1.0
 74
     0
  0
LTYPE
  5
30C
330
5
100
AcDbSymbolTableRecord
100
AcDbLinetypeTableRecord
  2
DASHDOT
 70
     0
  3
__ . __ . __ . __ . __ . __ . __ . __ . __ . __
 72
    65
 73
     4
 40
8.5
 49
6.0
 74
     0
 49
-1.0
 74
     0
 49
0.5
 74
     0
 49
-1.0
 74
     0
  0
LTYPE
  5
30D
330
5
100
AcDbSymbolTableRecord
100
AcDbLinetypeTableRecord
  2
DIVIDE
 70
     0
  3
__ . . __ . . __ . . __ . . __ . . __ . . __
 72
    65
 73
     6
 40
10.0
 49
6.0
 74
     0
 49
-1.0
 74
     0
 49
0.5
 74
     0
 49
-1.0
 74
     0
 49
0.5
 74
     0
 49
-1.0
 74
     0
  0
LTYPE
  5
30E
330
5
100
AcDbSymbolTableRecord
100
AcDbLinetypeTableRecord
  2
BORDER
 70
     0
  3
__ __ . __ __ . __ __ . __ __ . __ __ . __ __
 72
    65
 73
     6
 40
15.5
 49
6.0
 74
     0
 49
-1.0
 74
     0
 49
6.0
 74
     0
 49
-1.0
 74
     0
 49
0.5
 74
     0
 49
-1.0
 74
     0
  0
LTYPE
  5
30F
330
5
100
AcDbSymbolTableRecord
100
AcDbLinetypeTableRecord
  2
GEN7A
 70
     0
  3
__ . __ . __
 72
    65
 73
     4
 40
6.875
 49
5.0
 74
     0
 49
-0.625
 74
     0
 49
0.625
 74
     0
 49
-0.625
 74
     0
  0
LTYPE
  5
9A2
330
5
100
AcDbSymbolTableRecord
100
AcDbLinetypeTableRecord
  2
PHANTOM2
 70
     0
  3
Phantom (.5x) ___ _ _ ___ _ _ ___ _ _ ___ _ _
 72
    65
 73
     6
 40
31.75
 49
15.875
 74
     0
 49
-3.174999999999999
 74
     0
 49
3.174999999999999
 74
     0
 49
-3.174999999999999
 74
     0
 49
3.174999999999999
 74
     0
 49
-3.174999999999999
 74
     0
  0
LTYPE
  5
A62
330
5
100
AcDbSymbolTableRecord
100
AcDbLinetypeTableRecord
  2
CENTER2
 70
     0
  3
Center (.5x) ___ _ ___ _ ___ _ ___ _ ___ _ ___
 72
    65
 73
     4
 40
1.125
 49
0.75
 74
     0
 49
-0.125
 74
     0
 49
0.125
 74
     0
 49
-0.125
 74
     0
  0
LTYPE
  5
A63
330
5
100
AcDbSymbolTableRecord
100
AcDbLinetypeTableRecord
  2
HIDDEN2
 70
     0
  3
Hidden (.5x) _ _ _ _ _ _ _ _ _ _ _ _ _ _ _ _ _
 72
    65
 73
     2
 40
0.1875
 49
0.125
 74
     0
 49
-0.0625
 74
     0
  0
LTYPE
  5
A64
330
5
100
AcDbSymbolTableRecord
100
AcDbLinetypeTableRecord
  2
Amzigzag2
 70
     0
  3
/\/-/\/-/\/-/\/-/\/-/\/
 72
    65
 73
     2
 40
0.4401
 49
0.0001
 74
     4
 75
   135
340
3C
 46
0.0016
 50
0.0
 44
0.0
 45
0.0
 49
-0.4400000000000001
 74
     0
  0
LTYPE
  5
A65
330
5
100
AcDbSymbolTableRecord
100
AcDbLinetypeTableRecord
  2
ACANSTGB
 70
     0
  3
__ . . __ . .
 72
    65
 73
     6
 40
0.35433070866
 49
0.15748031496
 74
     0
 49
-0.03937007874
 74
     0
 49
0.03937007874
 74
     0
 49
-0.03937007874
 74
     0
 49
0.03937007874
 74
     0
 49
-0.03937007874
 74
     0
  0
LTYPE
  5
A66
330
5
100
AcDbSymbolTableRecord
100
AcDbLinetypeTableRecord
  2
ACANSTGL
 70
     0
  3
_ _ _ _ _
 72
    65
 73
     2
 40
0.11811023622
 49
0.07874015748
 74
     0
 49
-0.03937007874
 74
     0
  0
ENDTAB
  0
TABLE
  2
LAYER
  5
2
102
{ACAD_XDICTIONARY
360
11F5
102
}
330
0
100
AcDbSymbolTable
 70
    13
  0
LAYER
  5
10
330
2
100
AcDbSymbolTableRecord
100
AcDbLayerTableRecord
  2
0
 70
     0
 62
     7
  6
Continuous
370
    -3
390
F
  0
LAYER
  5
F5
330
2
100
AcDbSymbolTableRecord
100
AcDbLayerTableRecord
  2
RAHM2
 70
     0
 62
     1
  6
Continuous
370
    -3
390
F
  0
LAYER
  5
1EF
330
2
100
AcDbSymbolTableRecord
100
AcDbLayerTableRecord
  2
AM_BOR
 70
     0
 62
     7
  6
Continuous
370
    50
390
F
  0
LAYER
  5
310
330
2
100
AcDbSymbolTableRecord
100
AcDbLayerTableRecord
  2
RAHM3
 70
     0
 62
     2
  6
Continuous
370
    -3
390
F
  0
LAYER
  5
311
330
2
100
AcDbSymbolTableRecord
100
AcDbLayerTableRecord
  2
RAHM5
 70
     0
 62
     7
  6
Continuous
370
    -3
390
F
  0
LAYER
  5
312
330
2
100
AcDbSymbolTableRecord
100
AcDbLayerTableRecord
  2
1
 70
     0
 62
     7
  6
Continuous
370
    -3
390
F
  0
LAYER
  5
313
330
2
100
AcDbSymbolTableRecord
100
AcDbLayerTableRecord
  2
DEFPOINTS
 70
     0
 62
     7
  6
Continuous
290
     0
370
    -3
390
F
  0
LAYER
  5
316
330
2
100
AcDbSymbolTableRecord
100
AcDbLayerTableRecord
  2
7A
 70
     0
 62
     4
  6
GEN7A
370
    -3
390
F
  0
LAYER
  5
CAF
330
2
100
AcDbSymbolTableRecord
100
AcDbLayerTableRecord
  2
AM_7
 70
     0
 62
     4
  6
AM_ISO08W050
370
    25
390
F
  0
LAYER
  5
CC1
330
2
100
AcDbSymbolTableRecord
100
AcDbLayerTableRecord
  2
AM_5
 70
     0
 62
     3
  6
Continuous
370
    25
390
F
  0
LAYER
  5
DEE
330
2
100
AcDbSymbolTableRecord
100
AcDbLayerTableRecord
  2
AM_3
 70
     0
 62
     6
  6
AM_ISO02W050
370
    25
390
F
  0
LAYER
  5
F1D
330
2
100
AcDbSymbolTableRecord
100
AcDbLayerTableRecord
  2
AM_8
 70
     0
 62
     1
  6
Continuous
370
    25
390
F
  0
LAYER
  5
11F4
330
2
100
AcDbSymbolTableRecord
100
AcDbLayerTableRecord
  2
TEXT
 70
     0
 62
     7
  6
Continuous
370
    -3
390
F
  0
ENDTAB
  0
TABLE
  2
STYLE
  5
3
330
0
100
AcDbSymbolTable
 70
    11
  0
STYLE
  5
11
330
3
100
AcDbSymbolTableRecord
100
AcDbTextStyleTableRecord
  2
STANDARD
 70
     0
 40
0.0
 41
1.0
 50
0.0
 71
     0
 42
2.5
  3
ISOCP.SHX
  4
EXTFONT.SHX
  0
STYLE
  5
3C
330
3
100
AcDbSymbolTableRecord
100
AcDbTextStyleTableRecord
  2

 70
     1
 40
0.0
 41
1.0
 50
0.0
 71
     0
 42
2.5
  3
ltypeshp.shx
  4

  0
STYLE
  5
5D
330
3
100
AcDbSymbolTableRecord
100
AcDbTextStyleTableRecord
  2
ACJISTS
 70
     0
 40
1.0
 41
1.0
 50
0.0
 71
     0
 42
2.5
  3
isocp.shx
  4
extfont.shx
  0
STYLE
  5
60
330
3
100
AcDbSymbolTableRecord
100
AcDbTextStyleTableRecord
  2
ACJISGDT
 70
     0
 40
0.0
 41
1.0
 50
0.0
 71
     0
 42
2.5
  3
amgdt.shx
  4

  0
STYLE
  5
89
330
3
100
AcDbSymbolTableRecord
100
AcDbTextStyleTableRecord
  2
ACISOTS
 70
     0
 40
1.0
 41
1.0
 50
0.0
 71
     0
 42
2.5
  3
isocp.shx
  4
extfont.shx
  0
STYLE
  5
8D
330
3
100
AcDbSymbolTableRecord
100
AcDbTextStyleTableRecord
  2
ACISOGDT
 70
     0
 40
0.0
 41
1.0
 50
0.0
 71
     0
 42
2.5
  3
amgdt.shx
  4

  0
STYLE
  5
A4
330
3
100
AcDbSymbolTableRecord
100
AcDbTextStyleTableRecord
  2
USER1
 70
     0
 40
0.0
 41
1.0
 50
0.0
 71
     0
 42
2.5
  3
TXT.SHX
  4

  0
STYLE
  5
A5
330
3
100
AcDbSymbolTableRecord
100
AcDbTextStyleTableRecord
  2
USER2
 70
     0
 40
0.0
 41
1.0
 50
0.0
 71
     0
 42
2.5
  3
SIMPLEX.SHX
  4

  0
STYLE
  5
A6
330
3
100
AcDbSymbolTableRecord
100
AcDbTextStyleTableRecord
  2
USER3
 70
     0
 40
0.0
 41
1.0
 50
0.0
 71
     0
 42
2.5
  3
ITALIC.SHX
  4

  0
STYLE
  5
A67
330
3
100
AcDbSymbolTableRecord
100
AcDbTextStyleTableRecord
  2
ACANSTS
 70
     0
 40
1.0
 41
1.0
 50
0.0
 71
     0
 42
40.0
  3
romans.shx
  4
extfont.shx
  0
STYLE
  5
A68
330
3
100
AcDbSymbolTableRecord
100
AcDbTextStyleTableRecord
  2
ACANSGDT
 70
     0
 40
0.0
 41
1.0
 50
0.0
 71
     0
 42
40.0
  3
amgdtans.shx
  4

  0
ENDTAB
  0
TABLE
  2
VIEW
  5
6
330
0
100
AcDbSymbolTable
 70
     6
  0
VIEW
  5
3C5
330
6
100
AcDbSymbolTableRecord
100
AcDbViewTableRecord
  2
AM_VIEW1
 70
     0
 40
1485.0
 10
6101.822134555449
 20
4525.782691175616
 41
2271.730038022814
 11
0.0
 21
0.0
 31
1.0
 12
0.0
 22
0.0
 32
0.0
 42
50.0
 43
0.0
 44
0.0
 50
0.0
 71
    16
281
     0
 72
     0
  0
VIEW
  5
3C6
330
6
100
AcDbSymbolTableRecord
100
AcDbViewTableRecord
  2
AM_VIEW2
 70
     0
 40
1485.0
 10
8030.092096532635
 20
4525.782691175616
 41
2271.730038022814
 11
0.0
 21
0.0
 31
1.0
 12
0.0
 22
0.0
 32
0.0
 42
50.0
 43
0.0
 44
0.0
 50
0.0
 71
    16
281
     0
 72
     0
  0
VIEW
  5
3C7
330
6
100
AcDbSymbolTableRecord
100
AcDbViewTableRecord
  2
AM_VIEW3
 70
     0
 40
1485.0
 10
6101.822134555449
 20
3040.782691175616
 41
2271.730038022814
 11
0.0
 21
0.0
 31
1.0
 12
0.0
 22
0.0
 32
0.0
 42
50.0
 43
0.0
 44
0.0
 50
0.0
 71
    16
281
     0
 72
     0
  0
VIEW
  5
3C8
330
6
100
AcDbSymbolTableRecord
100
AcDbViewTableRecord
  2
AM_VIEW4
 70
     0
 40
1485.0
 10
8030.092096532635
 20
3040.782691175616
 41
2271.730038022814
 11
0.0
 21
0.0
 31
1.0
 12
0.0
 22
0.0
 32
0.0
 42
50.0
 43
0.0
 44
0.0
 50
0.0
 71
    16
281
     0
 72
     0
  0
VIEW
  5
3C9
330
6
100
AcDbSymbolTableRecord
100
AcDbViewTableRecord
  2
AM_VIEW5
 70
     0
 40
1485.0
 10
7065.957115544043
 20
3783.282691175616
 41
2271.730038022814
 11
0.0
 21
0.0
 31
1.0
 12
0.0
 22
0.0
 32
0.0
 42
50.0
 43
0.0
 44
0.0
 50
0.0
 71
    16
281
     0
 72
     0
  0
VIEW
  5
3CA
330
6
100
AcDbSymbolTableRecord
100
AcDbViewTableRecord
  2
AM_VIEW6
 70
     0
 40
2969.9703
 10
7065.957115544043
 20
3783.282691175616
 41
4543.414641444869
 11
0.0
 21
0.0
 31
1.0
 12
0.0
 22
0.0
 32
0.0
 42
50.0
 43
0.0
 44
0.0
 50
0.0
 71
    16
281
     0
 72
     0
  0
ENDTAB
  0
TABLE
  2
UCS
  5
7
330
0
100
AcDbSymbolTable
 70
     0
  0
ENDTAB
  0
TABLE
  2
APPID
  5
9
330
0
100
AcDbSymbolTable
 70
    46
  0
APPID
  5
12
330
9
100
AcDbSymbolTableRecord
100
AcDbRegAppTableRecord
  2
ACAD
 70
     0
  0
APPID
  5
2D
330
9
100
AcDbSymbolTableRecord
100
AcDbRegAppTableRecord
  2
MCAD_NO_VIS
 70
     0
  0
APPID
  5
2E
330
9
100
AcDbSymbolTableRecord
100
AcDbRegAppTableRecord
  2
ACAD_TEMP_GRAPHIC
 70
     0
  0
APPID
  5
2F
330
9
100
AcDbSymbolTableRecord
100
AcDbRegAppTableRecord
  2
ACATTRIBSERVICES
 70
     0
  0
APPID
  5
1F0
330
9
100
AcDbSymbolTableRecord
100
AcDbRegAppTableRecord
  2
GENIUS_GENBLLY_14
 70
     0
  0
APPID
  5
321
330
9
100
AcDbSymbolTableRecord
100
AcDbRegAppTableRecord
  2
GENIUS_GENCFG_13
 70
     0
  0
APPID
  5
322
330
9
100
AcDbSymbolTableRecord
100
AcDbRegAppTableRecord
  2
GENIUS_GENOBJ_13
 70
     0
  0
APPID
  5
323
330
9
100
AcDbSymbolTableRecord
100
AcDbRegAppTableRecord
  2
GENIUS_GENODEF_13
 70
     0
  0
APPID
  5
324
330
9
100
AcDbSymbolTableRecord
100
AcDbRegAppTableRecord
  2
GENIUS_GENOENT_13
 70
     0
  0
APPID
  5
325
330
9
100
AcDbSymbolTableRecord
100
AcDbRegAppTableRecord
  2
GENIUS_GENOLIS_13
 70
     0
  0
APPID
  5
326
330
9
100
AcDbSymbolTableRecord
100
AcDbRegAppTableRecord
  2
GENIUS_GENOREF_13
 70
     0
  0
APPID
  5
327
330
9
100
AcDbSymbolTableRecord
100
AcDbRegAppTableRecord
  2
GENIUS_GENOBJ-N-TIT_13
 70
     0
  0
APPID
  5
328
330
9
100
AcDbSymbolTableRecord
100
AcDbRegAppTableRecord
  2
GENIUS_GENTITLE_13
 70
     0
  0
APPID
  5
329
330
9
100
AcDbSymbolTableRecord
100
AcDbRegAppTableRecord
  2
GENIUS_GENZVEED_13
 70
     0
  0
APPID
  5
32A
330
9
100
AcDbSymbolTableRecord
100
AcDbRegAppTableRecord
  2
GENIUS_GENOBJ-N-SDF_13
 70
     0
  0
APPID
  5
32B
330
9
100
AcDbSymbolTableRecord
100
AcDbRegAppTableRecord
  2
GENIUS_GENSCREG_13
 70
     0
  0
APPID
  5
32C
330
9
100
AcDbSymbolTableRecord
100
AcDbRegAppTableRecord
  2
GENIUS_GENCFG0_13
 70
     0
  0
APPID
  5
32D
330
9
100
AcDbSymbolTableRecord
100
AcDbRegAppTableRecord
  2
GENIUS_GENCFG1_13
 70
     0
  0
APPID
  5
32E
330
9
100
AcDbSymbolTableRecord
100
AcDbRegAppTableRecord
  2
GENIUS_GENCFG2_13
 70
     0
  0
APPID
  5
32F
330
9
100
AcDbSymbolTableRecord
100
AcDbRegAppTableRecord
  2
GENIUS_GENCFG3_13
 70
     0
  0
APPID
  5
330
330
9
100
AcDbSymbolTableRecord
100
AcDbRegAppTableRecord
  2
GENIUS_GENCFG4_13
 70
     0
  0
APPID
  5
331
330
9
100
AcDbSymbolTableRecord
100
AcDbRegAppTableRecord
  2
GENIUS_GEVCFG0_13
 70
     0
  0
APPID
  5
332
330
9
100
AcDbSymbolTableRecord
100
AcDbRegAppTableRecord
  2
GENIUS_GENOBJ-N-CRS_13
 70
     0
  0
APPID
  5
333
330
9
100
AcDbSymbolTableRecord
100
AcDbRegAppTableRecord
  2
GENIUS_GENOBJ-N-CEN_13
 70
     0
  0
APPID
  5
334
330
9
100
AcDbSymbolTableRecord
100
AcDbRegAppTableRecord
  2
GENIUS_GEFCFG0_13
 70
     0
  0
APPID
  5
3BA
330
9
100
AcDbSymbolTableRecord
100
AcDbRegAppTableRecord
  2
GENIUS_GENTRA_14
 70
     0
  0
APPID
  5
3CB
330
9
100
AcDbSymbolTableRecord
100
AcDbRegAppTableRecord
  2
GENIUS_GENSCREG_15
 70
     0
  0
APPID
  5
436
330
9
100
AcDbSymbolTableRecord
100
AcDbRegAppTableRecord
  2
GEVID984623613
 70
     0
  0
APPID
  5
437
330
9
100
AcDbSymbolTableRecord
100
AcDbRegAppTableRecord
  2
GEVDC
 70
     0
  0
APPID
  5
438
330
9
100
AcDbSymbolTableRecord
100
AcDbRegAppTableRecord
  2
GEVCON
 70
     0
  0
APPID
  5
43C
330
9
100
AcDbSymbolTableRecord
100
AcDbRegAppTableRecord
  2
GENIUS_GENBH_13
 70
     0
  0
APPID
  5
43E
330
9
100
AcDbSymbolTableRecord
100
AcDbRegAppTableRecord
  2
GENIUS_GENOBJ-NBEHI-BHF_13
 70
     0
  0
APPID
  5
440
330
9
100
AcDbSymbolTableRecord
100
AcDbRegAppTableRecord
  2
GENIUS_GENOBJ-NBEHI-BHB_13
 70
     0
  0
APPID
  5
455
330
9
100
AcDbSymbolTableRecord
100
AcDbRegAppTableRecord
  2
GENIUS_GENOBJ-F-SCPASSM_13
 70
     0
  0
APPID
  5
47B
330
9
100
AcDbSymbolTableRecord
100
AcDbRegAppTableRecord
  2
GEVID984623614
 70
     0
  0
APPID
  5
48B
330
9
100
AcDbSymbolTableRecord
100
AcDbRegAppTableRecord
  2
GEVID984623615
 70
     0
  0
APPID
  5
54A
330
9
100
AcDbSymbolTableRecord
100
AcDbRegAppTableRecord
  2
GENIUS_GENOBJ-N-REV_13
 70
     0
  0
APPID
  5
54B
330
9
100
AcDbSymbolTableRecord
100
AcDbRegAppTableRecord
  2
GENIUS_GENOBJ-N-RSSYM_13
 70
     0
  0
APPID
  5
54C
330
9
100
AcDbSymbolTableRecord
100
AcDbRegAppTableRecord
  2
GENIUS_GENSYMENT_13
 70
     0
  0
APPID
  5
54D
330
9
100
AcDbSymbolTableRecord
100
AcDbRegAppTableRecord
  2
GENIUS_GENSCSYM_13
 70
     0
  0
APPID
  5
943
330
9
100
AcDbSymbolTableRecord
100
AcDbRegAppTableRecord
  2
DCO15
 70
     0
  0
APPID
  5
9B7
330
9
100
AcDbSymbolTableRecord
100
AcDbRegAppTableRecord
  2
AD_DRAW
 70
     0
  0
APPID
  5
9D5
330
9
100
AcDbSymbolTableRecord
100
AcDbRegAppTableRecord
  2
DESIGNERASSEMBLIES
 70
     0
  0
APPID
  5
9E5
330
9
100
AcDbSymbolTableRecord
100
AcDbRegAppTableRecord
  2
ACADM_DIM_EDIT
 70
     0
  0
APPID
  5
9E6
330
9
100
AcDbSymbolTableRecord
100
AcDbRegAppTableRecord
  2
AMDT_DM_ADJ
 70
     0
  0
APPID
  5
DA8
330
9
100
AcDbSymbolTableRecord
100
AcDbRegAppTableRecord
  2
GENIUS_GENDIMSH_14
 70
     0
  0
ENDTAB
  0
TABLE
  2
DIMSTYLE
  5
A
330
0
100
AcDbSymbolTable
 70
    31
100
AcDbDimStyleTable
 71
     1
340
76
  0
DIMSTYLE
105
27
330
A
100
AcDbSymbolTableRecord
100
AcDbDimStyleTableRecord
  2
ISO-25
 70
     0
 41
2.5
 42
0.625
 43
3.75
 44
1.25
 73
     0
 74
     0
 77
     1
 78
     8
140
2.5
141
2.5
143
0.03937007874016
147
0.625
171
     3
172
     1
271
     2
272
     2
274
     3
283
     0
284
     8
340
11
  0
DIMSTYLE
105
76
102
{ACAD_REACTORS
330
F72
330
F93
330
F63
330
F73
330
F64
330
1089
330
10B5
330
1198
102
}
330
A
100
AcDbSymbolTableRecord
100
AcDbDimStyleTableRecord
  2
IGS
 70
     0
  4
"
 40
10.0
 41
2.5
 42
1.0
 43
10.0
 44
1.0
 47
0.1
 48
0.1
 73
     0
 74
     0
 77
     3
 78
     8
 79
     2
140
4.5
141
0.0
143
0.0393701
146
0.71
147
1.5
172
     1
176
   256
177
   256
178
     2
271
     2
272
     2
283
     0
284
     8
340
11
341
77
342
77
371
    -1
372
    -1
  0
DIMSTYLE
105
7D
330
A
100
AcDbSymbolTableRecord
100
AcDbDimStyleTableRecord
  2
IGS$3
 70
     0
  4
"
 40
10.0
 41
2.5
 42
1.0
 43
10.0
 44
1.0
 47
0.1
 48
0.1
 73
     0
 77
     3
 78
     8
 79
     2
140
4.5
141
0.0
143
0.0393701
146
0.71
147
1.5
176
   256
177
   256
178
     2
271
     2
272
     2
283
     0
284
     8
288
     1
289
     0
340
11
341
77
342
77
371
    -1
372
    -1
  0
DIMSTYLE
105
7E
330
A
100
AcDbSymbolTableRecord
100
AcDbDimStyleTableRecord
  2
IGS$4
 70
     0
  4
"
 40
10.0
 41
2.5
 42
1.0
 43
10.0
 44
1.0
 47
0.1
 48
0.1
 73
     0
 77
     3
 78
     8
 79
     2
140
4.5
141
0.0
143
0.0393701
146
0.71
147
1.5
176
   256
177
   256
178
     2
271
     2
272
     2
283
     0
284
     8
288
     1
289
     0
340
11
341
77
342
77
371
    -1
372
    -1
  0
DIMSTYLE
105
7F
330
A
100
AcDbSymbolTableRecord
100
AcDbDimStyleTableRecord
  2
IGS$6
 70
     0
  4
"
 40
10.0
 41
2.5
 42
1.0
 43
10.0
 44
1.0
 47
0.1
 48
0.1
 73
     0
 74
     0
 78
     8
 79
     2
140
4.5
141
0.0
143
0.0393701
146
0.71
147
1.5
172
     1
176
   256
177
   256
178
     2
271
     2
272
     2
283
     0
284
     8
340
11
341
77
342
77
371
    -1
372
    -1
  0
DIMSTYLE
105
80
330
A
100
AcDbSymbolTableRecord
100
AcDbDimStyleTableRecord
  2
IGS$7
 70
     0
  4
"
 40
10.0
 41
2.5
 42
1.0
 43
10.0
 44
1.0
 47
0.1
 48
0.1
 73
     0
 74
     0
 77
     3
 78
     8
 79
     2
140
5.0
141
0.0
143
0.0393701
146
0.71
147
1.5
172
     1
176
   256
177
   256
178
     2
271
     2
272
     2
283
     0
284
     8
340
11
341
77
342
77
371
    -1
372
    -1
  0
DIMSTYLE
105
81
330
A
100
AcDbSymbolTableRecord
100
AcDbDimStyleTableRecord
  2
IGS$SF
 70
     0
  4
"
 40
10.0
 41
2.5
 42
1.0
 43
10.0
 44
1.0
 47
0.1
 48
0.1
 73
     0
 74
     0
 75
     1
 76
     1
 77
     3
 78
     8
 79
     2
140
3.5
141
0.0
143
0.0393701
146
0.71
147
1.5
172
     1
176
   256
177
   256
178
     2
271
     2
272
     3
274
     4
283
     0
284
     8
340
11
341
77
342
77
343
77
344
77
371
    -1
372
    -1
  0
DIMSTYLE
105
82
330
A
100
AcDbSymbolTableRecord
100
AcDbDimStyleTableRecord
  2
IGS$SH
 70
     0
  4
"
 40
10.0
 41
2.5
 42
1.0
 43
10.0
 44
1.0
 47
0.1
 48
0.1
 73
     0
 74
     0
 75
     1
 76
     1
 77
     3
 78
     8
 79
     2
140
3.5
141
0.0
143
0.0393701
144
2.0
146
0.71
147
1.5
172
     1
173
     1
176
   256
177
   256
178
     2
271
     2
272
     3
274
     4
283
     0
284
     8
340
11
341
77
342
77
343
83
344
77
371
    -1
372
    -1
  0
DIMSTYLE
105
9A
330
A
100
AcDbSymbolTableRecord
100
AcDbDimStyleTableRecord
  2
AM_ISO
 70
     0
  4
"
 40
10.0
 41
2.5
 42
1.0
 43
10.0
 44
1.0
 47
0.1
 48
0.1
 73
     0
 74
     0
 77
     1
 78
     8
 79
     2
140
3.5
141
0.0
143
0.0393701
146
0.71
147
1.5
172
     1
176
   256
177
   256
178
     2
271
     2
272
     3
274
     4
283
     0
284
     8
340
11
371
    -1
372
    -1
  0
DIMSTYLE
105
9B
330
A
100
AcDbSymbolTableRecord
100
AcDbDimStyleTableRecord
  2
AM_ISO$3
 70
     0
  4
"
 40
10.0
 41
2.5
 42
1.0
 43
10.0
 44
1.0
 47
0.1
 48
0.1
 73
     0
 77
     1
 78
     8
 79
     2
140
3.5
141
0.0
143
0.0393701
146
0.71
147
1.5
176
   256
177
   256
178
     2
271
     2
272
     3
274
     4
283
     0
284
     8
288
     1
289
     0
340
11
371
    -1
372
    -1
  0
DIMSTYLE
105
9C
330
A
100
AcDbSymbolTableRecord
100
AcDbDimStyleTableRecord
  2
AM_ISO$4
 70
     0
  4
"
 40
10.0
 41
2.5
 42
1.0
 43
10.0
 44
1.0
 47
0.1
 48
0.1
 73
     0
 77
     1
 78
     8
 79
     2
140
3.5
141
0.0
143
0.0393701
146
0.71
147
1.5
176
   256
177
   256
178
     2
271
     2
272
     3
274
     4
283
     0
284
     8
288
     1
289
     0
340
11
371
    -1
372
    -1
  0
DIMSTYLE
105
9D
330
A
100
AcDbSymbolTableRecord
100
AcDbDimStyleTableRecord
  2
AM_ISO$6
 70
     0
  4
"
 40
10.0
 41
2.5
 42
1.0
 43
10.0
 44
1.0
 47
0.1
 48
0.1
 73
     0
 74
     0
 78
     8
 79
     2
140
3.5
141
0.0
143
0.0393701
146
0.71
147
1.5
172
     1
176
   256
177
   256
178
     2
271
     2
272
     3
274
     4
283
     0
284
     8
340
11
371
    -1
372
    -1
  0
DIMSTYLE
105
9E
330
A
100
AcDbSymbolTableRecord
100
AcDbDimStyleTableRecord
  2
AM_ISO$7
 70
     0
  4
"
 40
10.0
 41
2.5
 42
1.0
 43
10.0
 44
1.0
 47
0.1
 48
0.1
 73
     0
 74
     0
 77
     1
 78
     8
 79
     2
140
5.0
141
0.0
143
0.0393701
146
0.71
147
1.5
172
     1
176
   256
177
   256
178
     2
271
     2
272
     3
274
     4
283
     0
284
     8
340
11
371
    -1
372
    -1
  0
DIMSTYLE
105
9F
330
A
100
AcDbSymbolTableRecord
100
AcDbDimStyleTableRecord
  2
AM_ISO$SF
 70
     0
  4
"
 40
10.0
 41
2.5
 42
1.0
 43
10.0
 44
1.0
 47
0.1
 48
0.1
 73
     0
 74
     0
 75
     1
 76
     1
 77
     1
 78
     8
 79
     2
140
3.5
141
0.0
143
0.0393701
146
0.71
147
1.5
172
     1
176
   256
177
   256
178
     2
271
     2
272
     3
274
     4
283
     0
284
     8
340
11
371
    -1
372
    -1
  0
DIMSTYLE
105
A0
330
A
100
AcDbSymbolTableRecord
100
AcDbDimStyleTableRecord
  2
AM_ISO$SH
 70
     0
  4
"
 40
10.0
 41
2.5
 42
1.0
 43
10.0
 44
1.0
 47
0.1
 48
0.1
 73
     0
 74
     0
 75
     1
 76
     1
 77
     1
 78
     8
 79
     2
140
3.5
141
0.0
143
0.0393701
144
2.0
146
0.71
147
1.5
172
     1
173
     1
176
   256
177
   256
178
     2
271
     2
272
     3
274
     4
283
     0
284
     8
340
11
343
83
371
    -1
372
    -1
  0
DIMSTYLE
105
317
330
A
100
AcDbSymbolTableRecord
100
AcDbDimStyleTableRecord
  2
STANDARD
 70
     0
340
11
  0
DIMSTYLE
105
318
330
A
100
AcDbSymbolTableRecord
100
AcDbDimStyleTableRecord
  2
ISO-35
 70
     0
 41
3.5
 42
0.875
 43
5.25
 44
1.75
 74
     0
 77
     1
 78
     8
140
3.5
141
3.5
143
0.0394
145
1.399999999999999
147
0.875
172
     1
340
11
  0
DIMSTYLE
105
319
330
A
100
AcDbSymbolTableRecord
100
AcDbDimStyleTableRecord
  2
ISO-5
 70
     0
 41
5.0
 42
1.25
 43
7.5
 44
2.5
 74
     0
 77
     1
 78
     8
140
5.0
141
5.0
143
0.0394
145
2.0
147
1.25
172
     1
340
11
  0
DIMSTYLE
105
31A
330
A
100
AcDbSymbolTableRecord
100
AcDbDimStyleTableRecord
  2
ISO-7
 70
     0
 41
7.0
 42
1.75
 43
10.5
 44
3.5
 74
     0
 77
     1
 78
     8
140
7.0
141
7.0
143
0.0394
145
2.799999999999999
147
1.75
172
     1
340
11
  0
DIMSTYLE
105
31B
330
A
100
AcDbSymbolTableRecord
100
AcDbDimStyleTableRecord
  2
ISO1
 70
     0
 41
10.0
 42
2.5
 43
15.0
 44
5.0
 74
     0
 77
     1
 78
     8
140
10.0
141
10.0
143
0.0394
145
4.0
147
2.5
172
     1
340
11
  0
DIMSTYLE
105
31C
330
A
100
AcDbSymbolTableRecord
100
AcDbDimStyleTableRecord
  2
ISO1-4
 70
     0
 41
14.0
 42
3.5
 43
21.0
 44
7.0
 74
     0
 77
     1
 78
     8
140
14.0
141
14.0
143
0.0394
145
5.599999999999999
147
3.5
172
     1
340
11
  0
DIMSTYLE
105
31D
330
A
100
AcDbSymbolTableRecord
100
AcDbDimStyleTableRecord
  2
ISO2
 70
     0
 41
20.0
 42
5.0
 43
30.0
 44
10.0
 74
     0
 77
     1
 78
     8
140
20.0
141
20.0
143
0.0394
145
8.0
147
5.0
172
     1
340
11
  0
DIMSTYLE
105
31E
330
A
100
AcDbSymbolTableRecord
100
AcDbDimStyleTableRecord
  2
GEN-ISO$4
 70
     0
  3
<>
 41
2.5
 42
1.0
 43
10.0
 44
1.0
 47
0.1
 48
0.1
 73
     0
 77
     1
 78
     8
140
3.5
141
0.0
143
0.0393701
146
0.71
147
1.5
176
   256
177
   256
178
     2
271
     2
272
     3
274
     4
283
     0
288
     1
289
     0
340
11
  0
DIMSTYLE
105
31F
330
A
100
AcDbSymbolTableRecord
100
AcDbDimStyleTableRecord
  2
GEN-ISO$3
 70
     0
  3
<>
 41
2.5
 42
1.0
 43
10.0
 44
1.0
 47
0.1
 48
0.1
 73
     0
 77
     1
 78
     8
140
3.5
141
0.0
143
0.0393701
146
0.71
147
1.5
176
   256
177
   256
178
     2
271
     2
272
     3
274
     4
283
     0
288
     1
289
     0
340
11
  0
DIMSTYLE
105
320
330
A
100
AcDbSymbolTableRecord
100
AcDbDimStyleTableRecord
  2
GEN-ISO
 70
     0
  3
<>
 41
2.5
 42
1.0
 43
10.0
 44
1.0
 47
0.1
 48
0.1
 73
     0
 74
     0
 77
     1
 78
     8
140
3.5
141
0.0
143
0.0393701
146
0.71
147
1.5
172
     1
176
   256
177
   256
178
     2
271
     2
272
     3
274
     4
283
     0
340
11
  0
DIMSTYLE
105
A69
330
A
100
AcDbSymbolTableRecord
100
AcDbDimStyleTableRecord
  2
AM_ANSI
 70
     0
  4
mm
 40
10.0
 41
0.1
 42
0.05
 43
0.5
 44
0.1
 47
0.1
 48
0.1
 78
     7
 79
     2
140
0.12
141
0.0
146
0.71
147
0.06
176
   256
177
   256
178
     2
274
     4
284
     7
340
11
371
    -1
372
    -1
  0
DIMSTYLE
105
A6A
330
A
100
AcDbSymbolTableRecord
100
AcDbDimStyleTableRecord
  2
AM_ANSI$3
 70
     0
  4
mm
 40
10.0
 41
0.1
 42
0.05
 43
0.5
 44
0.1
 47
0.1
 48
0.1
 78
     7
 79
     2
140
0.12
141
0.0
146
0.71
147
0.06
176
   256
177
   256
178
     2
274
     4
284
     7
288
     1
289
     0
340
11
371
    -1
372
    -1
  0
DIMSTYLE
105
A6B
330
A
100
AcDbSymbolTableRecord
100
AcDbDimStyleTableRecord
  2
AM_ANSI$4
 70
     0
  4
mm
 40
10.0
 41
0.1
 42
0.05
 43
0.5
 44
0.1
 47
0.1
 48
0.1
 78
     7
 79
     2
140
0.12
141
0.0
146
0.71
147
0.06
176
   256
177
   256
178
     2
274
     4
284
     7
288
     1
289
     0
340
11
371
    -1
372
    -1
  0
DIMSTYLE
105
A6C
330
A
100
AcDbSymbolTableRecord
100
AcDbDimStyleTableRecord
  2
AM_ANSI$7
 70
     0
  4
mm
 40
10.0
 41
0.1
 42
0.05
 43
0.5
 44
0.1
 47
0.1
 48
0.1
 78
     7
 79
     2
140
0.24
141
0.0
146
0.71
147
0.06
176
   256
177
   256
178
     2
274
     4
284
     7
340
11
371
    -1
372
    -1
  0
DIMSTYLE
105
A6D
330
A
100
AcDbSymbolTableRecord
100
AcDbDimStyleTableRecord
  2
AM_ANSI$SF
 70
     0
  4
mm
 40
10.0
 41
0.1
 42
0.05
 43
0.5
 44
0.1
 47
0.1
 48
0.1
 75
     1
 76
     1
 78
     7
 79
     2
140
0.12
141
0.0
146
0.71
147
0.06
176
   256
177
   256
178
     2
274
     4
284
     7
340
11
371
    -1
372
    -1
  0
DIMSTYLE
105
A6E
330
A
100
AcDbSymbolTableRecord
100
AcDbDimStyleTableRecord
  2
AM_ANSI$SH
 70
     0
  4
mm
 40
10.0
 41
0.1
 42
0.05
 43
0.5
 44
0.1
 47
0.1
 48
0.1
 75
     1
 76
     1
 78
     7
 79
     2
140
0.12
141
0.0
146
0.71
147
0.06
173
     1
176
   256
177
   256
178
     2
274
     4
284
     7
340
11
343
83
371
    -1
372
    -1
  0
ENDTAB
  0
TABLE
  2
BLOCK_RECORD
  5
1
330
0
100
AcDbSymbolTable
 70
    30
  0
BLOCK_RECORD
  5
1F
102
{ACAD_XDICTIONARY
360
B1
102
}
330
1
100
AcDbSymbolTableRecord
100
AcDbBlockTableRecord
  2
*Model_Space
340
22
  0
BLOCK_RECORD
  5
1B
330
1
100
AcDbSymbolTableRecord
100
AcDbBlockTableRecord
  2
*Paper_Space
340
1E
  0
BLOCK_RECORD
  5
23
330
1
100
AcDbSymbolTableRecord
100
AcDbBlockTableRecord
  2
*Paper_Space0
340
26
  0
BLOCK_RECORD
  5
77
330
1
100
AcDbSymbolTableRecord
100
AcDbBlockTableRecord
  2
_Open30
340
0
310
2800000020000000200000000100080000000000000400000000000000000000000000000000000000000000000080000080000000808000800000008000800080800000C0C0C000C0DCC000F0CAA6000020400000206000002080000020A0000020C0000020E00000400000004020000040400000406000004080000040A0
310
000040C0000040E00000600000006020000060400000606000006080000060A0000060C0000060E00000800000008020000080400000806000008080000080A0000080C0000080E00000A0000000A0200000A0400000A0600000A0800000A0A00000A0C00000A0E00000C0000000C0200000C0400000C0600000C0800000C0
310
A00000C0C00000C0E00000E0000000E0200000E0400000E0600000E0800000E0A00000E0C00000E0E00040000000400020004000400040006000400080004000A0004000C0004000E00040200000402020004020400040206000402080004020A0004020C0004020E000404000004040200040404000404060004040800040
310
40A0004040C0004040E00040600000406020004060400040606000406080004060A0004060C0004060E00040800000408020004080400040806000408080004080A0004080C0004080E00040A0000040A0200040A0400040A0600040A0800040A0A00040A0C00040A0E00040C0000040C0200040C0400040C0600040C08000
310
40C0A00040C0C00040C0E00040E0000040E0200040E0400040E0600040E0800040E0A00040E0C00040E0E00080000000800020008000400080006000800080008000A0008000C0008000E00080200000802020008020400080206000802080008020A0008020C0008020E00080400000804020008040400080406000804080
310
008040A0008040C0008040E00080600000806020008060400080606000806080008060A0008060C0008060E00080800000808020008080400080806000808080008080A0008080C0008080E00080A0000080A0200080A0400080A0600080A0800080A0A00080A0C00080A0E00080C0000080C0200080C0400080C0600080C0
310
800080C0A00080C0C00080C0E00080E0000080E0200080E0400080E0600080E0800080E0A00080E0C00080E0E000C0000000C0002000C0004000C0006000C0008000C000A000C000C000C000E000C0200000C0202000C0204000C0206000C0208000C020A000C020C000C020E000C0400000C0402000C0404000C0406000C0
310
408000C040A000C040C000C040E000C0600000C0602000C0604000C0606000C0608000C060A000C060C000C060E000C0800000C0802000C0804000C0806000C0808000C080A000C080C000C080E000C0A00000C0A02000C0A04000C0A06000C0A08000C0A0A000C0A0C000C0A0E000C0C00000C0C02000C0C04000C0C06000
310
C0C08000C0C0A000F0FBFF00A4A0A000808080000000FF0000FF000000FFFF00FF000000FF00FF00FFFF0000FFFFFF0000000000000000000000000000000000000000000000000000000000000000000000000000000000000000000000000000000000000000000000000000000000000000000000000000000000000000
310
00000000000000000000000000000000000000000000000000000000000000000000000000000000000000000000000000000000000000000000000000000000000000000000000000000000000000000000000000000000000000000000000000000000000000000000000000000000000000000000000000000000000000
310
000000000000000000000000000000000000000000000000000000000000000000000000000000000000000000000000000000FFFF0000000000000000000000000000000000000000000000000000000000000000FFFFFFFF0000000000000000000000000000000000000000000000000000000000000000FFFFFFFF0000
310
000000000000000000000000000000000000000000000000000000000000FFFFFF0000000000000000000000000000000000000000000000000000000000000000FFFFFFFF0000000000000000000000000000000000000000000000000000000000000000FFFFFF0000000000000000000000000000000000000000000000
310
000000000000000000FFFFFFFF0000000000000000000000000000000000000000000000000000000000000000FFFFFFFF00000000FFFFFFFFFFFFFFFFFFFFFFFFFFFFFFFFFFFFFFFFFFFFFFFFFFFFFFFFFFFF00000000000000000000000000000000000000000000000000FFFFFFFF000000000000000000000000000000
310
000000000000000000FFFFFFFF000000000000000000000000000000000000000000000000FFFFFFFF000000000000000000000000000000000000000000000000FFFFFFFF000000000000000000000000000000000000000000000000FFFFFFFF000000000000000000000000000000000000000000000000FFFFFFFF0000
310
0000000000000000000000000000000000000000000000FFFFFF0000000000000000000000000000000000000000000000000000000000000000000000000000000000000000000000000000000000000000000000000000000000000000000000000000000000000000000000000000000000000000000000000000000000
310
00000000000000000000000000000000000000000000000000000000000000000000000000000000000000000000000000000000000000000000000000000000000000000000000000000000000000000000000000000000000000000000000000000000000000000000000000000000000000000000000000000000000000
310
0000000000000000000000000000000000000000000000000000000000000000000000000000000000000000000000000000000000000000
102
{BLKREFS
331
101C
331
101D
331
109B
331
109C
331
10C7
331
10C8
331
1134
331
1135
331
1171
331
1172
331
117A
331
117B
331
1183
331
1184
331
11A6
331
11A7
102
}
  0
BLOCK_RECORD
  5
83
330
1
100
AcDbSymbolTableRecord
100
AcDbBlockTableRecord
  2
GENAXEH
340
0
310
2800000020000000200000000100080000000000000400000000000000000000000000000000000000000000000080000080000000808000800000008000800080800000C0C0C000C0DCC000F0CAA6000020400000206000002080000020A0000020C0000020E00000400000004020000040400000406000004080000040A0
310
000040C0000040E00000600000006020000060400000606000006080000060A0000060C0000060E00000800000008020000080400000806000008080000080A0000080C0000080E00000A0000000A0200000A0400000A0600000A0800000A0A00000A0C00000A0E00000C0000000C0200000C0400000C0600000C0800000C0
310
A00000C0C00000C0E00000E0000000E0200000E0400000E0600000E0800000E0A00000E0C00000E0E00040000000400020004000400040006000400080004000A0004000C0004000E00040200000402020004020400040206000402080004020A0004020C0004020E000404000004040200040404000404060004040800040
310
40A0004040C0004040E00040600000406020004060400040606000406080004060A0004060C0004060E00040800000408020004080400040806000408080004080A0004080C0004080E00040A0000040A0200040A0400040A0600040A0800040A0A00040A0C00040A0E00040C0000040C0200040C0400040C0600040C08000
310
40C0A00040C0C00040C0E00040E0000040E0200040E0400040E0600040E0800040E0A00040E0C00040E0E00080000000800020008000400080006000800080008000A0008000C0008000E00080200000802020008020400080206000802080008020A0008020C0008020E00080400000804020008040400080406000804080
310
008040A0008040C0008040E00080600000806020008060400080606000806080008060A0008060C0008060E00080800000808020008080400080806000808080008080A0008080C0008080E00080A0000080A0200080A0400080A0600080A0800080A0A00080A0C00080A0E00080C0000080C0200080C0400080C0600080C0
310
800080C0A00080C0C00080C0E00080E0000080E0200080E0400080E0600080E0800080E0A00080E0C00080E0E000C0000000C0002000C0004000C0006000C0008000C000A000C000C000C000E000C0200000C0202000C0204000C0206000C0208000C020A000C020C000C020E000C0400000C0402000C0404000C0406000C0
310
408000C040A000C040C000C040E000C0600000C0602000C0604000C0606000C0608000C060A000C060C000C060E000C0800000C0802000C0804000C0806000C0808000C080A000C080C000C080E000C0A00000C0A02000C0A04000C0A06000C0A08000C0A0A000C0A0C000C0A0E000C0C00000C0C02000C0C04000C0C06000
310
C0C08000C0C0A000F0FBFF00A4A0A000808080000000FF0000FF000000FFFF00FF000000FF00FF00FFFF0000FFFFFF0000000000000000000000000000000000000000000000000000000000000000000000000000000000000000000000000000000000000000000000000000000000000000000000000000000000000000
310
00000000000000000000000000000000000000000000000000000000000000000000000000000000000000000000000000000000000000000000000000000000000000000000000000000000000000000000000000000000000000000000000000000000000000000000000000000000000000000000000000000000000000
310
00000000000000000000000000000000000000000000000000000000000000000000000000000000000000000000000000000000000000000000000000000000000000000000000000000000000000000000000000000000000000000000000000000000000000000000000000000000000000000000000000000000000000
310
00000000000000000000000000000000000000000000000000000000000000000000000000000000000000000000000000000000000000000000000000000000000000000000000000000000000000000000000000000000000000000000000000000000000000000000000000000000000000000000000000000000000000
310
0000000000000000000000000000000000000000000000000000000000000000000000000000000000000000000000000000000000FFFFFFFFFFFFFFFFFFFFFFFFFFFFFFFFFFFFFFFFFFFFFFFFFFFFFFFFFFFF0000000000000000000000000000000000000000000000000000000000000000000000000000000000000000
310
00000000000000000000000000000000000000000000000000000000000000000000000000000000000000000000000000000000000000000000000000000000000000000000000000000000000000000000000000000000000000000000000000000000000000000000000000000000000000000000000000000000000000
310
00000000000000000000000000000000000000000000000000000000000000000000000000000000000000000000000000000000000000000000000000000000000000000000000000000000000000000000000000000000000000000000000000000000000000000000000000000000000000000000000000000000000000
310
00000000000000000000000000000000000000000000000000000000000000000000000000000000000000000000000000000000000000000000000000000000000000000000000000000000000000000000000000000000000000000000000000000000000000000000000000000000000000000000000000000000000000
310
0000000000000000000000000000000000000000000000000000000000000000000000000000000000000000000000000000000000000000
  0
BLOCK_RECORD
  5
1F1
330
1
100
AcDbSymbolTableRecord
100
AcDbBlockTableRecord
  2
IGS_A2
340
0
310
2800000020000000200000000100080000000000000400000000000000000000000000000000000000000000000080000080000000808000800000008000800080800000C0C0C000C0DCC000F0CAA6000020400000206000002080000020A0000020C0000020E00000400000004020000040400000406000004080000040A0
310
000040C0000040E00000600000006020000060400000606000006080000060A0000060C0000060E00000800000008020000080400000806000008080000080A0000080C0000080E00000A0000000A0200000A0400000A0600000A0800000A0A00000A0C00000A0E00000C0000000C0200000C0400000C0600000C0800000C0
310
A00000C0C00000C0E00000E0000000E0200000E0400000E0600000E0800000E0A00000E0C00000E0E00040000000400020004000400040006000400080004000A0004000C0004000E00040200000402020004020400040206000402080004020A0004020C0004020E000404000004040200040404000404060004040800040
310
40A0004040C0004040E00040600000406020004060400040606000406080004060A0004060C0004060E00040800000408020004080400040806000408080004080A0004080C0004080E00040A0000040A0200040A0400040A0600040A0800040A0A00040A0C00040A0E00040C0000040C0200040C0400040C0600040C08000
310
40C0A00040C0C00040C0E00040E0000040E0200040E0400040E0600040E0800040E0A00040E0C00040E0E00080000000800020008000400080006000800080008000A0008000C0008000E00080200000802020008020400080206000802080008020A0008020C0008020E00080400000804020008040400080406000804080
310
008040A0008040C0008040E00080600000806020008060400080606000806080008060A0008060C0008060E00080800000808020008080400080806000808080008080A0008080C0008080E00080A0000080A0200080A0400080A0600080A0800080A0A00080A0C00080A0E00080C0000080C0200080C0400080C0600080C0
310
800080C0A00080C0C00080C0E00080E0000080E0200080E0400080E0600080E0800080E0A00080E0C00080E0E000C0000000C0002000C0004000C0006000C0008000C000A000C000C000C000E000C0200000C0202000C0204000C0206000C0208000C020A000C020C000C020E000C0400000C0402000C0404000C0406000C0
310
408000C040A000C040C000C040E000C0600000C0602000C0604000C0606000C0608000C060A000C060C000C060E000C0800000C0802000C0804000C0806000C0808000C080A000C080C000C080E000C0A00000C0A02000C0A04000C0A06000C0A08000C0A0A000C0A0C000C0A0E000C0C00000C0C02000C0C04000C0C06000
310
C0C08000C0C0A000F0FBFF00A4A0A000808080000000FF0000FF000000FFFF00FF000000FF00FF00FFFF0000FFFFFF0000000000000000000000000000000000000000000000000000000000000000000000000000000000000000000000000000000000000000000000000000000000000000000000000000000000000000
310
000000000000000000000000000000000000000000000000000000000000000000000000000000000000000000000000000000000000000000000000000000000000000000000000000000000000000000000000000000000000000000000000000000000000000000000000000000000000F9F9F9F9F9F9F9F9F9F9F9F9F9
310
F9F9F9F9F9F9F9F9F9F9F9F9F9F90000000000F9FFFFFFFFFFFFFFFFFFFFFFFFFFFFFFFFFFFFFFFFFFFFFFFFFFF90000000000F9FF0000000000000000000000000000000000000000000000FFF90000000000F9FF0000000000000000000000000000000000000000000000FFF90000000000F9FF00000000000000000000
310
00000000000000000000000000FFF90000000000F9FF0000000000000000000000000000000000000000000000FFF90000000000F9FF0000000000000000000000000000000000000000000000FFF90000000000F9FF0000000000000000000000000000000000000000000000FFF90000000000F9FF000000000000000000
310
0000000000000000000000000000FFF90000000000F9FF0000000000000000000000000000000000000000000000FFF90000000000F9FF0000000000000000000000000000000000000000000000FFF90000000000F9FF0000000000000000000000000000000000000000000000FFF90000000000F9FF0000000000000000
310
000000000000000000000000000000FFF90000000000F9FF0000000000000000000000000000000000000000000000FFF90000000000F9FF0000000000000000000000000000000000000000000000FFF90000000000F9FF0000000000000000000000000000000000000000000000FFF90000000000F9FF00000000000000
310
00000000000000000000000000000000FFF90000000000F9FF0000000000000000000000000000000000000000000000FFF90000000000F9F9F9F9F9F9F9F9F9F9F9F9F9F9F9F9F9F9F9F9F9F9F9F9F9F9F9000000000000000000000000000000000000000000000000000000000000000000000000000000000000000000
310
00000000000000000000000000000000000000000000000000000000000000000000000000000000000000000000000000000000000000000000000000000000000000000000000000000000000000000000000000000000000000000000000000000000000000000000000000000000000000000000000000000000000000
310
0000000000000000000000000000000000000000000000000000000000000000000000000000000000000000000000000000000000000000
  0
BLOCK_RECORD
  5
210
330
1
100
AcDbSymbolTableRecord
100
AcDbBlockTableRecord
  2
GEN_A4
340
0
310
2800000020000000200000000100080000000000000400000000000000000000000000000000000000000000000080000080000000808000800000008000800080800000C0C0C000C0DCC000F0CAA6000020400000206000002080000020A0000020C0000020E00000400000004020000040400000406000004080000040A0
310
000040C0000040E00000600000006020000060400000606000006080000060A0000060C0000060E00000800000008020000080400000806000008080000080A0000080C0000080E00000A0000000A0200000A0400000A0600000A0800000A0A00000A0C00000A0E00000C0000000C0200000C0400000C0600000C0800000C0
310
A00000C0C00000C0E00000E0000000E0200000E0400000E0600000E0800000E0A00000E0C00000E0E00040000000400020004000400040006000400080004000A0004000C0004000E00040200000402020004020400040206000402080004020A0004020C0004020E000404000004040200040404000404060004040800040
310
40A0004040C0004040E00040600000406020004060400040606000406080004060A0004060C0004060E00040800000408020004080400040806000408080004080A0004080C0004080E00040A0000040A0200040A0400040A0600040A0800040A0A00040A0C00040A0E00040C0000040C0200040C0400040C0600040C08000
310
40C0A00040C0C00040C0E00040E0000040E0200040E0400040E0600040E0800040E0A00040E0C00040E0E00080000000800020008000400080006000800080008000A0008000C0008000E00080200000802020008020400080206000802080008020A0008020C0008020E00080400000804020008040400080406000804080
310
008040A0008040C0008040E00080600000806020008060400080606000806080008060A0008060C0008060E00080800000808020008080400080806000808080008080A0008080C0008080E00080A0000080A0200080A0400080A0600080A0800080A0A00080A0C00080A0E00080C0000080C0200080C0400080C0600080C0
310
800080C0A00080C0C00080C0E00080E0000080E0200080E0400080E0600080E0800080E0A00080E0C00080E0E000C0000000C0002000C0004000C0006000C0008000C000A000C000C000C000E000C0200000C0202000C0204000C0206000C0208000C020A000C020C000C020E000C0400000C0402000C0404000C0406000C0
310
408000C040A000C040C000C040E000C0600000C0602000C0604000C0606000C0608000C060A000C060C000C060E000C0800000C0802000C0804000C0806000C0808000C080A000C080C000C080E000C0A00000C0A02000C0A04000C0A06000C0A08000C0A0A000C0A0C000C0A0E000C0C00000C0C02000C0C04000C0C06000
310
C0C08000C0C0A000F0FBFF00A4A0A000808080000000FF0000FF000000FFFF00FF000000FF00FF00FFFF0000FFFFFF00000000000000000000000000000000000000000000000000000000000000000000000000F9F9F9F9F9F9F9F9F9F9F9F9F9F9F9F9F9F9F9F9F90000000000000000000000F900FFFFFFFFFFFFFFFFFF
310
FFFFFFFFFFFFFFFFFFF90000000000000000000000F900FF00000000000000000000000000000000FFF90000000000000000000000F900FF00000000000000000000000000000000FFF90000000000000000000000F900FF00000000000000000000000000000000FFF90000000000000000000000F900FF00000000000000
310
000000000000000000FFF90000000000000000000000F900FF00000000000000000000000000000000FFF90000000000000000000000F900FF00000000000000000000000000000000FFF90000000000000000000000F900FF00000000000000000000000000000000FFF90000000000000000000000F900FF000000000000
310
00000000000000000000FFF90000000000000000000000F9F9F900000000000000000000000000000000FFF90000000000000000000000F9F9FF00000000000000000000000000000000FFF90000000000000000000000F9F9FF00000000000000000000000000000000FFF90000000000000000000000F9F9FF0000000000
310
0000000000000000000000FFF90000000000000000000000F9F9F900000000000000000000000000000000FFF90000000000000000000000F9F9FF00000000000000000000000000000000FFF90000000000000000000000F9F9FF00000000000000000000000000000000FFF90000000000000000000000F9F9FF00000000
310
000000000000000000000000FFF90000000000000000000000F9F9FF00000000000000000000000000000000FFF90000000000000000000000F9F9F900000000000000000000000000000000FFF90000000000000000000000F9F9FF00000000000000000000000000000000FFF90000000000000000000000F9F9FF000000
310
00000000000000000000000000FFF90000000000000000000000F9F9FF00000000000000000000000000000000FFF90000000000000000000000F9F9F900000000000000000000000000000000FFF90000000000000000000000F9F9FF00000000000000000000000000000000FFF90000000000000000000000F9F9FF0000
310
0000000000000000000000000000FFF90000000000000000000000F9F9FF00000000000000000000000000000000FFF90000000000000000000000F9F9FFF9F9F9F9F9F9F9F9F9F9F9F9F9F9F9F9F9F90000000000000000000000F9F9F9FFF9FFF9FFF9FFF9FFFFF9FFF9FFF9FFFFF9000000000000000000000000000000
310
0000000000000000000000000000000000000000000000000000000000000000000000000000000000000000000000000000000000000000
  0
BLOCK_RECORD
  5
232
330
1
100
AcDbSymbolTableRecord
100
AcDbBlockTableRecord
  2
GENTITUS
340
0
310
2800000020000000200000000100080000000000000400000000000000000000000000000000000000000000000080000080000000808000800000008000800080800000C0C0C000C0DCC000F0CAA6000020400000206000002080000020A0000020C0000020E00000400000004020000040400000406000004080000040A0
310
000040C0000040E00000600000006020000060400000606000006080000060A0000060C0000060E00000800000008020000080400000806000008080000080A0000080C0000080E00000A0000000A0200000A0400000A0600000A0800000A0A00000A0C00000A0E00000C0000000C0200000C0400000C0600000C0800000C0
310
A00000C0C00000C0E00000E0000000E0200000E0400000E0600000E0800000E0A00000E0C00000E0E00040000000400020004000400040006000400080004000A0004000C0004000E00040200000402020004020400040206000402080004020A0004020C0004020E000404000004040200040404000404060004040800040
310
40A0004040C0004040E00040600000406020004060400040606000406080004060A0004060C0004060E00040800000408020004080400040806000408080004080A0004080C0004080E00040A0000040A0200040A0400040A0600040A0800040A0A00040A0C00040A0E00040C0000040C0200040C0400040C0600040C08000
310
40C0A00040C0C00040C0E00040E0000040E0200040E0400040E0600040E0800040E0A00040E0C00040E0E00080000000800020008000400080006000800080008000A0008000C0008000E00080200000802020008020400080206000802080008020A0008020C0008020E00080400000804020008040400080406000804080
310
008040A0008040C0008040E00080600000806020008060400080606000806080008060A0008060C0008060E00080800000808020008080400080806000808080008080A0008080C0008080E00080A0000080A0200080A0400080A0600080A0800080A0A00080A0C00080A0E00080C0000080C0200080C0400080C0600080C0
310
800080C0A00080C0C00080C0E00080E0000080E0200080E0400080E0600080E0800080E0A00080E0C00080E0E000C0000000C0002000C0004000C0006000C0008000C000A000C000C000C000E000C0200000C0202000C0204000C0206000C0208000C020A000C020C000C020E000C0400000C0402000C0404000C0406000C0
310
408000C040A000C040C000C040E000C0600000C0602000C0604000C0606000C0608000C060A000C060C000C060E000C0800000C0802000C0804000C0806000C0808000C080A000C080C000C080E000C0A00000C0A02000C0A04000C0A06000C0A08000C0A0A000C0A0C000C0A0E000C0C00000C0C02000C0C04000C0C06000
310
C0C08000C0C0A000F0FBFF00A4A0A000808080000000FF0000FF000000FFFF00FF000000FF00FF00FFFF0000FFFFFF0000000000000000000000000000000000000000000000000000000000000000000000000000000000000000000000000000000000000000000000000000000000000000000000000000000000000000
310
00000000000000000000000000000000000000000000000000000000000000000000000000000000000000000000000000000000000000000000000000000000000000000000000000000000000000000000000000000000000000000000000000000000000000000000000000000000000000000000000000000000000000
310
00000000000000000000000000000000000000000000000000000000000000000000000000000000000000000000000000000000000000000000000000000000000000000000000000000000000000000000000000000000000000000000000000000000000000000000000000000000000000000000000000000000000000
310
0000000000000000000000000000000000000000FFFFFFFFFFFFFFFFFFF9F9FFFFFFFFF9FFFFFFFFFFFFF9F9FFFFFFFFFFFFF900F9F9F9F9F9F9F9F9F9F9F9F9F9F9F9F9F9F9F9F9F9F9F9F9F9F9F9F9F9F9F900FF0000000000000000F9F9F9F9F9F9F9F9F9FFFFFFFFFFFFFFFFFFF9FFFF0000F9F9F9F9F9F9F9F9F9F9FF
310
F9FFFFFFF9FFFFFFFFFFFFFFFFFFFFFFF9FFFF0000F9F9F9F9F9F9F9F9F9F9F9F9F9FBFBFBFBFBFBFBFB0000000000000000FF0000F9F9F9F9F9F9F9F9F9F9F9F9F9FFFFFFFFFFFFFFFFFFFFFF0000000000FF0000F9F9F9F9F9F9F9F9F9F9F9F9F9FFFFFFFFFFFFFFFFFFFFFF0000000000FF0000F9F9F9F9F9F9F9F9F9F9
310
F9F9F9F9F9F9F9F9F9F9F9F9F9F9F9F9F9F9F9FF0000FFF9F9F900F9F9F9F9FFF9F9FBFBFBFBFBFBFBFBFB0000000000000000FF0000F9F9F9F9F9F9F9F9F9F9FFFFFFFFFFFFFFFFFFFFFFFFFFFFFFFFFFFFFFFF00000000000000000000000000000000000000000000000000000000000000000000000000000000000000
310
00000000000000000000000000000000000000000000000000000000000000000000000000000000000000000000000000000000000000000000000000000000000000000000000000000000000000000000000000000000000000000000000000000000000000000000000000000000000000000000000000000000000000
310
00000000000000000000000000000000000000000000000000000000000000000000000000000000000000000000000000000000000000000000000000000000000000000000000000000000000000000000000000000000000000000000000000000000000000000000000000000000000000000000000000000000000000
310
0000000000000000000000000000000000000000000000000000000000000000000000000000000000000000000000000000000000000000
  0
BLOCK_RECORD
  5
26D
330
1
100
AcDbSymbolTableRecord
100
AcDbBlockTableRecord
  2
IGS-A4
340
0
310
2800000020000000200000000100080000000000000400000000000000000000000000000000000000000000000080000080000000808000800000008000800080800000C0C0C000C0DCC000F0CAA6000020400000206000002080000020A0000020C0000020E00000400000004020000040400000406000004080000040A0
310
000040C0000040E00000600000006020000060400000606000006080000060A0000060C0000060E00000800000008020000080400000806000008080000080A0000080C0000080E00000A0000000A0200000A0400000A0600000A0800000A0A00000A0C00000A0E00000C0000000C0200000C0400000C0600000C0800000C0
310
A00000C0C00000C0E00000E0000000E0200000E0400000E0600000E0800000E0A00000E0C00000E0E00040000000400020004000400040006000400080004000A0004000C0004000E00040200000402020004020400040206000402080004020A0004020C0004020E000404000004040200040404000404060004040800040
310
40A0004040C0004040E00040600000406020004060400040606000406080004060A0004060C0004060E00040800000408020004080400040806000408080004080A0004080C0004080E00040A0000040A0200040A0400040A0600040A0800040A0A00040A0C00040A0E00040C0000040C0200040C0400040C0600040C08000
310
40C0A00040C0C00040C0E00040E0000040E0200040E0400040E0600040E0800040E0A00040E0C00040E0E00080000000800020008000400080006000800080008000A0008000C0008000E00080200000802020008020400080206000802080008020A0008020C0008020E00080400000804020008040400080406000804080
310
008040A0008040C0008040E00080600000806020008060400080606000806080008060A0008060C0008060E00080800000808020008080400080806000808080008080A0008080C0008080E00080A0000080A0200080A0400080A0600080A0800080A0A00080A0C00080A0E00080C0000080C0200080C0400080C0600080C0
310
800080C0A00080C0C00080C0E00080E0000080E0200080E0400080E0600080E0800080E0A00080E0C00080E0E000C0000000C0002000C0004000C0006000C0008000C000A000C000C000C000E000C0200000C0202000C0204000C0206000C0208000C020A000C020C000C020E000C0400000C0402000C0404000C0406000C0
310
408000C040A000C040C000C040E000C0600000C0602000C0604000C0606000C0608000C060A000C060C000C060E000C0800000C0802000C0804000C0806000C0808000C080A000C080C000C080E000C0A00000C0A02000C0A04000C0A06000C0A08000C0A0A000C0A0C000C0A0E000C0C00000C0C02000C0C04000C0C06000
310
C0C08000C0C0A000F0FBFF00A4A0A000808080000000FF0000FF000000FFFF00FF000000FF00FF00FFFF0000FFFFFF0000000000000000000000000000000000000000000000000000000000000000000000000000000000000000000000000000000000000000000000000000000000000000000000FFFFFFFFFFFFFFFFFF
310
FFFFFFFFFFFFFFFFFF0000000000000000000000000000FF00000000000000000000000000000000FF0000000000000000000000000000FF00000000000000000000000000000000FF0000000000000000000000000000FF00000000000000000000000000000000FF0000000000000000000000000000FF00000000000000
310
000000000000000000FF0000000000000000000000000000FF00000000000000000000000000000000FF0000000000000000000000000000FF00000000000000000000000000000000FF0000000000000000000000000000FF00000000000000000000000000000000FF0000000000000000000000000000FF000000000000
310
00000000000000000000FF0000000000000000000000000000FF00000000000000000000000000000000FF0000000000000000000000000000FF00000000000000000000000000000000FF0000000000000000000000000000FF00000000000000000000000000000000FF0000000000000000000000000000FF0000000000
310
0000000000000000000000FF0000000000000000000000000000FF00000000000000000000000000000000FF0000000000000000000000000000FF00000000000000000000000000000000FF0000000000000000000000000000FF00000000000000000000000000000000FF0000000000000000000000000000FF00000000
310
000000000000000000000000FF0000000000000000000000000000FF00000000000000000000000000000000FF0000000000000000000000000000FF00000000000000000000000000000000FF0000000000000000000000000000FF00000000000000000000000000000000FF0000000000000000000000000000FF000000
310
00000000000000000000000000FF0000000000000000000000000000FF00000000000000000000000000000000FF0000000000000000000000000000FF00000000000000000000000000000000FF0000000000000000000000000000FF00000000000000000000000000000000FF0000000000000000000000000000FF0000
310
0000000000000000000000000000FF0000000000000000000000000000FF00000000000000000000000000000000FF0000000000000000000000000000FF00000000000000000000000000000000FF0000000000000000000000000000FFFFFFFFFFFFFFFFFFFFFFFFFFFFFFFFFFFF00000000000000000000000000000000
310
0000000000000000000000000000000000000000000000000000000000000000000000000000000000000000000000000000000000000000
  0
BLOCK_RECORD
  5
279
330
1
100
AcDbSymbolTableRecord
100
AcDbBlockTableRecord
  2
CI
340
0
310
2800000020000000200000000100080000000000000400000000000000000000000000000000000000000000000080000080000000808000800000008000800080800000C0C0C000C0DCC000F0CAA6000020400000206000002080000020A0000020C0000020E00000400000004020000040400000406000004080000040A0
310
000040C0000040E00000600000006020000060400000606000006080000060A0000060C0000060E00000800000008020000080400000806000008080000080A0000080C0000080E00000A0000000A0200000A0400000A0600000A0800000A0A00000A0C00000A0E00000C0000000C0200000C0400000C0600000C0800000C0
310
A00000C0C00000C0E00000E0000000E0200000E0400000E0600000E0800000E0A00000E0C00000E0E00040000000400020004000400040006000400080004000A0004000C0004000E00040200000402020004020400040206000402080004020A0004020C0004020E000404000004040200040404000404060004040800040
310
40A0004040C0004040E00040600000406020004060400040606000406080004060A0004060C0004060E00040800000408020004080400040806000408080004080A0004080C0004080E00040A0000040A0200040A0400040A0600040A0800040A0A00040A0C00040A0E00040C0000040C0200040C0400040C0600040C08000
310
40C0A00040C0C00040C0E00040E0000040E0200040E0400040E0600040E0800040E0A00040E0C00040E0E00080000000800020008000400080006000800080008000A0008000C0008000E00080200000802020008020400080206000802080008020A0008020C0008020E00080400000804020008040400080406000804080
310
008040A0008040C0008040E00080600000806020008060400080606000806080008060A0008060C0008060E00080800000808020008080400080806000808080008080A0008080C0008080E00080A0000080A0200080A0400080A0600080A0800080A0A00080A0C00080A0E00080C0000080C0200080C0400080C0600080C0
310
800080C0A00080C0C00080C0E00080E0000080E0200080E0400080E0600080E0800080E0A00080E0C00080E0E000C0000000C0002000C0004000C0006000C0008000C000A000C000C000C000E000C0200000C0202000C0204000C0206000C0208000C020A000C020C000C020E000C0400000C0402000C0404000C0406000C0
310
408000C040A000C040C000C040E000C0600000C0602000C0604000C0606000C0608000C060A000C060C000C060E000C0800000C0802000C0804000C0806000C0808000C080A000C080C000C080E000C0A00000C0A02000C0A04000C0A06000C0A08000C0A0A000C0A0C000C0A0E000C0C00000C0C02000C0C04000C0C06000
310
C0C08000C0C0A000F0FBFF00A4A0A000808080000000FF0000FF000000FFFF00FF000000FF00FF00FFFF0000FFFFFF0000000000000000000000000000000000000000000000000000000000000000000000000000000000000000000000000000000000000000000000000000000000000000000000000000000000FFFFFF
310
00000000000000000000000000000000000000000000000000000000FF000000FFFFFFFFFFFF0000000000000000000000000000000000000000FFFF00000000000000000000FFFFFFFF000000000000000000000000000000FF00000000000000000000000000000000FF00000000000000000000000000FF000000000000
310
0000000000000000000000FF0000000000000000000000FFFF00000000000000000000000000000000000000FF000000000000000000FF000000000000000000000000000000000000000000FF0000000000000000FF0000000000000000000000000000000000000000000000FF00000000000000FF000000000000000000
310
0000000000000000000000000000FF00000000000000FF000000000000000000000000000000000000000000000000FF000000000000FF000000000000000000000000000000000000000000000000FF000000000000FF00000000000000000000000000000000000000000000000000FF0000000000FF0000000000000000
310
0000000000000000000000000000000000FF0000000000FF0000000000000000000000000000000000000000000000000000FF00000000FF0000000000000000000000000000000000000000000000000000FF00000000FF00000000000000000000000000000000000000000000000000FF0000000000FF00000000000000
310
000000000000000000000000000000000000FF0000000000FF000000000000000000000000000000000000000000000000FF000000000000FF000000000000000000000000000000000000000000000000FF000000000000FF0000000000000000000000000000000000000000000000FF00000000000000FF000000000000
310
0000000000000000000000000000000000FF0000000000000000FF000000000000000000000000000000000000000000FF00000000000000000000FFFF00000000000000000000000000000000000000FF000000000000000000000000FF0000000000000000000000000000000000FF0000000000000000000000000000FF
310
00000000000000000000000000000000FF000000000000000000000000000000FFFF0000000000000000000000FFFFFF000000000000000000000000000000000000FF00000000FFFFFFFFFFFF00000000000000000000000000000000000000000000FFFFFFFF000000000000000000000000000000000000000000000000
310
0000000000000000000000000000000000000000000000000000000000000000000000000000000000000000000000000000000000000000
  0
BLOCK_RECORD
  5
27D
330
1
100
AcDbSymbolTableRecord
100
AcDbBlockTableRecord
  2
IGS-TITLE
340
0
310
2800000020000000200000000100080000000000000400000000000000000000000000000000000000000000000080000080000000808000800000008000800080800000C0C0C000C0DCC000F0CAA6000020400000206000002080000020A0000020C0000020E00000400000004020000040400000406000004080000040A0
310
000040C0000040E00000600000006020000060400000606000006080000060A0000060C0000060E00000800000008020000080400000806000008080000080A0000080C0000080E00000A0000000A0200000A0400000A0600000A0800000A0A00000A0C00000A0E00000C0000000C0200000C0400000C0600000C0800000C0
310
A00000C0C00000C0E00000E0000000E0200000E0400000E0600000E0800000E0A00000E0C00000E0E00040000000400020004000400040006000400080004000A0004000C0004000E00040200000402020004020400040206000402080004020A0004020C0004020E000404000004040200040404000404060004040800040
310
40A0004040C0004040E00040600000406020004060400040606000406080004060A0004060C0004060E00040800000408020004080400040806000408080004080A0004080C0004080E00040A0000040A0200040A0400040A0600040A0800040A0A00040A0C00040A0E00040C0000040C0200040C0400040C0600040C08000
310
40C0A00040C0C00040C0E00040E0000040E0200040E0400040E0600040E0800040E0A00040E0C00040E0E00080000000800020008000400080006000800080008000A0008000C0008000E00080200000802020008020400080206000802080008020A0008020C0008020E00080400000804020008040400080406000804080
310
008040A0008040C0008040E00080600000806020008060400080606000806080008060A0008060C0008060E00080800000808020008080400080806000808080008080A0008080C0008080E00080A0000080A0200080A0400080A0600080A0800080A0A00080A0C00080A0E00080C0000080C0200080C0400080C0600080C0
310
800080C0A00080C0C00080C0E00080E0000080E0200080E0400080E0600080E0800080E0A00080E0C00080E0E000C0000000C0002000C0004000C0006000C0008000C000A000C000C000C000E000C0200000C0202000C0204000C0206000C0208000C020A000C020C000C020E000C0400000C0402000C0404000C0406000C0
310
408000C040A000C040C000C040E000C0600000C0602000C0604000C0606000C0608000C060A000C060C000C060E000C0800000C0802000C0804000C0806000C0808000C080A000C080C000C080E000C0A00000C0A02000C0A04000C0A06000C0A08000C0A0A000C0A0C000C0A0E000C0C00000C0C02000C0C04000C0C06000
310
C0C08000C0C0A000F0FBFF00A4A0A000808080000000FF0000FF000000FFFF00FF000000FF00FF00FFFF0000FFFFFF0000000000000000000000000000000000000000000000000000000000000000000000000000000000000000000000000000000000000000000000000000000000000000000000000000000000000000
310
00000000000000000000000000000000000000000000000000000000000000000000000000000000000000000000000000000000000000000000000000000000000000000000000000000000000000000000000000000000000000000000000000000000000000000000000000000000000000000000000000000000000000
310
00000000000000000000000000000000000000000000000000000000000000000000000000000000000000000000000000000000000000000000000000000000000000000000000000000000000000000000000000000000000000000000000000000000000000000000000000000000000000000000000000000000000000
310
0000000000000000000000000000000000000000000000000000000000000000000000000000000000000000000000000000000000000000000000000000000000000000000000000000000000000000000000000000000000000000000000000000000000000000000000000000000000000000FFFFFFFFFFFFFFFFFFFFFF
310
FFFFFFFFFFFFFFFFFFFFFFFFFFFFFFFFFFFFFF0000FFFFFFFFFFFFFFFFFFFFFFFFFFFFFFFFFFFFFFFFFFFFFFFFFFFFFFFFFFFF0000FFFFFFFFFFFFFFFFFFFFFFFFFFFFFFFFFFFF00000000FFFF000000FFFFFF0000FFFFFFFFFFFFFFFFFFFFFFFFFFFFFFFFFFFFFFFFFFFFFFFFFFFFFFFFFFFF000000000000000000000000
310
00000000000000000000000000000000000000000000000000000000000000000000000000000000000000000000000000000000000000000000000000000000000000000000000000000000000000000000000000000000000000000000000000000000000000000000000000000000000000000000000000000000000000
310
00000000000000000000000000000000000000000000000000000000000000000000000000000000000000000000000000000000000000000000000000000000000000000000000000000000000000000000000000000000000000000000000000000000000000000000000000000000000000000000000000000000000000
310
00000000000000000000000000000000000000000000000000000000000000000000000000000000000000000000000000000000000000000000000000000000000000000000000000000000000000000000000000000000000000000000000000000000000000000000000000000000000000000000000000000000000000
310
0000000000000000000000000000000000000000000000000000000000000000000000000000000000000000000000000000000000000000
  0
BLOCK_RECORD
  5
335
330
1
100
AcDbSymbolTableRecord
100
AcDbBlockTableRecord
  2
IGS2
340
0
310
2800000020000000200000000100080000000000000400000000000000000000000000000000000000000000000080000080000000808000800000008000800080800000C0C0C000C0DCC000F0CAA6000020400000206000002080000020A0000020C0000020E00000400000004020000040400000406000004080000040A0
310
000040C0000040E00000600000006020000060400000606000006080000060A0000060C0000060E00000800000008020000080400000806000008080000080A0000080C0000080E00000A0000000A0200000A0400000A0600000A0800000A0A00000A0C00000A0E00000C0000000C0200000C0400000C0600000C0800000C0
310
A00000C0C00000C0E00000E0000000E0200000E0400000E0600000E0800000E0A00000E0C00000E0E00040000000400020004000400040006000400080004000A0004000C0004000E00040200000402020004020400040206000402080004020A0004020C0004020E000404000004040200040404000404060004040800040
310
40A0004040C0004040E00040600000406020004060400040606000406080004060A0004060C0004060E00040800000408020004080400040806000408080004080A0004080C0004080E00040A0000040A0200040A0400040A0600040A0800040A0A00040A0C00040A0E00040C0000040C0200040C0400040C0600040C08000
310
40C0A00040C0C00040C0E00040E0000040E0200040E0400040E0600040E0800040E0A00040E0C00040E0E00080000000800020008000400080006000800080008000A0008000C0008000E00080200000802020008020400080206000802080008020A0008020C0008020E00080400000804020008040400080406000804080
310
008040A0008040C0008040E00080600000806020008060400080606000806080008060A0008060C0008060E00080800000808020008080400080806000808080008080A0008080C0008080E00080A0000080A0200080A0400080A0600080A0800080A0A00080A0C00080A0E00080C0000080C0200080C0400080C0600080C0
310
800080C0A00080C0C00080C0E00080E0000080E0200080E0400080E0600080E0800080E0A00080E0C00080E0E000C0000000C0002000C0004000C0006000C0008000C000A000C000C000C000E000C0200000C0202000C0204000C0206000C0208000C020A000C020C000C020E000C0400000C0402000C0404000C0406000C0
310
408000C040A000C040C000C040E000C0600000C0602000C0604000C0606000C0608000C060A000C060C000C060E000C0800000C0802000C0804000C0806000C0808000C080A000C080C000C080E000C0A00000C0A02000C0A04000C0A06000C0A08000C0A0A000C0A0C000C0A0E000C0C00000C0C02000C0C04000C0C06000
310
C0C08000C0C0A000F0FBFF00A4A0A000808080000000FF0000FF000000FFFF00FF000000FF00FF00FFFF0000FFFFFF0000000000000000000000000000000000000000000000000000000000000000000000000000000000000000000000000000000000000000000000000000000000000000000000000000000000000000
310
00000000000000000000000000000000000000000000000000000000000000000000000000000000000000000000000000000000000000000000000000000000000000000000000000000000000000000000F9FBFBF9F9F9FBFBF9F9F9F90000000000000000000000000000000000000000F9F9FBFBFBFBFBFBFBF9F9F900
310
00000000000000000000000000000000000000F9FBFBFBFBFBFBFBFBF9F9F90000000000000000000000000000000000000000F9F9F9F9F9F9F9F9F9F9F9F900000000000000000000000000000000000000000000000000000000000000000000000000000000000000000000000000000000000000000000000000000000
310
00000000000000000000000000000000000000000000000000000000000000000000000000000000000000000000000000000000000000000000000000000000000000000000000000000000000000000000000000000000000000000000000000000000000000000000000000000000000000000000000000000000000000
310
00000000000000000000000000000000000000000000000000000000000000000000000000000000000000000000000000000000000000000000000000000000000000000000000000000000000000000000000000000000000000000000000000000000000000000000000000000000000000000000000000000000000000
310
00000000000000000000000000000000000000000000000000000000000000000000000000000000000000000000000000000000000000000000000000000000000000000000000000000000000000000000000000000000000000000000000000000000000000000000000000000000000000000000000000000000000000
310
00000000000000000000000000000000000000000000000000000000000000000000000000000000000000000000000000000000000000000000000000000000000000000000000000000000000000000000000000000000000000000000000000000000000000000000000000000000000000000000000000000000000000
310
00000000000000000000000000000000000000000000000000000000000000000000000000000000000000000000000000000000000000000000000000000000000000000000000000000000000000000000000000000000000000000000000000000000000000000000000000000000000000000000000000000000000000
310
0000000000000000000000000000000000000000000000000000000000000000000000000000000000000000000000000000000000000000
102
{BLKREFS
331
D05
102
}
  0
BLOCK_RECORD
  5
3FC
330
1
100
AcDbSymbolTableRecord
100
AcDbBlockTableRecord
  2
IGS_A1
340
0
310
2800000020000000200000000100080000000000000400000000000000000000000000000000000000000000000080000080000000808000800000008000800080800000C0C0C000C0DCC000F0CAA6000020400000206000002080000020A0000020C0000020E00000400000004020000040400000406000004080000040A0
310
000040C0000040E00000600000006020000060400000606000006080000060A0000060C0000060E00000800000008020000080400000806000008080000080A0000080C0000080E00000A0000000A0200000A0400000A0600000A0800000A0A00000A0C00000A0E00000C0000000C0200000C0400000C0600000C0800000C0
310
A00000C0C00000C0E00000E0000000E0200000E0400000E0600000E0800000E0A00000E0C00000E0E00040000000400020004000400040006000400080004000A0004000C0004000E00040200000402020004020400040206000402080004020A0004020C0004020E000404000004040200040404000404060004040800040
310
40A0004040C0004040E00040600000406020004060400040606000406080004060A0004060C0004060E00040800000408020004080400040806000408080004080A0004080C0004080E00040A0000040A0200040A0400040A0600040A0800040A0A00040A0C00040A0E00040C0000040C0200040C0400040C0600040C08000
310
40C0A00040C0C00040C0E00040E0000040E0200040E0400040E0600040E0800040E0A00040E0C00040E0E00080000000800020008000400080006000800080008000A0008000C0008000E00080200000802020008020400080206000802080008020A0008020C0008020E00080400000804020008040400080406000804080
310
008040A0008040C0008040E00080600000806020008060400080606000806080008060A0008060C0008060E00080800000808020008080400080806000808080008080A0008080C0008080E00080A0000080A0200080A0400080A0600080A0800080A0A00080A0C00080A0E00080C0000080C0200080C0400080C0600080C0
310
800080C0A00080C0C00080C0E00080E0000080E0200080E0400080E0600080E0800080E0A00080E0C00080E0E000C0000000C0002000C0004000C0006000C0008000C000A000C000C000C000E000C0200000C0202000C0204000C0206000C0208000C020A000C020C000C020E000C0400000C0402000C0404000C0406000C0
310
408000C040A000C040C000C040E000C0600000C0602000C0604000C0606000C0608000C060A000C060C000C060E000C0800000C0802000C0804000C0806000C0808000C080A000C080C000C080E000C0A00000C0A02000C0A04000C0A06000C0A08000C0A0A000C0A0C000C0A0E000C0C00000C0C02000C0C04000C0C06000
310
C0C08000C0C0A000F0FBFF00A4A0A000808080000000FF0000FF000000FFFF00FF000000FF00FF00FFFF0000FFFFFF0000000000000000000000000000000000000000000000000000000000000000000000000000000000000000000000000000000000000000000000000000000000000000000000000000000000000000
310
00000000000000000000000000000000000000000000000000000000000000000000000000000000000000000000000000000000000000000000000000000000000000000000000000000000000000000000000000000000000000000000000000000000000000000000000000000000000000000000000000000000000000
310
00000000000000000000000000000000000000F9F9F9F9F9F9F9F9F9F9F9F9F9F9F9F9F9F9F9F9F9F9F9F9F9F9000000000000F9FF0000000000000000000000000000000000000000000000F9000000000000F9FF0000000000000000000000000000000000000000000000F9000000000000F9FF00000000000000000000
310
00000000000000000000000000F9000000000000F9FF0000000000000000000000000000000000000000000000F9000000000000F9FF0000000000000000000000000000000000000000000000F9000000000000F9FF0000000000000000000000000000000000000000000000F9000000000000F9FF000000000000000000
310
0000000000000000000000000000F9000000000000F9FF0000000000000000000000000000000000000000000000F9000000000000F9FF0000000000000000000000000000000000000000000000F9000000000000F9FF0000000000000000000000000000000000000000000000F9000000000000F9FF0000000000000000
310
000000000000000000000000000000F9000000000000F9FF0000000000000000000000000000000000000000000000F9000000000000F9FF0000000000000000000000000000000000000000000000F9000000000000F9FF0000000000000000000000000000000000000000000000F9000000000000F9FF00000000000000
310
00000000000000000000000000000000F9000000000000F9FF0000000000000000000000000000000000000000000000F9000000000000F9F9F9F9F9F9F9F9F9F9F9F9F9F9F9F9F9F9F9F9F9F9F9F9F9F900000000000000000000000000000000000000000000000000000000000000000000000000000000000000000000
310
00000000000000000000000000000000000000000000000000000000000000000000000000000000000000000000000000000000000000000000000000000000000000000000000000000000000000000000000000000000000000000000000000000000000000000000000000000000000000000000000000000000000000
310
0000000000000000000000000000000000000000000000000000000000000000000000000000000000000000000000000000000000000000
  0
BLOCK_RECORD
  5
50A
330
1
100
AcDbSymbolTableRecord
100
AcDbBlockTableRecord
  2
jis_bl_revisionlist1
340
0
310
2800000020000000200000000100080000000000000400000000000000000000000000000000000000000000000080000080000000808000800000008000800080800000C0C0C000C0DCC000F0CAA6000020400000206000002080000020A0000020C0000020E00000400000004020000040400000406000004080000040A0
310
000040C0000040E00000600000006020000060400000606000006080000060A0000060C0000060E00000800000008020000080400000806000008080000080A0000080C0000080E00000A0000000A0200000A0400000A0600000A0800000A0A00000A0C00000A0E00000C0000000C0200000C0400000C0600000C0800000C0
310
A00000C0C00000C0E00000E0000000E0200000E0400000E0600000E0800000E0A00000E0C00000E0E00040000000400020004000400040006000400080004000A0004000C0004000E00040200000402020004020400040206000402080004020A0004020C0004020E000404000004040200040404000404060004040800040
310
40A0004040C0004040E00040600000406020004060400040606000406080004060A0004060C0004060E00040800000408020004080400040806000408080004080A0004080C0004080E00040A0000040A0200040A0400040A0600040A0800040A0A00040A0C00040A0E00040C0000040C0200040C0400040C0600040C08000
310
40C0A00040C0C00040C0E00040E0000040E0200040E0400040E0600040E0800040E0A00040E0C00040E0E00080000000800020008000400080006000800080008000A0008000C0008000E00080200000802020008020400080206000802080008020A0008020C0008020E00080400000804020008040400080406000804080
310
008040A0008040C0008040E00080600000806020008060400080606000806080008060A0008060C0008060E00080800000808020008080400080806000808080008080A0008080C0008080E00080A0000080A0200080A0400080A0600080A0800080A0A00080A0C00080A0E00080C0000080C0200080C0400080C0600080C0
310
800080C0A00080C0C00080C0E00080E0000080E0200080E0400080E0600080E0800080E0A00080E0C00080E0E000C0000000C0002000C0004000C0006000C0008000C000A000C000C000C000E000C0200000C0202000C0204000C0206000C0208000C020A000C020C000C020E000C0400000C0402000C0404000C0406000C0
310
408000C040A000C040C000C040E000C0600000C0602000C0604000C0606000C0608000C060A000C060C000C060E000C0800000C0802000C0804000C0806000C0808000C080A000C080C000C080E000C0A00000C0A02000C0A04000C0A06000C0A08000C0A0A000C0A0C000C0A0E000C0C00000C0C02000C0C04000C0C06000
310
C0C08000C0C0A000F0FBFF00A4A0A000808080000000FF0000FF000000FFFF00FF000000FF00FF00FFFF0000FFFFFF0000000000000000000000000000000000000000000000000000000000000000000000000000000000000000000000000000000000000000000000000000000000000000000000000000000000000000
310
00000000000000000000000000000000000000000000000000000000000000000000000000000000000000000000000000000000000000000000000000000000000000000000000000000000000000000000000000000000000000000000000000000000000000000000000000000000000000000000000000000000000000
310
00000000000000000000000000000000000000000000000000000000000000000000000000000000000000000000000000000000000000000000000000000000000000000000000000000000000000000000000000000000000000000000000000000000000000000000000000000000000000000000000000000000000000
310
00000000000000000000000000000000000000000000000000000000000000000000000000000000000000000000000000000000000000000000000000000000000000000000000000000000000000000000000000000000000000000000000000000000000000000000000000000000000000000000000000000000000000
310
000000000000000000000000000000000000000000FFFFFFFFFFFFFFFFFFFFFFFFFFFFFFFFFFFFFFFFFFFFFFFFFFFFFFFF00000000FFFFFFFFFFFFFFFFFFFFFFFFFFFFFFFFFFFFFFFFFFFFFFFFFFFFFFFFFFFF0000000000000000000000000000000000000000000000000000000000000000000000000000000000000000
310
00000000000000000000000000000000000000000000000000000000000000000000000000000000000000000000000000000000000000000000000000000000000000000000000000000000000000000000000000000000000000000000000000000000000000000000000000000000000000000000000000000000000000
310
00000000000000000000000000000000000000000000000000000000000000000000000000000000000000000000000000000000000000000000000000000000000000000000000000000000000000000000000000000000000000000000000000000000000000000000000000000000000000000000000000000000000000
310
00000000000000000000000000000000000000000000000000000000000000000000000000000000000000000000000000000000000000000000000000000000000000000000000000000000000000000000000000000000000000000000000000000000000000000000000000000000000000000000000000000000000000
310
0000000000000000000000000000000000000000000000000000000000000000000000000000000000000000000000000000000000000000
102
{BLKREFS
331
52F
102
}
1001
ACAD
1000
DesignCenter Data
1002
{
1070
     1
1070
     1
1002
}
  0
BLOCK_RECORD
  5
520
330
1
100
AcDbSymbolTableRecord
100
AcDbBlockTableRecord
  2
jis_bl_revisionlist0
340
0
310
2800000020000000200000000100080000000000000400000000000000000000000000000000000000000000000080000080000000808000800000008000800080800000C0C0C000C0DCC000F0CAA6000020400000206000002080000020A0000020C0000020E00000400000004020000040400000406000004080000040A0
310
000040C0000040E00000600000006020000060400000606000006080000060A0000060C0000060E00000800000008020000080400000806000008080000080A0000080C0000080E00000A0000000A0200000A0400000A0600000A0800000A0A00000A0C00000A0E00000C0000000C0200000C0400000C0600000C0800000C0
310
A00000C0C00000C0E00000E0000000E0200000E0400000E0600000E0800000E0A00000E0C00000E0E00040000000400020004000400040006000400080004000A0004000C0004000E00040200000402020004020400040206000402080004020A0004020C0004020E000404000004040200040404000404060004040800040
310
40A0004040C0004040E00040600000406020004060400040606000406080004060A0004060C0004060E00040800000408020004080400040806000408080004080A0004080C0004080E00040A0000040A0200040A0400040A0600040A0800040A0A00040A0C00040A0E00040C0000040C0200040C0400040C0600040C08000
310
40C0A00040C0C00040C0E00040E0000040E0200040E0400040E0600040E0800040E0A00040E0C00040E0E00080000000800020008000400080006000800080008000A0008000C0008000E00080200000802020008020400080206000802080008020A0008020C0008020E00080400000804020008040400080406000804080
310
008040A0008040C0008040E00080600000806020008060400080606000806080008060A0008060C0008060E00080800000808020008080400080806000808080008080A0008080C0008080E00080A0000080A0200080A0400080A0600080A0800080A0A00080A0C00080A0E00080C0000080C0200080C0400080C0600080C0
310
800080C0A00080C0C00080C0E00080E0000080E0200080E0400080E0600080E0800080E0A00080E0C00080E0E000C0000000C0002000C0004000C0006000C0008000C000A000C000C000C000E000C0200000C0202000C0204000C0206000C0208000C020A000C020C000C020E000C0400000C0402000C0404000C0406000C0
310
408000C040A000C040C000C040E000C0600000C0602000C0604000C0606000C0608000C060A000C060C000C060E000C0800000C0802000C0804000C0806000C0808000C080A000C080C000C080E000C0A00000C0A02000C0A04000C0A06000C0A08000C0A0A000C0A0C000C0A0E000C0C00000C0C02000C0C04000C0C06000
310
C0C08000C0C0A000F0FBFF00A4A0A000808080000000FF0000FF000000FFFF00FF000000FF00FF00FFFF0000FFFFFF0000000000000000000000000000000000000000000000000000000000000000000000000000000000000000000000000000000000000000000000000000000000000000000000000000000000000000
310
00000000000000000000000000000000000000000000000000000000000000000000000000000000000000000000000000000000000000000000000000000000000000000000000000000000000000000000000000000000000000000000000000000000000000000000000000000000000000000000000000000000000000
310
00000000000000000000000000000000000000000000000000000000000000000000000000000000000000000000000000000000000000000000000000000000000000000000000000000000000000000000000000000000000000000000000000000000000000000000000000000000000000000000000000000000000000
310
00000000000000000000000000000000000000000000000000000000000000000000000000000000000000000000000000000000000000000000000000000000000000000000000000000000000000000000000000000000000000000000000000000000000000000000000000000000000000000000000000000000000000
310
000000000000000000000000000000000000000000FFFFFFFFFFFFFFFFFFFFFFFFFFFFFFFFFFFFFFFFFFFFFFFFFFFFFFFFFFFF0000FFFFFFFFFFFFFFFFFFFFFFFFFFFFFFFFFFFFFFFFFFFFFFFFFFFFFFFFFFFF0000000000000000000000000000000000000000000000000000000000000000000000000000000000000000
310
00000000000000000000000000000000000000000000000000000000000000000000000000000000000000000000000000000000000000000000000000000000000000000000000000000000000000000000000000000000000000000000000000000000000000000000000000000000000000000000000000000000000000
310
00000000000000000000000000000000000000000000000000000000000000000000000000000000000000000000000000000000000000000000000000000000000000000000000000000000000000000000000000000000000000000000000000000000000000000000000000000000000000000000000000000000000000
310
00000000000000000000000000000000000000000000000000000000000000000000000000000000000000000000000000000000000000000000000000000000000000000000000000000000000000000000000000000000000000000000000000000000000000000000000000000000000000000000000000000000000000
310
0000000000000000000000000000000000000000000000000000000000000000000000000000000000000000000000000000000000000000
102
{BLKREFS
331
537
102
}
1001
ACAD
1000
DesignCenter Data
1002
{
1070
     1
1070
     1
1002
}
  0
BLOCK_RECORD
  5
52E
330
1
100
AcDbSymbolTableRecord
100
AcDbBlockTableRecord
  2
jis_bl_revisionlist
340
0
310
2800000020000000200000000100080000000000000400000000000000000000000000000000000000000000000080000080000000808000800000008000800080800000C0C0C000C0DCC000F0CAA6000020400000206000002080000020A0000020C0000020E00000400000004020000040400000406000004080000040A0
310
000040C0000040E00000600000006020000060400000606000006080000060A0000060C0000060E00000800000008020000080400000806000008080000080A0000080C0000080E00000A0000000A0200000A0400000A0600000A0800000A0A00000A0C00000A0E00000C0000000C0200000C0400000C0600000C0800000C0
310
A00000C0C00000C0E00000E0000000E0200000E0400000E0600000E0800000E0A00000E0C00000E0E00040000000400020004000400040006000400080004000A0004000C0004000E00040200000402020004020400040206000402080004020A0004020C0004020E000404000004040200040404000404060004040800040
310
40A0004040C0004040E00040600000406020004060400040606000406080004060A0004060C0004060E00040800000408020004080400040806000408080004080A0004080C0004080E00040A0000040A0200040A0400040A0600040A0800040A0A00040A0C00040A0E00040C0000040C0200040C0400040C0600040C08000
310
40C0A00040C0C00040C0E00040E0000040E0200040E0400040E0600040E0800040E0A00040E0C00040E0E00080000000800020008000400080006000800080008000A0008000C0008000E00080200000802020008020400080206000802080008020A0008020C0008020E00080400000804020008040400080406000804080
310
008040A0008040C0008040E00080600000806020008060400080606000806080008060A0008060C0008060E00080800000808020008080400080806000808080008080A0008080C0008080E00080A0000080A0200080A0400080A0600080A0800080A0A00080A0C00080A0E00080C0000080C0200080C0400080C0600080C0
310
800080C0A00080C0C00080C0E00080E0000080E0200080E0400080E0600080E0800080E0A00080E0C00080E0E000C0000000C0002000C0004000C0006000C0008000C000A000C000C000C000E000C0200000C0202000C0204000C0206000C0208000C020A000C020C000C020E000C0400000C0402000C0404000C0406000C0
310
408000C040A000C040C000C040E000C0600000C0602000C0604000C0606000C0608000C060A000C060C000C060E000C0800000C0802000C0804000C0806000C0808000C080A000C080C000C080E000C0A00000C0A02000C0A04000C0A06000C0A08000C0A0A000C0A0C000C0A0E000C0C00000C0C02000C0C04000C0C06000
310
C0C08000C0C0A000F0FBFF00A4A0A000808080000000FF0000FF000000FFFF00FF000000FF00FF00FFFF0000FFFFFF0000000000000000000000000000000000000000000000000000000000000000000000000000000000000000000000000000000000000000000000000000000000000000000000000000000000000000
310
00000000000000000000000000000000000000000000000000000000000000000000000000000000000000000000000000000000000000000000000000000000000000000000000000000000000000000000000000000000000000000000000000000000000000000000000000000000000000000000000000000000000000
310
00000000000000000000000000000000000000000000000000000000000000000000000000000000000000000000000000000000000000000000000000000000000000000000000000000000000000000000000000000000000000000000000000000000000000000000000000000000000000000000000000000000000000
310
00000000000000000000000000000000000000000000000000000000000000000000000000000000000000000000000000000000000000000000000000000000000000000000000000000000000000000000000000000000000000000000000000000000000000000000000000000000000000000000000000000000000000
310
000000000000000000000000000000000000000000FFF9F9F9FFF9F9FFFFFFFFFFFFFFFFFFFFFFFFFFFFFFFFFFFFF9F9FFFFFF0000FFFFF9FFFFF9FFFFFFFFFFFFFFFFFFFFFFFFFFFFFFFFFFFFFFF9FFFFFFFF0000000000000000000000000000000000000000000000000000000000000000000000000000000000000000
310
00000000000000000000000000000000000000000000000000000000000000000000000000000000000000000000000000000000000000000000000000000000000000000000000000000000000000000000000000000000000000000000000000000000000000000000000000000000000000000000000000000000000000
310
00000000000000000000000000000000000000000000000000000000000000000000000000000000000000000000000000000000000000000000000000000000000000000000000000000000000000000000000000000000000000000000000000000000000000000000000000000000000000000000000000000000000000
310
00000000000000000000000000000000000000000000000000000000000000000000000000000000000000000000000000000000000000000000000000000000000000000000000000000000000000000000000000000000000000000000000000000000000000000000000000000000000000000000000000000000000000
310
0000000000000000000000000000000000000000000000000000000000000000000000000000000000000000000000000000000000000000
  0
BLOCK_RECORD
  5
5D6
330
1
100
AcDbSymbolTableRecord
100
AcDbBlockTableRecord
  2
jis_br_revisionlist0
340
0
310
2800000020000000200000000100080000000000000400000000000000000000000000000000000000000000000080000080000000808000800000008000800080800000C0C0C000C0DCC000F0CAA6000020400000206000002080000020A0000020C0000020E00000400000004020000040400000406000004080000040A0
310
000040C0000040E00000600000006020000060400000606000006080000060A0000060C0000060E00000800000008020000080400000806000008080000080A0000080C0000080E00000A0000000A0200000A0400000A0600000A0800000A0A00000A0C00000A0E00000C0000000C0200000C0400000C0600000C0800000C0
310
A00000C0C00000C0E00000E0000000E0200000E0400000E0600000E0800000E0A00000E0C00000E0E00040000000400020004000400040006000400080004000A0004000C0004000E00040200000402020004020400040206000402080004020A0004020C0004020E000404000004040200040404000404060004040800040
310
40A0004040C0004040E00040600000406020004060400040606000406080004060A0004060C0004060E00040800000408020004080400040806000408080004080A0004080C0004080E00040A0000040A0200040A0400040A0600040A0800040A0A00040A0C00040A0E00040C0000040C0200040C0400040C0600040C08000
310
40C0A00040C0C00040C0E00040E0000040E0200040E0400040E0600040E0800040E0A00040E0C00040E0E00080000000800020008000400080006000800080008000A0008000C0008000E00080200000802020008020400080206000802080008020A0008020C0008020E00080400000804020008040400080406000804080
310
008040A0008040C0008040E00080600000806020008060400080606000806080008060A0008060C0008060E00080800000808020008080400080806000808080008080A0008080C0008080E00080A0000080A0200080A0400080A0600080A0800080A0A00080A0C00080A0E00080C0000080C0200080C0400080C0600080C0
310
800080C0A00080C0C00080C0E00080E0000080E0200080E0400080E0600080E0800080E0A00080E0C00080E0E000C0000000C0002000C0004000C0006000C0008000C000A000C000C000C000E000C0200000C0202000C0204000C0206000C0208000C020A000C020C000C020E000C0400000C0402000C0404000C0406000C0
310
408000C040A000C040C000C040E000C0600000C0602000C0604000C0606000C0608000C060A000C060C000C060E000C0800000C0802000C0804000C0806000C0808000C080A000C080C000C080E000C0A00000C0A02000C0A04000C0A06000C0A08000C0A0A000C0A0C000C0A0E000C0C00000C0C02000C0C04000C0C06000
310
C0C08000C0C0A000F0FBFF00A4A0A000808080000000FF0000FF000000FFFF00FF000000FF00FF00FFFF0000FFFFFF0000000000000000000000000000000000000000000000000000000000000000000000000000000000000000000000000000000000000000000000000000000000000000000000000000000000000000
310
00000000000000000000000000000000000000000000000000000000000000000000000000000000000000000000000000000000000000000000000000000000000000000000000000000000000000000000000000000000000000000000000000000000000000000000000000000000000000000000000000000000000000
310
00000000000000000000000000000000000000000000000000000000000000000000000000000000000000000000000000000000000000000000000000000000000000000000000000000000000000000000000000000000000000000000000000000000000000000000000000000000000000000000000000000000000000
310
00000000000000000000000000000000000000000000000000000000000000000000000000000000000000000000000000000000000000000000000000000000000000000000000000000000000000000000000000000000000000000000000000000000000000000000000000000000000000000000000000000000000000
310
000000000000000000000000000000000000000000FFFFFFFFFFFFFFFFFFFFFFFFFFFFFFFFFFFFFFFFFFFFFFFFFFFFFFFFFFFF0000FFFFFFFFFFFFFFFFFFFFFFFFFFFFFFFFFFFFFFFFFFFFFFFFFFFFFFFFFFFF0000000000000000000000000000000000000000000000000000000000000000000000000000000000000000
310
00000000000000000000000000000000000000000000000000000000000000000000000000000000000000000000000000000000000000000000000000000000000000000000000000000000000000000000000000000000000000000000000000000000000000000000000000000000000000000000000000000000000000
310
00000000000000000000000000000000000000000000000000000000000000000000000000000000000000000000000000000000000000000000000000000000000000000000000000000000000000000000000000000000000000000000000000000000000000000000000000000000000000000000000000000000000000
310
00000000000000000000000000000000000000000000000000000000000000000000000000000000000000000000000000000000000000000000000000000000000000000000000000000000000000000000000000000000000000000000000000000000000000000000000000000000000000000000000000000000000000
310
0000000000000000000000000000000000000000000000000000000000000000000000000000000000000000000000000000000000000000
102
{BLKREFS
331
603
102
}
1001
ACAD
1000
DesignCenter Data
1002
{
1070
     1
1070
     1
1002
}
  0
BLOCK_RECORD
  5
5E4
330
1
100
AcDbSymbolTableRecord
100
AcDbBlockTableRecord
  2
jis_br_revisionlist1
340
0
310
2800000020000000200000000100080000000000000400000000000000000000000000000000000000000000000080000080000000808000800000008000800080800000C0C0C000C0DCC000F0CAA6000020400000206000002080000020A0000020C0000020E00000400000004020000040400000406000004080000040A0
310
000040C0000040E00000600000006020000060400000606000006080000060A0000060C0000060E00000800000008020000080400000806000008080000080A0000080C0000080E00000A0000000A0200000A0400000A0600000A0800000A0A00000A0C00000A0E00000C0000000C0200000C0400000C0600000C0800000C0
310
A00000C0C00000C0E00000E0000000E0200000E0400000E0600000E0800000E0A00000E0C00000E0E00040000000400020004000400040006000400080004000A0004000C0004000E00040200000402020004020400040206000402080004020A0004020C0004020E000404000004040200040404000404060004040800040
310
40A0004040C0004040E00040600000406020004060400040606000406080004060A0004060C0004060E00040800000408020004080400040806000408080004080A0004080C0004080E00040A0000040A0200040A0400040A0600040A0800040A0A00040A0C00040A0E00040C0000040C0200040C0400040C0600040C08000
310
40C0A00040C0C00040C0E00040E0000040E0200040E0400040E0600040E0800040E0A00040E0C00040E0E00080000000800020008000400080006000800080008000A0008000C0008000E00080200000802020008020400080206000802080008020A0008020C0008020E00080400000804020008040400080406000804080
310
008040A0008040C0008040E00080600000806020008060400080606000806080008060A0008060C0008060E00080800000808020008080400080806000808080008080A0008080C0008080E00080A0000080A0200080A0400080A0600080A0800080A0A00080A0C00080A0E00080C0000080C0200080C0400080C0600080C0
310
800080C0A00080C0C00080C0E00080E0000080E0200080E0400080E0600080E0800080E0A00080E0C00080E0E000C0000000C0002000C0004000C0006000C0008000C000A000C000C000C000E000C0200000C0202000C0204000C0206000C0208000C020A000C020C000C020E000C0400000C0402000C0404000C0406000C0
310
408000C040A000C040C000C040E000C0600000C0602000C0604000C0606000C0608000C060A000C060C000C060E000C0800000C0802000C0804000C0806000C0808000C080A000C080C000C080E000C0A00000C0A02000C0A04000C0A06000C0A08000C0A0A000C0A0C000C0A0E000C0C00000C0C02000C0C04000C0C06000
310
C0C08000C0C0A000F0FBFF00A4A0A000808080000000FF0000FF000000FFFF00FF000000FF00FF00FFFF0000FFFFFF0000000000000000000000000000000000000000000000000000000000000000000000000000000000000000000000000000000000000000000000000000000000000000000000000000000000000000
310
00000000000000000000000000000000000000000000000000000000000000000000000000000000000000000000000000000000000000000000000000000000000000000000000000000000000000000000000000000000000000000000000000000000000000000000000000000000000000000000000000000000000000
310
00000000000000000000000000000000000000000000000000000000000000000000000000000000000000000000000000000000000000000000000000000000000000000000000000000000000000000000000000000000000000000000000000000000000000000000000000000000000000000000000000000000000000
310
00000000000000000000000000000000000000000000000000000000000000000000000000000000000000000000000000000000000000000000000000000000000000000000000000000000000000000000000000000000000000000000000000000000000000000000000000000000000000000000000000000000000000
310
000000000000000000000000000000000000000000FFFFFFFFFFFFFFFFFFFFFFFFFFFFFFFFFFFFFFFFFFFFFFFFFFFFFFFF00000000FFFFFFFFFFFFFFFFFFFFFFFFFFFFFFFFFFFFFFFFFFFFFFFFFFFFFFFFFFFF0000000000000000000000000000000000000000000000000000000000000000000000000000000000000000
310
00000000000000000000000000000000000000000000000000000000000000000000000000000000000000000000000000000000000000000000000000000000000000000000000000000000000000000000000000000000000000000000000000000000000000000000000000000000000000000000000000000000000000
310
00000000000000000000000000000000000000000000000000000000000000000000000000000000000000000000000000000000000000000000000000000000000000000000000000000000000000000000000000000000000000000000000000000000000000000000000000000000000000000000000000000000000000
310
00000000000000000000000000000000000000000000000000000000000000000000000000000000000000000000000000000000000000000000000000000000000000000000000000000000000000000000000000000000000000000000000000000000000000000000000000000000000000000000000000000000000000
310
0000000000000000000000000000000000000000000000000000000000000000000000000000000000000000000000000000000000000000
102
{BLKREFS
331
5FB
102
}
1001
ACAD
1000
DesignCenter Data
1002
{
1070
     1
1070
     1
1002
}
  0
BLOCK_RECORD
  5
5FA
330
1
100
AcDbSymbolTableRecord
100
AcDbBlockTableRecord
  2
jis_br_revisionlist
340
0
310
2800000020000000200000000100080000000000000400000000000000000000000000000000000000000000000080000080000000808000800000008000800080800000C0C0C000C0DCC000F0CAA6000020400000206000002080000020A0000020C0000020E00000400000004020000040400000406000004080000040A0
310
000040C0000040E00000600000006020000060400000606000006080000060A0000060C0000060E00000800000008020000080400000806000008080000080A0000080C0000080E00000A0000000A0200000A0400000A0600000A0800000A0A00000A0C00000A0E00000C0000000C0200000C0400000C0600000C0800000C0
310
A00000C0C00000C0E00000E0000000E0200000E0400000E0600000E0800000E0A00000E0C00000E0E00040000000400020004000400040006000400080004000A0004000C0004000E00040200000402020004020400040206000402080004020A0004020C0004020E000404000004040200040404000404060004040800040
310
40A0004040C0004040E00040600000406020004060400040606000406080004060A0004060C0004060E00040800000408020004080400040806000408080004080A0004080C0004080E00040A0000040A0200040A0400040A0600040A0800040A0A00040A0C00040A0E00040C0000040C0200040C0400040C0600040C08000
310
40C0A00040C0C00040C0E00040E0000040E0200040E0400040E0600040E0800040E0A00040E0C00040E0E00080000000800020008000400080006000800080008000A0008000C0008000E00080200000802020008020400080206000802080008020A0008020C0008020E00080400000804020008040400080406000804080
310
008040A0008040C0008040E00080600000806020008060400080606000806080008060A0008060C0008060E00080800000808020008080400080806000808080008080A0008080C0008080E00080A0000080A0200080A0400080A0600080A0800080A0A00080A0C00080A0E00080C0000080C0200080C0400080C0600080C0
310
800080C0A00080C0C00080C0E00080E0000080E0200080E0400080E0600080E0800080E0A00080E0C00080E0E000C0000000C0002000C0004000C0006000C0008000C000A000C000C000C000E000C0200000C0202000C0204000C0206000C0208000C020A000C020C000C020E000C0400000C0402000C0404000C0406000C0
310
408000C040A000C040C000C040E000C0600000C0602000C0604000C0606000C0608000C060A000C060C000C060E000C0800000C0802000C0804000C0806000C0808000C080A000C080C000C080E000C0A00000C0A02000C0A04000C0A06000C0A08000C0A0A000C0A0C000C0A0E000C0C00000C0C02000C0C04000C0C06000
310
C0C08000C0C0A000F0FBFF00A4A0A000808080000000FF0000FF000000FFFF00FF000000FF00FF00FFFF0000FFFFFF0000000000000000000000000000000000000000000000000000000000000000000000000000000000000000000000000000000000000000000000000000000000000000000000000000000000000000
310
00000000000000000000000000000000000000000000000000000000000000000000000000000000000000000000000000000000000000000000000000000000000000000000000000000000000000000000000000000000000000000000000000000000000000000000000000000000000000000000000000000000000000
310
00000000000000000000000000000000000000000000000000000000000000000000000000000000000000000000000000000000000000000000000000000000000000000000000000000000000000000000000000000000000000000000000000000000000000000000000000000000000000000000000000000000000000
310
0000000000000000000000000000000000000000000000000000000000000000000000000000000000000000000000000000000000000000000000000000000000000000000000000000000000000000000000000000000000000000000000000000000000000000000000000000000000000000FFFFF9FFFFF9FFFFFFFFFF
310
FFFFFFFFFFFFFFFFFFFFFFFFFFFFF9FFFFFFFF0000FFF9F9F9FFF9FFFFFFFFFFFFFFFFFFFFFFFFFFFFFFFFFFFFFFF9FFFFFFFF0000FF00FF0000F9F9F9F9F9F9F9F9F9F9F9F9F9F9F9F9F9F9F9F9F9000000FF0000FFFFFFFFFFFFFFFFFFFFFFFFFFFFFFFFFFFFFFFFFFFFFFFFFFFFFFFFFFFF000000000000000000000000
310
00000000000000000000000000000000000000000000000000000000000000000000000000000000000000000000000000000000000000000000000000000000000000000000000000000000000000000000000000000000000000000000000000000000000000000000000000000000000000000000000000000000000000
310
00000000000000000000000000000000000000000000000000000000000000000000000000000000000000000000000000000000000000000000000000000000000000000000000000000000000000000000000000000000000000000000000000000000000000000000000000000000000000000000000000000000000000
310
00000000000000000000000000000000000000000000000000000000000000000000000000000000000000000000000000000000000000000000000000000000000000000000000000000000000000000000000000000000000000000000000000000000000000000000000000000000000000000000000000000000000000
310
0000000000000000000000000000000000000000000000000000000000000000000000000000000000000000000000000000000000000000
  0
BLOCK_RECORD
  5
6A8
330
1
100
AcDbSymbolTableRecord
100
AcDbBlockTableRecord
  2
IGS_A3
340
0
310
2800000020000000200000000100080000000000000400000000000000000000000000000000000000000000000080000080000000808000800000008000800080800000C0C0C000C0DCC000F0CAA6000020400000206000002080000020A0000020C0000020E00000400000004020000040400000406000004080000040A0
310
000040C0000040E00000600000006020000060400000606000006080000060A0000060C0000060E00000800000008020000080400000806000008080000080A0000080C0000080E00000A0000000A0200000A0400000A0600000A0800000A0A00000A0C00000A0E00000C0000000C0200000C0400000C0600000C0800000C0
310
A00000C0C00000C0E00000E0000000E0200000E0400000E0600000E0800000E0A00000E0C00000E0E00040000000400020004000400040006000400080004000A0004000C0004000E00040200000402020004020400040206000402080004020A0004020C0004020E000404000004040200040404000404060004040800040
310
40A0004040C0004040E00040600000406020004060400040606000406080004060A0004060C0004060E00040800000408020004080400040806000408080004080A0004080C0004080E00040A0000040A0200040A0400040A0600040A0800040A0A00040A0C00040A0E00040C0000040C0200040C0400040C0600040C08000
310
40C0A00040C0C00040C0E00040E0000040E0200040E0400040E0600040E0800040E0A00040E0C00040E0E00080000000800020008000400080006000800080008000A0008000C0008000E00080200000802020008020400080206000802080008020A0008020C0008020E00080400000804020008040400080406000804080
310
008040A0008040C0008040E00080600000806020008060400080606000806080008060A0008060C0008060E00080800000808020008080400080806000808080008080A0008080C0008080E00080A0000080A0200080A0400080A0600080A0800080A0A00080A0C00080A0E00080C0000080C0200080C0400080C0600080C0
310
800080C0A00080C0C00080C0E00080E0000080E0200080E0400080E0600080E0800080E0A00080E0C00080E0E000C0000000C0002000C0004000C0006000C0008000C000A000C000C000C000E000C0200000C0202000C0204000C0206000C0208000C020A000C020C000C020E000C0400000C0402000C0404000C0406000C0
310
408000C040A000C040C000C040E000C0600000C0602000C0604000C0606000C0608000C060A000C060C000C060E000C0800000C0802000C0804000C0806000C0808000C080A000C080C000C080E000C0A00000C0A02000C0A04000C0A06000C0A08000C0A0A000C0A0C000C0A0E000C0C00000C0C02000C0C04000C0C06000
310
C0C08000C0C0A000F0FBFF00A4A0A000808080000000FF0000FF000000FFFF00FF000000FF00FF00FFFF0000FFFFFF0000000000000000000000000000000000000000000000000000000000000000000000000000000000000000000000000000000000000000000000000000000000000000000000000000000000000000
310
000000000000000000000000000000000000000000000000000000000000000000000000000000000000000000000000000000000000000000000000000000000000000000000000000000000000000000000000000000000000000000000000000000000000000000000000000000000000F9F9FFF9F9F9F9F9F9F9F9F9F9
310
F9F9F9F9F9F9F9F9F9F9F9F9F9F9F900000000F900FFFFFFFFFFFFFFFFFFFFFFFFFFFFFFFFFFFFFFFFFFFFFFFFFFF900000000F900FF0000000000000000000000000000000000000000000000FFF900000000F900FF0000000000000000000000000000000000000000000000FFF900000000F900FF000000000000000000
310
0000000000000000000000000000FFF900000000F900FF0000000000000000000000000000000000000000000000FFF900000000F900FF0000000000000000000000000000000000000000000000FFF900000000F900FF0000000000000000000000000000000000000000000000FFF900000000F900FF0000000000000000
310
000000000000000000000000000000FFF900000000F900FF0000000000000000000000000000000000000000000000FFF900000000F900FF0000000000000000000000000000000000000000000000FFF900000000F900FF0000000000000000000000000000000000000000000000FFF900000000F900FF00000000000000
310
00000000000000000000000000000000FFF900000000F900FF0000000000000000000000000000000000000000000000FFF900000000F900FF0000000000000000000000000000000000000000000000FFF900000000F900FF0000000000000000000000000000000000000000000000FFF900000000F900FF000000000000
310
0000000000000000000000000000000000FFF900000000F900FF0000000000000000000000000000000000000000000000FFF900000000F900FFFFFFFFFFFFFFFFFFFFFFFFFFFFFFFFFFFFFFFFFFFFFFFFFFF900000000F9F9F9F9F9F9F9F9F9F9F9F9F9F9F9F9F9F9F9F9F9F9F9F9F9F9F9F9000000000000000000000000
310
00000000000000000000000000000000000000000000000000000000000000000000000000000000000000000000000000000000000000000000000000000000000000000000000000000000000000000000000000000000000000000000000000000000000000000000000000000000000000000000000000000000000000
310
0000000000000000000000000000000000000000000000000000000000000000000000000000000000000000000000000000000000000000
102
{BLKREFS
331
D04
102
}
  0
BLOCK_RECORD
  5
A05
330
1
100
AcDbSymbolTableRecord
100
AcDbBlockTableRecord
  2
MAKR0
340
0
102
{BLKREFS
331
F4B
102
}
  0
BLOCK_RECORD
  5
A56
330
1
100
AcDbSymbolTableRecord
100
AcDbBlockTableRecord
  2
LTEX0
340
0
102
{BLKREFS
331
F96
102
}
  0
BLOCK_RECORD
  5
A5D
330
1
100
AcDbSymbolTableRecord
100
AcDbBlockTableRecord
  2
MAKR1
340
0
102
{BLKREFS
331
F97
102
}
  0
BLOCK_RECORD
  5
FB0
330
1
100
AcDbSymbolTableRecord
100
AcDbBlockTableRecord
  2
*D22
340
0
  0
BLOCK_RECORD
  5
FBA
330
1
100
AcDbSymbolTableRecord
100
AcDbBlockTableRecord
  2
*D23
340
0
  0
BLOCK_RECORD
  5
FC4
330
1
100
AcDbSymbolTableRecord
100
AcDbBlockTableRecord
  2
*D24
340
0
  0
BLOCK_RECORD
  5
FCE
330
1
100
AcDbSymbolTableRecord
100
AcDbBlockTableRecord
  2
*D25
340
0
  0
BLOCK_RECORD
  5
FDE
330
1
100
AcDbSymbolTableRecord
100
AcDbBlockTableRecord
  2
*D26
340
0
  0
BLOCK_RECORD
  5
108A
330
1
100
AcDbSymbolTableRecord
100
AcDbBlockTableRecord
  2
*D27
340
0
  0
BLOCK_RECORD
  5
10B6
330
1
100
AcDbSymbolTableRecord
100
AcDbBlockTableRecord
  2
*D28
340
0
  0
BLOCK_RECORD
  5
1199
330
1
100
AcDbSymbolTableRecord
100
AcDbBlockTableRecord
  2
*D29
340
0
  0
ENDTAB
  0
ENDSEC
  0
SECTION
  2
BLOCKS
  0
BLOCK
  5
20
330
1F
100
AcDbEntity
  8
0
100
AcDbBlockBegin
  2
*Model_Space
 70
     0
 10
0.0
 20
0.0
 30
0.0
  3
*Model_Space
  1

  0
ENDBLK
  5
21
330
1F
100
AcDbEntity
  8
0
100
AcDbBlockEnd
  0
BLOCK
  5
1C
330
1B
100
AcDbEntity
 67
     1
  8
0
100
AcDbBlockBegin
  2
*Paper_Space
 70
     0
 10
0.0
 20
0.0
 30
0.0
  3
*Paper_Space
  1

  0
ENDBLK
  5
1D
330
1B
100
AcDbEntity
 67
     1
  8
0
100
AcDbBlockEnd
  0
BLOCK
  5
24
330
23
100
AcDbEntity
  8
0
100
AcDbBlockBegin
  2
*Paper_Space0
 70
     0
 10
0.0
 20
0.0
 30
0.0
  3
*Paper_Space0
  1

  0
ENDBLK
  5
25
330
23
100
AcDbEntity
  8
0
100
AcDbBlockEnd
  0
BLOCK
  5
7B
330
77
100
AcDbEntity
  8
0
100
AcDbBlockBegin
  2
_Open30
 70
     0
 10
0.0
 20
0.0
 30
0.0
  3
_Open30
  1

  0
LINE
  5
78
330
77
100
AcDbEntity
  8
0
  6
ByBlock
 62
     0
370
    -2
100
AcDbLine
 10
-1.0
 20
0.26794919
 30
0.0
 11
0.0
 21
0.0
 31
0.0
  0
LINE
  5
79
330
77
100
AcDbEntity
  8
0
  6
ByBlock
 62
     0
370
    -2
100
AcDbLine
 10
0.0
 20
0.0
 30
0.0
 11
-1.0
 21
-0.26794919
 31
0.0
  0
LINE
  5
7A
330
77
100
AcDbEntity
  8
0
  6
ByBlock
 62
     0
370
    -2
100
AcDbLine
 10
0.0
 20
0.0
 30
0.0
 11
-1.0
 21
0.0
 31
0.0
  0
ENDBLK
  5
7C
330
77
100
AcDbEntity
  8
0
100
AcDbBlockEnd
  0
BLOCK
  5
85
330
83
100
AcDbEntity
  8
0
100
AcDbBlockBegin
  2
GENAXEH
 70
     0
 10
0.0
 20
0.0
 30
0.0
  3
GENAXEH
  1

  0
LINE
  5
84
330
83
100
AcDbEntity
  8
0
100
AcDbLine
 10
-1.0
 20
0.0
 30
0.0
 11
1.0
 21
0.0
 31
0.0
  0
ENDBLK
  5
86
330
83
100
AcDbEntity
  8
0
100
AcDbBlockEnd
  0
BLOCK
  5
206
330
1F1
100
AcDbEntity
  8
0
100
AcDbBlockBegin
  2
IGS_A2
 70
     0
 10
0.0
 20
0.0
 30
0.0
  3
IGS_A2
  1

  0
LINE
  5
1F2
330
1F1
100
AcDbEntity
  8
AM_BOR
100
AcDbLine
 10
0.0
 20
0.0
 30
0.0
 11
0.0
 21
10.0
 31
0.0
  0
LINE
  5
1F3
330
1F1
100
AcDbEntity
  8
AM_BOR
100
AcDbLine
 10
0.0
 20
420.0
 30
0.0
 11
10.0
 21
420.0
 31
0.0
  0
LINE
  5
1F4
330
1F1
100
AcDbEntity
  8
AM_BOR
100
AcDbLine
 10
594.0
 20
420.0
 30
0.0
 11
594.0
 21
410.0
 31
0.0
  0
LINE
  5
1F5
330
1F1
100
AcDbEntity
  8
AM_BOR
100
AcDbLine
 10
594.0
 20
0.0
 30
0.0
 11
584.0
 21
0.0
 31
0.0
  0
LINE
  5
1F6
330
1F1
100
AcDbEntity
  8
0
100
AcDbLine
 10
20.0
 20
10.0
 30
0.0
 11
20.0
 21
410.0
 31
0.0
  0
LINE
  5
1F7
330
1F1
100
AcDbEntity
  8
0
100
AcDbLine
 10
574.0
 20
10.0
 30
0.0
 11
20.0
 21
10.0
 31
0.0
  0
LINE
  5
1F8
330
1F1
100
AcDbEntity
  8
0
100
AcDbLine
 10
574.0
 20
410.0
 30
0.0
 11
574.0
 21
10.0
 31
0.0
  0
LINE
  5
1F9
330
1F1
100
AcDbEntity
  8
0
100
AcDbLine
 10
20.0
 20
410.0
 30
0.0
 11
574.0
 21
410.0
 31
0.0
  0
LINE
  5
1FA
330
1F1
100
AcDbEntity
  8
AM_BOR
100
AcDbLine
 10
10.0
 20
0.0
 30
0.0
 11
0.0
 21
0.0
 31
0.0
  0
LINE
  5
1FB
330
1F1
100
AcDbEntity
  8
AM_BOR
100
AcDbLine
 10
0.0
 20
410.0
 30
0.0
 11
0.0
 21
420.0
 31
0.0
  0
LINE
  5
1FC
330
1F1
100
AcDbEntity
  8
AM_BOR
100
AcDbLine
 10
594.0
 20
10.0
 30
0.0
 11
594.0
 21
0.0
 31
0.0
  0
LINE
  5
1FD
330
1F1
100
AcDbEntity
  8
AM_BOR
100
AcDbLine
 10
584.0
 20
420.0
 30
0.0
 11
594.0
 21
420.0
 31
0.0
  0
TEXT
  5
1FE
330
1F1
100
AcDbEntity
  8
0
 60
     1
100
AcDbText
 10
574.0
 20
410.0
 30
0.0
 40
6.0
  1
!GENTITLE-RU
  7
ACJISTS
100
AcDbText
  0
TEXT
  5
1FF
330
1F1
100
AcDbEntity
  8
0
 60
     1
100
AcDbText
 10
594.0
 20
420.0
 30
0.0
 40
6.0
  1
!GENTITLE-MAX
  7
ACJISTS
100
AcDbText
  0
TEXT
  5
200
330
1F1
100
AcDbEntity
  8
0
 60
     1
100
AcDbText
 10
574.0
 20
10.0
 30
0.0
 40
6.0
  1
!GENTITLE-INSERT
  7
ACJISTS
100
AcDbText
  0
TEXT
  5
201
330
1F1
100
AcDbEntity
  8
0
 60
     1
100
AcDbText
 10
20.0
 20
10.0
 30
0.0
 40
6.0
  1
!GENTITLE-LL
  7
ACJISTS
100
AcDbText
  0
LINE
  5
202
330
1F1
100
AcDbEntity
  8
AM_BOR
 62
     1
370
    25
100
AcDbLine
 10
0.0
 20
420.0
 30
0.0
 11
594.0
 21
420.0
 31
0.0
  0
LINE
  5
203
330
1F1
100
AcDbEntity
  8
AM_BOR
 62
     1
370
    25
100
AcDbLine
 10
594.0
 20
420.0
 30
0.0
 11
594.0
 21
0.0
 31
0.0
  0
LINE
  5
204
330
1F1
100
AcDbEntity
  8
AM_BOR
 62
     1
370
    25
100
AcDbLine
 10
594.0
 20
0.0
 30
0.0
 11
0.0
 21
0.0
 31
0.0
  0
LINE
  5
205
330
1F1
100
AcDbEntity
  8
AM_BOR
 62
     1
370
    25
100
AcDbLine
 10
0.0
 20
0.0
 30
0.0
 11
0.0
 21
420.0
 31
0.0
  0
ENDBLK
  5
207
330
1F1
100
AcDbEntity
  8
0
100
AcDbBlockEnd
  0
BLOCK
  5
230
330
210
100
AcDbEntity
  8
0
100
AcDbBlockBegin
  2
GEN_A4
 70
     0
 10
0.0
 20
0.0
 30
0.0
  3
GEN_A4
  1

  0
LINE
  5
211
330
210
100
AcDbEntity
  8
RAHM2
100
AcDbLine
 10
0.0
 20
0.0
 30
0.0
 11
210.0
 21
0.0
 31
0.0
  0
LINE
  5
212
330
210
100
AcDbEntity
  8
RAHM2
100
AcDbLine
 10
210.0
 20
0.0
 30
0.0
 11
210.0
 21
297.0
 31
0.0
  0
LINE
  5
213
330
210
100
AcDbEntity
  8
RAHM2
100
AcDbLine
 10
210.0
 20
297.0
 30
0.0
 11
0.0
 21
297.0
 31
0.0
  0
LINE
  5
214
330
210
100
AcDbEntity
  8
RAHM2
100
AcDbLine
 10
0.0
 20
297.0
 30
0.0
 11
0.0
 21
0.0
 31
0.0
  0
LINE
  5
215
330
210
100
AcDbEntity
  8
0
100
AcDbLine
 10
15.0
 20
5.0
 30
0.0
 11
205.0
 21
5.0
 31
0.0
  0
LINE
  5
216
330
210
100
AcDbEntity
  8
0
100
AcDbLine
 10
205.0
 20
5.0
 30
0.0
 11
205.0
 21
292.0
 31
0.0
  0
LINE
  5
217
330
210
100
AcDbEntity
  8
0
100
AcDbLine
 10
205.0
 20
292.0
 30
0.0
 11
15.0
 21
292.0
 31
0.0
  0
LINE
  5
218
330
210
100
AcDbEntity
  8
0
100
AcDbLine
 10
15.0
 20
292.0
 30
0.0
 11
15.0
 21
287.0
 31
0.0
  0
LINE
  5
219
330
210
100
AcDbEntity
  8
RAHM2
100
AcDbLine
 10
62.5
 20
292.0
 30
0.0
 11
62.5
 21
287.0
 31
0.0
  0
TEXT
  5
21A
330
210
100
AcDbEntity
  8
RAHM2
100
AcDbText
 10
37.4
 20
287.5
 30
0.0
 40
4.0
  1
4
100
AcDbText
  0
TEXT
  5
21B
330
210
100
AcDbEntity
  8
RAHM2
100
AcDbText
 10
84.9
 20
287.5
 30
0.0
 40
4.0
  1
3
100
AcDbText
  0
LINE
  5
21C
330
210
100
AcDbEntity
  8
RAHM2
100
AcDbLine
 10
110.0
 20
292.0
 30
0.0
 11
110.0
 21
287.0
 31
0.0
  0
TEXT
  5
21D
330
210
100
AcDbEntity
  8
RAHM2
100
AcDbText
 10
132.4
 20
287.5
 30
0.0
 40
4.0
  1
2
100
AcDbText
  0
LINE
  5
21E
330
210
100
AcDbEntity
  8
RAHM2
100
AcDbLine
 10
157.5
 20
292.0
 30
0.0
 11
157.5
 21
287.0
 31
0.0
  0
TEXT
  5
21F
330
210
100
AcDbEntity
  8
RAHM2
100
AcDbText
 10
179.9
 20
287.5
 30
0.0
 40
4.0
  1
1
100
AcDbText
  0
LINE
  5
220
330
210
100
AcDbEntity
  8
RAHM2
100
AcDbLine
 10
15.0
 20
292.0
 30
0.0
 11
10.0
 21
292.0
 31
0.0
  0
LINE
  5
221
330
210
100
AcDbEntity
  8
RAHM2
100
AcDbLine
 10
15.0
 20
287.0
 30
0.0
 11
205.0
 21
287.0
 31
0.0
  0
LINE
  5
222
330
210
100
AcDbEntity
  8
0
100
AcDbLine
 10
15.0
 20
287.0
 30
0.0
 11
15.0
 21
5.0
 31
0.0
  0
TEXT
  5
223
330
210
100
AcDbEntity
  8
RAHM2
100
AcDbText
 10
11.15
 20
120.5
 30
0.0
 40
4.0
  1
A
100
AcDbText
  0
LINE
  5
224
330
210
100
AcDbEntity
  8
RAHM2
100
AcDbLine
 10
10.0
 20
146.0
 30
0.0
 11
15.0
 21
146.0
 31
0.0
  0
TEXT
  5
225
330
210
100
AcDbEntity
  8
RAHM2
100
AcDbText
 10
11.15
 20
167.5
 30
0.0
 40
4.0
  1
B
100
AcDbText
  0
LINE
  5
226
330
210
100
AcDbEntity
  8
RAHM2
100
AcDbLine
 10
10.0
 20
193.0
 30
0.0
 11
15.0
 21
193.0
 31
0.0
  0
TEXT
  5
227
330
210
100
AcDbEntity
  8
RAHM2
100
AcDbText
 10
11.15
 20
214.5
 30
0.0
 40
4.0
  1
C
100
AcDbText
  0
LINE
  5
228
330
210
100
AcDbEntity
  8
RAHM2
100
AcDbLine
 10
10.0
 20
240.0
 30
0.0
 11
15.0
 21
240.0
 31
0.0
  0
TEXT
  5
229
330
210
100
AcDbEntity
  8
RAHM2
100
AcDbText
 10
11.15
 20
261.5
 30
0.0
 40
4.0
  1
D
100
AcDbText
  0
LINE
  5
22A
330
210
100
AcDbEntity
  8
RAHM2
100
AcDbLine
 10
10.0
 20
99.0
 30
0.0
 11
15.0
 21
99.0
 31
0.0
  0
LINE
  5
22B
330
210
100
AcDbEntity
  8
RAHM2
100
AcDbLine
 10
10.0
 20
99.0
 30
0.0
 11
10.0
 21
292.0
 31
0.0
  0
TEXT
  5
22C
330
210
100
AcDbEntity
  8
0
 60
     1
100
AcDbText
 10
210.0
 20
297.0
 30
0.0
 40
3.5
  1
!GENTITLE-MAX
100
AcDbText
  0
TEXT
  5
22D
330
210
100
AcDbEntity
  8
0
 60
     1
100
AcDbText
 10
205.0
 20
287.0
 30
0.0
 40
3.5
  1
!GENTITLE-RU
100
AcDbText
  0
TEXT
  5
22E
330
210
100
AcDbEntity
  8
0
 60
     1
100
AcDbText
 10
15.0
 20
59.99
 30
0.0
 40
3.5
  1
!GENTITLE-LL
100
AcDbText
  0
TEXT
  5
22F
330
210
100
AcDbEntity
  8
0
 60
     1
100
AcDbText
 10
205.0
 20
5.0
 30
0.0
 40
3.5
  1
!GENTITLE-INSERT
100
AcDbText
  0
ENDBLK
  5
231
330
210
100
AcDbEntity
  8
0
100
AcDbBlockEnd
  0
BLOCK
  5
26B
330
232
100
AcDbEntity
  8
0
100
AcDbBlockBegin
  2
GENTITUS
 70
     2
 10
0.0
 20
0.0
 30
0.0
  3
GENTITUS
  1

  0
ATTDEF
  5
233
330
232
100
AcDbEntity
  8
RAHM2
100
AcDbText
 10
-161.2719926438011
 20
59.77949705640509
 30
0.0
 40
3.047999999999999
  1

100
AcDbAttributeDefinition
  3
File Name
  2
GEN-TITLE-DWG{10.58}
 70
     0
  0
ATTDEF
  5
234
330
232
100
AcDbEntity
  8
RAHM2
100
AcDbText
 10
-113.0375060754025
 20
1.655316229755442
 30
0.0
 40
3.047999999999999
  1

100
AcDbAttributeDefinition
  3
Scale
  2
GEN-TITLE-SCA{7.49}
 70
     0
  0
ATTDEF
  5
235
330
232
100
AcDbEntity
  8
RAHM2
100
AcDbText
 10
-170.5791365852594
 20
44.08298086452544
 30
0.0
 40
3.047999999999999
  1

100
AcDbAttributeDefinition
  3
Draft Date
  2
GEN-TITLE-DAT{6.03}
 70
     0
  0
ATTDEF
  5
236
330
232
100
AcDbEntity
  8
RAHM2
100
AcDbText
 10
-148.8439999999988
 20
44.06900000000002
 30
0.0
 40
3.047999999999999
  1

100
AcDbAttributeDefinition
  3
Drawn by
  2
GEN-TITLE-NAME{6.72}
 70
     0
  0
ATTDEF
  5
237
330
232
100
AcDbEntity
  8
RAHM5
100
AcDbText
 10
-121.9520790451008
 20
36.30136743197994
 30
0.0
 40
6.349999999999999
  1

100
AcDbAttributeDefinition
  3
Drawing Title
  2
GEN-TITLE-DES1{18.22}
 70
     0
  0
ATTDEF
  5
238
330
232
100
AcDbEntity
  8
RAHM3
100
AcDbText
 10
-121.9520790451008
 20
26.25984032860009
 30
0.0
 40
4.571999999999999
  1

100
AcDbAttributeDefinition
  3
Drawing Subtitle
  2
GEN-TITLE-DES2{26.26}
 70
     0
  0
ATTDEF
  5
239
330
232
100
AcDbEntity
  8
RAHM5
100
AcDbText
 10
-74.05731360850683
 20
9.398000000000024
 30
0.0
 40
6.349999999999999
  1
-
100
AcDbAttributeDefinition
  3
Drawing Number
  2
GEN-TITLE-NR{8.40}
 70
     0
  0
ATTDEF
  5
23A
330
232
100
AcDbEntity
  8
RAHM3
100
AcDbText
 10
-122.5443157926048
 20
49.65700000000004
 30
0.0
 40
4.571999999999999
  1

100
AcDbAttributeDefinition
  3
Design Activity
  2
GEN-TITLE-DACT{25.89}
 70
     0
  0
ATTDEF
  5
23B
330
232
100
AcDbEntity
  8
RAHM2
100
AcDbText
 10
-115.3186639642027
 20
9.398000000000024
 30
0.0
 40
3.047999999999999
  1
-
100
AcDbAttributeDefinition
  3
FSCM Number
  2
GEN-TITLE-FSCM{8.01}
 70
     0
  0
ATTDEF
  5
23C
330
232
100
AcDbEntity
  8
RAHM2
100
AcDbText
 10
-148.8439999999988
 20
28.82900000000001
 30
0.0
 40
3.047999999999999
  1

100
AcDbAttributeDefinition
  3
Approved by
  2
GEN-TITLE-APPM{6.72}
 70
     0
  0
ATTDEF
  5
23D
330
232
100
AcDbEntity
  8
RAHM2
100
AcDbText
 10
-170.7495891837786
 20
28.76581702429371
 30
0.0
 40
3.047999999999999
  1

100
AcDbAttributeDefinition
  3
Approval Date
  2
GEN-TITLE-APPD{6.08}
 70
     0
  0
ATTDEF
  5
23E
330
232
100
AcDbEntity
  8
RAHM2
100
AcDbText
 10
-148.8439999999989
 20
21.20900000000003
 30
0.0
 40
3.047999999999999
  1

100
AcDbAttributeDefinition
  3
Issued by
  2
GEN-TITLE-ISSM{6.72}
 70
     0
  0
ATTDEF
  5
23F
330
232
100
AcDbEntity
  8
RAHM2
100
AcDbText
 10
-170.5791365852594
 20
21.27742535250911
 30
0.0
 40
3.047999999999999
  1

100
AcDbAttributeDefinition
  3
Issue Date
  2
GEN-TITLE-ISSD{6.03}
 70
     0
  0
ATTDEF
  5
240
330
232
100
AcDbEntity
  8
RAHM2
100
AcDbText
 10
-122.025627714063
 20
9.007830168911709
 30
0.0
 40
3.047999999999999
  1

 72
     1
 11
-122.025627714063
 21
9.007830168911709
 31
0.0
100
AcDbAttributeDefinition
  3
Size
  2
GEN-TITLE-SIZ{2.46}
 70
     0
  0
ATTDEF
  5
241
330
232
100
AcDbEntity
  8
RAHM2
100
AcDbText
 10
-148.8439999999988
 20
36.44900000000004
 30
0.0
 40
3.047999999999999
  1

100
AcDbAttributeDefinition
  3
Checked by
  2
GEN-TITLE-CHKM{6.72}
 70
     0
  0
ATTDEF
  5
242
330
232
100
AcDbEntity
  8
RAHM2
100
AcDbText
 10
-155.7496724495927
 20
51.74156347614825
 30
0.0
 40
3.047999999999999
  1
-
100
AcDbAttributeDefinition
  3
Contract Number
  2
GEN-TITLE-CTRN{9.04}
 70
     0
  0
ATTDEF
  5
243
330
232
100
AcDbEntity
  8
RAHM2
100
AcDbText
 10
-170.7495891837786
 20
36.42439894440952
 30
0.0
 40
3.047999999999999
  1

100
AcDbAttributeDefinition
  3
Check Date
  2
GEN-TITLE-CHKD{6.16}
 70
     0
  0
ATTDEF
  5
244
330
232
100
AcDbEntity
  8
RAHM2
100
AcDbText
 10
-26.47195988711838
 20
1.564076906827722
 30
0.0
 40
3.047999999999999
  1

100
AcDbAttributeDefinition
  3
Sheet Number
  2
GEN-TITLE-SHEET{10.30}
 70
     0
  0
ATTDEF
  5
245
330
232
100
AcDbEntity
  8
RAHM2
100
AcDbText
 10
-6.220641135027562
 20
8.879862113045646
 30
0.0
 40
3.047999999999999
  1

 72
     1
 11
-6.220641135027562
 21
8.879862113045646
 31
0.0
100
AcDbAttributeDefinition
  3
Revision
  2
GEN-TITLE-REV{3.27}
 70
     0
  0
ATTDEF
  5
246
330
232
100
AcDbEntity
  8
RAHM2
100
AcDbText
 10
-69.95172301045787
 20
1.65100000000001
 30
0.0
 40
3.047999999999999
  1

100
AcDbAttributeDefinition
  3
Weight
  2
GEN-TITLE-WT{7.43}
 70
     0
  0
LINE
  5
247
330
232
100
AcDbEntity
  8
RAHM2
100
AcDbLine
 10
0.0
 20
47.49800000000004
 30
0.0
 11
-127.0
 21
47.49800000000004
 31
0.0
  0
TEXT
  5
248
330
232
100
AcDbEntity
  8
RAHM2
100
AcDbText
 10
-87.88400000000001
 20
16.00200000000004
 30
0.0
 40
2.032
  1
DWG NO
100
AcDbText
  0
TEXT
  5
249
330
232
100
AcDbEntity
  8
RAHM2
100
AcDbText
 10
-88.25401012743839
 20
1.705415101054569
 30
0.0
 40
2.032
  1
WEIGHT
100
AcDbText
  0
POLYLINE
  5
24A
330
232
100
AcDbEntity
  8
RAHM5
100
AcDb2dPolyline
 66
     1
 10
0.0
 20
0.0
 30
0.0
 70
     1
  0
VERTEX
  5
24B
330
24A
100
AcDbEntity
  8
RAHM5
100
AcDbVertex
100
AcDb2dVertex
 10
0.0
 20
63.50000000000003
 30
0.0
  0
VERTEX
  5
24C
330
24A
100
AcDbEntity
  8
RAHM5
100
AcDbVertex
100
AcDb2dVertex
 10
-182.8799999999977
 20
63.50000000000003
 30
0.0
  0
VERTEX
  5
24D
330
24A
100
AcDbEntity
  8
RAHM5
100
AcDbVertex
100
AcDb2dVertex
 10
-182.8799999999977
 20
0.0000000000000284
 30
0.0
  0
VERTEX
  5
24E
330
24A
100
AcDbEntity
  8
RAHM5
100
AcDbVertex
100
AcDb2dVertex
 10
0.0
 20
0.0
 30
0.0
  0
SEQEND
  5
24F
330
24A
100
AcDbEntity
  8
RAHM5
  0
LINE
  5
250
330
232
100
AcDbEntity
  8
RAHM5
100
AcDbLine
 10
0.0
 20
19.05000000000004
 30
0.0
 11
-127.0
 21
19.05000000000004
 31
0.0
  0
LINE
  5
251
330
232
100
AcDbEntity
  8
RAHM2
100
AcDbLine
 10
0.0
 20
6.350000000000036
 30
0.0
 11
-127.0
 21
6.350000000000036
 31
0.0
  0
LINE
  5
252
330
232
100
AcDbEntity
  8
RAHM5
100
AcDbLine
 10
-127.0
 20
0.0000000000000284
 30
0.0
 11
-127.0
 21
63.50000000000003
 31
0.0
  0
LINE
  5
253
330
232
100
AcDbEntity
  8
RAHM2
100
AcDbLine
 10
-127.0
 20
19.05000000000004
 30
0.0
 11
-182.8799999999977
 21
19.05000000000004
 31
0.0
  0
LINE
  5
254
330
232
100
AcDbEntity
  8
RAHM2
100
AcDbLine
 10
-127.0
 20
9.525000000000034
 30
0.0
 11
-182.8799999999977
 21
9.525000000000034
 31
0.0
  0
LINE
  5
255
330
232
100
AcDbEntity
  8
RAHM2
100
AcDbLine
 10
-127.0
 20
26.67000000000003
 30
0.0
 11
-182.8799999999977
 21
26.67000000000003
 31
0.0
  0
TEXT
  5
256
330
232
100
AcDbEntity
  8
RAHM2
100
AcDbText
 10
-182.0827700595082
 20
28.82900000000003
 30
0.0
 40
2.032
  1
APPR.
 11
-182.0827700595082
 21
29.84500000000003
 31
0.0
100
AcDbText
 73
     2
  0
TEXT
  5
257
330
232
100
AcDbEntity
  8
RAHM2
100
AcDbText
 10
-182.0827700595081
 20
21.20900000000004
 30
0.0
 40
2.032
  1
ISSUED
 11
-182.0827700595081
 21
22.22500000000004
 31
0.0
100
AcDbText
 73
     2
  0
LINE
  5
258
330
232
100
AcDbEntity
  8
0
100
AcDbLine
 10
-182.8799999999911
 20
0.0000000000001137
 30
0.0
 11
-182.8799999999911
 21
4.230000000000075
 31
0.0
  0
LINE
  5
259
330
232
100
AcDbEntity
  8
RAHM2
100
AcDbLine
 10
-117.348
 20
19.05000000000004
 30
0.0
 11
-117.348
 21
6.350000000000036
 31
0.0
  0
LINE
  5
25A
330
232
100
AcDbEntity
  8
RAHM2
100
AcDbLine
 10
-88.89999999999998
 20
19.05000000000004
 30
0.0
 11
-88.89999999999998
 21
6.350000000000036
 31
0.0
  0
TEXT
  5
25B
330
232
100
AcDbEntity
  8
RAHM2
100
AcDbText
 10
-125.984
 20
1.651000000000015
 30
0.0
 40
2.032
  1
SCALE
 11
-125.984
 21
2.667000000000015
 31
0.0
100
AcDbText
 73
     2
  0
LINE
  5
25C
330
232
100
AcDbEntity
  8
RAHM2
100
AcDbLine
 10
-88.89999999999998
 20
0.0000000000000142
 30
0.0
 11
-88.89999999999998
 21
6.350000000000036
 31
0.0
  0
TEXT
  5
25D
330
232
100
AcDbEntity
  8
RAHM2
100
AcDbText
 10
-116.332
 20
16.00200000000004
 30
0.0
 40
2.032
  1
FSCM NO
100
AcDbText
  0
TEXT
  5
25E
330
232
100
AcDbEntity
  8
RAHM2
100
AcDbText
 10
-125.984
 20
16.00200000000004
 30
0.0
 40
2.032
  1
SIZE
100
AcDbText
  0
LINE
  5
25F
330
232
100
AcDbEntity
  8
RAHM2
100
AcDbLine
 10
-182.8799999999977
 20
58.92800000000005
 30
0.0
 11
-127.0
 21
58.92800000000005
 31
0.0
  0
LINE
  5
260
330
232
100
AcDbEntity
  8
RAHM2
100
AcDbLine
 10
-127.0
 20
34.29000000000002
 30
0.0
 11
-182.8799999999977
 21
34.29000000000002
 31
0.0
  0
LINE
  5
261
330
232
100
AcDbEntity
  8
RAHM2
100
AcDbLine
 10
-127.0
 20
41.91000000000005
 30
0.0
 11
-182.8799999999977
 21
41.91000000000005
 31
0.0
  0
LINE
  5
262
330
232
100
AcDbEntity
  8
RAHM2
100
AcDbLine
 10
-127.0
 20
49.53000000000002
 30
0.0
 11
-182.8799999999977
 21
49.53000000000002
 31
0.0
  0
TEXT
  5
263
330
232
100
AcDbEntity
  8
RAHM2
100
AcDbText
 10
-180.3172639642003
 20
51.68900000000002
 30
0.0
 40
2.032
  1
CONTRACT NO
100
AcDbText
  0
TEXT
  5
264
330
232
100
AcDbEntity
  8
RAHM2
100
AcDbText
 10
-182.0827700595081
 20
44.06900000000002
 30
0.0
 40
2.032
  1
DRAWN
100
AcDbText
  0
TEXT
  5
265
330
232
100
AcDbEntity
  8
RAHM2
100
AcDbText
 10
-182.0827700595081
 20
36.44900000000003
 30
0.0
 40
2.032
  1
CHECK
 11
-182.0827700595081
 21
37.46500000000003
 31
0.0
100
AcDbText
 73
     2
  0
TEXT
  5
266
330
232
100
AcDbEntity
  8
RAHM2
100
AcDbText
 10
-180.3172639642003
 20
59.817
 30
0.0
 40
2.032
  1
FILE NAME
100
AcDbText
  0
TEXT
  5
267
330
232
100
AcDbEntity
  8
RAHM2
100
AcDbText
 10
-43.43400000000002
 20
1.651000000000015
 30
0.0
 40
2.032
  1
SHEET
 11
-43.43400000000002
 21
2.667000000000015
 31
0.0
100
AcDbText
 73
     2
  0
LINE
  5
268
330
232
100
AcDbEntity
  8
RAHM2
100
AcDbLine
 10
-44.44999999999999
 20
0.0
 30
0.0
 11
-44.44999999999999
 21
6.350000000000036
 31
0.0
  0
LINE
  5
269
330
232
100
AcDbEntity
  8
RAHM2
100
AcDbLine
 10
-12.69999999999999
 20
19.05000000000004
 30
0.0
 11
-12.69999999999999
 21
6.350000000000036
 31
0.0
  0
TEXT
  5
26A
330
232
100
AcDbEntity
  8
RAHM2
100
AcDbText
 10
-11.68400000000002
 20
16.00200000000004
 30
0.0
 40
2.032
  1
REV
100
AcDbText
  0
ENDBLK
  5
26C
330
232
100
AcDbEntity
  8
0
100
AcDbBlockEnd
  0
BLOCK
  5
277
330
26D
100
AcDbEntity
  8
0
100
AcDbBlockBegin
  2
IGS-A4
 70
     0
 10
0.0
 20
0.0
 30
0.0
  3
IGS-A4
  1

  0
POINT
  5
26E
330
26D
100
AcDbEntity
  8
0
 60
     1
100
AcDbPoint
 10
0.0
 20
0.0
 30
0.0
1001
GENIUS_GENODEF_13
1002
{
1000
HIER
1070
     1
1002
}
1002
{
1000
MANEDIT
1070
     0
1002
}
1002
{
1000
NOSEL
1070
     0
1002
}
1002
{
1000
BEHIND
1070
     0
1002
}
1002
{
1000
REACTOR
1002
}
1001
GENIUS_GENTITLE_13
1002
{
1000
SCALE
1000
1:1
1002
}
1002
{
1000
BORDER
1000
GEN_A4
1002
}
1002
{
1000
TITLE
1000
GENTITUS
1002
}
1002
{
1000
UNCHG
1002
{
1000
GEN-TITLE-SCA
1000
GEN-TITLE-SIZ
1002
}
1002
}
1002
{
1000
HRA
1005
0
1002
}
1002
{
1000
HTIT
1005
0
1002
}
1002
{
1000
GENIUSID
1005
26E
1002
}
1001
GENIUS_GENOBJ-N-TIT_13
1002
{
1000
OWNER
1000
GEN
1002
}
1001
GENIUS_GENOENT_13
1002
{
1000
MYREF
1005
26E
1002
}
1002
{
1000
GRP
1005
0
1002
}
1001
GENIUS_GENOLIS_13
1002
{
1000
ENT
1005
0
1005
0
1002
}
  0
LINE
  5
26F
330
26D
100
AcDbEntity
  8
0
100
AcDbLine
 10
15.0
 20
5.0
 30
0.0
 11
205.0
 21
5.0
 31
0.0
  0
LINE
  5
270
330
26D
100
AcDbEntity
  8
0
100
AcDbLine
 10
205.0
 20
5.0
 30
0.0
 11
205.0
 21
292.0
 31
0.0
  0
LINE
  5
271
330
26D
100
AcDbEntity
  8
0
100
AcDbLine
 10
205.0
 20
292.0
 30
0.0
 11
15.0
 21
292.0
 31
0.0
  0
LINE
  5
272
330
26D
100
AcDbEntity
  8
0
100
AcDbLine
 10
15.0
 20
292.0
 30
0.0
 11
15.0
 21
5.0
 31
0.0
  0
TEXT
  5
273
330
26D
100
AcDbEntity
  8
0
 60
     1
100
AcDbText
 10
210.0
 20
297.0
 30
0.0
 40
3.5
  1
!GENTITLE-MAX
100
AcDbText
  0
TEXT
  5
274
330
26D
100
AcDbEntity
  8
0
 60
     1
100
AcDbText
 10
205.0
 20
287.0
 30
0.0
 40
3.5
  1
!GENTITLE-RU
100
AcDbText
  0
TEXT
  5
275
330
26D
100
AcDbEntity
  8
0
 60
     1
100
AcDbText
 10
15.0
 20
59.99
 30
0.0
 40
3.5
  1
!GENTITLE-LL
100
AcDbText
  0
TEXT
  5
276
330
26D
100
AcDbEntity
  8
0
 60
     1
100
AcDbText
 10
205.0
 20
5.0
 30
0.0
 40
3.5
  1
!GENTITLE-INSERT
100
AcDbText
  0
ENDBLK
  5
278
330
26D
100
AcDbEntity
  8
0
100
AcDbBlockEnd
  0
BLOCK
  5
27B
330
279
100
AcDbEntity
  8
0
100
AcDbBlockBegin
  2
CI
 70
     0
 10
0.0
 20
0.0
 30
0.0
  3
CI
  1

  0
CIRCLE
  5
27A
330
279
100
AcDbEntity
  8
0
 62
     0
100
AcDbCircle
 10
0.0
 20
0.0
 30
0.0
 40
0.1666666666
  0
ENDBLK
  5
27C
330
279
100
AcDbEntity
  8
0
100
AcDbBlockEnd
  0
BLOCK
  5
306
330
27D
100
AcDbEntity
  8
0
100
AcDbBlockBegin
  2
IGS-TITLE
 70
     0
 10
0.0
 20
0.0
 30
0.0
  3
IGS-TITLE
  1

  0
LINE
  5
27E
330
27D
100
AcDbEntity
  8
1
  6
Continuous
 62
     7
100
AcDbLine
 10
-187.9990322581
 20
30.99983870970002
 30
65.0
 11
-187.9990322581
 21
-0.0001612902999852
 31
65.0
  0
LINE
  5
27F
330
27D
100
AcDbEntity
  8
1
  6
Continuous
 62
     7
100
AcDbLine
 10
-162.9990322581
 20
30.99983870970002
 30
65.0
 11
-162.9990322581
 21
-0.0001612902999852
 31
65.0
  0
LINE
  5
280
330
27D
100
AcDbEntity
  8
1
  6
Continuous
 62
     7
100
AcDbLine
 10
-127.9990322581
 20
30.99983870970002
 30
65.0
 11
-127.9990322581
 21
-0.0001612902999852
 31
65.0
  0
TEXT
  5
281
330
27D
100
AcDbEntity
  8
1
  6
Continuous
 62
     7
100
AcDbText
 10
-123.7222235162
 20
4.473885419400033
 30
65.0
 40
3.5
  1
ＲＥＶＩＳＩＯＮＳ
 50
90.0
 41
0.5824175824175821
 72
     5
 11
-123.7222235162
 21
25.67388541940002
 31
65.0
100
AcDbText
  0
TEXT
  5
282
330
27D
100
AcDbEntity
  8
1
  6
Continuous
 62
     7
100
AcDbText
 10
-152.9468905162
 20
26.24983841940002
 30
65.0
 40
3.5
  1
ＲＥＶ．ＭＡＲＫ
 41
0.583850931677019
 72
     5
 11
-134.1468905162
 21
26.24983841940002
 31
65.0
100
AcDbText
  0
TEXT
  5
283
330
27D
100
AcDbEntity
  8
1
  6
Continuous
 62
     7
100
AcDbText
 10
-152.9366495162
 20
20.24983841940002
 30
65.0
 40
3.5
  1
ＤＡＴＥ
 41
0.5974025974025966
 72
     5
 11
-143.7366495162
 21
20.24983841940002
 31
65.0
100
AcDbText
  0
TEXT
  5
284
330
27D
100
AcDbEntity
  8
1
  6
Continuous
 62
     7
100
AcDbText
 10
-152.9768155162
 20
14.24983841940002
 30
65.0
 40
3.5
  1
ＲＥＶＩＳＥＤ　ＢＹ
 41
0.5812807881773391
 72
     5
 11
-129.3768155162
 21
14.24983841940002
 31
65.0
100
AcDbText
  0
TEXT
  5
285
330
27D
100
AcDbEntity
  8
1
  6
Continuous
 62
     7
100
AcDbText
 10
-152.8294145162
 20
4.74983841940002
 30
65.0
 40
3.5
  1
ＣＯＮＴＥＮＴＳ
 41
0.5838509316770175
 72
     5
 11
-134.0294145162
 21
4.74983841940002
 31
65.0
100
AcDbText
  0
TEXT
  5
286
330
27D
100
AcDbEntity
  8
1
  6
Continuous
 62
     7
100
AcDbText
 10
-161.2490325162
 20
26.24983841940002
 30
65.0
 40
3.5
  1
変更
 41
0.8705357142857142
 72
     5
 11
-154.7490325162
 21
26.24983841940002
 31
65.0
100
AcDbText
  0
TEXT
  5
287
330
27D
100
AcDbEntity
  8
1
  6
Continuous
 62
     7
100
AcDbText
 10
-161.3990325162
 20
20.24983841940002
 30
65.0
 40
3.5
  1
年月日
 41
0.6071428571428532
 72
     5
 11
-154.5990325162
 21
20.24983841940002
 31
65.0
100
AcDbText
  0
TEXT
  5
288
330
27D
100
AcDbEntity
  8
1
  6
Continuous
 62
     7
100
AcDbText
 10
-161.3990325162
 20
14.24983841940002
 30
65.0
 40
3.5
  1
変更者
 41
0.582857142857139
 72
     5
 11
-154.5990325162
 21
14.24983841940002
 31
65.0
100
AcDbText
  0
TEXT
  5
289
330
27D
100
AcDbEntity
  8
1
  6
Continuous
 62
     7
100
AcDbText
 10
-161.2490325162
 20
4.74983841940002
 30
65.0
 40
3.5
  1
記事
 41
0.8705357142857144
 72
     5
 11
-154.7490325162
 21
4.74983841940002
 31
65.0
100
AcDbText
  0
LINE
  5
28A
330
27D
100
AcDbEntity
  8
1
  6
Continuous
 62
     7
100
AcDbLine
 10
-212.9990322581
 20
30.99983870970002
 30
65.0
 11
-212.9990322581
 21
-0.0001612902999852
 31
65.0
  0
LINE
  5
28B
330
27D
100
AcDbEntity
  8
1
  6
Continuous
 62
     7
100
AcDbLine
 10
-237.9990322581
 20
30.99983870970002
 30
65.0
 11
-237.9990322581
 21
-0.0001612902999852
 31
65.0
  0
LINE
  5
28C
330
27D
100
AcDbEntity
  8
1
  6
Continuous
 62
     7
100
AcDbLine
 10
-262.9990322581
 20
30.99983870970002
 30
65.0
 11
-262.9990322581
 21
-0.0001612902999852
 31
65.0
  0
LINE
  5
28D
330
27D
100
AcDbEntity
  8
1
  6
Continuous
 62
     7
100
AcDbLine
 10
-287.9990322581
 20
30.99983870970002
 30
65.0
 11
-287.9990322581
 21
-0.0001612902999852
 31
65.0
  0
LINE
  5
28E
330
27D
100
AcDbEntity
  8
1
  6
Continuous
 62
     7
100
AcDbLine
 10
-122.9990322581
 20
30.99983870970002
 30
65.0
 11
-287.9990322581
 21
30.99983870970002
 31
65.0
  0
LINE
  5
28F
330
27D
100
AcDbEntity
  8
1
  6
Continuous
 62
     7
100
AcDbLine
 10
-287.9990322581
 20
24.99983870970002
 30
65.0
 11
-127.9990322581
 21
24.99983870970002
 31
65.0
  0
LINE
  5
290
330
27D
100
AcDbEntity
  8
1
  6
Continuous
 62
     7
100
AcDbLine
 10
-287.9990322581
 20
18.99983870970001
 30
65.0
 11
-127.9990322581
 21
18.99983870970001
 31
65.0
  0
LINE
  5
291
330
27D
100
AcDbEntity
  8
1
  6
Continuous
 62
     7
100
AcDbLine
 10
-287.9990322581
 20
12.99983870970001
 30
65.0
 11
-127.9990322581
 21
12.99983870970001
 31
65.0
  0
LINE
  5
292
330
27D
100
AcDbEntity
  8
1
  6
Continuous
 62
     7
100
AcDbLine
 10
-54.99903225810003
 20
30.99983870970002
 30
65.0
 11
-54.99903225810003
 21
-0.0001612902999852
 31
65.0
  0
LINE
  5
293
330
27D
100
AcDbEntity
  8
1
  6
Continuous
 62
     7
100
AcDbLine
 10
-59.99903225810003
 20
-0.0001612902999852
 30
65.0
 11
-59.99903225810003
 21
30.99983870970002
 31
65.0
  0
LINE
  5
294
330
27D
100
AcDbEntity
  8
1
  6
Continuous
 62
     7
100
AcDbLine
 10
-75.99903225810002
 20
19.99983870970001
 30
65.0
 11
-75.99903225810002
 21
9.999838709700014
 31
65.0
  0
LINE
  5
295
330
27D
100
AcDbEntity
  8
1
  6
Continuous
 62
     7
100
AcDbLine
 10
-80.99903225810002
 20
9.999838709700014
 30
65.0
 11
-80.99903225810002
 21
19.99983870970001
 31
65.0
  0
LINE
  5
296
330
27D
100
AcDbEntity
  8
1
  6
Continuous
 62
     7
100
AcDbLine
 10
-96.99903225810006
 20
19.99983870970001
 30
65.0
 11
-96.99903225810006
 21
9.999838709700014
 31
65.0
  0
LINE
  5
297
330
27D
100
AcDbEntity
  8
1
  6
Continuous
 62
     7
100
AcDbLine
 10
-101.9990322581
 20
9.999838709700014
 30
65.0
 11
-101.9990322581
 21
19.99983870970001
 31
65.0
  0
LINE
  5
298
330
27D
100
AcDbEntity
  8
1
  6
Continuous
 62
     7
100
AcDbLine
 10
-117.9990322581
 20
30.99983870970002
 30
65.0
 11
-117.9990322581
 21
9.999838709700014
 31
65.0
  0
LINE
  5
299
330
27D
100
AcDbEntity
  8
1
  6
Continuous
 62
     7
100
AcDbLine
 10
-4.999032258100001
 20
30.99983870970002
 30
65.0
 11
-4.999032258100001
 21
19.99983870970001
 31
65.0
  0
LINE
  5
29A
330
27D
100
AcDbEntity
  8
1
  6
Continuous
 62
     7
100
AcDbLine
 10
-9.999032258100001
 20
30.99983870970002
 30
65.0
 11
-9.999032258100001
 21
19.99983870970001
 31
65.0
  0
LINE
  5
29B
330
27D
100
AcDbEntity
  8
1
  6
Continuous
 62
     7
100
AcDbLine
 10
-4.999032258100001
 20
9.999838709700014
 30
65.0
 11
-4.999032258100001
 21
-0.0001612902999852
 31
65.0
  0
LINE
  5
29C
330
27D
100
AcDbEntity
  8
1
  6
Continuous
 62
     7
100
AcDbLine
 10
-9.999032258100001
 20
9.999838709700014
 30
65.0
 11
-9.999032258100001
 21
-0.0001612902999852
 31
65.0
  0
LINE
  5
29D
330
27D
100
AcDbEntity
  8
1
  6
Continuous
 62
     7
100
AcDbLine
 10
-18.99903225810003
 20
9.999838709700014
 30
65.0
 11
-18.99903225810003
 21
-0.0001612902999852
 31
65.0
  0
LINE
  5
29E
330
27D
100
AcDbEntity
  8
1
  6
Continuous
 62
     7
100
AcDbLine
 10
-117.9990322581
 20
15.99983870970001
 30
65.0
 11
-101.9990322581
 21
15.99983870970001
 31
65.0
  0
LINE
  5
29F
330
27D
100
AcDbEntity
  8
1
  6
Continuous
 62
     7
100
AcDbLine
 10
-122.9990322581
 20
9.999838709700014
 30
65.0
 11
5.000967741899998
 21
9.999838709700014
 31
65.0
  0
LINE
  5
2A0
330
27D
100
AcDbEntity
  8
1
  6
Continuous
 62
     7
100
AcDbLine
 10
5.000967741899998
 20
19.99983870970001
 30
65.0
 11
-122.9990322581
 21
19.99983870970001
 31
65.0
  0
LINE
  5
2A1
330
27D
100
AcDbEntity
  8
1
  6
Continuous
 62
     7
100
AcDbLine
 10
-122.9990322581
 20
30.99983870970002
 30
65.0
 11
5.000967741899998
 21
30.99983870970002
 31
65.0
  0
LINE
  5
2A2
330
27D
100
AcDbEntity
  8
1
  6
Continuous
 62
     7
100
AcDbLine
 10
-122.9990322581
 20
30.99983870970002
 30
65.0
 11
-122.9990322581
 21
-0.0001612902999852
 31
65.0
  0
LINE
  5
2A3
330
27D
100
AcDbEntity
  8
1
  6
Continuous
 62
     7
100
AcDbLine
 10
-117.9990322581
 20
30.99983870970002
 30
65.0
 11
-117.9990322581
 21
9.999838709700014
 31
65.0
  0
TEXT
  5
2A4
330
27D
100
AcDbEntity
  8
1
  6
Continuous
 62
     7
100
AcDbText
 10
-122.2490325162
 20
25.74983841940002
 30
65.0
 40
3.5
  1
図
 41
1.153846153846153
 72
     5
 11
-118.7490325162
 21
25.74983841940002
 31
65.0
100
AcDbText
  0
TEXT
  5
2A5
330
27D
100
AcDbEntity
  8
1
  6
Continuous
 62
     7
100
AcDbText
 10
-101.2490325162
 20
10.74983841940002
 30
65.0
 40
3.5
  1
図
 41
1.153846153846153
 72
     5
 11
-97.74903251620004
 21
10.74983841940002
 31
65.0
100
AcDbText
  0
TEXT
  5
2A6
330
27D
100
AcDbEntity
  8
1
  6
Continuous
 62
     7
100
AcDbText
 10
-80.24903251620004
 20
10.74983841940002
 30
65.0
 40
3.5
  1
図
 41
1.153846153846153
 72
     5
 11
-76.74903251620005
 21
10.74983841940002
 31
65.0
100
AcDbText
  0
TEXT
  5
2A7
330
27D
100
AcDbEntity
  8
1
  6
Continuous
 62
     7
100
AcDbText
 10
-59.24903251620005
 20
4.74983841940002
 30
65.0
 40
3.5
  1
図
 41
1.153846153846153
 72
     5
 11
-55.74903251620004
 21
4.74983841940002
 31
65.0
100
AcDbText
  0
TEXT
  5
2A8
330
27D
100
AcDbEntity
  8
1
  6
Continuous
 62
     7
100
AcDbText
 10
-122.2490325162
 20
21.74983841940002
 30
65.0
 40
3.5
  1
名
 41
1.153846153846153
 72
     5
 11
-118.7490325162
 21
21.74983841940002
 31
65.0
100
AcDbText
  0
TEXT
  5
2A9
330
27D
100
AcDbEntity
  8
1
  6
Continuous
 62
     7
100
AcDbText
 10
-80.24903251620004
 20
14.74983841940002
 30
65.0
 40
3.5
  1
検
 41
1.071428571428571
 72
     5
 11
-76.74903251620005
 21
14.74983841940002
 31
65.0
100
AcDbText
  0
TEXT
  5
2AA
330
27D
100
AcDbEntity
  8
1
  6
Continuous
 62
     7
100
AcDbText
 10
-59.24903251620005
 20
0.749838419400021
 30
65.0
 40
3.5
  1
番
 41
1.071428571428571
 72
     5
 11
-55.74903251620004
 21
0.749838419400021
 31
65.0
100
AcDbText
  0
TEXT
  5
2AB
330
27D
100
AcDbEntity
  8
1
  6
Continuous
 62
     7
100
AcDbText
 10
-122.2490325162
 20
14.74983841940002
 30
65.0
 40
3.5
  1
設
 41
1.071428571428571
 72
     5
 11
-118.7490325162
 21
14.74983841940002
 31
65.0
100
AcDbText
  0
TEXT
  5
2AC
330
27D
100
AcDbEntity
  8
1
  6
Continuous
 62
     7
100
AcDbText
 10
-122.2490325162
 20
10.74983841940002
 30
65.0
 40
3.5
  1
計
 41
1.071428571428571
 72
     5
 11
-118.7490325162
 21
10.74983841940002
 31
65.0
100
AcDbText
  0
TEXT
  5
2AD
330
27D
100
AcDbEntity
  8
1
  6
Continuous
 62
     7
100
AcDbText
 10
-59.24903251620005
 20
14.74983841940002
 30
65.0
 40
3.5
  1
記
 41
1.071428571428571
 72
     5
 11
-55.74903251620004
 21
14.74983841940002
 31
65.0
100
AcDbText
  0
TEXT
  5
2AE
330
27D
100
AcDbEntity
  8
1
  6
Continuous
 62
     7
100
AcDbText
 10
-59.24903251620005
 20
10.74983841940002
 30
65.0
 40
3.5
  1
事
 41
1.071428571428571
 72
     5
 11
-55.74903251620004
 21
10.74983841940002
 31
65.0
100
AcDbText
  0
TEXT
  5
2AF
330
27D
100
AcDbEntity
  8
1
  6
Continuous
 62
     7
100
AcDbText
 10
-9.249032516200045
 20
25.74983841940002
 30
65.0
 40
3.5
  1
縮
 41
1.071428571428571
 72
     5
 11
-5.749032516200045
 21
25.74983841940002
 31
65.0
100
AcDbText
  0
TEXT
  5
2B0
330
27D
100
AcDbEntity
  8
1
  6
Continuous
 62
     7
100
AcDbText
 10
-9.249032516200045
 20
21.74983841940002
 30
65.0
 40
3.5
  1
尺
 41
1.071428571428571
 72
     5
 11
-5.749032516200045
 21
21.74983841940002
 31
65.0
100
AcDbText
  0
TEXT
  5
2B1
330
27D
100
AcDbEntity
  8
1
  6
Continuous
 62
     7
100
AcDbText
 10
-119.7490325162
 20
2.74983841940002
 30
65.0
 40
4.5
  1
伊藤鉄工株式会社
 41
1.369047619047618
 72
     5
 11
-62.24903251620005
 21
2.74983841940002
 31
65.0
100
AcDbText
  0
TEXT
  5
2B2
330
27D
100
AcDbEntity
  8
1
  6
Continuous
 62
     7
100
AcDbText
 10
-9.249032516200045
 20
5.99983841940002
 30
65.0
 40
3.0
  1
葉
 41
1.25
 72
     5
 11
-5.749032516200045
 21
5.99983841940002
 31
65.0
100
AcDbText
  0
TEXT
  5
2B3
330
27D
100
AcDbEntity
  8
1
  6
Continuous
 62
     7
100
AcDbText
 10
-9.249032516200045
 20
3.49983841940002
 30
65.0
 40
3.0
  1
ノ
 41
1.59090909090909
 72
     5
 11
-5.749032516200045
 21
3.49983841940002
 31
65.0
100
AcDbText
  0
TEXT
  5
2B4
330
27D
100
AcDbEntity
  8
1
  6
Continuous
 62
     7
100
AcDbText
 10
-9.249032516200045
 20
0.9998384194000209
 30
65.0
 40
3.0
  1
内
 41
1.346153846153846
 72
     5
 11
-5.749032516200045
 21
0.9998384194000209
 31
65.0
100
AcDbText
  0
LINE
  5
2B5
330
27D
100
AcDbEntity
  8
1
  6
Continuous
 62
     7
100
AcDbLine
 10
-122.9990322581
 20
30.99983870970002
 30
65.0
 11
-122.9990322581
 21
-0.0001612902999852
 31
65.0
  0
TEXT
  5
2B6
330
27D
100
AcDbEntity
  8
1
  6
Continuous
 62
     7
100
AcDbText
 10
-101.2490325162
 20
14.74983841940002
 30
65.0
 40
3.5
  1
製
 41
1.071428571428571
 72
     5
 11
-97.74903251620004
 21
14.74983841940002
 31
65.0
100
AcDbText
  0
LINE
  5
2B7
330
27D
100
AcDbEntity
  8
1
  6
Continuous
 62
     7
100
AcDbLine
 10
-69.62582009380001
 20
41.15905988960003
 30
65.0
 11
-65.90573309380004
 21
41.15905988960003
 31
65.0
  0
ARC
  5
2B8
330
27D
100
AcDbEntity
  8
1
  6
Continuous
 62
     7
100
AcDbCircle
 10
-60.94561709380004
 20
39.91903088960004
 30
65.0
 40
1.240029
100
AcDbArc
 50
90.0
 51
180.0
  0
LINE
  5
2B9
330
27D
100
AcDbEntity
  8
1
  6
Continuous
 62
     7
100
AcDbLine
 10
-56.19217259380004
 20
41.15905988960003
 30
65.0
 11
-60.94561709380004
 21
41.15905988960003
 31
65.0
  0
ARC
  5
2BA
330
27D
100
AcDbEntity
  8
1
  6
Continuous
 62
     7
100
AcDbCircle
 10
-56.19217259380004
 20
39.91903088960004
 30
65.0
 40
1.240029
100
AcDbArc
 50
0.0
 51
90.0
  0
ARC
  5
2BB
330
27D
100
AcDbEntity
  8
1
  6
Continuous
 62
     7
100
AcDbCircle
 10
-45.44525459380001
 20
39.91903088960004
 30
65.0
 40
1.240029
100
AcDbArc
 50
0.0
 51
90.0
  0
LINE
  5
2BC
330
27D
100
AcDbEntity
  8
1
  6
Continuous
 62
     7
100
AcDbLine
 10
-49.99202759380001
 20
41.15905988960003
 30
65.0
 11
-45.44525459380001
 21
41.15905988960003
 31
65.0
  0
ARC
  5
2BD
330
27D
100
AcDbEntity
  8
1
  6
Continuous
 62
     7
100
AcDbCircle
 10
-49.99202759380001
 20
39.91903088960004
 30
65.0
 40
1.240029
100
AcDbArc
 50
90.0
 51
180.0
  0
LINE
  5
2BE
330
27D
100
AcDbEntity
  8
1
  6
Continuous
 62
     7
100
AcDbLine
 10
-69.62582009380001
 20
40.33237388960003
 30
65.0
 11
-68.59246259380002
 21
40.33237388960003
 31
65.0
  0
LINE
  5
2BF
330
27D
100
AcDbEntity
  8
1
  6
Continuous
 62
     7
100
AcDbLine
 10
-68.59246259380002
 20
40.33237388960003
 30
65.0
 11
-68.59246259380002
 21
34.95891488960001
 31
65.0
  0
LINE
  5
2C0
330
27D
100
AcDbEntity
  8
1
  6
Continuous
 62
     7
100
AcDbLine
 10
-66.93909059380003
 20
34.95891488960001
 30
65.0
 11
-66.93909059380003
 21
40.33237388960003
 31
65.0
  0
LINE
  5
2C1
330
27D
100
AcDbEntity
  8
1
  6
Continuous
 62
     7
100
AcDbLine
 10
-66.93909059380003
 20
40.33237388960003
 30
65.0
 11
-65.90573309380004
 21
40.33237388960003
 31
65.0
  0
LINE
  5
2C2
330
27D
100
AcDbEntity
  8
1
  6
Continuous
 62
     7
100
AcDbLine
 10
-65.90573309380004
 20
41.15905988960003
 30
65.0
 11
-65.90573309380004
 21
40.33237388960003
 31
65.0
  0
LINE
  5
2C3
330
27D
100
AcDbEntity
  8
1
  6
Continuous
 62
     7
100
AcDbLine
 10
-69.62582009380001
 20
40.33237388960003
 30
65.0
 11
-69.62582009380001
 21
41.15905988960003
 31
65.0
  0
LINE
  5
2C4
330
27D
100
AcDbEntity
  8
1
  6
Continuous
 62
     7
100
AcDbLine
 10
-96.99903225810006
 20
15.99983870970001
 30
65.0
 11
-80.99903225810002
 21
15.99983870970001
 31
65.0
  0
LINE
  5
2C5
330
27D
100
AcDbEntity
  8
1
  6
Continuous
 62
     7
100
AcDbLine
 10
-75.99903225810002
 20
15.99983870970001
 30
65.0
 11
-59.99903225810003
 21
15.99983870970001
 31
65.0
  0
TEXT
  5
2C6
330
27D
100
AcDbEntity
  8
1
  6
Continuous
 62
     7
100
AcDbText
 10
-59.24903251620005
 20
25.74983841940002
 30
65.0
 40
3.5
  1
符
 41
1.071428571428571
 72
     5
 11
-55.74903251620004
 21
25.74983841940002
 31
65.0
100
AcDbText
  0
TEXT
  5
2C7
330
27D
100
AcDbEntity
  8
1
  6
Continuous
 62
     7
100
AcDbText
 10
-59.24903251620005
 20
21.74983841940002
 30
65.0
 40
3.5
  1
号
 41
1.071428571428571
 72
     5
 11
-55.74903251620004
 21
21.74983841940002
 31
65.0
100
AcDbText
  0
LINE
  5
2C8
330
27D
100
AcDbEntity
  8
1
  6
Continuous
 62
     7
100
AcDbLine
 10
-65.90573309380004
 20
34.13222888960002
 30
65.0
 11
-69.62582009380001
 21
34.13222888960002
 31
65.0
  0
CIRCLE
  5
2C9
330
27D
100
AcDbEntity
  8
1
  6
Continuous
 62
     7
100
AcDbCircle
 10
-64.25236109380001
 20
34.95891488960001
 30
65.0
 40
0.8266860000000001
  0
LINE
  5
2CA
330
27D
100
AcDbEntity
  8
1
  6
Continuous
 62
     7
100
AcDbLine
 10
-56.60551559380003
 20
34.95891488960001
 30
65.0
 11
-56.60551559380003
 21
34.13222888960002
 31
65.0
  0
LINE
  5
2CB
330
27D
100
AcDbEntity
  8
1
  6
Continuous
 62
     7
100
AcDbLine
 10
-56.60551559380003
 20
34.13222888960002
 30
65.0
 11
-54.95214359380002
 21
34.13222888960002
 31
65.0
  0
ARC
  5
2CC
330
27D
100
AcDbEntity
  8
1
  6
Continuous
 62
     7
100
AcDbCircle
 10
-60.94561709380004
 20
35.37225788960004
 30
65.0
 40
1.240029
100
AcDbArc
 50
180.0
 51
270.0
  0
LINE
  5
2CD
330
27D
100
AcDbEntity
  8
1
  6
Continuous
 62
     7
100
AcDbLine
 10
-60.94561709380004
 20
34.13222888960002
 30
65.0
 11
-60.53227409380001
 21
34.13222888960002
 31
65.0
  0
LINE
  5
2CE
330
27D
100
AcDbEntity
  8
1
  6
Continuous
 62
     7
100
AcDbLine
 10
-62.18564609380003
 20
35.37225788960004
 30
65.0
 11
-62.18564609380003
 21
39.91903088960004
 31
65.0
  0
CIRCLE
  5
2CF
330
27D
100
AcDbEntity
  8
1
  6
Continuous
 62
     7
100
AcDbCircle
 10
-53.50544309380002
 20
34.95891488960001
 30
65.0
 40
0.8266860000000001
  0
ARC
  5
2D0
330
27D
100
AcDbEntity
  8
1
  6
Continuous
 62
     7
100
AcDbCircle
 10
-49.99202759380001
 20
35.37225788960004
 30
65.0
 40
1.240029
100
AcDbArc
 50
180.0
 51
270.0
  0
LINE
  5
2D1
330
27D
100
AcDbEntity
  8
1
  6
Continuous
 62
     7
100
AcDbLine
 10
-45.44525459380001
 20
34.13222888960002
 30
65.0
 11
-49.99202759380001
 21
34.13222888960002
 31
65.0
  0
ARC
  5
2D2
330
27D
100
AcDbEntity
  8
1
  6
Continuous
 62
     7
100
AcDbCircle
 10
-45.44525459380001
 20
35.37225788960004
 30
65.0
 40
1.240029
100
AcDbArc
 50
270.0
 51
0.0
  0
LINE
  5
2D3
330
27D
100
AcDbEntity
  8
1
  6
Continuous
 62
     7
100
AcDbLine
 10
-51.23205659380004
 20
35.37225788960004
 30
65.0
 11
-51.23205659380004
 21
36.40561538960003
 31
65.0
  0
LINE
  5
2D4
330
27D
100
AcDbEntity
  8
1
  6
Continuous
 62
     7
100
AcDbLine
 10
-44.20522559380002
 20
39.91903088960004
 30
65.0
 11
-44.20522559380002
 21
38.88567338960001
 31
65.0
  0
CIRCLE
  5
2D5
330
27D
100
AcDbEntity
  8
1
  6
Continuous
 62
     7
100
AcDbCircle
 10
-42.75852509380003
 20
34.95891488960001
 30
65.0
 40
0.8266860000000001
  0
LINE
  5
2D6
330
27D
100
AcDbEntity
  8
1
  6
Continuous
 62
     7
100
AcDbLine
 10
-54.95214359380002
 20
39.09234488960001
 30
65.0
 11
-56.39884409380004
 21
39.09234488960001
 31
65.0
  0
LINE
  5
2D7
330
27D
100
AcDbEntity
  8
1
  6
Continuous
 62
     7
100
AcDbLine
 10
-56.39884409380004
 20
39.09234488960001
 30
65.0
 11
-56.39884409380004
 21
39.71235938960001
 31
65.0
  0
LINE
  5
2D8
330
27D
100
AcDbEntity
  8
1
  6
Continuous
 62
     7
100
AcDbLine
 10
-56.39884409380004
 20
39.71235938960001
 30
65.0
 11
-60.73894559380001
 21
39.71235938960001
 31
65.0
  0
LINE
  5
2D9
330
27D
100
AcDbEntity
  8
1
  6
Continuous
 62
     7
100
AcDbLine
 10
-60.73894559380001
 20
39.71235938960001
 30
65.0
 11
-60.73894559380001
 21
35.57892938960004
 31
65.0
  0
LINE
  5
2DA
330
27D
100
AcDbEntity
  8
1
  6
Continuous
 62
     7
100
AcDbLine
 10
-56.39884409380004
 20
37.02562988960003
 30
65.0
 11
-58.46555909380002
 21
37.02562988960003
 31
65.0
  0
LINE
  5
2DB
330
27D
100
AcDbEntity
  8
1
  6
Continuous
 62
     7
100
AcDbLine
 10
-58.46555909380002
 20
37.02562988960003
 30
65.0
 11
-58.46555909380002
 21
38.26565888960002
 31
65.0
  0
LINE
  5
2DC
330
27D
100
AcDbEntity
  8
1
  6
Continuous
 62
     7
100
AcDbLine
 10
-54.95214359380002
 20
39.09234488960001
 30
65.0
 11
-54.95214359380002
 21
39.91903088960004
 31
65.0
  0
LINE
  5
2DD
330
27D
100
AcDbEntity
  8
1
  6
Continuous
 62
     7
100
AcDbLine
 10
-56.39884409380004
 20
36.40561538960003
 30
65.0
 11
-56.39884409380004
 21
37.02562988960003
 31
65.0
  0
LINE
  5
2DE
330
27D
100
AcDbEntity
  8
1
  6
Continuous
 62
     7
100
AcDbLine
 10
-56.19217259380004
 20
38.26565888960002
 30
65.0
 11
-58.46555909380002
 21
38.26565888960002
 31
65.0
  0
LINE
  5
2DF
330
27D
100
AcDbEntity
  8
1
  6
Continuous
 62
     7
100
AcDbLine
 10
-54.95214359380002
 20
37.02562988960003
 30
65.0
 11
-54.95214359380002
 21
34.13222888960002
 31
65.0
  0
ARC
  5
2E0
330
27D
100
AcDbEntity
  8
1
  6
Continuous
 62
     7
100
AcDbCircle
 10
-56.19217259380004
 20
37.02562988960003
 30
65.0
 40
1.240029
100
AcDbArc
 50
0.0
 51
90.0
  0
LINE
  5
2E1
330
27D
100
AcDbEntity
  8
1
  6
Continuous
 62
     7
100
AcDbLine
 10
-58.10710069440005
 20
36.40561538960003
 30
65.0
 11
-56.39884409380004
 21
36.40561538960003
 31
65.0
  0
ARC
  5
2E2
330
27D
100
AcDbEntity
  8
1
  6
Continuous
 62
     7
100
AcDbCircle
 10
-58.10710069440005
 20
35.16558638960004
 30
65.0
 40
1.240029
100
AcDbArc
 50
90.0
 51
119.7448812969
  0
LINE
  5
2E3
330
27D
100
AcDbEntity
  8
1
  6
Continuous
 62
     7
100
AcDbLine
 10
-60.21241640110007
 20
35.57892938960004
 30
65.0
 11
-60.73894559380001
 21
35.57892938960004
 31
65.0
  0
LINE
  5
2E4
330
27D
100
AcDbEntity
  8
1
  6
Continuous
 62
     7
100
AcDbLine
 10
-59.59718972950007
 20
35.74231171430003
 30
65.0
 11
-58.72232736600004
 21
36.24223306480002
 31
65.0
  0
ARC
  5
2E5
330
27D
100
AcDbEntity
  8
1
  6
Continuous
 62
     7
100
AcDbCircle
 10
-60.21241640110007
 20
36.81895838960003
 30
65.0
 40
1.240029
100
AcDbArc
 50
270.0
 51
299.7448812969
  0
ARC
  5
2E6
330
27D
100
AcDbEntity
  8
1
  6
Continuous
 62
     7
100
AcDbCircle
 10
-57.72290849050005
 20
33.71888588960002
 30
65.0
 40
1.240029
100
AcDbArc
 50
90.0
 51
119.7448812969
  0
LINE
  5
2E7
330
27D
100
AcDbEntity
  8
1
  6
Continuous
 62
     7
100
AcDbLine
 10
-59.82822419720001
 20
34.13222888960002
 30
65.0
 11
-60.94561709380004
 21
34.13222888960002
 31
65.0
  0
ARC
  5
2E8
330
27D
100
AcDbEntity
  8
1
  6
Continuous
 62
     7
100
AcDbCircle
 10
-59.82822419720001
 20
35.37225788960004
 30
65.0
 40
1.240029
100
AcDbArc
 50
270.0
 51
299.7448812969
  0
LINE
  5
2E9
330
27D
100
AcDbEntity
  8
1
  6
Continuous
 62
     7
100
AcDbLine
 10
-58.33813516210004
 20
34.79553256480003
 30
65.0
 11
-59.21299752560002
 21
34.29561121430004
 31
65.0
  0
LINE
  5
2EA
330
27D
100
AcDbEntity
  8
1
  6
Continuous
 62
     7
100
AcDbLine
 10
-57.72290849050005
 20
34.95891488960001
 30
65.0
 11
-56.60551559380003
 21
34.95891488960001
 31
65.0
  0
LINE
  5
2EB
330
27D
100
AcDbEntity
  8
1
  6
Continuous
 62
     7
100
AcDbLine
 10
-68.59246259380002
 20
34.95891488960001
 30
65.0
 11
-69.62582009380001
 21
34.95891488960001
 31
65.0
  0
LINE
  5
2EC
330
27D
100
AcDbEntity
  8
1
  6
Continuous
 62
     7
100
AcDbLine
 10
-66.93909059380003
 20
34.95891488960001
 30
65.0
 11
-65.90573309380004
 21
34.95891488960001
 31
65.0
  0
LINE
  5
2ED
330
27D
100
AcDbEntity
  8
1
  6
Continuous
 62
     7
100
AcDbLine
 10
-69.62582009380001
 20
34.13222888960002
 30
65.0
 11
-69.62582009380001
 21
34.95891488960001
 31
65.0
  0
LINE
  5
2EE
330
27D
100
AcDbEntity
  8
1
  6
Continuous
 62
     7
100
AcDbLine
 10
-65.90573309380004
 20
34.95891488960001
 30
65.0
 11
-65.90573309380004
 21
34.13222888960002
 31
65.0
  0
LINE
  5
2EF
330
27D
100
AcDbEntity
  8
1
  6
Continuous
 62
     7
100
AcDbLine
 10
-49.78535609380002
 20
39.71235938960001
 30
65.0
 11
-45.65192609380001
 21
39.71235938960001
 31
65.0
  0
LINE
  5
2F0
330
27D
100
AcDbEntity
  8
1
  6
Continuous
 62
     7
100
AcDbLine
 10
-45.65192609380001
 20
39.71235938960001
 30
65.0
 11
-45.65192609380001
 21
38.88567338960001
 31
65.0
  0
LINE
  5
2F1
330
27D
100
AcDbEntity
  8
1
  6
Continuous
 62
     7
100
AcDbLine
 10
-49.78535609380002
 20
36.40561538960003
 30
65.0
 11
-49.78535609380002
 21
35.57892938960004
 31
65.0
  0
LINE
  5
2F2
330
27D
100
AcDbEntity
  8
1
  6
Continuous
 62
     7
100
AcDbLine
 10
-49.78535609380002
 20
35.57892938960004
 30
65.0
 11
-45.65192609380001
 21
35.57892938960004
 31
65.0
  0
LINE
  5
2F3
330
27D
100
AcDbEntity
  8
1
  6
Continuous
 62
     7
100
AcDbLine
 10
-49.78535609380002
 20
36.40561538960003
 30
65.0
 11
-51.23205659380004
 21
36.40561538960003
 31
65.0
  0
LINE
  5
2F4
330
27D
100
AcDbEntity
  8
1
  6
Continuous
 62
     7
100
AcDbLine
 10
-44.20522559380002
 20
38.88567338960001
 30
65.0
 11
-45.65192609380001
 21
38.88567338960001
 31
65.0
  0
LINE
  5
2F5
330
27D
100
AcDbEntity
  8
1
  6
Continuous
 62
     7
100
AcDbLine
 10
-45.65192609380001
 20
35.57892938960004
 30
65.0
 11
-45.65192609380001
 21
37.02562988960003
 31
65.0
  0
LINE
  5
2F6
330
27D
100
AcDbEntity
  8
1
  6
Continuous
 62
     7
100
AcDbLine
 10
-49.78535609380002
 20
38.26565888960002
 30
65.0
 11
-49.78535609380002
 21
39.71235938960001
 31
65.0
  0
LINE
  5
2F7
330
27D
100
AcDbEntity
  8
1
  6
Continuous
 62
     7
100
AcDbLine
 10
-44.20522559380002
 20
37.02562988960003
 30
65.0
 11
-44.20522559380002
 21
35.37225788960004
 31
65.0
  0
LINE
  5
2F8
330
27D
100
AcDbEntity
  8
1
  6
Continuous
 62
     7
100
AcDbLine
 10
-45.44525459380001
 20
38.26565888960002
 30
65.0
 11
-49.78535609380002
 21
38.26565888960002
 31
65.0
  0
ARC
  5
2F9
330
27D
100
AcDbEntity
  8
1
  6
Continuous
 62
     7
100
AcDbCircle
 10
-45.44525459380001
 20
37.02562988960003
 30
65.0
 40
1.240029
100
AcDbArc
 50
0.0
 51
90.0
  0
LINE
  5
2FA
330
27D
100
AcDbEntity
  8
1
  6
Continuous
 62
     7
100
AcDbLine
 10
-49.99202759400002
 20
37.02562988960003
 30
65.0
 11
-45.65192609380001
 21
37.02562988960003
 31
65.0
  0
LINE
  5
2FB
330
27D
100
AcDbEntity
  8
1
  6
Continuous
 62
     7
100
AcDbLine
 10
-51.23205659380004
 20
38.26565888960002
 30
65.0
 11
-51.23205659380004
 21
39.91903088960004
 31
65.0
  0
ARC
  5
2FC
330
27D
100
AcDbEntity
  8
1
  6
Continuous
 62
     7
100
AcDbCircle
 10
-49.99202759400002
 20
38.26565888960002
 30
65.0
 40
1.240029
100
AcDbArc
 50
180.0
 51
270.0
  0
LINE
  5
2FD
330
27D
100
AcDbEntity
  8
1
  6
Continuous
 62
     7
100
AcDbLine
 10
-4.999032258100001
 20
-0.0001612902999852
 30
65.0
 11
5.000967741899998
 21
9.999838709700014
 31
65.0
  0
LINE
  5
2FE
330
27D
100
AcDbEntity
  8
1
  6
Continuous
 62
     7
100
AcDbLine
 10
-4.999032258100001
 20
19.99983870970001
 30
65.0
 11
5.000967741899998
 21
30.99983870970002
 31
65.0
  0
TEXT
  5
2FF
330
27D
100
AcDbEntity
  8
1
  6
Continuous
 62
     7
100
AcDbText
 10
-179.7089845162
 20
23.95225941940004
 30
65.0
 40
8.0
  1
△
 41
1.153846153846153
 72
     5
 11
-171.7089845162
 21
23.95225941940004
 31
65.0
100
AcDbText
  0
TEXT
  5
300
330
27D
100
AcDbEntity
  8
1
  6
Continuous
 62
     7
100
AcDbText
 10
-204.7089845162
 20
23.95225941940004
 30
65.0
 40
8.0
  1
△
 41
1.153846153846153
 72
     5
 11
-196.7089845162
 21
23.95225941940004
 31
65.0
100
AcDbText
  0
TEXT
  5
301
330
27D
100
AcDbEntity
  8
1
  6
Continuous
 62
     7
100
AcDbText
 10
-229.7089845162
 20
23.95225941940004
 30
65.0
 40
8.0
  1
△
 41
1.153846153846153
 72
     5
 11
-221.7089845162
 21
23.95225941940004
 31
65.0
100
AcDbText
  0
TEXT
  5
302
330
27D
100
AcDbEntity
  8
1
  6
Continuous
 62
     7
100
AcDbText
 10
-254.7089845162
 20
23.95225941940004
 30
65.0
 40
8.0
  1
△
 41
1.153846153846153
 72
     5
 11
-246.7089845162
 21
23.95225941940004
 31
65.0
100
AcDbText
  0
TEXT
  5
303
330
27D
100
AcDbEntity
  8
1
  6
Continuous
 62
     7
100
AcDbText
 10
-279.7089845162
 20
23.95225941940004
 30
65.0
 40
8.0
  1
△
 41
1.153846153846153
 72
     5
 11
-271.7089845162
 21
23.95225941940004
 31
65.0
100
AcDbText
  0
LINE
  5
304
330
27D
100
AcDbEntity
  8
0
100
AcDbLine
 10
-287.9990322581
 20
-0.0001612902999852
 30
65.0
 11
5.000967741899998
 21
-0.0001612902999852
 31
65.0
  0
LINE
  5
305
330
27D
100
AcDbEntity
  8
0
100
AcDbLine
 10
5.000967741899998
 20
-0.0001612902999852
 30
65.0
 11
5.000967741899998
 21
30.99983870970002
 31
65.0
  0
ENDBLK
  5
307
330
27D
100
AcDbEntity
  8
0
100
AcDbBlockEnd
  0
BLOCK
  5
3B8
330
335
100
AcDbEntity
  8
0
100
AcDbBlockBegin
  2
IGS2
 70
     2
 10
0.0
 20
0.0
 30
0.0
  3
IGS2
  1

  0
POINT
  5
336
330
335
100
AcDbEntity
  8
0
 60
     1
100
AcDbPoint
 10
0.0
 20
0.0
 30
0.0
1001
GENIUS_GENODEF_13
1002
{
1000
HIER
1070
     1
1002
}
1002
{
1000
MANEDIT
1070
     0
1002
}
1002
{
1000
NOSEL
1070
     0
1002
}
1002
{
1000
BEHIND
1070
     0
1002
}
1002
{
1000
REACTOR
1002
}
1001
GENIUS_GENTITLE_13
1002
{
1000
SCALE
1000
1:1
1002
}
1002
{
1000
BORDER
1000
IGS-A4
1002
}
1002
{
1000
TITLE
1000
IGS-TITLE
1002
}
1002
{
1000
UNCHG
1002
{
1000
GEN-TITLE-SCA
1000
GEN-TITLE-SIZ
1002
}
1002
}
1002
{
1000
HRA
1005
0
1002
}
1002
{
1000
HTIT
1005
0
1002
}
1002
{
1000
GENIUSID
1005
336
1002
}
1001
GENIUS_GENOBJ-N-TIT_13
1002
{
1000
OWNER
1000
GEN
1002
}
1001
GENIUS_GENOENT_13
1002
{
1000
MYREF
1005
336
1002
}
1002
{
1000
GRP
1005
0
1002
}
1001
GENIUS_GENOLIS_13
1002
{
1000
ENT
1005
0
1005
0
1002
}
  0
LINE
  5
337
330
335
100
AcDbEntity
  8
RAHM3
100
AcDbLine
 10
-148.4080564410193
 20
8.825237325416161
 30
52.0
 11
-145.4319868410194
 21
8.825237325416161
 31
52.0
  0
ARC
  5
338
330
335
100
AcDbEntity
  8
RAHM3
100
AcDbCircle
 10
-141.4638940410194
 20
7.833214125416168
 30
52.0
 40
0.9920232
100
AcDbArc
 50
90.0
 51
180.0
  0
LINE
  5
339
330
335
100
AcDbEntity
  8
RAHM3
100
AcDbLine
 10
-137.6611384410193
 20
8.825237325416161
 30
52.0
 11
-141.4638940410194
 21
8.825237325416161
 31
52.0
  0
ARC
  5
33A
330
335
100
AcDbEntity
  8
RAHM3
100
AcDbCircle
 10
-137.6611384410193
 20
7.833214125416168
 30
52.0
 40
0.9920232
100
AcDbArc
 50
0.0
 51
90.0
  0
ARC
  5
33B
330
335
100
AcDbEntity
  8
RAHM3
100
AcDbCircle
 10
-129.0636040410194
 20
7.833214125416168
 30
52.0
 40
0.9920232
100
AcDbArc
 50
0.0
 51
90.0
  0
LINE
  5
33C
330
335
100
AcDbEntity
  8
RAHM3
100
AcDbLine
 10
-132.7010224410193
 20
8.825237325416161
 30
52.0
 11
-129.0636040410194
 21
8.825237325416161
 31
52.0
  0
ARC
  5
33D
330
335
100
AcDbEntity
  8
RAHM3
100
AcDbCircle
 10
-132.7010224410193
 20
7.833214125416168
 30
52.0
 40
0.9920232
100
AcDbArc
 50
90.0
 51
180.0
  0
LINE
  5
33E
330
335
100
AcDbEntity
  8
RAHM3
100
AcDbLine
 10
-148.4080564410193
 20
8.163888525416165
 30
52.0
 11
-147.5813704410193
 21
8.163888525416165
 31
52.0
  0
LINE
  5
33F
330
335
100
AcDbEntity
  8
RAHM3
100
AcDbLine
 10
-147.5813704410193
 20
8.163888525416165
 30
52.0
 11
-147.5813704410193
 21
3.865121325416145
 31
52.0
  0
LINE
  5
340
330
335
100
AcDbEntity
  8
RAHM3
100
AcDbLine
 10
-146.2586728410194
 20
3.865121325416145
 30
52.0
 11
-146.2586728410194
 21
8.163888525416165
 31
52.0
  0
LINE
  5
341
330
335
100
AcDbEntity
  8
RAHM3
100
AcDbLine
 10
-146.2586728410194
 20
8.163888525416165
 30
52.0
 11
-145.4319868410194
 21
8.163888525416165
 31
52.0
  0
LINE
  5
342
330
335
100
AcDbEntity
  8
RAHM3
100
AcDbLine
 10
-145.4319868410194
 20
8.825237325416161
 30
52.0
 11
-145.4319868410194
 21
8.163888525416165
 31
52.0
  0
LINE
  5
343
330
335
100
AcDbEntity
  8
RAHM3
100
AcDbLine
 10
-148.4080564410193
 20
8.163888525416165
 30
52.0
 11
-148.4080564410193
 21
8.825237325416161
 31
52.0
  0
LINE
  5
344
330
335
100
AcDbEntity
  8
RAHM3
100
AcDbLine
 10
-145.4319868410194
 20
3.203772525416149
 30
52.0
 11
-148.4080564410193
 21
3.203772525416149
 31
52.0
  0
CIRCLE
  5
345
330
335
100
AcDbEntity
  8
RAHM3
100
AcDbCircle
 10
-144.1092892410194
 20
3.865121325416145
 30
52.0
 40
0.6613488000000001
  0
LINE
  5
346
330
335
100
AcDbEntity
  8
RAHM3
100
AcDbLine
 10
-137.9918128410194
 20
3.865121325416145
 30
52.0
 11
-137.9918128410194
 21
3.203772525416149
 31
52.0
  0
LINE
  5
347
330
335
100
AcDbEntity
  8
RAHM3
100
AcDbLine
 10
-137.9918128410194
 20
3.203772525416149
 30
52.0
 11
-136.6691152410193
 21
3.203772525416149
 31
52.0
  0
ARC
  5
348
330
335
100
AcDbEntity
  8
RAHM3
100
AcDbCircle
 10
-141.4638940410194
 20
4.195795725416166
 30
52.0
 40
0.9920232
100
AcDbArc
 50
180.0
 51
270.0
  0
LINE
  5
349
330
335
100
AcDbEntity
  8
RAHM3
100
AcDbLine
 10
-141.4638940410194
 20
3.203772525416149
 30
52.0
 11
-141.1332196410193
 21
3.203772525416149
 31
52.0
  0
LINE
  5
34A
330
335
100
AcDbEntity
  8
RAHM3
100
AcDbLine
 10
-142.4559172410194
 20
4.195795725416166
 30
52.0
 11
-142.4559172410194
 21
7.833214125416168
 31
52.0
  0
CIRCLE
  5
34B
330
335
100
AcDbEntity
  8
RAHM3
100
AcDbCircle
 10
-135.5117548410193
 20
3.865121325416145
 30
52.0
 40
0.6613488000000001
  0
ARC
  5
34C
330
335
100
AcDbEntity
  8
RAHM3
100
AcDbCircle
 10
-132.7010224410193
 20
4.195795725416166
 30
52.0
 40
0.9920232
100
AcDbArc
 50
180.0
 51
270.0
  0
LINE
  5
34D
330
335
100
AcDbEntity
  8
RAHM3
100
AcDbLine
 10
-129.0636040410194
 20
3.203772525416149
 30
52.0
 11
-132.7010224410193
 21
3.203772525416149
 31
52.0
  0
ARC
  5
34E
330
335
100
AcDbEntity
  8
RAHM3
100
AcDbCircle
 10
-129.0636040410194
 20
4.195795725416166
 30
52.0
 40
0.9920232
100
AcDbArc
 50
270.0
 51
0.0
  0
LINE
  5
34F
330
335
100
AcDbEntity
  8
RAHM3
100
AcDbLine
 10
-133.6930456410194
 20
4.195795725416166
 30
52.0
 11
-133.6930456410194
 21
5.022481725416161
 31
52.0
  0
LINE
  5
350
330
335
100
AcDbEntity
  8
RAHM3
100
AcDbLine
 10
-128.0715808410194
 20
7.833214125416168
 30
52.0
 11
-128.0715808410194
 21
7.00652812541615
 31
52.0
  0
CIRCLE
  5
351
330
335
100
AcDbEntity
  8
RAHM3
100
AcDbCircle
 10
-126.9142204410194
 20
3.865121325416145
 30
52.0
 40
0.6613488000000001
  0
LINE
  5
352
330
335
100
AcDbEntity
  8
RAHM3
100
AcDbLine
 10
-136.6691152410193
 20
7.171865325416149
 30
52.0
 11
-137.8264756410194
 21
7.171865325416149
 31
52.0
  0
LINE
  5
353
330
335
100
AcDbEntity
  8
RAHM3
100
AcDbLine
 10
-137.8264756410194
 20
7.171865325416149
 30
52.0
 11
-137.8264756410194
 21
7.667876925416146
 31
52.0
  0
LINE
  5
354
330
335
100
AcDbEntity
  8
RAHM3
100
AcDbLine
 10
-137.8264756410194
 20
7.667876925416146
 30
52.0
 11
-141.2985568410193
 21
7.667876925416146
 31
52.0
  0
LINE
  5
355
330
335
100
AcDbEntity
  8
RAHM3
100
AcDbLine
 10
-141.2985568410193
 20
7.667876925416146
 30
52.0
 11
-141.2985568410193
 21
4.361132925416165
 31
52.0
  0
LINE
  5
356
330
335
100
AcDbEntity
  8
RAHM3
100
AcDbLine
 10
-137.8264756410194
 20
5.518493325416158
 30
52.0
 11
-139.4798476410193
 21
5.518493325416158
 31
52.0
  0
LINE
  5
357
330
335
100
AcDbEntity
  8
RAHM3
100
AcDbLine
 10
-139.4798476410193
 20
5.518493325416158
 30
52.0
 11
-139.4798476410193
 21
6.510516525416153
 31
52.0
  0
LINE
  5
358
330
335
100
AcDbEntity
  8
RAHM3
100
AcDbLine
 10
-136.6691152410193
 20
7.171865325416149
 30
52.0
 11
-136.6691152410193
 21
7.833214125416168
 31
52.0
  0
LINE
  5
359
330
335
100
AcDbEntity
  8
RAHM3
100
AcDbLine
 10
-137.8264756410194
 20
5.022481725416161
 30
52.0
 11
-137.8264756410194
 21
5.518493325416158
 31
52.0
  0
LINE
  5
35A
330
335
100
AcDbEntity
  8
RAHM3
100
AcDbLine
 10
-137.6611384410193
 20
6.510516525416153
 30
52.0
 11
-139.4798476410193
 21
6.510516525416153
 31
52.0
  0
LINE
  5
35B
330
335
100
AcDbEntity
  8
RAHM3
100
AcDbLine
 10
-136.6691152410193
 20
5.518493325416158
 30
52.0
 11
-136.6691152410193
 21
3.203772525416149
 31
52.0
  0
ARC
  5
35C
330
335
100
AcDbEntity
  8
RAHM3
100
AcDbCircle
 10
-137.6611384410193
 20
5.518493325416158
 30
52.0
 40
0.9920232
100
AcDbArc
 50
0.0
 51
90.0
  0
LINE
  5
35D
330
335
100
AcDbEntity
  8
RAHM3
100
AcDbLine
 10
-139.1930809214994
 20
5.022481725416161
 30
52.0
 11
-137.8264756410194
 21
5.022481725416161
 31
52.0
  0
ARC
  5
35E
330
335
100
AcDbEntity
  8
RAHM3
100
AcDbCircle
 10
-139.1930809214994
 20
4.030458525416167
 30
52.0
 40
0.9920232
100
AcDbArc
 50
90.0
 51
119.7448812969
  0
LINE
  5
35F
330
335
100
AcDbEntity
  8
RAHM3
100
AcDbLine
 10
-140.8773334868594
 20
4.361132925416165
 30
52.0
 11
-141.2985568410193
 21
4.361132925416165
 31
52.0
  0
LINE
  5
360
330
335
100
AcDbEntity
  8
RAHM3
100
AcDbLine
 10
-140.3851521495794
 20
4.491838785176161
 30
52.0
 11
-139.6852622587794
 21
4.891775865576152
 31
52.0
  0
ARC
  5
361
330
335
100
AcDbEntity
  8
RAHM3
100
AcDbCircle
 10
-140.8773334868594
 20
5.35315612541616
 30
52.0
 40
0.9920232
100
AcDbArc
 50
270.0
 51
299.7448812969
  0
ARC
  5
362
330
335
100
AcDbEntity
  8
RAHM3
100
AcDbCircle
 10
-138.8857271583794
 20
2.873098125416151
 30
52.0
 40
0.9920232
100
AcDbArc
 50
90.0
 51
119.7448812969
  0
LINE
  5
363
330
335
100
AcDbEntity
  8
RAHM3
100
AcDbLine
 10
-140.5699797237394
 20
3.203772525416149
 30
52.0
 11
-141.4638940410194
 21
3.203772525416149
 31
52.0
  0
ARC
  5
364
330
335
100
AcDbEntity
  8
RAHM3
100
AcDbCircle
 10
-140.5699797237394
 20
4.195795725416166
 30
52.0
 40
0.9920232
100
AcDbArc
 50
270.0
 51
299.7448812969
  0
LINE
  5
365
330
335
100
AcDbEntity
  8
RAHM3
100
AcDbLine
 10
-139.3779084956594
 20
3.734415465576159
 30
52.0
 11
-140.0777983864594
 21
3.334478385176168
 31
52.0
  0
LINE
  5
366
330
335
100
AcDbEntity
  8
RAHM3
100
AcDbLine
 10
-138.8857271583794
 20
3.865121325416145
 30
52.0
 11
-137.9918128410194
 21
3.865121325416145
 31
52.0
  0
LINE
  5
367
330
335
100
AcDbEntity
  8
RAHM3
100
AcDbLine
 10
-147.5813704410193
 20
3.865121325416145
 30
52.0
 11
-148.4080564410193
 21
3.865121325416145
 31
52.0
  0
LINE
  5
368
330
335
100
AcDbEntity
  8
RAHM3
100
AcDbLine
 10
-146.2586728410194
 20
3.865121325416145
 30
52.0
 11
-145.4319868410194
 21
3.865121325416145
 31
52.0
  0
LINE
  5
369
330
335
100
AcDbEntity
  8
RAHM3
100
AcDbLine
 10
-148.4080564410193
 20
3.203772525416149
 30
52.0
 11
-148.4080564410193
 21
3.865121325416145
 31
52.0
  0
LINE
  5
36A
330
335
100
AcDbEntity
  8
RAHM3
100
AcDbLine
 10
-145.4319868410194
 20
3.865121325416145
 30
52.0
 11
-145.4319868410194
 21
3.203772525416149
 31
52.0
  0
LINE
  5
36B
330
335
100
AcDbEntity
  8
RAHM3
100
AcDbLine
 10
-132.5356852410194
 20
7.667876925416146
 30
52.0
 11
-129.2289412410193
 21
7.667876925416146
 31
52.0
  0
LINE
  5
36C
330
335
100
AcDbEntity
  8
RAHM3
100
AcDbLine
 10
-129.2289412410193
 20
7.667876925416146
 30
52.0
 11
-129.2289412410193
 21
7.00652812541615
 31
52.0
  0
LINE
  5
36D
330
335
100
AcDbEntity
  8
RAHM3
100
AcDbLine
 10
-132.5356852410194
 20
5.022481725416161
 30
52.0
 11
-132.5356852410194
 21
4.361132925416165
 31
52.0
  0
LINE
  5
36E
330
335
100
AcDbEntity
  8
RAHM3
100
AcDbLine
 10
-132.5356852410194
 20
4.361132925416165
 30
52.0
 11
-129.2289412410193
 21
4.361132925416165
 31
52.0
  0
LINE
  5
36F
330
335
100
AcDbEntity
  8
RAHM3
100
AcDbLine
 10
-132.5356852410194
 20
5.022481725416161
 30
52.0
 11
-133.6930456410194
 21
5.022481725416161
 31
52.0
  0
LINE
  5
370
330
335
100
AcDbEntity
  8
RAHM3
100
AcDbLine
 10
-128.0715808410194
 20
7.00652812541615
 30
52.0
 11
-129.2289412410193
 21
7.00652812541615
 31
52.0
  0
LINE
  5
371
330
335
100
AcDbEntity
  8
RAHM3
100
AcDbLine
 10
-129.2289412410193
 20
4.361132925416165
 30
52.0
 11
-129.2289412410193
 21
5.518493325416158
 31
52.0
  0
LINE
  5
372
330
335
100
AcDbEntity
  8
RAHM3
100
AcDbLine
 10
-132.5356852410194
 20
6.510516525416153
 30
52.0
 11
-132.5356852410194
 21
7.667876925416146
 31
52.0
  0
LINE
  5
373
330
335
100
AcDbEntity
  8
RAHM3
100
AcDbLine
 10
-128.0715808410194
 20
5.518493325416158
 30
52.0
 11
-128.0715808410194
 21
4.195795725416166
 31
52.0
  0
LINE
  5
374
330
335
100
AcDbEntity
  8
RAHM3
100
AcDbLine
 10
-129.0636040410194
 20
6.510516525416153
 30
52.0
 11
-132.5356852410194
 21
6.510516525416153
 31
52.0
  0
ARC
  5
375
330
335
100
AcDbEntity
  8
RAHM3
100
AcDbCircle
 10
-129.0636040410194
 20
5.518493325416158
 30
52.0
 40
0.9920232
100
AcDbArc
 50
0.0
 51
90.0
  0
LINE
  5
376
330
335
100
AcDbEntity
  8
RAHM3
100
AcDbLine
 10
-132.7010224411794
 20
5.518493325416158
 30
52.0
 11
-129.2289412410193
 21
5.518493325416158
 31
52.0
  0
LINE
  5
377
330
335
100
AcDbEntity
  8
RAHM3
100
AcDbLine
 10
-133.6930456410194
 20
6.510516525416153
 30
52.0
 11
-133.6930456410194
 21
7.833214125416168
 31
52.0
  0
ARC
  5
378
330
335
100
AcDbEntity
  8
RAHM3
100
AcDbCircle
 10
-132.7010224411794
 20
6.510516525416153
 30
52.0
 40
0.9920232
100
AcDbArc
 50
180.0
 51
270.0
  0
POINT
  5
379
330
335
100
AcDbEntity
  8
0
 60
     1
100
AcDbPoint
 10
0.0
 20
0.0
 30
0.0
1001
GENIUS_GENODEF_13
1002
{
1000
HIER
1070
     1
1002
}
1002
{
1000
MANEDIT
1070
     0
1002
}
1002
{
1000
NOSEL
1070
     0
1002
}
1002
{
1000
BEHIND
1070
     0
1002
}
1002
{
1000
REACTOR
1002
}
1001
GENIUS_GENTITLE_13
1002
{
1000
SCALE
1000
1:1
1002
}
1002
{
1000
BORDER
1000
GEN_A4
1002
}
1002
{
1000
TITLE
1000
GENTITUS
1002
}
1002
{
1000
UNCHG
1002
{
1000
GEN-TITLE-SCA
1000
GEN-TITLE-SIZ
1002
}
1002
}
1002
{
1000
HRA
1005
0
1002
}
1002
{
1000
HTIT
1005
0
1002
}
1002
{
1000
GENIUSID
1005
379
1002
}
1001
GENIUS_GENOBJ-N-TIT_13
1002
{
1000
OWNER
1000
GEN
1002
}
1001
GENIUS_GENOENT_13
1002
{
1000
MYREF
1005
379
1002
}
1002
{
1000
GRP
1005
0
1002
}
1001
GENIUS_GENOLIS_13
1002
{
1000
ENT
1005
0
1005
0
1002
}
  0
TEXT
  5
37A
330
335
100
AcDbEntity
  8
0
 60
     1
100
AcDbText
 10
210.0
 20
297.0
 30
0.0
 40
3.5
  1
!GENTITLE-MAX
100
AcDbText
  0
TEXT
  5
37B
330
335
100
AcDbEntity
  8
0
 60
     1
100
AcDbText
 10
205.0
 20
287.0
 30
0.0
 40
3.5
  1
!GENTITLE-RU
100
AcDbText
  0
TEXT
  5
37C
330
335
100
AcDbEntity
  8
0
 60
     1
100
AcDbText
 10
15.0
 20
59.99
 30
0.0
 40
3.5
  1
!GENTITLE-LL
100
AcDbText
  0
TEXT
  5
37D
330
335
100
AcDbEntity
  8
0
 60
     1
100
AcDbText
 10
205.0
 20
5.0
 30
0.0
 40
3.5
  1
!GENTITLE-INSERT
100
AcDbText
  0
LINE
  5
37E
330
335
100
AcDbEntity
  8
RAHM2
100
AcDbLine
 10
-155.0
 20
12.0
 30
0.0
 11
0.0
 21
12.0
 31
0.0
  0
LINE
  5
37F
330
335
100
AcDbEntity
  8
RAHM2
100
AcDbLine
 10
-12.0
 20
12.0
 30
0.0
 11
-12.00000000000727
 21
0.0
 31
0.0
  0
LINE
  5
380
330
335
100
AcDbEntity
  8
RAHM2
100
AcDbLine
 10
-80.0
 20
19.99999999999272
 30
0.0
 11
0.0
 21
20.0
 31
0.0
  0
LINE
  5
381
330
335
100
AcDbEntity
  8
RAHM2
100
AcDbLine
 10
0.0
 20
27.0
 30
0.0
 11
-80.0
 21
27.0
 31
0.0
  0
MTEXT
  5
382
330
335
100
AcDbEntity
  8
RAHM2
100
AcDbMText
 10
-78.39748281353763
 20
37.79972226353243
 30
0.0
 40
2.5
 41
2.458156240282278
 71
     1
 72
     5
  1

 73
     1
 44
1.0
  0
TEXT
  5
383
330
335
100
AcDbEntity
  8
RAHM3
100
AcDbText
 10
-79.00900277736832
 20
36.89804600214973
 30
0.0
 40
2.299999999999999
  1
名称 ＴＩＴＬＥ
 41
0.8
100
AcDbText
  0
LINE
  5
384
330
335
100
AcDbEntity
  8
RAHM2
100
AcDbLine
 10
-80.0
 20
40.00000000000727
 30
0.0
 11
-80.0
 21
0.0
 31
0.0
  0
TEXT
  5
385
330
335
100
AcDbEntity
  8
RAHM3
100
AcDbText
 10
-79.00900277736832
 20
23.89804600216055
 30
0.0
 40
2.299999999999999
  1
符号 
 41
0.8
100
AcDbText
  0
TEXT
  5
386
330
335
100
AcDbEntity
  8
RAHM3
100
AcDbText
 10
-79.00900277736832
 20
16.89804600215146
 30
0.0
 40
2.299999999999999
  1
件名
 41
0.8
100
AcDbText
  0
TEXT
  5
387
330
335
100
AcDbEntity
  8
RAHM3
100
AcDbText
 10
-79.00900277736832
 20
8.898046002160548
 30
0.0
 40
2.299999999999999
  1
図番 ＤＲＡＷＩＮＧ ＮＯ．
 41
0.8
100
AcDbText
  0
CIRCLE
  5
388
330
335
100
AcDbEntity
  8
RAHM2
100
AcDbCircle
 10
-5.0
 20
5.0
 30
0.0
 40
4.5
  0
LINE
  5
389
330
335
100
AcDbEntity
  8
RAHM2
100
AcDbLine
 10
-130.0000000000018
 20
40.00000000000916
 30
0.0
 11
-130.0000000000018
 21
12.0
 31
0.0
  0
LINE
  5
38A
330
335
100
AcDbEntity
  8
RAHM2
100
AcDbLine
 10
-130.0000000000018
 20
26.00000000000458
 30
0.0
 11
-80.0
 21
25.99999999999818
 31
0.0
  0
LINE
  5
38B
330
335
100
AcDbEntity
  8
RAHM2
100
AcDbLine
 10
-105.0000000000018
 20
40.00000000000916
 30
0.0
 11
-105.0000000000018
 21
12.0
 31
0.0
  0
TEXT
  5
38C
330
335
100
AcDbEntity
  8
RAHM3
100
AcDbText
 10
-129.0090027773683
 20
36.89804600215881
 30
0.0
 40
2.299999999999999
  1
承認 ＡＰＰＤ
 41
0.8
100
AcDbText
  0
TEXT
  5
38D
330
335
100
AcDbEntity
  8
RAHM3
100
AcDbText
 10
-104.0090027773683
 20
36.8980460021551
 30
0.0
 40
2.299999999999999
  1
検図 ＣＨＫ
 41
0.8
100
AcDbText
  0
TEXT
  5
38E
330
335
100
AcDbEntity
  8
RAHM3
100
AcDbText
 10
-129.0090027773683
 20
22.89804600215422
 30
0.0
 40
2.299999999999999
  1
設計 ＥＮＧＲ
 41
0.8
100
AcDbText
  0
TEXT
  5
38F
330
335
100
AcDbEntity
  8
RAHM3
100
AcDbText
 10
-104.0090027773683
 20
22.89804600214964
 30
0.0
 40
2.299999999999999
  1
製図 ＤＲ ＤＡＴＥ
 41
0.8
100
AcDbText
  0
LINE
  5
390
330
335
100
AcDbEntity
  8
RAHM2
100
AcDbLine
 10
-155.0
 20
30.60000000000036
 30
0.0
 11
-130.0000000000018
 21
30.60000000000036
 31
0.0
  0
LINE
  5
391
330
335
100
AcDbEntity
  8
RAHM2
100
AcDbLine
 10
-155.0
 20
21.29999999999927
 30
0.0
 11
-130.0000000000018
 21
21.30000000000109
 31
0.0
  0
TEXT
  5
392
330
335
100
AcDbEntity
  8
RAHM3
100
AcDbText
 10
-121.7843516157921
 20
6.885079184961092
 30
0.0
 40
4.0
  1
伊藤鉄工株式会社
100
AcDbText
  0
TEXT
  5
393
330
335
100
AcDbEntity
  8
RAHM3
100
AcDbText
 10
-120.6675998914835
 20
3.578884653066273
 30
0.0
 40
2.0
  1
ITO TEKKO  CO.,LTD.
100
AcDbText
1001
GENIUS_GENTRA_14
1002
{
1070
     1
1000
/
1000
ITO TEKKO  CO.,LTD.
1000
JPN
1070
     0
1040
1.0
1070
     0
1002
}
  0
TEXT
  5
394
330
335
100
AcDbEntity
  8
RAHM3
100
AcDbText
 10
-120.6675998914835
 20
0.9279960228792472
 30
0.0
 40
2.0
  1
KAWAGUCHI  JAPAN
100
AcDbText
  0
TEXT
  5
395
330
335
100
AcDbEntity
  8
RAHM3
100
AcDbText
 10
-11.85206060358336
 20
9.69362381988742
 30
0.0
 40
1.8
  1
ＲＥＶ．ＭＡＲＫ
 41
0.6800000000000001
100
AcDbText
  0
TEXT
  5
396
330
335
100
AcDbEntity
  8
RAHM3
100
AcDbText
 10
-11.57052530051805
 20
7.425435269030799
 30
0.0
 40
1.8
  1
変
100
AcDbText
  0
TEXT
  5
397
330
335
100
AcDbEntity
  8
RAHM3
100
AcDbText
 10
-11.59004395148213
 20
4.996441785248862
 30
0.0
 40
1.8
  1
更
100
AcDbText
  0
TEXT
  5
398
330
335
100
AcDbEntity
  8
RAHM3
100
AcDbText
 10
-11.62938531906752
 20
2.617267270587205
 30
0.0
 40
1.8
  1
回
100
AcDbText
  0
TEXT
  5
399
330
335
100
AcDbEntity
  8
RAHM3
100
AcDbText
 10
-11.56556962136267
 20
0.3551115072955326
 30
0.0
 40
1.8
  1
数
100
AcDbText
  0
TEXT
  5
39A
330
335
100
AcDbEntity
  8
RAHM3
100
AcDbText
 10
-154.0090027773665
 20
36.89804600217056
 30
0.0
 40
2.299999999999999
  1
尺度 ＳＣＡＬＥ
 41
0.8
100
AcDbText
  0
TEXT
  5
39B
330
335
100
AcDbEntity
  8
RAHM3
100
AcDbText
 10
-154.0090027773665
 20
27.49804600215
 30
0.0
 40
2.299999999999999
  1
図面枚数 ＮＯ．  
 41
0.8
100
AcDbText
  0
LINE
  5
39C
330
335
100
AcDbEntity
  8
7A
100
AcDbLine
 10
-151.7551228444401
 20
16.64999999999988
 30
0.0
 11
-149.2551228444401
 21
16.64999999999988
 31
0.0
1001
GENIUS_GENOREF_13
1005
3A0
  0
LINE
  5
39D
330
335
100
AcDbEntity
  8
7A
100
AcDbLine
 10
-151.7551228444401
 20
16.64999999999988
 30
0.0
 11
-151.7551228444401
 21
19.14999999999988
 31
0.0
1001
GENIUS_GENOREF_13
1005
3A0
  0
LINE
  5
39E
330
335
100
AcDbEntity
  8
7A
100
AcDbLine
 10
-151.7551228444401
 20
16.64999999999988
 30
0.0
 11
-154.2551228444401
 21
16.64999999999988
 31
0.0
1001
GENIUS_GENOREF_13
1005
3A0
  0
LINE
  5
39F
330
335
100
AcDbEntity
  8
7A
100
AcDbLine
 10
-151.7551228444401
 20
16.64999999999988
 30
0.0
 11
-151.7551228444401
 21
14.14999999999988
 31
0.0
1001
GENIUS_GENOREF_13
1005
3A0
  0
POINT
  5
3A0
330
335
100
AcDbEntity
  8
0
 60
     1
100
AcDbPoint
 10
0.0
 20
0.0
 30
0.0
1001
GENIUS_GENODEF_13
1002
{
1000
HIER
1070
    10
1002
}
1002
{
1000
MANEDIT
1070
     0
1002
}
1002
{
1000
NOSEL
1070
     0
1002
}
1002
{
1000
BEHIND
1070
     0
1002
}
1002
{
1000
REACTOR
1002
}
1001
GENIUS_GENOBJ-N-CRS_13
1002
{
1000
OWNER
1000
GEN
1002
}
1001
GENIUS_GENOENT_13
1002
{
1000
MYREF
1005
3A0
1002
}
1002
{
1000
GRP
1005
0
1002
}
1001
GENIUS_GENOLIS_13
1002
{
1000
ENT
1005
39F
1005
39E
1005
39D
1005
39C
1002
}
  0
CIRCLE
  5
3A1
330
335
100
AcDbEntity
  8
RAHM3
100
AcDbCircle
 10
-151.7551228444401
 20
16.64999999999988
 30
0.0
 40
2.0
  0
CIRCLE
  5
3A2
330
335
100
AcDbEntity
  8
RAHM3
100
AcDbCircle
 10
-151.7551228444401
 20
16.64999999999952
 30
0.0
 40
1.0
  0
LINE
  5
3A3
330
335
100
AcDbEntity
  8
RAHM3
100
AcDbLine
 10
-147.7659442035316
 20
17.64999999999929
 30
0.0
 11
-147.7659442035316
 21
15.64999999999929
 31
0.0
  0
LINE
  5
3A4
330
335
100
AcDbEntity
  8
RAHM3
100
AcDbLine
 10
-147.7659442035316
 20
15.64999999999929
 30
0.0
 11
-143.7659442035316
 21
14.64999999999928
 31
0.0
  0
LINE
  5
3A5
330
335
100
AcDbEntity
  8
RAHM3
100
AcDbLine
 10
-143.7659442035316
 20
14.64999999999928
 30
0.0
 11
-143.7659442035316
 21
18.64999999999929
 31
0.0
  0
LINE
  5
3A6
330
335
100
AcDbEntity
  8
RAHM3
100
AcDbLine
 10
-143.7659442035316
 20
18.64999999999929
 30
0.0
 11
-147.7659442035316
 21
17.64999999999929
 31
0.0
  0
LINE
  5
3A7
330
335
100
AcDbEntity
  8
7A
100
AcDbLine
 10
-148.6350563849704
 20
16.64999999999929
 30
0.0
 11
-142.8462596443259
 21
16.64999999999929
 31
0.0
1001
GENIUS_GENODEF_13
1002
{
1000
HIER
1070
     0
1002
}
1002
{
1000
MANEDIT
1070
     0
1002
}
1002
{
1000
NOSEL
1070
     0
1002
}
1002
{
1000
BEHIND
1070
     0
1002
}
1002
{
1000
REACTOR
1002
}
1001
GENIUS_GENOBJ-N-CEN_13
1002
{
1000
OWNER
1000
GEN
1002
}
  0
TEXT
  5
3A8
330
335
100
AcDbEntity
  8
RAHM3
100
AcDbText
 10
-141.8454810851357
 20
18.28209750892168
 30
0.0
 40
2.1
  1
単位 ＵＮＩＴ
 41
0.7
100
AcDbText
  0
LINE
  5
3A9
330
335
100
AcDbEntity
  8
RAHM2
100
AcDbLine
 10
-142.5000000000009
 20
21.29999999999927
 30
0.0
 11
-142.5000000000009
 21
12.0
 31
0.0
  0
TEXT
  5
3AA
330
335
100
AcDbEntity
  8
RAHM3
100
AcDbText
 10
-139.6782849929894
 20
13.82826889824218
 30
0.0
 40
4.0
  1
ｍｍ
 41
0.8
100
AcDbText
  0
POLYLINE
  5
3AB
330
335
100
AcDbEntity
  8
RAHM2
100
AcDb2dPolyline
 66
     1
 10
0.0
 20
0.0
 30
0.0
 70
     1
  0
VERTEX
  5
3AC
330
3AB
100
AcDbEntity
  8
RAHM2
100
AcDbVertex
100
AcDb2dVertex
 10
-155.0
 20
-0.000000000001819
 30
0.0
  0
VERTEX
  5
3AD
330
3AB
100
AcDbEntity
  8
RAHM2
100
AcDbVertex
100
AcDb2dVertex
 10
-155.0
 20
40.00000000002091
 30
0.0
  0
VERTEX
  5
3AE
330
3AB
100
AcDbEntity
  8
RAHM2
100
AcDbVertex
100
AcDb2dVertex
 10
0.0
 20
39.99999999999273
 30
0.0
  0
VERTEX
  5
3AF
330
3AB
100
AcDbEntity
  8
RAHM2
100
AcDbVertex
100
AcDb2dVertex
 10
0.0
 20
0.0
 30
0.0
  0
SEQEND
  5
3B0
330
3AB
100
AcDbEntity
  8
RAHM2
  0
ATTDEF
  5
3B1
330
335
100
AcDbEntity
  8
RAHM3
100
AcDbText
 10
-147.2595867131855
 20
31.94728899818607
 30
0.0
 40
4.0
  1

100
AcDbAttributeDefinition
  3
尺度
  2
GEN-TITLE-SCA
 70
     0
  0
ATTDEF
  5
3B2
330
335
100
AcDbEntity
  8
RAHM3
100
AcDbText
 10
-73.09000000000001
 20
29.74
 30
0.0
 40
5.0
  1

100
AcDbAttributeDefinition
  3
名称
  2
ＴＩＴＬＥ
 70
     0
  0
ATTDEF
  5
3B3
330
335
100
AcDbEntity
  8
RAHM3
100
AcDbText
 10
-71.56287815584043
 20
21.80438312711384
 30
0.0
 40
3.0
  1

100
AcDbAttributeDefinition
  3
符号
  2
ｃｏｄｅ
 70
     0
  0
ATTDEF
  5
3B4
330
335
100
AcDbEntity
  8
RAHM3
100
AcDbText
 10
-70.74480649396313
 20
14.80438312710657
 30
0.0
 40
3.0
  1

100
AcDbAttributeDefinition
  3
件名
  2
件名
 70
     0
  0
ATTDEF
  5
3B5
330
335
100
AcDbEntity
  8
RAHM3
100
AcDbText
 10
-73.09000000000001
 20
1.739999999992722
 30
0.0
 40
5.0
  1

100
AcDbAttributeDefinition
  3
図面番号
  2
Ｎｏ．
 70
     0
  0
ATTDEF
  5
3B6
330
335
100
AcDbEntity
  8
RAHM3
100
AcDbText
 10
-100.45
 20
17.40708932112655
 30
0.0
 40
4.0
  1

100
AcDbAttributeDefinition
  3
製図者
  2
ＤＲ
 70
     0
  0
ATTDEF
  5
3B7
330
335
100
AcDbEntity
  8
RAHM3
100
AcDbText
 10
-103.7180853038729
 20
12.76999999999999
 30
0.0
 40
3.0
  1

 41
0.8
100
AcDbAttributeDefinition
  3
日付
  2
ｄａｔｅ
 70
     0
  0
ENDBLK
  5
3B9
330
335
100
AcDbEntity
  8
0
100
AcDbBlockEnd
  0
BLOCK
  5
411
330
3FC
100
AcDbEntity
  8
0
100
AcDbBlockBegin
  2
IGS_A1
 70
     0
 10
0.0
 20
0.0
 30
0.0
  3
IGS_A1
  1

  0
LINE
  5
3FD
330
3FC
100
AcDbEntity
  8
AM_BOR
100
AcDbLine
 10
0.0
 20
0.0
 30
0.0
 11
0.0
 21
15.0
 31
0.0
  0
LINE
  5
3FE
330
3FC
100
AcDbEntity
  8
AM_BOR
100
AcDbLine
 10
0.0
 20
594.0
 30
0.0
 11
15.0
 21
594.0
 31
0.0
  0
LINE
  5
3FF
330
3FC
100
AcDbEntity
  8
AM_BOR
100
AcDbLine
 10
841.0
 20
594.0
 30
0.0
 11
841.0
 21
579.0
 31
0.0
  0
LINE
  5
400
330
3FC
100
AcDbEntity
  8
AM_BOR
100
AcDbLine
 10
841.0
 20
0.0
 30
0.0
 11
826.0
 21
0.0
 31
0.0
  0
LINE
  5
401
330
3FC
100
AcDbEntity
  8
0
100
AcDbLine
 10
25.0
 20
20.0
 30
0.0
 11
25.0
 21
574.0
 31
0.0
  0
LINE
  5
402
330
3FC
100
AcDbEntity
  8
0
100
AcDbLine
 10
821.0
 20
20.0
 30
0.0
 11
25.0
 21
20.0
 31
0.0
  0
LINE
  5
403
330
3FC
100
AcDbEntity
  8
0
100
AcDbLine
 10
821.0
 20
574.0
 30
0.0
 11
821.0
 21
20.0
 31
0.0
  0
LINE
  5
404
330
3FC
100
AcDbEntity
  8
0
100
AcDbLine
 10
25.0
 20
574.0
 30
0.0
 11
821.0
 21
574.0
 31
0.0
  0
LINE
  5
405
330
3FC
100
AcDbEntity
  8
AM_BOR
100
AcDbLine
 10
15.0
 20
0.0
 30
0.0
 11
0.0
 21
0.0
 31
0.0
  0
LINE
  5
406
330
3FC
100
AcDbEntity
  8
AM_BOR
100
AcDbLine
 10
841.0
 20
15.0
 30
0.0
 11
841.0
 21
0.0
 31
0.0
  0
LINE
  5
407
330
3FC
100
AcDbEntity
  8
AM_BOR
100
AcDbLine
 10
826.0
 20
594.0
 30
0.0
 11
841.0
 21
594.0
 31
0.0
  0
LINE
  5
408
330
3FC
100
AcDbEntity
  8
AM_BOR
100
AcDbLine
 10
0.0
 20
579.0
 30
0.0
 11
0.0
 21
594.0
 31
0.0
  0
TEXT
  5
409
330
3FC
100
AcDbEntity
  8
0
 60
     1
100
AcDbText
 10
25.0
 20
20.0
 30
0.0
 40
12.0
  1
!GENTITLE-LL
  7
ACJISTS
100
AcDbText
  0
TEXT
  5
40A
330
3FC
100
AcDbEntity
  8
0
 60
     1
100
AcDbText
 10
841.0
 20
594.0
 30
0.0
 40
12.0
  1
!GENTITLE-MAX
  7
ACJISTS
100
AcDbText
  0
TEXT
  5
40B
330
3FC
100
AcDbEntity
  8
0
 60
     1
100
AcDbText
 10
821.0
 20
574.0
 30
0.0
 40
12.0
  1
!GENTITLE-RU
  7
ACJISTS
100
AcDbText
  0
TEXT
  5
40C
330
3FC
100
AcDbEntity
  8
0
 60
     1
100
AcDbText
 10
821.0
 20
20.0
 30
0.0
 40
12.0
  1
!GENTITLE-INSERT
  7
ACJISTS
100
AcDbText
  0
LINE
  5
40D
330
3FC
100
AcDbEntity
  8
AM_BOR
 62
     1
370
    25
100
AcDbLine
 10
0.0
 20
594.0
 30
0.0
 11
841.0
 21
594.0
 31
0.0
  0
LINE
  5
40E
330
3FC
100
AcDbEntity
  8
AM_BOR
 62
     1
370
    25
100
AcDbLine
 10
841.0
 20
594.0
 30
0.0
 11
841.0
 21
0.0
 31
0.0
  0
LINE
  5
40F
330
3FC
100
AcDbEntity
  8
AM_BOR
 62
     1
370
    25
100
AcDbLine
 10
841.0
 20
0.0
 30
0.0
 11
0.0
 21
0.0
 31
0.0
  0
LINE
  5
410
330
3FC
100
AcDbEntity
  8
AM_BOR
 62
     1
370
    25
100
AcDbLine
 10
0.0
 20
0.0
 30
0.0
 11
0.0
 21
594.0
 31
0.0
  0
ENDBLK
  5
412
330
3FC
100
AcDbEntity
  8
0
100
AcDbBlockEnd
  0
BLOCK
  5
51E
330
50A
100
AcDbEntity
  8
0
100
AcDbBlockBegin
  2
jis_bl_revisionlist1
 70
     2
 10
0.0
 20
0.0
 30
0.0
  3
jis_bl_revisionlist1
  1

  0
LINE
  5
680
330
50A
100
AcDbEntity
  8
0
100
AcDbLine
 10
0.0
 20
-4.999999963957748
 30
0.0
 11
182.8800000000001
 21
-4.999999963957748
 31
0.0
  0
LINE
  5
681
330
50A
100
AcDbEntity
  8
AM_BOR
 62
     1
370
    25
100
AcDbLine
 10
28.88000000000011
 20
-9.999999963957748
 30
0.0
 11
159.8800000000001
 21
-9.999999963957748
 31
0.0
  0
LINE
  5
682
330
50A
100
AcDbEntity
  8
0
100
AcDbLine
 10
0.0000000675292995
 20
-9.999999963957804
 30
0.0
 11
182.8800000675292
 21
-9.999999963957804
 31
0.0
  0
LINE
  5
683
330
50A
100
AcDbEntity
  8
0
100
AcDbLine
 10
8.880000000000109
 20
-9.999999963957804
 30
0.0
 11
8.880000000000109
 21
-4.999999963957748
 31
0.0
  0
LINE
  5
684
330
50A
100
AcDbEntity
  8
0
100
AcDbLine
 10
0.0
 20
-9.999999963957748
 30
0.0
 11
0.0
 21
-10.0
 31
0.0
  0
LINE
  5
685
330
50A
100
AcDbEntity
  8
AM_BOR
 62
     1
370
    25
100
AcDbLine
 10
8.880000000000109
 20
-10.0
 30
0.0
 11
8.880000000000109
 21
-4.999999963957748
 31
0.0
  0
LINE
  5
686
330
50A
100
AcDbEntity
  8
AM_BOR
 62
     1
370
    25
100
AcDbLine
 10
28.88000000000011
 20
-10.0
 30
0.0
 11
28.88000000000011
 21
-9.999999963957748
 31
0.0
  0
LINE
  5
687
330
50A
100
AcDbEntity
  8
0
100
AcDbLine
 10
0.0
 20
-4.999999963957748
 30
0.0
 11
0.0
 21
-9.999999963957748
 31
0.0
  0
LINE
  5
688
330
50A
100
AcDbEntity
  8
AM_BOR
 62
     1
370
    25
100
AcDbLine
 10
28.88000000000011
 20
-9.999999963957748
 30
0.0
 11
28.88000000000011
 21
-4.999999963957748
 31
0.0
  0
LINE
  5
689
330
50A
100
AcDbEntity
  8
AM_BOR
 62
     1
370
    25
100
AcDbLine
 10
159.8800000000001
 20
-10.0
 30
0.0
 11
159.8800000000001
 21
-9.999999963957748
 31
0.0
  0
LINE
  5
68A
330
50A
100
AcDbEntity
  8
0
100
AcDbLine
 10
182.8800000000001
 20
-10.0
 30
0.0
 11
182.8800000000001
 21
-9.999999963957748
 31
0.0
  0
LINE
  5
68B
330
50A
100
AcDbEntity
  8
AM_BOR
 62
     1
370
    25
100
AcDbLine
 10
159.8800000000001
 20
-9.999999963957748
 30
0.0
 11
159.8800000000001
 21
-4.999999963957748
 31
0.0
  0
LINE
  5
68C
330
50A
100
AcDbEntity
  8
0
100
AcDbLine
 10
182.8800000000001
 20
-9.999999963957748
 30
0.0
 11
182.8800000000001
 21
-4.999999963957748
 31
0.0
  0
ATTDEF
  5
68D
330
50A
100
AcDbEntity
  8
AM_BOR
 62
     1
370
    25
100
AcDbText
 10
9.880000000000109
 20
-8.999999999999658
 30
0.0
 40
3.0
  1

  7
ACJISTS
100
AcDbAttributeDefinition
  3
図面名
  2
GEN-REV-BLK{6}
 70
     0
1001
GENIUS_GENTRA_14
1002
{
1070
     3
1000
GENTRAPR,%s,(GENMSG gendwg 93)
1000
図面名
1000
JPN
1070
     0
1070
     0
1002
}
  0
ATTDEF
  5
68E
330
50A
100
AcDbEntity
  8
AM_BOR
 62
     1
370
    25
100
AcDbText
 10
29.88000000000011
 20
-9.000000000001477
 30
0.0
 40
3.0
  1

  7
ACJISTS
100
AcDbAttributeDefinition
  3
履歴 2 行目
  2
GEN-REV-TEXT2{43}
 70
     0
1001
GENIUS_GENTRA_14
1002
{
1070
     3
1000
GENTRAPR,%s,(GENMSG gendwg 92)
1000
履歴 2 行目
1000
JPN
1070
     0
1070
     0
1002
}
  0
ATTDEF
  5
68F
330
50A
100
AcDbEntity
  8
AM_BOR
 62
     1
370
    25
100
AcDbText
 10
0.9326324110411405
 20
-8.999999963957748
 30
0.0
 40
3.0
  1

  7
ACJISTS
100
AcDbAttributeDefinition
  3
番号
  2
GEN-REV-NR{2}
 70
     0
1001
GENIUS_GENTRA_14
1002
{
1070
     3
1000
GENTRAPR,%s,(GENMSG gendwg 98)
1000
番号
1000
JPN
1070
     0
1070
     0
1002
}
  0
ATTDEF
  5
690
330
50A
100
AcDbEntity
  8
AM_BOR
 62
     1
370
    25
100
AcDbText
 10
9.880000000000109
 20
-8.999999963957407
 30
0.0
 40
3.0
  1

  7
ACJISTS
100
AcDbAttributeDefinition
  3
日付
  2
GEN-REV-DAT{6}
 70
     0
1001
GENIUS_GENTRA_14
1002
{
1070
     3
1000
GENTRAPR,%s,(GENMSG gendwg 95)
1000
日付
1000
JPN
1070
     0
1070
     0
1002
}
  0
ATTDEF
  5
691
330
50A
100
AcDbEntity
  8
AM_BOR
 62
     1
370
    25
100
AcDbText
 10
160.8800000000001
 20
-8.713127708901765
 30
0.0
 40
3.0
  1

  7
ACJISTS
100
AcDbAttributeDefinition
  3
名前
  2
GEN-REV-NAME{7}
 70
     0
1001
GENIUS_GENTRA_14
1002
{
1070
     3
1000
GENTRAPR,%s,(GENMSG gendwg 97)
1000
名前
1000
JPN
1070
     0
1070
     0
1002
}
  0
ENDBLK
  5
51F
330
50A
100
AcDbEntity
  8
0
100
AcDbBlockEnd
  0
BLOCK
  5
52C
330
520
100
AcDbEntity
  8
0
100
AcDbBlockBegin
  2
jis_bl_revisionlist0
 70
     0
 10
0.0
 20
0.0
 30
0.0
  3
jis_bl_revisionlist0
  1

  0
LINE
  5
521
330
520
100
AcDbEntity
  8
0
100
AcDbLine
 10
182.88
 20
-5.347300637836838
 30
0.0
 11
0.0
 21
-5.347300637836809
 31
0.0
  0
LINE
  5
522
330
520
100
AcDbEntity
  8
0
100
AcDbLine
 10
0.0
 20
0.0
 30
0.0
 11
182.88
 21
0.0
 31
0.0
  0
TEXT
  5
523
330
520
100
AcDbEntity
  8
AM_BOR
 62
     1
370
    25
100
AcDbText
 10
9.879999999999995
 20
-4.105772405495713
 30
0.0
 40
3.0
  1
日付
  7
ACJISTS
100
AcDbText
1001
GENIUS_GENTRA_14
1002
{
1070
     1
1000
GENTRATX{6},%s,(GENMSG gendwg 95)
1000
日付
1000
JPN
1070
     0
1040
1.0
1070
     0
1002
}
  0
TEXT
  5
524
330
520
100
AcDbEntity
  8
AM_BOR
 62
     1
370
    25
100
AcDbText
 10
1.0
 20
-4.105772405495713
 30
0.0
 40
3.0
  1
番号
 41
0.9374999999999998
  7
ACJISTS
100
AcDbText
1001
GENIUS_GENTRA_14
1002
{
1070
     1
1000
GENTRATX{2},%s,(GENMSG gendwg 98)
1000
番号
1000
JPN
1070
     0
1040
1.0
1070
     0
1002
}
  0
TEXT
  5
525
330
520
100
AcDbEntity
  8
AM_BOR
 62
     1
370
    25
100
AcDbText
 10
29.87999999999999
 20
-4.10577240549685
 30
0.0
 40
3.0
  1
履歴
  7
ACJISTS
100
AcDbText
1001
GENIUS_GENTRA_14
1002
{
1070
     1
1000
GENTRATX{43},%s,(GENMSG gendwg 96)
1000
履歴
1000
JPN
1070
     0
1040
1.0
1070
     0
1002
}
  0
LINE
  5
526
330
520
100
AcDbEntity
  8
0
100
AcDbLine
 10
0.0
 20
-5.347300637836809
 30
0.0
 11
0.0
 21
0.0
 31
0.0
  0
LINE
  5
527
330
520
100
AcDbEntity
  8
AM_BOR
 62
     1
370
    25
100
AcDbLine
 10
8.879999999999995
 20
-5.347300637836809
 30
0.0
 11
8.879999999999995
 21
0.0
 31
0.0
  0
LINE
  5
528
330
520
100
AcDbEntity
  8
AM_BOR
 62
     1
370
    25
100
AcDbLine
 10
28.88
 20
0.0
 30
0.0
 11
28.88
 21
-5.347300637836809
 31
0.0
  0
TEXT
  5
529
330
520
100
AcDbEntity
  8
AM_BOR
 62
     1
370
    25
100
AcDbText
 10
160.8542175266192
 20
-4.105772405495201
 30
0.0
 40
3.0
  1
名前
  7
ACJISTS
100
AcDbText
1001
GENIUS_GENTRA_14
1002
{
1070
     1
1000
GENTRATX{7},%s,(GENMSG gendwg 97)
1000
名前
1000
JPN
1070
     0
1040
1.0
1070
     0
1002
}
  0
LINE
  5
52A
330
520
100
AcDbEntity
  8
AM_BOR
 62
     1
370
    25
100
AcDbLine
 10
159.88
 20
0.0
 30
0.0
 11
159.88
 21
-5.347300637836838
 31
0.0
  0
LINE
  5
52B
330
520
100
AcDbEntity
  8
0
100
AcDbLine
 10
182.88
 20
0.0
 30
0.0
 11
182.88
 21
-5.347300637836838
 31
0.0
  0
ENDBLK
  5
52D
330
520
100
AcDbEntity
  8
0
100
AcDbBlockEnd
  0
BLOCK
  5
538
330
52E
100
AcDbEntity
  8
0
100
AcDbBlockBegin
  2
jis_bl_revisionlist
 70
     0
 10
0.0
 20
0.0
 30
0.0
  3
jis_bl_revisionlist
  1

  0
INSERT
  5
52F
330
52E
100
AcDbEntity
  8
0
100
AcDbBlockReference
 66
     1
  2
jis_bl_revisionlist1
 10
0.0
 20
15.34730060179461
 30
0.0
  0
ATTRIB
  5
530
330
52F
100
AcDbEntity
  8
AM_BOR
 62
     1
370
    25
100
AcDbText
 10
9.879999999999995
 20
6.347300601794955
 30
0.0
 40
3.0
  1

  7
ACJISTS
100
AcDbAttribute
  2
GEN-REV-BLK{6}
 70
     0
1001
GENIUS_GENBLLY_14
1000
BOR2
  0
ATTRIB
  5
531
330
52F
100
AcDbEntity
  8
AM_BOR
 62
     1
370
    25
100
AcDbText
 10
29.87999999999999
 20
6.347300601793136
 30
0.0
 40
3.0
  1

  7
ACJISTS
100
AcDbAttribute
  2
GEN-REV-TEXT2{43}
 70
     0
1001
GENIUS_GENBLLY_14
1000
BOR2
  0
ATTRIB
  5
532
330
52F
100
AcDbEntity
  8
AM_BOR
 62
     1
370
    25
100
AcDbText
 10
0.9326324110412542
 20
11.34730060179461
 30
0.0
 40
3.0
  1

  7
ACJISTS
100
AcDbAttribute
  2
GEN-REV-NR{2}
 70
     0
1001
GENIUS_GENBLLY_14
1000
BOR2
  0
ATTRIB
  5
533
330
52F
100
AcDbEntity
  8
AM_BOR
 62
     1
370
    25
100
AcDbText
 10
9.879999999999995
 20
11.34730060179495
 30
0.0
 40
3.0
  1

  7
ACJISTS
100
AcDbAttribute
  2
GEN-REV-DAT{6}
 70
     0
1001
GENIUS_GENBLLY_14
1000
BOR2
  0
ATTRIB
  5
534
330
52F
100
AcDbEntity
  8
AM_BOR
 62
     1
370
    25
100
AcDbText
 10
29.87999999999999
 20
11.34730060179313
 30
0.0
 40
3.0
  1

  7
ACJISTS
100
AcDbAttribute
  2
GEN-REV-TEXT1{43}
 70
     0
1001
GENIUS_GENBLLY_14
1000
BOR2
  0
ATTRIB
  5
535
330
52F
100
AcDbEntity
  8
AM_BOR
 62
     1
370
    25
100
AcDbText
 10
160.88
 20
11.63417285685059
 30
0.0
 40
3.0
  1

  7
ACJISTS
100
AcDbAttribute
  2
GEN-REV-NAME{7}
 70
     0
1001
GENIUS_GENBLLY_14
1000
BOR2
  0
SEQEND
  5
536
330
52F
100
AcDbEntity
  8
0
  0
INSERT
  5
537
330
52E
100
AcDbEntity
  8
0
100
AcDbBlockReference
  2
jis_bl_revisionlist0
 10
0.0
 20
5.347300637836809
 30
0.0
  0
ENDBLK
  5
539
330
52E
100
AcDbEntity
  8
0
100
AcDbBlockEnd
  0
BLOCK
  5
5E2
330
5D6
100
AcDbEntity
  8
0
100
AcDbBlockBegin
  2
jis_br_revisionlist0
 70
     0
 10
0.0
 20
0.0
 30
0.0
  3
jis_br_revisionlist0
  1

  0
TEXT
  5
5D7
330
5D6
100
AcDbEntity
  8
AM_BOR
 62
     1
370
    25
100
AcDbText
 10
-22.02578247338079
 20
-4.105772405495201
 30
0.0
 40
3.0
  1
名前
  7
ACJISTS
100
AcDbText
1001
GENIUS_GENBLLY_14
1000
BOR2
1001
GENIUS_GENTRA_14
1002
{
1070
     1
1000
GENTRATX{7},%s,(GENMSG gendwg 97)
1000
名前
1000
JPN
1070
     0
1040
1.0
1070
     0
1002
}
  0
TEXT
  5
5D8
330
5D6
100
AcDbEntity
  8
AM_BOR
 62
     1
370
    25
100
AcDbText
 10
-153.0
 20
-4.10577240549685
 30
0.0
 40
3.0
  1
履歴
  7
ACJISTS
100
AcDbText
1001
GENIUS_GENBLLY_14
1000
BOR2
1001
GENIUS_GENTRA_14
1002
{
1070
     1
1000
GENTRATX{43},%s,(GENMSG gendwg 96)
1000
履歴
1000
JPN
1070
     0
1040
1.0
1070
     0
1002
}
  0
LINE
  5
5D9
330
5D6
100
AcDbEntity
  8
0
100
AcDbLine
 10
0.0
 20
-5.347300637836838
 30
0.0
 11
-182.88
 21
-5.347300637836809
 31
0.0
  0
LINE
  5
5DA
330
5D6
100
AcDbEntity
  8
0
100
AcDbLine
 10
-182.88
 20
0.0
 30
0.0
 11
0.0
 21
0.0
 31
0.0
  0
TEXT
  5
5DB
330
5D6
100
AcDbEntity
  8
AM_BOR
 62
     1
370
    25
100
AcDbText
 10
-173.0
 20
-4.105772405495713
 30
0.0
 40
3.0
  1
日付
  7
ACJISTS
100
AcDbText
1001
GENIUS_GENBLLY_14
1000
BOR2
1001
GENIUS_GENTRA_14
1002
{
1070
     1
1000
GENTRATX{6},%s,(GENMSG gendwg 95)
1000
日付
1000
JPN
1070
     0
1040
1.0
1070
     0
1002
}
  0
TEXT
  5
5DC
330
5D6
100
AcDbEntity
  8
AM_BOR
 62
     1
370
    25
100
AcDbText
 10
-181.88
 20
-4.105772405495713
 30
0.0
 40
3.0
  1
番号
 41
0.9374999999999998
  7
ACJISTS
100
AcDbText
1001
GENIUS_GENBLLY_14
1000
BOR2
1001
GENIUS_GENTRA_14
1002
{
1070
     1
1000
GENTRATX{2},%s,(GENMSG gendwg 98)
1000
番号
1000
JPN
1070
     0
1040
1.0
1070
     0
1002
}
  0
LINE
  5
5DD
330
5D6
100
AcDbEntity
  8
0
100
AcDbLine
 10
-182.88
 20
-5.347300637836809
 30
0.0
 11
-182.88
 21
0.0
 31
0.0
  0
LINE
  5
5DE
330
5D6
100
AcDbEntity
  8
AM_BOR
 62
     1
370
    25
100
AcDbLine
 10
-174.0
 20
-5.347300637836809
 30
0.0
 11
-174.0
 21
0.0
 31
0.0
1001
GENIUS_GENBLLY_14
1000
BOR2
  0
LINE
  5
5DF
330
5D6
100
AcDbEntity
  8
AM_BOR
 62
     1
370
    25
100
AcDbLine
 10
-154.0
 20
0.0
 30
0.0
 11
-154.0
 21
-5.347300637836809
 31
0.0
1001
GENIUS_GENBLLY_14
1000
BOR2
  0
LINE
  5
5E0
330
5D6
100
AcDbEntity
  8
AM_BOR
 62
     1
370
    25
100
AcDbLine
 10
-23.0
 20
0.0
 30
0.0
 11
-23.0
 21
-5.347300637836838
 31
0.0
1001
GENIUS_GENBLLY_14
1000
BOR2
  0
LINE
  5
5E1
330
5D6
100
AcDbEntity
  8
0
100
AcDbLine
 10
0.0
 20
0.0
 30
0.0
 11
0.0
 21
-5.347300637836838
 31
0.0
  0
ENDBLK
  5
5E3
330
5D6
100
AcDbEntity
  8
0
100
AcDbBlockEnd
  0
BLOCK
  5
5F8
330
5E4
100
AcDbEntity
  8
0
100
AcDbBlockBegin
  2
jis_br_revisionlist1
 70
     2
 10
0.0
 20
0.0
 30
0.0
  3
jis_br_revisionlist1
  1

  0
LINE
  5
5E5
330
5E4
100
AcDbEntity
  8
0
100
AcDbLine
 10
0.0
 20
-5.0
 30
0.0
 11
0.0
 21
0.0
 31
0.0
  0
LINE
  5
5E6
330
5E4
100
AcDbEntity
  8
AM_BOR
 62
     1
370
    25
100
AcDbLine
 10
-23.0
 20
-5.0
 30
0.0
 11
-23.0
 21
0.0
 31
0.0
1001
GENIUS_GENBLLY_14
1000
BOR2
  0
ATTDEF
  5
5E7
330
5E4
100
AcDbEntity
  8
AM_BOR
 62
     1
370
    25
100
AcDbText
 10
-22.0
 20
-3.713127744944017
 30
0.0
 40
3.0
  1

  7
ACJISTS
100
AcDbAttributeDefinition
  3
名前
  2
GEN-REV-NAME{7}
 70
     0
1001
GENIUS_GENBLLY_14
1000
BOR2
1001
GENIUS_GENTRA_14
1002
{
1070
     3
1000
GENTRAPR,%s,(GENMSG gendwg 97)
1000
名前
1000
JPN
1070
     0
1070
     0
1002
}
  0
LINE
  5
5E8
330
5E4
100
AcDbEntity
  8
0
100
AcDbLine
 10
0.0
 20
-10.0
 30
0.0
 11
0.0
 21
-5.0
 31
0.0
  0
LINE
  5
5E9
330
5E4
100
AcDbEntity
  8
AM_BOR
 62
     1
370
    25
100
AcDbLine
 10
-23.0
 20
-10.0
 30
0.0
 11
-23.0
 21
-5.0
 31
0.0
1001
GENIUS_GENBLLY_14
1000
BOR2
  0
LINE
  5
5EA
330
5E4
100
AcDbEntity
  8
AM_BOR
 62
     1
370
    25
100
AcDbLine
 10
-154.0
 20
-5.0
 30
0.0
 11
-154.0
 21
0.0
 31
0.0
1001
GENIUS_GENBLLY_14
1000
BOR2
  0
LINE
  5
5EB
330
5E4
100
AcDbEntity
  8
AM_BOR
 62
     1
370
    25
100
AcDbLine
 10
-154.0
 20
-10.0
 30
0.0
 11
-154.0
 21
-5.0
 31
0.0
1001
GENIUS_GENBLLY_14
1000
BOR2
  0
ATTDEF
  5
5EC
330
5E4
100
AcDbEntity
  8
AM_BOR
 62
     1
370
    25
100
AcDbText
 10
-153.0
 20
-4.000000000001477
 30
0.0
 40
3.0
  1

  7
ACJISTS
100
AcDbAttributeDefinition
  3
履歴 1 行目
  2
GEN-REV-TEXT1{43}
 70
     0
1001
GENIUS_GENBLLY_14
1000
BOR2
1001
GENIUS_GENTRA_14
1002
{
1070
     3
1000
GENTRAPR,%s,(GENMSG gendwg 94)
1000
履歴 1 行目
1000
JPN
1070
     0
1070
     0
1002
}
  0
ATTDEF
  5
5ED
330
5E4
100
AcDbEntity
  8
AM_BOR
 62
     1
370
    25
100
AcDbText
 10
-153.0
 20
-9.000000000001477
 30
0.0
 40
3.0
  1

  7
ACJISTS
100
AcDbAttributeDefinition
  3
履歴 2 行目
  2
GEN-REV-TEXT2{43}
 70
     0
1001
GENIUS_GENBLLY_14
1000
BOR2
1001
GENIUS_GENTRA_14
1002
{
1070
     3
1000
GENTRAPR,%s,(GENMSG gendwg 92)
1000
履歴 2 行目
1000
JPN
1070
     0
1070
     0
1002
}
  0
LINE
  5
5EE
330
5E4
100
AcDbEntity
  8
0
100
AcDbLine
 10
-182.88
 20
0.0
 30
0.0
 11
-182.88
 21
-5.0
 31
0.0
  0
LINE
  5
5EF
330
5E4
100
AcDbEntity
  8
AM_BOR
 62
     1
370
    25
100
AcDbLine
 10
-174.0
 20
-10.0
 30
0.0
 11
-174.0
 21
0.0
 31
0.0
1001
GENIUS_GENBLLY_14
1000
BOR2
  0
LINE
  5
5F0
330
5E4
100
AcDbEntity
  8
0
100
AcDbLine
 10
-182.88
 20
-5.0
 30
0.0
 11
-182.88
 21
-10.0
 31
0.0
  0
LINE
  5
5F1
330
5E4
100
AcDbEntity
  8
0
100
AcDbLine
 10
-174.0
 20
-9.999999963957804
 30
0.0
 11
-174.0
 21
0.0
 31
0.0
  0
ATTDEF
  5
5F2
330
5E4
100
AcDbEntity
  8
AM_BOR
 62
     1
370
    25
100
AcDbText
 10
-173.0
 20
-8.999999999999658
 30
0.0
 40
3.0
  1

  7
ACJISTS
100
AcDbAttributeDefinition
  3
図面名
  2
GEN-REV-BLK{6}
 70
     0
1001
GENIUS_GENBLLY_14
1000
BOR2
1001
GENIUS_GENTRA_14
1002
{
1070
     3
1000
GENTRAPR,%s,(GENMSG gendwg 93)
1000
図面名
1000
JPN
1070
     0
1070
     0
1002
}
  0
ATTDEF
  5
5F3
330
5E4
100
AcDbEntity
  8
AM_BOR
 62
     1
370
    25
100
AcDbText
 10
-173.0
 20
-3.999999999999658
 30
0.0
 40
3.0
  1

  7
ACJISTS
100
AcDbAttributeDefinition
  3
日付
  2
GEN-REV-DAT{6}
 70
     0
1001
GENIUS_GENBLLY_14
1000
BOR2
1001
GENIUS_GENTRA_14
1002
{
1070
     3
1000
GENTRAPR,%s,(GENMSG gendwg 95)
1000
日付
1000
JPN
1070
     0
1070
     0
1002
}
  0
ATTDEF
  5
5F4
330
5E4
100
AcDbEntity
  8
AM_BOR
 62
     1
370
    25
100
AcDbText
 10
-181.9473675889587
 20
-4.0
 30
0.0
 40
3.0
  1

  7
ACJISTS
100
AcDbAttributeDefinition
  3
番号
  2
GEN-REV-NR{2}
 70
     0
1001
GENIUS_GENBLLY_14
1000
BOR2
1001
GENIUS_GENTRA_14
1002
{
1070
     3
1000
GENTRAPR,%s,(GENMSG gendwg 98)
1000
番号
1000
JPN
1070
     0
1070
     0
1002
}
  0
LINE
  5
5F5
330
5E4
100
AcDbEntity
  8
0
100
AcDbLine
 10
-182.8799999324707
 20
-9.999999963957804
 30
0.0
 11
0.0000000675292426
 21
-9.999999963957804
 31
0.0
  0
LINE
  5
5F6
330
5E4
100
AcDbEntity
  8
AM_BOR
 62
     1
370
    25
100
AcDbLine
 10
-154.0
 20
-5.0
 30
0.0
 11
-23.0
 21
-5.0
 31
0.0
1001
GENIUS_GENBLLY_14
1000
BOR2
  0
LINE
  5
5F7
330
5E4
100
AcDbEntity
  8
0
100
AcDbLine
 10
-182.88
 20
0.0
 30
0.0
 11
0.0
 21
0.0
 31
0.0
  0
ENDBLK
  5
5F9
330
5E4
100
AcDbEntity
  8
0
100
AcDbBlockEnd
  0
BLOCK
  5
604
330
5FA
100
AcDbEntity
  8
0
100
AcDbBlockBegin
  2
jis_br_revisionlist
 70
     0
 10
0.0
 20
0.0
 30
0.0
  3
jis_br_revisionlist
  1

  0
INSERT
  5
5FB
330
5FA
100
AcDbEntity
  8
0
100
AcDbBlockReference
 66
     1
  2
jis_br_revisionlist1
 10
0.0
 20
15.34730060179464
 30
0.0
  0
ATTRIB
  5
5FC
330
5FB
100
AcDbEntity
  8
AM_BOR
 62
     1
370
    25
100
AcDbText
 10
-22.0
 20
11.63417285685062
 30
0.0
 40
3.0
  1

  7
ACJISTS
100
AcDbAttribute
  2
GEN-REV-NAME{7}
 70
     0
1001
GENIUS_GENBLLY_14
1000
BOR2
  0
ATTRIB
  5
5FD
330
5FB
100
AcDbEntity
  8
AM_BOR
 62
     1
370
    25
100
AcDbText
 10
-153.0
 20
11.34730060179316
 30
0.0
 40
3.0
  1

  7
ACJISTS
100
AcDbAttribute
  2
GEN-REV-TEXT1{43}
 70
     0
1001
GENIUS_GENBLLY_14
1000
BOR2
  0
ATTRIB
  5
5FE
330
5FB
100
AcDbEntity
  8
AM_BOR
 62
     1
370
    25
100
AcDbText
 10
-153.0
 20
6.347300601793168
 30
0.0
 40
3.0
  1

  7
ACJISTS
100
AcDbAttribute
  2
GEN-REV-TEXT2{43}
 70
     0
1001
GENIUS_GENBLLY_14
1000
BOR2
  0
ATTRIB
  5
5FF
330
5FB
100
AcDbEntity
  8
AM_BOR
 62
     1
370
    25
100
AcDbText
 10
-173.0
 20
6.347300601794987
 30
0.0
 40
3.0
  1

  7
ACJISTS
100
AcDbAttribute
  2
GEN-REV-BLK{6}
 70
     0
1001
GENIUS_GENBLLY_14
1000
BOR2
  0
ATTRIB
  5
600
330
5FB
100
AcDbEntity
  8
AM_BOR
 62
     1
370
    25
100
AcDbText
 10
-173.0
 20
11.34730060179498
 30
0.0
 40
3.0
  1

  7
ACJISTS
100
AcDbAttribute
  2
GEN-REV-DAT{6}
 70
     0
1001
GENIUS_GENBLLY_14
1000
BOR2
  0
ATTRIB
  5
601
330
5FB
100
AcDbEntity
  8
AM_BOR
 62
     1
370
    25
100
AcDbText
 10
-181.9473675889587
 20
11.34730060179464
 30
0.0
 40
3.0
  1

  7
ACJISTS
100
AcDbAttribute
  2
GEN-REV-NR{2}
 70
     0
1001
GENIUS_GENBLLY_14
1000
BOR2
  0
SEQEND
  5
602
330
5FB
100
AcDbEntity
  8
0
  0
INSERT
  5
603
330
5FA
100
AcDbEntity
  8
0
100
AcDbBlockReference
  2
jis_br_revisionlist0
 10
0.0
 20
5.347300637836838
 30
0.0
  0
ENDBLK
  5
605
330
5FA
100
AcDbEntity
  8
0
100
AcDbBlockEnd
  0
BLOCK
  5
6BE
330
6A8
100
AcDbEntity
  8
0
100
AcDbBlockBegin
  2
IGS_A3
 70
     0
 10
0.0
 20
0.0
 30
0.0
  3
IGS_A3
  1

  0
LINE
  5
6A9
330
6A8
100
AcDbEntity
  8
AM_BOR
100
AcDbLine
 10
0.0
 20
0.0
 30
0.0
 11
0.0
 21
10.0
 31
0.0
  0
LINE
  5
6AA
330
6A8
100
AcDbEntity
  8
AM_BOR
100
AcDbLine
 10
0.0
 20
297.0
 30
0.0
 11
10.0
 21
297.0
 31
0.0
  0
LINE
  5
6AB
330
6A8
100
AcDbEntity
  8
AM_BOR
100
AcDbLine
 10
420.0
 20
297.0
 30
0.0
 11
420.0
 21
287.0
 31
0.0
  0
LINE
  5
6AC
330
6A8
100
AcDbEntity
  8
AM_BOR
100
AcDbLine
 10
420.0
 20
0.0
 30
0.0
 11
410.0
 21
0.0
 31
0.0
  0
LINE
  5
6AD
330
6A8
100
AcDbEntity
  8
0
100
AcDbLine
 10
25.0
 20
10.0
 30
0.0
 11
25.0
 21
287.0
 31
0.0
  0
LINE
  5
6AE
330
6A8
100
AcDbEntity
  8
0
100
AcDbLine
 10
410.0
 20
10.0
 30
0.0
 11
25.0
 21
10.0
 31
0.0
  0
LINE
  5
6AF
330
6A8
100
AcDbEntity
  8
0
100
AcDbLine
 10
410.0
 20
287.0
 30
0.0
 11
410.0
 21
10.0
 31
0.0
  0
LINE
  5
6B0
330
6A8
100
AcDbEntity
  8
0
100
AcDbLine
 10
25.0
 20
287.0
 30
0.0
 11
410.0
 21
287.0
 31
0.0
  0
LINE
  5
6B1
330
6A8
100
AcDbEntity
  8
AM_BOR
100
AcDbLine
 10
0.0
 20
287.0
 30
0.0
 11
0.0
 21
297.0
 31
0.0
  0
LINE
  5
6B2
330
6A8
100
AcDbEntity
  8
AM_BOR
100
AcDbLine
 10
10.0
 20
0.0
 30
0.0
 11
0.0
 21
0.0
 31
0.0
  0
LINE
  5
6B3
330
6A8
100
AcDbEntity
  8
AM_BOR
100
AcDbLine
 10
420.0
 20
10.0
 30
0.0
 11
420.0
 21
0.0
 31
0.0
  0
LINE
  5
6B4
330
6A8
100
AcDbEntity
  8
AM_BOR
100
AcDbLine
 10
410.0
 20
297.0
 30
0.0
 11
420.0
 21
297.0
 31
0.0
  0
TEXT
  5
6B5
330
6A8
100
AcDbEntity
  8
0
 60
     1
100
AcDbText
 10
410.0
 20
287.0
 30
0.0
 40
3.5
  1
!GENTITLE-RU
  7
ACJISTS
100
AcDbText
  0
TEXT
  5
6B6
330
6A8
100
AcDbEntity
  8
0
 60
     1
100
AcDbText
 10
420.0
 20
297.0
 30
0.0
 40
3.5
  1
!GENTITLE-MAX
  7
ACJISTS
100
AcDbText
  0
TEXT
  5
6B7
330
6A8
100
AcDbEntity
  8
0
 60
     1
100
AcDbText
 10
410.0
 20
10.0
 30
0.0
 40
3.5
  1
!GENTITLE-INSERT
  7
ACJISTS
100
AcDbText
  0
TEXT
  5
6B8
330
6A8
100
AcDbEntity
  8
0
 60
     1
100
AcDbText
 10
25.0
 20
10.0
 30
0.0
 40
3.5
  1
!GENTITLE-LL
  7
ACJISTS
100
AcDbText
  0
LINE
  5
6B9
330
6A8
100
AcDbEntity
  8
AM_BOR
 62
     1
370
    25
100
AcDbLine
 10
0.0
 20
297.0
 30
0.0
 11
420.0
 21
297.0
 31
0.0
  0
LINE
  5
6BA
330
6A8
100
AcDbEntity
  8
AM_BOR
 62
     1
370
    25
100
AcDbLine
 10
420.0
 20
297.0
 30
0.0
 11
420.0
 21
0.0
 31
0.0
  0
LINE
  5
6BB
330
6A8
100
AcDbEntity
  8
AM_BOR
 62
     1
370
    25
100
AcDbLine
 10
420.0
 20
0.0
 30
0.0
 11
0.0
 21
0.0
 31
0.0
  0
LINE
  5
6BC
330
6A8
100
AcDbEntity
  8
AM_BOR
 62
     1
370
    25
100
AcDbLine
 10
0.0
 20
0.0
 30
0.0
 11
0.0
 21
297.0
 31
0.0
  0
TEXT
  5
6BD
330
6A8
100
AcDbEntity
  8
DEFPOINTS
100
AcDbText
 10
19.5941472374451
 20
2.504073349097552
 30
0.0
 40
5.0
  1
A3
100
AcDbText
  0
ENDBLK
  5
6BF
330
6A8
100
AcDbEntity
  8
0
100
AcDbBlockEnd
  0
BLOCK
  5
A06
330
A05
100
AcDbEntity
  8
1
100
AcDbBlockBegin
  2
MAKR0
 70
     0
 10
292.492066055
 20
1921.0328893373
 30
0.0
  3
MAKR0
  1

  0
CIRCLE
  5
A07
330
A05
100
AcDbEntity
  8
1
  6
ByBlock
 62
     7
100
AcDbCircle
 10
292.492066055
 20
1921.0328893373
 30
0.0
 40
30.0
  0
TEXT
  5
A08
330
A05
100
AcDbEntity
  8
1
  6
Continuous
 62
     7
100
AcDbText
 10
277.492066
 20
1901.032889
 30
0.0
 40
40.0
  1
１
 41
1.25
 72
     5
 11
307.492066
 21
1901.032889
 31
0.0
100
AcDbText
  0
ENDBLK
  5
A09
330
A05
100
AcDbEntity
  8
0
100
AcDbBlockEnd
  0
BLOCK
  5
A57
330
A56
100
AcDbEntity
  8
1
100
AcDbBlockBegin
  2
LTEX0
 70
     0
 10
1078.3704519924
 20
-110.1040577174
 30
0.0
  3
LTEX0
  1

  0
SOLID
  5
A58
330
A56
100
AcDbEntity
  8
1
  6
Continuous
 62
     3
100
AcDbTrace
 10
1095.2764817508
 20
-120.7898500515
 30
0.0
 11
1087.6686070733
 21
-127.8112402175
 31
0.0
 12
1078.3704519924
 22
-110.1040577174
 32
0.0
 13
1078.3704519924
 23
-110.1040577174
 33
0.0
  0
TEXT
  5
A59
330
A56
100
AcDbEntity
  8
1
  6
Continuous
 62
     7
100
AcDbText
 10
1236.699009
 20
-271.657523
 30
0.0
 40
40.0
  1
ＩＲＢ－１５ｘ８ケ
 41
0.7644230769230771
 72
     5
 11
1554.699009
 21
-271.657523
 31
0.0
100
AcDbText
  0
LINE
  5
A5A
330
A56
100
AcDbEntity
  8
1
  6
ByBlock
 62
     3
100
AcDbLine
 10
1078.3704519924
 20
-110.1040577174
 30
0.0
 11
1236.6990086915
 21
-281.6575234514
 31
0.0
  0
LINE
  5
A5B
330
A56
100
AcDbEntity
  8
1
  6
ByBlock
 62
     3
100
AcDbLine
 10
1236.6990086915
 20
-281.6575234514
 30
0.0
 11
1554.6990086915
 21
-281.6575234514
 31
0.0
  0
ENDBLK
  5
A5C
330
A56
100
AcDbEntity
  8
0
100
AcDbBlockEnd
  0
BLOCK
  5
A5E
330
A5D
100
AcDbEntity
  8
1
100
AcDbBlockBegin
  2
MAKR1
 70
     0
 10
1387.0542875131
 20
-335.5795839408
 30
0.0
  3
MAKR1
  1

  0
CIRCLE
  5
A5F
330
A5D
100
AcDbEntity
  8
1
  6
ByBlock
 62
     3
100
AcDbCircle
 10
1387.0542875131
 20
-335.5795839408
 30
0.0
 40
50.0
  0
TEXT
  5
A60
330
A5D
100
AcDbEntity
  8
1
  6
Continuous
 62
     7
100
AcDbText
 10
1367.054288
 20
-360.579584
 30
0.0
 40
50.0
  1
１
 41
1.333333333333333
 72
     5
 11
1407.054288
 21
-360.579584
 31
0.0
100
AcDbText
  0
ENDBLK
  5
A61
330
A5D
100
AcDbEntity
  8
0
100
AcDbBlockEnd
  0
BLOCK
  5
1040
330
FB0
100
AcDbEntity
  8
0
100
AcDbBlockBegin
  2
*D22
 70
     1
 10
0.0
 20
0.0
 30
0.0
  3
*D22
  1

  0
LINE
  5
1177
330
FB0
100
AcDbEntity
  8
AM_5
100
AcDbLine
 10
10218.6209889434
 20
4433.820551979635
 30
0.0
 11
10218.6209889434
 21
4528.167478775404
 31
0.0
  0
LINE
  5
1178
330
FB0
100
AcDbEntity
  8
AM_5
100
AcDbLine
 10
10123.6209889434
 20
4433.820551979635
 30
0.0
 11
10123.6209889434
 21
4528.167478775404
 31
0.0
  0
LINE
  5
1179
330
FB0
100
AcDbEntity
  8
AM_5
100
AcDbLine
 10
10193.62098894341
 20
4518.167478775405
 30
0.0
 11
10148.6209889434
 21
4518.167478775405
 31
0.0
  0
INSERT
  5
117A
330
FB0
100
AcDbEntity
  8
AM_5
100
AcDbBlockReference
  2
_Open30
 10
10218.6209889434
 20
4518.167478775405
 30
0.0
 41
25.0
 42
25.0
 43
25.0
  0
INSERT
  5
117B
330
FB0
100
AcDbEntity
  8
AM_5
100
AcDbBlockReference
  2
_Open30
 10
10123.6209889434
 20
4518.167478775405
 30
0.0
 41
25.0
 42
25.0
 43
25.0
 50
180.0
  0
MTEXT
  5
117C
330
FB0
100
AcDbEntity
  8
AM_5
 62
     2
100
AcDbMText
 10
10171.1209889434
 20
4555.667478775404
 30
0.0
 40
45.0
 41
0.0
 71
     5
 72
     1
  1
95
 73
     1
 44
1.0
  0
POINT
  5
117D
330
FB0
100
AcDbEntity
  8
DEFPOINTS
 62
     0
100
AcDbPoint
 10
10218.6209889434
 20
4423.820551979634
 30
0.0
  0
POINT
  5
117E
330
FB0
100
AcDbEntity
  8
DEFPOINTS
 62
     0
100
AcDbPoint
 10
10123.6209889434
 20
4423.820551979634
 30
0.0
  0
POINT
  5
117F
330
FB0
100
AcDbEntity
  8
DEFPOINTS
 62
     0
100
AcDbPoint
 10
10123.6209889434
 20
4518.167478775405
 30
0.0
  0
ENDBLK
  5
1041
330
FB0
100
AcDbEntity
  8
0
100
AcDbBlockEnd
  0
BLOCK
  5
1042
330
FBA
100
AcDbEntity
  8
0
100
AcDbBlockBegin
  2
*D23
 70
     1
 10
0.0
 20
0.0
 30
0.0
  3
*D23
  1

  0
LINE
  5
1180
330
FBA
100
AcDbEntity
  8
AM_5
100
AcDbLine
 10
11823.6209889434
 20
4433.820551979635
 30
0.0
 11
11823.6209889434
 21
4528.167478775404
 31
0.0
  0
LINE
  5
1181
330
FBA
100
AcDbEntity
  8
AM_5
100
AcDbLine
 10
11728.62098894341
 20
4433.820551979635
 30
0.0
 11
11728.62098894341
 21
4528.167478775404
 31
0.0
  0
LINE
  5
1182
330
FBA
100
AcDbEntity
  8
AM_5
100
AcDbLine
 10
11798.6209889434
 20
4518.167478775405
 30
0.0
 11
11753.6209889434
 21
4518.167478775405
 31
0.0
  0
INSERT
  5
1183
330
FBA
100
AcDbEntity
  8
AM_5
100
AcDbBlockReference
  2
_Open30
 10
11823.6209889434
 20
4518.167478775405
 30
0.0
 41
25.0
 42
25.0
 43
25.0
  0
INSERT
  5
1184
330
FBA
100
AcDbEntity
  8
AM_5
100
AcDbBlockReference
  2
_Open30
 10
11728.62098894341
 20
4518.167478775405
 30
0.0
 41
25.0
 42
25.0
 43
25.0
 50
180.0
  0
MTEXT
  5
1185
330
FBA
100
AcDbEntity
  8
AM_5
 62
     2
100
AcDbMText
 10
11776.12098894341
 20
4555.667478775404
 30
0.0
 40
45.0
 41
0.0
 71
     5
 72
     1
  1
95
 73
     1
 44
1.0
  0
POINT
  5
1186
330
FBA
100
AcDbEntity
  8
DEFPOINTS
 62
     0
100
AcDbPoint
 10
11823.6209889434
 20
4423.820551979634
 30
0.0
  0
POINT
  5
1187
330
FBA
100
AcDbEntity
  8
DEFPOINTS
 62
     0
100
AcDbPoint
 10
11728.62098894341
 20
4423.820551979634
 30
0.0
  0
POINT
  5
1188
330
FBA
100
AcDbEntity
  8
DEFPOINTS
 62
     0
100
AcDbPoint
 10
11728.62098894341
 20
4518.167478775405
 30
0.0
  0
ENDBLK
  5
1043
330
FBA
100
AcDbEntity
  8
0
100
AcDbBlockEnd
  0
BLOCK
  5
1044
330
FC4
100
AcDbEntity
  8
0
100
AcDbBlockBegin
  2
*D24
 70
     1
 10
0.0
 20
0.0
 30
0.0
  3
*D24
  1

  0
LINE
  5
1131
330
FC4
100
AcDbEntity
  8
AM_5
100
AcDbLine
 10
11823.6209889434
 20
4433.820551979635
 30
0.0
 11
11823.6209889434
 21
4741.820551979635
 31
0.0
  0
LINE
  5
1132
330
FC4
100
AcDbEntity
  8
AM_5
100
AcDbLine
 10
10123.6209889434
 20
4433.820551979635
 30
0.0
 11
10123.6209889434
 21
4741.820551979635
 31
0.0
  0
LINE
  5
1133
330
FC4
100
AcDbEntity
  8
AM_5
100
AcDbLine
 10
11798.6209889434
 20
4731.820551979635
 30
0.0
 11
10148.6209889434
 21
4731.820551979635
 31
0.0
  0
INSERT
  5
1134
330
FC4
100
AcDbEntity
  8
AM_5
100
AcDbBlockReference
  2
_Open30
 10
11823.6209889434
 20
4731.820551979635
 30
0.0
 41
25.0
 42
25.0
 43
25.0
  0
INSERT
  5
1135
330
FC4
100
AcDbEntity
  8
AM_5
100
AcDbBlockReference
  2
_Open30
 10
10123.6209889434
 20
4731.820551979635
 30
0.0
 41
25.0
 42
25.0
 43
25.0
 50
180.0
  0
MTEXT
  5
1136
330
FC4
100
AcDbEntity
  8
AM_5
 62
     2
100
AcDbMText
 10
10973.6209889434
 20
4769.320551979634
 30
0.0
 40
45.0
 41
0.0
 71
     5
 72
     1
  1
%%c1700
 73
     1
 44
1.0
  0
POINT
  5
1137
330
FC4
100
AcDbEntity
  8
DEFPOINTS
 62
     0
100
AcDbPoint
 10
11823.6209889434
 20
4423.820551979634
 30
0.0
  0
POINT
  5
1138
330
FC4
100
AcDbEntity
  8
DEFPOINTS
 62
     0
100
AcDbPoint
 10
10123.6209889434
 20
4423.820551979634
 30
0.0
  0
POINT
  5
1139
330
FC4
100
AcDbEntity
  8
DEFPOINTS
 62
     0
100
AcDbPoint
 10
10123.6209889434
 20
4731.820551979635
 30
0.0
  0
ENDBLK
  5
1045
330
FC4
100
AcDbEntity
  8
0
100
AcDbBlockEnd
  0
BLOCK
  5
1046
330
FCE
100
AcDbEntity
  8
0
100
AcDbBlockBegin
  2
*D25
 70
     1
 10
0.0
 20
0.0
 30
0.0
  3
*D25
  1

  0
LINE
  5
1019
330
FCE
100
AcDbEntity
  8
AM_5
100
AcDbLine
 10
10113.62098894341
 20
4423.820551979634
 30
0.0
 11
9993.620988943407
 21
4423.820551979634
 31
0.0
  0
LINE
  5
101A
330
FCE
100
AcDbEntity
  8
AM_5
100
AcDbLine
 10
10113.62098894341
 20
4303.820551979635
 30
0.0
 11
9993.620988943407
 21
4303.820551979635
 31
0.0
  0
LINE
  5
101B
330
FCE
100
AcDbEntity
  8
AM_5
100
AcDbLine
 10
10003.6209889434
 20
4398.820551979635
 30
0.0
 11
10003.6209889434
 21
4328.820551979634
 31
0.0
  0
INSERT
  5
101C
330
FCE
100
AcDbEntity
  8
AM_5
100
AcDbBlockReference
  2
_Open30
 10
10003.6209889434
 20
4423.820551979634
 30
0.0
 41
25.0
 42
25.0
 43
25.0
 50
90.0
  0
INSERT
  5
101D
330
FCE
100
AcDbEntity
  8
AM_5
100
AcDbBlockReference
  2
_Open30
 10
10003.6209889434
 20
4303.820551979635
 30
0.0
 41
25.0
 42
25.0
 43
25.0
 50
270.0
  0
MTEXT
  5
101E
330
FCE
100
AcDbEntity
  8
AM_5
 62
     2
100
AcDbMText
 10
9966.116559809547
 20
4363.820551979635
 30
0.0
 40
45.0
 41
0.0
 71
     5
 72
     1
  1
120
 11
0.0000000000000001
 21
1.0
 31
0.0
 73
     1
 44
1.0
  0
POINT
  5
101F
330
FCE
100
AcDbEntity
  8
DEFPOINTS
 62
     0
100
AcDbPoint
 10
10123.6209889434
 20
4423.820551979634
 30
0.0
  0
POINT
  5
1020
330
FCE
100
AcDbEntity
  8
DEFPOINTS
 62
     0
100
AcDbPoint
 10
10123.6209889434
 20
4303.820551979635
 30
0.0
  0
POINT
  5
1021
330
FCE
100
AcDbEntity
  8
DEFPOINTS
 62
     0
100
AcDbPoint
 10
10003.6209889434
 20
4303.820551979635
 30
0.0
  0
ENDBLK
  5
1047
330
FCE
100
AcDbEntity
  8
0
100
AcDbBlockEnd
  0
BLOCK
  5
104A
330
FDE
100
AcDbEntity
  8
0
100
AcDbBlockBegin
  2
*D26
 70
     1
 10
0.0
 20
0.0
 30
0.0
  3
*D26
  1

  0
LINE
  5
116E
330
FDE
100
AcDbEntity
  8
AM_5
100
AcDbLine
 10
10218.6209889434
 20
4433.820551979635
 30
0.0
 11
10218.6209889434
 21
4528.167478775404
 31
0.0
  0
LINE
  5
116F
330
FDE
100
AcDbEntity
  8
AM_5
100
AcDbLine
 10
11728.62098894341
 20
4433.820551979635
 30
0.0
 11
11728.62098894341
 21
4528.167478775404
 31
0.0
  0
LINE
  5
1170
330
FDE
100
AcDbEntity
  8
AM_5
100
AcDbLine
 10
10243.6209889434
 20
4518.167478775405
 30
0.0
 11
11703.6209889434
 21
4518.167478775405
 31
0.0
  0
INSERT
  5
1171
330
FDE
100
AcDbEntity
  8
AM_5
100
AcDbBlockReference
  2
_Open30
 10
10218.6209889434
 20
4518.167478775405
 30
0.0
 41
25.0
 42
25.0
 43
25.0
 50
180.0
  0
INSERT
  5
1172
330
FDE
100
AcDbEntity
  8
AM_5
100
AcDbBlockReference
  2
_Open30
 10
11728.62098894341
 20
4518.167478775405
 30
0.0
 41
25.0
 42
25.0
 43
25.0
  0
MTEXT
  5
1173
330
FDE
100
AcDbEntity
  8
AM_5
 62
     2
100
AcDbMText
 10
10973.6209889434
 20
4555.667478775404
 30
0.0
 40
45.0
 41
0.0
 71
     5
 72
     1
  1
%%c1510
 73
     1
 44
1.0
  0
POINT
  5
1174
330
FDE
100
AcDbEntity
  8
DEFPOINTS
 62
     0
100
AcDbPoint
 10
10218.6209889434
 20
4423.820551979634
 30
0.0
  0
POINT
  5
1175
330
FDE
100
AcDbEntity
  8
DEFPOINTS
 62
     0
100
AcDbPoint
 10
11728.62098894341
 20
4423.820551979634
 30
0.0
  0
POINT
  5
1176
330
FDE
100
AcDbEntity
  8
DEFPOINTS
 62
     0
100
AcDbPoint
 10
11728.62098894341
 20
4518.167478775405
 30
0.0
  0
ENDBLK
  5
104B
330
FDE
100
AcDbEntity
  8
0
100
AcDbBlockEnd
  0
BLOCK
  5
10A4
330
108A
100
AcDbEntity
  8
0
100
AcDbBlockBegin
  2
*D27
 70
     1
 10
0.0
 20
0.0
 30
0.0
  3
*D27
  1

  0
LINE
  5
1096
330
108A
100
AcDbEntity
  8
AM_5
100
AcDbLine
 10
10361.68211330162
 20
5382.371327858753
 30
0.0
 11
10276.82929955924
 21
5297.518514116347
 31
0.0
  0
LINE
  5
1097
330
108A
100
AcDbEntity
  8
AM_5
100
AcDbLine
 10
10368.75318111369
 20
5375.300260046691
 30
0.0
 11
10283.90036737131
 21
5290.447446304288
 31
0.0
  0
LINE
  5
1098
330
108A
100
AcDbEntity
  8
AM_5
100
AcDbLine
 10
10266.22269784144
 20
5322.267251457876
 30
0.0
 11
10248.54502831178
 21
5339.944920987537
 31
0.0
  0
LINE
  5
1099
330
108A
100
AcDbEntity
  8
AM_5
100
AcDbLine
 10
10308.64910471284
 20
5279.840844586491
 30
0.0
 11
10376.20285728085
 21
5212.287092018498
 31
0.0
  0
LINE
  5
109A
330
108A
100
AcDbEntity
  8
AM_5
100
AcDbLine
 10
10283.90036737111
 20
5304.589581928214
 30
0.0
 11
10290.97143518317
 21
5297.518514116154
 31
0.0
  0
INSERT
  5
109B
330
108A
100
AcDbEntity
  8
AM_5
100
AcDbBlockReference
  2
_Open30
 10
10283.90036737111
 20
5304.589581928214
 30
0.0
 41
25.0
 42
25.0
 43
25.0
 50
315.0000000000074
  0
INSERT
  5
109C
330
108A
100
AcDbEntity
  8
AM_5
100
AcDbBlockReference
  2
_Open30
 10
10290.97143518317
 20
5297.518514116154
 30
0.0
 41
25.0
 42
25.0
 43
25.0
 50
135.0000000000074
  0
MTEXT
  5
109D
330
108A
100
AcDbEntity
  8
AM_5
 62
     2
100
AcDbMText
 10
10377.78132005617
 20
5263.741637832163
 30
0.0
 40
45.0
 41
0.0
 71
     5
 72
     1
  1
10
 11
0.707106781186639
 21
-0.7071067811864561
 31
0.0
 73
     1
 44
1.0
  0
POINT
  5
109E
330
108A
100
AcDbEntity
  8
DEFPOINTS
 62
     0
100
AcDbPoint
 10
10368.75318111349
 20
5389.44239567062
 30
0.0
  0
POINT
  5
109F
330
108A
100
AcDbEntity
  8
DEFPOINTS
 62
     0
100
AcDbPoint
 10
10375.82424892555
 20
5382.371327858558
 30
0.0
  0
POINT
  5
10A0
330
108A
100
AcDbEntity
  8
DEFPOINTS
 62
     0
100
AcDbPoint
 10
10290.97143518317
 20
5297.518514116154
 30
0.0
  0
ENDBLK
  5
10A5
330
108A
100
AcDbEntity
  8
0
100
AcDbBlockEnd
  0
BLOCK
  5
10F3
330
10B6
100
AcDbEntity
  8
0
100
AcDbBlockBegin
  2
*D28
 70
     1
 10
0.0
 20
0.0
 30
0.0
  3
*D28
  1

  0
LINE
  5
10C2
330
10B6
100
AcDbEntity
  8
AM_5
100
AcDbLine
 10
10113.2087316674
 20
5992.239135688734
 30
0.0
 11
9993.208731667406
 21
5992.239135688734
 31
0.0
  0
LINE
  5
10C3
330
10B6
100
AcDbEntity
  8
AM_5
100
AcDbLine
 10
10113.20873166741
 20
5982.239135688497
 30
0.0
 11
9993.208731667406
 21
5982.239135688497
 31
0.0
  0
LINE
  5
10C4
330
10B6
100
AcDbEntity
  8
AM_5
100
AcDbLine
 10
10003.2087316674
 20
6017.239135688734
 30
0.0
 11
10003.2087316674
 21
6042.239135688735
 31
0.0
  0
LINE
  5
10C5
330
10B6
100
AcDbEntity
  8
AM_5
100
AcDbLine
 10
10003.2087316674
 20
5957.239135688497
 30
0.0
 11
10003.2087316674
 21
5861.703702617631
 31
0.0
  0
LINE
  5
10C6
330
10B6
100
AcDbEntity
  8
AM_5
100
AcDbLine
 10
10003.2087316674
 20
5992.239135688734
 30
0.0
 11
10003.2087316674
 21
5982.239135688497
 31
0.0
  0
INSERT
  5
10C7
330
10B6
100
AcDbEntity
  8
AM_5
100
AcDbBlockReference
  2
_Open30
 10
10003.2087316674
 20
5992.239135688734
 30
0.0
 41
25.0
 42
25.0
 43
25.0
 50
270.0
  0
INSERT
  5
10C8
330
10B6
100
AcDbEntity
  8
AM_5
100
AcDbBlockReference
  2
_Open30
 10
10003.2087316674
 20
5982.239135688497
 30
0.0
 41
25.0
 42
25.0
 43
25.0
 50
90.0
  0
MTEXT
  5
10C9
330
10B6
100
AcDbEntity
  8
AM_5
 62
     2
100
AcDbMText
 10
9965.708731667405
 20
5896.971419153064
 30
0.0
 40
45.0
 41
0.0
 71
     5
 72
     1
  1
10
 11
0.0000000000000001
 21
1.0
 31
0.0
 73
     1
 44
1.0
  0
POINT
  5
10CA
330
10B6
100
AcDbEntity
  8
DEFPOINTS
 62
     0
100
AcDbPoint
 10
10123.2087316674
 20
5992.239135688734
 30
0.0
  0
POINT
  5
10CB
330
10B6
100
AcDbEntity
  8
DEFPOINTS
 62
     0
100
AcDbPoint
 10
10123.20873166741
 20
5982.239135688497
 30
0.0
  0
POINT
  5
10CC
330
10B6
100
AcDbEntity
  8
DEFPOINTS
 62
     0
100
AcDbPoint
 10
10003.2087316674
 20
5982.239135688497
 30
0.0
  0
ENDBLK
  5
10F4
330
10B6
100
AcDbEntity
  8
0
100
AcDbBlockEnd
  0
BLOCK
  5
11AF
330
1199
100
AcDbEntity
  8
0
100
AcDbBlockBegin
  2
*D29
 70
     1
 10
0.0
 20
0.0
 30
0.0
  3
*D29
  1

  0
LINE
  5
11A3
330
1199
100
AcDbEntity
  8
AM_5
100
AcDbLine
 10
10263.6209889434
 20
4401.820551979635
 30
0.0
 11
10263.6209889434
 21
4628.167478775402
 31
0.0
  0
LINE
  5
11A4
330
1199
100
AcDbEntity
  8
AM_5
100
AcDbLine
 10
10123.6209889434
 20
4433.820551979635
 30
0.0
 11
10123.6209889434
 21
4628.167478775402
 31
0.0
  0
LINE
  5
11A5
330
1199
100
AcDbEntity
  8
AM_5
100
AcDbLine
 10
10238.6209889434
 20
4618.167478775403
 30
0.0
 11
10148.6209889434
 21
4618.167478775403
 31
0.0
  0
INSERT
  5
11A6
330
1199
100
AcDbEntity
  8
AM_5
100
AcDbBlockReference
  2
_Open30
 10
10263.6209889434
 20
4618.167478775403
 30
0.0
 41
25.0
 42
25.0
 43
25.0
  0
INSERT
  5
11A7
330
1199
100
AcDbEntity
  8
AM_5
100
AcDbBlockReference
  2
_Open30
 10
10123.6209889434
 20
4618.167478775403
 30
0.0
 41
25.0
 42
25.0
 43
25.0
 50
180.0
  0
MTEXT
  5
11A8
330
1199
100
AcDbEntity
  8
AM_5
 62
     2
100
AcDbMText
 10
10193.62098894341
 20
4655.667478775402
 30
0.0
 40
45.0
 41
0.0
 71
     5
 72
     1
  1
140
 73
     1
 44
1.0
  0
POINT
  5
11A9
330
1199
100
AcDbEntity
  8
DEFPOINTS
 62
     0
100
AcDbPoint
 10
10263.6209889434
 20
4391.820551979634
 30
0.0
  0
POINT
  5
11AA
330
1199
100
AcDbEntity
  8
DEFPOINTS
 62
     0
100
AcDbPoint
 10
10123.6209889434
 20
4423.820551979634
 30
0.0
  0
POINT
  5
11AB
330
1199
100
AcDbEntity
  8
DEFPOINTS
 62
     0
100
AcDbPoint
 10
10123.6209889434
 20
4618.167478775403
 30
0.0
  0
ENDBLK
  5
11B0
330
1199
100
AcDbEntity
  8
0
100
AcDbBlockEnd
  0
ENDSEC
  0
SECTION
  2
ENTITIES
  0
INSERT
  5
D04
330
1F
100
AcDbEntity
  8
0
370
     0
100
AcDbBlockReference
  2
IGS_A3
 10
12444.78803993401
 20
7774.98483487065
 30
0.0
 41
-10.0
 42
10.0
 43
10.0
 50
90.0
1001
GENIUS_GENOREF_13
1005
D0E
1001
GENIUS_GENODEF_13
1002
{
1000
HIER
1070
     0
1002
}
1002
{
1000
MANEDIT
1070
     0
1002
}
1002
{
1000
NOSEL
1070
     0
1002
}
1002
{
1000
BEHIND
1070
     0
1002
}
1002
{
1000
OTHER
1070
     0
1002
}
1002
{
1000
REACTOR
1002
}
1001
GENIUS_GENOBJ-N-SDF_13
1002
{
1000
OWNER
1000
GEN
1002
}
1001
GENIUS_GENSCREG_15
1040
10.0
1040
1.0
1011
12444.78803993401
1021
7774.98483487065
1031
0.0
1011
9474.788039934013
1021
3574.984834870651
1031
0.0
1070
     3
  0
INSERT
  5
D05
330
1F
100
AcDbEntity
  8
0
370
     0
100
AcDbBlockReference
 66
     1
  2
IGS2
 10
12344.78803993401
 20
3674.984834870651
 30
0.0
 41
10.0
 42
10.0
 43
10.0
1001
GENIUS_GENOREF_13
1005
D0E
  0
ATTRIB
  5
D07
330
D05
100
AcDbEntity
  8
RAHM3
100
AcDbText
 10
10872.19217280216
 20
3994.457724852511
 30
0.0
 40
40.0
  1
1:10
100
AcDbAttribute
  2
GEN-TITLE-SCA
 70
     0
  0
ATTRIB
  5
D08
330
D05
100
AcDbEntity
  8
RAHM3
100
AcDbText
 10
11613.88803993401
 20
3972.384834870651
 30
0.0
 40
50.0
  1
コンクリート受枠
100
AcDbAttribute
  2
ＴＩＴＬＥ
 70
     0
  0
ATTRIB
  5
D09
330
D05
100
AcDbEntity
  8
RAHM3
100
AcDbText
 10
11629.15925837561
 20
3893.02866614179
 30
0.0
 40
30.0
  1
ＩＣＲ-15
100
AcDbAttribute
  2
ｃｏｄｅ
 70
     0
  0
ATTRIB
  5
D0A
330
D05
100
AcDbEntity
  8
RAHM3
100
AcDbText
 10
11637.33997499438
 20
3823.028666141717
 30
0.0
 40
30.0
  1

100
AcDbAttribute
  2
件名
 70
     0
  0
ATTRIB
  5
D0B
330
D05
100
AcDbEntity
  8
RAHM3
100
AcDbText
 10
11613.88803993401
 20
3692.384834870579
 30
0.0
 40
50.0
  1
Ｔ２２Ａ００３５２
100
AcDbAttribute
  2
Ｎｏ．
 70
     0
  0
ATTRIB
  5
D0C
330
D05
100
AcDbEntity
  8
RAHM3
100
AcDbText
 10
11340.28803993401
 20
3849.055728081917
 30
0.0
 40
40.0
  1

100
AcDbAttribute
  2
ＤＲ
 70
     0
  0
ATTRIB
  5
D0D
330
D05
100
AcDbEntity
  8
RAHM3
100
AcDbText
 10
11307.60718689528
 20
3802.684834870651
 30
0.0
 40
30.0
  1

 41
0.8000000000000001
100
AcDbAttribute
  2
ｄａｔｅ
 70
     0
  0
SEQEND
  5
D06
330
D05
100
AcDbEntity
  8
0
370
     0
  0
POINT
  5
D0E
330
1F
100
AcDbEntity
  8
0
 60
     1
100
AcDbPoint
 10
0.0
 20
0.0
 30
0.0
1001
GENIUS_GENOLIS_13
1002
{
1000
ENT
1005
D05
1005
D04
1002
}
1001
GENIUS_GENOENT_13
1002
{
1000
MYREF
1005
D0E
1002
}
1002
{
1000
GRP
1005
0
1002
}
1001
GENIUS_GENOBJ-N-TIT_13
1002
{
1000
OWNER
1000
GEN
1002
}
1001
GENIUS_GENODEF_13
1002
{
1000
HIER
1070
     1
1002
}
1002
{
1000
MANEDIT
1070
     0
1002
}
1002
{
1000
NOSEL
1070
     0
1002
}
1002
{
1000
BEHIND
1070
     0
1002
}
1002
{
1000
OTHER
1070
     0
1002
}
1002
{
1000
REACTOR
1002
}
1001
GENIUS_GENTITLE_13
1002
{
1000
BORDER
1000
C:\WINNT\Profiles\Administrator\Application Data\Autodesk\AutoCAD\Recent\format\igs_a3
1002
}
1002
{
1000
TITLE
1000
C:\WINNT\Profiles\Administrator\Application Data\Autodesk\AutoCAD\Recent\format\IGS2
1002
}
1002
{
1000
SCALE
1000
1:10
1002
}
1002
{
1000
TITLESTD
1000
IGS
1002
}
1002
{
1000
HRA
1005
D04
1002
}
1002
{
1000
HTIT
1005
D05
1002
}
1002
{
1000
UNCHG
1002
{
1000
GEN-TITLE-SIZ
1000
GEN-TITLE-SCA
1002
}
1002
}
1002
{
1000
GENIUSID
1005
D0E
1002
}
  0
LINE
  5
F47
330
1F
100
AcDbEntity
  8
1
  6
Continuous
 62
     7
100
AcDbLine
 10
10664.78803993631
 20
7386.032636994307
 30
0.0
 11
12344.78803993401
 21
7386.032636994307
 31
0.0
  0
TEXT
  5
F48
330
1F
100
AcDbEntity
  8
1
  6
Continuous
 62
     7
100
AcDbText
 10
10819.78803987901
 20
7471.032636657007
 30
0.0
 40
40.0
  1
部品名
 41
2.219387755102041
 72
     5
 11
11109.78803987901
 21
7471.032636657007
 31
0.0
100
AcDbText
  0
LINE
  5
F49
330
1F
100
AcDbEntity
  8
1
  6
Continuous
 62
     7
100
AcDbLine
 10
10664.78803993631
 20
7456.032636994307
 30
0.0
 11
12344.78803993401
 21
7456.032636994307
 31
0.0
  0
TEXT
  5
F4A
330
1F
100
AcDbEntity
  8
1
  6
Continuous
 62
     7
100
AcDbText
 10
10789.74472987901
 20
7407.032636657007
 30
0.0
 40
28.0
  1
コンクリ－トブロック受枠
 41
0.924865229110512
 72
     5
 11
11155.74472987901
 21
7407.032636657007
 31
0.0
100
AcDbText
  0
INSERT
  5
F4B
330
1F
100
AcDbEntity
  8
1
  6
Continuous
 62
     7
100
AcDbBlockReference
  2
MAKR0
 10
10714.78803993401
 20
7421.032636994308
 30
0.0
  0
LINE
  5
F4C
330
1F
100
AcDbEntity
  8
1
  6
Continuous
 62
     7
100
AcDbLine
 10
10764.78803993401
 20
7386.032636994307
 30
0.0
 11
10764.78803993401
 21
7526.032636994307
 31
0.0
  0
LINE
  5
F4D
330
1F
100
AcDbEntity
  8
1
  6
Continuous
 62
     7
100
AcDbLine
 10
10664.78803993411
 20
7386.032636994307
 30
0.0
 11
10664.78803993401
 21
7526.032636994307
 31
0.0
  0
TEXT
  5
F4E
330
1F
100
AcDbEntity
  8
1
  6
Continuous
 62
     7
100
AcDbText
 10
10681.78803987901
 20
7471.032636657007
 30
0.0
 40
40.0
  1
部番
 41
0.7734375000000002
 72
     5
 11
10747.78803987901
 21
7471.032636657007
 31
0.0
100
AcDbText
  0
TEXT
  5
F4F
330
1F
100
AcDbEntity
  8
1
  6
Continuous
 62
     7
100
AcDbText
 10
11765.12137287901
 20
7471.032636657007
 30
0.0
 40
40.0
  1
外径寸法（Ｄ）
 41
0.8163716814159291
 72
     5
 11
12011.12137287901
 21
7471.032636657007
 31
0.0
100
AcDbText
  0
TEXT
  5
F50
330
1F
100
AcDbEntity
  8
1
  6
Continuous
 62
     7
100
AcDbText
 10
11828.73974987901
 20
7401.032636657006
 30
0.0
 40
40.0
  1
１７００
 41
0.7961538461538462
 72
     5
 11
11966.73974987901
 21
7401.032636657006
 31
0.0
100
AcDbText
  0
TEXT
  5
F51
330
1F
100
AcDbEntity
  8
1
  6
Continuous
 62
     7
100
AcDbText
 10
11284.78803987901
 20
7471.032636657007
 30
0.0
 40
40.0
  1
符号
 41
1.875
 72
     5
 11
11444.78803987901
 21
7471.032636657007
 31
0.0
100
AcDbText
  0
TEXT
  5
F52
330
1F
100
AcDbEntity
  8
1
  6
Continuous
 62
     7
100
AcDbText
 10
11268.03556287901
 20
7401.032636657006
 30
0.0
 40
40.0
  1
ＩＲＢ－１５
 41
0.7797029702970298
 72
     5
 11
11478.03556287901
 21
7401.032636657006
 31
0.0
100
AcDbText
  0
LINE
  5
F53
330
1F
100
AcDbEntity
  8
1
  6
Continuous
 62
     7
100
AcDbLine
 10
11164.78803993401
 20
7526.032636994307
 30
0.0
 11
11164.78803993401
 21
7386.032636994307
 31
0.0
  0
LINE
  5
F54
330
1F
100
AcDbEntity
  8
1
  6
Continuous
 62
     7
100
AcDbLine
 10
11698.12137326741
 20
7526.032636994307
 30
0.0
 11
11698.12137326731
 21
7386.032636994307
 31
0.0
  0
LINE
  5
F55
330
1F
100
AcDbEntity
  8
1
  6
Continuous
 62
     7
100
AcDbLine
 10
11564.78803993401
 20
7526.032636994307
 30
0.0
 11
11564.78803993401
 21
7386.032636994307
 31
0.0
  0
TEXT
  5
F56
330
1F
100
AcDbEntity
  8
1
  6
Continuous
 62
     7
100
AcDbText
 10
11598.45470687902
 20
7471.032636657007
 30
0.0
 40
40.0
  1
数量
 41
0.7734375
 72
     5
 11
11664.45470687901
 21
7471.032636657007
 31
0.0
100
AcDbText
  0
TEXT
  5
F57
330
1F
100
AcDbEntity
  8
1
  6
Continuous
 62
     7
100
AcDbText
 10
11616.45470687901
 20
7401.032636657006
 30
0.0
 40
40.0
  1
８
 41
1.022727272727272
 72
     5
 11
11646.45470687901
 21
7401.032636657006
 31
0.0
100
AcDbText
  0
TEXT
  5
F58
330
1F
100
AcDbEntity
  8
1
  6
Continuous
 62
     7
100
AcDbText
 10
12105.29597987901
 20
7471.032636657007
 30
0.0
 40
40.0
  1
重量（ｋｇ）
 41
0.8289473684210529
 72
     5
 11
12315.29597987901
 21
7471.032636657007
 31
0.0
100
AcDbText
  0
TEXT
  5
F59
330
1F
100
AcDbEntity
  8
1
  6
Continuous
 62
     7
100
AcDbText
 10
12160.45470687901
 20
7401.032636657006
 30
0.0
 40
40.0
  1
１８４
 41
0.7968750000000001
 72
     5
 11
12262.45470687901
 21
7401.032636657006
 31
0.0
100
AcDbText
  0
LINE
  5
F5A
330
1F
100
AcDbEntity
  8
1
  6
Continuous
 62
     7
100
AcDbLine
 10
12078.12137326741
 20
7526.032636994307
 30
0.0
 11
12078.12137326731
 21
7386.032636994307
 31
0.0
  0
LINE
  5
F62
330
1F
100
AcDbEntity
  8
AM_7
100
AcDbLine
 10
11922.72633363965
 20
5987.239135688735
 30
0.0
 11
10024.51564424715
 21
5987.239135688735
 31
0.0
  0
DIMENSION
  5
F63
330
1F
100
AcDbEntity
  8
AM_5
100
AcDbDimension
  2
*D24
 10
10123.6209889434
 20
4731.820551979635
 30
0.0
 11
10973.6209889434
 21
4769.320551979634
 31
0.0
 70
    32
  1
%%c<>
 71
     5
 42
1700.0
  3
IGS
100
AcDbAlignedDimension
 13
11823.6209889434
 23
4423.820551979634
 33
0.0
 14
10123.6209889434
 24
4423.820551979634
 34
0.0
100
AcDbRotatedDimension
  0
DIMENSION
  5
F64
330
1F
100
AcDbEntity
  8
AM_5
100
AcDbDimension
  2
*D26
 10
11728.62098894341
 20
4518.167478775405
 30
0.0
 11
10973.6209889434
 21
4555.667478775404
 31
0.0
 70
    32
  1
%%c<>
 71
     5
 42
1510.0
  3
IGS
100
AcDbAlignedDimension
 13
10218.6209889434
 23
4423.820551979634
 33
0.0
 14
11728.62098894341
 24
4423.820551979634
 34
0.0
100
AcDbRotatedDimension
1001
ACAD
1000
DSTYLE
1002
{
1070
   174
1070
     1
1002
}
  0
ARC
  5
F67
330
1F
100
AcDbEntity
  8
1
  6
Continuous
 62
     7
100
AcDbCircle
 10
10973.6209889434
 20
5987.239135688735
 30
0.0
 40
710.0
100
AcDbArc
 50
270.3794450221022
 51
314.6205549778995
  0
ARC
  5
F68
330
1F
100
AcDbEntity
  8
1
  6
Continuous
 62
     7
100
AcDbCircle
 10
10973.6209889434
 20
5987.239135688735
 30
0.0
 40
710.0
100
AcDbArc
 50
45.3794450221005
 51
89.62055497789782
  0
LINE
  5
F69
330
1F
100
AcDbEntity
  8
AM_7
100
AcDbLine
 10
10973.6209889434
 20
5056.457082896635
 30
0.0
 11
10973.6209889434
 21
6918.021188480835
 31
0.0
  0
ARC
  5
F6A
330
1F
100
AcDbEntity
  8
1
  6
Continuous
 62
     7
100
AcDbCircle
 10
10973.6209889434
 20
5987.239135688735
 30
0.0
 40
850.4269559022999
100
AcDbArc
 50
180.3368667303939
 51
224.6631332695967
  0
ARC
  5
F6B
330
1F
100
AcDbEntity
  8
1
  6
Continuous
 62
     7
100
AcDbCircle
 10
10973.6209889434
 20
5987.239135688735
 30
0.0
 40
755.0
100
AcDbArc
 50
225.3794450221005
 51
269.6205549778978
  0
ARC
  5
F6C
330
1F
100
AcDbEntity
  8
1
  6
Continuous
 62
     7
100
AcDbCircle
 10
10973.6209889434
 20
5987.239135688735
 30
0.0
 40
710.0
100
AcDbArc
 50
225.3794450221005
 51
269.6205549778978
  0
LINE
  5
F6D
330
1F
100
AcDbEntity
  8
1
  6
Continuous
 62
     7
100
AcDbLine
 10
10375.8242489253
 20
5382.371327858835
 30
0.0
 11
10475.1231574243
 21
5481.670236357735
 31
0.0
  0
LINE
  5
F6E
330
1F
100
AcDbEntity
  8
1
  6
Continuous
 62
     7
100
AcDbLine
 10
10368.75318111351
 20
5389.442395670634
 30
0.0
 11
10468.0520896124
 21
5488.741304169635
 31
0.0
  0
HATCH
  5
F6F
330
1F
100
AcDbEntity
  8
AM_8
100
AcDbHatch
 10
0.0
 20
0.0
 30
0.0
210
0.0
220
0.0
230
1.0
  2
PLAST
 70
     0
 71
     1
 91
        1
 92
        7
 72
     0
 73
     1
 93
        6
 10
10263.6209889434
 20
4303.820551979635
 10
10263.6209889434
 20
4391.820551979634
 10
10218.6209889434
 20
4391.820551979634
 10
10218.6209889434
 20
4423.820551979634
 10
10123.6209889434
 20
4423.820551979634
 10
10123.6209889434
 20
4303.820551979635
 97
        6
330
F79
330
F7A
330
F70
330
F74
330
F71
330
F7B
 75
     0
 76
     1
 52
45.0
 41
10.0
 77
     0
 78
     3
 53
45.0
 43
9766.121141479366
 44
3373.369719796994
 45
-44.90128060534575
 46
44.90128060534576
 79
     0
 53
45.0
 43
9760.508481403698
 44
3378.982379872662
 45
-44.90128060534575
 46
44.90128060534576
 79
     0
 53
45.0
 43
9754.895821328032
 44
3384.595039948331
 45
-44.90128060534575
 46
44.90128060534576
 79
     0
 47
1.920341076736757
 98
        1
 10
10178.3384862173
 20
4355.761167812115
  0
LINE
  5
F70
102
{ACAD_REACTORS
330
F6F
102
}
330
1F
100
AcDbEntity
  8
1
  6
Continuous
 62
     7
100
AcDbLine
 10
10468.0520896124
 20
4423.820551979634
 30
0.0
 11
10123.6209889434
 21
4423.820551979634
 31
0.0
  0
LINE
  5
F71
102
{ACAD_REACTORS
330
F6F
102
}
330
1F
100
AcDbEntity
  8
1
  6
Continuous
 62
     7
100
AcDbLine
 10
10123.6209889434
 20
4303.820551979635
 30
0.0
 11
10468.0520896124
 21
4303.820551979635
 31
0.0
  0
DIMENSION
  5
F72
330
1F
100
AcDbEntity
  8
AM_5
100
AcDbDimension
  2
*D22
 10
10123.6209889434
 20
4518.167478775405
 30
0.0
 11
10171.1209889434
 21
4555.667478775404
 31
0.0
 70
    32
 71
     5
 42
95.0
  3
IGS
100
AcDbAlignedDimension
 13
10218.6209889434
 23
4423.820551979634
 33
0.0
 14
10123.6209889434
 24
4423.820551979634
 34
0.0
100
AcDbRotatedDimension
1001
ACAD
1000
DSTYLE
1002
{
1070
   174
1070
     1
1002
}
  0
DIMENSION
  5
F73
330
1F
100
AcDbEntity
  8
AM_5
100
AcDbDimension
  2
*D25
 10
10003.6209889434
 20
4303.820551979635
 30
0.0
 11
9966.116559809547
 21
4363.820551979635
 31
0.0
 70
    32
 71
     5
 42
120.0
  3
IGS
100
AcDbAlignedDimension
 13
10123.6209889434
 23
4423.820551979634
 33
0.0
 14
10123.6209889434
 24
4303.820551979635
 34
0.0
 50
90.0
100
AcDbRotatedDimension
  0
LINE
  5
F74
102
{ACAD_REACTORS
330
F6F
102
}
330
1F
100
AcDbEntity
  8
1
  6
Continuous
 62
     7
100
AcDbLine
 10
10123.6209889434
 20
4423.820551979634
 30
0.0
 11
10123.6209889434
 21
4303.820551979635
 31
0.0
  0
ARC
  5
F75
330
1F
100
AcDbEntity
  8
1
  6
Continuous
 62
     7
100
AcDbCircle
 10
10973.6209889434
 20
5987.239135688735
 30
0.0
 40
850.4269559022999
100
AcDbArc
 50
225.3368667303998
 51
269.6631332695996
  0
LINE
  5
F76
330
1F
100
AcDbEntity
  8
1
  6
Continuous
 62
     7
100
AcDbLine
 10
10968.6209889434
 20
4423.820551979634
 30
0.0
 11
10475.1231574243
 21
4423.820551979634
 31
0.0
  0
LINE
  5
F77
330
1F
100
AcDbEntity
  8
1
  6
Continuous
 62
     7
100
AcDbLine
 10
10475.1231574243
 20
4303.820551979635
 30
0.0
 11
10968.6209889434
 21
4303.820551979635
 31
0.0
  0
LINE
  5
F78
330
1F
100
AcDbEntity
  8
1
  6
Continuous
 62
     7
100
AcDbLine
 10
10968.6209889434
 20
4391.820551979634
 30
0.0
 11
10475.1231574243
 21
4391.820551979634
 31
0.0
  0
LINE
  5
F79
102
{ACAD_REACTORS
330
F6F
102
}
330
1F
100
AcDbEntity
  8
1
  6
Continuous
 62
     7
100
AcDbLine
 10
10468.0520896124
 20
4391.820551979634
 30
0.0
 11
10218.6209889434
 21
4391.820551979634
 31
0.0
  0
LINE
  5
F7A
102
{ACAD_REACTORS
330
F6F
102
}
330
1F
100
AcDbEntity
  8
1
  6
Continuous
 62
     7
100
AcDbLine
 10
10218.6209889434
 20
4391.820551979634
 30
0.0
 11
10218.6209889434
 21
4423.820551979634
 31
0.0
  0
LINE
  5
F7B
102
{ACAD_REACTORS
330
F6F
102
}
330
1F
100
AcDbEntity
  8
1
  6
Continuous
 62
     7
100
AcDbLine
 10
10263.6209889434
 20
4303.820551979635
 30
0.0
 11
10263.6209889434
 21
4391.820551979634
 31
0.0
  0
LINE
  5
F7C
330
1F
100
AcDbEntity
  8
1
  6
Continuous
 62
     7
100
AcDbLine
 10
10468.0520896124
 20
4423.820551979634
 30
0.0
 11
10468.0520896124
 21
4303.820551979635
 31
0.0
  0
LINE
  5
F7D
330
1F
100
AcDbEntity
  8
1
  6
Continuous
 62
     7
100
AcDbLine
 10
10475.1231574243
 20
4303.820551979635
 30
0.0
 11
10475.1231574243
 21
4423.820551979634
 31
0.0
  0
LINE
  5
F7E
330
1F
100
AcDbEntity
  8
AM_7
100
AcDbLine
 10
10973.6209889434
 20
4465.102284716034
 30
0.0
 11
10973.6209889434
 21
4242.904579098734
 31
0.0
  0
LINE
  5
F7F
330
1F
100
AcDbEntity
  8
1
  6
Continuous
 62
     7
100
AcDbLine
 10
10968.6209889434
 20
4423.820551979634
 30
0.0
 11
10968.6209889434
 21
4303.820551979635
 31
0.0
  0
LINE
  5
F80
330
1F
100
AcDbEntity
  8
1
  6
Continuous
 62
     7
100
AcDbLine
 10
10968.6209889434
 20
5136.826878412733
 30
0.0
 11
10968.6209889434
 21
5277.256741540835
 31
0.0
  0
ARC
  5
F81
330
1F
100
AcDbEntity
  8
1
  6
Continuous
 62
     7
100
AcDbCircle
 10
10973.6209889434
 20
5987.239135688735
 30
0.0
 40
850.4269559022999
100
AcDbArc
 50
135.3368667304033
 51
179.6631332696061
  0
LINE
  5
F82
330
1F
100
AcDbEntity
  8
1
  6
Continuous
 62
     7
100
AcDbLine
 10
10123.2087316674
 20
5992.239135688734
 30
0.0
 11
10263.6385947955
 21
5992.239135688734
 31
0.0
  0
LINE
  5
F83
330
1F
100
AcDbEntity
  8
1
  6
Continuous
 62
     7
100
AcDbLine
 10
10123.2087316674
 20
5982.239135688735
 30
0.0
 11
10263.6385947955
 21
5982.239135688735
 31
0.0
  0
ARC
  5
F84
330
1F
100
AcDbEntity
  8
1
  6
Continuous
 62
     7
100
AcDbCircle
 10
10973.6209889434
 20
5987.239135688735
 30
0.0
 40
850.4269559022999
100
AcDbArc
 50
90.33686673040042
 51
134.6631332696001
  0
ARC
  5
F85
330
1F
100
AcDbEntity
  8
1
  6
Continuous
 62
     7
100
AcDbCircle
 10
10973.6209889434
 20
5987.239135688735
 30
0.0
 40
755.0
100
AcDbArc
 50
90.37944502210219
 51
134.6205549778995
  0
ARC
  5
F86
330
1F
100
AcDbEntity
  8
1
  6
Continuous
 62
     7
100
AcDbCircle
 10
10973.6209889434
 20
5987.239135688735
 30
0.0
 40
710.0
100
AcDbArc
 50
90.37944502210219
 51
134.6205549778995
  0
ARC
  5
F88
330
1F
100
AcDbEntity
  8
1
  6
Continuous
 62
     7
100
AcDbCircle
 10
10973.6209889434
 20
5987.239135688735
 30
0.0
 40
755.0
100
AcDbArc
 50
135.379445022097
 51
179.6205549778978
  0
ARC
  5
F89
330
1F
100
AcDbEntity
  8
1
  6
Continuous
 62
     7
100
AcDbCircle
 10
10973.6209889434
 20
5987.239135688735
 30
0.0
 40
710.0
100
AcDbArc
 50
135.379445022097
 51
179.6205549778978
  0
ARC
  5
F8A
330
1F
100
AcDbEntity
  8
1
  6
Continuous
 62
     7
100
AcDbCircle
 10
10973.6209889434
 20
5987.239135688735
 30
0.0
 40
755.0
100
AcDbArc
 50
180.3794450221021
 51
224.620554977903
  0
ARC
  5
F8B
330
1F
100
AcDbEntity
  8
1
  6
Continuous
 62
     7
100
AcDbCircle
 10
10973.6209889434
 20
5987.239135688735
 30
0.0
 40
710.0
100
AcDbArc
 50
180.3794450221021
 51
224.620554977903
  0
LINE
  5
F8C
330
1F
100
AcDbEntity
  8
1
  6
Continuous
 62
     7
100
AcDbLine
 10
10375.8242489253
 20
6592.106943518635
 30
0.0
 11
10475.1231574243
 21
6492.808035019734
 31
0.0
  0
LINE
  5
F8D
330
1F
100
AcDbEntity
  8
1
  6
Continuous
 62
     7
100
AcDbLine
 10
10368.75318111351
 20
6585.035875706835
 30
0.0
 11
10468.0520896124
 21
6485.736967207834
 31
0.0
  0
LINE
  5
F8E
330
1F
100
AcDbEntity
  8
1
  6
Continuous
 62
     7
100
AcDbLine
 10
10968.6209889434
 20
6837.651392964734
 30
0.0
 11
10968.6209889434
 21
6697.221529836635
 31
0.0
  0
ARC
  5
F8F
330
1F
100
AcDbEntity
  8
1
  6
Continuous
 62
     7
100
AcDbCircle
 10
10973.6209889434
 20
5987.239135688735
 30
0.0
 40
755.0
100
AcDbArc
 50
270.3794450221022
 51
314.6205549778995
  0
ARC
  5
F90
330
1F
100
AcDbEntity
  8
1
  6
Continuous
 62
     7
100
AcDbCircle
 10
10973.6209889434
 20
5987.239135688735
 30
0.0
 40
850.4269559022999
100
AcDbArc
 50
315.3368667304033
 51
359.6631332696061
  0
LINE
  5
F91
330
1F
100
AcDbEntity
  8
1
  6
Continuous
 62
     7
100
AcDbLine
 10
11571.4177289614
 20
5382.371327858835
 30
0.0
 11
11472.1188204625
 21
5481.670236357735
 31
0.0
  0
LINE
  5
F92
330
1F
100
AcDbEntity
  8
1
  6
Continuous
 62
     7
100
AcDbLine
 10
11578.4887967733
 20
5389.442395670634
 30
0.0
 11
11479.1898882743
 21
5488.741304169635
 31
0.0
  0
DIMENSION
  5
F93
330
1F
100
AcDbEntity
  8
AM_5
100
AcDbDimension
  2
*D23
 10
11728.62098894341
 20
4518.167478775405
 30
0.0
 11
11776.12098894341
 21
4555.667478775404
 31
0.0
 70
    32
 71
     5
 42
95.0
  3
IGS
100
AcDbAlignedDimension
 13
11823.6209889434
 23
4423.820551979634
 33
0.0
 14
11728.62098894341
 24
4423.820551979634
 34
0.0
100
AcDbRotatedDimension
1001
ACAD
1000
DSTYLE
1002
{
1070
   174
1070
     1
1002
}
  0
LINE
  5
F94
330
1F
100
AcDbEntity
  8
1
  6
Continuous
 62
     7
100
AcDbLine
 10
11823.6209889434
 20
4423.820551979634
 30
0.0
 11
10978.6209889433
 21
4423.820551979634
 31
0.0
  0
LINE
  5
F95
330
1F
100
AcDbEntity
  8
1
  6
Continuous
 62
     7
100
AcDbLine
 10
10978.6209889433
 20
4303.820551979635
 30
0.0
 11
11823.6209889434
 21
4303.820551979635
 31
0.0
  0
INSERT
  5
F96
330
1F
100
AcDbEntity
  8
1
  6
Continuous
 62
     3
100
AcDbBlockReference
  2
LTEX0
 10
11469.3301506132
 20
5296.226520491434
 30
0.0
  0
INSERT
  5
F97
330
1F
100
AcDbEntity
  8
1
  6
Continuous
 62
     3
100
AcDbBlockReference
  2
MAKR1
 10
11778.0139861339
 20
5070.750994268035
 30
0.0
  0
LINE
  5
F98
330
1F
100
AcDbEntity
  8
AM_3
100
AcDbLine
 10
10978.62098894341
 20
4391.820551979634
 30
0.0
 11
11472.1188204625
 21
4391.820551979634
 31
0.0
  0
ARC
  5
F99
330
1F
100
AcDbEntity
  8
1
  6
Continuous
 62
     7
100
AcDbCircle
 10
10973.6209889434
 20
5987.239135688735
 30
0.0
 40
850.4269559022999
100
AcDbArc
 50
270.3368667304005
 51
314.6631332696002
  0
LINE
  5
F9A
330
1F
100
AcDbEntity
  8
1
  6
Continuous
 62
     7
100
AcDbLine
 10
10978.6209889433
 20
4423.820551979634
 30
0.0
 11
10978.6209889433
 21
4303.820551979635
 31
0.0
  0
LINE
  5
F9B
330
1F
100
AcDbEntity
  8
1
  6
Continuous
 62
     7
100
AcDbLine
 10
10978.6209889433
 20
5136.826878412733
 30
0.0
 11
10978.62098894341
 21
5277.256741540835
 31
0.0
  0
LINE
  5
F9C
330
1F
100
AcDbEntity
  8
AM_3
100
AcDbLine
 10
11479.1898882744
 20
4391.820551979634
 30
0.0
 11
11728.62098894341
 21
4391.820551979634
 31
0.0
  0
LINE
  5
F9D
330
1F
100
AcDbEntity
  8
AM_3
100
AcDbLine
 10
11479.1898882744
 20
4423.820551979634
 30
0.0
 11
11479.1898882744
 21
4303.820551979635
 31
0.0
  0
LINE
  5
F9E
330
1F
100
AcDbEntity
  8
AM_3
100
AcDbLine
 10
11472.1188204625
 20
4303.820551979635
 30
0.0
 11
11472.1188204625
 21
4423.820551979634
 31
0.0
  0
LINE
  5
F9F
330
1F
100
AcDbEntity
  8
1
  6
Continuous
 62
     7
100
AcDbLine
 10
11578.4887967733
 20
4423.820551979634
 30
0.0
 11
11578.4887967733
 21
4303.820551979635
 31
0.0
  0
LINE
  5
FA0
330
1F
100
AcDbEntity
  8
1
  6
Continuous
 62
     7
100
AcDbLine
 10
11571.4177289614
 20
4303.820551979635
 30
0.0
 11
11571.4177289614
 21
4423.820551979634
 31
0.0
  0
LINE
  5
FA1
330
1F
100
AcDbEntity
  8
AM_3
100
AcDbLine
 10
11683.6209889434
 20
4303.820551979635
 30
0.0
 11
11683.6209889434
 21
4391.820551979634
 31
0.0
  0
LINE
  5
FA2
330
1F
100
AcDbEntity
  8
AM_3
100
AcDbLine
 10
11728.62098894341
 20
4391.820551979634
 30
0.0
 11
11728.62098894341
 21
4423.820551979634
 31
0.0
  0
LINE
  5
FA3
330
1F
100
AcDbEntity
  8
1
  6
Continuous
 62
     7
100
AcDbLine
 10
11823.6209889434
 20
4423.820551979634
 30
0.0
 11
11823.6209889434
 21
4303.820551979635
 31
0.0
  0
ARC
  5
FA4
330
1F
100
AcDbEntity
  8
1
  6
Continuous
 62
     7
100
AcDbCircle
 10
10973.6209889434
 20
5987.239135688735
 30
0.0
 40
850.4269559022999
100
AcDbArc
 50
0.3368667303939357
 51
44.6631332695967
  0
LINE
  5
FA5
330
1F
100
AcDbEntity
  8
1
  6
Continuous
 62
     7
100
AcDbLine
 10
11824.0332462194
 20
5982.239135688735
 30
0.0
 11
11683.6033830913
 21
5982.239135688735
 31
0.0
  0
LINE
  5
FA6
330
1F
100
AcDbEntity
  8
1
  6
Continuous
 62
     7
100
AcDbLine
 10
11824.0332462194
 20
5992.239135688734
 30
0.0
 11
11683.6033830913
 21
5992.239135688734
 31
0.0
  0
ARC
  5
FA7
330
1F
100
AcDbEntity
  8
1
  6
Continuous
 62
     7
100
AcDbCircle
 10
10973.6209889434
 20
5987.239135688735
 30
0.0
 40
850.4269559022999
100
AcDbArc
 50
45.33686673039983
 51
89.66313326959957
  0
ARC
  5
FA8
330
1F
100
AcDbEntity
  8
1
  6
Continuous
 62
     7
100
AcDbCircle
 10
10973.6209889434
 20
5987.239135688735
 30
0.0
 40
755.0
100
AcDbArc
 50
45.3794450221005
 51
89.62055497789782
  0
ARC
  5
FA9
330
1F
100
AcDbEntity
  8
1
  6
Continuous
 62
     7
100
AcDbCircle
 10
10973.6209889434
 20
5987.239135688735
 30
0.0
 40
755.0
100
AcDbArc
 50
0.3794450221021905
 51
44.62055497790294
  0
ARC
  5
FAA
330
1F
100
AcDbEntity
  8
1
  6
Continuous
 62
     7
100
AcDbCircle
 10
10973.6209889434
 20
5987.239135688735
 30
0.0
 40
710.0
100
AcDbArc
 50
0.3794450221021905
 51
44.62055497790294
  0
ARC
  5
FAB
330
1F
100
AcDbEntity
  8
1
  6
Continuous
 62
     7
100
AcDbCircle
 10
10973.6209889434
 20
5987.239135688735
 30
0.0
 40
755.0
100
AcDbArc
 50
315.3794450220971
 51
359.6205549778978
  0
ARC
  5
FAC
330
1F
100
AcDbEntity
  8
1
  6
Continuous
 62
     7
100
AcDbCircle
 10
10973.6209889434
 20
5987.239135688735
 30
0.0
 40
710.0
100
AcDbArc
 50
315.3794450220971
 51
359.6205549778978
  0
LINE
  5
FAD
330
1F
100
AcDbEntity
  8
1
  6
Continuous
 62
     7
100
AcDbLine
 10
11578.4887967733
 20
6585.035875706835
 30
0.0
 11
11479.1898882744
 21
6485.736967207834
 31
0.0
  0
LINE
  5
FAE
330
1F
100
AcDbEntity
  8
1
  6
Continuous
 62
     7
100
AcDbLine
 10
11571.41772896151
 20
6592.106943518635
 30
0.0
 11
11472.1188204625
 21
6492.808035019734
 31
0.0
  0
LINE
  5
FAF
330
1F
100
AcDbEntity
  8
1
  6
Continuous
 62
     7
100
AcDbLine
 10
10978.62098894341
 20
6837.651392964734
 30
0.0
 11
10978.62098894341
 21
6697.221529836635
 31
0.0
  0
DIMENSION
  5
1089
330
1F
100
AcDbEntity
  8
AM_5
100
AcDbDimension
  2
*D27
 10
10290.97143518317
 20
5297.518514116154
 30
0.0
 11
10377.78132005617
 21
5263.741637832163
 31
0.0
 70
    33
 71
     5
 42
10.00000000027785
  3
IGS
100
AcDbAlignedDimension
 13
10368.75318111349
 23
5389.44239567062
 33
0.0
 14
10375.82424892555
 24
5382.371327858558
 34
0.0
  0
DIMENSION
  5
10B5
330
1F
100
AcDbEntity
  8
AM_5
100
AcDbDimension
  2
*D28
 10
10003.2087316674
 20
5982.239135688497
 30
0.0
 11
9965.708731667405
 21
5896.971419153064
 31
0.0
 70
    32
 71
     5
 42
10.00000000023738
  3
IGS
100
AcDbAlignedDimension
 13
10123.2087316674
 23
5992.239135688734
 33
0.0
 14
10123.20873166741
 24
5982.239135688497
 34
0.0
 50
90.00000000000003
100
AcDbRotatedDimension
  0
DIMENSION
  5
1198
330
1F
100
AcDbEntity
  8
AM_5
100
AcDbDimension
  2
*D29
 10
10123.6209889434
 20
4618.167478775403
 30
0.0
 11
10193.62098894341
 21
4655.667478775402
 31
0.0
 70
    32
 71
     5
 42
140.0
  3
IGS
100
AcDbAlignedDimension
 13
10263.6209889434
 23
4391.820551979634
 33
0.0
 14
10123.6209889434
 24
4423.820551979634
 34
0.0
 50
0.0000000000000114
100
AcDbRotatedDimension
  0
CIRCLE
  5
1217
330
1F
100
AcDbEntity
  8
0
100
AcDbCircle
 10
11156.26799423779
 20
3991.527945197778
 30
0.0
 40
49.99999998900111
  0
LINE
  5
1218
330
1F
100
AcDbEntity
  8
0
100
AcDbLine
 10
11203.14594782063
 20
4008.919249541778
 30
0.0
 11
11109.39004065496
 21
4008.919249541778
 31
0.0
  0
TEXT
  5
1219
330
1F
100
AcDbEntity
  8
0
100
AcDbText
 10
11144.01087923632
 20
4011.290664914133
 30
0.0
 40
25.00000000000056
  1
篠
 72
     4
 11
11155.67754590298
 21
4023.790664914133
 31
0.0
100
AcDbText
  0
TEXT
  5
121A
330
1F
100
AcDbEntity
  8
0
100
AcDbText
 10
11145.59486103582
 20
3944.967686584885
 30
0.0
 40
25.00000000000056
  1
崎
 72
     4
 11
11157.26152770248
 21
3957.467686584885
 31
0.0
100
AcDbText
  0
LINE
  5
121B
330
1F
100
AcDbEntity
  8
0
100
AcDbLine
 10
11203.14594782063
 20
3974.136640853778
 30
0.0
 11
11109.39004065496
 21
3974.136640853777
 31
0.0
  0
LINE
  5
121C
330
1F
100
AcDbEntity
  8
0
100
AcDbLine
 10
11454.26518291623
 20
3836.773493670924
 30
0.0
 11
11360.50927575056
 21
3836.773493670923
 31
0.0
  0
LINE
  5
121D
330
1F
100
AcDbEntity
  8
0
100
AcDbLine
 10
11454.26518291623
 20
3871.556102358924
 30
0.0
 11
11360.50927575056
 21
3871.556102358924
 31
0.0
  0
CIRCLE
  5
121E
330
1F
100
AcDbEntity
  8
0
100
AcDbCircle
 10
11407.3872293334
 20
3854.164798014924
 30
0.0
 40
49.99999998900111
  0
TEXT
  5
121F
330
1F
100
AcDbEntity
  8
0
100
AcDbText
 10
11396.71409613142
 20
3807.60453940203
 30
0.0
 40
25.00000000000056
  1
本
 72
     4
 11
11408.38076279809
 21
3820.104539402031
 31
0.0
100
AcDbText
  0
TEXT
  5
1220
330
1F
100
AcDbEntity
  8
0
100
AcDbText
 10
11395.13011433192
 20
3873.927517731278
 30
0.0
 40
25.00000000000056
  1
松
 72
     4
 11
11406.79678099858
 21
3886.427517731279
 31
0.0
100
AcDbText
  0
LINE
  5
1221
330
1F
100
AcDbEntity
  8
0
100
AcDbLine
 10
11454.26518291623
 20
3976.773493670938
 30
0.0
 11
11360.50927575056
 21
3976.773493670936
 31
0.0
  0
LINE
  5
1222
330
1F
100
AcDbEntity
  8
0
100
AcDbLine
 10
11454.26518291623
 20
4011.556102358937
 30
0.0
 11
11360.50927575056
 21
4011.556102358937
 31
0.0
  0
CIRCLE
  5
1223
330
1F
100
AcDbEntity
  8
0
100
AcDbCircle
 10
11407.3872293334
 20
3994.164798014937
 30
0.0
 40
49.99999998900111
  0
TEXT
  5
1224
330
1F
100
AcDbEntity
  8
0
100
AcDbText
 10
11396.71409613142
 20
3947.604539402044
 30
0.0
 40
25.00000000000056
  1
木
 72
     4
 11
11408.38076279809
 21
3960.104539402044
 31
0.0
100
AcDbText
  0
TEXT
  5
1225
330
1F
100
AcDbEntity
  8
0
100
AcDbText
 10
11395.13011433192
 20
4013.927517731292
 30
0.0
 40
25.00000000000056
  1
鈴
 72
     4
 11
11406.79678099858
 21
4026.427517731292
 31
0.0
100
AcDbText
  0
TEXT
  5
1226
330
1F
100
AcDbEntity
  8
0
100
AcDbText
 10
11145.13011433192
 20
3873.927517731278
 30
0.0
 40
25.00000000000056
  1
松
 72
     4
 11
11156.79678099859
 21
3886.427517731279
 31
0.0
100
AcDbText
  0
TEXT
  5
1227
330
1F
100
AcDbEntity
  8
0
100
AcDbText
 10
11146.71409613142
 20
3807.60453940203
 30
0.0
 40
25.00000000000056
  1
本
 72
     4
 11
11158.38076279809
 21
3820.104539402031
 31
0.0
100
AcDbText
  0
TEXT
  5
1228
330
1F
100
AcDbEntity
  8
TEXT
100
AcDbText
 10
11113.7085963671
 20
3841.121319756922
 30
0.0
 40
26.08695651600001
  1
98.04.22
 41
0.6736534129565943
 72
     5
 11
11198.29990069632
 21
3841.121319756922
 31
0.0
100
AcDbText
  0
CIRCLE
  5
1229
330
1F
100
AcDbEntity
  8
0
100
AcDbCircle
 10
11157.3872293334
 20
3854.164798014924
 30
0.0
 40
49.99999998900111
  0
LINE
  5
122A
330
1F
100
AcDbEntity
  8
0
100
AcDbLine
 10
11204.26518291623
 20
3871.556102358924
 30
0.0
 11
11110.50927575056
 21
3871.556102358924
 31
0.0
  0
LINE
  5
122B
330
1F
100
AcDbEntity
  8
0
100
AcDbLine
 10
11204.26518291623
 20
3836.773493670924
 30
0.0
 11
11110.50927575056
 21
3836.773493670923
 31
0.0
  0
TEXT
  5
122F
330
1F
100
AcDbEntity
  8
TEXT
100
AcDbText
 10
11112.5893612715
 20
3978.484466939778
 30
0.0
 40
26.08695651600001
  1
98.04.22
 41
0.6736534129565941
 72
     5
 11
11197.18066560071
 21
3978.484466939778
 31
0.0
100
AcDbText
  0
TEXT
  5
1230
330
1F
100
AcDbEntity
  8
TEXT
100
AcDbText
 10
11363.7085963671
 20
3981.121319756937
 30
0.0
 40
26.08695651600001
  1
98.04.22
 41
0.6736534129565941
 72
     5
 11
11448.29990069632
 21
3981.121319756937
 31
0.0
100
AcDbText
  0
TEXT
  5
1231
330
1F
100
AcDbEntity
  8
TEXT
100
AcDbText
 10
11363.7085963671
 20
3841.121319756922
 30
0.0
 40
26.08695651600001
  1
98.04.22
 41
0.6736534129565941
 72
     5
 11
11448.29990069632
 21
3841.121319756922
 31
0.0
100
AcDbText
  0
ENDSEC
  0
SECTION
  2
OBJECTS
  0
DICTIONARY
  5
C
330
0
100
AcDbDictionary
281
     1
  3
ACAD_COLOR
350
985
  3
ACAD_GROUP
350
D
  3
ACAD_LAYOUT
350
1A
  3
ACAD_MATERIAL
350
984
  3
ACAD_MLINESTYLE
350
17
  3
ACAD_PLOTSETTINGS
350
19
  3
ACAD_PLOTSTYLENAME
350
E
  3
AcDbVariableDictionary
350
43
  3
AcmDictionary
350
55
  3
AMG
350
2B
  3
AMGSNAPSETTINGS
350
A8
  3
ASE_INDEX_DICTIONARY
350
942
  0
DICTIONARY
  5
11F5
330
2
100
AcDbDictionary
280
     1
281
     1
  3
ACAD_LAYERSTATES
360
11F6
  0
DICTIONARY
  5
B1
330
1F
100
AcDbDictionary
280
     1
281
     1
  3
ACAD_INDEX
360
10F5
  0
DICTIONARY
  5
985
102
{ACAD_REACTORS
330
C
102
}
330
C
100
AcDbDictionary
281
     1
  0
DICTIONARY
  5
D
102
{ACAD_REACTORS
330
C
102
}
330
C
100
AcDbDictionary
281
     1
  0
DICTIONARY
  5
1A
102
{ACAD_REACTORS
330
C
102
}
330
C
100
AcDbDictionary
281
     1
  3
Model
350
22
  3
ﾚｲｱｳﾄ1
350
1E
  3
ﾚｲｱｳﾄ2
350
26
  0
DICTIONARY
  5
984
102
{ACAD_REACTORS
330
C
102
}
330
C
100
AcDbDictionary
281
     1
  0
DICTIONARY
  5
17
102
{ACAD_REACTORS
330
C
102
}
330
C
100
AcDbDictionary
281
     1
  3
Standard
350
18
  0
DICTIONARY
  5
19
102
{ACAD_REACTORS
330
C
102
}
330
C
100
AcDbDictionary
281
     1
  0
ACDBDICTIONARYWDFLT
  5
E
102
{ACAD_REACTORS
330
C
102
}
330
C
100
AcDbDictionary
281
     1
  3
Normal
350
F
100
AcDbDictionaryWithDefault
340
F
  0
DICTIONARY
  5
43
102
{ACAD_REACTORS
330
C
102
}
330
C
100
AcDbDictionary
281
     1
  3
INDEXCTL
350
44
  3
SORTENTS
350
774
  0
DICTIONARY
  5
55
102
{ACAD_REACTORS
330
C
102
}
330
C
100
AcDbDictionary
281
     1
  3
AcmBOM
350
3D1
  3
AcmStdDictionary
350
59
  3
AMDTSECTSYM_ARROWCOLOR
350
98E
  0
DICTIONARY
  5
2B
102
{ACAD_REACTORS
330
C
102
}
330
C
100
AcDbDictionary
281
     1
  0
DICTIONARY
  5
A8
102
{ACAD_REACTORS
330
C
102
}
330
C
100
AcDbDictionary
281
     1
  0
DICTIONARY
  5
942
102
{ACAD_REACTORS
330
C
102
}
330
C
100
AcDbDictionary
281
     1
  3
ASEBlockHierarchyIndexRecord
350
944
1001
DCO15
1040
1418113613.734
  0
DICTIONARY
  5
11F6
102
{ACAD_REACTORS
330
11F5
102
}
330
11F5
100
AcDbDictionary
281
     1
  0
DICTIONARY
  5
10F5
102
{ACAD_REACTORS
330
B1
102
}
330
B1
100
AcDbDictionary
281
     1
  3
*A1
350
10F6
  0
LAYOUT
  5
22
102
{ACAD_REACTORS
330
1A
102
}
330
1A
100
AcDbPlotSettings
  1

  2
\\PC01\CASIO SPEEDIA N4
  4
A3
  6
AM_VIEW1
 40
5.873749732971191
 41
5.958403587341308
 42
5.958404541015625
 43
5.873748779296875
 44
296.9259948730469
 45
419.9466552734374
 46
9.609999999999999
 47
0.0
 48
0.0
 49
0.0
140
0.0
141
0.0
142
1.0
143
3.458210785390119
 70
 11956
 72
     1
 73
     1
 74
     0
  7
monochrome.ctb
 75
     0
147
0.2891668732931762
 76
     0
 77
     2
 78
   300
148
295.8822165187813
149
247.9752015480118
100
AcDbLayout
  1
Model
 70
     1
 71
     0
 10
0.0
 20
0.0
 11
12.0
 21
9.0
 12
0.0
 22
0.0
 32
0.0
 14
0.0
 24
0.0
 34
0.0
 15
0.0
 25
0.0
 35
0.0
146
0.0
 13
0.0
 23
0.0
 33
0.0
 16
1.0
 26
0.0
 36
0.0
 17
0.0
 27
1.0
 37
0.0
 76
     0
330
1F
  0
LAYOUT
  5
1E
102
{ACAD_REACTORS
330
1A
102
}
330
1A
100
AcDbPlotSettings
  1

  2
MUTOH RL-803C(ﾌﾟﾛｯﾀﾓｰﾄﾞ)
  4

  6

 40
0.0
 41
0.0
 42
0.0
 43
0.0
 44
0.0
 45
0.0
 46
0.0
 47
0.0
 48
0.0
 49
0.0
140
0.0
141
0.0
142
1.0
143
1.0
 70
   688
 72
     0
 73
     0
 74
     5
  7
monochrome.ctb
 75
    16
147
1.0
 76
     0
 77
     2
 78
   300
148
0.0
149
0.0
100
AcDbLayout
  1
ﾚｲｱｳﾄ1
 70
     1
 71
     1
 10
0.0
 20
0.0
 11
420.0
 21
297.0
 12
0.0
 22
0.0
 32
0.0
 14
1.000000000000000E+20
 24
1.000000000000000E+20
 34
1.000000000000000E+20
 15
-1.000000000000000E+20
 25
-1.000000000000000E+20
 35
-1.000000000000000E+20
146
0.0
 13
0.0
 23
0.0
 33
0.0
 16
1.0
 26
0.0
 36
0.0
 17
0.0
 27
1.0
 37
0.0
 76
     0
330
1B
  0
LAYOUT
  5
26
102
{ACAD_REACTORS
330
1A
102
}
330
1A
100
AcDbPlotSettings
  1

  2
MUTOH RL-803C(ﾌﾟﾛｯﾀﾓｰﾄﾞ)
  4

  6

 40
0.0
 41
0.0
 42
0.0
 43
0.0
 44
0.0
 45
0.0
 46
0.0
 47
0.0
 48
0.0
 49
0.0
140
0.0
141
0.0
142
1.0
143
1.0
 70
   688
 72
     0
 73
     0
 74
     5
  7
monochrome.ctb
 75
    16
147
1.0
 76
     0
 77
     2
 78
   300
148
0.0
149
0.0
100
AcDbLayout
  1
ﾚｲｱｳﾄ2
 70
     1
 71
     2
 10
0.0
 20
0.0
 11
12.0
 21
9.0
 12
0.0
 22
0.0
 32
0.0
 14
0.0
 24
0.0
 34
0.0
 15
0.0
 25
0.0
 35
0.0
146
0.0
 13
0.0
 23
0.0
 33
0.0
 16
1.0
 26
0.0
 36
0.0
 17
0.0
 27
1.0
 37
0.0
 76
     0
330
23
  0
MLINESTYLE
  5
18
102
{ACAD_REACTORS
330
17
102
}
330
17
100
AcDbMlineStyle
  2
STANDARD
 70
     0
  3

 62
   256
 51
90.0
 52
90.0
 71
     2
 49
0.5
 62
   256
  6
BYLAYER
 49
-0.5
 62
   256
  6
BYLAYER
  0
ACDBPLACEHOLDER
  5
F
102
{ACAD_REACTORS
330
E
102
}
330
E
  0
DICTIONARYVAR
  5
44
102
{ACAD_REACTORS
330
43
102
}
330
43
100
DictionaryVariables
280
     0
  1
1
  0
DICTIONARYVAR
  5
774
102
{ACAD_REACTORS
330
43
102
}
330
43
100
DictionaryVariables
280
     0
  1
96
  0
DICTIONARY
  5
3D1
102
{ACAD_REACTORS
330
55
102
}
330
55
100
AcDbDictionary
281
     1
  0
DICTIONARY
  5
59
102
{ACAD_REACTORS
330
55
102
}
330
55
100
AcDbDictionary
281
     1
  0
XRECORD
  5
98E
102
{ACAD_REACTORS
330
55
102
}
330
55
100
AcDbXrecord
280
     1
 90
-1023410169
  0
XRECORD
  5
944
102
{ACAD_REACTORS
330
942
102
}
330
942
100
AcDbXrecord
280
     1
330
52F
330
537
330
5FB
330
603
  0
LAYER_INDEX
  5
10F6
102
{ACAD_REACTORS
330
10F5
102
}
330
10F5
100
AcDbIndex
 40
2454715.495360417
100
AcDbLayerIndex
  8
0
360
10F7
 90
       23
  8
RAHM2
360
10F8
 90
        0
  8
AM_BOR
360
10F9
 90
        0
  8
RAHM3
360
10FA
 90
        0
  8
RAHM5
360
10FB
 90
        0
  8
1
360
10FC
 90
       80
  8
DEFPOINTS
360
10FD
 90
        0
  8
7A
360
10FE
 90
        0
  8
AM_7
360
10FF
 90
        3
  8
AM_5
360
1100
 90
        8
  8
AM_3
360
1101
 90
        6
  8
AM_8
360
1102
 90
        1
  8
TEXT
360
1232
 90
        4
  0
IDBUFFER
  5
10F7
330
0
100
AcDbIdBuffer
330
D04
330
D05
330
D0E
330
1217
330
1218
330
1219
330
121A
330
121B
330
121C
330
121D
330
121E
330
121F
330
1220
330
1221
330
1222
330
1223
330
1224
330
1225
330
1226
330
1227
330
1229
330
122A
330
122B
  0
IDBUFFER
  5
10F8
330
0
100
AcDbIdBuffer
  0
IDBUFFER
  5
10F9
330
0
100
AcDbIdBuffer
  0
IDBUFFER
  5
10FA
330
0
100
AcDbIdBuffer
  0
IDBUFFER
  5
10FB
330
0
100
AcDbIdBuffer
  0
IDBUFFER
  5
10FC
330
0
100
AcDbIdBuffer
330
F47
330
F48
330
F49
330
F4A
330
F4B
330
F4C
330
F4D
330
F4E
330
F4F
330
F50
330
F51
330
F52
330
F53
330
F54
330
F55
330
F56
330
F57
330
F58
330
F59
330
F5A
330
F67
330
F68
330
F6A
330
F6B
330
F6C
330
F6D
330
F6E
330
F70
330
F71
330
F74
330
F75
330
F76
330
F77
330
F78
330
F79
330
F7A
330
F7B
330
F7C
330
F7D
330
F7F
330
F80
330
F81
330
F82
330
F83
330
F84
330
F85
330
F86
330
F88
330
F89
330
F8A
330
F8B
330
F8C
330
F8D
330
F8E
330
F8F
330
F90
330
F91
330
F92
330
F94
330
F95
330
F96
330
F97
330
F99
330
F9A
330
F9B
330
F9F
330
FA0
330
FA3
330
FA4
330
FA5
330
FA6
330
FA7
330
FA8
330
FA9
330
FAA
330
FAB
330
FAC
330
FAD
330
FAE
330
FAF
  0
IDBUFFER
  5
10FD
330
0
100
AcDbIdBuffer
  0
IDBUFFER
  5
10FE
330
0
100
AcDbIdBuffer
  0
IDBUFFER
  5
10FF
330
0
100
AcDbIdBuffer
330
F62
330
F69
330
F7E
  0
IDBUFFER
  5
1100
330
0
100
AcDbIdBuffer
330
F63
330
F64
330
F72
330
F73
330
F93
330
1089
330
10B5
330
1198
  0
IDBUFFER
  5
1101
330
0
100
AcDbIdBuffer
330
F98
330
F9C
330
F9D
330
F9E
330
FA1
330
FA2
  0
IDBUFFER
  5
1102
330
0
100
AcDbIdBuffer
330
F6F
  0
IDBUFFER
  5
1232
330
0
100
AcDbIdBuffer
330
1228
330
122F
330
1230
330
1231
  0
ENDSEC
  0
EOF
