  0
SECTION
  2
HEADER
  9
$ACADVER
  1
AC1018
  9
$ACADMAINTVER
 70
     2
  9
$DWGCODEPAGE
  3
ANSI_932
  9
$TITLE
  1

  9
$SUBJECT
  1

  9
$AUTHOR
  1

  9
$KEYWORDS
  1

  9
$COMMENTS
  1

  9
$LASTSAVEDBY
  1

  9
$REVISIONNUMBER
  1

  9
$CUSTOMPROPERTYTAG
  1
AmdtFileType
  9
$CUSTOMPROPERTY
  1
84
  9
$INSBASE
 10
0.0
 20
0.0
 30
0.0
  9
$EXTMIN
 10
0.0
 20
0.0
 30
0.0
  9
$EXTMAX
 10
4200.0
 20
2970.0
 30
520.0
  9
$LIMMIN
 10
-33.60421398484141
 20
500.8088123138259
  9
$LIMMAX
 10
4166.395786015158
 20
3470.808812313826
  9
$ORTHOMODE
 70
     0
  9
$REGENMODE
 70
     1
  9
$FILLMODE
 70
     1
  9
$QTEXTMODE
 70
     0
  9
$MIRRTEXT
 70
     1
  9
$LTSCALE
 40
10.0
  9
$ATTMODE
 70
     1
  9
$TEXTSIZE
 40
2.5
  9
$TRACEWID
 40
1.0
  9
$TEXTSTYLE
  7
STANDARD
  9
$CLAYER
  8
0
  9
$CELTYPE
  6
ByLayer
  9
$CECOLOR
 62
   256
  9
$CELTSCALE
 40
1.0
  9
$DISPSILH
 70
     0
  9
$DIMSCALE
 40
10.0
  9
$DIMASZ
 40
2.5
  9
$DIMEXO
 40
1.0
  9
$DIMDLI
 40
10.0
  9
$DIMRND
 40
0.0
  9
$DIMDLE
 40
0.0
  9
$DIMEXE
 40
1.0
  9
$DIMTP
 40
0.1
  9
$DIMTM
 40
0.1
  9
$DIMTXT
 40
4.5
  9
$DIMCEN
 40
0.0
  9
$DIMTSZ
 40
0.0
  9
$DIMTOL
 70
     0
  9
$DIMLIM
 70
     0
  9
$DIMTIH
 70
     0
  9
$DIMTOH
 70
     0
  9
$DIMSE1
 70
     0
  9
$DIMSE2
 70
     0
  9
$DIMTAD
 70
     3
  9
$DIMZIN
 70
     8
  9
$DIMBLK
  1
Open30
  9
$DIMASO
 70
     1
  9
$DIMSHO
 70
     1
  9
$DIMPOST
  1

  9
$DIMAPOST
  1
"
  9
$DIMALT
 70
     0
  9
$DIMALTD
 70
     2
  9
$DIMALTF
 40
0.0393701
  9
$DIMLFAC
 40
1.0
  9
$DIMTOFL
 70
     1
  9
$DIMTVP
 40
0.0
  9
$DIMTIX
 70
     0
  9
$DIMSOXD
 70
     0
  9
$DIMSAH
 70
     0
  9
$DIMBLK1
  1

  9
$DIMBLK2
  1

  9
$DIMSTYLE
  2
IGS
  9
$DIMCLRD
 70
   256
  9
$DIMCLRE
 70
   256
  9
$DIMCLRT
 70
     2
  9
$DIMTFAC
 40
0.71
  9
$DIMGAP
 40
1.5
  9
$DIMJUST
 70
     0
  9
$DIMSD1
 70
     0
  9
$DIMSD2
 70
     0
  9
$DIMTOLJ
 70
     0
  9
$DIMTZIN
 70
     8
  9
$DIMALTZ
 70
     0
  9
$DIMALTTZ
 70
     0
  9
$DIMUPT
 70
     0
  9
$DIMDEC
 70
     2
  9
$DIMTDEC
 70
     2
  9
$DIMALTU
 70
     2
  9
$DIMALTTD
 70
     2
  9
$DIMTXSTY
  7
STANDARD
  9
$DIMAUNIT
 70
     0
  9
$DIMADEC
 70
     0
  9
$DIMALTRND
 40
0.0
  9
$DIMAZIN
 70
     2
  9
$DIMDSEP
 70
    46
  9
$DIMATFIT
 70
     3
  9
$DIMFRAC
 70
     0
  9
$DIMLDRBLK
  1
Open30
  9
$DIMLUNIT
 70
     2
  9
$DIMLWD
 70
    -1
  9
$DIMLWE
 70
    -1
  9
$DIMTMOVE
 70
     0
  9
$LUNITS
 70
     2
  9
$LUPREC
 70
     2
  9
$SKETCHINC
 40
1.0
  9
$FILLETRAD
 40
0.0
  9
$AUNITS
 70
     0
  9
$AUPREC
 70
     0
  9
$MENU
  1
.
  9
$ELEVATION
 40
0.0
  9
$PELEVATION
 40
0.0
  9
$THICKNESS
 40
0.0
  9
$LIMCHECK
 70
     0
  9
$CHAMFERA
 40
25.0
  9
$CHAMFERB
 40
25.0
  9
$CHAMFERC
 40
20.0
  9
$CHAMFERD
 40
0.0
  9
$SKPOLY
 70
     0
  9
$TDCREATE
 40
2453572.413664097
  9
$TDUCREATE
 40
2453572.038664098
  9
$TDUPDATE
 40
2454718.704794375
  9
$TDUUPDATE
 40
2454718.329794375
  9
$TDINDWG
 40
0.0149358102
  9
$TDUSRTIMER
 40
0.0149358102
  9
$USRTIMER
 70
     1
  9
$ANGBASE
 50
0.0
  9
$ANGDIR
 70
     0
  9
$PDMODE
 70
     0
  9
$PDSIZE
 40
0.0
  9
$PLINEWID
 40
0.0
  9
$SPLFRAME
 70
     0
  9
$SPLINETYPE
 70
     6
  9
$SPLINESEGS
 70
     8
  9
$HANDSEED
  5
252A
  9
$SURFTAB1
 70
     6
  9
$SURFTAB2
 70
     6
  9
$SURFTYPE
 70
     6
  9
$SURFU
 70
     6
  9
$SURFV
 70
     6
  9
$UCSBASE
  2

  9
$UCSNAME
  2

  9
$UCSORG
 10
0.0
 20
0.0
 30
0.0
  9
$UCSXDIR
 10
1.0
 20
0.0
 30
0.0
  9
$UCSYDIR
 10
0.0
 20
1.0
 30
0.0
  9
$UCSORTHOREF
  2

  9
$UCSORTHOVIEW
 70
     0
  9
$UCSORGTOP
 10
0.0
 20
0.0
 30
0.0
  9
$UCSORGBOTTOM
 10
0.0
 20
0.0
 30
0.0
  9
$UCSORGLEFT
 10
0.0
 20
0.0
 30
0.0
  9
$UCSORGRIGHT
 10
0.0
 20
0.0
 30
0.0
  9
$UCSORGFRONT
 10
0.0
 20
0.0
 30
0.0
  9
$UCSORGBACK
 10
0.0
 20
0.0
 30
0.0
  9
$PUCSBASE
  2

  9
$PUCSNAME
  2

  9
$PUCSORG
 10
0.0
 20
0.0
 30
0.0
  9
$PUCSXDIR
 10
1.0
 20
0.0
 30
0.0
  9
$PUCSYDIR
 10
0.0
 20
1.0
 30
0.0
  9
$PUCSORTHOREF
  2

  9
$PUCSORTHOVIEW
 70
     0
  9
$PUCSORGTOP
 10
0.0
 20
0.0
 30
0.0
  9
$PUCSORGBOTTOM
 10
0.0
 20
0.0
 30
0.0
  9
$PUCSORGLEFT
 10
0.0
 20
0.0
 30
0.0
  9
$PUCSORGRIGHT
 10
0.0
 20
0.0
 30
0.0
  9
$PUCSORGFRONT
 10
0.0
 20
0.0
 30
0.0
  9
$PUCSORGBACK
 10
0.0
 20
0.0
 30
0.0
  9
$USERI1
 70
     0
  9
$USERI2
 70
     0
  9
$USERI3
 70
     0
  9
$USERI4
 70
     0
  9
$USERI5
 70
     0
  9
$USERR1
 40
0.0
  9
$USERR2
 40
0.0
  9
$USERR3
 40
0.0
  9
$USERR4
 40
0.0
  9
$USERR5
 40
0.0
  9
$WORLDVIEW
 70
     1
  9
$SHADEDGE
 70
     3
  9
$SHADEDIF
 70
    70
  9
$TILEMODE
 70
     1
  9
$MAXACTVP
 70
    64
  9
$PINSBASE
 10
0.0
 20
0.0
 30
0.0
  9
$PLIMCHECK
 70
     0
  9
$PEXTMIN
 10
1.000000000000000E+20
 20
1.000000000000000E+20
 30
1.000000000000000E+20
  9
$PEXTMAX
 10
-1.000000000000000E+20
 20
-1.000000000000000E+20
 30
-1.000000000000000E+20
  9
$PLIMMIN
 10
0.0
 20
0.0
  9
$PLIMMAX
 10
420.0
 20
297.0
  9
$UNITMODE
 70
     0
  9
$VISRETAIN
 70
     1
  9
$PLINEGEN
 70
     0
  9
$PSLTSCALE
 70
     1
  9
$TREEDEPTH
 70
  3020
  9
$CMLSTYLE
  2
Standard
  9
$CMLJUST
 70
     0
  9
$CMLSCALE
 40
20.0
  9
$PROXYGRAPHICS
 70
     1
  9
$MEASUREMENT
 70
     1
  9
$CELWEIGHT
370
    -1
  9
$ENDCAPS
280
     0
  9
$JOINSTYLE
280
     0
  9
$LWDISPLAY
290
     0
  9
$INSUNITS
 70
     4
  9
$HYPERLINKBASE
  1

  9
$STYLESHEET
  1
monochrome.ctb
  9
$XEDIT
290
     1
  9
$CEPSNTYPE
380
     0
  9
$PSTYLEMODE
290
     1
  9
$FINGERPRINTGUID
  2
{A179640A-E7AE-11D4-BDB4-00B0D0A1239A}
  9
$VERSIONGUID
  2
{157E9867-68D4-47F9-AFD5-72830A38C5E8}
  9
$EXTNAMES
290
     1
  9
$PSVPSCALE
 40
0.0
  9
$OLESTARTUP
290
     0
  9
$SORTENTS
280
   103
  9
$INDEXCTL
280
     1
  9
$HIDETEXT
280
     0
  9
$XCLIPFRAME
290
     0
  9
$HALOGAP
280
     0
  9
$OBSCOLOR
 70
   257
  9
$OBSLTYPE
280
     0
  9
$INTERSECTIONDISPLAY
280
     0
  9
$INTERSECTIONCOLOR
 70
   257
  9
$DIMASSOC
280
     1
  9
$PROJECTNAME
  1

  0
ENDSEC
  0
SECTION
  2
CLASSES
  0
CLASS
  1
ACDBDICTIONARYWDFLT
  2
AcDbDictionaryWithDefault
  3
ObjectDBX Classes
 90
        0
 91
        1
280
     0
281
     0
  0
CLASS
  1
ACDBPLACEHOLDER
  2
AcDbPlaceHolder
  3
ObjectDBX Classes
 90
        0
 91
        1
280
     0
281
     0
  0
CLASS
  1
LAYOUT
  2
AcDbLayout
  3
ObjectDBX Classes
 90
        0
 91
        3
280
     0
281
     0
  0
CLASS
  1
AMGSETTINGSOBJ
  2
AmgSettingsObj
  3
"AcadM|Product Description: AutoCAD Mechanical 2000|Company: Autodesk"
 90
        0
 91
       12
280
     0
281
     0
  0
CLASS
  1
AMGOBJPROPCFG
  2
AmgObjPropCfg
  3
"AmgLay|Product Description: AutoCAD Mechanical 2000|Company: Autodesk"
 90
        1
 91
        3
280
     0
281
     0
  0
CLASS
  1
ACME_DOCUMENT
  2
AcMeDbDoc
  3
AcMeServices
 90
        0
 91
        2
280
     0
281
     0
  0
CLASS
  1
ACMESCOPE
  2
AcMeScope
  3
AcMeServices
 90
        0
 91
        3
280
     0
281
     0
  0
CLASS
  1
ACMECOMMANDHISTORY
  2
AcMeCommandHistory
  3
AcMeServices
 90
        0
 91
        3
280
     0
281
     0
  0
CLASS
  1
DICTIONARYVAR
  2
AcDbDictionaryVar
  3
ObjectDBX Classes
 90
        0
 91
        4
280
     0
281
     0
  0
CLASS
  1
ACIMSYSVARMAN
  2
AcImSysVarManager
  3
AcMeServices
 90
        0
 91
       15
280
     0
281
     0
  0
CLASS
  1
ACIMREALSYSVAR
  2
AcImRealSysVar
  3
AcMeServices
 90
        0
 91
        9
280
     0
281
     0
  0
CLASS
  1
ACIMINTSYSVAR
  2
AcImIntSysVar
  3
AcMeServices
 90
        0
 91
       81
280
     0
281
     0
  0
CLASS
  1
ACMEDRAWINGMAN
  2
AcMeDrawingMan
  3
AcMeServices
 90
        0
 91
        3
280
     0
281
     0
  0
CLASS
  1
ACMEVIEW
  2
AcMeView
  3
AcMeServices
 90
        0
 91
        3
280
     0
281
     0
  0
CLASS
  1
ACDBENTITYCACHE
  2
AcMeEntityCache
  3
AcMeServices
 90
        0
 91
        1
280
     0
281
     0
  0
CLASS
  1
GSMANAGER
  2
AcMeGSManager
  3
AcMeServices
 90
        0
 91
        1
280
     0
281
     0
  0
CLASS
  1
AMDTINTERNALREACTOR
  2
AmdtInternalReactor
  3
AcMeServices
 90
        0
 91
        4
280
     0
281
     0
  0
CLASS
  1
ACMESTATEMGR
  2
AcMeStateMgr
  3
AcMeServices
 90
        0
 91
        3
280
     0
281
     0
  0
CLASS
  1
ACGREFMASTER
  2
AcGrefMaster
  3
AcAttribServices
 90
        0
 91
        3
280
     0
281
     0
  0
CLASS
  1
ACME_DATABASE
  2
AcMeDbDatabase
  3
AcMeServices
 90
        0
 91
        1
280
     0
281
     0
  0
CLASS
  1
ACRFINSADJUSTERMGR
  2
AcRfInsAdjusterMgr
  3
AcMeServices
 90
        0
 91
        1
280
     0
281
     0
  0
CLASS
  1
ACGREFACADMASTER
  2
AcGrefacadMaster
  3
AcGrefServices
 90
        0
 91
        3
280
     0
281
     0
  0
CLASS
  1
AMIMASTER
  2
AmiMaster
  3
AmiServices
 90
        0
 91
        3
280
     0
281
     0
  0
CLASS
  1
ACMDATADICTIONARY
  2
AcmDataDictionary
  3
"AcmSymBB|Product Description: AutoCAD Mechanical 2004 DX|Company: Autodesk"
 90
        0
 91
        3
280
     0
281
     0
  0
CLASS
  1
ACMDATAENTRYBLOCK
  2
AcmDataEntryBlock
  3
"AcmSymBB|Product Description: AutoCAD Mechanical 2004 DX|Company: Autodesk"
 90
        0
 91
        3
280
     0
281
     0
  0
CLASS
  1
ACMSTANDARDJIS
  2
AcmStandardJIS
  3
"Amdt_StdImp|Product Description: AutoCAD Mechanical 2004 DX|Company: Autodesk"
 90
        0
 91
        3
280
     0
281
     0
  0
CLASS
  1
ACMSURFSTANDARDJIS
  2
AcmSurfTextStdJIS
  3
"Amdt_StdImp|Product Description: AutoCAD Mechanical 2004 DX|Company: Autodesk"
 90
        0
 91
        3
280
     0
281
     0
  0
CLASS
  1
ACMFCFSTANDARDJIS
  2
AcmFCFStdJIS
  3
"Amdt_StdImp|Product Description: AutoCAD Mechanical 2004 DX|Company: Autodesk"
 90
        0
 91
        3
280
     0
281
     0
  0
CLASS
  1
ACMWELDSTANDARDJIS
  2
AcmWeldingStdJIS
  3
"Amdt_StdImp|Product Description: AutoCAD Mechanical 2004 DX|Company: Autodesk"
 90
        0
 91
        3
280
     0
281
     0
  0
CLASS
  1
ACMIDSTANDARDJIS
  2
AcmIdStdJIS
  3
"Amdt_StdImp|Product Description: AutoCAD Mechanical 2004 DX|Company: Autodesk"
 90
        0
 91
        3
280
     0
281
     0
  0
CLASS
  1
ACMDATUMSTANDARDJIS
  2
AcmDatumStdJIS
  3
"Amdt_StdImp|Product Description: AutoCAD Mechanical 2004 DX|Company: Autodesk"
 90
        0
 91
        3
280
     0
281
     0
  0
CLASS
  1
ACMBOMSTANDARDJIS
  2
AcmBOMStdJIS
  3
"Amdt_StdImp|Product Description: AutoCAD Mechanical 2004 DX|Company: Autodesk"
 90
        0
 91
        3
280
     0
281
     0
  0
CLASS
  1
ACMDETAILSTANDARDJIS
  2
AmdtDetailSymStdJIS
  3
"Amdt_StdImp|Product Description: AutoCAD Mechanical 2004 DX|Company: Autodesk"
 90
        0
 91
        3
280
     0
281
     0
  0
CLASS
  1
ACMSECTIONSTANDARDJIS
  2
AmdtSectionSymStdJIS
  3
"Amdt_StdImp|Product Description: AutoCAD Mechanical 2004 DX|Company: Autodesk"
 90
        0
 91
        3
280
     0
281
     0
  0
CLASS
  1
ACMCENTERLINESTANDARDJIS
  2
AmdtCenterLineStdJIS
  3
"Amdt_StdImp|Product Description: AutoCAD Mechanical 2004 DX|Company: Autodesk"
 90
        0
 91
        3
280
     0
281
     0
  0
CLASS
  1
ACAMGLAYSTD
  2
AcAmgLayStd
  3
"AcAmgLayStd|Product Description: AutoCAD Mechanical 2000|Company: Autodesk"
 90
        0
 91
        9
280
     0
281
     0
  0
CLASS
  1
ACAMGDIMSTD
  2
AcAmgDimStd
  3
"AcAmgDimStd|Product Description: AutoCAD Mechanical 2000|Company: Autodesk"
 90
        0
 91
        9
280
     0
281
     0
  0
CLASS
  1
ACAMGTITLESTD
  2
AcAmgTitleStd
  3
"TITLEAPP"
 90
        0
 91
        9
280
     0
281
     0
  0
CLASS
  1
ACMSTANDARDISO
  2
AcmStandardISO
  3
"Amdt_StdImp|Product Description: AutoCAD Mechanical 2004 DX|Company: Autodesk"
 90
        0
 91
        3
280
     0
281
     0
  0
CLASS
  1
AMDTEDGESTANDARDISO
  2
AmdtEdgeStdISO
  3
"Amdt_StdImp|Product Description: AutoCAD Mechanical 2004 DX|Company: Autodesk"
 90
        0
 91
        3
280
     0
281
     0
  0
CLASS
  1
ACMSURFSTANDARDISO
  2
AcmSurfTextStdISO
  3
"Amdt_StdImp|Product Description: AutoCAD Mechanical 2004 DX|Company: Autodesk"
 90
        0
 91
        3
280
     0
281
     0
  0
CLASS
  1
ACMFCFSTANDARDISO
  2
AcmFCFStdISO
  3
"Amdt_StdImp|Product Description: AutoCAD Mechanical 2004 DX|Company: Autodesk"
 90
        0
 91
        3
280
     0
281
     0
  0
CLASS
  1
ACMWELDSTANDARDISO
  2
AcmWeldingStdISO
  3
"Amdt_StdImp|Product Description: AutoCAD Mechanical 2004 DX|Company: Autodesk"
 90
        0
 91
        3
280
     0
281
     0
  0
CLASS
  1
ACMIDSTANDARDISO
  2
AcmIdStdISO
  3
"Amdt_StdImp|Product Description: AutoCAD Mechanical 2004 DX|Company: Autodesk"
 90
        0
 91
        3
280
     0
281
     0
  0
CLASS
  1
ACMDATUMSTANDARDISO
  2
AcmDatumStdISO
  3
"Amdt_StdImp|Product Description: AutoCAD Mechanical 2004 DX|Company: Autodesk"
 90
        0
 91
        3
280
     0
281
     0
  0
CLASS
  1
ACMBOMSTANDARDISO
  2
AcmBOMStdISO
  3
"Amdt_StdImp|Product Description: AutoCAD Mechanical 2004 DX|Company: Autodesk"
 90
        0
 91
        3
280
     0
281
     0
  0
CLASS
  1
ACMDETAILSTANDARDISO
  2
AmdtDetailSymStdISO
  3
"Amdt_StdImp|Product Description: AutoCAD Mechanical 2004 DX|Company: Autodesk"
 90
        0
 91
        3
280
     0
281
     0
  0
CLASS
  1
ACMSECTIONSTANDARDISO
  2
AmdtSectionSymStdISO
  3
"Amdt_StdImp|Product Description: AutoCAD Mechanical 2004 DX|Company: Autodesk"
 90
        0
 91
        3
280
     0
281
     0
  0
CLASS
  1
ACMCENTERLINESTANDARDISO
  2
AmdtCenterLineStdISO
  3
"Amdt_StdImp|Product Description: AutoCAD Mechanical 2004 DX|Company: Autodesk"
 90
        0
 91
        3
280
     0
281
     0
  0
CLASS
  1
ACIMSTRSYSVAR
  2
AcImStrSysVar
  3
AcMeServices
 90
        0
 91
       15
280
     0
281
     0
  0
CLASS
  1
ACAMGFILTERDAT
  2
AcAmgFilterDat
  3
"AcadM|Product Description: AutoCAD Mechanical 2000|Company: Autodesk"
 90
        0
 91
       18
280
     0
281
     0
  0
CLASS
  1
LAYER_INDEX
  2
AcDbLayerIndex
  3
ObjectDBX Classes
 90
        0
 91
        1
280
     0
281
     0
  0
CLASS
  1
IDBUFFER
  2
AcDbIdBuffer
  3
ObjectDBX Classes
 90
        0
 91
       14
280
     0
281
     0
  0
CLASS
  1
AMDTFORMULAUPDATEDISPATCHER
  2
AmdtFormulaUpdateDispatcher
  3
AcMeServices
 90
        0
 91
        3
280
     0
281
     0
  0
CLASS
  1
ACMDATAENTRYPART
  2
AcmDataEntryPart
  3
"AcmSymBB|Product Description: AutoCAD Mechanical 2004 DX|Company: Autodesk"
 90
        0
 91
        3
280
     0
281
     0
  0
CLASS
  1
ACMPARTREF
  2
AcmPartRef
  3
"AcmSymBB|Product Description: AutoCAD Mechanical 2004 DX|Company: Autodesk"
 90
     1023
 91
        3
280
     0
281
     1
  0
CLASS
  1
ACMDATAENTRY
  2
AcmDataEntry
  3
"AcmSymBB|Product Description: AutoCAD Mechanical 2004 DX|Company: Autodesk"
 90
        0
 91
       15
280
     0
281
     0
  0
CLASS
  1
ACMBOM
  2
AcmBom
  3
"AcmSymBB|Product Description: AutoCAD Mechanical 2004 DX|Company: Autodesk"
 90
        0
 91
        6
280
     0
281
     0
  0
CLASS
  1
ACMBOMROW
  2
AcmBomRow
  3
"AcmSymBB|Product Description: AutoCAD Mechanical 2004 DX|Company: Autodesk"
 90
        0
 91
        6
280
     0
281
     0
  0
CLASS
  1
ACMBALLOON
  2
AcmBalloon
  3
"AcmSymBB|Product Description: AutoCAD Mechanical 2004 DX|Company: Autodesk"
 90
     1023
 91
        3
280
     0
281
     1
  0
CLASS
  1
ACMPARTLIST
  2
AcmPartList
  3
"AcmSymBB|Product Description: AutoCAD Mechanical 2004 DX|Company: Autodesk"
 90
     1023
 91
        3
280
     0
281
     1
  0
CLASS
  1
ACDBLINERES
  2
AcDbLineRes
  3
AcGrefServices
 90
        0
 91
        3
280
     0
281
     0
  0
CLASS
  1
ACRFINSADJ
  2
AcRfInsAdjuster
  3
AcMeServices
 90
        0
 91
        3
280
     0
281
     0
  0
CLASS
  1
STDPART2D
  2
AmgStdPart
  3
"AmgStdPart|Product Description: AutoCAD Mechanical 2000|Company: Autodesk"
 90
     1023
 91
        0
280
     0
281
     1
  0
CLASS
  1
ACDBSTDPARTRES_ARC
  2
AcDbStdPartRes_Arc
  3
"AcDbStdPartRes_Arc|Product Description: AutoCAD Mechanical 2000|Company: Autodesk"
 90
        0
 91
        0
280
     0
281
     0
  0
CLASS
  1
ACMPICKOBJ
  2
AcmPickEnt
  3
"AcmSymBB|Product Description: AutoCAD Mechanical 2004 DX|Company: Autodesk"
 90
        0
 91
        0
280
     0
281
     1
  0
CLASS
  1
ACDBSTDPARTRES_LINE
  2
AcDbStdPartRes_Line
  3
"AcDbStdPartRes_Line|Product Description: AutoCAD Mechanical 2000|Company: Autodesk"
 90
        0
 91
        0
280
     0
281
     0
  0
CLASS
  1
AM_DRAWING_MGR
  2
AcDmDwgMgr
  3
AcMechDwgViewMgmt
 90
        0
 91
        3
280
     0
281
     0
  0
CLASS
  1
AM_DWG_DOCUMENT
  2
AcDmDwgDocument
  3
AcMechDwgViewMgmt
 90
        0
 91
        3
280
     0
281
     0
  0
CLASS
  1
AM_DWG_SHEET
  2
AcDmSheet
  3
AcMechDwgViewMgmt
 90
        0
 91
        6
280
     0
281
     0
  0
CLASS
  1
AM_VIEWDIMPARMAP
  2
AcDmViewDimParMap
  3
AcMechDwgViewMgmt
 90
        0
 91
        6
280
     0
281
     0
  0
CLASS
  1
AM_DWGMGR_NAME
  2
AcDmDwgMgrName
  3
AcMechDwgViewMgmt
 90
        0
 91
        3
280
     0
281
     0
  0
CLASS
  1
AMDTMENUSTATEMGR
  2
AmdtMenuStateMgr
  3
McadcomServices
 90
        0
 91
        1
280
     0
281
     0
  0
CLASS
  1
AMDTMCOMMENUSTATE
  2
AmdtMcomMenuState
  3
McadcomServices
 90
        0
 91
        1
280
     0
281
     0
  0
CLASS
  1
MAPIAMMOUDLE
  2
MApiAmModule
  3
MApiAmServices
 90
        0
 91
        3
280
     0
281
     0
  0
CLASS
  1
AMDTADMENUSTATE
  2
AmdtAdMenuState
  3
DesignerServices
 90
        0
 91
        1
280
     0
281
     0
  0
CLASS
  1
ADAPPL
  2
AcAdAppl
  3
DesignerServices
 90
        0
 91
        3
280
     0
281
     0
  0
CLASS
  1
DEPMGR
  2
AcAdDepMgr
  3
DesignerServices
 90
        0
 91
        3
280
     0
281
     0
  0
CLASS
  1
PARAMMGR
  2
AcAdParamMgr
  3
DesignerServices
 90
        0
 91
        3
280
     0
281
     0
  0
CLASS
  1
PARAMSCOPE
  2
AcAdParamScope
  3
DesignerServices
 90
        0
 91
        3
280
     0
281
     0
  0
CLASS
  1
NAMEDAPPL
  2
AcAdNamedAppl
  3
DesignerServices
 90
        0
 91
        3
280
     0
281
     0
  0
CLASS
  1
AMDTDMMENUSTATE
  2
AmdtDmMenuState
  3
AcMechDwgViewMgmt
 90
        0
 91
        1
280
     0
281
     0
  0
CLASS
  1
AMDTAMMENUSTATE
  2
AmdtAmMenuState
  3
DesignerAssemblies
 90
        0
 91
        1
280
     0
281
     0
  0
CLASS
  1
ACAMPROJECT
  2
AcAmProject
  3
DesignerAssemblies
 90
        0
 91
        3
280
     0
281
     0
  0
CLASS
  1
ACAMGRCOMPDEF
  2
AcAmGrCompDef
  3
DesignerAssemblies
 90
        0
 91
        3
280
     0
281
     0
  0
CLASS
  1
ACCMCONTEXT
  2
AcCmContext
  3
DesignerAssemblies
 90
        0
 91
        3
280
     0
281
     0
  0
CLASS
  1
ACAMCOMPDEF
  2
AcAmCompDef
  3
DesignerAssemblies
 90
        0
 91
        3
280
     0
281
     0
  0
CLASS
  1
ACAMCOMPDEFMGR
  2
AcAmCompDefMgr
  3
DesignerAssemblies
 90
        0
 91
        3
280
     0
281
     0
  0
CLASS
  1
AMCONTEXTMGR
  2
AcAmContextMgr
  3
DesignerAssemblies
 90
        0
 91
        3
280
     0
281
     0
  0
CLASS
  1
ACAMCONTEXTMODELER
  2
AcAmContextModeler
  3
DesignerAssemblies
 90
        0
 91
        3
280
     0
281
     0
  0
CLASS
  1
ACMTHREADLINESTANDARDJIS
  2
AmdtThreadLineStdJIS
  3
"Amdt_StdImp|Product Description: AutoCAD Mechanical 2004 DX|Company: Autodesk"
 90
        0
 91
        3
280
     0
281
     0
  0
CLASS
  1
ACMNOTESTANDARDJIS
  2
AmdtNoteStdJIS
  3
"Amdt_StdImp|Product Description: AutoCAD Mechanical 2004 DX|Company: Autodesk"
 90
        0
 91
        3
280
     0
281
     0
  0
CLASS
  1
AMDTNOTETEMPLATEDB
  2
AmdtNoteTemplateDB
  3
AMDT_STDIMP_MODULE_NAME
 90
        0
 91
       36
280
     0
281
     0
  0
CLASS
  1
ACMTHREADLINESTANDARDISO
  2
AmdtThreadLineStdISO
  3
"Amdt_StdImp|Product Description: AutoCAD Mechanical 2004 DX|Company: Autodesk"
 90
        0
 91
        3
280
     0
281
     0
  0
CLASS
  1
ACMNOTESTANDARDISO
  2
AmdtNoteStdISO
  3
"Amdt_StdImp|Product Description: AutoCAD Mechanical 2004 DX|Company: Autodesk"
 90
        0
 91
        3
280
     0
281
     0
  0
CLASS
  1
CATALOGSTATE
  2
AcAmCatalogState
  3
DesignerAssemblies
 90
        0
 91
        3
280
     0
281
     0
  0
CLASS
  1
ACAMGRCOMPDEFSET
  2
AcAmGrCompDefSet
  3
DesignerAssemblies
 90
        0
 91
        1
280
     0
281
     0
  0
CLASS
  1
AMDTBROWSERDBTAB
  2
AmdtBrowserDbTab
  3
McadcomServices
 90
        0
 91
        1
280
     0
281
     0
  0
CLASS
  1
CBROWSERAPPOBJECT
  2
CBrowserAppObject
  3
McadcomServices
 90
        0
 91
        3
280
     0
281
     0
  0
CLASS
  1
DM_PLACEHOLDER
  2
AcDmSelsetPlaceholder
  3
AcMechDwgViewMgmt
 90
        0
 91
        1
280
     0
281
     0
  0
CLASS
  1
ACMSTANDARDANSI
  2
AcmStandardANSI
  3
"Amdt_StdImp|Product Description: AutoCAD Mechanical 2004 DX|Company: Autodesk"
 90
        0
 91
        3
280
     0
281
     0
  0
CLASS
  1
ACMSURFSTANDARDANSI
  2
AcmSurfTextStdANSI
  3
"Amdt_StdImp|Product Description: AutoCAD Mechanical 2004 DX|Company: Autodesk"
 90
        0
 91
        3
280
     0
281
     0
  0
CLASS
  1
ACMFCFSTANDARDANSI
  2
AcmFCFStdANSI
  3
"Amdt_StdImp|Product Description: AutoCAD Mechanical 2004 DX|Company: Autodesk"
 90
        0
 91
        3
280
     0
281
     0
  0
CLASS
  1
ACMWELDSTANDARDANSI
  2
AcmWeldingStdANSI
  3
"Amdt_StdImp|Product Description: AutoCAD Mechanical 2004 DX|Company: Autodesk"
 90
        0
 91
        3
280
     0
281
     0
  0
CLASS
  1
ACMIDSTANDARDANSI
  2
AcmIdStdANSI
  3
"Amdt_StdImp|Product Description: AutoCAD Mechanical 2004 DX|Company: Autodesk"
 90
        0
 91
        3
280
     0
281
     0
  0
CLASS
  1
ACMDATUMSTANDARDANSI
  2
AcmDatumStdANSI
  3
"Amdt_StdImp|Product Description: AutoCAD Mechanical 2004 DX|Company: Autodesk"
 90
        0
 91
        3
280
     0
281
     0
  0
CLASS
  1
ACMBOMSTANDARDANSI
  2
AcmBOMStdANSI
  3
"Amdt_StdImp|Product Description: AutoCAD Mechanical 2004 DX|Company: Autodesk"
 90
        0
 91
        3
280
     0
281
     0
  0
CLASS
  1
ACMDETAILSTANDARDANSI
  2
AmdtDetailSymStdANSI
  3
"Amdt_StdImp|Product Description: AutoCAD Mechanical 2004 DX|Company: Autodesk"
 90
        0
 91
        3
280
     0
281
     0
  0
CLASS
  1
ACMSECTIONSTANDARDANSI
  2
AmdtSectionSymStdANSI
  3
"Amdt_StdImp|Product Description: AutoCAD Mechanical 2004 DX|Company: Autodesk"
 90
        0
 91
        3
280
     0
281
     0
  0
CLASS
  1
ACMCENTERLINESTANDARDANSI
  2
AmdtCenterLineStdANSI
  3
"Amdt_StdImp|Product Description: AutoCAD Mechanical 2004 DX|Company: Autodesk"
 90
        0
 91
        3
280
     0
281
     0
  0
CLASS
  1
ACMTHREADLINESTANDARDANSI
  2
AmdtThreadLineStdANSI
  3
"Amdt_StdImp|Product Description: AutoCAD Mechanical 2004 DX|Company: Autodesk"
 90
        0
 91
        3
280
     0
281
     0
  0
CLASS
  1
ACMNOTESTANDARDANSI
  2
AmdtNoteStdANSI
  3
"Amdt_StdImp|Product Description: AutoCAD Mechanical 2004 DX|Company: Autodesk"
 90
        0
 91
        3
280
     0
281
     0
  0
CLASS
  1
ACAMGHOLECHARTSTDANSI
  2
AcAmgHoleChartStdANSI
  3
ACMSYMBB_MODULE_NAME
 90
        0
 91
        3
280
     0
281
     0
  0
CLASS
  1
AMDTACMWBLOCKBOMENTITY
  2
AmdtAcmWblockBomEntity
  3
"AcmSymBB|Product Description: AutoCAD Mechanical 2004 DX|Company: Autodesk"
 90
     1023
 91
        9
280
     0
281
     1
  0
CLASS
  1
ACDBCIRCARCRES
  2
AcDbCircArcRes
  3
AcGrefServices
 90
        0
 91
        3
280
     0
281
     0
  0
ENDSEC
  0
SECTION
  2
TABLES
  0
TABLE
  2
VPORT
  5
8
330
0
100
AcDbSymbolTable
 70
     3
  0
VPORT
  5
2529
330
8
100
AcDbSymbolTableRecord
100
AcDbViewportTableRecord
  2
*Active
 70
     0
 10
0.0
 20
0.0
 11
1.0
 21
1.0
 12
2300.960404446445
 22
1780.827371993878
 13
0.0
 23
0.0
 14
25.0
 24
25.0
 15
100.0
 25
100.0
 16
0.0
 26
0.0
 36
1.0
 17
0.0
 27
0.0
 37
0.0
 40
2556.549403239134
 41
1.498730964467005
 42
50.0
 43
0.0
 44
0.0
 50
0.0
 51
0.0
 71
    16
 72
   100
 73
     1
 74
     3
 75
     0
 76
     0
 77
     0
 78
     0
281
     0
 65
     1
110
0.0
120
0.0
130
0.0
111
1.0
121
0.0
131
0.0
112
0.0
122
1.0
132
0.0
 79
     0
146
0.0
  0
ENDTAB
  0
TABLE
  2
LTYPE
  5
5
330
0
100
AcDbSymbolTable
 70
    19
  0
LTYPE
  5
14
330
5
100
AcDbSymbolTableRecord
100
AcDbLinetypeTableRecord
  2
ByBlock
 70
     0
  3

 72
    65
 73
     0
 40
0.0
  0
LTYPE
  5
15
330
5
100
AcDbSymbolTableRecord
100
AcDbLinetypeTableRecord
  2
ByLayer
 70
     0
  3

 72
    65
 73
     0
 40
0.0
  0
LTYPE
  5
16
330
5
100
AcDbSymbolTableRecord
100
AcDbLinetypeTableRecord
  2
Continuous
 70
     0
  3
Solid line
 72
    65
 73
     0
 40
0.0
  0
LTYPE
  5
35
330
5
100
AcDbSymbolTableRecord
100
AcDbLinetypeTableRecord
  2
AM_ISO02W050
 70
     0
  3
__ __ __ __ __ __ __ __ __ __ __ __ __ __ __
 72
    65
 73
     2
 40
7.5
 49
6.0
 74
     0
 49
-1.5
 74
     0
  0
LTYPE
  5
36
330
5
100
AcDbSymbolTableRecord
100
AcDbLinetypeTableRecord
  2
AM_ISO08W050
 70
     0
  3
____ . ____ . ____ . ____ . ____ . ____ . ____
 72
    65
 73
     4
 40
18.0
 49
12.0
 74
     0
 49
-1.5
 74
     0
 49
3.0
 74
     0
 49
-1.5
 74
     0
  0
LTYPE
  5
37
330
5
100
AcDbSymbolTableRecord
100
AcDbLinetypeTableRecord
  2
AM_ISO09W050
 70
     0
  3
_____ . . _____ . . _____ . . ____ .. ____
 72
    65
 73
     6
 40
22.5
 49
12.0
 74
     0
 49
-1.5
 74
     0
 49
3.0
 74
     0
 49
-1.5
 74
     0
 49
3.0
 74
     0
 49
-1.5
 74
     0
  0
LTYPE
  5
38
330
5
100
AcDbSymbolTableRecord
100
AcDbLinetypeTableRecord
  2
Amconstr
 70
     0
  3
_______________________
 72
    65
 73
     2
 40
9999.0
 49
9999.0
 74
     0
 49
0.0
 74
     0
  0
LTYPE
  5
39
330
5
100
AcDbSymbolTableRecord
100
AcDbLinetypeTableRecord
  2
AM_ISO08W050x2
 70
     0
  3
__ . __ . __ . __ . __ . __
 72
    65
 73
     4
 40
9.0
 49
6.0
 74
     0
 49
-0.75
 74
     0
 49
1.5
 74
     0
 49
-0.75
 74
     0
  0
LTYPE
  5
3A
330
5
100
AcDbSymbolTableRecord
100
AcDbLinetypeTableRecord
  2
AM_ISO02W050x2
 70
     0
  3
 _ _ _ _ _ _ _ _ _ _ _ _
 72
    65
 73
     2
 40
3.75
 49
3.0
 74
     0
 49
-0.75
 74
     0
  0
LTYPE
  5
3B
330
5
100
AcDbSymbolTableRecord
100
AcDbLinetypeTableRecord
  2
Amzigzag
 70
     0
  3
/\/-/\/-/\/-/\/-/\/-/\/
 72
    65
 73
     2
 40
11.0001
 49
0.0001
 74
     4
 75
   135
340
3C
 46
0.04
 50
0.0
 44
0.0
 45
0.0
 49
-11.0
 74
     0
  0
LTYPE
  5
64
330
5
100
AcDbSymbolTableRecord
100
AcDbLinetypeTableRecord
  2
ACJISTGB
 70
     0
  3
__ . . __ . .
 72
    65
 73
     6
 40
9.0
 49
4.0
 74
     0
 49
-1.0
 74
     0
 49
1.0
 74
     0
 49
-1.0
 74
     0
 49
1.0
 74
     0
 49
-1.0
 74
     0
  0
LTYPE
  5
65
330
5
100
AcDbSymbolTableRecord
100
AcDbLinetypeTableRecord
  2
ACJISTGL
 70
     0
  3
_ _ _ _ _
 72
    65
 73
     2
 40
3.0
 49
2.0
 74
     0
 49
-1.0
 74
     0
  0
LTYPE
  5
69
330
5
100
AcDbSymbolTableRecord
100
AcDbLinetypeTableRecord
  2
CENTER
 70
     0
  3
__ . __
 72
    65
 73
     4
 40
7.0
 49
4.0
 74
     0
 49
-1.0
 74
     0
 49
1.0
 74
     0
 49
-1.0
 74
     0
  0
LTYPE
  5
8F
330
5
100
AcDbSymbolTableRecord
100
AcDbLinetypeTableRecord
  2
ACISOWELD
 70
     0
  3
_ _ _ _ _
 72
    65
 73
     2
 40
2.0
 49
2.0
 74
     0
 49
-1.0
 74
     0
  0
LTYPE
  5
92
330
5
100
AcDbSymbolTableRecord
100
AcDbLinetypeTableRecord
  2
ACISOTGB
 70
     0
  3
__ . . __ . .
 72
    65
 73
     6
 40
9.0
 49
4.0
 74
     0
 49
-1.0
 74
     0
 49
1.0
 74
     0
 49
-1.0
 74
     0
 49
1.0
 74
     0
 49
-1.0
 74
     0
  0
LTYPE
  5
93
330
5
100
AcDbSymbolTableRecord
100
AcDbLinetypeTableRecord
  2
ACISOTGL
 70
     0
  3
_ _ _ _ _
 72
    65
 73
     2
 40
3.0
 49
2.0
 74
     0
 49
-1.0
 74
     0
  0
LTYPE
  5
309
330
5
100
AcDbSymbolTableRecord
100
AcDbLinetypeTableRecord
  2
HIDDEN
 70
     0
  3
_ _ _ _ _ _ _ _ _ _ _ _ _ _ _ _ _ _ _ _ _ _ _
 72
    65
 73
     2
 40
1.5
 49
1.0
 74
     0
 49
-0.5
 74
     0
  0
LTYPE
  5
30F
330
5
100
AcDbSymbolTableRecord
100
AcDbLinetypeTableRecord
  2
GEN7A
 70
     0
  3
__ . __ . __
 72
    65
 73
     4
 40
6.875
 49
5.0
 74
     0
 49
-0.625
 74
     0
 49
0.625
 74
     0
 49
-0.625
 74
     0
  0
LTYPE
  5
9B5
330
5
100
AcDbSymbolTableRecord
100
AcDbLinetypeTableRecord
  2
PHANTOM2
 70
     0
  3
Phantom (.5x) ___ _ _ ___ _ _ ___ _ _ ___ _ _
 72
    65
 73
     6
 40
31.75
 49
15.875
 74
     0
 49
-3.174999999999999
 74
     0
 49
3.174999999999999
 74
     0
 49
-3.174999999999999
 74
     0
 49
3.174999999999999
 74
     0
 49
-3.174999999999999
 74
     0
  0
LTYPE
  5
A91
330
5
100
AcDbSymbolTableRecord
100
AcDbLinetypeTableRecord
  2
ACANSTGB
 70
     0
  3
__ . . __ . .
 72
    65
 73
     6
 40
0.35433070866
 49
0.15748031496
 74
     0
 49
-0.03937007874
 74
     0
 49
0.03937007874
 74
     0
 49
-0.03937007874
 74
     0
 49
0.03937007874
 74
     0
 49
-0.03937007874
 74
     0
  0
LTYPE
  5
A92
330
5
100
AcDbSymbolTableRecord
100
AcDbLinetypeTableRecord
  2
ACANSTGL
 70
     0
  3
_ _ _ _ _
 72
    65
 73
     2
 40
0.11811023622
 49
0.07874015748
 74
     0
 49
-0.03937007874
 74
     0
  0
ENDTAB
  0
TABLE
  2
LAYER
  5
2
102
{ACAD_XDICTIONARY
360
1050
102
}
330
0
100
AcDbSymbolTable
 70
    14
  0
LAYER
  5
10
330
2
100
AcDbSymbolTableRecord
100
AcDbLayerTableRecord
  2
0
 70
     0
 62
     7
  6
Continuous
370
    -3
390
F
  0
LAYER
  5
F5
330
2
100
AcDbSymbolTableRecord
100
AcDbLayerTableRecord
  2
RAHM2
 70
     0
 62
     1
  6
Continuous
370
    -3
390
F
  0
LAYER
  5
1EF
330
2
100
AcDbSymbolTableRecord
100
AcDbLayerTableRecord
  2
AM_BOR
 70
     0
 62
     7
  6
Continuous
370
    50
390
F
  0
LAYER
  5
310
330
2
100
AcDbSymbolTableRecord
100
AcDbLayerTableRecord
  2
RAHM3
 70
     0
 62
     2
  6
Continuous
370
    -3
390
F
  0
LAYER
  5
313
330
2
100
AcDbSymbolTableRecord
100
AcDbLayerTableRecord
  2
DEFPOINTS
 70
     0
 62
     7
  6
Continuous
290
     0
370
    -3
390
F
  0
LAYER
  5
316
330
2
100
AcDbSymbolTableRecord
100
AcDbLayerTableRecord
  2
7A
 70
     0
 62
     4
  6
GEN7A
370
    -3
390
F
  0
LAYER
  5
D44
330
2
100
AcDbSymbolTableRecord
100
AcDbLayerTableRecord
  2
AM_7
 70
     0
 62
     4
  6
AM_ISO08W050
370
    25
390
F
  0
LAYER
  5
D60
330
2
100
AcDbSymbolTableRecord
100
AcDbLayerTableRecord
  2
AM_5
 70
     0
 62
     3
  6
Continuous
370
    25
390
F
  0
LAYER
  5
1045
330
2
100
AcDbSymbolTableRecord
100
AcDbLayerTableRecord
  2
6
 70
     0
 62
     2
  6
Continuous
370
    -3
390
F
  0
LAYER
  5
104A
330
2
100
AcDbSymbolTableRecord
100
AcDbLayerTableRecord
  2
TEXT
 70
     0
 62
     7
  6
Continuous
370
    -3
390
F
  0
LAYER
  5
104B
330
2
100
AcDbSymbolTableRecord
100
AcDbLayerTableRecord
  2
AM_12
 70
     0
 62
     7
  6
Continuous
290
     0
370
    50
390
F
  0
LAYER
  5
104C
330
2
100
AcDbSymbolTableRecord
100
AcDbLayerTableRecord
  2
AM_PAREF
 70
     0
 62
     4
  6
Continuous
290
     0
370
    25
390
F
  0
LAYER
  5
1E39
330
2
100
AcDbSymbolTableRecord
100
AcDbLayerTableRecord
  2
AM_CL
 70
     0
 62
     1
  6
Amconstr
370
    25
390
F
  0
LAYER
  5
1FB5
330
2
100
AcDbSymbolTableRecord
100
AcDbLayerTableRecord
  2
AM_0
 70
     0
 62
     7
  6
Continuous
370
    50
390
F
  0
ENDTAB
  0
TABLE
  2
STYLE
  5
3
330
0
100
AcDbSymbolTable
 70
     8
  0
STYLE
  5
11
330
3
100
AcDbSymbolTableRecord
100
AcDbTextStyleTableRecord
  2
STANDARD
 70
     0
 40
0.0
 41
1.0
 50
0.0
 71
     0
 42
2.5
  3
ISOCP.SHX
  4
EXTFONT.SHX
  0
STYLE
  5
3C
330
3
100
AcDbSymbolTableRecord
100
AcDbTextStyleTableRecord
  2

 70
     1
 40
0.0
 41
1.0
 50
0.0
 71
     0
 42
2.5
  3
ltypeshp.shx
  4

  0
STYLE
  5
5D
330
3
100
AcDbSymbolTableRecord
100
AcDbTextStyleTableRecord
  2
ACJISTS
 70
     0
 40
1.0
 41
1.0
 50
0.0
 71
     0
 42
2.5
  3
isocp.shx
  4
extfont.shx
  0
STYLE
  5
60
330
3
100
AcDbSymbolTableRecord
100
AcDbTextStyleTableRecord
  2
ACJISGDT
 70
     0
 40
0.0
 41
1.0
 50
0.0
 71
     0
 42
2.5
  3
amgdt.shx
  4

  0
STYLE
  5
89
330
3
100
AcDbSymbolTableRecord
100
AcDbTextStyleTableRecord
  2
ACISOTS
 70
     0
 40
1.0
 41
1.0
 50
0.0
 71
     0
 42
2.5
  3
isocp.shx
  4
extfont.shx
  0
STYLE
  5
8D
330
3
100
AcDbSymbolTableRecord
100
AcDbTextStyleTableRecord
  2
ACISOGDT
 70
     0
 40
0.0
 41
1.0
 50
0.0
 71
     0
 42
2.5
  3
amgdt.shx
  4

  0
STYLE
  5
A93
330
3
100
AcDbSymbolTableRecord
100
AcDbTextStyleTableRecord
  2
ACANSTS
 70
     0
 40
1.0
 41
1.0
 50
0.0
 71
     0
 42
40.0
  3
romans.shx
  4
extfont.shx
  0
STYLE
  5
A94
330
3
100
AcDbSymbolTableRecord
100
AcDbTextStyleTableRecord
  2
ACANSGDT
 70
     0
 40
0.0
 41
1.0
 50
0.0
 71
     0
 42
40.0
  3
amgdtans.shx
  4

  0
ENDTAB
  0
TABLE
  2
VIEW
  5
6
330
0
100
AcDbSymbolTable
 70
     6
  0
VIEW
  5
3C5
330
6
100
AcDbSymbolTableRecord
100
AcDbViewTableRecord
  2
AM_VIEW1
 70
     0
 40
1485.0
 10
1052.865434577459
 20
2728.308812313826
 41
2172.939297124601
 11
0.0
 21
0.0
 31
1.0
 12
0.0
 22
0.0
 32
0.0
 42
50.0
 43
0.0
 44
0.0
 50
0.0
 71
    16
281
     0
 72
     0
  0
VIEW
  5
3C6
330
6
100
AcDbSymbolTableRecord
100
AcDbViewTableRecord
  2
AM_VIEW2
 70
     0
 40
1485.0
 10
3079.926137452858
 20
2728.308812313826
 41
2172.939297124601
 11
0.0
 21
0.0
 31
1.0
 12
0.0
 22
0.0
 32
0.0
 42
50.0
 43
0.0
 44
0.0
 50
0.0
 71
    16
281
     0
 72
     0
  0
VIEW
  5
3C7
330
6
100
AcDbSymbolTableRecord
100
AcDbViewTableRecord
  2
AM_VIEW3
 70
     0
 40
1485.0
 10
1052.865434577459
 20
1243.308812313826
 41
2172.939297124601
 11
0.0
 21
0.0
 31
1.0
 12
0.0
 22
0.0
 32
0.0
 42
50.0
 43
0.0
 44
0.0
 50
0.0
 71
    16
281
     0
 72
     0
  0
VIEW
  5
3C8
330
6
100
AcDbSymbolTableRecord
100
AcDbViewTableRecord
  2
AM_VIEW4
 70
     0
 40
1485.0
 10
3079.926137452858
 20
1243.308812313826
 41
2172.939297124601
 11
0.0
 21
0.0
 31
1.0
 12
0.0
 22
0.0
 32
0.0
 42
50.0
 43
0.0
 44
0.0
 50
0.0
 71
    16
281
     0
 72
     0
  0
VIEW
  5
3C9
330
6
100
AcDbSymbolTableRecord
100
AcDbViewTableRecord
  2
AM_VIEW5
 70
     0
 40
1485.0
 10
2066.395786015159
 20
1985.808812313826
 41
2172.939297124601
 11
0.0
 21
0.0
 31
1.0
 12
0.0
 22
0.0
 32
0.0
 42
50.0
 43
0.0
 44
0.0
 50
0.0
 71
    16
281
     0
 72
     0
  0
VIEW
  5
3CA
330
6
100
AcDbSymbolTableRecord
100
AcDbViewTableRecord
  2
AM_VIEW6
 70
     0
 40
2969.9703
 10
2066.395786015159
 20
1985.808812313826
 41
4345.835135463257
 11
0.0
 21
0.0
 31
1.0
 12
0.0
 22
0.0
 32
0.0
 42
50.0
 43
0.0
 44
0.0
 50
0.0
 71
    16
281
     0
 72
     0
  0
ENDTAB
  0
TABLE
  2
UCS
  5
7
330
0
100
AcDbSymbolTable
 70
     0
  0
ENDTAB
  0
TABLE
  2
APPID
  5
9
330
0
100
AcDbSymbolTable
 70
    49
  0
APPID
  5
12
330
9
100
AcDbSymbolTableRecord
100
AcDbRegAppTableRecord
  2
ACAD
 70
     0
  0
APPID
  5
2D
330
9
100
AcDbSymbolTableRecord
100
AcDbRegAppTableRecord
  2
MCAD_NO_VIS
 70
     0
  0
APPID
  5
2E
330
9
100
AcDbSymbolTableRecord
100
AcDbRegAppTableRecord
  2
ACAD_TEMP_GRAPHIC
 70
     0
  0
APPID
  5
2F
330
9
100
AcDbSymbolTableRecord
100
AcDbRegAppTableRecord
  2
ACATTRIBSERVICES
 70
     0
  0
APPID
  5
1F0
330
9
100
AcDbSymbolTableRecord
100
AcDbRegAppTableRecord
  2
GENIUS_GENBLLY_14
 70
     0
  0
APPID
  5
321
330
9
100
AcDbSymbolTableRecord
100
AcDbRegAppTableRecord
  2
GENIUS_GENCFG_13
 70
     0
  0
APPID
  5
322
330
9
100
AcDbSymbolTableRecord
100
AcDbRegAppTableRecord
  2
GENIUS_GENOBJ_13
 70
     0
  0
APPID
  5
323
330
9
100
AcDbSymbolTableRecord
100
AcDbRegAppTableRecord
  2
GENIUS_GENODEF_13
 70
     0
  0
APPID
  5
324
330
9
100
AcDbSymbolTableRecord
100
AcDbRegAppTableRecord
  2
GENIUS_GENOENT_13
 70
     0
  0
APPID
  5
325
330
9
100
AcDbSymbolTableRecord
100
AcDbRegAppTableRecord
  2
GENIUS_GENOLIS_13
 70
     0
  0
APPID
  5
326
330
9
100
AcDbSymbolTableRecord
100
AcDbRegAppTableRecord
  2
GENIUS_GENOREF_13
 70
     0
  0
APPID
  5
327
330
9
100
AcDbSymbolTableRecord
100
AcDbRegAppTableRecord
  2
GENIUS_GENOBJ-N-TIT_13
 70
     0
  0
APPID
  5
328
330
9
100
AcDbSymbolTableRecord
100
AcDbRegAppTableRecord
  2
GENIUS_GENTITLE_13
 70
     0
  0
APPID
  5
329
330
9
100
AcDbSymbolTableRecord
100
AcDbRegAppTableRecord
  2
GENIUS_GENZVEED_13
 70
     0
  0
APPID
  5
32A
330
9
100
AcDbSymbolTableRecord
100
AcDbRegAppTableRecord
  2
GENIUS_GENOBJ-N-SDF_13
 70
     0
  0
APPID
  5
32B
330
9
100
AcDbSymbolTableRecord
100
AcDbRegAppTableRecord
  2
GENIUS_GENSCREG_13
 70
     0
  0
APPID
  5
32C
330
9
100
AcDbSymbolTableRecord
100
AcDbRegAppTableRecord
  2
GENIUS_GENCFG0_13
 70
     0
  0
APPID
  5
32D
330
9
100
AcDbSymbolTableRecord
100
AcDbRegAppTableRecord
  2
GENIUS_GENCFG1_13
 70
     0
  0
APPID
  5
32E
330
9
100
AcDbSymbolTableRecord
100
AcDbRegAppTableRecord
  2
GENIUS_GENCFG2_13
 70
     0
  0
APPID
  5
32F
330
9
100
AcDbSymbolTableRecord
100
AcDbRegAppTableRecord
  2
GENIUS_GENCFG3_13
 70
     0
  0
APPID
  5
330
330
9
100
AcDbSymbolTableRecord
100
AcDbRegAppTableRecord
  2
GENIUS_GENCFG4_13
 70
     0
  0
APPID
  5
331
330
9
100
AcDbSymbolTableRecord
100
AcDbRegAppTableRecord
  2
GENIUS_GEVCFG0_13
 70
     0
  0
APPID
  5
332
330
9
100
AcDbSymbolTableRecord
100
AcDbRegAppTableRecord
  2
GENIUS_GENOBJ-N-CRS_13
 70
     0
  0
APPID
  5
333
330
9
100
AcDbSymbolTableRecord
100
AcDbRegAppTableRecord
  2
GENIUS_GENOBJ-N-CEN_13
 70
     0
  0
APPID
  5
334
330
9
100
AcDbSymbolTableRecord
100
AcDbRegAppTableRecord
  2
GENIUS_GEFCFG0_13
 70
     0
  0
APPID
  5
3BA
330
9
100
AcDbSymbolTableRecord
100
AcDbRegAppTableRecord
  2
GENIUS_GENTRA_14
 70
     0
  0
APPID
  5
3CB
330
9
100
AcDbSymbolTableRecord
100
AcDbRegAppTableRecord
  2
GENIUS_GENSCREG_15
 70
     0
  0
APPID
  5
436
330
9
100
AcDbSymbolTableRecord
100
AcDbRegAppTableRecord
  2
GEVID984623613
 70
     0
  0
APPID
  5
437
330
9
100
AcDbSymbolTableRecord
100
AcDbRegAppTableRecord
  2
GEVDC
 70
     0
  0
APPID
  5
438
330
9
100
AcDbSymbolTableRecord
100
AcDbRegAppTableRecord
  2
GEVCON
 70
     0
  0
APPID
  5
43C
330
9
100
AcDbSymbolTableRecord
100
AcDbRegAppTableRecord
  2
GENIUS_GENBH_13
 70
     0
  0
APPID
  5
43E
330
9
100
AcDbSymbolTableRecord
100
AcDbRegAppTableRecord
  2
GENIUS_GENOBJ-NBEHI-BHF_13
 70
     0
  0
APPID
  5
440
330
9
100
AcDbSymbolTableRecord
100
AcDbRegAppTableRecord
  2
GENIUS_GENOBJ-NBEHI-BHB_13
 70
     0
  0
APPID
  5
455
330
9
100
AcDbSymbolTableRecord
100
AcDbRegAppTableRecord
  2
GENIUS_GENOBJ-F-SCPASSM_13
 70
     0
  0
APPID
  5
47B
330
9
100
AcDbSymbolTableRecord
100
AcDbRegAppTableRecord
  2
GEVID984623614
 70
     0
  0
APPID
  5
48B
330
9
100
AcDbSymbolTableRecord
100
AcDbRegAppTableRecord
  2
GEVID984623615
 70
     0
  0
APPID
  5
54A
330
9
100
AcDbSymbolTableRecord
100
AcDbRegAppTableRecord
  2
GENIUS_GENOBJ-N-REV_13
 70
     0
  0
APPID
  5
54B
330
9
100
AcDbSymbolTableRecord
100
AcDbRegAppTableRecord
  2
GENIUS_GENOBJ-N-RSSYM_13
 70
     0
  0
APPID
  5
54C
330
9
100
AcDbSymbolTableRecord
100
AcDbRegAppTableRecord
  2
GENIUS_GENSYMENT_13
 70
     0
  0
APPID
  5
54D
330
9
100
AcDbSymbolTableRecord
100
AcDbRegAppTableRecord
  2
GENIUS_GENSCSYM_13
 70
     0
  0
APPID
  5
943
330
9
100
AcDbSymbolTableRecord
100
AcDbRegAppTableRecord
  2
DCO15
 70
     0
  0
APPID
  5
9B7
330
9
100
AcDbSymbolTableRecord
100
AcDbRegAppTableRecord
  2
AD_DRAW
 70
     0
  0
APPID
  5
9D5
330
9
100
AcDbSymbolTableRecord
100
AcDbRegAppTableRecord
  2
DESIGNERASSEMBLIES
 70
     0
  0
APPID
  5
9E5
330
9
100
AcDbSymbolTableRecord
100
AcDbRegAppTableRecord
  2
ACADM_DIM_EDIT
 70
     0
  0
APPID
  5
9E6
330
9
100
AcDbSymbolTableRecord
100
AcDbRegAppTableRecord
  2
AMDT_DM_ADJ
 70
     0
  0
APPID
  5
DC3
330
9
100
AcDbSymbolTableRecord
100
AcDbRegAppTableRecord
  2
GENIUS_GENDIMSH_14
 70
     0
  0
APPID
  5
104E
330
9
100
AcDbSymbolTableRecord
100
AcDbRegAppTableRecord
  2
GENIUS_GENOBJ-N-REC_13
 70
     0
  0
APPID
  5
104F
330
9
100
AcDbSymbolTableRecord
100
AcDbRegAppTableRecord
  2
GENIUS_GENOBJ-N-FIL_13
 70
     0
  0
APPID
  5
1E54
330
9
100
AcDbSymbolTableRecord
100
AcDbRegAppTableRecord
  2
GENIUS_GENREC_14
 70
     0
  0
ENDTAB
  0
TABLE
  2
DIMSTYLE
  5
A
330
0
100
AcDbSymbolTable
 70
    21
100
AcDbDimStyleTable
 71
     1
340
76
  0
DIMSTYLE
105
76
102
{ACAD_REACTORS
330
D6F
330
D9B
330
DCA
330
DEB
330
E22
330
E4E
330
E68
330
E89
330
EC0
330
EE8
330
F10
330
F3C
330
F62
330
F7C
330
2079
330
20A5
330
20C2
330
216C
330
2192
330
21C0
102
}
330
A
100
AcDbSymbolTableRecord
100
AcDbDimStyleTableRecord
  2
IGS
 70
     0
  4
"
 40
10.0
 41
2.5
 42
1.0
 43
10.0
 44
1.0
 47
0.1
 48
0.1
 73
     0
 74
     0
 77
     3
 78
     8
 79
     2
140
4.5
141
0.0
143
0.0393701
146
0.71
147
1.5
172
     1
176
   256
177
   256
178
     2
271
     2
272
     2
283
     0
284
     8
340
11
341
77
342
77
371
    -1
372
    -1
  0
DIMSTYLE
105
7D
330
A
100
AcDbSymbolTableRecord
100
AcDbDimStyleTableRecord
  2
IGS$3
 70
     0
  4
"
 40
10.0
 41
2.5
 42
1.0
 43
10.0
 44
1.0
 47
0.1
 48
0.1
 73
     0
 77
     3
 78
     8
 79
     2
140
4.5
141
0.0
143
0.0393701
146
0.71
147
1.5
176
   256
177
   256
178
     2
271
     2
272
     2
283
     0
284
     8
288
     1
289
     0
340
11
341
77
342
77
371
    -1
372
    -1
  0
DIMSTYLE
105
7E
330
A
100
AcDbSymbolTableRecord
100
AcDbDimStyleTableRecord
  2
IGS$4
 70
     0
  4
"
 40
10.0
 41
2.5
 42
1.0
 43
10.0
 44
1.0
 47
0.1
 48
0.1
 73
     0
 77
     3
 78
     8
 79
     2
140
4.5
141
0.0
143
0.0393701
146
0.71
147
1.5
176
   256
177
   256
178
     2
271
     2
272
     2
283
     0
284
     8
288
     1
289
     0
340
11
341
77
342
77
371
    -1
372
    -1
  0
DIMSTYLE
105
7F
330
A
100
AcDbSymbolTableRecord
100
AcDbDimStyleTableRecord
  2
IGS$6
 70
     0
  4
"
 40
10.0
 41
2.5
 42
1.0
 43
10.0
 44
1.0
 47
0.1
 48
0.1
 73
     0
 74
     0
 78
     8
 79
     2
140
4.5
141
0.0
143
0.0393701
146
0.71
147
1.5
172
     1
176
   256
177
   256
178
     2
271
     2
272
     2
283
     0
284
     8
340
11
341
77
342
77
371
    -1
372
    -1
  0
DIMSTYLE
105
80
330
A
100
AcDbSymbolTableRecord
100
AcDbDimStyleTableRecord
  2
IGS$7
 70
     0
  4
"
 40
10.0
 41
2.5
 42
1.0
 43
10.0
 44
1.0
 47
0.1
 48
0.1
 73
     0
 74
     0
 77
     3
 78
     8
 79
     2
140
5.0
141
0.0
143
0.0393701
146
0.71
147
1.5
172
     1
176
   256
177
   256
178
     2
271
     2
272
     2
283
     0
284
     8
340
11
341
77
342
77
371
    -1
372
    -1
  0
DIMSTYLE
105
81
330
A
100
AcDbSymbolTableRecord
100
AcDbDimStyleTableRecord
  2
IGS$SF
 70
     0
  4
"
 40
10.0
 41
2.5
 42
1.0
 43
10.0
 44
1.0
 47
0.1
 48
0.1
 73
     0
 74
     0
 75
     1
 76
     1
 77
     3
 78
     8
 79
     2
140
3.5
141
0.0
143
0.0393701
146
0.71
147
1.5
172
     1
176
   256
177
   256
178
     2
271
     2
272
     3
274
     4
283
     0
284
     8
340
11
341
77
342
77
343
77
344
77
371
    -1
372
    -1
  0
DIMSTYLE
105
82
330
A
100
AcDbSymbolTableRecord
100
AcDbDimStyleTableRecord
  2
IGS$SH
 70
     0
  4
"
 40
10.0
 41
2.5
 42
1.0
 43
10.0
 44
1.0
 47
0.1
 48
0.1
 73
     0
 74
     0
 75
     1
 76
     1
 77
     3
 78
     8
 79
     2
140
3.5
141
0.0
143
0.0393701
144
2.0
146
0.71
147
1.5
172
     1
173
     1
176
   256
177
   256
178
     2
271
     2
272
     3
274
     4
283
     0
284
     8
340
11
341
77
342
77
343
83
344
77
371
    -1
372
    -1
  0
DIMSTYLE
105
9A
330
A
100
AcDbSymbolTableRecord
100
AcDbDimStyleTableRecord
  2
AM_ISO
 70
     0
  4
"
 40
10.0
 41
2.5
 42
1.0
 43
10.0
 44
1.0
 47
0.1
 48
0.1
 73
     0
 74
     0
 77
     1
 78
     8
 79
     2
140
3.5
141
0.0
143
0.0393701
146
0.71
147
1.5
172
     1
176
   256
177
   256
178
     2
271
     2
272
     3
274
     4
283
     0
284
     8
340
11
371
    -1
372
    -1
  0
DIMSTYLE
105
9B
330
A
100
AcDbSymbolTableRecord
100
AcDbDimStyleTableRecord
  2
AM_ISO$3
 70
     0
  4
"
 40
10.0
 41
2.5
 42
1.0
 43
10.0
 44
1.0
 47
0.1
 48
0.1
 73
     0
 77
     1
 78
     8
 79
     2
140
3.5
141
0.0
143
0.0393701
146
0.71
147
1.5
176
   256
177
   256
178
     2
271
     2
272
     3
274
     4
283
     0
284
     8
288
     1
289
     0
340
11
371
    -1
372
    -1
  0
DIMSTYLE
105
9C
330
A
100
AcDbSymbolTableRecord
100
AcDbDimStyleTableRecord
  2
AM_ISO$4
 70
     0
  4
"
 40
10.0
 41
2.5
 42
1.0
 43
10.0
 44
1.0
 47
0.1
 48
0.1
 73
     0
 77
     1
 78
     8
 79
     2
140
3.5
141
0.0
143
0.0393701
146
0.71
147
1.5
176
   256
177
   256
178
     2
271
     2
272
     3
274
     4
283
     0
284
     8
288
     1
289
     0
340
11
371
    -1
372
    -1
  0
DIMSTYLE
105
9D
330
A
100
AcDbSymbolTableRecord
100
AcDbDimStyleTableRecord
  2
AM_ISO$6
 70
     0
  4
"
 40
10.0
 41
2.5
 42
1.0
 43
10.0
 44
1.0
 47
0.1
 48
0.1
 73
     0
 74
     0
 78
     8
 79
     2
140
3.5
141
0.0
143
0.0393701
146
0.71
147
1.5
172
     1
176
   256
177
   256
178
     2
271
     2
272
     3
274
     4
283
     0
284
     8
340
11
371
    -1
372
    -1
  0
DIMSTYLE
105
9E
330
A
100
AcDbSymbolTableRecord
100
AcDbDimStyleTableRecord
  2
AM_ISO$7
 70
     0
  4
"
 40
10.0
 41
2.5
 42
1.0
 43
10.0
 44
1.0
 47
0.1
 48
0.1
 73
     0
 74
     0
 77
     1
 78
     8
 79
     2
140
5.0
141
0.0
143
0.0393701
146
0.71
147
1.5
172
     1
176
   256
177
   256
178
     2
271
     2
272
     3
274
     4
283
     0
284
     8
340
11
371
    -1
372
    -1
  0
DIMSTYLE
105
9F
330
A
100
AcDbSymbolTableRecord
100
AcDbDimStyleTableRecord
  2
AM_ISO$SF
 70
     0
  4
"
 40
10.0
 41
2.5
 42
1.0
 43
10.0
 44
1.0
 47
0.1
 48
0.1
 73
     0
 74
     0
 75
     1
 76
     1
 77
     1
 78
     8
 79
     2
140
3.5
141
0.0
143
0.0393701
146
0.71
147
1.5
172
     1
176
   256
177
   256
178
     2
271
     2
272
     3
274
     4
283
     0
284
     8
340
11
371
    -1
372
    -1
  0
DIMSTYLE
105
A0
330
A
100
AcDbSymbolTableRecord
100
AcDbDimStyleTableRecord
  2
AM_ISO$SH
 70
     0
  4
"
 40
10.0
 41
2.5
 42
1.0
 43
10.0
 44
1.0
 47
0.1
 48
0.1
 73
     0
 74
     0
 75
     1
 76
     1
 77
     1
 78
     8
 79
     2
140
3.5
141
0.0
143
0.0393701
144
2.0
146
0.71
147
1.5
172
     1
173
     1
176
   256
177
   256
178
     2
271
     2
272
     3
274
     4
283
     0
284
     8
340
11
343
83
371
    -1
372
    -1
  0
DIMSTYLE
105
317
330
A
100
AcDbSymbolTableRecord
100
AcDbDimStyleTableRecord
  2
STANDARD
 70
     0
340
11
  0
DIMSTYLE
105
A95
330
A
100
AcDbSymbolTableRecord
100
AcDbDimStyleTableRecord
  2
AM_ANSI
 70
     0
  4
mm
 41
0.1
 42
0.05
 43
0.5
 44
0.1
 47
0.1
 48
0.1
 78
     7
 79
     2
140
0.12
141
0.0
146
0.71
147
0.06
176
   256
177
   256
178
     2
274
     4
284
     7
340
11
371
    -1
372
    -1
  0
DIMSTYLE
105
A96
330
A
100
AcDbSymbolTableRecord
100
AcDbDimStyleTableRecord
  2
AM_ANSI$3
 70
     0
  4
mm
 41
0.1
 42
0.05
 43
0.5
 44
0.1
 47
0.1
 48
0.1
 78
     7
 79
     2
140
0.12
141
0.0
146
0.71
147
0.06
176
   256
177
   256
178
     2
274
     4
284
     7
288
     1
289
     0
340
11
371
    -1
372
    -1
  0
DIMSTYLE
105
A97
330
A
100
AcDbSymbolTableRecord
100
AcDbDimStyleTableRecord
  2
AM_ANSI$4
 70
     0
  4
mm
 41
0.1
 42
0.05
 43
0.5
 44
0.1
 47
0.1
 48
0.1
 78
     7
 79
     2
140
0.12
141
0.0
146
0.71
147
0.06
176
   256
177
   256
178
     2
274
     4
284
     7
288
     1
289
     0
340
11
371
    -1
372
    -1
  0
DIMSTYLE
105
A98
330
A
100
AcDbSymbolTableRecord
100
AcDbDimStyleTableRecord
  2
AM_ANSI$7
 70
     0
  4
mm
 41
0.1
 42
0.05
 43
0.5
 44
0.1
 47
0.1
 48
0.1
 78
     7
 79
     2
140
0.24
141
0.0
146
0.71
147
0.06
176
   256
177
   256
178
     2
274
     4
284
     7
340
11
371
    -1
372
    -1
  0
DIMSTYLE
105
A99
330
A
100
AcDbSymbolTableRecord
100
AcDbDimStyleTableRecord
  2
AM_ANSI$SF
 70
     0
  4
mm
 41
0.1
 42
0.05
 43
0.5
 44
0.1
 47
0.1
 48
0.1
 75
     1
 76
     1
 78
     7
 79
     2
140
0.12
141
0.0
146
0.71
147
0.06
176
   256
177
   256
178
     2
274
     4
284
     7
340
11
371
    -1
372
    -1
  0
DIMSTYLE
105
A9A
330
A
100
AcDbSymbolTableRecord
100
AcDbDimStyleTableRecord
  2
AM_ANSI$SH
 70
     0
  4
mm
 41
0.1
 42
0.05
 43
0.5
 44
0.1
 47
0.1
 48
0.1
 75
     1
 76
     1
 78
     7
 79
     2
140
0.12
141
0.0
146
0.71
147
0.06
173
     1
176
   256
177
   256
178
     2
274
     4
284
     7
340
11
343
83
371
    -1
372
    -1
  0
ENDTAB
  0
TABLE
  2
BLOCK_RECORD
  5
1
330
0
100
AcDbSymbolTable
 70
    31
  0
BLOCK_RECORD
  5
1F
102
{ACAD_XDICTIONARY
360
B1
102
}
330
1
100
AcDbSymbolTableRecord
100
AcDbBlockTableRecord
  2
*Model_Space
340
22
  0
BLOCK_RECORD
  5
1B
330
1
100
AcDbSymbolTableRecord
100
AcDbBlockTableRecord
  2
*Paper_Space
340
1E
  0
BLOCK_RECORD
  5
23
330
1
100
AcDbSymbolTableRecord
100
AcDbBlockTableRecord
  2
*Paper_Space0
340
26
  0
BLOCK_RECORD
  5
77
330
1
100
AcDbSymbolTableRecord
100
AcDbBlockTableRecord
  2
_Open30
340
0
310
2800000020000000200000000100080000000000000400000000000000000000000000000000000000000000000080000080000000808000800000008000800080800000C0C0C000C0DCC000F0CAA6000020400000206000002080000020A0000020C0000020E00000400000004020000040400000406000004080000040A0
310
000040C0000040E00000600000006020000060400000606000006080000060A0000060C0000060E00000800000008020000080400000806000008080000080A0000080C0000080E00000A0000000A0200000A0400000A0600000A0800000A0A00000A0C00000A0E00000C0000000C0200000C0400000C0600000C0800000C0
310
A00000C0C00000C0E00000E0000000E0200000E0400000E0600000E0800000E0A00000E0C00000E0E00040000000400020004000400040006000400080004000A0004000C0004000E00040200000402020004020400040206000402080004020A0004020C0004020E000404000004040200040404000404060004040800040
310
40A0004040C0004040E00040600000406020004060400040606000406080004060A0004060C0004060E00040800000408020004080400040806000408080004080A0004080C0004080E00040A0000040A0200040A0400040A0600040A0800040A0A00040A0C00040A0E00040C0000040C0200040C0400040C0600040C08000
310
40C0A00040C0C00040C0E00040E0000040E0200040E0400040E0600040E0800040E0A00040E0C00040E0E00080000000800020008000400080006000800080008000A0008000C0008000E00080200000802020008020400080206000802080008020A0008020C0008020E00080400000804020008040400080406000804080
310
008040A0008040C0008040E00080600000806020008060400080606000806080008060A0008060C0008060E00080800000808020008080400080806000808080008080A0008080C0008080E00080A0000080A0200080A0400080A0600080A0800080A0A00080A0C00080A0E00080C0000080C0200080C0400080C0600080C0
310
800080C0A00080C0C00080C0E00080E0000080E0200080E0400080E0600080E0800080E0A00080E0C00080E0E000C0000000C0002000C0004000C0006000C0008000C000A000C000C000C000E000C0200000C0202000C0204000C0206000C0208000C020A000C020C000C020E000C0400000C0402000C0404000C0406000C0
310
408000C040A000C040C000C040E000C0600000C0602000C0604000C0606000C0608000C060A000C060C000C060E000C0800000C0802000C0804000C0806000C0808000C080A000C080C000C080E000C0A00000C0A02000C0A04000C0A06000C0A08000C0A0A000C0A0C000C0A0E000C0C00000C0C02000C0C04000C0C06000
310
C0C08000C0C0A000F0FBFF00A4A0A000808080000000FF0000FF000000FFFF00FF000000FF00FF00FFFF0000FFFFFF0000000000000000000000000000000000000000000000000000000000000000000000000000000000000000000000000000000000000000000000000000000000000000000000000000000000000000
310
00000000000000000000000000000000000000000000000000000000000000000000000000000000000000000000000000000000000000000000000000000000000000000000000000000000000000000000000000000000000000000000000000000000000000000000000000000000000000000000000000000000000000
310
000000000000000000000000000000000000000000000000000000000000000000000000000000000000000000000000000000FFFF0000000000000000000000000000000000000000000000000000000000000000FFFFFFFF0000000000000000000000000000000000000000000000000000000000000000FFFFFFFF0000
310
000000000000000000000000000000000000000000000000000000000000FFFFFF0000000000000000000000000000000000000000000000000000000000000000FFFFFFFF0000000000000000000000000000000000000000000000000000000000000000FFFFFF0000000000000000000000000000000000000000000000
310
000000000000000000FFFFFFFF0000000000000000000000000000000000000000000000000000000000000000FFFFFFFF00000000FFFFFFFFFFFFFFFFFFFFFFFFFFFFFFFFFFFFFFFFFFFFFFFFFFFFFFFFFFFF00000000000000000000000000000000000000000000000000FFFFFFFF000000000000000000000000000000
310
000000000000000000FFFFFFFF000000000000000000000000000000000000000000000000FFFFFFFF000000000000000000000000000000000000000000000000FFFFFFFF000000000000000000000000000000000000000000000000FFFFFFFF000000000000000000000000000000000000000000000000FFFFFFFF0000
310
0000000000000000000000000000000000000000000000FFFFFF0000000000000000000000000000000000000000000000000000000000000000000000000000000000000000000000000000000000000000000000000000000000000000000000000000000000000000000000000000000000000000000000000000000000
310
00000000000000000000000000000000000000000000000000000000000000000000000000000000000000000000000000000000000000000000000000000000000000000000000000000000000000000000000000000000000000000000000000000000000000000000000000000000000000000000000000000000000000
310
0000000000000000000000000000000000000000000000000000000000000000000000000000000000000000000000000000000000000000
102
{BLKREFS
331
22F7
331
22F8
331
236E
331
236F
331
2377
331
2378
331
2380
331
2381
331
2389
331
2391
331
2392
331
23B5
331
23B6
331
23BE
331
23BF
331
23C7
331
23C8
331
23D6
331
23D7
331
23DE
331
23DF
331
23E9
331
23EA
331
23F2
331
23F3
331
23FD
331
23FE
331
2406
331
2407
331
2411
331
2412
331
2435
331
2436
331
243E
331
243F
331
2447
331
2448
331
2450
331
2451
102
}
  0
BLOCK_RECORD
  5
83
330
1
100
AcDbSymbolTableRecord
100
AcDbBlockTableRecord
  2
GENAXEH
340
0
310
2800000020000000200000000100080000000000000400000000000000000000000000000000000000000000000080000080000000808000800000008000800080800000C0C0C000C0DCC000F0CAA6000020400000206000002080000020A0000020C0000020E00000400000004020000040400000406000004080000040A0
310
000040C0000040E00000600000006020000060400000606000006080000060A0000060C0000060E00000800000008020000080400000806000008080000080A0000080C0000080E00000A0000000A0200000A0400000A0600000A0800000A0A00000A0C00000A0E00000C0000000C0200000C0400000C0600000C0800000C0
310
A00000C0C00000C0E00000E0000000E0200000E0400000E0600000E0800000E0A00000E0C00000E0E00040000000400020004000400040006000400080004000A0004000C0004000E00040200000402020004020400040206000402080004020A0004020C0004020E000404000004040200040404000404060004040800040
310
40A0004040C0004040E00040600000406020004060400040606000406080004060A0004060C0004060E00040800000408020004080400040806000408080004080A0004080C0004080E00040A0000040A0200040A0400040A0600040A0800040A0A00040A0C00040A0E00040C0000040C0200040C0400040C0600040C08000
310
40C0A00040C0C00040C0E00040E0000040E0200040E0400040E0600040E0800040E0A00040E0C00040E0E00080000000800020008000400080006000800080008000A0008000C0008000E00080200000802020008020400080206000802080008020A0008020C0008020E00080400000804020008040400080406000804080
310
008040A0008040C0008040E00080600000806020008060400080606000806080008060A0008060C0008060E00080800000808020008080400080806000808080008080A0008080C0008080E00080A0000080A0200080A0400080A0600080A0800080A0A00080A0C00080A0E00080C0000080C0200080C0400080C0600080C0
310
800080C0A00080C0C00080C0E00080E0000080E0200080E0400080E0600080E0800080E0A00080E0C00080E0E000C0000000C0002000C0004000C0006000C0008000C000A000C000C000C000E000C0200000C0202000C0204000C0206000C0208000C020A000C020C000C020E000C0400000C0402000C0404000C0406000C0
310
408000C040A000C040C000C040E000C0600000C0602000C0604000C0606000C0608000C060A000C060C000C060E000C0800000C0802000C0804000C0806000C0808000C080A000C080C000C080E000C0A00000C0A02000C0A04000C0A06000C0A08000C0A0A000C0A0C000C0A0E000C0C00000C0C02000C0C04000C0C06000
310
C0C08000C0C0A000F0FBFF00A4A0A000808080000000FF0000FF000000FFFF00FF000000FF00FF00FFFF0000FFFFFF0000000000000000000000000000000000000000000000000000000000000000000000000000000000000000000000000000000000000000000000000000000000000000000000000000000000000000
310
00000000000000000000000000000000000000000000000000000000000000000000000000000000000000000000000000000000000000000000000000000000000000000000000000000000000000000000000000000000000000000000000000000000000000000000000000000000000000000000000000000000000000
310
00000000000000000000000000000000000000000000000000000000000000000000000000000000000000000000000000000000000000000000000000000000000000000000000000000000000000000000000000000000000000000000000000000000000000000000000000000000000000000000000000000000000000
310
00000000000000000000000000000000000000000000000000000000000000000000000000000000000000000000000000000000000000000000000000000000000000000000000000000000000000000000000000000000000000000000000000000000000000000000000000000000000000000000000000000000000000
310
0000000000000000000000000000000000000000000000000000000000000000000000000000000000000000000000000000000000FFFFFFFFFFFFFFFFFFFFFFFFFFFFFFFFFFFFFFFFFFFFFFFFFFFFFFFFFFFF0000000000000000000000000000000000000000000000000000000000000000000000000000000000000000
310
00000000000000000000000000000000000000000000000000000000000000000000000000000000000000000000000000000000000000000000000000000000000000000000000000000000000000000000000000000000000000000000000000000000000000000000000000000000000000000000000000000000000000
310
00000000000000000000000000000000000000000000000000000000000000000000000000000000000000000000000000000000000000000000000000000000000000000000000000000000000000000000000000000000000000000000000000000000000000000000000000000000000000000000000000000000000000
310
00000000000000000000000000000000000000000000000000000000000000000000000000000000000000000000000000000000000000000000000000000000000000000000000000000000000000000000000000000000000000000000000000000000000000000000000000000000000000000000000000000000000000
310
0000000000000000000000000000000000000000000000000000000000000000000000000000000000000000000000000000000000000000
  0
BLOCK_RECORD
  5
335
330
1
100
AcDbSymbolTableRecord
100
AcDbBlockTableRecord
  2
IGS2
340
0
310
2800000020000000200000000100080000000000000400000000000000000000000000000000000000000000000080000080000000808000800000008000800080800000C0C0C000C0DCC000F0CAA6000020400000206000002080000020A0000020C0000020E00000400000004020000040400000406000004080000040A0
310
000040C0000040E00000600000006020000060400000606000006080000060A0000060C0000060E00000800000008020000080400000806000008080000080A0000080C0000080E00000A0000000A0200000A0400000A0600000A0800000A0A00000A0C00000A0E00000C0000000C0200000C0400000C0600000C0800000C0
310
A00000C0C00000C0E00000E0000000E0200000E0400000E0600000E0800000E0A00000E0C00000E0E00040000000400020004000400040006000400080004000A0004000C0004000E00040200000402020004020400040206000402080004020A0004020C0004020E000404000004040200040404000404060004040800040
310
40A0004040C0004040E00040600000406020004060400040606000406080004060A0004060C0004060E00040800000408020004080400040806000408080004080A0004080C0004080E00040A0000040A0200040A0400040A0600040A0800040A0A00040A0C00040A0E00040C0000040C0200040C0400040C0600040C08000
310
40C0A00040C0C00040C0E00040E0000040E0200040E0400040E0600040E0800040E0A00040E0C00040E0E00080000000800020008000400080006000800080008000A0008000C0008000E00080200000802020008020400080206000802080008020A0008020C0008020E00080400000804020008040400080406000804080
310
008040A0008040C0008040E00080600000806020008060400080606000806080008060A0008060C0008060E00080800000808020008080400080806000808080008080A0008080C0008080E00080A0000080A0200080A0400080A0600080A0800080A0A00080A0C00080A0E00080C0000080C0200080C0400080C0600080C0
310
800080C0A00080C0C00080C0E00080E0000080E0200080E0400080E0600080E0800080E0A00080E0C00080E0E000C0000000C0002000C0004000C0006000C0008000C000A000C000C000C000E000C0200000C0202000C0204000C0206000C0208000C020A000C020C000C020E000C0400000C0402000C0404000C0406000C0
310
408000C040A000C040C000C040E000C0600000C0602000C0604000C0606000C0608000C060A000C060C000C060E000C0800000C0802000C0804000C0806000C0808000C080A000C080C000C080E000C0A00000C0A02000C0A04000C0A06000C0A08000C0A0A000C0A0C000C0A0E000C0C00000C0C02000C0C04000C0C06000
310
C0C08000C0C0A000F0FBFF00A4A0A000808080000000FF0000FF000000FFFF00FF000000FF00FF00FFFF0000FFFFFF0000000000000000000000000000000000000000000000000000000000000000000000000000000000000000000000000000000000000000000000000000000000000000000000000000000000000000
310
00000000000000000000000000000000000000000000000000000000000000000000000000000000000000000000000000000000000000000000000000000000000000000000000000000000000000000000F9FBFBF9F9F9FBFBF9F9F9F90000000000000000000000000000000000000000F9F9FBFBFBFBFBFBFBF9F9F900
310
00000000000000000000000000000000000000F9FBFBFBFBFBFBFBFBF9F9F90000000000000000000000000000000000000000F9F9F9F9F9F9F9F9F9F9F9F900000000000000000000000000000000000000000000000000000000000000000000000000000000000000000000000000000000000000000000000000000000
310
00000000000000000000000000000000000000000000000000000000000000000000000000000000000000000000000000000000000000000000000000000000000000000000000000000000000000000000000000000000000000000000000000000000000000000000000000000000000000000000000000000000000000
310
00000000000000000000000000000000000000000000000000000000000000000000000000000000000000000000000000000000000000000000000000000000000000000000000000000000000000000000000000000000000000000000000000000000000000000000000000000000000000000000000000000000000000
310
00000000000000000000000000000000000000000000000000000000000000000000000000000000000000000000000000000000000000000000000000000000000000000000000000000000000000000000000000000000000000000000000000000000000000000000000000000000000000000000000000000000000000
310
00000000000000000000000000000000000000000000000000000000000000000000000000000000000000000000000000000000000000000000000000000000000000000000000000000000000000000000000000000000000000000000000000000000000000000000000000000000000000000000000000000000000000
310
00000000000000000000000000000000000000000000000000000000000000000000000000000000000000000000000000000000000000000000000000000000000000000000000000000000000000000000000000000000000000000000000000000000000000000000000000000000000000000000000000000000000000
310
0000000000000000000000000000000000000000000000000000000000000000000000000000000000000000000000000000000000000000
102
{BLKREFS
331
D50
102
}
  0
BLOCK_RECORD
  5
6A8
330
1
100
AcDbSymbolTableRecord
100
AcDbBlockTableRecord
  2
IGS_A3
340
0
310
2800000020000000200000000100080000000000000400000000000000000000000000000000000000000000000080000080000000808000800000008000800080800000C0C0C000C0DCC000F0CAA6000020400000206000002080000020A0000020C0000020E00000400000004020000040400000406000004080000040A0
310
000040C0000040E00000600000006020000060400000606000006080000060A0000060C0000060E00000800000008020000080400000806000008080000080A0000080C0000080E00000A0000000A0200000A0400000A0600000A0800000A0A00000A0C00000A0E00000C0000000C0200000C0400000C0600000C0800000C0
310
A00000C0C00000C0E00000E0000000E0200000E0400000E0600000E0800000E0A00000E0C00000E0E00040000000400020004000400040006000400080004000A0004000C0004000E00040200000402020004020400040206000402080004020A0004020C0004020E000404000004040200040404000404060004040800040
310
40A0004040C0004040E00040600000406020004060400040606000406080004060A0004060C0004060E00040800000408020004080400040806000408080004080A0004080C0004080E00040A0000040A0200040A0400040A0600040A0800040A0A00040A0C00040A0E00040C0000040C0200040C0400040C0600040C08000
310
40C0A00040C0C00040C0E00040E0000040E0200040E0400040E0600040E0800040E0A00040E0C00040E0E00080000000800020008000400080006000800080008000A0008000C0008000E00080200000802020008020400080206000802080008020A0008020C0008020E00080400000804020008040400080406000804080
310
008040A0008040C0008040E00080600000806020008060400080606000806080008060A0008060C0008060E00080800000808020008080400080806000808080008080A0008080C0008080E00080A0000080A0200080A0400080A0600080A0800080A0A00080A0C00080A0E00080C0000080C0200080C0400080C0600080C0
310
800080C0A00080C0C00080C0E00080E0000080E0200080E0400080E0600080E0800080E0A00080E0C00080E0E000C0000000C0002000C0004000C0006000C0008000C000A000C000C000C000E000C0200000C0202000C0204000C0206000C0208000C020A000C020C000C020E000C0400000C0402000C0404000C0406000C0
310
408000C040A000C040C000C040E000C0600000C0602000C0604000C0606000C0608000C060A000C060C000C060E000C0800000C0802000C0804000C0806000C0808000C080A000C080C000C080E000C0A00000C0A02000C0A04000C0A06000C0A08000C0A0A000C0A0C000C0A0E000C0C00000C0C02000C0C04000C0C06000
310
C0C08000C0C0A000F0FBFF00A4A0A000808080000000FF0000FF000000FFFF00FF000000FF00FF00FFFF0000FFFFFF0000000000000000000000000000000000000000000000000000000000000000000000000000000000000000000000000000000000000000000000000000000000000000000000000000000000000000
310
000000000000000000000000000000000000000000000000000000000000000000000000000000000000000000000000000000000000000000000000000000000000000000000000000000000000000000000000000000000000000000000000000000000000000000000000000000000000F9F9FFF9F9F9F9F9F9F9F9F9F9
310
F9F9F9F9F9F9F9F9F9F9F9F9F9F9F900000000F900FFFFFFFFFFFFFFFFFFFFFFFFFFFFFFFFFFFFFFFFFFFFFFFFFFF900000000F900FF0000000000000000000000000000000000000000000000FFF900000000F900FF0000000000000000000000000000000000000000000000FFF900000000F900FF000000000000000000
310
0000000000000000000000000000FFF900000000F900FF0000000000000000000000000000000000000000000000FFF900000000F900FF0000000000000000000000000000000000000000000000FFF900000000F900FF0000000000000000000000000000000000000000000000FFF900000000F900FF0000000000000000
310
000000000000000000000000000000FFF900000000F900FF0000000000000000000000000000000000000000000000FFF900000000F900FF0000000000000000000000000000000000000000000000FFF900000000F900FF0000000000000000000000000000000000000000000000FFF900000000F900FF00000000000000
310
00000000000000000000000000000000FFF900000000F900FF0000000000000000000000000000000000000000000000FFF900000000F900FF0000000000000000000000000000000000000000000000FFF900000000F900FF0000000000000000000000000000000000000000000000FFF900000000F900FF000000000000
310
0000000000000000000000000000000000FFF900000000F900FF0000000000000000000000000000000000000000000000FFF900000000F900FFFFFFFFFFFFFFFFFFFFFFFFFFFFFFFFFFFFFFFFFFFFFFFFFFF900000000F9F9F9F9F9F9F9F9F9F9F9F9F9F9F9F9F9F9F9F9F9F9F9F9F9F9F9F9000000000000000000000000
310
00000000000000000000000000000000000000000000000000000000000000000000000000000000000000000000000000000000000000000000000000000000000000000000000000000000000000000000000000000000000000000000000000000000000000000000000000000000000000000000000000000000000000
310
0000000000000000000000000000000000000000000000000000000000000000000000000000000000000000000000000000000000000000
102
{BLKREFS
331
D4F
102
}
  0
BLOCK_RECORD
  5
D70
330
1
100
AcDbSymbolTableRecord
100
AcDbBlockTableRecord
  2
*D6
340
0
  0
BLOCK_RECORD
  5
D9C
330
1
100
AcDbSymbolTableRecord
100
AcDbBlockTableRecord
  2
*D7
340
0
  0
BLOCK_RECORD
  5
DCB
330
1
100
AcDbSymbolTableRecord
100
AcDbBlockTableRecord
  2
*D8
340
0
  0
BLOCK_RECORD
  5
DEC
330
1
100
AcDbSymbolTableRecord
100
AcDbBlockTableRecord
  2
*D9
340
0
  0
BLOCK_RECORD
  5
E23
330
1
100
AcDbSymbolTableRecord
100
AcDbBlockTableRecord
  2
*D10
340
0
  0
BLOCK_RECORD
  5
E4F
330
1
100
AcDbSymbolTableRecord
100
AcDbBlockTableRecord
  2
*D11
340
0
  0
BLOCK_RECORD
  5
E69
330
1
100
AcDbSymbolTableRecord
100
AcDbBlockTableRecord
  2
*D12
340
0
  0
BLOCK_RECORD
  5
E8A
330
1
100
AcDbSymbolTableRecord
100
AcDbBlockTableRecord
  2
*D13
340
0
  0
BLOCK_RECORD
  5
EC1
330
1
100
AcDbSymbolTableRecord
100
AcDbBlockTableRecord
  2
*D14
340
0
  0
BLOCK_RECORD
  5
EE9
330
1
100
AcDbSymbolTableRecord
100
AcDbBlockTableRecord
  2
*D15
340
0
  0
BLOCK_RECORD
  5
F11
330
1
100
AcDbSymbolTableRecord
100
AcDbBlockTableRecord
  2
*D16
340
0
  0
BLOCK_RECORD
  5
F3D
330
1
100
AcDbSymbolTableRecord
100
AcDbBlockTableRecord
  2
*D17
340
0
  0
BLOCK_RECORD
  5
F63
330
1
100
AcDbSymbolTableRecord
100
AcDbBlockTableRecord
  2
*D18
340
0
  0
BLOCK_RECORD
  5
F7D
330
1
100
AcDbSymbolTableRecord
100
AcDbBlockTableRecord
  2
*D19
340
0
  0
BLOCK_RECORD
  5
207A
330
1
100
AcDbSymbolTableRecord
100
AcDbBlockTableRecord
  2
*D20
340
0
  0
BLOCK_RECORD
  5
20A6
330
1
100
AcDbSymbolTableRecord
100
AcDbBlockTableRecord
  2
*D21
340
0
  0
BLOCK_RECORD
  5
20C3
330
1
100
AcDbSymbolTableRecord
100
AcDbBlockTableRecord
  2
*D22
340
0
  0
BLOCK_RECORD
  5
2150
330
1
100
AcDbSymbolTableRecord
100
AcDbBlockTableRecord
  2
_None
340
0
  0
BLOCK_RECORD
  5
216D
330
1
100
AcDbSymbolTableRecord
100
AcDbBlockTableRecord
  2
*D24
340
0
  0
BLOCK_RECORD
  5
2193
330
1
100
AcDbSymbolTableRecord
100
AcDbBlockTableRecord
  2
*D25
340
0
  0
BLOCK_RECORD
  5
21C1
330
1
100
AcDbSymbolTableRecord
100
AcDbBlockTableRecord
  2
*D26
340
0
  0
BLOCK_RECORD
  5
2460
330
1
100
AcDbSymbolTableRecord
100
AcDbBlockTableRecord
  2
NAKAMURA
340
0
310
2800000020000000200000000100080000000000000400000000000000000000000000000000000000000000000080000080000000808000800000008000800080800000C0C0C000C0DCC000F0CAA6000020400000206000002080000020A0000020C0000020E00000400000004020000040400000406000004080000040A0
310
000040C0000040E00000600000006020000060400000606000006080000060A0000060C0000060E00000800000008020000080400000806000008080000080A0000080C0000080E00000A0000000A0200000A0400000A0600000A0800000A0A00000A0C00000A0E00000C0000000C0200000C0400000C0600000C0800000C0
310
A00000C0C00000C0E00000E0000000E0200000E0400000E0600000E0800000E0A00000E0C00000E0E00040000000400020004000400040006000400080004000A0004000C0004000E00040200000402020004020400040206000402080004020A0004020C0004020E000404000004040200040404000404060004040800040
310
40A0004040C0004040E00040600000406020004060400040606000406080004060A0004060C0004060E00040800000408020004080400040806000408080004080A0004080C0004080E00040A0000040A0200040A0400040A0600040A0800040A0A00040A0C00040A0E00040C0000040C0200040C0400040C0600040C08000
310
40C0A00040C0C00040C0E00040E0000040E0200040E0400040E0600040E0800040E0A00040E0C00040E0E00080000000800020008000400080006000800080008000A0008000C0008000E00080200000802020008020400080206000802080008020A0008020C0008020E00080400000804020008040400080406000804080
310
008040A0008040C0008040E00080600000806020008060400080606000806080008060A0008060C0008060E00080800000808020008080400080806000808080008080A0008080C0008080E00080A0000080A0200080A0400080A0600080A0800080A0A00080A0C00080A0E00080C0000080C0200080C0400080C0600080C0
310
800080C0A00080C0C00080C0E00080E0000080E0200080E0400080E0600080E0800080E0A00080E0C00080E0E000C0000000C0002000C0004000C0006000C0008000C000A000C000C000C000E000C0200000C0202000C0204000C0206000C0208000C020A000C020C000C020E000C0400000C0402000C0404000C0406000C0
310
408000C040A000C040C000C040E000C0600000C0602000C0604000C0606000C0608000C060A000C060C000C060E000C0800000C0802000C0804000C0806000C0808000C080A000C080C000C080E000C0A00000C0A02000C0A04000C0A06000C0A08000C0A0A000C0A0C000C0A0E000C0C00000C0C02000C0C04000C0C06000
310
C0C08000C0C0A000F0FBFF00A4A0A000808080000000FF0000FF000000FFFF00FF000000FF00FF00FFFF0000FFFFFF000000000000000000000000000000000000000000000000000000000000000000000000000000000000000000000000FFFFFF000000000000000000000000000000000000000000000000FFFFFFFFFF
310
000000FFFF0000000000000000000000000000000000000000FFFF00000000000000000000FFFFFF00000000000000000000000000000000FF00000000FF0000000000FF00FFFF00FFFF00000000000000000000000000FF0000000000FF0000000000FF0000FF000000FF0000000000000000000000FF000000FFFFFFFFFF
310
FF00FF00FF00FFFF00000000FF000000000000000000FF00000000FF0000FF00FF0000FFFFFFFFFF0000000000FF0000000000000000FF00000000FF0000FF00FF0000FFFFFFFFFF0000000000FF00000000000000FF0000000000FF0000FF00FF00FFFFFFFFFFFFFF0000000000FF000000000000FF0000000000FFFFFFFF
310
FFFF000000FF0000FF00000000000000FF00000000FF000000000000000000FF0000000000FF0000FF00000000000000FF00000000FFFFFFFFFFFFFFFFFFFFFFFFFFFFFFFFFFFFFFFFFFFFFFFFFFFFFFFF00000000FF0000000000000000000000000000000000000000000000000000FF000000FF00000000000000000000
310
000000000000000000000000000000000000FF0000FF00000000000000000000000000000000000000000000000000000000FF0000FF00000000000000000000000000000000000000000000000000000000FF0000FF00000000000000000000000000000000000000000000000000000000FF000000FF0000000000000000
310
000000000000000000000000000000000000FF00000000FF0000000000000000000000000000000000000000000000000000FF00000000FF0000000000000000000000000000000000000000000000000000FF0000000000FF00000000000000000000000000000000000000000000000000FF0000000000FFFFFFFFFFFFFF
310
FFFFFFFFFFFFFFFFFFFFFFFFFFFFFFFFFFFFFF00000000000000FF000000000000FFFF00FFFF00FFFF00FF000000000000FF0000000000000000FF000000000000FF00FFFF0000FFFF00FF000000000000FF000000000000000000FF00000000FFFF00FFFF0000FFFFFFFF0000000000FF0000000000000000000000FF0000
310
0000FFFFFF00FFFFFFFFFFFF00000000FF00000000000000000000000000FF0000FFFFFFFFFFFF00FFFFFFFFFF00FFFF000000000000000000000000000000FFFF00FFFFFFFFFFFFFFFFFFFFFFFF00000000000000000000000000000000000000FFFFFFFFFF0000FFFFFFFF00000000000000000000000000000000000000
310
00000000000000FFFFFF00000000000000000000000000000000000000000000000000000000000000000000000000000000000000000000
102
{BLKREFS
331
2470
102
}
1001
ACAD
1000
DesignCenter Data
1002
{
1070
     1
1070
     4
1002
}
  0
BLOCK_RECORD
  5
24FC
330
1
100
AcDbSymbolTableRecord
100
AcDbBlockTableRecord
  2
*S28
340
0
  0
BLOCK_RECORD
  5
2503
330
1
100
AcDbSymbolTableRecord
100
AcDbBlockTableRecord
  2
*S29
340
0
  0
BLOCK_RECORD
  5
250B
330
1
100
AcDbSymbolTableRecord
100
AcDbBlockTableRecord
  2
*S30
340
0
  0
ENDTAB
  0
ENDSEC
  0
SECTION
  2
BLOCKS
  0
BLOCK
  5
20
330
1F
100
AcDbEntity
  8
0
100
AcDbBlockBegin
  2
*Model_Space
 70
     0
 10
0.0
 20
0.0
 30
0.0
  3
*Model_Space
  1

  0
ENDBLK
  5
21
330
1F
100
AcDbEntity
  8
0
100
AcDbBlockEnd
  0
BLOCK
  5
1C
330
1B
100
AcDbEntity
 67
     1
  8
0
100
AcDbBlockBegin
  2
*Paper_Space
 70
     0
 10
0.0
 20
0.0
 30
0.0
  3
*Paper_Space
  1

  0
ENDBLK
  5
1D
330
1B
100
AcDbEntity
 67
     1
  8
0
100
AcDbBlockEnd
  0
BLOCK
  5
24
330
23
100
AcDbEntity
  8
0
100
AcDbBlockBegin
  2
*Paper_Space0
 70
     0
 10
0.0
 20
0.0
 30
0.0
  3
*Paper_Space0
  1

  0
ENDBLK
  5
25
330
23
100
AcDbEntity
  8
0
100
AcDbBlockEnd
  0
BLOCK
  5
7B
330
77
100
AcDbEntity
  8
0
100
AcDbBlockBegin
  2
_Open30
 70
     0
 10
0.0
 20
0.0
 30
0.0
  3
_Open30
  1

  0
LINE
  5
78
330
77
100
AcDbEntity
  8
0
  6
ByBlock
 62
     0
370
    -2
100
AcDbLine
 10
-1.0
 20
0.26794919
 30
0.0
 11
0.0
 21
0.0
 31
0.0
  0
LINE
  5
79
330
77
100
AcDbEntity
  8
0
  6
ByBlock
 62
     0
370
    -2
100
AcDbLine
 10
0.0
 20
0.0
 30
0.0
 11
-1.0
 21
-0.26794919
 31
0.0
  0
LINE
  5
7A
330
77
100
AcDbEntity
  8
0
  6
ByBlock
 62
     0
370
    -2
100
AcDbLine
 10
0.0
 20
0.0
 30
0.0
 11
-1.0
 21
0.0
 31
0.0
  0
ENDBLK
  5
7C
330
77
100
AcDbEntity
  8
0
100
AcDbBlockEnd
  0
BLOCK
  5
85
330
83
100
AcDbEntity
  8
0
100
AcDbBlockBegin
  2
GENAXEH
 70
     0
 10
0.0
 20
0.0
 30
0.0
  3
GENAXEH
  1

  0
LINE
  5
84
330
83
100
AcDbEntity
  8
0
100
AcDbLine
 10
-1.0
 20
0.0
 30
0.0
 11
1.0
 21
0.0
 31
0.0
  0
ENDBLK
  5
86
330
83
100
AcDbEntity
  8
0
100
AcDbBlockEnd
  0
BLOCK
  5
3B8
330
335
100
AcDbEntity
  8
0
100
AcDbBlockBegin
  2
IGS2
 70
     2
 10
0.0
 20
0.0
 30
0.0
  3
IGS2
  1

  0
POINT
  5
336
330
335
100
AcDbEntity
  8
0
 60
     1
100
AcDbPoint
 10
0.0
 20
0.0
 30
0.0
1001
GENIUS_GENODEF_13
1002
{
1000
HIER
1070
     1
1002
}
1002
{
1000
MANEDIT
1070
     0
1002
}
1002
{
1000
NOSEL
1070
     0
1002
}
1002
{
1000
BEHIND
1070
     0
1002
}
1002
{
1000
REACTOR
1002
}
1001
GENIUS_GENTITLE_13
1002
{
1000
SCALE
1000
1:1
1002
}
1002
{
1000
BORDER
1000
IGS-A4
1002
}
1002
{
1000
TITLE
1000
IGS-TITLE
1002
}
1002
{
1000
UNCHG
1002
{
1000
GEN-TITLE-SCA
1000
GEN-TITLE-SIZ
1002
}
1002
}
1002
{
1000
HRA
1005
0
1002
}
1002
{
1000
HTIT
1005
0
1002
}
1002
{
1000
GENIUSID
1005
336
1002
}
1001
GENIUS_GENOBJ-N-TIT_13
1002
{
1000
OWNER
1000
GEN
1002
}
1001
GENIUS_GENOENT_13
1002
{
1000
MYREF
1005
336
1002
}
1002
{
1000
GRP
1005
0
1002
}
1001
GENIUS_GENOLIS_13
1002
{
1000
ENT
1005
0
1005
0
1002
}
  0
LINE
  5
337
330
335
100
AcDbEntity
  8
RAHM3
100
AcDbLine
 10
-148.4080564410193
 20
8.825237325416161
 30
52.0
 11
-145.4319868410194
 21
8.825237325416161
 31
52.0
  0
ARC
  5
338
330
335
100
AcDbEntity
  8
RAHM3
100
AcDbCircle
 10
-141.4638940410194
 20
7.833214125416168
 30
52.0
 40
0.9920232
100
AcDbArc
 50
90.0
 51
180.0
  0
LINE
  5
339
330
335
100
AcDbEntity
  8
RAHM3
100
AcDbLine
 10
-137.6611384410193
 20
8.825237325416161
 30
52.0
 11
-141.4638940410194
 21
8.825237325416161
 31
52.0
  0
ARC
  5
33A
330
335
100
AcDbEntity
  8
RAHM3
100
AcDbCircle
 10
-137.6611384410193
 20
7.833214125416168
 30
52.0
 40
0.9920232
100
AcDbArc
 50
0.0
 51
90.0
  0
ARC
  5
33B
330
335
100
AcDbEntity
  8
RAHM3
100
AcDbCircle
 10
-129.0636040410194
 20
7.833214125416168
 30
52.0
 40
0.9920232
100
AcDbArc
 50
0.0
 51
90.0
  0
LINE
  5
33C
330
335
100
AcDbEntity
  8
RAHM3
100
AcDbLine
 10
-132.7010224410193
 20
8.825237325416161
 30
52.0
 11
-129.0636040410194
 21
8.825237325416161
 31
52.0
  0
ARC
  5
33D
330
335
100
AcDbEntity
  8
RAHM3
100
AcDbCircle
 10
-132.7010224410193
 20
7.833214125416168
 30
52.0
 40
0.9920232
100
AcDbArc
 50
90.0
 51
180.0
  0
LINE
  5
33E
330
335
100
AcDbEntity
  8
RAHM3
100
AcDbLine
 10
-148.4080564410193
 20
8.163888525416165
 30
52.0
 11
-147.5813704410193
 21
8.163888525416165
 31
52.0
  0
LINE
  5
33F
330
335
100
AcDbEntity
  8
RAHM3
100
AcDbLine
 10
-147.5813704410193
 20
8.163888525416165
 30
52.0
 11
-147.5813704410193
 21
3.865121325416145
 31
52.0
  0
LINE
  5
340
330
335
100
AcDbEntity
  8
RAHM3
100
AcDbLine
 10
-146.2586728410194
 20
3.865121325416145
 30
52.0
 11
-146.2586728410194
 21
8.163888525416165
 31
52.0
  0
LINE
  5
341
330
335
100
AcDbEntity
  8
RAHM3
100
AcDbLine
 10
-146.2586728410194
 20
8.163888525416165
 30
52.0
 11
-145.4319868410194
 21
8.163888525416165
 31
52.0
  0
LINE
  5
342
330
335
100
AcDbEntity
  8
RAHM3
100
AcDbLine
 10
-145.4319868410194
 20
8.825237325416161
 30
52.0
 11
-145.4319868410194
 21
8.163888525416165
 31
52.0
  0
LINE
  5
343
330
335
100
AcDbEntity
  8
RAHM3
100
AcDbLine
 10
-148.4080564410193
 20
8.163888525416165
 30
52.0
 11
-148.4080564410193
 21
8.825237325416161
 31
52.0
  0
LINE
  5
344
330
335
100
AcDbEntity
  8
RAHM3
100
AcDbLine
 10
-145.4319868410194
 20
3.203772525416149
 30
52.0
 11
-148.4080564410193
 21
3.203772525416149
 31
52.0
  0
CIRCLE
  5
345
330
335
100
AcDbEntity
  8
RAHM3
100
AcDbCircle
 10
-144.1092892410194
 20
3.865121325416145
 30
52.0
 40
0.6613488000000001
  0
LINE
  5
346
330
335
100
AcDbEntity
  8
RAHM3
100
AcDbLine
 10
-137.9918128410194
 20
3.865121325416145
 30
52.0
 11
-137.9918128410194
 21
3.203772525416149
 31
52.0
  0
LINE
  5
347
330
335
100
AcDbEntity
  8
RAHM3
100
AcDbLine
 10
-137.9918128410194
 20
3.203772525416149
 30
52.0
 11
-136.6691152410193
 21
3.203772525416149
 31
52.0
  0
ARC
  5
348
330
335
100
AcDbEntity
  8
RAHM3
100
AcDbCircle
 10
-141.4638940410194
 20
4.195795725416166
 30
52.0
 40
0.9920232
100
AcDbArc
 50
180.0
 51
270.0
  0
LINE
  5
349
330
335
100
AcDbEntity
  8
RAHM3
100
AcDbLine
 10
-141.4638940410194
 20
3.203772525416149
 30
52.0
 11
-141.1332196410193
 21
3.203772525416149
 31
52.0
  0
LINE
  5
34A
330
335
100
AcDbEntity
  8
RAHM3
100
AcDbLine
 10
-142.4559172410194
 20
4.195795725416166
 30
52.0
 11
-142.4559172410194
 21
7.833214125416168
 31
52.0
  0
CIRCLE
  5
34B
330
335
100
AcDbEntity
  8
RAHM3
100
AcDbCircle
 10
-135.5117548410193
 20
3.865121325416145
 30
52.0
 40
0.6613488000000001
  0
ARC
  5
34C
330
335
100
AcDbEntity
  8
RAHM3
100
AcDbCircle
 10
-132.7010224410193
 20
4.195795725416166
 30
52.0
 40
0.9920232
100
AcDbArc
 50
180.0
 51
270.0
  0
LINE
  5
34D
330
335
100
AcDbEntity
  8
RAHM3
100
AcDbLine
 10
-129.0636040410194
 20
3.203772525416149
 30
52.0
 11
-132.7010224410193
 21
3.203772525416149
 31
52.0
  0
ARC
  5
34E
330
335
100
AcDbEntity
  8
RAHM3
100
AcDbCircle
 10
-129.0636040410194
 20
4.195795725416166
 30
52.0
 40
0.9920232
100
AcDbArc
 50
270.0
 51
0.0
  0
LINE
  5
34F
330
335
100
AcDbEntity
  8
RAHM3
100
AcDbLine
 10
-133.6930456410194
 20
4.195795725416166
 30
52.0
 11
-133.6930456410194
 21
5.022481725416161
 31
52.0
  0
LINE
  5
350
330
335
100
AcDbEntity
  8
RAHM3
100
AcDbLine
 10
-128.0715808410194
 20
7.833214125416168
 30
52.0
 11
-128.0715808410194
 21
7.00652812541615
 31
52.0
  0
CIRCLE
  5
351
330
335
100
AcDbEntity
  8
RAHM3
100
AcDbCircle
 10
-126.9142204410194
 20
3.865121325416145
 30
52.0
 40
0.6613488000000001
  0
LINE
  5
352
330
335
100
AcDbEntity
  8
RAHM3
100
AcDbLine
 10
-136.6691152410193
 20
7.171865325416149
 30
52.0
 11
-137.8264756410194
 21
7.171865325416149
 31
52.0
  0
LINE
  5
353
330
335
100
AcDbEntity
  8
RAHM3
100
AcDbLine
 10
-137.8264756410194
 20
7.171865325416149
 30
52.0
 11
-137.8264756410194
 21
7.667876925416146
 31
52.0
  0
LINE
  5
354
330
335
100
AcDbEntity
  8
RAHM3
100
AcDbLine
 10
-137.8264756410194
 20
7.667876925416146
 30
52.0
 11
-141.2985568410193
 21
7.667876925416146
 31
52.0
  0
LINE
  5
355
330
335
100
AcDbEntity
  8
RAHM3
100
AcDbLine
 10
-141.2985568410193
 20
7.667876925416146
 30
52.0
 11
-141.2985568410193
 21
4.361132925416165
 31
52.0
  0
LINE
  5
356
330
335
100
AcDbEntity
  8
RAHM3
100
AcDbLine
 10
-137.8264756410194
 20
5.518493325416158
 30
52.0
 11
-139.4798476410193
 21
5.518493325416158
 31
52.0
  0
LINE
  5
357
330
335
100
AcDbEntity
  8
RAHM3
100
AcDbLine
 10
-139.4798476410193
 20
5.518493325416158
 30
52.0
 11
-139.4798476410193
 21
6.510516525416153
 31
52.0
  0
LINE
  5
358
330
335
100
AcDbEntity
  8
RAHM3
100
AcDbLine
 10
-136.6691152410193
 20
7.171865325416149
 30
52.0
 11
-136.6691152410193
 21
7.833214125416168
 31
52.0
  0
LINE
  5
359
330
335
100
AcDbEntity
  8
RAHM3
100
AcDbLine
 10
-137.8264756410194
 20
5.022481725416161
 30
52.0
 11
-137.8264756410194
 21
5.518493325416158
 31
52.0
  0
LINE
  5
35A
330
335
100
AcDbEntity
  8
RAHM3
100
AcDbLine
 10
-137.6611384410193
 20
6.510516525416153
 30
52.0
 11
-139.4798476410193
 21
6.510516525416153
 31
52.0
  0
LINE
  5
35B
330
335
100
AcDbEntity
  8
RAHM3
100
AcDbLine
 10
-136.6691152410193
 20
5.518493325416158
 30
52.0
 11
-136.6691152410193
 21
3.203772525416149
 31
52.0
  0
ARC
  5
35C
330
335
100
AcDbEntity
  8
RAHM3
100
AcDbCircle
 10
-137.6611384410193
 20
5.518493325416158
 30
52.0
 40
0.9920232
100
AcDbArc
 50
0.0
 51
90.0
  0
LINE
  5
35D
330
335
100
AcDbEntity
  8
RAHM3
100
AcDbLine
 10
-139.1930809214994
 20
5.022481725416161
 30
52.0
 11
-137.8264756410194
 21
5.022481725416161
 31
52.0
  0
ARC
  5
35E
330
335
100
AcDbEntity
  8
RAHM3
100
AcDbCircle
 10
-139.1930809214994
 20
4.030458525416167
 30
52.0
 40
0.9920232
100
AcDbArc
 50
90.0
 51
119.7448812969
  0
LINE
  5
35F
330
335
100
AcDbEntity
  8
RAHM3
100
AcDbLine
 10
-140.8773334868594
 20
4.361132925416165
 30
52.0
 11
-141.2985568410193
 21
4.361132925416165
 31
52.0
  0
LINE
  5
360
330
335
100
AcDbEntity
  8
RAHM3
100
AcDbLine
 10
-140.3851521495794
 20
4.491838785176161
 30
52.0
 11
-139.6852622587794
 21
4.891775865576152
 31
52.0
  0
ARC
  5
361
330
335
100
AcDbEntity
  8
RAHM3
100
AcDbCircle
 10
-140.8773334868594
 20
5.35315612541616
 30
52.0
 40
0.9920232
100
AcDbArc
 50
270.0
 51
299.7448812969
  0
ARC
  5
362
330
335
100
AcDbEntity
  8
RAHM3
100
AcDbCircle
 10
-138.8857271583794
 20
2.873098125416151
 30
52.0
 40
0.9920232
100
AcDbArc
 50
90.0
 51
119.7448812969
  0
LINE
  5
363
330
335
100
AcDbEntity
  8
RAHM3
100
AcDbLine
 10
-140.5699797237394
 20
3.203772525416149
 30
52.0
 11
-141.4638940410194
 21
3.203772525416149
 31
52.0
  0
ARC
  5
364
330
335
100
AcDbEntity
  8
RAHM3
100
AcDbCircle
 10
-140.5699797237394
 20
4.195795725416166
 30
52.0
 40
0.9920232
100
AcDbArc
 50
270.0
 51
299.7448812969
  0
LINE
  5
365
330
335
100
AcDbEntity
  8
RAHM3
100
AcDbLine
 10
-139.3779084956594
 20
3.734415465576159
 30
52.0
 11
-140.0777983864594
 21
3.334478385176168
 31
52.0
  0
LINE
  5
366
330
335
100
AcDbEntity
  8
RAHM3
100
AcDbLine
 10
-138.8857271583794
 20
3.865121325416145
 30
52.0
 11
-137.9918128410194
 21
3.865121325416145
 31
52.0
  0
LINE
  5
367
330
335
100
AcDbEntity
  8
RAHM3
100
AcDbLine
 10
-147.5813704410193
 20
3.865121325416145
 30
52.0
 11
-148.4080564410193
 21
3.865121325416145
 31
52.0
  0
LINE
  5
368
330
335
100
AcDbEntity
  8
RAHM3
100
AcDbLine
 10
-146.2586728410194
 20
3.865121325416145
 30
52.0
 11
-145.4319868410194
 21
3.865121325416145
 31
52.0
  0
LINE
  5
369
330
335
100
AcDbEntity
  8
RAHM3
100
AcDbLine
 10
-148.4080564410193
 20
3.203772525416149
 30
52.0
 11
-148.4080564410193
 21
3.865121325416145
 31
52.0
  0
LINE
  5
36A
330
335
100
AcDbEntity
  8
RAHM3
100
AcDbLine
 10
-145.4319868410194
 20
3.865121325416145
 30
52.0
 11
-145.4319868410194
 21
3.203772525416149
 31
52.0
  0
LINE
  5
36B
330
335
100
AcDbEntity
  8
RAHM3
100
AcDbLine
 10
-132.5356852410194
 20
7.667876925416146
 30
52.0
 11
-129.2289412410193
 21
7.667876925416146
 31
52.0
  0
LINE
  5
36C
330
335
100
AcDbEntity
  8
RAHM3
100
AcDbLine
 10
-129.2289412410193
 20
7.667876925416146
 30
52.0
 11
-129.2289412410193
 21
7.00652812541615
 31
52.0
  0
LINE
  5
36D
330
335
100
AcDbEntity
  8
RAHM3
100
AcDbLine
 10
-132.5356852410194
 20
5.022481725416161
 30
52.0
 11
-132.5356852410194
 21
4.361132925416165
 31
52.0
  0
LINE
  5
36E
330
335
100
AcDbEntity
  8
RAHM3
100
AcDbLine
 10
-132.5356852410194
 20
4.361132925416165
 30
52.0
 11
-129.2289412410193
 21
4.361132925416165
 31
52.0
  0
LINE
  5
36F
330
335
100
AcDbEntity
  8
RAHM3
100
AcDbLine
 10
-132.5356852410194
 20
5.022481725416161
 30
52.0
 11
-133.6930456410194
 21
5.022481725416161
 31
52.0
  0
LINE
  5
370
330
335
100
AcDbEntity
  8
RAHM3
100
AcDbLine
 10
-128.0715808410194
 20
7.00652812541615
 30
52.0
 11
-129.2289412410193
 21
7.00652812541615
 31
52.0
  0
LINE
  5
371
330
335
100
AcDbEntity
  8
RAHM3
100
AcDbLine
 10
-129.2289412410193
 20
4.361132925416165
 30
52.0
 11
-129.2289412410193
 21
5.518493325416158
 31
52.0
  0
LINE
  5
372
330
335
100
AcDbEntity
  8
RAHM3
100
AcDbLine
 10
-132.5356852410194
 20
6.510516525416153
 30
52.0
 11
-132.5356852410194
 21
7.667876925416146
 31
52.0
  0
LINE
  5
373
330
335
100
AcDbEntity
  8
RAHM3
100
AcDbLine
 10
-128.0715808410194
 20
5.518493325416158
 30
52.0
 11
-128.0715808410194
 21
4.195795725416166
 31
52.0
  0
LINE
  5
374
330
335
100
AcDbEntity
  8
RAHM3
100
AcDbLine
 10
-129.0636040410194
 20
6.510516525416153
 30
52.0
 11
-132.5356852410194
 21
6.510516525416153
 31
52.0
  0
ARC
  5
375
330
335
100
AcDbEntity
  8
RAHM3
100
AcDbCircle
 10
-129.0636040410194
 20
5.518493325416158
 30
52.0
 40
0.9920232
100
AcDbArc
 50
0.0
 51
90.0
  0
LINE
  5
376
330
335
100
AcDbEntity
  8
RAHM3
100
AcDbLine
 10
-132.7010224411794
 20
5.518493325416158
 30
52.0
 11
-129.2289412410193
 21
5.518493325416158
 31
52.0
  0
LINE
  5
377
330
335
100
AcDbEntity
  8
RAHM3
100
AcDbLine
 10
-133.6930456410194
 20
6.510516525416153
 30
52.0
 11
-133.6930456410194
 21
7.833214125416168
 31
52.0
  0
ARC
  5
378
330
335
100
AcDbEntity
  8
RAHM3
100
AcDbCircle
 10
-132.7010224411794
 20
6.510516525416153
 30
52.0
 40
0.9920232
100
AcDbArc
 50
180.0
 51
270.0
  0
POINT
  5
379
330
335
100
AcDbEntity
  8
0
 60
     1
100
AcDbPoint
 10
0.0
 20
0.0
 30
0.0
1001
GENIUS_GENODEF_13
1002
{
1000
HIER
1070
     1
1002
}
1002
{
1000
MANEDIT
1070
     0
1002
}
1002
{
1000
NOSEL
1070
     0
1002
}
1002
{
1000
BEHIND
1070
     0
1002
}
1002
{
1000
REACTOR
1002
}
1001
GENIUS_GENTITLE_13
1002
{
1000
SCALE
1000
1:1
1002
}
1002
{
1000
BORDER
1000
GEN_A4
1002
}
1002
{
1000
TITLE
1000
GENTITUS
1002
}
1002
{
1000
UNCHG
1002
{
1000
GEN-TITLE-SCA
1000
GEN-TITLE-SIZ
1002
}
1002
}
1002
{
1000
HRA
1005
0
1002
}
1002
{
1000
HTIT
1005
0
1002
}
1002
{
1000
GENIUSID
1005
379
1002
}
1001
GENIUS_GENOBJ-N-TIT_13
1002
{
1000
OWNER
1000
GEN
1002
}
1001
GENIUS_GENOENT_13
1002
{
1000
MYREF
1005
379
1002
}
1002
{
1000
GRP
1005
0
1002
}
1001
GENIUS_GENOLIS_13
1002
{
1000
ENT
1005
0
1005
0
1002
}
  0
TEXT
  5
37A
330
335
100
AcDbEntity
  8
0
 60
     1
100
AcDbText
 10
210.0
 20
297.0
 30
0.0
 40
3.5
  1
!GENTITLE-MAX
100
AcDbText
  0
TEXT
  5
37B
330
335
100
AcDbEntity
  8
0
 60
     1
100
AcDbText
 10
205.0
 20
287.0
 30
0.0
 40
3.5
  1
!GENTITLE-RU
100
AcDbText
  0
TEXT
  5
37C
330
335
100
AcDbEntity
  8
0
 60
     1
100
AcDbText
 10
15.0
 20
59.99
 30
0.0
 40
3.5
  1
!GENTITLE-LL
100
AcDbText
  0
TEXT
  5
37D
330
335
100
AcDbEntity
  8
0
 60
     1
100
AcDbText
 10
205.0
 20
5.0
 30
0.0
 40
3.5
  1
!GENTITLE-INSERT
100
AcDbText
  0
LINE
  5
37E
330
335
100
AcDbEntity
  8
RAHM2
100
AcDbLine
 10
-155.0
 20
12.0
 30
0.0
 11
0.0
 21
12.0
 31
0.0
  0
LINE
  5
37F
330
335
100
AcDbEntity
  8
RAHM2
100
AcDbLine
 10
-12.0
 20
12.0
 30
0.0
 11
-12.00000000000727
 21
0.0
 31
0.0
  0
LINE
  5
380
330
335
100
AcDbEntity
  8
RAHM2
100
AcDbLine
 10
-80.0
 20
19.99999999999272
 30
0.0
 11
0.0
 21
20.0
 31
0.0
  0
LINE
  5
381
330
335
100
AcDbEntity
  8
RAHM2
100
AcDbLine
 10
0.0
 20
27.0
 30
0.0
 11
-80.0
 21
27.0
 31
0.0
  0
MTEXT
  5
382
330
335
100
AcDbEntity
  8
RAHM2
100
AcDbMText
 10
-78.39748281353763
 20
37.79972226353243
 30
0.0
 40
2.5
 41
2.458156240282278
 71
     1
 72
     5
  1

 73
     1
 44
1.0
  0
TEXT
  5
383
330
335
100
AcDbEntity
  8
RAHM3
100
AcDbText
 10
-79.00900277736832
 20
36.89804600214973
 30
0.0
 40
2.299999999999999
  1
名称 ＴＩＴＬＥ
 41
0.8
100
AcDbText
  0
LINE
  5
384
330
335
100
AcDbEntity
  8
RAHM2
100
AcDbLine
 10
-80.0
 20
40.00000000000727
 30
0.0
 11
-80.0
 21
0.0
 31
0.0
  0
TEXT
  5
385
330
335
100
AcDbEntity
  8
RAHM3
100
AcDbText
 10
-79.00900277736832
 20
23.89804600216055
 30
0.0
 40
2.299999999999999
  1
符号 
 41
0.8
100
AcDbText
  0
TEXT
  5
386
330
335
100
AcDbEntity
  8
RAHM3
100
AcDbText
 10
-79.00900277736832
 20
16.89804600215146
 30
0.0
 40
2.299999999999999
  1
件名
 41
0.8
100
AcDbText
  0
TEXT
  5
387
330
335
100
AcDbEntity
  8
RAHM3
100
AcDbText
 10
-79.00900277736832
 20
8.898046002160548
 30
0.0
 40
2.299999999999999
  1
図番 ＤＲＡＷＩＮＧ ＮＯ．
 41
0.8
100
AcDbText
  0
CIRCLE
  5
388
330
335
100
AcDbEntity
  8
RAHM2
100
AcDbCircle
 10
-5.0
 20
5.0
 30
0.0
 40
4.5
  0
LINE
  5
389
330
335
100
AcDbEntity
  8
RAHM2
100
AcDbLine
 10
-130.0000000000018
 20
40.00000000000916
 30
0.0
 11
-130.0000000000018
 21
12.0
 31
0.0
  0
LINE
  5
38A
330
335
100
AcDbEntity
  8
RAHM2
100
AcDbLine
 10
-130.0000000000018
 20
26.00000000000458
 30
0.0
 11
-80.0
 21
25.99999999999818
 31
0.0
  0
LINE
  5
38B
330
335
100
AcDbEntity
  8
RAHM2
100
AcDbLine
 10
-105.0000000000018
 20
40.00000000000916
 30
0.0
 11
-105.0000000000018
 21
12.0
 31
0.0
  0
TEXT
  5
38C
330
335
100
AcDbEntity
  8
RAHM3
100
AcDbText
 10
-129.0090027773683
 20
36.89804600215881
 30
0.0
 40
2.299999999999999
  1
承認 ＡＰＰＤ
 41
0.8
100
AcDbText
  0
TEXT
  5
38D
330
335
100
AcDbEntity
  8
RAHM3
100
AcDbText
 10
-104.0090027773683
 20
36.8980460021551
 30
0.0
 40
2.299999999999999
  1
検図 ＣＨＫ
 41
0.8
100
AcDbText
  0
TEXT
  5
38E
330
335
100
AcDbEntity
  8
RAHM3
100
AcDbText
 10
-129.0090027773683
 20
22.89804600215422
 30
0.0
 40
2.299999999999999
  1
設計 ＥＮＧＲ
 41
0.8
100
AcDbText
  0
TEXT
  5
38F
330
335
100
AcDbEntity
  8
RAHM3
100
AcDbText
 10
-104.0090027773683
 20
22.89804600214964
 30
0.0
 40
2.299999999999999
  1
製図 ＤＲ ＤＡＴＥ
 41
0.8
100
AcDbText
  0
LINE
  5
390
330
335
100
AcDbEntity
  8
RAHM2
100
AcDbLine
 10
-155.0
 20
30.60000000000036
 30
0.0
 11
-130.0000000000018
 21
30.60000000000036
 31
0.0
  0
LINE
  5
391
330
335
100
AcDbEntity
  8
RAHM2
100
AcDbLine
 10
-155.0
 20
21.29999999999927
 30
0.0
 11
-130.0000000000018
 21
21.30000000000109
 31
0.0
  0
TEXT
  5
392
330
335
100
AcDbEntity
  8
RAHM3
100
AcDbText
 10
-121.7843516157921
 20
6.885079184961092
 30
0.0
 40
4.0
  1
伊藤鉄工株式会社
100
AcDbText
  0
TEXT
  5
393
330
335
100
AcDbEntity
  8
RAHM3
100
AcDbText
 10
-120.6675998914835
 20
3.578884653066273
 30
0.0
 40
2.0
  1
ITO TEKKO  CO.,LTD.
100
AcDbText
1001
GENIUS_GENTRA_14
1002
{
1070
     1
1000
/
1000
ITO TEKKO  CO.,LTD.
1000
JPN
1070
     0
1040
1.0
1070
     0
1002
}
  0
TEXT
  5
394
330
335
100
AcDbEntity
  8
RAHM3
100
AcDbText
 10
-120.6675998914835
 20
0.9279960228792472
 30
0.0
 40
2.0
  1
KAWAGUCHI  JAPAN
100
AcDbText
  0
TEXT
  5
395
330
335
100
AcDbEntity
  8
RAHM3
100
AcDbText
 10
-11.85206060358336
 20
9.69362381988742
 30
0.0
 40
1.8
  1
ＲＥＶ．ＭＡＲＫ
 41
0.6800000000000001
100
AcDbText
  0
TEXT
  5
396
330
335
100
AcDbEntity
  8
RAHM3
100
AcDbText
 10
-11.57052530051805
 20
7.425435269030799
 30
0.0
 40
1.8
  1
変
100
AcDbText
  0
TEXT
  5
397
330
335
100
AcDbEntity
  8
RAHM3
100
AcDbText
 10
-11.59004395148213
 20
4.996441785248862
 30
0.0
 40
1.8
  1
更
100
AcDbText
  0
TEXT
  5
398
330
335
100
AcDbEntity
  8
RAHM3
100
AcDbText
 10
-11.62938531906752
 20
2.617267270587205
 30
0.0
 40
1.8
  1
回
100
AcDbText
  0
TEXT
  5
399
330
335
100
AcDbEntity
  8
RAHM3
100
AcDbText
 10
-11.56556962136267
 20
0.3551115072955326
 30
0.0
 40
1.8
  1
数
100
AcDbText
  0
TEXT
  5
39A
330
335
100
AcDbEntity
  8
RAHM3
100
AcDbText
 10
-154.0090027773665
 20
36.89804600217056
 30
0.0
 40
2.299999999999999
  1
尺度 ＳＣＡＬＥ
 41
0.8
100
AcDbText
  0
TEXT
  5
39B
330
335
100
AcDbEntity
  8
RAHM3
100
AcDbText
 10
-154.0090027773665
 20
27.49804600215
 30
0.0
 40
2.299999999999999
  1
図面枚数 ＮＯ．  
 41
0.8
100
AcDbText
  0
LINE
  5
39C
330
335
100
AcDbEntity
  8
7A
100
AcDbLine
 10
-151.7551228444401
 20
16.64999999999988
 30
0.0
 11
-149.2551228444401
 21
16.64999999999988
 31
0.0
1001
GENIUS_GENOREF_13
1005
3A0
  0
LINE
  5
39D
330
335
100
AcDbEntity
  8
7A
100
AcDbLine
 10
-151.7551228444401
 20
16.64999999999988
 30
0.0
 11
-151.7551228444401
 21
19.14999999999988
 31
0.0
1001
GENIUS_GENOREF_13
1005
3A0
  0
LINE
  5
39E
330
335
100
AcDbEntity
  8
7A
100
AcDbLine
 10
-151.7551228444401
 20
16.64999999999988
 30
0.0
 11
-154.2551228444401
 21
16.64999999999988
 31
0.0
1001
GENIUS_GENOREF_13
1005
3A0
  0
LINE
  5
39F
330
335
100
AcDbEntity
  8
7A
100
AcDbLine
 10
-151.7551228444401
 20
16.64999999999988
 30
0.0
 11
-151.7551228444401
 21
14.14999999999988
 31
0.0
1001
GENIUS_GENOREF_13
1005
3A0
  0
POINT
  5
3A0
330
335
100
AcDbEntity
  8
0
 60
     1
100
AcDbPoint
 10
0.0
 20
0.0
 30
0.0
1001
GENIUS_GENODEF_13
1002
{
1000
HIER
1070
    10
1002
}
1002
{
1000
MANEDIT
1070
     0
1002
}
1002
{
1000
NOSEL
1070
     0
1002
}
1002
{
1000
BEHIND
1070
     0
1002
}
1002
{
1000
REACTOR
1002
}
1001
GENIUS_GENOBJ-N-CRS_13
1002
{
1000
OWNER
1000
GEN
1002
}
1001
GENIUS_GENOENT_13
1002
{
1000
MYREF
1005
3A0
1002
}
1002
{
1000
GRP
1005
0
1002
}
1001
GENIUS_GENOLIS_13
1002
{
1000
ENT
1005
39F
1005
39E
1005
39D
1005
39C
1002
}
  0
CIRCLE
  5
3A1
330
335
100
AcDbEntity
  8
RAHM3
100
AcDbCircle
 10
-151.7551228444401
 20
16.64999999999988
 30
0.0
 40
2.0
  0
CIRCLE
  5
3A2
330
335
100
AcDbEntity
  8
RAHM3
100
AcDbCircle
 10
-151.7551228444401
 20
16.64999999999952
 30
0.0
 40
1.0
  0
LINE
  5
3A3
330
335
100
AcDbEntity
  8
RAHM3
100
AcDbLine
 10
-147.7659442035316
 20
17.64999999999929
 30
0.0
 11
-147.7659442035316
 21
15.64999999999929
 31
0.0
  0
LINE
  5
3A4
330
335
100
AcDbEntity
  8
RAHM3
100
AcDbLine
 10
-147.7659442035316
 20
15.64999999999929
 30
0.0
 11
-143.7659442035316
 21
14.64999999999928
 31
0.0
  0
LINE
  5
3A5
330
335
100
AcDbEntity
  8
RAHM3
100
AcDbLine
 10
-143.7659442035316
 20
14.64999999999928
 30
0.0
 11
-143.7659442035316
 21
18.64999999999929
 31
0.0
  0
LINE
  5
3A6
330
335
100
AcDbEntity
  8
RAHM3
100
AcDbLine
 10
-143.7659442035316
 20
18.64999999999929
 30
0.0
 11
-147.7659442035316
 21
17.64999999999929
 31
0.0
  0
LINE
  5
3A7
330
335
100
AcDbEntity
  8
7A
100
AcDbLine
 10
-148.6350563849704
 20
16.64999999999929
 30
0.0
 11
-142.8462596443259
 21
16.64999999999929
 31
0.0
1001
GENIUS_GENODEF_13
1002
{
1000
HIER
1070
     0
1002
}
1002
{
1000
MANEDIT
1070
     0
1002
}
1002
{
1000
NOSEL
1070
     0
1002
}
1002
{
1000
BEHIND
1070
     0
1002
}
1002
{
1000
REACTOR
1002
}
1001
GENIUS_GENOBJ-N-CEN_13
1002
{
1000
OWNER
1000
GEN
1002
}
  0
TEXT
  5
3A8
330
335
100
AcDbEntity
  8
RAHM3
100
AcDbText
 10
-141.8454810851357
 20
18.28209750892168
 30
0.0
 40
2.1
  1
単位 ＵＮＩＴ
 41
0.7
100
AcDbText
  0
LINE
  5
3A9
330
335
100
AcDbEntity
  8
RAHM2
100
AcDbLine
 10
-142.5000000000009
 20
21.29999999999927
 30
0.0
 11
-142.5000000000009
 21
12.0
 31
0.0
  0
TEXT
  5
3AA
330
335
100
AcDbEntity
  8
RAHM3
100
AcDbText
 10
-139.6782849929894
 20
13.82826889824218
 30
0.0
 40
4.0
  1
ｍｍ
 41
0.8
100
AcDbText
  0
POLYLINE
  5
3AB
330
335
100
AcDbEntity
  8
RAHM2
100
AcDb2dPolyline
 66
     1
 10
0.0
 20
0.0
 30
0.0
 70
     1
  0
VERTEX
  5
3AC
330
3AB
100
AcDbEntity
  8
RAHM2
100
AcDbVertex
100
AcDb2dVertex
 10
-155.0
 20
-0.000000000001819
 30
0.0
  0
VERTEX
  5
3AD
330
3AB
100
AcDbEntity
  8
RAHM2
100
AcDbVertex
100
AcDb2dVertex
 10
-155.0
 20
40.00000000002091
 30
0.0
  0
VERTEX
  5
3AE
330
3AB
100
AcDbEntity
  8
RAHM2
100
AcDbVertex
100
AcDb2dVertex
 10
0.0
 20
39.99999999999273
 30
0.0
  0
VERTEX
  5
3AF
330
3AB
100
AcDbEntity
  8
RAHM2
100
AcDbVertex
100
AcDb2dVertex
 10
0.0
 20
0.0
 30
0.0
  0
SEQEND
  5
3B0
330
3AB
100
AcDbEntity
  8
RAHM2
  0
ATTDEF
  5
3B1
330
335
100
AcDbEntity
  8
RAHM3
100
AcDbText
 10
-147.2595867131855
 20
31.94728899818607
 30
0.0
 40
4.0
  1

100
AcDbAttributeDefinition
  3
尺度
  2
GEN-TITLE-SCA
 70
     0
  0
ATTDEF
  5
3B2
330
335
100
AcDbEntity
  8
RAHM3
100
AcDbText
 10
-73.09000000000001
 20
29.74
 30
0.0
 40
5.0
  1

100
AcDbAttributeDefinition
  3
名称
  2
ＴＩＴＬＥ
 70
     0
  0
ATTDEF
  5
3B3
330
335
100
AcDbEntity
  8
RAHM3
100
AcDbText
 10
-71.56287815584043
 20
21.80438312711384
 30
0.0
 40
3.0
  1

100
AcDbAttributeDefinition
  3
符号
  2
ｃｏｄｅ
 70
     0
  0
ATTDEF
  5
3B4
330
335
100
AcDbEntity
  8
RAHM3
100
AcDbText
 10
-70.74480649396313
 20
14.80438312710657
 30
0.0
 40
3.0
  1

100
AcDbAttributeDefinition
  3
件名
  2
件名
 70
     0
  0
ATTDEF
  5
3B5
330
335
100
AcDbEntity
  8
RAHM3
100
AcDbText
 10
-73.09000000000001
 20
1.739999999992722
 30
0.0
 40
5.0
  1

100
AcDbAttributeDefinition
  3
図面番号
  2
Ｎｏ．
 70
     0
  0
ATTDEF
  5
3B6
330
335
100
AcDbEntity
  8
RAHM3
100
AcDbText
 10
-100.45
 20
17.40708932112655
 30
0.0
 40
4.0
  1

100
AcDbAttributeDefinition
  3
製図者
  2
ＤＲ
 70
     0
  0
ATTDEF
  5
3B7
330
335
100
AcDbEntity
  8
RAHM3
100
AcDbText
 10
-103.7180853038729
 20
12.76999999999999
 30
0.0
 40
3.0
  1

 41
0.8
100
AcDbAttributeDefinition
  3
日付
  2
ｄａｔｅ
 70
     0
  0
ENDBLK
  5
3B9
330
335
100
AcDbEntity
  8
0
100
AcDbBlockEnd
  0
BLOCK
  5
6BE
330
6A8
100
AcDbEntity
  8
0
100
AcDbBlockBegin
  2
IGS_A3
 70
     0
 10
0.0
 20
0.0
 30
0.0
  3
IGS_A3
  1

  0
LINE
  5
6A9
330
6A8
100
AcDbEntity
  8
AM_BOR
100
AcDbLine
 10
0.0
 20
0.0
 30
0.0
 11
0.0
 21
10.0
 31
0.0
  0
LINE
  5
6AA
330
6A8
100
AcDbEntity
  8
AM_BOR
100
AcDbLine
 10
0.0
 20
297.0
 30
0.0
 11
10.0
 21
297.0
 31
0.0
  0
LINE
  5
6AB
330
6A8
100
AcDbEntity
  8
AM_BOR
100
AcDbLine
 10
420.0
 20
297.0
 30
0.0
 11
420.0
 21
287.0
 31
0.0
  0
LINE
  5
6AC
330
6A8
100
AcDbEntity
  8
AM_BOR
100
AcDbLine
 10
420.0
 20
0.0
 30
0.0
 11
410.0
 21
0.0
 31
0.0
  0
LINE
  5
6AD
330
6A8
100
AcDbEntity
  8
0
100
AcDbLine
 10
25.0
 20
10.0
 30
0.0
 11
25.0
 21
287.0
 31
0.0
  0
LINE
  5
6AE
330
6A8
100
AcDbEntity
  8
0
100
AcDbLine
 10
410.0
 20
10.0
 30
0.0
 11
25.0
 21
10.0
 31
0.0
  0
LINE
  5
6AF
330
6A8
100
AcDbEntity
  8
0
100
AcDbLine
 10
410.0
 20
287.0
 30
0.0
 11
410.0
 21
10.0
 31
0.0
  0
LINE
  5
6B0
330
6A8
100
AcDbEntity
  8
0
100
AcDbLine
 10
25.0
 20
287.0
 30
0.0
 11
410.0
 21
287.0
 31
0.0
  0
LINE
  5
6B1
330
6A8
100
AcDbEntity
  8
AM_BOR
100
AcDbLine
 10
0.0
 20
287.0
 30
0.0
 11
0.0
 21
297.0
 31
0.0
  0
LINE
  5
6B2
330
6A8
100
AcDbEntity
  8
AM_BOR
100
AcDbLine
 10
10.0
 20
0.0
 30
0.0
 11
0.0
 21
0.0
 31
0.0
  0
LINE
  5
6B3
330
6A8
100
AcDbEntity
  8
AM_BOR
100
AcDbLine
 10
420.0
 20
10.0
 30
0.0
 11
420.0
 21
0.0
 31
0.0
  0
LINE
  5
6B4
330
6A8
100
AcDbEntity
  8
AM_BOR
100
AcDbLine
 10
410.0
 20
297.0
 30
0.0
 11
420.0
 21
297.0
 31
0.0
  0
TEXT
  5
6B5
330
6A8
100
AcDbEntity
  8
0
 60
     1
100
AcDbText
 10
410.0
 20
287.0
 30
0.0
 40
3.5
  1
!GENTITLE-RU
  7
ACJISTS
100
AcDbText
  0
TEXT
  5
6B6
330
6A8
100
AcDbEntity
  8
0
 60
     1
100
AcDbText
 10
420.0
 20
297.0
 30
0.0
 40
3.5
  1
!GENTITLE-MAX
  7
ACJISTS
100
AcDbText
  0
TEXT
  5
6B7
330
6A8
100
AcDbEntity
  8
0
 60
     1
100
AcDbText
 10
410.0
 20
10.0
 30
0.0
 40
3.5
  1
!GENTITLE-INSERT
  7
ACJISTS
100
AcDbText
  0
TEXT
  5
6B8
330
6A8
100
AcDbEntity
  8
0
 60
     1
100
AcDbText
 10
25.0
 20
10.0
 30
0.0
 40
3.5
  1
!GENTITLE-LL
  7
ACJISTS
100
AcDbText
  0
LINE
  5
6B9
330
6A8
100
AcDbEntity
  8
AM_BOR
 62
     1
370
    25
100
AcDbLine
 10
0.0
 20
297.0
 30
0.0
 11
420.0
 21
297.0
 31
0.0
  0
LINE
  5
6BA
330
6A8
100
AcDbEntity
  8
AM_BOR
 62
     1
370
    25
100
AcDbLine
 10
420.0
 20
297.0
 30
0.0
 11
420.0
 21
0.0
 31
0.0
  0
LINE
  5
6BB
330
6A8
100
AcDbEntity
  8
AM_BOR
 62
     1
370
    25
100
AcDbLine
 10
420.0
 20
0.0
 30
0.0
 11
0.0
 21
0.0
 31
0.0
  0
LINE
  5
6BC
330
6A8
100
AcDbEntity
  8
AM_BOR
 62
     1
370
    25
100
AcDbLine
 10
0.0
 20
0.0
 30
0.0
 11
0.0
 21
297.0
 31
0.0
  0
TEXT
  5
6BD
330
6A8
100
AcDbEntity
  8
DEFPOINTS
100
AcDbText
 10
19.5941472374451
 20
2.504073349097552
 30
0.0
 40
5.0
  1
A3
100
AcDbText
  0
ENDBLK
  5
6BF
330
6A8
100
AcDbEntity
  8
0
100
AcDbBlockEnd
  0
BLOCK
  5
E0B
330
D70
100
AcDbEntity
  8
0
100
AcDbBlockBegin
  2
*D6
 70
     1
 10
0.0
 20
0.0
 30
0.0
  3
*D6
  1

  0
LINE
  5
240C
330
D70
100
AcDbEntity
  8
AM_5
100
AcDbLine
 10
1006.894136799567
 20
2305.356746829534
 30
0.0
 11
1006.894136799567
 21
2425.356746829534
 31
0.0
  0
LINE
  5
240D
330
D70
100
AcDbEntity
  8
AM_5
100
AcDbLine
 10
1036.894136799567
 20
2275.356746829534
 30
0.0
 11
1036.894136799567
 21
2425.356746829534
 31
0.0
  0
LINE
  5
240E
330
D70
100
AcDbEntity
  8
AM_5
100
AcDbLine
 10
981.894136799567
 20
2415.356746829534
 30
0.0
 11
956.894136799567
 21
2415.356746829534
 31
0.0
  0
LINE
  5
240F
330
D70
100
AcDbEntity
  8
AM_5
100
AcDbLine
 10
1061.894136799567
 20
2415.356746829534
 30
0.0
 11
1086.894136799567
 21
2415.356746829534
 31
0.0
  0
LINE
  5
2410
330
D70
100
AcDbEntity
  8
AM_5
100
AcDbLine
 10
1006.894136799567
 20
2415.356746829534
 30
0.0
 11
1036.894136799567
 21
2415.356746829534
 31
0.0
  0
INSERT
  5
2411
330
D70
100
AcDbEntity
  8
AM_5
100
AcDbBlockReference
  2
_Open30
 10
1006.894136799567
 20
2415.356746829534
 30
0.0
 41
25.0
 42
25.0
 43
25.0
  0
INSERT
  5
2412
330
D70
100
AcDbEntity
  8
AM_5
100
AcDbBlockReference
  2
_Open30
 10
1036.894136799567
 20
2415.356746829534
 30
0.0
 41
25.0
 42
25.0
 43
25.0
 50
180.0
  0
MTEXT
  5
2413
330
D70
100
AcDbEntity
  8
AM_5
 62
     2
100
AcDbMText
 10
1021.894136799567
 20
2445.356746829534
 30
0.0
 40
30.0
 41
0.0
 71
     5
 72
     1
  1
30
 73
     1
 44
1.0
  0
POINT
  5
2414
330
D70
100
AcDbEntity
  8
DEFPOINTS
 62
     0
100
AcDbPoint
 10
1006.894136799567
 20
2295.356746829535
 30
0.0
  0
POINT
  5
2415
330
D70
100
AcDbEntity
  8
DEFPOINTS
 62
     0
100
AcDbPoint
 10
1036.894136799567
 20
2265.356746829534
 30
0.0
  0
POINT
  5
2416
330
D70
100
AcDbEntity
  8
DEFPOINTS
 62
     0
100
AcDbPoint
 10
1036.894136799567
 20
2415.356746829534
 30
0.0
  0
ENDBLK
  5
E0C
330
D70
100
AcDbEntity
  8
0
100
AcDbBlockEnd
  0
BLOCK
  5
E0D
330
D9C
100
AcDbEntity
  8
0
100
AcDbBlockBegin
  2
*D7
 70
     1
 10
0.0
 20
0.0
 30
0.0
  3
*D7
  1

  0
LINE
  5
2403
330
D9C
100
AcDbEntity
  8
AM_5
100
AcDbLine
 10
2076.894136799567
 20
2275.356746829534
 30
0.0
 11
2076.894136799567
 21
2425.356746829535
 31
0.0
  0
LINE
  5
2404
330
D9C
100
AcDbEntity
  8
AM_5
100
AcDbLine
 10
1036.894136799567
 20
2275.356746829534
 30
0.0
 11
1036.894136799567
 21
2425.356746829535
 31
0.0
  0
LINE
  5
2405
330
D9C
100
AcDbEntity
  8
AM_5
100
AcDbLine
 10
2051.894136799568
 20
2415.356746829535
 30
0.0
 11
1061.894136799567
 21
2415.356746829535
 31
0.0
  0
INSERT
  5
2406
330
D9C
100
AcDbEntity
  8
AM_5
100
AcDbBlockReference
  2
_Open30
 10
2076.894136799567
 20
2415.356746829535
 30
0.0
 41
25.0
 42
25.0
 43
25.0
  0
INSERT
  5
2407
330
D9C
100
AcDbEntity
  8
AM_5
100
AcDbBlockReference
  2
_Open30
 10
1036.894136799567
 20
2415.356746829535
 30
0.0
 41
25.0
 42
25.0
 43
25.0
 50
180.0
  0
MTEXT
  5
2408
330
D9C
100
AcDbEntity
  8
AM_5
 62
     2
100
AcDbMText
 10
1556.894136799567
 20
2445.356746829535
 30
0.0
 40
30.0
 41
0.0
 71
     5
 72
     1
  1
1040
 73
     1
 44
1.0
  0
POINT
  5
2409
330
D9C
100
AcDbEntity
  8
DEFPOINTS
 62
     0
100
AcDbPoint
 10
2076.894136799567
 20
2265.356746829534
 30
0.0
  0
POINT
  5
240A
330
D9C
100
AcDbEntity
  8
DEFPOINTS
 62
     0
100
AcDbPoint
 10
1036.894136799567
 20
2265.356746829534
 30
0.0
  0
POINT
  5
240B
330
D9C
100
AcDbEntity
  8
DEFPOINTS
 62
     0
100
AcDbPoint
 10
1036.894136799567
 20
2415.356746829535
 30
0.0
  0
ENDBLK
  5
E0E
330
D9C
100
AcDbEntity
  8
0
100
AcDbBlockEnd
  0
BLOCK
  5
E0F
330
DCB
100
AcDbEntity
  8
0
100
AcDbBlockBegin
  2
*D8
 70
     1
 10
0.0
 20
0.0
 30
0.0
  3
*D8
  1

  0
LINE
  5
23F8
330
DCB
100
AcDbEntity
  8
AM_5
100
AcDbLine
 10
2106.894136799567
 20
2305.356746829534
 30
0.0
 11
2106.894136799567
 21
2425.356746829535
 31
0.0
  0
LINE
  5
23F9
330
DCB
100
AcDbEntity
  8
AM_5
100
AcDbLine
 10
2076.894136799567
 20
2275.356746829534
 30
0.0
 11
2076.894136799567
 21
2425.356746829535
 31
0.0
  0
LINE
  5
23FA
330
DCB
100
AcDbEntity
  8
AM_5
100
AcDbLine
 10
2131.894136799568
 20
2415.356746829535
 30
0.0
 11
2156.894136799567
 21
2415.356746829535
 31
0.0
  0
LINE
  5
23FB
330
DCB
100
AcDbEntity
  8
AM_5
100
AcDbLine
 10
2051.894136799568
 20
2415.356746829535
 30
0.0
 11
2026.894136799567
 21
2415.356746829535
 31
0.0
  0
LINE
  5
23FC
330
DCB
100
AcDbEntity
  8
AM_5
100
AcDbLine
 10
2106.894136799567
 20
2415.356746829535
 30
0.0
 11
2076.894136799567
 21
2415.356746829535
 31
0.0
  0
INSERT
  5
23FD
330
DCB
100
AcDbEntity
  8
AM_5
100
AcDbBlockReference
  2
_Open30
 10
2106.894136799567
 20
2415.356746829535
 30
0.0
 41
25.0
 42
25.0
 43
25.0
 50
180.0
  0
INSERT
  5
23FE
330
DCB
100
AcDbEntity
  8
AM_5
100
AcDbBlockReference
  2
_Open30
 10
2076.894136799567
 20
2415.356746829535
 30
0.0
 41
25.0
 42
25.0
 43
25.0
  0
MTEXT
  5
23FF
330
DCB
100
AcDbEntity
  8
AM_5
 62
     2
100
AcDbMText
 10
2091.894136799567
 20
2445.356746829535
 30
0.0
 40
30.0
 41
0.0
 71
     5
 72
     1
  1
30
 73
     1
 44
1.0
  0
POINT
  5
2400
330
DCB
100
AcDbEntity
  8
DEFPOINTS
 62
     0
100
AcDbPoint
 10
2106.894136799567
 20
2295.356746829535
 30
0.0
  0
POINT
  5
2401
330
DCB
100
AcDbEntity
  8
DEFPOINTS
 62
     0
100
AcDbPoint
 10
2076.894136799567
 20
2265.356746829534
 30
0.0
  0
POINT
  5
2402
330
DCB
100
AcDbEntity
  8
DEFPOINTS
 62
     0
100
AcDbPoint
 10
2076.894136799567
 20
2415.356746829535
 30
0.0
  0
ENDBLK
  5
E10
330
DCB
100
AcDbEntity
  8
0
100
AcDbBlockEnd
  0
BLOCK
  5
E11
330
DEC
100
AcDbEntity
  8
0
100
AcDbBlockBegin
  2
*D9
 70
     1
 10
0.0
 20
0.0
 30
0.0
  3
*D9
  1

  0
LINE
  5
23EF
330
DEC
100
AcDbEntity
  8
AM_5
100
AcDbLine
 10
1006.894136799567
 20
2305.356746829534
 30
0.0
 11
1006.894136799567
 21
2525.356746829534
 31
0.0
  0
LINE
  5
23F0
330
DEC
100
AcDbEntity
  8
AM_5
100
AcDbLine
 10
2106.894136799567
 20
2305.356746829534
 30
0.0
 11
2106.894136799567
 21
2525.356746829534
 31
0.0
  0
LINE
  5
23F1
330
DEC
100
AcDbEntity
  8
AM_5
100
AcDbLine
 10
1031.894136799567
 20
2515.356746829534
 30
0.0
 11
2081.894136799567
 21
2515.356746829534
 31
0.0
  0
INSERT
  5
23F2
330
DEC
100
AcDbEntity
  8
AM_5
100
AcDbBlockReference
  2
_Open30
 10
1006.894136799567
 20
2515.356746829534
 30
0.0
 41
25.0
 42
25.0
 43
25.0
 50
180.0
  0
INSERT
  5
23F3
330
DEC
100
AcDbEntity
  8
AM_5
100
AcDbBlockReference
  2
_Open30
 10
2106.894136799567
 20
2515.356746829534
 30
0.0
 41
25.0
 42
25.0
 43
25.0
  0
MTEXT
  5
23F4
330
DEC
100
AcDbEntity
  8
AM_5
 62
     2
100
AcDbMText
 10
1556.894136799567
 20
2545.356746829535
 30
0.0
 40
30.0
 41
0.0
 71
     5
 72
     1
  1
1100
 73
     1
 44
1.0
  0
POINT
  5
23F5
330
DEC
100
AcDbEntity
  8
DEFPOINTS
 62
     0
100
AcDbPoint
 10
1006.894136799567
 20
2295.356746829535
 30
0.0
  0
POINT
  5
23F6
330
DEC
100
AcDbEntity
  8
DEFPOINTS
 62
     0
100
AcDbPoint
 10
2106.894136799567
 20
2295.356746829535
 30
0.0
  0
POINT
  5
23F7
330
DEC
100
AcDbEntity
  8
DEFPOINTS
 62
     0
100
AcDbPoint
 10
2106.894136799567
 20
2515.356746829534
 30
0.0
  0
ENDBLK
  5
E12
330
DEC
100
AcDbEntity
  8
0
100
AcDbBlockEnd
  0
BLOCK
  5
EA9
330
E23
100
AcDbEntity
  8
0
100
AcDbBlockBegin
  2
*D10
 70
     1
 10
0.0
 20
0.0
 30
0.0
  3
*D10
  1

  0
LINE
  5
23E4
330
E23
100
AcDbEntity
  8
AM_5
100
AcDbLine
 10
1006.894136799567
 20
2305.356746829534
 30
0.0
 11
886.8941367995672
 21
2305.356746829534
 31
0.0
  0
LINE
  5
23E5
330
E23
100
AcDbEntity
  8
AM_5
100
AcDbLine
 10
1036.894136799567
 20
2275.356746829534
 30
0.0
 11
886.8941367995672
 21
2275.356746829535
 31
0.0
  0
LINE
  5
23E6
330
E23
100
AcDbEntity
  8
AM_5
100
AcDbLine
 10
896.8941367995672
 20
2330.356746829534
 30
0.0
 11
896.8941367995672
 21
2355.356746829534
 31
0.0
  0
LINE
  5
23E7
330
E23
100
AcDbEntity
  8
AM_5
100
AcDbLine
 10
896.8941367995672
 20
2250.356746829535
 30
0.0
 11
896.8941367995672
 21
2225.356746829535
 31
0.0
  0
LINE
  5
23E8
330
E23
100
AcDbEntity
  8
AM_5
100
AcDbLine
 10
896.8941367995672
 20
2305.356746829534
 30
0.0
 11
896.8941367995672
 21
2275.356746829535
 31
0.0
  0
INSERT
  5
23E9
330
E23
100
AcDbEntity
  8
AM_5
100
AcDbBlockReference
  2
_Open30
 10
896.8941367995672
 20
2305.356746829534
 30
0.0
 41
25.0
 42
25.0
 43
25.0
 50
270.0
  0
INSERT
  5
23EA
330
E23
100
AcDbEntity
  8
AM_5
100
AcDbBlockReference
  2
_Open30
 10
896.8941367995672
 20
2275.356746829535
 30
0.0
 41
25.0
 42
25.0
 43
25.0
 50
90.0
  0
MTEXT
  5
23EB
330
E23
100
AcDbEntity
  8
AM_5
 62
     2
100
AcDbMText
 10
866.8941367995667
 20
2290.356746829534
 30
0.0
 40
30.0
 41
0.0
 71
     5
 72
     1
  1
30
 11
0.0000000000000001
 21
1.0
 31
0.0
 73
     1
 44
1.0
  0
POINT
  5
23EC
330
E23
100
AcDbEntity
  8
DEFPOINTS
 62
     0
100
AcDbPoint
 10
1016.894136799567
 20
2305.356746829534
 30
0.0
  0
POINT
  5
23ED
330
E23
100
AcDbEntity
  8
DEFPOINTS
 62
     0
100
AcDbPoint
 10
1046.894136799567
 20
2275.356746829534
 30
0.0
  0
POINT
  5
23EE
330
E23
100
AcDbEntity
  8
DEFPOINTS
 62
     0
100
AcDbPoint
 10
896.8941367995672
 20
2275.356746829535
 30
0.0
  0
ENDBLK
  5
EAA
330
E23
100
AcDbEntity
  8
0
100
AcDbBlockEnd
  0
BLOCK
  5
EAB
330
E4F
100
AcDbEntity
  8
0
100
AcDbBlockBegin
  2
*D11
 70
     1
 10
0.0
 20
0.0
 30
0.0
  3
*D11
  1

  0
LINE
  5
23DB
330
E4F
100
AcDbEntity
  8
AM_5
100
AcDbLine
 10
1036.894136799567
 20
2275.356746829534
 30
0.0
 11
886.8941367995677
 21
2275.356746829535
 31
0.0
  0
LINE
  5
23DC
330
E4F
100
AcDbEntity
  8
AM_5
100
AcDbLine
 10
1036.894136799567
 20
1235.356746829534
 30
0.0
 11
886.8941367995674
 21
1235.356746829534
 31
0.0
  0
LINE
  5
23DD
330
E4F
100
AcDbEntity
  8
AM_5
100
AcDbLine
 10
896.8941367995677
 20
2250.356746829535
 30
0.0
 11
896.8941367995675
 21
1260.356746829534
 31
0.0
  0
INSERT
  5
23DE
330
E4F
100
AcDbEntity
  8
AM_5
100
AcDbBlockReference
  2
_Open30
 10
896.8941367995677
 20
2275.356746829535
 30
0.0
 41
25.0
 42
25.0
 43
25.0
 50
90.0
  0
INSERT
  5
23DF
330
E4F
100
AcDbEntity
  8
AM_5
100
AcDbBlockReference
  2
_Open30
 10
896.8941367995675
 20
1235.356746829534
 30
0.0
 41
25.0
 42
25.0
 43
25.0
 50
270.0
  0
MTEXT
  5
23E0
330
E4F
100
AcDbEntity
  8
AM_5
 62
     2
100
AcDbMText
 10
866.8941367995673
 20
1755.356746829534
 30
0.0
 40
30.0
 41
0.0
 71
     5
 72
     1
  1
1040
 11
0.0000000000000001
 21
1.0
 31
0.0
 73
     1
 44
1.0
  0
POINT
  5
23E1
330
E4F
100
AcDbEntity
  8
DEFPOINTS
 62
     0
100
AcDbPoint
 10
1046.894136799567
 20
2275.356746829534
 30
0.0
  0
POINT
  5
23E2
330
E4F
100
AcDbEntity
  8
DEFPOINTS
 62
     0
100
AcDbPoint
 10
1046.894136799567
 20
1235.356746829534
 30
0.0
  0
POINT
  5
23E3
330
E4F
100
AcDbEntity
  8
DEFPOINTS
 62
     0
100
AcDbPoint
 10
896.8941367995675
 20
1235.356746829534
 30
0.0
  0
ENDBLK
  5
EAC
330
E4F
100
AcDbEntity
  8
0
100
AcDbBlockEnd
  0
BLOCK
  5
EAD
330
E69
100
AcDbEntity
  8
0
100
AcDbBlockBegin
  2
*D12
 70
     1
 10
0.0
 20
0.0
 30
0.0
  3
*D12
  1

  0
LINE
  5
23CD
330
E69
100
AcDbEntity
  8
AM_5
100
AcDbLine
 10
1036.894136799567
 20
1235.356746829534
 30
0.0
 11
886.8941367995679
 21
1235.356746829534
 31
0.0
  0
LINE
  5
23CE
330
E69
100
AcDbEntity
  8
AM_5
100
AcDbLine
 10
1006.894136799567
 20
1205.356746829534
 30
0.0
 11
886.8941367995679
 21
1205.356746829534
 31
0.0
  0
LINE
  5
23CF
330
E69
100
AcDbEntity
  8
AM_5
100
AcDbLine
 10
896.8941367995679
 20
1260.356746829534
 30
0.0
 11
896.8941367995681
 21
1285.356746829534
 31
0.0
  0
LINE
  5
23D0
330
E69
100
AcDbEntity
  8
AM_5
100
AcDbLine
 10
896.8941367995679
 20
1180.356746829534
 30
0.0
 11
896.8941367995679
 21
1155.356746829534
 31
0.0
  0
LINE
  5
23D1
330
E69
100
AcDbEntity
  8
AM_5
100
AcDbLine
 10
896.8941367995679
 20
1220.356746829534
 30
0.0
 11
845.0347651019511
 21
1272.037406330562
 31
0.0
  0
LINE
  5
23D2
330
E69
100
AcDbEntity
  8
AM_5
100
AcDbLine
 10
845.0347651019511
 20
1272.037406330562
 30
0.0
 11
845.0347651019512
 21
1335.061028377806
 31
0.0
  0
MTEXT
  5
23D3
330
E69
100
AcDbEntity
  8
AM_5
 62
     2
100
AcDbMText
 10
815.034765101951
 20
1303.549217354184
 30
0.0
 40
30.0
 41
0.0
 71
     5
 72
     1
  1
30
 11
0.0000000000000001
 21
1.0
 31
0.0
 73
     1
 44
1.0
  0
LINE
  5
23D4
330
E69
100
AcDbEntity
  8
AM_5
100
AcDbLine
 10
896.8941367995679
 20
1235.356746829534
 30
0.0
 11
896.8941367995679
 21
1205.356746829534
 31
0.0
  0
LINE
  5
23D5
330
E69
100
AcDbEntity
  8
AM_5
100
AcDbLine
 10
896.8941367995679
 20
1235.356746829534
 30
0.0
 11
896.8941367995679
 21
1205.356746829534
 31
0.0
  0
INSERT
  5
23D6
330
E69
100
AcDbEntity
  8
AM_5
100
AcDbBlockReference
  2
_Open30
 10
896.8941367995679
 20
1235.356746829534
 30
0.0
 41
25.0
 42
25.0
 43
25.0
 50
270.0
  0
INSERT
  5
23D7
330
E69
100
AcDbEntity
  8
AM_5
100
AcDbBlockReference
  2
_Open30
 10
896.8941367995679
 20
1205.356746829534
 30
0.0
 41
25.0
 42
25.0
 43
25.0
 50
90.0
  0
POINT
  5
23D8
330
E69
100
AcDbEntity
  8
DEFPOINTS
 62
     0
100
AcDbPoint
 10
1046.894136799567
 20
1235.356746829534
 30
0.0
  0
POINT
  5
23D9
330
E69
100
AcDbEntity
  8
DEFPOINTS
 62
     0
100
AcDbPoint
 10
1016.894136799567
 20
1205.356746829534
 30
0.0
  0
POINT
  5
23DA
330
E69
100
AcDbEntity
  8
DEFPOINTS
 62
     0
100
AcDbPoint
 10
896.8941367995679
 20
1205.356746829534
 30
0.0
  0
ENDBLK
  5
EAE
330
E69
100
AcDbEntity
  8
0
100
AcDbBlockEnd
  0
BLOCK
  5
EAF
330
E8A
100
AcDbEntity
  8
0
100
AcDbBlockBegin
  2
*D13
 70
     1
 10
0.0
 20
0.0
 30
0.0
  3
*D13
  1

  0
LINE
  5
23C4
330
E8A
100
AcDbEntity
  8
AM_5
100
AcDbLine
 10
1006.894136799567
 20
2305.356746829534
 30
0.0
 11
765.1205264279244
 21
2305.356746829534
 31
0.0
  0
LINE
  5
23C5
330
E8A
100
AcDbEntity
  8
AM_5
100
AcDbLine
 10
1006.894136799567
 20
1205.356746829534
 30
0.0
 11
765.1205264279241
 21
1205.356746829534
 31
0.0
  0
LINE
  5
23C6
330
E8A
100
AcDbEntity
  8
AM_5
100
AcDbLine
 10
775.1205264279243
 20
2280.356746829534
 30
0.0
 11
775.1205264279241
 21
1230.356746829534
 31
0.0
  0
INSERT
  5
23C7
330
E8A
100
AcDbEntity
  8
AM_5
100
AcDbBlockReference
  2
_Open30
 10
775.1205264279244
 20
2305.356746829534
 30
0.0
 41
25.0
 42
25.0
 43
25.0
 50
90.0
  0
INSERT
  5
23C8
330
E8A
100
AcDbEntity
  8
AM_5
100
AcDbBlockReference
  2
_Open30
 10
775.1205264279241
 20
1205.356746829534
 30
0.0
 41
25.0
 42
25.0
 43
25.0
 50
270.0
  0
MTEXT
  5
23C9
330
E8A
100
AcDbEntity
  8
AM_5
 62
     2
100
AcDbMText
 10
745.120526427924
 20
1755.356746829534
 30
0.0
 40
30.0
 41
0.0
 71
     5
 72
     1
  1
1100
 11
0.0000000000000001
 21
1.0
 31
0.0
 73
     1
 44
1.0
  0
POINT
  5
23CA
330
E8A
100
AcDbEntity
  8
DEFPOINTS
 62
     0
100
AcDbPoint
 10
1016.894136799567
 20
2305.356746829534
 30
0.0
  0
POINT
  5
23CB
330
E8A
100
AcDbEntity
  8
DEFPOINTS
 62
     0
100
AcDbPoint
 10
1016.894136799567
 20
1205.356746829534
 30
0.0
  0
POINT
  5
23CC
330
E8A
100
AcDbEntity
  8
DEFPOINTS
 62
     0
100
AcDbPoint
 10
775.1205264279241
 20
1205.356746829534
 30
0.0
  0
ENDBLK
  5
EB0
330
E8A
100
AcDbEntity
  8
0
100
AcDbBlockEnd
  0
BLOCK
  5
ED7
330
EC1
100
AcDbEntity
  8
0
100
AcDbBlockBegin
  2
*D14
 70
     1
 10
0.0
 20
0.0
 30
0.0
  3
*D14
  1

  0
LINE
  5
23BB
330
EC1
100
AcDbEntity
  8
AM_5
100
AcDbLine
 10
1006.894136799567
 20
1205.356746829534
 30
0.0
 11
765.1205264279233
 21
1205.356746829534
 31
0.0
  0
LINE
  5
23BC
330
EC1
100
AcDbEntity
  8
AM_5
100
AcDbLine
 10
1244.394136799567
 20
905.3567468295341
 30
0.0
 11
765.1205264279233
 21
905.3567468295343
 31
0.0
  0
LINE
  5
23BD
330
EC1
100
AcDbEntity
  8
AM_5
100
AcDbLine
 10
775.1205264279233
 20
1180.356746829534
 30
0.0
 11
775.1205264279233
 21
930.3567468295341
 31
0.0
  0
INSERT
  5
23BE
330
EC1
100
AcDbEntity
  8
AM_5
100
AcDbBlockReference
  2
_Open30
 10
775.1205264279233
 20
1205.356746829534
 30
0.0
 41
25.0
 42
25.0
 43
25.0
 50
90.0
  0
INSERT
  5
23BF
330
EC1
100
AcDbEntity
  8
AM_5
100
AcDbBlockReference
  2
_Open30
 10
775.1205264279233
 20
905.3567468295341
 30
0.0
 41
25.0
 42
25.0
 43
25.0
 50
270.0
  0
MTEXT
  5
23C0
330
EC1
100
AcDbEntity
  8
AM_5
 62
     2
100
AcDbMText
 10
745.1205264279232
 20
1055.356746829534
 30
0.0
 40
30.0
 41
0.0
 71
     5
 72
     1
  1
300
 11
0.0000000000000001
 21
1.0
 31
0.0
 73
     1
 44
1.0
  0
POINT
  5
23C1
330
EC1
100
AcDbEntity
  8
DEFPOINTS
 62
     0
100
AcDbPoint
 10
1016.894136799567
 20
1205.356746829534
 30
0.0
  0
POINT
  5
23C2
330
EC1
100
AcDbEntity
  8
DEFPOINTS
 62
     0
100
AcDbPoint
 10
1254.394136799567
 20
905.3567468295341
 30
0.0
  0
POINT
  5
23C3
330
EC1
100
AcDbEntity
  8
DEFPOINTS
 62
     0
100
AcDbPoint
 10
775.1205264279233
 20
905.3567468295341
 30
0.0
  0
ENDBLK
  5
ED8
330
EC1
100
AcDbEntity
  8
0
100
AcDbBlockEnd
  0
BLOCK
  5
EFF
330
EE9
100
AcDbEntity
  8
0
100
AcDbBlockBegin
  2
*D15
 70
     1
 10
0.0
 20
0.0
 30
0.0
  3
*D15
  1

  0
LINE
  5
23B2
330
EE9
100
AcDbEntity
  8
AM_5
100
AcDbLine
 10
1244.394136799567
 20
905.3567468295341
 30
0.0
 11
640.3251863168459
 21
905.3567468295343
 31
0.0
  0
LINE
  5
23B3
330
EE9
100
AcDbEntity
  8
AM_5
100
AcDbLine
 10
1006.894136799567
 20
2305.356746829534
 30
0.0
 11
640.3251863168462
 21
2305.356746829534
 31
0.0
  0
LINE
  5
23B4
330
EE9
100
AcDbEntity
  8
AM_5
100
AcDbLine
 10
650.3251863168459
 20
930.3567468295343
 30
0.0
 11
650.3251863168461
 21
2280.356746829534
 31
0.0
  0
INSERT
  5
23B5
330
EE9
100
AcDbEntity
  8
AM_5
100
AcDbBlockReference
  2
_Open30
 10
650.3251863168459
 20
905.3567468295343
 30
0.0
 41
25.0
 42
25.0
 43
25.0
 50
270.0
  0
INSERT
  5
23B6
330
EE9
100
AcDbEntity
  8
AM_5
100
AcDbBlockReference
  2
_Open30
 10
650.3251863168462
 20
2305.356746829534
 30
0.0
 41
25.0
 42
25.0
 43
25.0
 50
90.0
  0
MTEXT
  5
23B7
330
EE9
100
AcDbEntity
  8
AM_5
 62
     2
100
AcDbMText
 10
620.3251863168458
 20
1605.356746829534
 30
0.0
 40
30.0
 41
0.0
 71
     5
 72
     1
  1
1400
 11
0.0000000000000001
 21
1.0
 31
0.0
 73
     1
 44
1.0
  0
POINT
  5
23B8
330
EE9
100
AcDbEntity
  8
DEFPOINTS
 62
     0
100
AcDbPoint
 10
1254.394136799567
 20
905.3567468295341
 30
0.0
  0
POINT
  5
23B9
330
EE9
100
AcDbEntity
  8
DEFPOINTS
 62
     0
100
AcDbPoint
 10
1016.894136799567
 20
2305.356746829534
 30
0.0
  0
POINT
  5
23BA
330
EE9
100
AcDbEntity
  8
DEFPOINTS
 62
     0
100
AcDbPoint
 10
650.3251863168462
 20
2305.356746829534
 30
0.0
  0
ENDBLK
  5
F00
330
EE9
100
AcDbEntity
  8
0
100
AcDbBlockEnd
  0
BLOCK
  5
F2B
330
F11
100
AcDbEntity
  8
0
100
AcDbBlockBegin
  2
*D16
 70
     1
 10
0.0
 20
0.0
 30
0.0
  3
*D16
  1

  0
LINE
  5
22F2
330
F11
100
AcDbEntity
  8
AM_5
100
AcDbLine
 10
996.894136799567
 20
2693.194053513085
 30
0.0
 11
876.894135799567
 21
2693.194053513085
 31
0.0
  0
LINE
  5
22F3
330
F11
100
AcDbEntity
  8
AM_5
100
AcDbLine
 10
996.8941367995672
 20
2713.194053513085
 30
0.0
 11
876.894135799567
 21
2713.194053513085
 31
0.0
  0
LINE
  5
22F4
330
F11
100
AcDbEntity
  8
AM_5
100
AcDbLine
 10
886.8941357995669
 20
2668.194053513085
 30
0.0
 11
886.8941357995669
 21
2643.194053513085
 31
0.0
  0
LINE
  5
22F5
330
F11
100
AcDbEntity
  8
AM_5
100
AcDbLine
 10
886.8941357995669
 20
2738.194053513085
 30
0.0
 11
886.8941357995671
 21
2826.979486583951
 31
0.0
  0
LINE
  5
22F6
330
F11
100
AcDbEntity
  8
AM_5
100
AcDbLine
 10
886.8941357995669
 20
2693.194053513085
 30
0.0
 11
886.8941357995669
 21
2713.194053513085
 31
0.0
  0
INSERT
  5
22F7
330
F11
100
AcDbEntity
  8
AM_5
100
AcDbBlockReference
  2
_Open30
 10
886.8941357995669
 20
2693.194053513085
 30
0.0
 41
25.0
 42
25.0
 43
25.0
 50
90.0
  0
INSERT
  5
22F8
330
F11
100
AcDbEntity
  8
AM_5
100
AcDbBlockReference
  2
_Open30
 10
886.8941357995669
 20
2713.194053513085
 30
0.0
 41
25.0
 42
25.0
 43
25.0
 50
270.0
  0
MTEXT
  5
22F9
330
F11
100
AcDbEntity
  8
AM_5
 62
     2
100
AcDbMText
 10
856.8911830436611
 20
2795.086770048518
 30
0.0
 40
30.0
 41
0.0
 71
     5
 72
     1
  1
20
 11
0.0000000000000001
 21
1.0
 31
0.0
 73
     1
 44
1.0
  0
POINT
  5
22FA
330
F11
100
AcDbEntity
  8
DEFPOINTS
 62
     0
100
AcDbPoint
 10
1006.894136799567
 20
2693.194053513085
 30
0.0
  0
POINT
  5
22FB
330
F11
100
AcDbEntity
  8
DEFPOINTS
 62
     0
100
AcDbPoint
 10
1006.894136799567
 20
2713.194053513085
 30
0.0
  0
POINT
  5
22FC
330
F11
100
AcDbEntity
  8
DEFPOINTS
 62
     0
100
AcDbPoint
 10
886.8941357995669
 20
2713.194053513085
 30
0.0
  0
ENDBLK
  5
F2C
330
F11
100
AcDbEntity
  8
0
100
AcDbBlockEnd
  0
BLOCK
  5
F93
330
F3D
100
AcDbEntity
  8
0
100
AcDbBlockBegin
  2
*D17
 70
     1
 10
0.0
 20
0.0
 30
0.0
  3
*D17
  1

  0
LINE
  5
244D
330
F3D
100
AcDbEntity
  8
AM_5
100
AcDbLine
 10
1006.894136799567
 20
1205.356746829534
 30
0.0
 11
1006.894136799567
 21
297.4030738849433
 31
0.0
  0
LINE
  5
244E
330
F3D
100
AcDbEntity
  8
AM_5
100
AcDbLine
 10
1269.394136799567
 20
845.4555865770339
 30
0.0
 11
1269.394136799567
 21
297.4030738849433
 31
0.0
  0
LINE
  5
244F
330
F3D
100
AcDbEntity
  8
AM_5
100
AcDbLine
 10
1031.894136799567
 20
307.4030738849433
 30
0.0
 11
1244.394136799567
 21
307.4030738849433
 31
0.0
  0
INSERT
  5
2450
330
F3D
100
AcDbEntity
  8
AM_5
100
AcDbBlockReference
  2
_Open30
 10
1006.894136799567
 20
307.4030738849433
 30
0.0
 41
25.0
 42
25.0
 43
25.0
 50
180.0
  0
INSERT
  5
2451
330
F3D
100
AcDbEntity
  8
AM_5
100
AcDbBlockReference
  2
_Open30
 10
1269.394136799567
 20
307.4030738849433
 30
0.0
 41
25.0
 42
25.0
 43
25.0
  0
MTEXT
  5
2452
330
F3D
100
AcDbEntity
  8
AM_5
 62
     2
100
AcDbMText
 10
1138.144136799567
 20
337.4060266408488
 30
0.0
 40
30.0
 41
0.0
 71
     5
 72
     1
  1
262.5
 73
     1
 44
1.0
  0
POINT
  5
2453
330
F3D
100
AcDbEntity
  8
DEFPOINTS
 62
     0
100
AcDbPoint
 10
1006.894136799567
 20
1215.356746829534
 30
0.0
  0
POINT
  5
2454
330
F3D
100
AcDbEntity
  8
DEFPOINTS
 62
     0
100
AcDbPoint
 10
1269.394136799567
 20
855.4555865770339
 30
0.0
  0
POINT
  5
2455
330
F3D
100
AcDbEntity
  8
DEFPOINTS
 62
     0
100
AcDbPoint
 10
1269.394136799567
 20
307.4030738849433
 30
0.0
  0
ENDBLK
  5
F94
330
F3D
100
AcDbEntity
  8
0
100
AcDbBlockEnd
  0
BLOCK
  5
F95
330
F63
100
AcDbEntity
  8
0
100
AcDbBlockBegin
  2
*D18
 70
     1
 10
0.0
 20
0.0
 30
0.0
  3
*D18
  1

  0
LINE
  5
2444
330
F63
100
AcDbEntity
  8
AM_5
100
AcDbLine
 10
1269.394136799567
 20
845.4555865770339
 30
0.0
 11
1269.394136799567
 21
297.403073884944
 31
0.0
  0
LINE
  5
2445
330
F63
100
AcDbEntity
  8
AM_5
100
AcDbLine
 10
1844.394136799567
 20
848.8317347668338
 30
0.0
 11
1844.394136799567
 21
297.403073884944
 31
0.0
  0
LINE
  5
2446
330
F63
100
AcDbEntity
  8
AM_5
100
AcDbLine
 10
1294.394136799567
 20
307.403073884944
 30
0.0
 11
1819.394136799567
 21
307.403073884944
 31
0.0
  0
INSERT
  5
2447
330
F63
100
AcDbEntity
  8
AM_5
100
AcDbBlockReference
  2
_Open30
 10
1269.394136799567
 20
307.403073884944
 30
0.0
 41
25.0
 42
25.0
 43
25.0
 50
180.0
  0
INSERT
  5
2448
330
F63
100
AcDbEntity
  8
AM_5
100
AcDbBlockReference
  2
_Open30
 10
1844.394136799567
 20
307.403073884944
 30
0.0
 41
25.0
 42
25.0
 43
25.0
  0
MTEXT
  5
2449
330
F63
100
AcDbEntity
  8
AM_5
 62
     2
100
AcDbMText
 10
1556.894136799567
 20
337.403073884944
 30
0.0
 40
30.0
 41
0.0
 71
     5
 72
     1
  1
575
 73
     1
 44
1.0
  0
POINT
  5
244A
330
F63
100
AcDbEntity
  8
DEFPOINTS
 62
     0
100
AcDbPoint
 10
1269.394136799567
 20
855.4555865770339
 30
0.0
  0
POINT
  5
244B
330
F63
100
AcDbEntity
  8
DEFPOINTS
 62
     0
100
AcDbPoint
 10
1844.394136799567
 20
858.831734766834
 30
0.0
  0
POINT
  5
244C
330
F63
100
AcDbEntity
  8
DEFPOINTS
 62
     0
100
AcDbPoint
 10
1844.394136799567
 20
307.403073884944
 30
0.0
  0
ENDBLK
  5
F96
330
F63
100
AcDbEntity
  8
0
100
AcDbBlockEnd
  0
BLOCK
  5
F97
330
F7D
100
AcDbEntity
  8
0
100
AcDbBlockBegin
  2
*D19
 70
     1
 10
0.0
 20
0.0
 30
0.0
  3
*D19
  1

  0
LINE
  5
243B
330
F7D
100
AcDbEntity
  8
AM_5
100
AcDbLine
 10
1844.394136799567
 20
848.8317347668338
 30
0.0
 11
1844.394136799567
 21
297.403073884945
 31
0.0
  0
LINE
  5
243C
330
F7D
100
AcDbEntity
  8
AM_5
100
AcDbLine
 10
2106.894136799567
 20
1205.356746829534
 30
0.0
 11
2106.894136799567
 21
297.403073884945
 31
0.0
  0
LINE
  5
243D
330
F7D
100
AcDbEntity
  8
AM_5
100
AcDbLine
 10
1869.394136799567
 20
307.403073884945
 30
0.0
 11
2081.894136799567
 21
307.403073884945
 31
0.0
  0
INSERT
  5
243E
330
F7D
100
AcDbEntity
  8
AM_5
100
AcDbBlockReference
  2
_Open30
 10
1844.394136799567
 20
307.403073884945
 30
0.0
 41
25.0
 42
25.0
 43
25.0
 50
180.0
  0
INSERT
  5
243F
330
F7D
100
AcDbEntity
  8
AM_5
100
AcDbBlockReference
  2
_Open30
 10
2106.894136799567
 20
307.403073884945
 30
0.0
 41
25.0
 42
25.0
 43
25.0
  0
MTEXT
  5
2440
330
F7D
100
AcDbEntity
  8
AM_5
 62
     2
100
AcDbMText
 10
1975.644136799567
 20
337.4060266408505
 30
0.0
 40
30.0
 41
0.0
 71
     5
 72
     1
  1
262.5
 73
     1
 44
1.0
  0
POINT
  5
2441
330
F7D
100
AcDbEntity
  8
DEFPOINTS
 62
     0
100
AcDbPoint
 10
1844.394136799567
 20
858.831734766834
 30
0.0
  0
POINT
  5
2442
330
F7D
100
AcDbEntity
  8
DEFPOINTS
 62
     0
100
AcDbPoint
 10
2106.894136799567
 20
1215.356746829534
 30
0.0
  0
POINT
  5
2443
330
F7D
100
AcDbEntity
  8
DEFPOINTS
 62
     0
100
AcDbPoint
 10
2106.894136799567
 20
307.403073884945
 30
0.0
  0
ENDBLK
  5
F98
330
F7D
100
AcDbEntity
  8
0
100
AcDbBlockEnd
  0
BLOCK
  5
2099
330
207A
100
AcDbEntity
  8
0
100
AcDbBlockBegin
  2
*D20
 70
     1
 10
0.0
 20
0.0
 30
0.0
  3
*D20
  1

  0
LINE
  5
238E
330
207A
100
AcDbEntity
  8
AM_5
100
AcDbLine
 10
1169.394136799567
 20
695.3567468295339
 30
0.0
 11
1169.394136799567
 21
487.9782385956685
 31
0.0
  0
LINE
  5
238F
330
207A
100
AcDbEntity
  8
AM_5
100
AcDbLine
 10
1369.394136799567
 20
695.3567468295339
 30
0.0
 11
1369.394136799567
 21
487.9782385956685
 31
0.0
  0
LINE
  5
2390
330
207A
100
AcDbEntity
  8
AM_5
100
AcDbLine
 10
1194.394136799567
 20
497.9782385956686
 30
0.0
 11
1344.394136799567
 21
497.9782385956686
 31
0.0
  0
INSERT
  5
2391
330
207A
100
AcDbEntity
  8
AM_5
100
AcDbBlockReference
  2
_Open30
 10
1169.394136799567
 20
497.9782385956686
 30
0.0
 41
25.0
 42
25.0
 43
25.0
 50
180.0
  0
INSERT
  5
2392
330
207A
100
AcDbEntity
  8
AM_5
100
AcDbBlockReference
  2
_Open30
 10
1369.394136799567
 20
497.9782385956686
 30
0.0
 41
25.0
 42
25.0
 43
25.0
  0
MTEXT
  5
2393
330
207A
100
AcDbEntity
  8
AM_5
 62
     2
100
AcDbMText
 10
1269.394136799567
 20
527.9811913515741
 30
0.0
 40
30.0
 41
0.0
 71
     5
 72
     1
  1
{\Famgdt|c128;o}200
 73
     1
 44
1.0
  0
POINT
  5
2394
330
207A
100
AcDbEntity
  8
DEFPOINTS
 62
     0
100
AcDbPoint
 10
1169.394136799567
 20
705.356746829534
 30
0.0
  0
POINT
  5
2395
330
207A
100
AcDbEntity
  8
DEFPOINTS
 62
     0
100
AcDbPoint
 10
1369.394136799567
 20
705.356746829534
 30
0.0
  0
POINT
  5
2396
330
207A
100
AcDbEntity
  8
DEFPOINTS
 62
     0
100
AcDbPoint
 10
1369.394136799567
 20
497.9782385956686
 30
0.0
  0
ENDBLK
  5
209A
330
207A
100
AcDbEntity
  8
0
100
AcDbBlockEnd
  0
BLOCK
  5
20D9
330
20A6
100
AcDbEntity
  8
0
100
AcDbBlockBegin
  2
*D21
 70
     1
 10
0.0
 20
0.0
 30
0.0
  3
*D21
  1

  0
LINE
  5
2386
330
20A6
100
AcDbEntity
  8
AM_5
100
AcDbLine
 10
1006.894136799567
 20
1205.356746829534
 30
0.0
 11
886.8941367995681
 21
1205.356746829534
 31
0.0
  0
LINE
  5
2387
330
20A6
100
AcDbEntity
  8
AM_5
100
AcDbLine
 10
928.7597970770768
 20
1105.356746829534
 30
0.0
 11
886.8941367995681
 21
1105.356746829534
 31
0.0
  0
LINE
  5
2388
330
20A6
100
AcDbEntity
  8
AM_5
100
AcDbLine
 10
896.8941367995681
 20
1205.356746829534
 30
0.0
 11
896.8941367995681
 21
1130.356746829534
 31
0.0
  0
INSERT
  5
2389
330
20A6
100
AcDbEntity
  8
AM_5
100
AcDbBlockReference
  2
_Open30
 10
896.8941367995681
 20
1105.356746829534
 30
0.0
 41
25.0
 42
25.0
 43
25.0
 50
270.0
  0
MTEXT
  5
238A
330
20A6
100
AcDbEntity
  8
AM_5
 62
     2
100
AcDbMText
 10
866.894136799568
 20
1167.856746829534
 30
0.0
 40
30.0
 41
0.0
 71
     5
 72
     1
  1
100
 11
0.0000000000000001
 21
1.0
 31
0.0
 73
     1
 44
1.0
  0
POINT
  5
238B
330
20A6
100
AcDbEntity
  8
DEFPOINTS
 62
     0
100
AcDbPoint
 10
1016.894136799567
 20
1205.356746829534
 30
0.0
  0
POINT
  5
238C
330
20A6
100
AcDbEntity
  8
DEFPOINTS
 62
     0
100
AcDbPoint
 10
938.7597970770768
 20
1105.356746829534
 30
0.0
  0
POINT
  5
238D
330
20A6
100
AcDbEntity
  8
DEFPOINTS
 62
     0
100
AcDbPoint
 10
896.8941367995681
 20
1105.356746829534
 30
0.0
  0
ENDBLK
  5
20DA
330
20A6
100
AcDbEntity
  8
0
100
AcDbBlockEnd
  0
BLOCK
  5
20DB
330
20C3
100
AcDbEntity
  8
0
100
AcDbBlockBegin
  2
*D22
 70
     1
 10
0.0
 20
0.0
 30
0.0
  3
*D22
  1

  0
LINE
  5
237D
330
20C3
100
AcDbEntity
  8
AM_5
100
AcDbLine
 10
928.7597970770768
 20
1105.356746829534
 30
0.0
 11
886.8941367995681
 21
1105.356746829534
 31
0.0
  0
LINE
  5
237E
330
20C3
100
AcDbEntity
  8
AM_5
100
AcDbLine
 10
1244.394136799567
 20
905.3567468295339
 30
0.0
 11
886.8941367995681
 21
905.3567468295339
 31
0.0
  0
LINE
  5
237F
330
20C3
100
AcDbEntity
  8
AM_5
100
AcDbLine
 10
896.8941367995681
 20
1080.356746829534
 30
0.0
 11
896.8941367995681
 21
930.3567468295339
 31
0.0
  0
INSERT
  5
2380
330
20C3
100
AcDbEntity
  8
AM_5
100
AcDbBlockReference
  2
_Open30
 10
896.8941367995681
 20
1105.356746829534
 30
0.0
 41
25.0
 42
25.0
 43
25.0
 50
90.0
  0
INSERT
  5
2381
330
20C3
100
AcDbEntity
  8
AM_5
100
AcDbBlockReference
  2
_Open30
 10
896.8941367995681
 20
905.3567468295339
 30
0.0
 41
25.0
 42
25.0
 43
25.0
 50
270.0
  0
MTEXT
  5
2382
330
20C3
100
AcDbEntity
  8
AM_5
 62
     2
100
AcDbMText
 10
866.8911840436624
 20
1005.356746829534
 30
0.0
 40
30.0
 41
0.0
 71
     5
 72
     1
  1
200
 11
0.0000000000000001
 21
1.0
 31
0.0
 73
     1
 44
1.0
  0
POINT
  5
2383
330
20C3
100
AcDbEntity
  8
DEFPOINTS
 62
     0
100
AcDbPoint
 10
938.7597970770768
 20
1105.356746829534
 30
0.0
  0
POINT
  5
2384
330
20C3
100
AcDbEntity
  8
DEFPOINTS
 62
     0
100
AcDbPoint
 10
1254.394136799567
 20
905.3567468295339
 30
0.0
  0
POINT
  5
2385
330
20C3
100
AcDbEntity
  8
DEFPOINTS
 62
     0
100
AcDbPoint
 10
896.8941367995681
 20
905.3567468295339
 30
0.0
  0
ENDBLK
  5
20DC
330
20C3
100
AcDbEntity
  8
0
100
AcDbBlockEnd
  0
BLOCK
  5
2151
330
2150
100
AcDbEntity
  8
0
100
AcDbBlockBegin
  2
_None
 70
     0
 10
0.0
 20
0.0
 30
0.0
  3
_None
  1

  0
ENDBLK
  5
2152
330
2150
100
AcDbEntity
  8
0
100
AcDbBlockEnd
  0
BLOCK
  5
21AC
330
216D
100
AcDbEntity
  8
0
100
AcDbBlockBegin
  2
*D24
 70
     1
 10
0.0
 20
0.0
 30
0.0
  3
*D24
  1

  0
LINE
  5
2374
330
216D
100
AcDbEntity
  8
AM_5
100
AcDbLine
 10
2286.849432347512
 20
1105.356746829534
 30
0.0
 11
2352.025608556826
 21
1105.356746829534
 31
0.0
  0
LINE
  5
2375
330
216D
100
AcDbEntity
  8
AM_5
100
AcDbLine
 10
2004.394136799567
 20
705.3567468295339
 30
0.0
 11
2352.025608556825
 21
705.3567468295337
 31
0.0
  0
LINE
  5
2376
330
216D
100
AcDbEntity
  8
AM_5
100
AcDbLine
 10
2342.025608556826
 20
1080.356746829534
 30
0.0
 11
2342.025608556825
 21
730.3567468295337
 31
0.0
  0
INSERT
  5
2377
330
216D
100
AcDbEntity
  8
AM_5
100
AcDbBlockReference
  2
_Open30
 10
2342.025608556826
 20
1105.356746829534
 30
0.0
 41
25.0
 42
25.0
 43
25.0
 50
90.0
  0
INSERT
  5
2378
330
216D
100
AcDbEntity
  8
AM_5
100
AcDbBlockReference
  2
_Open30
 10
2342.025608556825
 20
705.3567468295337
 30
0.0
 41
25.0
 42
25.0
 43
25.0
 50
270.0
  0
MTEXT
  5
2379
330
216D
100
AcDbEntity
  8
AM_5
 62
     2
100
AcDbMText
 10
2312.025608556826
 20
905.3567468295343
 30
0.0
 40
30.0
 41
0.0
 71
     5
 72
     1
  1
400
 11
0.0000000000000001
 21
1.0
 31
0.0
 73
     1
 44
1.0
  0
POINT
  5
237A
330
216D
100
AcDbEntity
  8
DEFPOINTS
 62
     0
100
AcDbPoint
 10
2276.849432347512
 20
1105.356746829534
 30
0.0
  0
POINT
  5
237B
330
216D
100
AcDbEntity
  8
DEFPOINTS
 62
     0
100
AcDbPoint
 10
1994.394136799567
 20
705.3567468295339
 30
0.0
  0
POINT
  5
237C
330
216D
100
AcDbEntity
  8
DEFPOINTS
 62
     0
100
AcDbPoint
 10
2342.025608556825
 20
705.3567468295337
 30
0.0
  0
ENDBLK
  5
21AD
330
216D
100
AcDbEntity
  8
0
100
AcDbBlockEnd
  0
BLOCK
  5
21AE
330
2193
100
AcDbEntity
  8
0
100
AcDbBlockBegin
  2
*D25
 70
     1
 10
0.0
 20
0.0
 30
0.0
  3
*D25
  1

  0
LINE
  5
236B
330
2193
100
AcDbEntity
  8
AM_5
100
AcDbLine
 10
2004.394136799567
 20
605.3567468295339
 30
0.0
 11
2352.025608556826
 21
605.3567468295337
 31
0.0
  0
LINE
  5
236C
330
2193
100
AcDbEntity
  8
AM_5
100
AcDbLine
 10
2004.394136799567
 20
705.3567468295339
 30
0.0
 11
2352.025608556826
 21
705.3567468295337
 31
0.0
  0
LINE
  5
236D
330
2193
100
AcDbEntity
  8
AM_5
100
AcDbLine
 10
2342.025608556826
 20
630.3567468295337
 30
0.0
 11
2342.025608556826
 21
680.3567468295337
 31
0.0
  0
INSERT
  5
236E
330
2193
100
AcDbEntity
  8
AM_5
100
AcDbBlockReference
  2
_Open30
 10
2342.025608556826
 20
605.3567468295337
 30
0.0
 41
25.0
 42
25.0
 43
25.0
 50
270.0
  0
INSERT
  5
236F
330
2193
100
AcDbEntity
  8
AM_5
100
AcDbBlockReference
  2
_Open30
 10
2342.025608556826
 20
705.3567468295337
 30
0.0
 41
25.0
 42
25.0
 43
25.0
 50
90.0
  0
MTEXT
  5
2370
330
2193
100
AcDbEntity
  8
AM_5
 62
     2
100
AcDbMText
 10
2312.025608556826
 20
655.3567468295342
 30
0.0
 40
30.0
 41
0.0
 71
     5
 72
     1
  1
100
 11
0.0000000000000001
 21
1.0
 31
0.0
 73
     1
 44
1.0
  0
POINT
  5
2371
330
2193
100
AcDbEntity
  8
DEFPOINTS
 62
     0
100
AcDbPoint
 10
1994.394136799567
 20
605.3567468295339
 30
0.0
  0
POINT
  5
2372
330
2193
100
AcDbEntity
  8
DEFPOINTS
 62
     0
100
AcDbPoint
 10
1994.394136799567
 20
705.3567468295339
 30
0.0
  0
POINT
  5
2373
330
2193
100
AcDbEntity
  8
DEFPOINTS
 62
     0
100
AcDbPoint
 10
2342.025608556826
 20
705.3567468295337
 30
0.0
  0
ENDBLK
  5
21AF
330
2193
100
AcDbEntity
  8
0
100
AcDbBlockEnd
  0
BLOCK
  5
21E0
330
21C1
100
AcDbEntity
  8
0
100
AcDbBlockBegin
  2
*D26
 70
     1
 10
0.0
 20
0.0
 30
0.0
  3
*D26
  1

  0
LINE
  5
2432
330
21C1
100
AcDbEntity
  8
AM_5
100
AcDbLine
 10
1119.394136799567
 20
595.3567468295339
 30
0.0
 11
1119.394136799567
 21
395.6509107074517
 31
0.0
  0
LINE
  5
2433
330
21C1
100
AcDbEntity
  8
AM_5
100
AcDbLine
 10
1419.394136799567
 20
595.3567468295339
 30
0.0
 11
1419.394136799567
 21
395.6509107074517
 31
0.0
  0
LINE
  5
2434
330
21C1
100
AcDbEntity
  8
AM_5
100
AcDbLine
 10
1144.394136799567
 20
405.6509107074516
 30
0.0
 11
1394.394136799567
 21
405.6509107074516
 31
0.0
  0
INSERT
  5
2435
330
21C1
100
AcDbEntity
  8
AM_5
100
AcDbBlockReference
  2
_Open30
 10
1119.394136799567
 20
405.6509107074516
 30
0.0
 41
25.0
 42
25.0
 43
25.0
 50
180.0
  0
INSERT
  5
2436
330
21C1
100
AcDbEntity
  8
AM_5
100
AcDbBlockReference
  2
_Open30
 10
1419.394136799567
 20
405.6509107074516
 30
0.0
 41
25.0
 42
25.0
 43
25.0
  0
MTEXT
  5
2437
330
21C1
100
AcDbEntity
  8
AM_5
 62
     2
100
AcDbMText
 10
1269.394136799567
 20
435.6509107074516
 30
0.0
 40
30.0
 41
0.0
 71
     5
 72
     1
  1
{\Famgdt|c128;o}300
 73
     1
 44
1.0
  0
POINT
  5
2438
330
21C1
100
AcDbEntity
  8
DEFPOINTS
 62
     0
100
AcDbPoint
 10
1119.394136799567
 20
605.356746829534
 30
0.0
  0
POINT
  5
2439
330
21C1
100
AcDbEntity
  8
DEFPOINTS
 62
     0
100
AcDbPoint
 10
1419.394136799567
 20
605.356746829534
 30
0.0
  0
POINT
  5
243A
330
21C1
100
AcDbEntity
  8
DEFPOINTS
 62
     0
100
AcDbPoint
 10
1419.394136799567
 20
405.6509107074516
 30
0.0
  0
ENDBLK
  5
21E1
330
21C1
100
AcDbEntity
  8
0
100
AcDbBlockEnd
  0
BLOCK
  5
2461
330
2460
100
AcDbEntity
  8
0
100
AcDbBlockBegin
  2
NAKAMURA
 70
     0
 10
0.0
 20
0.0
 30
0.0
  3
NAKAMURA
  1

  0
CIRCLE
  5
2462
330
2460
100
AcDbEntity
  8
0
100
AcDbCircle
 10
0.0
 20
-0.0000000000000071
 30
0.0
 40
5.75
  0
LINE
  5
2463
330
2460
100
AcDbEntity
  8
0
100
AcDbLine
 10
5.390964663212002
 20
2.0
 30
0.0
 11
-5.390964663211889
 21
1.999999999999985
 31
0.0
  0
TEXT
  5
2464
330
2460
100
AcDbEntity
  8
0
100
AcDbText
 10
-1.40956822548013
 20
2.272712767880801
 30
0.0
 40
2.875000000632499
  1
藤
 50
0.000000000000708
 72
     4
 11
-0.0679015585183152
 21
3.710212768197067
 31
0.0
100
AcDbText
  0
TEXT
  5
2465
330
2460
100
AcDbEntity
  8
0
100
AcDbText
 10
-1.227410318497265
 20
-5.354429741660606
 30
0.0
 40
2.875000000632499
  1
繁
 50
0.000000000000708
 72
     4
 11
0.1142563484645507
 21
-3.91692974134434
 31
0.0
100
AcDbText
  0
LINE
  5
2466
330
2460
100
AcDbEntity
  8
0
100
AcDbLine
 10
5.390964663212002
 20
-1.999999999999964
 30
0.0
 11
-5.390964663211889
 21
-2.000000000000021
 31
0.0
  0
ENDBLK
  5
2467
330
2460
100
AcDbEntity
  8
0
100
AcDbBlockEnd
  0
BLOCK
  5
2500
330
24FC
100
AcDbEntity
  8
0
100
AcDbBlockBegin
  2
*S28
 70
     1
 10
0.0
 20
0.0
 30
0.0
  3
*S28
  1

  0
CIRCLE
  5
24FD
330
24FC
100
AcDbEntity
  8
AM_12
 62
     4
100
AcDbCircle
 10
2095.955736042988
 20
2136.534258022889
 30
0.0
 40
15.75
  0
LINE
  5
24FE
330
24FC
100
AcDbEntity
  8
AM_12
 62
     4
100
AcDbLine
 10
2080.205736042988
 20
2120.784258022889
 30
0.0
 11
2111.705736042988
 21
2152.284258022889
 31
0.0
  0
LINE
  5
24FF
330
24FC
100
AcDbEntity
  8
AM_12
 62
     4
100
AcDbLine
 10
2080.205736042988
 20
2152.284258022889
 30
0.0
 11
2111.705736042988
 21
2120.784258022889
 31
0.0
  0
ENDBLK
  5
2501
330
24FC
100
AcDbEntity
  8
0
100
AcDbBlockEnd
  0
BLOCK
  5
2508
330
2503
100
AcDbEntity
  8
0
100
AcDbBlockBegin
  2
*S29
 70
     1
 10
0.0
 20
0.0
 30
0.0
  3
*S29
  1

  0
LINE
  5
2504
330
2503
100
AcDbEntity
  8
AM_5
100
AcDbLine
 10
2324.714256066296
 20
2393.134501475624
 30
0.0
 11
2116.917440658147
 21
2160.047168085807
 31
0.0
  0
TRACE
  5
2505
330
2503
100
AcDbEntity
  8
AM_5
100
AcDbTrace
 10
2113.821907336627
 20
2162.806828839768
 30
0.0
 11
2120.012973979666
 21
2157.287507331844
 31
0.0
 12
2095.955736042988
 22
2136.534258022889
 32
0.0
 13
2095.955736042988
 23
2136.534258022889
 33
0.0
  0
MTEXT
  5
2506
330
2503
100
AcDbEntity
  8
AM_5
 62
     2
100
AcDbMText
 10
2357.903621706964
 20
2430.36327574191
 30
0.0
 40
35.0
 41
0.0
 71
     5
 72
     5
  1
1
  7
ACJISTS
 73
     1
 44
1.0
  0
CIRCLE
  5
2507
330
2503
100
AcDbEntity
  8
AM_5
 62
     3
100
AcDbCircle
 10
2357.903621706964
 20
2430.36327574191
 30
0.0
 40
49.875
  0
ENDBLK
  5
2509
330
2503
100
AcDbEntity
  8
0
100
AcDbBlockEnd
  0
BLOCK
  5
2526
330
250B
100
AcDbEntity
  8
0
100
AcDbBlockBegin
  2
*S30
 70
     1
 10
0.0
 20
0.0
 30
0.0
  3
*S30
  1

  0
MTEXT
  5
250C
330
250B
100
AcDbEntity
  8
0
 62
     7
100
AcDbMText
 10
2644.5
 20
2782.25
 30
0.0
 40
45.0
 41
98.99999999999998
 71
     2
 72
     5
  1
1
  7
ACJISTS
 73
     1
 44
1.0
  0
LINE
  5
250D
330
250B
100
AcDbEntity
  8
0
 62
     1
100
AcDbLine
 10
2703.0
 20
2795.75
 30
0.0
 11
2703.0
 21
2721.5
 31
0.0
  0
MTEXT
  5
250E
330
250B
100
AcDbEntity
  8
0
 62
     7
100
AcDbMText
 10
2928.0
 20
2782.25
 30
0.0
 40
45.0
 41
432.0
 71
     2
 72
     5
  1
フェンス
  7
ACJISTS
 73
     1
 44
1.0
  0
LINE
  5
250F
330
250B
100
AcDbEntity
  8
0
 62
     1
100
AcDbLine
 10
3153.0
 20
2795.75
 30
0.0
 11
3153.0
 21
2721.5
 31
0.0
  0
MTEXT
  5
2510
330
250B
100
AcDbEntity
  8
0
 62
     7
100
AcDbMText
 10
3211.5
 20
2782.25
 30
0.0
 40
45.0
 41
99.0
 71
     2
 72
     5
  1
1
  7
ACJISTS
 73
     1
 44
1.0
  0
LINE
  5
2511
330
250B
100
AcDbEntity
  8
0
 62
     1
100
AcDbLine
 10
3270.0
 20
2795.75
 30
0.0
 11
3270.0
 21
2721.5
 31
0.0
  0
MTEXT
  5
2512
330
250B
100
AcDbEntity
  8
0
 62
     7
100
AcDbMText
 10
3385.0
 20
2782.25
 30
0.0
 40
45.0
 41
212.0
 71
     2
 72
     5
  1
FCD
  7
ACJISTS
 73
     1
 44
1.0
  0
LINE
  5
2513
330
250B
100
AcDbEntity
  8
0
 62
     1
100
AcDbLine
 10
3500.0
 20
2795.75
 30
0.0
 11
3500.0
 21
2721.5
 31
0.0
  0
MTEXT
  5
2514
330
250B
100
AcDbEntity
  8
0
 62
     7
100
AcDbMText
 10
3600.0
 20
2782.25
 30
0.0
 40
45.0
 41
182.0
 71
     2
 72
     5
  1
49
  7
ACJISTS
 73
     1
 44
1.0
  0
LINE
  5
2515
330
250B
100
AcDbEntity
  8
0
 62
     1
100
AcDbLine
 10
3700.0
 20
2795.75
 30
0.0
 11
3700.0
 21
2721.5
 31
0.0
  0
LINE
  5
2516
330
250B
100
AcDbEntity
  8
0
 62
     1
100
AcDbLine
 10
2586.0
 20
2795.75
 30
0.0
 11
4100.0
 21
2795.75
 31
0.0
  0
MTEXT
  5
2517
330
250B
100
AcDbEntity
  8
0
 62
     7
100
AcDbMText
 10
2644.5
 20
2856.5
 30
0.0
 40
45.0
 41
98.99999999999998
 71
     2
 72
     5
  1
部番
  7
ACJISTS
 73
     1
 44
1.0
  0
LINE
  5
2518
330
250B
100
AcDbEntity
  8
0
 62
     1
100
AcDbLine
 10
2703.0
 20
2870.0
 30
0.0
 11
2703.0
 21
2795.75
 31
0.0
  0
MTEXT
  5
2519
330
250B
100
AcDbEntity
  8
0
 62
     7
100
AcDbMText
 10
2928.0
 20
2856.5
 30
0.0
 40
45.0
 41
432.0
 71
     2
 72
     5
  1
部  品  名
  7
ACJISTS
 73
     1
 44
1.0
  0
LINE
  5
251A
330
250B
100
AcDbEntity
  8
0
 62
     1
100
AcDbLine
 10
3153.0
 20
2870.0
 30
0.0
 11
3153.0
 21
2795.75
 31
0.0
  0
MTEXT
  5
251B
330
250B
100
AcDbEntity
  8
0
 62
     7
100
AcDbMText
 10
3211.5
 20
2856.5
 30
0.0
 40
45.0
 41
99.0
 71
     2
 72
     5
  1
数量
  7
ACJISTS
 73
     1
 44
1.0
  0
LINE
  5
251C
330
250B
100
AcDbEntity
  8
0
 62
     1
100
AcDbLine
 10
3270.0
 20
2870.0
 30
0.0
 11
3270.0
 21
2795.75
 31
0.0
  0
MTEXT
  5
251D
330
250B
100
AcDbEntity
  8
0
 62
     7
100
AcDbMText
 10
3385.0
 20
2856.5
 30
0.0
 40
45.0
 41
212.0
 71
     2
 72
     5
  1
材  質
  7
ACJISTS
 73
     1
 44
1.0
  0
LINE
  5
251E
330
250B
100
AcDbEntity
  8
0
 62
     1
100
AcDbLine
 10
3500.0
 20
2870.0
 30
0.0
 11
3500.0
 21
2795.75
 31
0.0
  0
MTEXT
  5
251F
330
250B
100
AcDbEntity
  8
0
 62
     7
100
AcDbMText
 10
3600.0
 20
2856.5
 30
0.0
 40
45.0
 41
182.0
 71
     2
 72
     5
  1
単重
  7
ACJISTS
 73
     1
 44
1.0
  0
LINE
  5
2520
330
250B
100
AcDbEntity
  8
0
 62
     1
100
AcDbLine
 10
3700.0
 20
2870.0
 30
0.0
 11
3700.0
 21
2795.75
 31
0.0
  0
MTEXT
  5
2521
330
250B
100
AcDbEntity
  8
0
 62
     7
100
AcDbMText
 10
3900.000000000001
 20
2856.5
 30
0.0
 40
45.0
 41
382.0
 71
     2
 72
     5
  1
備　　考
  7
ACJISTS
 73
     1
 44
1.0
  0
LINE
  5
2522
330
250B
100
AcDbEntity
  8
0
 62
     7
100
AcDbLine
 10
2586.0
 20
2870.0
 30
0.0
 11
4100.0
 21
2870.0
 31
0.0
  0
LINE
  5
2523
330
250B
100
AcDbEntity
  8
0
 62
     7
100
AcDbLine
 10
4100.0
 20
2870.0
 30
0.0
 11
4100.0
 21
2721.5
 31
0.0
  0
LINE
  5
2524
330
250B
100
AcDbEntity
  8
0
 62
     7
100
AcDbLine
 10
4100.0
 20
2721.5
 30
0.0
 11
2586.0
 21
2721.5
 31
0.0
  0
LINE
  5
2525
330
250B
100
AcDbEntity
  8
0
 62
     7
100
AcDbLine
 10
2586.0
 20
2721.5
 30
0.0
 11
2586.0
 21
2870.0
 31
0.0
  0
ENDBLK
  5
2527
330
250B
100
AcDbEntity
  8
0
100
AcDbBlockEnd
  0
ENDSEC
  0
SECTION
  2
ENTITIES
  0
LINE
  5
B7C
330
1F
100
AcDbEntity
  8
AM_7
100
AcDbLine
 10
1844.394136799567
 20
1219.404361435234
 30
0.0
 11
1844.394136799567
 21
858.831734766834
 31
0.0
  0
LINE
  5
B7D
330
1F
100
AcDbEntity
  8
AM_7
100
AcDbLine
 10
1269.394136799567
 20
1219.404361435234
 30
0.0
 11
1269.394136799567
 21
855.4555865770339
 31
0.0
  0
LINE
  5
BB0
330
1F
100
AcDbEntity
  8
0
100
AcDbLine
 10
1006.894136799567
 20
2693.194053513085
 30
0.0
 11
2106.894136799567
 21
2693.194053513085
 31
0.0
  0
LINE
  5
BB1
330
1F
100
AcDbEntity
  8
0
100
AcDbLine
 10
1006.894136799567
 20
2713.194053513085
 30
0.0
 11
1006.894136799567
 21
2693.194053513085
 31
0.0
  0
LINE
  5
BB2
330
1F
100
AcDbEntity
  8
0
100
AcDbLine
 10
2106.894136799567
 20
2713.194053513085
 30
0.0
 11
1006.894136799567
 21
2713.194053513085
 31
0.0
  0
LINE
  5
BB3
330
1F
100
AcDbEntity
  8
0
100
AcDbLine
 10
2106.894136799567
 20
2693.194053513085
 30
0.0
 11
2106.894136799567
 21
2713.194053513085
 31
0.0
  0
ARC
  5
BB4
330
1F
100
AcDbEntity
  8
0
100
AcDbCircle
 10
1779.846586377767
 20
2245.356746829534
 30
0.0
 40
30.0
100
AcDbArc
 50
322.9413470965973
 51
90.0
  0
ARC
  5
BB5
330
1F
100
AcDbEntity
  8
0
100
AcDbCircle
 10
1604.846586377767
 20
2245.356746829534
 30
0.0
 40
30.0
100
AcDbArc
 50
322.9413470965973
 51
90.0
  0
ARC
  5
BB6
330
1F
100
AcDbEntity
  8
0
100
AcDbCircle
 10
1429.846586377767
 20
2245.356746829534
 30
0.0
 40
30.0
100
AcDbArc
 50
322.9413470965973
 51
90.0
  0
ARC
  5
BB7
330
1F
100
AcDbEntity
  8
0
100
AcDbCircle
 10
1254.846586377767
 20
2245.356746829534
 30
0.0
 40
30.0
100
AcDbArc
 50
322.9413470965973
 51
90.0
  0
ARC
  5
BB8
330
1F
100
AcDbEntity
  8
0
100
AcDbCircle
 10
1079.846586377767
 20
2245.356746829534
 30
0.0
 40
30.0
100
AcDbArc
 50
322.9413470965973
 51
90.0
  0
ARC
  5
BB9
330
1F
100
AcDbEntity
  8
0
100
AcDbCircle
 10
2353.856097334867
 20
1944.040616883234
 30
0.0
 40
470.0
100
AcDbArc
 50
135.176277592299
 51
209.7883107360984
  0
ARC
  5
BBA
330
1F
100
AcDbEntity
  8
0
100
AcDbCircle
 10
1954.846586377767
 20
2245.356746829534
 30
0.0
 40
30.0
100
AcDbArc
 50
322.9413470965973
 51
90.0
  0
ARC
  5
BBB
330
1F
100
AcDbEntity
  8
0
100
AcDbCircle
 10
1856.486906645767
 20
1265.356746829534
 30
0.0
 40
30.0
100
AcDbArc
 50
142.6255129442048
 51
270.0
  0
ARC
  5
BBC
330
1F
100
AcDbEntity
  8
0
100
AcDbCircle
 10
1681.486906645767
 20
1265.356746829534
 30
0.0
 40
30.0
100
AcDbArc
 50
142.6255129442048
 51
270.0
  0
ARC
  5
BBD
330
1F
100
AcDbEntity
  8
0
100
AcDbCircle
 10
1506.486906645767
 20
1265.356746829534
 30
0.0
 40
30.0
100
AcDbArc
 50
142.6255129442048
 51
270.0
  0
ARC
  5
BBE
330
1F
100
AcDbEntity
  8
0
100
AcDbCircle
 10
1331.486906645767
 20
1265.356746829534
 30
0.0
 40
30.0
100
AcDbArc
 50
142.6255129442048
 51
270.0
  0
ARC
  5
BBF
330
1F
100
AcDbEntity
  8
0
100
AcDbCircle
 10
1156.486906645767
 20
1265.356746829534
 30
0.0
 40
30.0
100
AcDbArc
 50
142.6255129442048
 51
270.0
  0
LINE
  5
BC0
330
1F
100
AcDbEntity
  8
0
100
AcDbLine
 10
1046.894136799567
 20
1235.356746829534
 30
0.0
 11
2066.894136799567
 21
1235.356746829534
 31
0.0
  0
ARC
  5
BC1
330
1F
100
AcDbEntity
  8
0
100
AcDbCircle
 10
2031.486906645767
 20
1265.356746829534
 30
0.0
 40
30.0
100
AcDbArc
 50
142.6255129442048
 51
270.0
  0
ARC
  5
BC2
330
1F
100
AcDbEntity
  8
0
100
AcDbCircle
 10
1478.856097334867
 20
1944.040616883234
 30
0.0
 40
470.0
100
AcDbArc
 50
199.8904922984948
 51
209.7883107360984
  0
ARC
  5
BC3
330
1F
100
AcDbEntity
  8
0
100
AcDbCircle
 10
680.4186173969669
 20
1486.987457359734
 30
0.0
 40
450.0
100
AcDbArc
 50
326.0009362260967
 51
29.7883107360988
  0
ARC
  5
BC4
330
1F
100
AcDbEntity
  8
0
100
AcDbCircle
 10
1653.856097334867
 20
1944.040616883234
 30
0.0
 40
470.0
100
AcDbArc
 50
135.176277592299
 51
209.7883107360984
  0
ARC
  5
BC5
330
1F
100
AcDbEntity
  8
0
100
AcDbCircle
 10
855.418617396967
 20
1486.987457359734
 30
0.0
 40
450.0
100
AcDbArc
 50
326.0009362260967
 51
29.7883107360988
  0
ARC
  5
BC6
330
1F
100
AcDbEntity
  8
0
100
AcDbCircle
 10
1828.856097334867
 20
1944.040616883234
 30
0.0
 40
470.0
100
AcDbArc
 50
135.176277592299
 51
209.7883107360984
  0
ARC
  5
BC7
330
1F
100
AcDbEntity
  8
0
100
AcDbCircle
 10
1030.418617396967
 20
1486.987457359734
 30
0.0
 40
450.0
100
AcDbArc
 50
326.0009362260967
 51
29.7883107360988
  0
ARC
  5
BC8
330
1F
100
AcDbEntity
  8
0
100
AcDbCircle
 10
1205.418617396967
 20
1486.987457359734
 30
0.0
 40
450.0
100
AcDbArc
 50
326.0009362260967
 51
29.7883107360988
  0
ARC
  5
BC9
330
1F
100
AcDbEntity
  8
0
100
AcDbCircle
 10
2003.856097334868
 20
1944.040616883234
 30
0.0
 40
470.0
100
AcDbArc
 50
135.176277592299
 51
209.7883107360984
  0
ARC
  5
BCA
330
1F
100
AcDbEntity
  8
0
100
AcDbCircle
 10
1380.418617396967
 20
1486.987457359734
 30
0.0
 40
450.0
100
AcDbArc
 50
326.0009362260967
 51
29.7883107360988
  0
ARC
  5
BCB
330
1F
100
AcDbEntity
  8
0
100
AcDbCircle
 10
2178.856097334867
 20
1944.040616883234
 30
0.0
 40
470.0
100
AcDbArc
 50
135.176277592299
 51
209.7883107360984
  0
ARC
  5
BCC
330
1F
100
AcDbEntity
  8
0
100
AcDbCircle
 10
1555.418617396967
 20
1486.987457359734
 30
0.0
 40
450.0
100
AcDbArc
 50
326.0009362260967
 51
29.7883107360988
  0
ARC
  5
BCD
330
1F
100
AcDbEntity
  8
0
100
AcDbCircle
 10
1036.748742404867
 20
1770.356746829534
 30
0.0
 40
5.0
100
AcDbArc
 50
271.6663319282976
 51
21.44760584270176
  0
ARC
  5
BCE
330
1F
100
AcDbEntity
  8
0
100
AcDbCircle
 10
1049.743197179267
 20
1740.356746829534
 30
0.0
 40
5.0
100
AcDbArc
 50
25.39194594230342
 51
90.0
  0
LINE
  5
BCF
330
1F
100
AcDbEntity
  8
0
100
AcDbLine
 10
1049.743197179267
 20
1745.356746829534
 30
0.0
 11
1036.894136799567
 21
1745.356746829534
 31
0.0
  0
ARC
  5
BD0
330
1F
100
AcDbEntity
  8
0
100
AcDbCircle
 10
1478.856097334867
 20
1944.040616883234
 30
0.0
 40
450.0
100
AcDbArc
 50
138.2181681253974
 51
169.1543639537977
  0
ARC
  5
BD1
330
1F
100
AcDbEntity
  8
0
100
AcDbCircle
 10
1478.856097334867
 20
1944.040616883234
 30
0.0
 40
470.0
100
AcDbArc
 50
135.176277592299
 51
160.1095077015055
  0
ARC
  5
BD2
330
1F
100
AcDbEntity
  8
0
100
AcDbCircle
 10
1478.856097334867
 20
1944.040616883234
 30
0.0
 40
450.0
100
AcDbArc
 50
190.8456360462018
 51
209.7883107360984
  0
ARC
  5
BD3
330
1F
100
AcDbEntity
  8
0
100
AcDbCircle
 10
1634.144408122867
 20
1568.867766180734
 30
0.0
 40
470.0
100
AcDbArc
 50
314.7977901210979
 51
340.3937234005054
  0
ARC
  5
BD4
330
1F
100
AcDbEntity
  8
0
100
AcDbCircle
 10
1634.144408122867
 20
1568.867766180734
 30
0.0
 40
450.0
100
AcDbArc
 50
319.2080749483062
 51
349.7010408530043
  0
ARC
  5
BD5
330
1F
100
AcDbEntity
  8
0
100
AcDbCircle
 10
1634.144408122867
 20
1568.867766180734
 30
0.0
 40
450.0
100
AcDbArc
 50
10.29895914699526
 51
28.0073616100044
  0
ARC
  5
BD6
330
1F
100
AcDbEntity
  8
0
100
AcDbCircle
 10
1634.144408122867
 20
1568.867766180734
 30
0.0
 40
470.0
100
AcDbArc
 50
19.60627659949422
 51
28.07665798799438
  0
ARC
  5
BD7
330
1F
100
AcDbEntity
  8
0
100
AcDbCircle
 10
2077.107758205067
 20
1740.356746829534
 30
0.0
 40
5.0
100
AcDbArc
 50
92.44866632759736
 51
201.1634304861017
  0
LINE
  5
BD8
330
1F
100
AcDbEntity
  8
0
100
AcDbLine
 10
2064.292278833867
 20
1765.356746829534
 30
0.0
 11
2076.894136799567
 21
1765.356746829534
 31
0.0
  0
ARC
  5
BD9
330
1F
100
AcDbEntity
  8
0
100
AcDbCircle
 10
1377.107758205067
 20
1740.356746829534
 30
0.0
 40
5.0
100
AcDbArc
 50
90.0
 51
201.1634304861017
  0
LINE
  5
BDA
330
1F
100
AcDbEntity
  8
0
100
AcDbLine
 10
1377.107758205067
 20
1745.356746829534
 30
0.0
 11
1402.916289638467
 21
1745.356746829534
 31
0.0
  0
ARC
  5
BDB
330
1F
100
AcDbEntity
  8
0
100
AcDbCircle
 10
1386.748742404867
 20
1770.356746829534
 30
0.0
 40
5.0
100
AcDbArc
 50
270.0
 51
21.44760584270176
  0
LINE
  5
BDC
330
1F
100
AcDbEntity
  8
0
100
AcDbLine
 10
1386.748742404867
 20
1765.356746829534
 30
0.0
 11
1361.101174650367
 21
1765.356746829534
 31
0.0
  0
ARC
  5
BDD
330
1F
100
AcDbEntity
  8
0
100
AcDbCircle
 10
1202.107758205067
 20
1740.356746829534
 30
0.0
 40
5.0
100
AcDbArc
 50
90.0
 51
201.1634304861017
  0
LINE
  5
BDE
330
1F
100
AcDbEntity
  8
0
100
AcDbLine
 10
1202.107758205067
 20
1745.356746829534
 30
0.0
 11
1227.916289638467
 21
1745.356746829534
 31
0.0
  0
ARC
  5
BDF
330
1F
100
AcDbEntity
  8
0
100
AcDbCircle
 10
1211.748742404867
 20
1770.356746829534
 30
0.0
 40
5.0
100
AcDbArc
 50
270.0
 51
21.44760584270176
  0
LINE
  5
BE0
330
1F
100
AcDbEntity
  8
0
100
AcDbLine
 10
1211.748742404867
 20
1765.356746829534
 30
0.0
 11
1186.101174650367
 21
1765.356746829534
 31
0.0
  0
ARC
  5
BE1
330
1F
100
AcDbEntity
  8
0
100
AcDbCircle
 10
2064.292278833867
 20
1770.356746829534
 30
0.0
 40
5.0
100
AcDbArc
 50
205.0992347418014
 51
270.0
  0
ARC
  5
BE2
330
1F
100
AcDbEntity
  8
0
100
AcDbCircle
 10
1552.107758205067
 20
1740.356746829534
 30
0.0
 40
5.0
100
AcDbArc
 50
90.0
 51
201.1634304861017
  0
LINE
  5
BE3
330
1F
100
AcDbEntity
  8
0
100
AcDbLine
 10
1552.107758205067
 20
1745.356746829534
 30
0.0
 11
1577.916289638467
 21
1745.356746829534
 31
0.0
  0
ARC
  5
BE4
330
1F
100
AcDbEntity
  8
0
100
AcDbCircle
 10
1561.748742404867
 20
1770.356746829534
 30
0.0
 40
5.0
100
AcDbArc
 50
270.0
 51
21.44760584270176
  0
LINE
  5
BE5
330
1F
100
AcDbEntity
  8
0
100
AcDbLine
 10
1561.748742404867
 20
1765.356746829534
 30
0.0
 11
1536.101174650367
 21
1765.356746829534
 31
0.0
  0
ARC
  5
BE6
330
1F
100
AcDbEntity
  8
0
100
AcDbCircle
 10
1727.107758205067
 20
1740.356746829534
 30
0.0
 40
5.0
100
AcDbArc
 50
90.0
 51
201.1634304861017
  0
LINE
  5
BE7
330
1F
100
AcDbEntity
  8
0
100
AcDbLine
 10
1727.107758205067
 20
1745.356746829534
 30
0.0
 11
1752.916289638367
 21
1745.356746829534
 31
0.0
  0
ARC
  5
BE8
330
1F
100
AcDbEntity
  8
0
100
AcDbCircle
 10
1736.748742404867
 20
1770.356746829534
 30
0.0
 40
5.0
100
AcDbArc
 50
270.0
 51
21.44760584270176
  0
LINE
  5
BE9
330
1F
100
AcDbEntity
  8
0
100
AcDbLine
 10
1736.748742404867
 20
1765.356746829534
 30
0.0
 11
1711.101174650367
 21
1765.356746829534
 31
0.0
  0
ARC
  5
BEA
330
1F
100
AcDbEntity
  8
0
100
AcDbCircle
 10
1902.107758205067
 20
1740.356746829534
 30
0.0
 40
5.0
100
AcDbArc
 50
90.0
 51
201.1634304861017
  0
LINE
  5
BEB
330
1F
100
AcDbEntity
  8
0
100
AcDbLine
 10
1902.107758205067
 20
1745.356746829534
 30
0.0
 11
1927.916289638367
 21
1745.356746829534
 31
0.0
  0
ARC
  5
BEC
330
1F
100
AcDbEntity
  8
0
100
AcDbCircle
 10
1911.748742404867
 20
1770.356746829534
 30
0.0
 40
5.0
100
AcDbArc
 50
270.0
 51
21.44760584270176
  0
LINE
  5
BED
330
1F
100
AcDbEntity
  8
0
100
AcDbLine
 10
1911.748742404867
 20
1765.356746829534
 30
0.0
 11
1886.101174650367
 21
1765.356746829534
 31
0.0
  0
ARC
  5
BEE
330
1F
100
AcDbEntity
  8
0
100
AcDbCircle
 10
1459.144408122867
 20
1568.867766180734
 30
0.0
 40
450.0
100
AcDbArc
 50
319.2080749483062
 51
28.0073616100044
  0
ARC
  5
BEF
330
1F
100
AcDbEntity
  8
0
100
AcDbCircle
 10
1284.144408122867
 20
1568.867766180734
 30
0.0
 40
450.0
100
AcDbArc
 50
319.2080749483062
 51
28.0073616100044
  0
ARC
  5
BF0
330
1F
100
AcDbEntity
  8
0
100
AcDbCircle
 10
1109.144408122867
 20
1568.867766180734
 30
0.0
 40
450.0
100
AcDbArc
 50
319.2080749483062
 51
28.0073616100044
  0
ARC
  5
BF1
330
1F
100
AcDbEntity
  8
0
100
AcDbCircle
 10
934.1444081228669
 20
1568.867766180734
 30
0.0
 40
450.0
100
AcDbArc
 50
319.2080749483062
 51
28.0073616100044
  0
ARC
  5
BF2
330
1F
100
AcDbEntity
  8
0
100
AcDbCircle
 10
759.1444081228669
 20
1568.867766180734
 30
0.0
 40
450.0
100
AcDbArc
 50
319.2080749483062
 51
28.0073616100044
  0
ARC
  5
BF3
330
1F
100
AcDbEntity
  8
0
100
AcDbCircle
 10
1459.144408122867
 20
1568.867766180734
 30
0.0
 40
470.0
100
AcDbArc
 50
314.7977901210979
 51
28.07665798799438
  0
ARC
  5
BF4
330
1F
100
AcDbEntity
  8
0
100
AcDbCircle
 10
1284.144408122867
 20
1568.867766180734
 30
0.0
 40
470.0
100
AcDbArc
 50
314.7977901210979
 51
28.07665798799438
  0
ARC
  5
BF5
330
1F
100
AcDbEntity
  8
0
100
AcDbCircle
 10
1109.144408122867
 20
1568.867766180734
 30
0.0
 40
470.0
100
AcDbArc
 50
314.7977901210979
 51
28.07665798799438
  0
ARC
  5
BF6
330
1F
100
AcDbEntity
  8
0
100
AcDbCircle
 10
934.1444081228669
 20
1568.867766180734
 30
0.0
 40
470.0
100
AcDbArc
 50
314.7977901210979
 51
28.07665798799438
  0
ARC
  5
BF7
330
1F
100
AcDbEntity
  8
0
100
AcDbCircle
 10
759.1444081228669
 20
1568.867766180734
 30
0.0
 40
470.0
100
AcDbArc
 50
314.7977901210979
 51
28.07665798799438
  0
ARC
  5
BF8
330
1F
100
AcDbEntity
  8
0
100
AcDbCircle
 10
2258.489636799567
 20
2023.612829326034
 30
0.0
 40
470.0
100
AcDbArc
 50
152.0539187929041
 51
211.1941735645046
  0
ARC
  5
BF9
330
1F
100
AcDbEntity
  8
0
100
AcDbCircle
 10
2178.856097334867
 20
1944.040616883234
 30
0.0
 40
450.0
100
AcDbArc
 50
138.2181681253974
 51
209.7883107360984
  0
ARC
  5
BFA
330
1F
100
AcDbEntity
  8
0
100
AcDbCircle
 10
1380.418617396967
 20
1486.987457359734
 30
0.0
 40
470.0
100
AcDbArc
 50
333.1728854507007
 51
29.7883107360988
  0
ARC
  5
BFB
330
1F
100
AcDbEntity
  8
0
100
AcDbCircle
 10
2258.489636799567
 20
2023.612829326034
 30
0.0
 40
450.0
100
AcDbArc
 50
145.9835482612035
 51
211.2634699425036
  0
ARC
  5
BFC
330
1F
100
AcDbEntity
  8
0
100
AcDbCircle
 10
2083.489636799567
 20
2023.612829326034
 30
0.0
 40
470.0
100
AcDbArc
 50
152.0539187929041
 51
211.1941735645046
  0
ARC
  5
BFD
330
1F
100
AcDbEntity
  8
0
100
AcDbCircle
 10
2003.856097334868
 20
1944.040616883234
 30
0.0
 40
450.0
100
AcDbArc
 50
138.2181681253974
 51
209.7883107360984
  0
ARC
  5
BFE
330
1F
100
AcDbEntity
  8
0
100
AcDbCircle
 10
1205.418617396967
 20
1486.987457359734
 30
0.0
 40
470.0
100
AcDbArc
 50
333.1728854507007
 51
29.7883107360988
  0
ARC
  5
BFF
330
1F
100
AcDbEntity
  8
0
100
AcDbCircle
 10
2083.489636799567
 20
2023.612829326034
 30
0.0
 40
450.0
100
AcDbArc
 50
145.9835482612035
 51
211.2634699425036
  0
ARC
  5
C00
330
1F
100
AcDbEntity
  8
0
100
AcDbCircle
 10
1908.489636799567
 20
2023.612829326034
 30
0.0
 40
470.0
100
AcDbArc
 50
152.0539187929041
 51
211.1941735645046
  0
ARC
  5
C01
330
1F
100
AcDbEntity
  8
0
100
AcDbCircle
 10
1828.856097334867
 20
1944.040616883234
 30
0.0
 40
450.0
100
AcDbArc
 50
138.2181681253974
 51
209.7883107360984
  0
ARC
  5
C02
330
1F
100
AcDbEntity
  8
0
100
AcDbCircle
 10
1030.418617396967
 20
1486.987457359734
 30
0.0
 40
470.0
100
AcDbArc
 50
333.1728854507007
 51
29.7883107360988
  0
ARC
  5
C03
330
1F
100
AcDbEntity
  8
0
100
AcDbCircle
 10
1908.489636799567
 20
2023.612829326034
 30
0.0
 40
450.0
100
AcDbArc
 50
145.9835482612035
 51
211.2634699425036
  0
ARC
  5
C04
330
1F
100
AcDbEntity
  8
0
100
AcDbCircle
 10
1733.489636799567
 20
2023.612829326034
 30
0.0
 40
470.0
100
AcDbArc
 50
152.0539187929041
 51
211.1941735645046
  0
ARC
  5
C05
330
1F
100
AcDbEntity
  8
0
100
AcDbCircle
 10
1653.856097334867
 20
1944.040616883234
 30
0.0
 40
450.0
100
AcDbArc
 50
138.2181681253974
 51
209.7883107360984
  0
ARC
  5
C06
330
1F
100
AcDbEntity
  8
0
100
AcDbCircle
 10
855.418617396967
 20
1486.987457359734
 30
0.0
 40
470.0
100
AcDbArc
 50
333.1728854507007
 51
29.7883107360988
  0
ARC
  5
C07
330
1F
100
AcDbEntity
  8
0
100
AcDbCircle
 10
1733.489636799567
 20
2023.612829326034
 30
0.0
 40
450.0
100
AcDbArc
 50
145.9835482612035
 51
211.2634699425036
  0
ARC
  5
C08
330
1F
100
AcDbEntity
  8
0
100
AcDbCircle
 10
1558.489636799567
 20
2023.612829326034
 30
0.0
 40
470.0
100
AcDbArc
 50
152.0539187929041
 51
211.1941735645046
  0
ARC
  5
C09
330
1F
100
AcDbEntity
  8
0
100
AcDbCircle
 10
680.4186173969669
 20
1486.987457359734
 30
0.0
 40
470.0
100
AcDbArc
 50
333.1728854507007
 51
29.7883107360988
  0
ARC
  5
C0A
330
1F
100
AcDbEntity
  8
0
100
AcDbCircle
 10
1558.489636799567
 20
2023.612829326034
 30
0.0
 40
450.0
100
AcDbArc
 50
145.9835482612035
 51
211.2634699425036
  0
ARC
  5
C0B
330
1F
100
AcDbEntity
  8
0
100
AcDbCircle
 10
2433.489636799567
 20
2023.612829326034
 30
0.0
 40
470.0
100
AcDbArc
 50
152.0539187929041
 51
211.1941735645046
  0
ARC
  5
C0C
330
1F
100
AcDbEntity
  8
0
100
AcDbCircle
 10
2353.856097334867
 20
1944.040616883234
 30
0.0
 40
450.0
100
AcDbArc
 50
138.2181681253974
 51
209.7883107360984
  0
ARC
  5
C0D
330
1F
100
AcDbEntity
  8
0
100
AcDbCircle
 10
1555.418617396967
 20
1486.987457359734
 30
0.0
 40
470.0
100
AcDbArc
 50
333.1728854507007
 51
29.7883107360988
  0
ARC
  5
C0E
330
1F
100
AcDbEntity
  8
0
100
AcDbCircle
 10
2433.489636799567
 20
2023.612829326034
 30
0.0
 40
450.0
100
AcDbArc
 50
145.9835482612035
 51
211.2634699425036
  0
ARC
  5
C0F
330
1F
100
AcDbEntity
  8
0
100
AcDbCircle
 10
2066.894136799567
 20
1245.356746829534
 30
0.0
 40
10.0
100
AcDbArc
 50
270.0
 51
0.0
  0
LINE
  5
C10
330
1F
100
AcDbEntity
  8
0
100
AcDbLine
 10
2076.894136799567
 20
1245.356746829534
 30
0.0
 11
2076.894136799567
 21
2265.356746829534
 31
0.0
  0
ARC
  5
C11
330
1F
100
AcDbEntity
  8
0
100
AcDbCircle
 10
1046.894136799567
 20
1245.356746829534
 30
0.0
 40
10.0
100
AcDbArc
 50
180.0
 51
270.0
  0
LINE
  5
C12
330
1F
100
AcDbEntity
  8
0
100
AcDbLine
 10
1036.894136799567
 20
1245.356746829534
 30
0.0
 11
1036.894136799567
 21
2265.356746829534
 31
0.0
  0
ARC
  5
C13
330
1F
100
AcDbEntity
  8
0
100
AcDbCircle
 10
1046.894136799567
 20
2265.356746829534
 30
0.0
 40
10.0
100
AcDbArc
 50
90.0
 51
180.0
  0
LINE
  5
C14
330
1F
100
AcDbEntity
  8
0
100
AcDbLine
 10
1046.894136799567
 20
2275.356746829534
 30
0.0
 11
2066.894136799567
 21
2275.356746829534
 31
0.0
  0
ARC
  5
C15
330
1F
100
AcDbEntity
  8
0
100
AcDbCircle
 10
2066.894136799567
 20
2265.356746829534
 30
0.0
 40
10.0
100
AcDbArc
 50
0.0
 51
90.0
  0
LINE
  5
C16
330
1F
100
AcDbEntity
  8
0
100
AcDbLine
 10
1244.394136799567
 20
1205.356746829534
 30
0.0
 11
1016.894136799567
 21
1205.356746829534
 31
0.0
  0
LINE
  5
C17
330
1F
100
AcDbEntity
  8
0
100
AcDbLine
 10
1819.394136799567
 20
1205.356746829534
 30
0.0
 11
1294.394136799567
 21
1205.356746829534
 31
0.0
  0
ARC
  5
C18
330
1F
100
AcDbEntity
  8
0
100
AcDbCircle
 10
1244.394136799567
 20
1195.356746829534
 30
0.0
 40
10.0
100
AcDbArc
 50
0.0
 51
90.0
  0
LINE
  5
C19
330
1F
100
AcDbEntity
  8
0
100
AcDbLine
 10
1254.394136799567
 20
1195.356746829534
 30
0.0
 11
1254.394136799567
 21
905.3567468295341
 31
0.0
  0
ARC
  5
C1A
330
1F
100
AcDbEntity
  8
0
100
AcDbCircle
 10
1294.394136799567
 20
1195.356746829534
 30
0.0
 40
10.0
100
AcDbArc
 50
90.0
 51
180.0
  0
LINE
  5
C1B
330
1F
100
AcDbEntity
  8
0
100
AcDbLine
 10
1284.394136799567
 20
1195.356746829534
 30
0.0
 11
1284.394136799567
 21
905.3567468295341
 31
0.0
  0
LINE
  5
C1C
330
1F
100
AcDbEntity
  8
0
100
AcDbLine
 10
1254.394136799567
 20
905.3567468295341
 30
0.0
 11
1284.394136799567
 21
905.3567468295341
 31
0.0
  0
ARC
  5
C1D
330
1F
100
AcDbEntity
  8
0
100
AcDbCircle
 10
1869.394136799567
 20
1195.356746829534
 30
0.0
 40
10.0
100
AcDbArc
 50
90.0
 51
180.0
  0
LINE
  5
C1E
330
1F
100
AcDbEntity
  8
0
100
AcDbLine
 10
1869.394136799567
 20
1205.356746829534
 30
0.0
 11
2096.894136799567
 21
1205.356746829534
 31
0.0
  0
LINE
  5
C1F
330
1F
100
AcDbEntity
  8
0
100
AcDbLine
 10
1859.394136799567
 20
1195.356746829534
 30
0.0
 11
1859.394136799567
 21
905.3567468295341
 31
0.0
  0
ARC
  5
C20
330
1F
100
AcDbEntity
  8
0
100
AcDbCircle
 10
1819.394136799567
 20
1195.356746829534
 30
0.0
 40
10.0
100
AcDbArc
 50
0.0
 51
90.0
  0
LINE
  5
C21
330
1F
100
AcDbEntity
  8
0
100
AcDbLine
 10
1829.394136799567
 20
1195.356746829534
 30
0.0
 11
1829.394136799567
 21
905.3567468295341
 31
0.0
  0
LINE
  5
C22
330
1F
100
AcDbEntity
  8
0
100
AcDbLine
 10
1859.394136799567
 20
905.3567468295341
 30
0.0
 11
1829.394136799567
 21
905.3567468295341
 31
0.0
  0
ARC
  5
C23
330
1F
100
AcDbEntity
  8
0
100
AcDbCircle
 10
1016.894136799567
 20
1215.356746829534
 30
0.0
 40
10.0
100
AcDbArc
 50
180.0
 51
270.0
  0
LINE
  5
C24
330
1F
100
AcDbEntity
  8
0
100
AcDbLine
 10
1006.894136799567
 20
1215.356746829534
 30
0.0
 11
1006.894136799567
 21
2295.356746829535
 31
0.0
  0
ARC
  5
C25
330
1F
100
AcDbEntity
  8
0
100
AcDbCircle
 10
2096.894136799567
 20
1215.356746829534
 30
0.0
 40
10.0
100
AcDbArc
 50
270.0
 51
0.0
  0
LINE
  5
C26
330
1F
100
AcDbEntity
  8
0
100
AcDbLine
 10
2106.894136799567
 20
1215.356746829534
 30
0.0
 11
2106.894136799567
 21
2295.356746829535
 31
0.0
  0
ARC
  5
C27
330
1F
100
AcDbEntity
  8
0
100
AcDbCircle
 10
2096.894136799567
 20
2295.356746829535
 30
0.0
 40
10.0
100
AcDbArc
 50
0.0
 51
90.0
  0
LINE
  5
C28
330
1F
100
AcDbEntity
  8
0
100
AcDbLine
 10
2096.894136799567
 20
2305.356746829534
 30
0.0
 11
1016.894136799567
 21
2305.356746829534
 31
0.0
  0
ARC
  5
C29
330
1F
100
AcDbEntity
  8
0
100
AcDbCircle
 10
1016.894136799567
 20
2295.356746829535
 30
0.0
 40
10.0
100
AcDbArc
 50
90.0
 51
180.0
  0
INSERT
  5
D4F
330
1F
100
AcDbEntity
  8
0
370
     0
100
AcDbBlockReference
  2
IGS_A3
 10
0.0
 20
0.0
 30
0.0
 41
10.0
 42
10.0
 43
10.0
1001
GENIUS_GENOREF_13
1005
D59
1001
GENIUS_GENOBJ-N-SDF_13
1002
{
1000
OWNER
1000
GEN
1002
}
1001
GENIUS_GENODEF_13
1002
{
1000
HIER
1070
     0
1002
}
1002
{
1000
MANEDIT
1070
     0
1002
}
1002
{
1000
NOSEL
1070
     0
1002
}
1002
{
1000
BEHIND
1070
     0
1002
}
1002
{
1000
OTHER
1070
     0
1002
}
1002
{
1000
REACTOR
1002
}
1001
GENIUS_GENSCREG_15
1040
10.0
1040
1.0
1011
0.0
1021
0.0
1031
0.0
1011
4200.0
1021
2970.0
1031
0.0
1070
     5
  0
INSERT
  5
D50
330
1F
100
AcDbEntity
  8
0
370
     0
100
AcDbBlockReference
 66
     1
  2
IGS2
 10
4100.0
 20
100.0
 30
0.0
 41
10.0
 42
10.0
 43
10.0
1001
GENIUS_GENOREF_13
1005
D59
  0
ATTRIB
  5
D52
330
D50
100
AcDbEntity
  8
RAHM3
100
AcDbText
 10
2627.404132868145
 20
419.4728899818606
 30
0.0
 40
40.0
  1
1:10
100
AcDbAttribute
  2
GEN-TITLE-SCA
 70
     0
  0
ATTRIB
  5
D53
330
D50
100
AcDbEntity
  8
RAHM3
100
AcDbText
 10
3369.1
 20
397.4
 30
0.0
 40
50.0
  1
フェンス
100
AcDbAttribute
  2
ＴＩＴＬＥ
 70
     0
  0
ATTRIB
  5
D54
330
D50
100
AcDbEntity
  8
RAHM3
100
AcDbText
 10
3384.371218441596
 20
318.0438312711385
 30
0.0
 40
30.0
  1

100
AcDbAttribute
  2
ｃｏｄｅ
 70
     0
  0
ATTRIB
  5
D55
330
D50
100
AcDbEntity
  8
RAHM3
100
AcDbText
 10
3392.551935060369
 20
248.0438312710658
 30
0.0
 40
30.0
  1
IF-4
100
AcDbAttribute
  2
件名
 70
     0
  0
ATTRIB
  5
D56
330
D50
100
AcDbEntity
  8
RAHM3
100
AcDbText
 10
3369.1
 20
117.3999999999272
 30
0.0
 40
50.0
  1
Ｔ２４Ｚ０５００２
100
AcDbAttribute
  2
Ｎｏ．
 70
     0
  0
ATTRIB
  5
D57
330
D50
100
AcDbEntity
  8
RAHM3
100
AcDbText
 10
3095.5
 20
274.0708932112656
 30
0.0
 40
40.0
  1

100
AcDbAttribute
  2
ＤＲ
 70
     0
  0
ATTRIB
  5
D58
330
D50
100
AcDbEntity
  8
RAHM3
100
AcDbText
 10
3062.819146961271
 20
227.6999999999999
 30
0.0
 40
30.0
  1

 41
0.8000000000000001
100
AcDbAttribute
  2
ｄａｔｅ
 70
     0
  0
SEQEND
  5
D51
330
D50
100
AcDbEntity
  8
0
370
     0
  0
POINT
  5
D59
330
1F
100
AcDbEntity
  8
0
 60
     1
100
AcDbPoint
 10
0.0
 20
0.0
 30
0.0
1001
GENIUS_GENOBJ-N-TIT_13
1002
{
1000
OWNER
1000
GEN
1002
}
1001
GENIUS_GENODEF_13
1002
{
1000
HIER
1070
     1
1002
}
1002
{
1000
MANEDIT
1070
     0
1002
}
1002
{
1000
NOSEL
1070
     0
1002
}
1002
{
1000
BEHIND
1070
     0
1002
}
1002
{
1000
OTHER
1070
     0
1002
}
1002
{
1000
REACTOR
1002
}
1001
GENIUS_GENOLIS_13
1002
{
1000
ENT
1005
D50
1005
D4F
1002
}
1001
GENIUS_GENOENT_13
1002
{
1000
MYREF
1005
D59
1002
}
1002
{
1000
GRP
1005
0
1002
}
1001
GENIUS_GENTITLE_13
1002
{
1000
BORDER
1000
C:\WINNT\Profiles\Administrator\Application Data\Autodesk\AutoCAD\Recent\format\igs_a3
1002
}
1002
{
1000
TITLE
1000
C:\WINNT\Profiles\Administrator\Application Data\Autodesk\AutoCAD\Recent\format\IGS2
1002
}
1002
{
1000
SCALE
1000
1:10
1002
}
1002
{
1000
TITLESTD
1000
IGS
1002
}
1002
{
1000
HRA
1005
D4F
1002
}
1002
{
1000
HTIT
1005
D50
1002
}
1002
{
1000
UNCHG
1002
{
1000
GEN-TITLE-SIZ
1000
GEN-TITLE-SCA
1002
}
1002
}
1002
{
1000
GENIUSID
1005
D59
1002
}
  0
DIMENSION
  5
D6F
330
1F
100
AcDbEntity
  8
AM_5
100
AcDbDimension
  2
*D6
 10
1036.894136799567
 20
2415.356746829534
 30
0.0
 11
1021.894136799567
 21
2445.356746829534
 31
0.0
 70
    32
 71
     5
 42
30.00000000000011
  3
IGS
100
AcDbAlignedDimension
 13
1006.894136799567
 23
2295.356746829535
 33
0.0
 14
1036.894136799567
 24
2265.356746829534
 34
0.0
100
AcDbRotatedDimension
1001
ACAD
1000
DSTYLE
1002
{
1070
   140
1040
3.0
1070
   174
1070
     1
1002
}
  0
DIMENSION
  5
D9B
330
1F
100
AcDbEntity
  8
AM_5
100
AcDbDimension
  2
*D7
 10
1036.894136799567
 20
2415.356746829535
 30
0.0
 11
1556.894136799567
 21
2445.356746829535
 31
0.0
 70
    32
 71
     5
 42
1040.0
  3
IGS
100
AcDbAlignedDimension
 13
2076.894136799567
 23
2265.356746829534
 33
0.0
 14
1036.894136799567
 24
2265.356746829534
 34
0.0
100
AcDbRotatedDimension
1001
ACAD
1000
DSTYLE
1002
{
1070
   140
1040
3.0
1070
   174
1070
     1
1002
}
  0
DIMENSION
  5
DCA
330
1F
100
AcDbEntity
  8
AM_5
100
AcDbDimension
  2
*D8
 10
2076.894136799567
 20
2415.356746829535
 30
0.0
 11
2091.894136799567
 21
2445.356746829535
 31
0.0
 70
    32
 71
     5
 42
30.0
  3
IGS
100
AcDbAlignedDimension
 13
2106.894136799567
 23
2295.356746829535
 33
0.0
 14
2076.894136799567
 24
2265.356746829534
 34
0.0
100
AcDbRotatedDimension
1001
ACAD
1000
DSTYLE
1002
{
1070
   140
1040
3.0
1070
   174
1070
     1
1002
}
  0
DIMENSION
  5
DEB
330
1F
100
AcDbEntity
  8
AM_5
100
AcDbDimension
  2
*D9
 10
2106.894136799567
 20
2515.356746829534
 30
0.0
 11
1556.894136799567
 21
2545.356746829535
 31
0.0
 70
    32
 71
     5
 42
1100.0
  3
IGS
100
AcDbAlignedDimension
 13
1006.894136799567
 23
2295.356746829535
 33
0.0
 14
2106.894136799567
 24
2295.356746829535
 34
0.0
100
AcDbRotatedDimension
1001
ACAD
1000
DSTYLE
1002
{
1070
   140
1040
3.0
1002
}
  0
DIMENSION
  5
E22
330
1F
100
AcDbEntity
  8
AM_5
100
AcDbDimension
  2
*D10
 10
896.8941367995672
 20
2275.356746829535
 30
0.0
 11
866.8941367995667
 21
2290.356746829534
 31
0.0
 70
    32
 71
     5
 42
29.99999999999955
  3
IGS
100
AcDbAlignedDimension
 13
1016.894136799567
 23
2305.356746829534
 33
0.0
 14
1046.894136799567
 24
2275.356746829534
 34
0.0
 50
90.0
100
AcDbRotatedDimension
1001
ACAD
1000
DSTYLE
1002
{
1070
   140
1040
3.0
1070
   174
1070
     1
1002
}
  0
DIMENSION
  5
E4E
330
1F
100
AcDbEntity
  8
AM_5
100
AcDbDimension
  2
*D11
 10
896.8941367995675
 20
1235.356746829534
 30
0.0
 11
866.8941367995673
 21
1755.356746829534
 31
0.0
 70
    32
 71
     5
 42
1040.0
  3
IGS
100
AcDbAlignedDimension
 13
1046.894136799567
 23
2275.356746829534
 33
0.0
 14
1046.894136799567
 24
1235.356746829534
 34
0.0
 50
90.0
100
AcDbRotatedDimension
1001
ACAD
1000
DSTYLE
1002
{
1070
   140
1040
3.0
1070
   174
1070
     1
1002
}
  0
DIMENSION
  5
E68
330
1F
100
AcDbEntity
  8
AM_5
100
AcDbDimension
  2
*D12
 10
896.8941367995679
 20
1205.356746829534
 30
0.0
 11
845.0347651019511
 21
1287.037406330562
 31
0.0
 70
   160
 71
     5
 42
30.0
  3
IGS
100
AcDbAlignedDimension
 13
1046.894136799567
 23
1235.356746829534
 33
0.0
 14
1016.894136799567
 24
1205.356746829534
 34
0.0
 50
90.0
100
AcDbRotatedDimension
1001
ACAD
1000
DSTYLE
1002
{
1070
   140
1040
3.0
1070
   174
1070
     1
1070
   279
1070
     1
1002
}
  0
DIMENSION
  5
E89
330
1F
100
AcDbEntity
  8
AM_5
100
AcDbDimension
  2
*D13
 10
775.1205264279241
 20
1205.356746829534
 30
0.0
 11
745.120526427924
 21
1755.356746829534
 31
0.0
 70
    32
 71
     5
 42
1099.999999999999
  3
IGS
100
AcDbAlignedDimension
 13
1016.894136799567
 23
2305.356746829534
 33
0.0
 14
1016.894136799567
 24
1205.356746829534
 34
0.0
 50
90.0
100
AcDbRotatedDimension
1001
ACAD
1000
DSTYLE
1002
{
1070
   140
1040
3.0
1002
}
  0
DIMENSION
  5
EC0
330
1F
100
AcDbEntity
  8
AM_5
100
AcDbDimension
  2
*D14
 10
775.1205264279233
 20
905.3567468295341
 30
0.0
 11
745.1205264279232
 21
1055.356746829534
 31
0.0
 70
    32
 71
     5
 42
300.0
  3
IGS
100
AcDbAlignedDimension
 13
1016.894136799567
 23
1205.356746829534
 33
0.0
 14
1254.394136799567
 24
905.3567468295341
 34
0.0
 50
90.0
100
AcDbRotatedDimension
1001
ACAD
1000
DSTYLE
1002
{
1070
   140
1040
3.0
1002
}
  0
DIMENSION
  5
EE8
330
1F
100
AcDbEntity
  8
AM_5
100
AcDbDimension
  2
*D15
 10
650.3251863168462
 20
2305.356746829534
 30
0.0
 11
620.3251863168458
 21
1605.356746829534
 31
0.0
 70
    32
 71
     5
 42
1400.0
  3
IGS
100
AcDbAlignedDimension
 13
1254.394136799567
 23
905.3567468295341
 33
0.0
 14
1016.894136799567
 24
2305.356746829534
 34
0.0
 50
90.0
100
AcDbRotatedDimension
1001
ACAD
1000
DSTYLE
1002
{
1070
   140
1040
3.0
1002
}
  0
DIMENSION
  5
F10
330
1F
100
AcDbEntity
  8
AM_5
100
AcDbDimension
  2
*D16
 10
886.8941357995669
 20
2713.194053513085
 30
0.0
 11
856.8911830436611
 21
2795.086770048518
 31
0.0
 70
    32
 71
     5
 42
20.0
  3
IGS
100
AcDbAlignedDimension
 13
1006.894136799567
 23
2693.194053513085
 33
0.0
 14
1006.894136799567
 24
2713.194053513085
 34
0.0
 50
90.0
100
AcDbRotatedDimension
1001
ACAD
1000
DSTYLE
1002
{
1070
   140
1040
3.0
1002
}
  0
DIMENSION
  5
F3C
330
1F
100
AcDbEntity
  8
AM_5
100
AcDbDimension
  2
*D17
 10
1269.394136799567
 20
307.4030738849433
 30
0.0
 11
1138.144136799567
 21
337.4060266408488
 31
0.0
 70
    32
 71
     5
 42
262.4999999999999
  3
IGS
100
AcDbAlignedDimension
 13
1006.894136799567
 23
1215.356746829534
 33
0.0
 14
1269.394136799567
 24
855.4555865770339
 34
0.0
100
AcDbRotatedDimension
1001
ACAD
1000
DSTYLE
1002
{
1070
   140
1040
3.0
1070
   174
1070
     1
1002
}
  0
DIMENSION
  5
F62
330
1F
100
AcDbEntity
  8
AM_5
100
AcDbDimension
  2
*D18
 10
1844.394136799567
 20
307.403073884944
 30
0.0
 11
1556.894136799567
 21
337.403073884944
 31
0.0
 70
    32
 71
     5
 42
575.0000000000002
  3
IGS
100
AcDbAlignedDimension
 13
1269.394136799567
 23
855.4555865770339
 33
0.0
 14
1844.394136799567
 24
858.831734766834
 34
0.0
100
AcDbRotatedDimension
1001
ACAD
1000
DSTYLE
1002
{
1070
   140
1040
3.0
1070
   174
1070
     1
1002
}
  0
DIMENSION
  5
F7C
330
1F
100
AcDbEntity
  8
AM_5
100
AcDbDimension
  2
*D19
 10
2106.894136799567
 20
307.403073884945
 30
0.0
 11
1975.644136799567
 21
337.4060266408505
 31
0.0
 70
    32
 71
     5
 42
262.5
  3
IGS
100
AcDbAlignedDimension
 13
1844.394136799567
 23
858.831734766834
 33
0.0
 14
2106.894136799567
 24
1215.356746829534
 34
0.0
100
AcDbRotatedDimension
1001
ACAD
1000
DSTYLE
1002
{
1070
   140
1040
3.0
1070
   174
1070
     1
1002
}
  0
AMDTACMWBLOCKBOMENTITY
  5
1610
330
1F
100
AcDbEntity
  8
0
 92
        8
310
0800000000000000
1001
ACAD
1000
AcRTDxfName
1000
AMDTACMWBLOCKBOMENTITY
  0
AMDTACMWBLOCKBOMENTITY
  5
1611
330
1F
100
AcDbEntity
  8
AM_5
 92
        8
310
0800000000000000
1001
ACAD
1000
AcRTDxfName
1000
AMDTACMWBLOCKBOMENTITY
  0
AMDTACMWBLOCKBOMENTITY
  5
1613
330
1F
100
AcDbEntity
  8
AM_5
 92
        8
310
0800000000000000
1001
ACAD
1000
AcRTDxfName
1000
AMDTACMWBLOCKBOMENTITY
  0
TEXT
  5
1617
330
1F
100
AcDbEntity
  8
0
100
AcDbText
 10
3150.342074397907
 20
298.9426828606278
 30
0.0
 40
25.00000000000055
  1
松
 72
     4
 11
3162.008741064574
 21
311.4426828606281
 31
0.0
100
AcDbText
  0
TEXT
  5
1618
330
1F
100
AcDbEntity
  8
0
100
AcDbText
 10
3151.926056197411
 20
232.6197045313788
 30
0.0
 40
25.00000000000055
  1
本
 72
     4
 11
3163.592722864078
 21
245.1197045313791
 31
0.0
100
AcDbText
  0
TEXT
  5
1619
330
1F
100
AcDbEntity
  8
TEXT
100
AcDbText
 10
3118.920556433086
 20
266.1364848862718
 30
0.0
 40
26.086956516
  1
05.07.20
 41
0.6972296058015834
 72
     5
 11
3203.51186076231
 21
266.1364848862718
 31
0.0
100
AcDbText
  0
CIRCLE
  5
161A
330
1F
100
AcDbEntity
  8
0
100
AcDbCircle
 10
3162.599189399389
 20
279.1799631442723
 30
0.0
 40
49.99999998900111
  0
LINE
  5
161B
330
1F
100
AcDbEntity
  8
0
100
AcDbLine
 10
3209.477142982223
 20
296.571267488273
 30
0.0
 11
3115.721235816554
 21
296.571267488273
 31
0.0
  0
LINE
  5
161C
330
1F
100
AcDbEntity
  8
0
100
AcDbLine
 10
3209.477142982223
 20
261.7886588002722
 30
0.0
 11
3115.721235816554
 21
261.7886588002716
 31
0.0
  0
TEXT
  5
1627
330
1F
100
AcDbEntity
  8
6
100
AcDbText
 10
2987.659339780318
 20
2641.832497848615
 30
0.0
 40
40.0
  1
表面処理：さび止め塗装の上、樹脂系塗料塗装
 11
2987.659339780318
 21
2641.832497848615
 31
0.0
100
AcDbText
 73
     1
  0
INSERT
  5
1D69
102
{ACAD_REACTORS
330
1D68
102
}
330
1F
100
AcDbEntity
  8
AM_12
100
AcDbBlockReference
  2
*S28
 10
0.0
 20
0.0
 30
0.0
1001
ACAD
1000
AcRTDxfName
1000
ACMPARTREF
  0
INSERT
  5
1D6E
102
{ACAD_REACTORS
330
1D6D
102
}
330
1F
100
AcDbEntity
  8
AM_5
100
AcDbBlockReference
  2
*S29
 10
0.0
 20
0.0
 30
0.0
1001
ACAD
1000
AcRTDxfName
1000
ACMBALLOON
  0
INSERT
  5
1D81
102
{ACAD_REACTORS
330
1D6C
102
}
330
1F
100
AcDbEntity
  8
0
100
AcDbBlockReference
  2
*S30
 10
0.0
 20
0.0
 30
0.0
1001
ACAD
1000
AcRTDxfName
1000
ACMPARTLIST
  0
LINE
  5
1E42
330
1F
100
AcDbEntity
  8
0
100
AcDbLine
 10
938.7597970770766
 20
1105.356746829534
 30
0.0
 11
2276.849432347512
 21
1105.356746829534
 31
0.0
  0
LWPOLYLINE
  5
1E53
330
1F
100
AcDbEntity
  8
0
100
AcDbPolyline
 90
        4
 70
     1
 43
0.0
 10
1169.394136799567
 20
705.356746829534
 10
1369.394136799567
 20
705.356746829534
 10
1369.394136799567
 20
1105.356746829534
 10
1169.394136799567
 20
1105.356746829534
1001
GENIUS_GENREC_14
1002
{
1000
PYDIR
1011
1169.394136799567
1021
1105.356746829534
1031
0.0
1002
}
1002
{
1000
PXDIR
1011
1369.394136799567
1021
705.356746829534
1031
0.0
1002
}
1002
{
1000
PORI
1011
1169.394136799567
1021
705.356746829534
1031
0.0
1002
}
1002
{
1000
PINS
1011
1269.394136799567
1021
705.356746829534
1031
0.0
1002
}
1002
{
1000
HVAL
1000
400
1002
}
1002
{
1000
H
1070
     2
1002
}
1002
{
1000
WVAL
1000
200
1002
}
1002
{
1000
W
1070
     2
1002
}
1002
{
1000
C
1070
     2
1002
}
1001
GENIUS_GENOBJ-N-REC_13
1002
{
1000
OWNER
1000
GEN
1002
}
1001
GENIUS_GENODEF_13
1002
{
1000
HIER
1070
     0
1002
}
1002
{
1000
MANEDIT
1070
     0
1002
}
1002
{
1000
NOSEL
1070
     0
1002
}
1002
{
1000
BEHIND
1070
     0
1002
}
1002
{
1000
OTHER
1070
     0
1002
}
1002
{
1000
REACTOR
1002
}
  0
LWPOLYLINE
  5
1E64
330
1F
100
AcDbEntity
  8
0
100
AcDbPolyline
 90
        4
 70
     1
 43
0.0
 10
1119.394136799567
 20
605.356746829534
 10
1419.394136799567
 20
605.356746829534
 10
1419.394136799567
 20
705.356746829534
 10
1119.394136799567
 20
705.3567468295341
1001
GENIUS_GENREC_14
1002
{
1000
PYDIR
1011
1119.394136799567
1021
705.356746829534
1031
0.0
1002
}
1002
{
1000
PXDIR
1011
1419.394136799567
1021
605.356746829534
1031
0.0
1002
}
1002
{
1000
PORI
1011
1119.394136799567
1021
605.356746829534
1031
0.0
1002
}
1002
{
1000
PINS
1011
1269.394136799567
1021
605.356746829534
1031
0.0
1002
}
1002
{
1000
HVAL
1000
100
1002
}
1002
{
1000
H
1070
     2
1002
}
1002
{
1000
WVAL
1000
300
1002
}
1002
{
1000
W
1070
     2
1002
}
1002
{
1000
C
1070
     2
1002
}
1001
GENIUS_GENOBJ-N-REC_13
1002
{
1000
OWNER
1000
GEN
1002
}
1001
GENIUS_GENODEF_13
1002
{
1000
HIER
1070
     0
1002
}
1002
{
1000
MANEDIT
1070
     0
1002
}
1002
{
1000
NOSEL
1070
     0
1002
}
1002
{
1000
BEHIND
1070
     0
1002
}
1002
{
1000
OTHER
1070
     0
1002
}
1002
{
1000
REACTOR
1002
}
  0
HATCH
  5
1FB1
330
1F
100
AcDbEntity
  8
0
100
AcDbHatch
 10
0.0
 20
0.0
 30
0.0
210
0.0
220
0.0
230
1.0
  2
PLAST
 70
     0
 71
     0
 91
        1
 92
        7
 72
     0
 73
     1
 93
        8
 10
1369.394136799567
 20
1105.356746829534
 10
1284.394136799567
 20
1105.356746829534
 10
1284.394136799567
 20
905.3567468295339
 10
1254.394136799567
 20
905.3567468295343
 10
1254.394136799567
 20
1105.356746829534
 10
1169.394136799567
 20
1105.356746829534
 10
1169.394136799567
 20
705.3567468295341
 10
1369.394136799567
 20
705.356746829534
 97
        0
 75
     0
 76
     1
 52
45.0
 41
10.0
 77
     0
 78
     3
 53
45.0
 43
0.0
 44
185.8317913597766
 45
-44.90128060534575
 46
44.90128060534576
 79
     0
 53
45.0
 43
-5.61266007566822
 44
191.4444514354448
 45
-44.90128060534575
 46
44.90128060534576
 79
     0
 53
45.0
 43
-11.22532015133644
 44
197.0571115111131
 45
-44.90128060534575
 46
44.90128060534576
 79
     0
 47
3.444727964785109
 98
        1
 10
1344.431704309209
 20
760.0695751132453
  0
LINE
  5
1FD0
330
1F
100
AcDbEntity
  8
AM_0
100
AcDbLine
 10
1164.500039514727
 20
605.3567468295332
 30
0.0
 11
1152.935473780925
 21
625.3871622479492
 31
0.0
  0
LINE
  5
1FD2
330
1F
100
AcDbEntity
  8
AM_0
100
AcDbLine
 10
1141.370908047122
 20
605.3567468295332
 30
0.0
 11
1199.105934966085
 21
705.3567468295332
 31
0.0
  0
LINE
  5
1FD4
330
1F
100
AcDbEntity
  8
AM_0
100
AcDbLine
 10
1187.262310508077
 20
684.8429875224974
 30
0.0
 11
1175.418686050069
 21
705.3567468295332
 31
0.0
  0
LINE
  5
1FDC
330
1F
100
AcDbEntity
  8
AM_0
100
AcDbLine
 10
1257.262310508077
 20
684.8429875224974
 30
0.0
 11
1245.418686050069
 21
705.3567468295332
 31
0.0
  0
LINE
  5
1FDD
330
1F
100
AcDbEntity
  8
AM_0
100
AcDbLine
 10
1211.370908047122
 20
605.3567468295332
 30
0.0
 11
1269.105934966085
 21
705.3567468295332
 31
0.0
  0
LINE
  5
1FDE
330
1F
100
AcDbEntity
  8
AM_0
100
AcDbLine
 10
1234.500039514728
 20
605.3567468295332
 30
0.0
 11
1222.935473780925
 21
625.3871622479492
 31
0.0
  0
LINE
  5
1FDF
330
1F
100
AcDbEntity
  8
AM_0
100
AcDbLine
 10
1304.500039514727
 20
605.3567468295324
 30
0.0
 11
1292.935473780924
 21
625.3871622479484
 31
0.0
  0
LINE
  5
1FE0
330
1F
100
AcDbEntity
  8
AM_0
100
AcDbLine
 10
1281.370908047122
 20
605.3567468295324
 30
0.0
 11
1339.105934966084
 21
705.3567468295324
 31
0.0
  0
LINE
  5
1FE1
330
1F
100
AcDbEntity
  8
AM_0
100
AcDbLine
 10
1327.262310508076
 20
684.8429875224966
 30
0.0
 11
1315.418686050068
 21
705.3567468295324
 31
0.0
  0
LINE
  5
1FE2
330
1F
100
AcDbEntity
  8
AM_0
100
AcDbLine
 10
1374.500039514727
 20
605.3567468295316
 30
0.0
 11
1362.935473780924
 21
625.3871622479476
 31
0.0
  0
LINE
  5
1FE3
330
1F
100
AcDbEntity
  8
AM_0
100
AcDbLine
 10
1351.370908047121
 20
605.3567468295316
 30
0.0
 11
1409.105934966084
 21
705.3567468295316
 31
0.0
  0
LINE
  5
1FE4
330
1F
100
AcDbEntity
  8
AM_0
100
AcDbLine
 10
1397.262310508076
 20
684.8429875224958
 30
0.0
 11
1385.418686050068
 21
705.3567468295316
 31
0.0
  0
LINE
  5
1FE5
330
1F
100
AcDbEntity
  8
AM_0
100
AcDbLine
 10
1972.262310508076
 20
684.8429875224957
 30
0.0
 11
1960.418686050068
 21
705.3567468295315
 31
0.0
  0
LINE
  5
1FE6
330
1F
100
AcDbEntity
  8
AM_0
100
AcDbLine
 10
1926.370908047121
 20
605.3567468295315
 30
0.0
 11
1984.105934966084
 21
705.3567468295315
 31
0.0
  0
LINE
  5
1FE7
330
1F
100
AcDbEntity
  8
AM_0
100
AcDbLine
 10
1949.500039514726
 20
605.3567468295315
 30
0.0
 11
1937.935473780924
 21
625.3871622479474
 31
0.0
  0
LINE
  5
1FE8
330
1F
100
AcDbEntity
  8
AM_0
100
AcDbLine
 10
1902.262310508076
 20
684.8429875224965
 30
0.0
 11
1890.418686050068
 21
705.3567468295323
 31
0.0
  0
LINE
  5
1FE9
330
1F
100
AcDbEntity
  8
AM_0
100
AcDbLine
 10
1856.370908047122
 20
605.3567468295323
 30
0.0
 11
1914.105934966084
 21
705.3567468295323
 31
0.0
  0
LINE
  5
1FEA
330
1F
100
AcDbEntity
  8
AM_0
100
AcDbLine
 10
1879.500039514727
 20
605.3567468295323
 30
0.0
 11
1867.935473780924
 21
625.3871622479482
 31
0.0
  0
LINE
  5
1FEB
330
1F
100
AcDbEntity
  8
AM_0
100
AcDbLine
 10
1809.500039514727
 20
605.3567468295331
 30
0.0
 11
1797.935473780924
 21
625.387162247949
 31
0.0
  0
LINE
  5
1FEC
330
1F
100
AcDbEntity
  8
AM_0
100
AcDbLine
 10
1786.370908047122
 20
605.3567468295331
 30
0.0
 11
1844.105934966085
 21
705.3567468295331
 31
0.0
  0
LINE
  5
1FED
330
1F
100
AcDbEntity
  8
AM_0
100
AcDbLine
 10
1832.262310508077
 20
684.8429875224972
 30
0.0
 11
1820.418686050069
 21
705.3567468295331
 31
0.0
  0
LINE
  5
1FEE
330
1F
100
AcDbEntity
  8
AM_0
100
AcDbLine
 10
1762.262310508077
 20
684.8429875224972
 30
0.0
 11
1750.418686050069
 21
705.3567468295331
 31
0.0
  0
LINE
  5
1FEF
330
1F
100
AcDbEntity
  8
AM_0
100
AcDbLine
 10
1716.370908047122
 20
605.3567468295331
 30
0.0
 11
1774.105934966085
 21
705.3567468295331
 31
0.0
  0
LINE
  5
1FF0
330
1F
100
AcDbEntity
  8
AM_0
100
AcDbLine
 10
1739.500039514727
 20
605.3567468295331
 30
0.0
 11
1727.935473780924
 21
625.387162247949
 31
0.0
  0
LWPOLYLINE
  5
1FF1
330
1F
100
AcDbEntity
  8
0
100
AcDbPolyline
 90
        4
 70
     1
 43
0.0
 10
1694.394136799567
 20
605.3567468295339
 10
1994.394136799567
 20
605.3567468295339
 10
1994.394136799567
 20
705.3567468295339
 10
1694.394136799567
 20
705.356746829534
1001
GENIUS_GENREC_14
1002
{
1000
PYDIR
1011
1694.394136799567
1021
705.3567468295339
1031
0.0
1002
}
1002
{
1000
PXDIR
1011
1994.394136799567
1021
605.3567468295339
1031
0.0
1002
}
1002
{
1000
PORI
1011
1694.394136799567
1021
605.3567468295339
1031
0.0
1002
}
1002
{
1000
PINS
1011
1844.394136799566
1021
605.3567468295339
1031
0.0
1002
}
1002
{
1000
HVAL
1000
100
1002
}
1002
{
1000
H
1070
     2
1002
}
1002
{
1000
WVAL
1000
300
1002
}
1002
{
1000
W
1070
     2
1002
}
1002
{
1000
C
1070
     2
1002
}
1001
GENIUS_GENOBJ-N-REC_13
1002
{
1000
OWNER
1000
GEN
1002
}
1001
GENIUS_GENODEF_13
1002
{
1000
HIER
1070
     0
1002
}
1002
{
1000
MANEDIT
1070
     0
1002
}
1002
{
1000
NOSEL
1070
     0
1002
}
1002
{
1000
BEHIND
1070
     0
1002
}
1002
{
1000
OTHER
1070
     0
1002
}
1002
{
1000
REACTOR
1002
}
  0
HATCH
  5
1FF2
330
1F
100
AcDbEntity
  8
0
100
AcDbHatch
 10
0.0
 20
0.0
 30
0.0
210
0.0
220
0.0
230
1.0
  2
PLAST
 70
     0
 71
     0
 91
        1
 92
        7
 72
     0
 73
     1
 93
        8
 10
1944.394136799567
 20
1105.356746829534
 10
1859.394136799566
 20
1105.356746829534
 10
1859.394136799567
 20
905.3567468295339
 10
1829.394136799566
 20
905.3567468295341
 10
1829.394136799567
 20
1105.356746829534
 10
1744.394136799567
 20
1105.356746829533
 10
1744.394136799567
 20
705.356746829534
 10
1944.394136799567
 20
705.3567468295339
 97
        0
 75
     0
 76
     1
 52
45.0
 41
10.0
 77
     0
 78
     3
 53
45.0
 43
574.9999999999998
 44
185.8317913597765
 45
-44.90128060534575
 46
44.90128060534576
 79
     0
 53
45.0
 43
569.3873399243314
 44
191.4444514354447
 45
-44.90128060534575
 46
44.90128060534576
 79
     0
 53
45.0
 43
563.7746798486634
 44
197.0571115111129
 45
-44.90128060534575
 46
44.90128060534576
 79
     0
 47
3.444727964785109
 98
        1
 10
1919.431704309208
 20
760.0695751132451
  0
LWPOLYLINE
  5
1FF3
330
1F
100
AcDbEntity
  8
0
100
AcDbPolyline
 90
        4
 70
     1
 43
0.0
 10
1744.394136799567
 20
705.3567468295339
 10
1944.394136799567
 20
705.3567468295339
 10
1944.394136799567
 20
1105.356746829534
 10
1744.394136799567
 20
1105.356746829534
1001
GENIUS_GENREC_14
1002
{
1000
PYDIR
1011
1744.394136799567
1021
1105.356746829534
1031
0.0
1002
}
1002
{
1000
PXDIR
1011
1944.394136799567
1021
705.3567468295339
1031
0.0
1002
}
1002
{
1000
PORI
1011
1744.394136799567
1021
705.3567468295339
1031
0.0
1002
}
1002
{
1000
PINS
1011
1844.394136799566
1021
705.3567468295339
1031
0.0
1002
}
1002
{
1000
HVAL
1000
400
1002
}
1002
{
1000
H
1070
     2
1002
}
1002
{
1000
WVAL
1000
200
1002
}
1002
{
1000
W
1070
     2
1002
}
1002
{
1000
C
1070
     2
1002
}
1001
GENIUS_GENOBJ-N-REC_13
1002
{
1000
OWNER
1000
GEN
1002
}
1001
GENIUS_GENODEF_13
1002
{
1000
HIER
1070
     0
1002
}
1002
{
1000
MANEDIT
1070
     0
1002
}
1002
{
1000
NOSEL
1070
     0
1002
}
1002
{
1000
BEHIND
1070
     0
1002
}
1002
{
1000
OTHER
1070
     0
1002
}
1002
{
1000
REACTOR
1002
}
  0
DIMENSION
  5
2079
330
1F
100
AcDbEntity
  8
AM_5
100
AcDbDimension
  2
*D20
 10
1369.394136799567
 20
497.9782385956686
 30
0.0
 11
1269.394136799567
 21
527.9811913515741
 31
0.0
 70
    32
  1
{\Famgdt;o}<>
 71
     5
 42
200.0
  3
IGS
100
AcDbAlignedDimension
 13
1169.394136799567
 23
705.356746829534
 33
0.0
 14
1369.394136799567
 24
705.356746829534
 34
0.0
100
AcDbRotatedDimension
1001
ACAD
1000
DSTYLE
1002
{
1070
   140
1040
3.0
1002
}
  0
DIMENSION
  5
20A5
330
1F
100
AcDbEntity
  8
AM_5
100
AcDbDimension
  2
*D21
 10
896.8941367995681
 20
1105.356746829534
 30
0.0
 11
866.894136799568
 21
1167.856746829534
 31
0.0
 70
    32
 71
     5
 42
100.0
  3
IGS
100
AcDbAlignedDimension
 13
1016.894136799567
 23
1205.356746829534
 33
0.0
 14
938.7597970770768
 24
1105.356746829534
 34
0.0
 50
90.0
100
AcDbRotatedDimension
1001
ACAD
1000
DSTYLE
1002
{
1070
   140
1040
3.0
1070
   173
1070
     1
1070
   174
1070
     1
1070
   342
1005
0
1070
   343
1005
2150
1070
   344
1005
77
1002
}
  0
DIMENSION
  5
20C2
330
1F
100
AcDbEntity
  8
AM_5
100
AcDbDimension
  2
*D22
 10
896.8941367995681
 20
905.3567468295339
 30
0.0
 11
866.8911840436624
 21
1005.356746829534
 31
0.0
 70
    32
 71
     5
 42
200.0000000000002
  3
IGS
100
AcDbAlignedDimension
 13
938.7597970770768
 23
1105.356746829534
 33
0.0
 14
1254.394136799567
 24
905.3567468295339
 34
0.0
 50
90.0
100
AcDbRotatedDimension
1001
ACAD
1000
DSTYLE
1002
{
1070
   140
1040
3.0
1070
   174
1070
     1
1002
}
  0
DIMENSION
  5
216C
330
1F
100
AcDbEntity
  8
AM_5
100
AcDbDimension
  2
*D24
 10
2342.025608556825
 20
705.3567468295337
 30
0.0
 11
2312.025608556826
 21
905.3567468295343
 31
0.0
 70
    32
 71
     5
 42
400.0000000000002
  3
IGS
100
AcDbAlignedDimension
 13
2276.849432347512
 23
1105.356746829534
 33
0.0
 14
1994.394136799567
 24
705.3567468295339
 34
0.0
 50
90.00000000000003
100
AcDbRotatedDimension
1001
ACAD
1000
DSTYLE
1002
{
1070
   140
1040
3.0
1070
   174
1070
     1
1002
}
  0
DIMENSION
  5
2192
330
1F
100
AcDbEntity
  8
AM_5
100
AcDbDimension
  2
*D25
 10
2342.025608556826
 20
705.3567468295337
 30
0.0
 11
2312.025608556826
 21
655.3567468295342
 31
0.0
 70
    32
 71
     5
 42
100.0
  3
IGS
100
AcDbAlignedDimension
 13
1994.394136799567
 23
605.3567468295339
 33
0.0
 14
1994.394136799567
 24
705.3567468295339
 34
0.0
 50
90.0
100
AcDbRotatedDimension
1001
ACAD
1000
DSTYLE
1002
{
1070
   140
1040
3.0
1070
   174
1070
     1
1002
}
  0
DIMENSION
  5
21C0
330
1F
100
AcDbEntity
  8
AM_5
100
AcDbDimension
  2
*D26
 10
1419.394136799567
 20
405.6509107074516
 30
0.0
 11
1269.394136799567
 21
435.6509107074516
 31
0.0
 70
    32
  1
{\Famgdt;o}<>
 71
     5
 42
300.0
  3
IGS
100
AcDbAlignedDimension
 13
1119.394136799567
 23
605.356746829534
 33
0.0
 14
1419.394136799567
 24
605.356746829534
 34
0.0
100
AcDbRotatedDimension
1001
ACAD
1000
DSTYLE
1002
{
1070
   140
1040
3.0
1002
}
  0
TEXT
  5
2457
330
1F
100
AcDbEntity
  8
0
100
AcDbText
 10
2166.660067430492
 20
1119.404032610167
 30
0.0
 40
50.0
  1
G.L
 11
2166.660067430492
 21
1119.404032610167
 31
0.0
100
AcDbText
 73
     1
  0
LINE
  5
2458
330
1F
100
AcDbEntity
  8
0
100
AcDbLine
 10
2959.477142982205
 20
261.7886588002722
 30
0.0
 11
2865.721235816537
 21
261.7886588002716
 31
0.0
  0
LINE
  5
2459
330
1F
100
AcDbEntity
  8
0
100
AcDbLine
 10
2959.477142982205
 20
296.571267488273
 30
0.0
 11
2865.721235816537
 21
296.571267488273
 31
0.0
  0
CIRCLE
  5
245A
330
1F
100
AcDbEntity
  8
0
100
AcDbCircle
 10
2912.599189399371
 20
279.1799631442723
 30
0.0
 40
49.99999998900111
  0
TEXT
  5
245B
330
1F
100
AcDbEntity
  8
TEXT
100
AcDbText
 10
2868.920556433068
 20
266.1364848862718
 30
0.0
 40
26.086956516
  1
05.07.20
 41
0.6972296058015834
 72
     5
 11
2953.511860762292
 21
266.1364848862718
 31
0.0
100
AcDbText
  0
TEXT
  5
245C
330
1F
100
AcDbEntity
  8
0
100
AcDbText
 10
2901.926056197393
 20
232.6197045313788
 30
0.0
 40
25.00000000000055
  1
本
 72
     4
 11
2913.59272286406
 21
245.1197045313791
 31
0.0
100
AcDbText
  0
TEXT
  5
245D
330
1F
100
AcDbEntity
  8
0
100
AcDbText
 10
2900.342074397889
 20
298.9426828606278
 30
0.0
 40
25.00000000000055
  1
松
 72
     4
 11
2912.008741064556
 21
311.4426828606281
 31
0.0
100
AcDbText
  0
INSERT
  5
2470
330
1F
100
AcDbEntity
  8
0
100
AcDbBlockReference
  2
NAKAMURA
 10
3165.197464169851
 20
419.179963144254
 30
0.0
 41
8.695652172000336
 42
8.695652172000336
 43
8.695652172
  0
CIRCLE
  5
247D
330
1F
100
AcDbEntity
  8
0
100
AcDbCircle
 10
2911.4799543037
 20
416.5431103274155
 30
0.0
 40
49.99999998900111
  0
LINE
  5
247E
330
1F
100
AcDbEntity
  8
0
100
AcDbLine
 10
2958.357907886534
 20
433.9344146714156
 30
0.0
 11
2864.602000720866
 21
433.9344146714156
 31
0.0
  0
TEXT
  5
247F
330
1F
100
AcDbEntity
  8
0
100
AcDbText
 10
2899.222839302222
 20
436.3058300437704
 30
0.0
 40
25.00000000000055
  1
梅
 72
     4
 11
2910.889505968889
 21
448.8058300437707
 31
0.0
100
AcDbText
  0
TEXT
  5
2480
330
1F
100
AcDbEntity
  8
0
100
AcDbText
 10
2900.806821101722
 20
369.982851714522
 30
0.0
 40
25.00000000000055
  1
村
 72
     4
 11
2912.473487768389
 21
382.4828517145223
 31
0.0
100
AcDbText
  0
LINE
  5
2481
330
1F
100
AcDbEntity
  8
0
100
AcDbLine
 10
2958.357907886534
 20
399.1518059834148
 30
0.0
 11
2864.602000720866
 21
399.1518059834148
 31
0.0
  0
TEXT
  5
2483
330
1F
100
AcDbEntity
  8
TEXT
100
AcDbText
 10
2867.801321337397
 20
403.4996320694149
 30
0.0
 40
26.086956516
  1
05.07.20
 41
0.6972296058015834
 72
     5
 11
2952.392625666621
 21
403.4996320694149
 31
0.0
100
AcDbText
  0
TEXT
  5
2484
330
1F
100
AcDbEntity
  8
TEXT
100
AcDbText
 10
3121.518831203548
 20
406.1364848862533
 30
0.0
 40
26.086956516
  1
05.07.20
 41
0.6972296058015834
 72
     5
 11
3206.110135532771
 21
406.1364848862533
 31
0.0
100
AcDbText
  0
ENDSEC
  0
SECTION
  2
OBJECTS
  0
DICTIONARY
  5
C
330
0
100
AcDbDictionary
281
     1
  3
ACAD_COLOR
350
985
  3
ACAD_GROUP
350
D
  3
ACAD_LAYOUT
350
1A
  3
ACAD_MATERIAL
350
984
  3
ACAD_MLINESTYLE
350
17
  3
ACAD_PLOTSETTINGS
350
19
  3
ACAD_PLOTSTYLENAME
350
E
  3
AcDbVariableDictionary
350
43
  3
AcmDictionary
350
55
  3
AMG
350
2B
  3
AMGSNAPSETTINGS
350
A8
  3
ASE_INDEX_DICTIONARY
350
942
  0
DICTIONARY
  5
1050
330
2
100
AcDbDictionary
280
     1
281
     1
  3
ACAD_LAYERSTATES
360
1051
  0
DICTIONARY
  5
B1
330
1F
100
AcDbDictionary
280
     1
281
     1
  3
ACAD_INDEX
360
B2
  0
DICTIONARY
  5
985
102
{ACAD_REACTORS
330
C
102
}
330
C
100
AcDbDictionary
281
     1
  0
DICTIONARY
  5
D
102
{ACAD_REACTORS
330
C
102
}
330
C
100
AcDbDictionary
281
     1
  0
DICTIONARY
  5
1A
102
{ACAD_REACTORS
330
C
102
}
330
C
100
AcDbDictionary
281
     1
  3
Model
350
22
  3
ﾚｲｱｳﾄ1
350
1E
  3
ﾚｲｱｳﾄ2
350
26
  0
DICTIONARY
  5
984
102
{ACAD_REACTORS
330
C
102
}
330
C
100
AcDbDictionary
281
     1
  0
DICTIONARY
  5
17
102
{ACAD_REACTORS
330
C
102
}
330
C
100
AcDbDictionary
281
     1
  3
Standard
350
18
  0
DICTIONARY
  5
19
102
{ACAD_REACTORS
330
C
102
}
330
C
100
AcDbDictionary
281
     1
  0
ACDBDICTIONARYWDFLT
  5
E
102
{ACAD_REACTORS
330
C
102
}
330
C
100
AcDbDictionary
281
     1
  3
Normal
350
F
100
AcDbDictionaryWithDefault
340
F
  0
DICTIONARY
  5
43
102
{ACAD_REACTORS
330
C
102
}
330
C
100
AcDbDictionary
281
     1
  3
DIMASSOC
350
24DC
  3
INDEXCTL
350
44
  3
PROJECTNAME
350
24DD
  3
SORTENTS
350
774
  0
DICTIONARY
  5
55
102
{ACAD_REACTORS
330
C
102
}
330
C
100
AcDbDictionary
281
     1
  3
AcmBOM
350
3D1
  3
AcmStdDictionary
350
59
  3
AMDTSECTSYM_ARROWCOLOR
350
98E
  0
DICTIONARY
  5
2B
102
{ACAD_REACTORS
330
C
102
}
330
C
100
AcDbDictionary
281
     1
  0
DICTIONARY
  5
A8
102
{ACAD_REACTORS
330
C
102
}
330
C
100
AcDbDictionary
281
     1
  0
DICTIONARY
  5
942
102
{ACAD_REACTORS
330
C
102
}
330
C
100
AcDbDictionary
281
     1
  3
ASEBlockHierarchyIndexRecord
350
944
1001
DCO15
1040
1418113613.734
  0
DICTIONARY
  5
1051
102
{ACAD_REACTORS
330
1050
102
}
330
1050
100
AcDbDictionary
281
     1
  0
DICTIONARY
  5
B2
102
{ACAD_REACTORS
330
B1
102
}
330
B1
100
AcDbDictionary
281
     1
  3
*A1
350
B3
  0
LAYOUT
  5
22
102
{ACAD_REACTORS
330
1A
102
}
330
1A
100
AcDbPlotSettings
  1

  2
\\PC01\CASIO SPEEDIA N4
  4
A3
  6
AM_VIEW1
 40
5.873749732971191
 41
5.958403587341308
 42
5.958404541015625
 43
5.873748779296875
 44
296.9259948730469
 45
419.9466552734374
 46
9.609999999999999
 47
0.0
 48
0.0
 49
0.0
140
0.0
141
0.0
142
1.0
143
3.458210785390119
 70
 11956
 72
     1
 73
     1
 74
     0
  7
monochrome.ctb
 75
     0
147
0.2891668732931762
 76
     0
 77
     2
 78
   300
148
295.8822165187813
149
247.9752015480118
100
AcDbLayout
  1
Model
 70
     1
 71
     0
 10
0.0
 20
0.0
 11
12.0
 21
9.0
 12
0.0
 22
0.0
 32
0.0
 14
0.0
 24
0.0
 34
0.0
 15
0.0
 25
0.0
 35
0.0
146
0.0
 13
0.0
 23
0.0
 33
0.0
 16
1.0
 26
0.0
 36
0.0
 17
0.0
 27
1.0
 37
0.0
 76
     0
330
1F
  0
LAYOUT
  5
1E
102
{ACAD_REACTORS
330
1A
102
}
330
1A
100
AcDbPlotSettings
  1

  2
MUTOH RL-803C(ﾌﾟﾛｯﾀﾓｰﾄﾞ)
  4

  6

 40
0.0
 41
0.0
 42
0.0
 43
0.0
 44
0.0
 45
0.0
 46
0.0
 47
0.0
 48
0.0
 49
0.0
140
0.0
141
0.0
142
1.0
143
1.0
 70
   688
 72
     0
 73
     0
 74
     5
  7
monochrome.ctb
 75
    16
147
1.0
 76
     0
 77
     2
 78
   300
148
0.0
149
0.0
100
AcDbLayout
  1
ﾚｲｱｳﾄ1
 70
     1
 71
     1
 10
0.0
 20
0.0
 11
420.0
 21
297.0
 12
0.0
 22
0.0
 32
0.0
 14
1.000000000000000E+20
 24
1.000000000000000E+20
 34
1.000000000000000E+20
 15
-1.000000000000000E+20
 25
-1.000000000000000E+20
 35
-1.000000000000000E+20
146
0.0
 13
0.0
 23
0.0
 33
0.0
 16
1.0
 26
0.0
 36
0.0
 17
0.0
 27
1.0
 37
0.0
 76
     0
330
1B
  0
LAYOUT
  5
26
102
{ACAD_REACTORS
330
1A
102
}
330
1A
100
AcDbPlotSettings
  1

  2
MUTOH RL-803C(ﾌﾟﾛｯﾀﾓｰﾄﾞ)
  4

  6

 40
0.0
 41
0.0
 42
0.0
 43
0.0
 44
0.0
 45
0.0
 46
0.0
 47
0.0
 48
0.0
 49
0.0
140
0.0
141
0.0
142
1.0
143
1.0
 70
   688
 72
     0
 73
     0
 74
     5
  7
monochrome.ctb
 75
    16
147
1.0
 76
     0
 77
     2
 78
   300
148
0.0
149
0.0
100
AcDbLayout
  1
ﾚｲｱｳﾄ2
 70
     1
 71
     2
 10
0.0
 20
0.0
 11
12.0
 21
9.0
 12
0.0
 22
0.0
 32
0.0
 14
0.0
 24
0.0
 34
0.0
 15
0.0
 25
0.0
 35
0.0
146
0.0
 13
0.0
 23
0.0
 33
0.0
 16
1.0
 26
0.0
 36
0.0
 17
0.0
 27
1.0
 37
0.0
 76
     0
330
23
  0
MLINESTYLE
  5
18
102
{ACAD_REACTORS
330
17
102
}
330
17
100
AcDbMlineStyle
  2
STANDARD
 70
     0
  3

 62
   256
 51
90.0
 52
90.0
 71
     2
 49
0.5
 62
   256
  6
BYLAYER
 49
-0.5
 62
   256
  6
BYLAYER
  0
ACDBPLACEHOLDER
  5
F
102
{ACAD_REACTORS
330
E
102
}
330
E
  0
DICTIONARYVAR
  5
24DC
102
{ACAD_REACTORS
330
43
102
}
330
43
100
DictionaryVariables
280
     0
  1
1
  0
DICTIONARYVAR
  5
44
102
{ACAD_REACTORS
330
43
102
}
330
43
100
DictionaryVariables
280
     0
  1
1
  0
DICTIONARYVAR
  5
24DD
102
{ACAD_REACTORS
330
43
102
}
330
43
100
DictionaryVariables
280
     0
  1

  0
DICTIONARYVAR
  5
774
102
{ACAD_REACTORS
330
43
102
}
330
43
100
DictionaryVariables
280
     0
  1
103
  0
DICTIONARY
  5
3D1
102
{ACAD_REACTORS
330
55
102
}
330
55
100
AcDbDictionary
281
     1
  0
DICTIONARY
  5
59
102
{ACAD_REACTORS
330
55
102
}
330
55
100
AcDbDictionary
281
     1
  0
XRECORD
  5
98E
102
{ACAD_REACTORS
330
55
102
}
330
55
100
AcDbXrecord
280
     1
 90
-1023410169
  0
XRECORD
  5
944
102
{ACAD_REACTORS
330
942
102
}
330
942
100
AcDbXrecord
280
     1
330
0
330
0
330
0
330
0
  0
LAYER_INDEX
  5
B3
102
{ACAD_REACTORS
330
B2
102
}
330
B2
100
AcDbIndex
 40
2454718.704794375
100
AcDbLayerIndex
  8
0
360
B4
 90
      151
  8
RAHM2
360
156
 90
        0
  8
AM_BOR
360
4B6
 90
        0
  8
RAHM3
360
4B7
 90
        0
  8
DEFPOINTS
360
4B8
 90
        0
  8
7A
360
4B9
 90
        0
  8
AM_7
360
4BA
 90
        2
  8
AM_5
360
4BD
 90
       23
  8
6
360
1D6F
 90
        1
  8
TEXT
360
1D70
 90
        4
  8
AM_12
360
1D71
 90
        1
  8
AM_PAREF
360
1D72
 90
        0
  8
AM_CL
360
1FB2
 90
        0
  8
AM_0
360
1FF4
 90
       24
  0
IDBUFFER
  5
B4
330
0
100
AcDbIdBuffer
330
BB0
330
BB1
330
BB2
330
BB3
330
BB4
330
BB5
330
BB6
330
BB7
330
BB8
330
BB9
330
BBA
330
BBB
330
BBC
330
BBD
330
BBE
330
BBF
330
BC0
330
BC1
330
BC2
330
BC3
330
BC4
330
BC5
330
BC6
330
BC7
330
BC8
330
BC9
330
BCA
330
BCB
330
BCC
330
BCD
330
BCE
330
BCF
330
BD0
330
BD1
330
BD2
330
BD3
330
BD4
330
BD5
330
BD6
330
BD7
330
BD8
330
BD9
330
BDA
330
BDB
330
BDC
330
BDD
330
BDE
330
BDF
330
BE0
330
BE1
330
BE2
330
BE3
330
BE4
330
BE5
330
BE6
330
BE7
330
BE8
330
BE9
330
BEA
330
BEB
330
BEC
330
BED
330
BEE
330
BEF
330
BF0
330
BF1
330
BF2
330
BF3
330
BF4
330
BF5
330
BF6
330
BF7
330
BF8
330
BF9
330
BFA
330
BFB
330
BFC
330
BFD
330
BFE
330
BFF
330
C00
330
C01
330
C02
330
C03
330
C04
330
C05
330
C06
330
C07
330
C08
330
C09
330
C0A
330
C0B
330
C0C
330
C0D
330
C0E
330
C0F
330
C10
330
C11
330
C12
330
C13
330
C14
330
C15
330
C16
330
C17
330
C18
330
C19
330
C1A
330
C1B
330
C1C
330
C1D
330
C1E
330
C1F
330
C20
330
C21
330
C22
330
C23
330
C24
330
C25
330
C26
330
C27
330
C28
330
C29
330
D4F
330
D50
330
D59
330
1610
330
1617
330
1618
330
161A
330
161B
330
161C
330
1D81
330
1E42
330
1E53
330
1E64
330
1FB1
330
1FF1
330
1FF2
330
1FF3
330
2457
330
2458
330
2459
330
245A
330
245C
330
245D
330
2470
330
247D
330
247E
330
247F
330
2480
330
2481
  0
IDBUFFER
  5
156
330
0
100
AcDbIdBuffer
  0
IDBUFFER
  5
4B6
330
0
100
AcDbIdBuffer
  0
IDBUFFER
  5
4B7
330
0
100
AcDbIdBuffer
  0
IDBUFFER
  5
4B8
330
0
100
AcDbIdBuffer
  0
IDBUFFER
  5
4B9
330
0
100
AcDbIdBuffer
  0
IDBUFFER
  5
4BA
330
0
100
AcDbIdBuffer
330
B7C
330
B7D
  0
IDBUFFER
  5
4BD
330
0
100
AcDbIdBuffer
330
D6F
330
D9B
330
DCA
330
DEB
330
E22
330
E4E
330
E68
330
E89
330
EC0
330
EE8
330
F10
330
F3C
330
F62
330
F7C
330
1611
330
1613
330
1D6E
330
2079
330
20A5
330
20C2
330
216C
330
2192
330
21C0
  0
IDBUFFER
  5
1D6F
330
0
100
AcDbIdBuffer
330
1627
  0
IDBUFFER
  5
1D70
330
0
100
AcDbIdBuffer
330
1619
330
245B
330
2483
330
2484
  0
IDBUFFER
  5
1D71
330
0
100
AcDbIdBuffer
330
1D69
  0
IDBUFFER
  5
1D72
330
0
100
AcDbIdBuffer
  0
IDBUFFER
  5
1FB2
330
0
100
AcDbIdBuffer
  0
IDBUFFER
  5
1FF4
330
0
100
AcDbIdBuffer
330
1FD0
330
1FD2
330
1FD4
330
1FDC
330
1FDD
330
1FDE
330
1FDF
330
1FE0
330
1FE1
330
1FE2
330
1FE3
330
1FE4
330
1FE5
330
1FE6
330
1FE7
330
1FE8
330
1FE9
330
1FEA
330
1FEB
330
1FEC
330
1FED
330
1FEE
330
1FEF
330
1FF0
  0
ENDSEC
  0
EOF
