  0
SECTION
  2
HEADER
  9
$ACADVER
  1
AC1015
  9
$ACADMAINTVER
 70
     6
  9
$DWGCODEPAGE
  3
ANSI_932
  9
$INSBASE
 10
1487.076727951234
 20
287.1895322523405
 30
0.0
  9
$EXTMIN
 10
1487.076727951234
 20
-452.8104677476595
 30
0.0
  9
$EXTMAX
 10
2021.076727951234
 20
287.1895322523405
 30
0.0
  9
$LIMMIN
 10
1487.076727951234
 20
-452.8104677476595
  9
$LIMMAX
 10
2021.076727951234
 20
287.1895322523405
  9
$ORTHOMODE
 70
     0
  9
$REGENMODE
 70
     0
  9
$FILLMODE
 70
     1
  9
$QTEXTMODE
 70
     0
  9
$MIRRTEXT
 70
     1
  9
$LTSCALE
 40
2.0
  9
$ATTMODE
 70
     1
  9
$TEXTSIZE
 40
8.0
  9
$TRACEWID
 40
0.05
  9
$TEXTSTYLE
  7
Standard
  9
$CLAYER
  8
1
  9
$CELTYPE
  6
Continuous
  9
$CECOLOR
 62
     7
  9
$CELTSCALE
 40
1.0
  9
$DISPSILH
 70
     0
  9
$DIMSCALE
 40
2.0
  9
$DIMASZ
 40
3.0
  9
$DIMEXO
 40
1.0
  9
$DIMDLI
 40
7.0
  9
$DIMRND
 40
0.0
  9
$DIMDLE
 40
1.0
  9
$DIMEXE
 40
1.0
  9
$DIMTP
 40
0.0
  9
$DIMTM
 40
0.0
  9
$DIMTXT
 40
4.0
  9
$DIMCEN
 40
0.09
  9
$DIMTSZ
 40
0.0
  9
$DIMTOL
 70
     0
  9
$DIMLIM
 70
     0
  9
$DIMTIH
 70
     0
  9
$DIMTOH
 70
     0
  9
$DIMSE1
 70
     0
  9
$DIMSE2
 70
     0
  9
$DIMTAD
 70
     1
  9
$DIMZIN
 70
     8
  9
$DIMBLK
  1
OPEN30
  9
$DIMASO
 70
     1
  9
$DIMSHO
 70
     0
  9
$DIMPOST
  1

  9
$DIMAPOST
  1

  9
$DIMALT
 70
     0
  9
$DIMALTD
 70
     3
  9
$DIMALTF
 40
25.4
  9
$DIMLFAC
 40
1.0
  9
$DIMTOFL
 70
     0
  9
$DIMTVP
 40
0.0
  9
$DIMTIX
 70
     0
  9
$DIMSOXD
 70
     0
  9
$DIMSAH
 70
     0
  9
$DIMBLK1
  1

  9
$DIMBLK2
  1

  9
$DIMSTYLE
  2
Standard
  9
$DIMCLRD
 70
     3
  9
$DIMCLRE
 70
     3
  9
$DIMCLRT
 70
     2
  9
$DIMTFAC
 40
0.5
  9
$DIMGAP
 40
0.0
  9
$DIMJUST
 70
     0
  9
$DIMSD1
 70
     0
  9
$DIMSD2
 70
     0
  9
$DIMTOLJ
 70
     1
  9
$DIMTZIN
 70
     0
  9
$DIMALTZ
 70
     0
  9
$DIMALTTZ
 70
     0
  9
$DIMUPT
 70
     0
  9
$DIMDEC
 70
     3
  9
$DIMTDEC
 70
     4
  9
$DIMALTU
 70
     2
  9
$DIMALTTD
 70
     2
  9
$DIMTXSTY
  7
Standard
  9
$DIMAUNIT
 70
     0
  9
$DIMADEC
 70
     3
  9
$DIMALTRND
 40
0.0
  9
$DIMAZIN
 70
     2
  9
$DIMDSEP
 70
    46
  9
$DIMATFIT
 70
     3
  9
$DIMFRAC
 70
     0
  9
$DIMLDRBLK
  1
OPEN30
  9
$DIMLUNIT
 70
     2
  9
$DIMLWD
 70
    -1
  9
$DIMLWE
 70
    -1
  9
$DIMTMOVE
 70
     0
  9
$LUNITS
 70
     2
  9
$LUPREC
 70
     4
  9
$SKETCHINC
 40
0.1
  9
$FILLETRAD
 40
0.0
  9
$AUNITS
 70
     0
  9
$AUPREC
 70
     0
  9
$MENU
  1
ACAD
  9
$ELEVATION
 40
0.0
  9
$PELEVATION
 40
0.0
  9
$THICKNESS
 40
0.0
  9
$LIMCHECK
 70
     0
  9
$CHAMFERA
 40
0.0
  9
$CHAMFERB
 40
0.0
  9
$CHAMFERC
 40
0.0
  9
$CHAMFERD
 40
0.0
  9
$SKPOLY
 70
     0
  9
$TDCREATE
 40
2305814.375012257
  9
$TDUCREATE
 40
13044375.0
  9
$TDUPDATE
 40
2460571.696126852
  9
$TDUUPDATE
 40
2460571.321126852
  9
$TDINDWG
 40
0.0
  9
$TDUSRTIMER
 40
0.0
  9
$USRTIMER
 70
     1
  9
$ANGBASE
 50
0.0
  9
$ANGDIR
 70
     0
  9
$PDMODE
 70
    65
  9
$PDSIZE
 40
0.2
  9
$PLINEWID
 40
0.0
  9
$SPLFRAME
 70
     0
  9
$SPLINETYPE
 70
     6
  9
$SPLINESEGS
 70
     8
  9
$HANDSEED
  5
3CB
  9
$SURFTAB1
 70
     6
  9
$SURFTAB2
 70
     6
  9
$SURFTYPE
 70
     6
  9
$SURFU
 70
     6
  9
$SURFV
 70
     6
  9
$UCSBASE
  2

  9
$UCSNAME
  2

  9
$UCSORG
 10
0.0
 20
0.0
 30
0.0
  9
$UCSXDIR
 10
1.0
 20
0.0
 30
0.0
  9
$UCSYDIR
 10
0.0
 20
1.0
 30
0.0
  9
$UCSORTHOREF
  2

  9
$UCSORTHOVIEW
 70
     0
  9
$UCSORGTOP
 10
0.0
 20
0.0
 30
0.0
  9
$UCSORGBOTTOM
 10
0.0
 20
0.0
 30
0.0
  9
$UCSORGLEFT
 10
0.0
 20
0.0
 30
0.0
  9
$UCSORGRIGHT
 10
0.0
 20
0.0
 30
0.0
  9
$UCSORGFRONT
 10
0.0
 20
0.0
 30
0.0
  9
$UCSORGBACK
 10
0.0
 20
0.0
 30
0.0
  9
$PUCSBASE
  2

  9
$PUCSNAME
  2

  9
$PUCSORG
 10
0.0
 20
0.0
 30
0.0
  9
$PUCSXDIR
 10
1.0
 20
0.0
 30
0.0
  9
$PUCSYDIR
 10
0.0
 20
1.0
 30
0.0
  9
$PUCSORTHOREF
  2

  9
$PUCSORTHOVIEW
 70
     0
  9
$PUCSORGTOP
 10
0.0
 20
0.0
 30
0.0
  9
$PUCSORGBOTTOM
 10
0.0
 20
0.0
 30
0.0
  9
$PUCSORGLEFT
 10
0.0
 20
0.0
 30
0.0
  9
$PUCSORGRIGHT
 10
0.0
 20
0.0
 30
0.0
  9
$PUCSORGFRONT
 10
0.0
 20
0.0
 30
0.0
  9
$PUCSORGBACK
 10
0.0
 20
0.0
 30
0.0
  9
$USERI1
 70
     0
  9
$USERI2
 70
     0
  9
$USERI3
 70
     0
  9
$USERI4
 70
     0
  9
$USERI5
 70
     0
  9
$USERR1
 40
0.0
  9
$USERR2
 40
0.0
  9
$USERR3
 40
0.0
  9
$USERR4
 40
0.0
  9
$USERR5
 40
0.0
  9
$WORLDVIEW
 70
     1
  9
$SHADEDGE
 70
     3
  9
$SHADEDIF
 70
    70
  9
$TILEMODE
 70
     1
  9
$MAXACTVP
 70
    64
  9
$PINSBASE
 10
0.0
 20
0.0
 30
0.0
  9
$PLIMCHECK
 70
     0
  9
$PEXTMIN
 10
1.000000000000000E+20
 20
1.000000000000000E+20
 30
1.000000000000000E+20
  9
$PEXTMAX
 10
-1.000000000000000E+20
 20
-1.000000000000000E+20
 30
-1.000000000000000E+20
  9
$PLIMMIN
 10
0.0
 20
0.0
  9
$PLIMMAX
 10
12.0
 20
9.0
  9
$UNITMODE
 70
     0
  9
$VISRETAIN
 70
     1
  9
$PLINEGEN
 70
     0
  9
$PSLTSCALE
 70
     1
  9
$TREEDEPTH
 70
  3020
  9
$CMLSTYLE
  2
Standard
  9
$CMLJUST
 70
     0
  9
$CMLSCALE
 40
1.0
  9
$PROXYGRAPHICS
 70
     1
  9
$MEASUREMENT
 70
     0
  9
$CELWEIGHT
370
    -1
  9
$ENDCAPS
280
     0
  9
$JOINSTYLE
280
     0
  9
$LWDISPLAY
290
     0
  9
$INSUNITS
 70
     1
  9
$HYPERLINKBASE
  1

  9
$STYLESHEET
  1

  9
$XEDIT
290
     1
  9
$CEPSNTYPE
380
     0
  9
$PSTYLEMODE
290
     1
  9
$FINGERPRINTGUID
  2
{01CBE867-EBEB-42C8-AF11-CFECB3A421B5}
  9
$VERSIONGUID
  2
{FAEB1C32-E019-11D5-929B-00C0DF256EC4}
  9
$EXTNAMES
290
     1
  9
$PSVPSCALE
 40
0.0
  9
$OLESTARTUP
290
     0
  0
ENDSEC
  0
SECTION
  2
CLASSES
  0
CLASS
  1
ACDBDICTIONARYWDFLT
  2
AcDbDictionaryWithDefault
  3
ObjectDBX Classes
 90
        0
280
     0
281
     0
  0
CLASS
  1
VISUALSTYLE
  2
AcDbVisualStyle
  3
ObjectDBX Classes
 90
     4095
280
     0
281
     0
  0
CLASS
  1
MATERIAL
  2
AcDbMaterial
  3
ObjectDBX Classes
 90
     1153
280
     0
281
     0
  0
CLASS
  1
SCALE
  2
AcDbScale
  3
ObjectDBX Classes
 90
     1153
280
     0
281
     0
  0
CLASS
  1
TABLESTYLE
  2
AcDbTableStyle
  3
ObjectDBX Classes
 90
     4095
280
     0
281
     0
  0
CLASS
  1
MLEADERSTYLE
  2
AcDbMLeaderStyle
  3
ACDB_MLEADERSTYLE_CLASS
 90
     4095
280
     0
281
     0
  0
CLASS
  1
SUN
  2
AcDbSun
  3
SCENEOE
 90
     1153
280
     0
281
     0
  0
CLASS
  1
DICTIONARYVAR
  2
AcDbDictionaryVar
  3
ObjectDBX Classes
 90
        0
280
     0
281
     0
  0
CLASS
  1
ACDBPLACEHOLDER
  2
AcDbPlaceHolder
  3
ObjectDBX Classes
 90
        0
280
     0
281
     0
  0
CLASS
  1
LAYOUT
  2
AcDbLayout
  3
ObjectDBX Classes
 90
        0
280
     0
281
     0
  0
ENDSEC
  0
SECTION
  2
TABLES
  0
TABLE
  2
VPORT
  5
8
102
{ACAD_XDICTIONARY
360
38E
102
}
330
0
100
AcDbSymbolTable
 70
     1
  0
VPORT
  5
29
330
8
100
AcDbSymbolTableRecord
100
AcDbViewportTableRecord
  2
*Active
 70
     0
 10
0.0
 20
0.0
 11
1.0
 21
1.0
 12
267.0000000000003
 22
370.0
 13
0.0
 23
0.0
 14
0.5
 24
0.5
 15
0.5
 25
0.5
 16
0.0
 26
0.0
 36
1.0
 17
0.0
 27
0.0
 37
0.0
 40
740.0
 41
0.7216216216216226
 42
50.0
 43
0.0
 44
0.0
 50
0.0
 51
0.0
 71
     0
 72
   100
 73
     1
 74
     3
 75
     0
 76
     0
 77
     0
 78
     0
281
     0
 65
     1
110
0.0
120
0.0
130
0.0
111
1.0
121
0.0
131
0.0
112
0.0
122
1.0
132
0.0
 79
     0
146
0.0
  0
ENDTAB
  0
TABLE
  2
LTYPE
  5
5
330
0
100
AcDbSymbolTable
 70
    17
  0
LTYPE
  5
14
330
5
100
AcDbSymbolTableRecord
100
AcDbLinetypeTableRecord
  2
ByBlock
 70
     0
  3

 72
    65
 73
     0
 40
0.0
  0
LTYPE
  5
15
330
5
100
AcDbSymbolTableRecord
100
AcDbLinetypeTableRecord
  2
ByLayer
 70
     0
  3

 72
    65
 73
     0
 40
0.0
  0
LTYPE
  5
16
330
5
100
AcDbSymbolTableRecord
100
AcDbLinetypeTableRecord
  2
Continuous
 70
     0
  3
Solid line
 72
    65
 73
     0
 40
0.0
  0
LTYPE
  5
6E
330
5
100
AcDbSymbolTableRecord
100
AcDbLinetypeTableRecord
  2
DIVIDE
 70
     0
  3
Divide ____ . . ____ . . ____ . . ____ . . ____
 72
    65
 73
     6
 40
1.25
 49
0.5
 74
     0
 49
-0.25
 74
     0
 49
0.0
 74
     0
 49
-0.25
 74
     0
 49
0.0
 74
     0
 49
-0.25
 74
     0
  0
LTYPE
  5
6F
330
5
100
AcDbSymbolTableRecord
100
AcDbLinetypeTableRecord
  2
HIDDEN
 70
     0
  3
Hidden __ __ __ __ __ __ __ __ __ __ __ __ __ _
 72
    65
 73
     2
 40
9.525
 49
6.35
 74
     0
 49
-3.175
 74
     0
  0
LTYPE
  5
70
330
5
100
AcDbSymbolTableRecord
100
AcDbLinetypeTableRecord
  2
HIDDEN2
 70
     0
  3
Hidden (.5x) _ _ _ _ _ _ _ _ _ _ _ _ _ _ _ _ _
 72
    65
 73
     2
 40
4.7625
 49
3.175
 74
     0
 49
-1.5875
 74
     0
  0
LTYPE
  5
71
330
5
100
AcDbSymbolTableRecord
100
AcDbLinetypeTableRecord
  2
CENTER2
 70
     0
  3
Center (.5x) ___ _ ___ _ ___ _ ___ _ ___ _ ___
 72
    65
 73
     4
 40
28.575
 49
19.05
 74
     0
 49
-3.175
 74
     0
 49
3.175
 74
     0
 49
-3.175
 74
     0
  0
LTYPE
  5
72
330
5
100
AcDbSymbolTableRecord
100
AcDbLinetypeTableRecord
  2
PHANTOM2
 70
     0
  3
Phantom (.5x) ___ _ _ ___ _ _ ___ _ _ ___ _ _
 72
    65
 73
     6
 40
31.75
 49
15.875
 74
     0
 49
-3.175
 74
     0
 49
3.175
 74
     0
 49
-3.175
 74
     0
 49
3.175
 74
     0
 49
-3.175
 74
     0
  0
LTYPE
  5
73
330
5
100
AcDbSymbolTableRecord
100
AcDbLinetypeTableRecord
  2
DASHED
 70
     0
  3
Dashed __ __ __ __ __ __ __ __ __ __ __ __ __ _
 72
    65
 73
     2
 40
19.05
 49
12.7
 74
     0
 49
-6.35
 74
     0
  0
LTYPE
  5
74
330
5
100
AcDbSymbolTableRecord
100
AcDbLinetypeTableRecord
  2
CENTER
 70
     0
  3
Center ____ _ ____ _ ____ _ ____ _ ____ _ ____
 72
    65
 73
     4
 40
50.8
 49
31.75
 74
     0
 49
-6.35
 74
     0
 49
6.35
 74
     0
 49
-6.35
 74
     0
  0
LTYPE
  5
75
330
5
100
AcDbSymbolTableRecord
100
AcDbLinetypeTableRecord
  2
PHANTOM
 70
     0
  3
Phantom ______  __  __  ______  __  __  ______
 72
    65
 73
     6
 40
63.5
 49
31.75
 74
     0
 49
-6.35
 74
     0
 49
6.35
 74
     0
 49
-6.35
 74
     0
 49
6.35
 74
     0
 49
-6.35
 74
     0
  0
LTYPE
  5
76
330
5
100
AcDbSymbolTableRecord
100
AcDbLinetypeTableRecord
  2
BORDER2
 70
     0
  3
Border (.5x) __.__.__.__.__.__.__.__.__.__.__.
 72
    65
 73
     6
 40
22.225
 49
6.35
 74
     0
 49
-3.175
 74
     0
 49
6.35
 74
     0
 49
-3.175
 74
     0
 49
0.0
 74
     0
 49
-3.175
 74
     0
  0
LTYPE
  5
77
330
5
100
AcDbSymbolTableRecord
100
AcDbLinetypeTableRecord
  2
HIDDENX2
 70
     0
  3
Hidden (2x) ____ ____ ____ ____ ____ ____ ____
 72
    65
 73
     2
 40
19.05
 49
12.7
 74
     0
 49
-6.35
 74
     0
  0
LTYPE
  5
78
330
5
100
AcDbSymbolTableRecord
100
AcDbLinetypeTableRecord
  2
DOTX2
 70
     0
  3
Dot (2x) .  .  .  .  .  .  .  .  .  .  .  .  . 
 72
    65
 73
     2
 40
12.7
 49
0.0
 74
     0
 49
-12.7
 74
     0
  0
LTYPE
  5
79
330
5
100
AcDbSymbolTableRecord
100
AcDbLinetypeTableRecord
  2
DASHDOTX2
 70
     0
  3
Dash dot (2x) ____  .  ____  .  ____  .  ___
 72
    65
 73
     4
 40
50.8
 49
25.4
 74
     0
 49
-12.7
 74
     0
 49
0.0
 74
     0
 49
-12.7
 74
     0
  0
LTYPE
  5
7A
330
5
100
AcDbSymbolTableRecord
100
AcDbLinetypeTableRecord
  2
DIVIDEX2
 70
     0
  3
Divide (2x) ________  .  .  ________  .  .  _
 72
    65
 73
     6
 40
63.5
 49
25.4
 74
     0
 49
-12.7
 74
     0
 49
0.0
 74
     0
 49
-12.7
 74
     0
 49
0.0
 74
     0
 49
-12.7
 74
     0
  0
LTYPE
  5
7B
330
5
100
AcDbSymbolTableRecord
100
AcDbLinetypeTableRecord
  2
DASHEDX2
 70
     0
  3
Dashed (2x) ____  ____  ____  ____  ____  ___
 72
    65
 73
     2
 40
38.1
 49
25.4
 74
     0
 49
-12.7
 74
     0
  0
LTYPE
  5
7C
330
5
100
AcDbSymbolTableRecord
100
AcDbLinetypeTableRecord
  2
CENTERX2
 70
     0
  3
Center (2x) ________  __  ________  __  _____
 72
    65
 73
     4
 40
101.6
 49
63.5
 74
     0
 49
-12.7
 74
     0
 49
12.7
 74
     0
 49
-12.7
 74
     0
  0
LTYPE
  5
7D
330
5
100
AcDbSymbolTableRecord
100
AcDbLinetypeTableRecord
  2
PHANTOMX2
 70
     0
  3
Phantom (2x) ____________    ____    ____   _
 72
    65
 73
     6
 40
127.0
 49
63.5
 74
     0
 49
-12.7
 74
     0
 49
12.7
 74
     0
 49
-12.7
 74
     0
 49
12.7
 74
     0
 49
-12.7
 74
     0
  0
ENDTAB
  0
TABLE
  2
LAYER
  5
2
330
0
100
AcDbSymbolTable
 70
     4
  0
LAYER
  5
10
330
2
100
AcDbSymbolTableRecord
100
AcDbLayerTableRecord
  2
0
 70
     0
 62
     7
  6
Continuous
370
    -3
390
F
  0
LAYER
  5
7E
330
2
100
AcDbSymbolTableRecord
100
AcDbLayerTableRecord
  2
1
 70
     0
 62
     7
  6
Continuous
370
     0
390
F
  0
LAYER
  5
7F
330
2
100
AcDbSymbolTableRecord
100
AcDbLayerTableRecord
  2
寸法
 70
     0
 62
     7
  6
Continuous
370
     0
390
F
  0
LAYER
  5
80
330
2
100
AcDbSymbolTableRecord
100
AcDbLayerTableRecord
  2
DEFPOINTS
 70
     0
 62
     3
  6
DIVIDE
290
     0
370
     0
390
F
  0
ENDTAB
  0
TABLE
  2
STYLE
  5
3
330
0
100
AcDbSymbolTable
 70
     9
  0
STYLE
  5
11
330
3
100
AcDbSymbolTableRecord
100
AcDbTextStyleTableRecord
  2
Standard
 70
     0
 40
0.0
 41
0.8
 50
0.0
 71
     0
 42
8.0
  3
MONOTXT.shx
  4
EXTFONT.shx
  0
STYLE
  5
81
330
3
100
AcDbSymbolTableRecord
100
AcDbTextStyleTableRecord
  2
DIMSTANDARD
 70
     0
 40
0.0
 41
0.875
 50
0.0
 71
     0
 42
8.0
  3
MONOTXT.shx
  4
EXTFONT.shx
  0
STYLE
  5
B4
330
3
100
AcDbSymbolTableRecord
100
AcDbTextStyleTableRecord
  2
MTSTANDARD
 70
     0
 40
0.0
 41
1.0
 50
0.0
 71
     0
 42
8.0
  3
MONOTXT.shx
  4
EXTFONT.shx
  0
STYLE
  5
BD
330
3
100
AcDbSymbolTableRecord
100
AcDbTextStyleTableRecord
  2
MTSTANDARD1
 70
     0
 40
0.0
 41
0.75
 50
0.0
 71
     0
 42
8.0
  3
MONOTXT.shx
  4
EXTFONT.shx
  0
STYLE
  5
EA
330
3
100
AcDbSymbolTableRecord
100
AcDbTextStyleTableRecord
  2
MTSTANDARD2
 70
     0
 40
0.0
 41
1.0
 50
0.0
 71
     0
 42
8.0
  3
MONOTXT.shx
  4
EXTFONT.shx
  0
STYLE
  5
FB
330
3
100
AcDbSymbolTableRecord
100
AcDbTextStyleTableRecord
  2
MTSTANDARD3
 70
     0
 40
0.0
 41
1.0
 50
0.0
 71
     0
 42
8.0
  3
MONOTXT.shx
  4
EXTFONT.shx
  0
STYLE
  5
27F
330
3
100
AcDbSymbolTableRecord
100
AcDbTextStyleTableRecord
  2
MTSTANDARD4
 70
     0
 40
0.0
 41
1.0
 50
0.0
 71
     0
 42
8.0
  3
MONOTXT.shx
  4
EXTFONT.shx
  0
STYLE
  5
2EC
330
3
100
AcDbSymbolTableRecord
100
AcDbTextStyleTableRecord
  2
MTSTANDARD5
 70
     0
 40
0.0
 41
1.0
 50
0.0
 71
     0
 42
8.0
  3
MONOTXT.shx
  4
EXTFONT.shx
  0
STYLE
  5
2FF
330
3
100
AcDbSymbolTableRecord
100
AcDbTextStyleTableRecord
  2
MTSTANDARD6
 70
     0
 40
0.0
 41
1.0
 50
0.0
 71
     0
 42
8.0
  3
MONOTXT.shx
  4
EXTFONT.shx
  0
ENDTAB
  0
TABLE
  2
VIEW
  5
6
330
0
100
AcDbSymbolTable
 70
     0
  0
ENDTAB
  0
TABLE
  2
UCS
  5
7
330
0
100
AcDbSymbolTable
 70
     0
  0
ENDTAB
  0
TABLE
  2
APPID
  5
9
330
0
100
AcDbSymbolTable
 70
     2
  0
APPID
  5
12
330
9
100
AcDbSymbolTableRecord
100
AcDbRegAppTableRecord
  2
ACAD
 70
     0
  0
APPID
  5
3C8
330
9
100
AcDbSymbolTableRecord
100
AcDbRegAppTableRecord
  2
ACAD_MLEADERVER
 70
     0
  0
ENDTAB
  0
TABLE
  2
DIMSTYLE
  5
A
330
0
100
AcDbSymbolTable
 70
     8
100
AcDbDimStyleTable
  0
DIMSTYLE
105
27
330
A
100
AcDbSymbolTableRecord
100
AcDbDimStyleTableRecord
  2
Standard
 70
     0
 40
2.0
 41
3.0
 42
1.0
 43
7.0
 44
1.0
 73
     0
 74
     0
 77
     3
 78
     8
 79
     2
140
4.0
141
0.0
146
0.5
147
0.0
176
     3
177
     3
271
     3
178
     2
179
     3
271
     3
340
11
342
86
371
    -1
372
    -1
  0
DIMSTYLE
105
189
102
{ACAD_REACTORS
330
18A
330
1EC
102
}
330
A
100
AcDbSymbolTableRecord
100
AcDbDimStyleTableRecord
  2
DIMSTYEX_1
 70
     0
 40
2.0
 41
2.0
 42
1.0
 43
15.0
 44
1.0
 73
     0
 74
     0
 77
     3
 78
     8
 79
     2
140
3.584
141
0.0
146
0.5
147
0.0
173
     1
176
     7
177
     7
271
     1
178
     2
179
     3
271
     1
272
     1
340
81
342
86
343
86
344
86
371
    -1
372
    -1
  0
DIMSTYLE
105
197
102
{ACAD_REACTORS
330
198
102
}
330
A
100
AcDbSymbolTableRecord
100
AcDbDimStyleTableRecord
  2
DIMSTYEX_2
 70
     0
 40
2.0
 41
2.0
 42
1.0
 43
10.0
 44
1.0
 73
     0
 74
     0
 77
     3
 78
     8
 79
     2
140
3.584
141
0.0
146
0.5
147
0.0
173
     1
176
     7
177
     7
271
     1
178
     2
179
     3
271
     1
272
     1
340
81
342
86
343
86
344
86
371
    -1
372
    -1
  0
DIMSTYLE
105
1A3
102
{ACAD_REACTORS
330
1A4
102
}
330
A
100
AcDbSymbolTableRecord
100
AcDbDimStyleTableRecord
  2
DIMSTYEX_3
 70
     0
 40
2.0
 41
2.0
 42
1.0
 43
18.0
 44
1.0
 73
     0
 74
     0
 75
     1
 76
     1
 77
     3
 78
     8
 79
     2
140
3.584
141
0.0
146
0.5
147
0.0
173
     1
176
     7
177
     7
271
     1
178
     2
179
     3
271
     1
272
     1
340
81
342
86
343
86
344
86
371
    -1
372
    -1
  0
DIMSTYLE
105
207
102
{ACAD_REACTORS
330
208
330
27A
330
2C8
102
}
330
A
100
AcDbSymbolTableRecord
100
AcDbDimStyleTableRecord
  2
DIMSTYEX_4
 70
     0
 40
2.0
 41
2.0
 42
1.0
 43
7.0
 44
1.0
 73
     0
 74
     0
 77
     3
 78
     8
 79
     2
140
3.584
141
0.0
146
0.5
147
0.0
173
     1
176
     3
177
     3
271
     3
178
     2
179
     3
271
     3
272
     3
340
81
342
86
343
86
344
86
371
    -1
372
    -1
  0
DIMSTYLE
105
253
102
{ACAD_REACTORS
330
254
330
25F
102
}
330
A
100
AcDbSymbolTableRecord
100
AcDbDimStyleTableRecord
  2
DIMSTYEX_5
 70
     0
 40
2.0
 41
2.0
 42
1.0
 43
7.0
 44
1.0
 73
     0
 74
     0
 75
     1
 77
     1
 78
     8
 79
     2
140
3.584
141
0.0
146
0.5
147
0.0
173
     1
176
     3
177
     3
271
     3
178
     2
179
     3
271
     3
272
     3
279
     2
281
     1
340
81
342
86
343
AC
344
86
371
    -1
372
    -1
  0
DIMSTYLE
105
26C
102
{ACAD_REACTORS
330
26D
102
}
330
A
100
AcDbSymbolTableRecord
100
AcDbDimStyleTableRecord
  2
DIMSTYEX_6
 70
     0
 40
2.0
 41
2.0
 42
1.0
 43
7.0
 44
1.0
 73
     0
 74
     0
 77
     3
 78
     8
 79
     2
140
3.584
141
0.0
146
0.5
147
0.0
173
     1
176
     3
177
     3
271
     3
178
     2
179
     3
271
     3
272
     3
279
     2
340
81
342
86
343
86
344
86
371
    -1
372
    -1
  0
DIMSTYLE
105
281
330
A
100
AcDbSymbolTableRecord
100
AcDbDimStyleTableRecord
  2
DIMSTYEX_7
 70
     0
 40
2.0
 41
2.0
 42
1.0
 43
7.0
 44
1.0
 73
     0
 74
     0
 77
     3
 78
     8
 79
     2
140
4.0
141
0.0
146
0.5
147
0.0
176
     3
177
     3
271
     3
178
     2
179
     3
271
     3
340
11
341
86
342
86
371
    -1
372
    -1
  0
ENDTAB
  0
TABLE
  2
BLOCK_RECORD
  5
1
330
0
100
AcDbSymbolTable
 70
    51
  0
BLOCK_RECORD
  5
1F
330
1
100
AcDbSymbolTableRecord
100
AcDbBlockTableRecord
  2
*Model_Space
340
22
  0
BLOCK_RECORD
  5
1B
330
1
100
AcDbSymbolTableRecord
100
AcDbBlockTableRecord
  2
*Paper_Space
340
1E
  0
BLOCK_RECORD
  5
82
330
1
100
AcDbSymbolTableRecord
100
AcDbBlockTableRecord
  2
_SMALL
340
0
  0
BLOCK_RECORD
  5
86
330
1
100
AcDbSymbolTableRecord
100
AcDbBlockTableRecord
  2
_OPEN30
340
0
102
{BLKREFS
331
181
331
182
331
18F
331
190
331
19D
331
19E
331
1E4
331
1E5
331
1FF
331
200
331
24D
331
259
331
264
331
265
331
272
331
273
331
2C0
331
2C1
102
}
  0
BLOCK_RECORD
  5
8C
330
1
100
AcDbSymbolTableRecord
100
AcDbBlockTableRecord
  2
_OBLIQUE
340
0
  0
BLOCK_RECORD
  5
90
330
1
100
AcDbSymbolTableRecord
100
AcDbBlockTableRecord
  2
_DOT
340
0
  0
BLOCK_RECORD
  5
94
330
1
100
AcDbSymbolTableRecord
100
AcDbBlockTableRecord
  2
_DOTSMALL
340
0
  0
BLOCK_RECORD
  5
98
330
1
100
AcDbSymbolTableRecord
100
AcDbBlockTableRecord
  2
_DATUMFILLED
340
0
  0
BLOCK_RECORD
  5
9C
330
1
100
AcDbSymbolTableRecord
100
AcDbBlockTableRecord
  2
DATUMFILLED2
340
0
  0
BLOCK_RECORD
  5
A0
330
1
100
AcDbSymbolTableRecord
100
AcDbBlockTableRecord
  2
_DATUMBLANK
340
0
  0
BLOCK_RECORD
  5
A6
330
1
100
AcDbSymbolTableRecord
100
AcDbBlockTableRecord
  2
DATUMBLANK2
340
0
  0
BLOCK_RECORD
  5
AC
330
1
100
AcDbSymbolTableRecord
100
AcDbBlockTableRecord
  2
_NONE
340
0
  0
BLOCK_RECORD
  5
B9
330
1
100
AcDbSymbolTableRecord
100
AcDbBlockTableRecord
  2
MAKR0
340
0
102
{BLKREFS
331
BF
102
}
  0
BLOCK_RECORD
  5
C0
330
1
100
AcDbSymbolTableRecord
100
AcDbBlockTableRecord
  2
MAKR1
340
0
102
{BLKREFS
331
C5
102
}
  0
BLOCK_RECORD
  5
D6
330
1
100
AcDbSymbolTableRecord
100
AcDbBlockTableRecord
  2
MAKR2
340
0
102
{BLKREFS
331
DB
102
}
  0
BLOCK_RECORD
  5
DF
330
1
100
AcDbSymbolTableRecord
100
AcDbBlockTableRecord
  2
MAKR3
340
0
102
{BLKREFS
331
E4
102
}
  0
BLOCK_RECORD
  5
ED
330
1
100
AcDbSymbolTableRecord
100
AcDbBlockTableRecord
  2
MAKR4
340
0
102
{BLKREFS
331
F2
102
}
  0
BLOCK_RECORD
  5
F4
330
1
100
AcDbSymbolTableRecord
100
AcDbBlockTableRecord
  2
MAKR5
340
0
102
{BLKREFS
331
F9
102
}
  0
BLOCK_RECORD
  5
FF
330
1
100
AcDbSymbolTableRecord
100
AcDbBlockTableRecord
  2
MAKR6
340
0
102
{BLKREFS
331
104
102
}
  0
BLOCK_RECORD
  5
107
330
1
100
AcDbSymbolTableRecord
100
AcDbBlockTableRecord
  2
MAKR7
340
0
102
{BLKREFS
331
10C
102
}
  0
BLOCK_RECORD
  5
10F
330
1
100
AcDbSymbolTableRecord
100
AcDbBlockTableRecord
  2
MAKR8
340
0
102
{BLKREFS
331
114
102
}
  0
BLOCK_RECORD
  5
17D
330
1
100
AcDbSymbolTableRecord
100
AcDbBlockTableRecord
  2
_D1
340
0
  0
BLOCK_RECORD
  5
18B
330
1
100
AcDbSymbolTableRecord
100
AcDbBlockTableRecord
  2
_D2
340
0
  0
BLOCK_RECORD
  5
199
330
1
100
AcDbSymbolTableRecord
100
AcDbBlockTableRecord
  2
_D3
340
0
  0
BLOCK_RECORD
  5
1E0
330
1
100
AcDbSymbolTableRecord
100
AcDbBlockTableRecord
  2
_D4
340
0
  0
BLOCK_RECORD
  5
1FB
330
1
100
AcDbSymbolTableRecord
100
AcDbBlockTableRecord
  2
_D5
340
0
  0
BLOCK_RECORD
  5
221
330
1
100
AcDbSymbolTableRecord
100
AcDbBlockTableRecord
  2
_X0
340
0
102
{BLKREFS
331
224
102
}
  0
BLOCK_RECORD
  5
249
330
1
100
AcDbSymbolTableRecord
100
AcDbBlockTableRecord
  2
_D6
340
0
  0
BLOCK_RECORD
  5
255
330
1
100
AcDbSymbolTableRecord
100
AcDbBlockTableRecord
  2
_D7
340
0
  0
BLOCK_RECORD
  5
260
330
1
100
AcDbSymbolTableRecord
100
AcDbBlockTableRecord
  2
_D8
340
0
  0
BLOCK_RECORD
  5
26E
330
1
100
AcDbSymbolTableRecord
100
AcDbBlockTableRecord
  2
_D9
340
0
  0
BLOCK_RECORD
  5
27B
330
1
100
AcDbSymbolTableRecord
100
AcDbBlockTableRecord
  2
BALN0
340
0
102
{BLKREFS
331
283
102
}
  0
BLOCK_RECORD
  5
284
330
1
100
AcDbSymbolTableRecord
100
AcDbBlockTableRecord
  2
BALN1
340
0
102
{BLKREFS
331
28A
102
}
  0
BLOCK_RECORD
  5
28B
330
1
100
AcDbSymbolTableRecord
100
AcDbBlockTableRecord
  2
BALN2
340
0
102
{BLKREFS
331
291
102
}
  0
BLOCK_RECORD
  5
292
330
1
100
AcDbSymbolTableRecord
100
AcDbBlockTableRecord
  2
BALN3
340
0
102
{BLKREFS
331
298
102
}
  0
BLOCK_RECORD
  5
299
330
1
100
AcDbSymbolTableRecord
100
AcDbBlockTableRecord
  2
BALN4
340
0
102
{BLKREFS
331
29F
102
}
  0
BLOCK_RECORD
  5
2A0
330
1
100
AcDbSymbolTableRecord
100
AcDbBlockTableRecord
  2
BALN5
340
0
102
{BLKREFS
331
2A6
102
}
  0
BLOCK_RECORD
  5
2A7
330
1
100
AcDbSymbolTableRecord
100
AcDbBlockTableRecord
  2
BALN6
340
0
102
{BLKREFS
331
2AD
102
}
  0
BLOCK_RECORD
  5
2AE
330
1
100
AcDbSymbolTableRecord
100
AcDbBlockTableRecord
  2
BALN7
340
0
102
{BLKREFS
331
2B4
102
}
  0
BLOCK_RECORD
  5
2B5
330
1
100
AcDbSymbolTableRecord
100
AcDbBlockTableRecord
  2
BALN8
340
0
102
{BLKREFS
331
2BB
102
}
  0
BLOCK_RECORD
  5
2BC
330
1
100
AcDbSymbolTableRecord
100
AcDbBlockTableRecord
  2
_D10
340
0
  0
BLOCK_RECORD
  5
2C9
330
1
100
AcDbSymbolTableRecord
100
AcDbBlockTableRecord
  2
BLK0
340
0
102
{BLKREFS
331
30D
102
}
  0
BLOCK_RECORD
  5
311
330
1
100
AcDbSymbolTableRecord
100
AcDbBlockTableRecord
  2
MAKR9
340
0
102
{BLKREFS
331
316
102
}
  0
BLOCK_RECORD
  5
318
330
1
100
AcDbSymbolTableRecord
100
AcDbBlockTableRecord
  2
BALN9
340
0
102
{BLKREFS
331
31E
102
}
  0
BLOCK_RECORD
  5
324
330
1
100
AcDbSymbolTableRecord
100
AcDbBlockTableRecord
  2
MAKR10
340
0
102
{BLKREFS
331
329
102
}
  0
BLOCK_RECORD
  5
32C
330
1
100
AcDbSymbolTableRecord
100
AcDbBlockTableRecord
  2
BALN10
340
0
102
{BLKREFS
331
332
102
}
  0
BLOCK_RECORD
  5
341
330
1
100
AcDbSymbolTableRecord
100
AcDbBlockTableRecord
  2
BALN11
340
0
102
{BLKREFS
331
347
102
}
  0
BLOCK_RECORD
  5
348
330
1
100
AcDbSymbolTableRecord
100
AcDbBlockTableRecord
  2
BALN12
340
0
102
{BLKREFS
331
34E
102
}
  0
BLOCK_RECORD
  5
350
330
1
100
AcDbSymbolTableRecord
100
AcDbBlockTableRecord
  2
MAKR11
340
0
102
{BLKREFS
331
355
102
}
  0
BLOCK_RECORD
  5
359
330
1
100
AcDbSymbolTableRecord
100
AcDbBlockTableRecord
  2
MAKR12
340
0
102
{BLKREFS
331
35E
102
}
  0
BLOCK_RECORD
  5
368
330
1
100
AcDbSymbolTableRecord
100
AcDbBlockTableRecord
  2
BALN13
340
0
102
{BLKREFS
331
36D
102
}
  0
BLOCK_RECORD
  5
372
330
1
100
AcDbSymbolTableRecord
100
AcDbBlockTableRecord
  2
MAKR13
340
0
102
{BLKREFS
331
377
102
}
  0
ENDTAB
  0
ENDSEC
  0
SECTION
  2
BLOCKS
  0
BLOCK
  5
20
330
1F
100
AcDbEntity
  8
0
100
AcDbBlockBegin
  2
*Model_Space
 70
     0
 10
0.0
 20
0.0
 30
0.0
  3
*Model_Space
  1

  0
ENDBLK
  5
21
330
1F
100
AcDbEntity
  8
0
100
AcDbBlockEnd
  0
BLOCK
  5
1C
330
1B
100
AcDbEntity
 67
     1
  8
0
100
AcDbBlockBegin
  2
*Paper_Space
 70
     0
 10
0.0
 20
0.0
 30
0.0
  3
*Paper_Space
  1

  0
ENDBLK
  5
1D
330
1B
100
AcDbEntity
 67
     1
  8
0
100
AcDbBlockEnd
  0
BLOCK
  5
83
330
82
100
AcDbEntity
  8
0
100
AcDbBlockBegin
  2
_SMALL
 70
     0
 10
0.0
 20
0.0
 30
0.0
  3
_SMALL
  1

  0
CIRCLE
  5
85
330
82
100
AcDbEntity
  8
0
  6
ByBlock
 62
     0
370
    -2
100
AcDbCircle
 10
0.0
 20
0.0
 30
0.0
 40
0.1666666666
  0
CIRCLE
  5
378
330
82
100
AcDbEntity
  8
0
  6
ByBlock
 62
     0
370
    -2
100
AcDbCircle
 10
0.0
 20
0.0
 30
0.0
 40
0.1666666666
  0
ENDBLK
  5
84
330
82
100
AcDbEntity
  8
0
100
AcDbBlockEnd
  0
BLOCK
  5
87
330
86
100
AcDbEntity
  8
0
100
AcDbBlockBegin
  2
_OPEN30
 70
     0
 10
0.0
 20
0.0
 30
0.0
  3
_OPEN30
  1

  0
LINE
  5
89
330
86
100
AcDbEntity
  8
0
  6
ByBlock
 62
     0
370
    -2
100
AcDbLine
 10
-1.0
 20
0.26794919
 30
0.0
 11
0.0
 21
0.0
 31
0.0
  0
LINE
  5
8A
330
86
100
AcDbEntity
  8
0
  6
ByBlock
 62
     0
370
    -2
100
AcDbLine
 10
0.0
 20
0.0
 30
0.0
 11
-1.0
 21
-0.26794919
 31
0.0
  0
LINE
  5
8B
330
86
100
AcDbEntity
  8
0
  6
ByBlock
 62
     0
370
    -2
100
AcDbLine
 10
0.0
 20
0.0
 30
0.0
 11
-1.0
 21
0.0
 31
0.0
  0
LINE
  5
379
330
86
100
AcDbEntity
  8
0
  6
ByBlock
 62
     0
370
    -2
100
AcDbLine
 10
-1.0
 20
0.26794919
 30
0.0
 11
0.0
 21
0.0
 31
0.0
  0
LINE
  5
37A
330
86
100
AcDbEntity
  8
0
  6
ByBlock
 62
     0
370
    -2
100
AcDbLine
 10
0.0
 20
0.0
 30
0.0
 11
-1.0
 21
-0.26794919
 31
0.0
  0
LINE
  5
37B
330
86
100
AcDbEntity
  8
0
  6
ByBlock
 62
     0
370
    -2
100
AcDbLine
 10
0.0
 20
0.0
 30
0.0
 11
-1.0
 21
0.0
 31
0.0
  0
ENDBLK
  5
88
330
86
100
AcDbEntity
  8
0
100
AcDbBlockEnd
  0
BLOCK
  5
8D
330
8C
100
AcDbEntity
  8
0
100
AcDbBlockBegin
  2
_OBLIQUE
 70
     0
 10
0.0
 20
0.0
 30
0.0
  3
_OBLIQUE
  1

  0
LINE
  5
8F
330
8C
100
AcDbEntity
  8
0
  6
ByBlock
 62
     0
370
    -2
100
AcDbLine
 10
-0.5
 20
-0.5
 30
0.0
 11
0.5
 21
0.5
 31
0.0
  0
LINE
  5
37C
330
8C
100
AcDbEntity
  8
0
  6
ByBlock
 62
     0
370
    -2
100
AcDbLine
 10
-0.5
 20
-0.5
 30
0.0
 11
0.5
 21
0.5
 31
0.0
  0
ENDBLK
  5
8E
330
8C
100
AcDbEntity
  8
0
100
AcDbBlockEnd
  0
BLOCK
  5
91
330
90
100
AcDbEntity
  8
0
100
AcDbBlockBegin
  2
_DOT
 70
     0
 10
0.0
 20
0.0
 30
0.0
  3
_DOT
  1

  0
LWPOLYLINE
  5
93
330
90
100
AcDbEntity
  8
0
  6
ByBlock
 62
     0
370
    -2
100
AcDbPolyline
 90
        2
 70
     1
 43
0.5
 10
-0.25
 20
0.0
 42
1.0
 10
0.25
 20
0.0
 42
1.0
  0
LWPOLYLINE
  5
37D
330
90
100
AcDbEntity
  8
0
  6
ByBlock
 62
     0
370
    -2
100
AcDbPolyline
 90
        2
 70
     1
 43
0.5
 10
-0.25
 20
0.0
 42
1.0
 10
0.25
 20
0.0
 42
1.0
  0
ENDBLK
  5
92
330
90
100
AcDbEntity
  8
0
100
AcDbBlockEnd
  0
BLOCK
  5
95
330
94
100
AcDbEntity
  8
0
100
AcDbBlockBegin
  2
_DOTSMALL
 70
     0
 10
0.0
 20
0.0
 30
0.0
  3
_DOTSMALL
  1

  0
LWPOLYLINE
  5
97
330
94
100
AcDbEntity
  8
0
  6
ByBlock
 62
     0
370
    -2
100
AcDbPolyline
 90
        2
 70
     1
 43
0.5
 10
-0.0625
 20
0.0
 42
1.0
 10
0.0625
 20
0.0
 42
1.0
  0
LWPOLYLINE
  5
37E
330
94
100
AcDbEntity
  8
0
  6
ByBlock
 62
     0
370
    -2
100
AcDbPolyline
 90
        2
 70
     1
 43
0.5
 10
-0.0625
 20
0.0
 42
1.0
 10
0.0625
 20
0.0
 42
1.0
  0
ENDBLK
  5
96
330
94
100
AcDbEntity
  8
0
100
AcDbBlockEnd
  0
BLOCK
  5
99
330
98
100
AcDbEntity
  8
0
100
AcDbBlockBegin
  2
_DATUMFILLED
 70
     0
 10
0.0
 20
0.0
 30
0.0
  3
_DATUMFILLED
  1

  0
SOLID
  5
9B
330
98
100
AcDbEntity
  8
0
  6
ByBlock
 62
     0
370
    -2
100
AcDbTrace
 10
0.0
 20
0.57735027
 30
0.0
 11
-1.0
 21
0.0
 31
0.0
 12
0.0
 22
-0.57735027
 32
0.0
 13
0.0
 23
-0.57735027
 33
0.0
  0
SOLID
  5
37F
330
98
100
AcDbEntity
  8
0
  6
ByBlock
 62
     0
370
    -2
100
AcDbTrace
 10
0.0
 20
0.57735027
 30
0.0
 11
-1.0
 21
0.0
 31
0.0
 12
0.0
 22
-0.57735027
 32
0.0
 13
0.0
 23
-0.57735027
 33
0.0
  0
ENDBLK
  5
9A
330
98
100
AcDbEntity
  8
0
100
AcDbBlockEnd
  0
BLOCK
  5
9D
330
9C
100
AcDbEntity
  8
0
100
AcDbBlockBegin
  2
DATUMFILLED2
 70
     0
 10
0.0
 20
0.0
 30
0.0
  3
DATUMFILLED2
  1

  0
SOLID
  5
9F
330
9C
100
AcDbEntity
  8
0
  6
ByBlock
 62
     0
370
    -2
100
AcDbTrace
 10
0.0
 20
1.0
 30
0.0
 11
-1.0
 21
0.0
 31
0.0
 12
0.0
 22
-1.0
 32
0.0
 13
0.0
 23
-1.0
 33
0.0
  0
SOLID
  5
380
330
9C
100
AcDbEntity
  8
0
  6
ByBlock
 62
     0
370
    -2
100
AcDbTrace
 10
0.0
 20
1.0
 30
0.0
 11
-1.0
 21
0.0
 31
0.0
 12
0.0
 22
-1.0
 32
0.0
 13
0.0
 23
-1.0
 33
0.0
  0
ENDBLK
  5
9E
330
9C
100
AcDbEntity
  8
0
100
AcDbBlockEnd
  0
BLOCK
  5
A1
330
A0
100
AcDbEntity
  8
0
100
AcDbBlockBegin
  2
_DATUMBLANK
 70
     0
 10
0.0
 20
0.0
 30
0.0
  3
_DATUMBLANK
  1

  0
LINE
  5
A3
330
A0
100
AcDbEntity
  8
0
  6
ByBlock
 62
     0
370
    -2
100
AcDbLine
 10
0.0
 20
0.57735027
 30
0.0
 11
-1.0
 21
0.0
 31
0.0
  0
LINE
  5
A4
330
A0
100
AcDbEntity
  8
0
  6
ByBlock
 62
     0
370
    -2
100
AcDbLine
 10
-1.0
 20
0.0
 30
0.0
 11
0.0
 21
-0.57735027
 31
0.0
  0
LINE
  5
A5
330
A0
100
AcDbEntity
  8
0
  6
ByBlock
 62
     0
370
    -2
100
AcDbLine
 10
0.0
 20
-0.57735027
 30
0.0
 11
0.0
 21
0.57735027
 31
0.0
  0
LINE
  5
381
330
A0
100
AcDbEntity
  8
0
  6
ByBlock
 62
     0
370
    -2
100
AcDbLine
 10
0.0
 20
0.57735027
 30
0.0
 11
-1.0
 21
0.0
 31
0.0
  0
LINE
  5
382
330
A0
100
AcDbEntity
  8
0
  6
ByBlock
 62
     0
370
    -2
100
AcDbLine
 10
-1.0
 20
0.0
 30
0.0
 11
0.0
 21
-0.57735027
 31
0.0
  0
LINE
  5
383
330
A0
100
AcDbEntity
  8
0
  6
ByBlock
 62
     0
370
    -2
100
AcDbLine
 10
0.0
 20
-0.57735027
 30
0.0
 11
0.0
 21
0.57735027
 31
0.0
  0
ENDBLK
  5
A2
330
A0
100
AcDbEntity
  8
0
100
AcDbBlockEnd
  0
BLOCK
  5
A7
330
A6
100
AcDbEntity
  8
0
100
AcDbBlockBegin
  2
DATUMBLANK2
 70
     0
 10
0.0
 20
0.0
 30
0.0
  3
DATUMBLANK2
  1

  0
LINE
  5
A9
330
A6
100
AcDbEntity
  8
0
  6
ByBlock
 62
     0
370
    -2
100
AcDbLine
 10
0.0
 20
1.0
 30
0.0
 11
-1.0
 21
0.0
 31
0.0
  0
LINE
  5
AA
330
A6
100
AcDbEntity
  8
0
  6
ByBlock
 62
     0
370
    -2
100
AcDbLine
 10
-1.0
 20
0.0
 30
0.0
 11
0.0
 21
-1.0
 31
0.0
  0
LINE
  5
AB
330
A6
100
AcDbEntity
  8
0
  6
ByBlock
 62
     0
370
    -2
100
AcDbLine
 10
0.0
 20
-1.0
 30
0.0
 11
0.0
 21
1.0
 31
0.0
  0
LINE
  5
384
330
A6
100
AcDbEntity
  8
0
  6
ByBlock
 62
     0
370
    -2
100
AcDbLine
 10
0.0
 20
1.0
 30
0.0
 11
-1.0
 21
0.0
 31
0.0
  0
LINE
  5
385
330
A6
100
AcDbEntity
  8
0
  6
ByBlock
 62
     0
370
    -2
100
AcDbLine
 10
-1.0
 20
0.0
 30
0.0
 11
0.0
 21
-1.0
 31
0.0
  0
LINE
  5
386
330
A6
100
AcDbEntity
  8
0
  6
ByBlock
 62
     0
370
    -2
100
AcDbLine
 10
0.0
 20
-1.0
 30
0.0
 11
0.0
 21
1.0
 31
0.0
  0
ENDBLK
  5
A8
330
A6
100
AcDbEntity
  8
0
100
AcDbBlockEnd
  0
BLOCK
  5
AD
330
AC
100
AcDbEntity
  8
0
100
AcDbBlockBegin
  2
_NONE
 70
     0
 10
0.0
 20
0.0
 30
0.0
  3
_NONE
  1

  0
ENDBLK
  5
AE
330
AC
100
AcDbEntity
  8
0
100
AcDbBlockEnd
  0
BLOCK
  5
BA
330
B9
100
AcDbEntity
  8
0
100
AcDbBlockBegin
  2
MAKR0
 70
     0
 10
1517.61192423334
 20
-224.4160039959036
 30
0.0
  3
MAKR0
  1

  0
CIRCLE
  5
BC
330
B9
100
AcDbEntity
  8
1
  6
Continuous
 62
     3
100
AcDbCircle
 10
1517.61192423334
 20
-224.4160039959036
 30
0.0
 40
7.0
  0
MTEXT
  5
BE
330
B9
100
AcDbEntity
  8
1
  6
Continuous
 62
     2
100
AcDbMText
 10
1514.61192423334
 20
-228.4160039959036
 30
0.0
 40
8.0
 41
0.0
 71
     7
 72
     5
  1
１
  7
MTSTANDARD1
 73
     1
 44
0.8125
  0
ENDBLK
  5
BB
330
B9
100
AcDbEntity
  8
0
100
AcDbBlockEnd
  0
BLOCK
  5
C1
330
C0
100
AcDbEntity
  8
0
100
AcDbBlockBegin
  2
MAKR1
 70
     0
 10
1517.61192423334
 20
-240.4160039959034
 30
0.0
  3
MAKR1
  1

  0
CIRCLE
  5
C3
330
C0
100
AcDbEntity
  8
1
  6
Continuous
 62
     3
100
AcDbCircle
 10
1517.61192423334
 20
-240.4160039959034
 30
0.0
 40
7.0
  0
MTEXT
  5
C4
330
C0
100
AcDbEntity
  8
1
  6
Continuous
 62
     2
100
AcDbMText
 10
1514.61192423334
 20
-244.4160039959034
 30
0.0
 40
8.0
 41
0.0
 71
     7
 72
     5
  1
２
  7
MTSTANDARD1
 73
     1
 44
0.8125
  0
ENDBLK
  5
C2
330
C0
100
AcDbEntity
  8
0
100
AcDbBlockEnd
  0
BLOCK
  5
D7
330
D6
100
AcDbEntity
  8
0
100
AcDbBlockBegin
  2
MAKR2
 70
     0
 10
1517.611924233334
 20
-256.4160039959034
 30
0.0
  3
MAKR2
  1

  0
CIRCLE
  5
D9
330
D6
100
AcDbEntity
  8
1
  6
Continuous
 62
     3
100
AcDbCircle
 10
1517.611924233334
 20
-256.4160039959034
 30
0.0
 40
7.0
  0
MTEXT
  5
DA
330
D6
100
AcDbEntity
  8
1
  6
Continuous
 62
     2
100
AcDbMText
 10
1514.611924233334
 20
-260.4160039959034
 30
0.0
 40
8.0
 41
0.0
 71
     7
 72
     5
  1
３
  7
MTSTANDARD1
 73
     1
 44
0.8125
  0
ENDBLK
  5
D8
330
D6
100
AcDbEntity
  8
0
100
AcDbBlockEnd
  0
BLOCK
  5
E0
330
DF
100
AcDbEntity
  8
0
100
AcDbBlockBegin
  2
MAKR3
 70
     0
 10
1517.611924233333
 20
-272.4160039959034
 30
0.0
  3
MAKR3
  1

  0
CIRCLE
  5
E2
330
DF
100
AcDbEntity
  8
1
  6
Continuous
 62
     3
100
AcDbCircle
 10
1517.611924233333
 20
-272.4160039959034
 30
0.0
 40
7.0
  0
MTEXT
  5
E3
330
DF
100
AcDbEntity
  8
1
  6
Continuous
 62
     2
100
AcDbMText
 10
1514.611924233333
 20
-276.4160039959034
 30
0.0
 40
8.0
 41
0.0
 71
     7
 72
     5
  1
４
  7
MTSTANDARD1
 73
     1
 44
0.8125
  0
ENDBLK
  5
E1
330
DF
100
AcDbEntity
  8
0
100
AcDbBlockEnd
  0
BLOCK
  5
EE
330
ED
100
AcDbEntity
  8
0
100
AcDbBlockBegin
  2
MAKR4
 70
     0
 10
1517.611924233333
 20
-288.4160039959034
 30
0.0
  3
MAKR4
  1

  0
CIRCLE
  5
F0
330
ED
100
AcDbEntity
  8
1
  6
Continuous
 62
     3
100
AcDbCircle
 10
1517.611924233333
 20
-288.4160039959034
 30
0.0
 40
7.0
  0
MTEXT
  5
F1
330
ED
100
AcDbEntity
  8
1
  6
Continuous
 62
     2
100
AcDbMText
 10
1514.611924233333
 20
-292.4160039959034
 30
0.0
 40
8.0
 41
0.0
 71
     7
 72
     5
  1
５
  7
MTSTANDARD1
 73
     1
 44
0.8125
  0
ENDBLK
  5
EF
330
ED
100
AcDbEntity
  8
0
100
AcDbBlockEnd
  0
BLOCK
  5
F5
330
F4
100
AcDbEntity
  8
0
100
AcDbBlockBegin
  2
MAKR5
 70
     0
 10
1517.611924233333
 20
-304.416003995266
 30
0.0
  3
MAKR5
  1

  0
CIRCLE
  5
F7
330
F4
100
AcDbEntity
  8
1
  6
Continuous
 62
     3
100
AcDbCircle
 10
1517.611924233333
 20
-304.416003995266
 30
0.0
 40
7.0
  0
MTEXT
  5
F8
330
F4
100
AcDbEntity
  8
1
  6
Continuous
 62
     2
100
AcDbMText
 10
1514.611924233333
 20
-308.416003995266
 30
0.0
 40
8.0
 41
0.0
 71
     7
 72
     5
  1
６
  7
MTSTANDARD1
 73
     1
 44
0.8125
  0
ENDBLK
  5
F6
330
F4
100
AcDbEntity
  8
0
100
AcDbBlockEnd
  0
BLOCK
  5
100
330
FF
100
AcDbEntity
  8
0
100
AcDbBlockBegin
  2
MAKR6
 70
     0
 10
1517.611924233333
 20
-320.4160039959032
 30
0.0
  3
MAKR6
  1

  0
CIRCLE
  5
102
330
FF
100
AcDbEntity
  8
1
  6
Continuous
 62
     3
100
AcDbCircle
 10
1517.611924233333
 20
-320.4160039959032
 30
0.0
 40
7.0
  0
MTEXT
  5
103
330
FF
100
AcDbEntity
  8
1
  6
Continuous
 62
     2
100
AcDbMText
 10
1514.611924233333
 20
-324.4160039959032
 30
0.0
 40
8.0
 41
0.0
 71
     7
 72
     5
  1
７
  7
MTSTANDARD1
 73
     1
 44
0.8125
  0
ENDBLK
  5
101
330
FF
100
AcDbEntity
  8
0
100
AcDbBlockEnd
  0
BLOCK
  5
108
330
107
100
AcDbEntity
  8
0
100
AcDbBlockBegin
  2
MAKR7
 70
     0
 10
1517.611924235496
 20
-336.4160039965405
 30
0.0
  3
MAKR7
  1

  0
CIRCLE
  5
10A
330
107
100
AcDbEntity
  8
1
  6
Continuous
 62
     3
100
AcDbCircle
 10
1517.611924235496
 20
-336.4160039965405
 30
0.0
 40
7.0
  0
MTEXT
  5
10B
330
107
100
AcDbEntity
  8
1
  6
Continuous
 62
     2
100
AcDbMText
 10
1514.611924235496
 20
-340.4160039965405
 30
0.0
 40
8.0
 41
0.0
 71
     7
 72
     5
  1
８
  7
MTSTANDARD1
 73
     1
 44
0.8125
  0
ENDBLK
  5
109
330
107
100
AcDbEntity
  8
0
100
AcDbBlockEnd
  0
BLOCK
  5
110
330
10F
100
AcDbEntity
  8
0
100
AcDbBlockBegin
  2
MAKR8
 70
     0
 10
1517.611924233332
 20
-352.4160039971778
 30
0.0
  3
MAKR8
  1

  0
CIRCLE
  5
112
330
10F
100
AcDbEntity
  8
1
  6
Continuous
 62
     3
100
AcDbCircle
 10
1517.611924233332
 20
-352.4160039971778
 30
0.0
 40
7.0
  0
MTEXT
  5
113
330
10F
100
AcDbEntity
  8
1
  6
Continuous
 62
     2
100
AcDbMText
 10
1514.611924233332
 20
-356.4160039971778
 30
0.0
 40
8.0
 41
0.0
 71
     7
 72
     5
  1
９
  7
MTSTANDARD1
 73
     1
 44
0.8125
  0
ENDBLK
  5
111
330
10F
100
AcDbEntity
  8
0
100
AcDbBlockEnd
  0
BLOCK
  5
17E
330
17D
100
AcDbEntity
  8
0
100
AcDbBlockBegin
  2
_D1
 70
     0
 10
0.0
 20
0.0
 30
0.0
  3
_D1
  1

  0
LINE
  5
180
330
17D
100
AcDbEntity
  8
1
  6
Continuous
 62
     7
100
AcDbLine
 10
1647.68369806815
 20
-187.6637504148408
 30
0.0
 11
1777.68369806815
 21
-187.6637504148408
 31
0.0
  0
INSERT
  5
181
330
17D
100
AcDbEntity
  8
1
  6
Continuous
 62
     7
100
AcDbBlockReference
  2
_OPEN30
 10
1647.68369806815
 20
-187.6637504148408
 30
0.0
 41
3.939231012048822
 42
3.939231012048822
 43
3.939231012048822
 50
180.0
  0
INSERT
  5
182
330
17D
100
AcDbEntity
  8
1
  6
Continuous
 62
     7
100
AcDbBlockReference
  2
_OPEN30
 10
1777.68369806815
 20
-187.6637504148408
 30
0.0
 41
3.939231012048822
 42
3.939231012048822
 43
3.939231012048822
  0
LINE
  5
183
330
17D
100
AcDbEntity
  8
1
  6
Continuous
 62
     7
100
AcDbLine
 10
1647.68369806815
 20
-149.6637504148408
 30
0.0
 11
1647.68369806815
 21
-189.6637504148408
 31
0.0
  0
LINE
  5
184
330
17D
100
AcDbEntity
  8
1
  6
Continuous
 62
     7
100
AcDbLine
 10
1777.68369806815
 20
-149.6637504148408
 30
0.0
 11
1777.68369806815
 21
-189.6637504148408
 31
0.0
  0
MTEXT
  5
185
330
17D
100
AcDbEntity
  8
1
  6
Continuous
 62
     2
100
AcDbMText
 10
1702.68369806815
 20
-187.6637504148408
 30
0.0
 40
8.0
 41
0.0
 71
     7
 72
     5
  1
１３０
  7
MTSTANDARD1
 73
     1
 44
0.9375
  0
POINT
  5
186
330
17D
100
AcDbEntity
  8
DEFPOINTS
  6
Continuous
 62
     7
100
AcDbPoint
 10
1647.68369806815
 20
-147.6637504148408
 30
0.0
  0
POINT
  5
187
330
17D
100
AcDbEntity
  8
DEFPOINTS
  6
Continuous
 62
     7
100
AcDbPoint
 10
1777.68369806815
 20
-147.6637504148408
 30
0.0
  0
POINT
  5
188
330
17D
100
AcDbEntity
  8
DEFPOINTS
  6
Continuous
 62
     7
100
AcDbPoint
 10
1777.68369806815
 20
-187.6637504148408
 30
0.0
  0
ENDBLK
  5
17F
330
17D
100
AcDbEntity
  8
0
100
AcDbBlockEnd
  0
BLOCK
  5
18C
330
18B
100
AcDbEntity
  8
0
100
AcDbBlockBegin
  2
_D2
 70
     0
 10
0.0
 20
0.0
 30
0.0
  3
_D2
  1

  0
LINE
  5
18E
330
18B
100
AcDbEntity
  8
1
  6
Continuous
 62
     7
100
AcDbLine
 10
1756.68369806815
 20
-87.66375041484088
 30
0.0
 11
1756.68369806815
 21
-132.6637504148408
 31
0.0
  0
INSERT
  5
18F
330
18B
100
AcDbEntity
  8
1
  6
Continuous
 62
     7
100
AcDbBlockReference
  2
_OPEN30
 10
1756.68369806815
 20
-87.66375041484088
 30
0.0
 41
3.939231012048836
 42
3.939231012048836
 43
3.939231012048836
 50
90.0
  0
INSERT
  5
190
330
18B
100
AcDbEntity
  8
1
  6
Continuous
 62
     7
100
AcDbBlockReference
  2
_OPEN30
 10
1756.68369806815
 20
-132.6637504148408
 30
0.0
 41
3.939231012048822
 42
3.939231012048822
 43
3.939231012048822
 50
270.0
  0
LINE
  5
191
330
18B
100
AcDbEntity
  8
1
  6
Continuous
 62
     7
100
AcDbLine
 10
1770.68369806815
 20
-87.66375041484088
 30
0.0
 11
1754.683698068151
 21
-87.66375041484088
 31
0.0
  0
LINE
  5
192
330
18B
100
AcDbEntity
  8
1
  6
Continuous
 62
     7
100
AcDbLine
 10
1737.683698068151
 20
-132.6637504148408
 30
0.0
 11
1758.68369806815
 21
-132.6637504148408
 31
0.0
  0
MTEXT
  5
193
330
18B
100
AcDbEntity
  8
1
  6
Continuous
 62
     2
100
AcDbMText
 10
1756.68369806815
 20
-116.6637504148408
 30
0.0
 40
8.0
 41
0.0
 71
     7
 72
     5
  1
５０
  7
MTSTANDARD1
 11
0.0
 21
1.0
 31
0.0
 73
     1
 44
0.9375
  0
POINT
  5
194
330
18B
100
AcDbEntity
  8
DEFPOINTS
  6
Continuous
 62
     7
100
AcDbPoint
 10
1772.68369806815
 20
-87.66375041484088
 30
0.0
  0
POINT
  5
195
330
18B
100
AcDbEntity
  8
DEFPOINTS
  6
Continuous
 62
     7
100
AcDbPoint
 10
1735.68369806815
 20
-132.6637504148408
 30
0.0
  0
POINT
  5
196
330
18B
100
AcDbEntity
  8
DEFPOINTS
  6
Continuous
 62
     7
100
AcDbPoint
 10
1756.68369806815
 20
-132.6637504148408
 30
0.0
  0
ENDBLK
  5
18D
330
18B
100
AcDbEntity
  8
0
100
AcDbBlockEnd
  0
BLOCK
  5
19A
330
199
100
AcDbEntity
  8
0
100
AcDbBlockBegin
  2
_D3
 70
     0
 10
0.0
 20
0.0
 30
0.0
  3
_D3
  1

  0
LINE
  5
19C
330
199
100
AcDbEntity
  8
1
  6
Continuous
 62
     7
100
AcDbLine
 10
1848.68369806815
 20
-63.16375041484076
 30
0.0
 11
1848.68369806815
 21
-122.1637504148408
 31
0.0
  0
INSERT
  5
19D
330
199
100
AcDbEntity
  8
1
  6
Continuous
 62
     7
100
AcDbBlockReference
  2
_OPEN30
 10
1848.68369806815
 20
-63.16375041484076
 30
0.0
 41
3.939231012048836
 42
3.939231012048836
 43
3.939231012048836
 50
90.0
  0
INSERT
  5
19E
330
199
100
AcDbEntity
  8
1
  6
Continuous
 62
     7
100
AcDbBlockReference
  2
_OPEN30
 10
1848.68369806815
 20
-122.1637504148408
 30
0.0
 41
3.939231012048836
 42
3.939231012048836
 43
3.939231012048836
 50
270.0
  0
MTEXT
  5
19F
330
199
100
AcDbEntity
  8
1
  6
Continuous
 62
     2
100
AcDbMText
 10
1848.68369806815
 20
-105.6637504148408
 30
0.0
 40
8.0
 41
0.0
 71
     7
 72
     5
  1
６２．３
  7
MTSTANDARD1
 11
0.0
 21
1.0
 31
0.0
 73
     1
 44
0.9375
  0
POINT
  5
1A0
330
199
100
AcDbEntity
  8
DEFPOINTS
  6
Continuous
 62
     7
100
AcDbPoint
 10
1843.535336768793
 20
-63.16375041484076
 30
0.0
  0
POINT
  5
1A1
330
199
100
AcDbEntity
  8
DEFPOINTS
  6
Continuous
 62
     7
100
AcDbPoint
 10
1843.13473503839
 20
-122.1637504148408
 30
0.0
  0
POINT
  5
1A2
330
199
100
AcDbEntity
  8
DEFPOINTS
  6
Continuous
 62
     7
100
AcDbPoint
 10
1848.68369806815
 20
-122.1637504148408
 30
0.0
  0
ENDBLK
  5
19B
330
199
100
AcDbEntity
  8
0
100
AcDbBlockEnd
  0
BLOCK
  5
1E1
330
1E0
100
AcDbEntity
  8
0
100
AcDbBlockBegin
  2
_D4
 70
     0
 10
0.0
 20
0.0
 30
0.0
  3
_D4
  1

  0
LINE
  5
1E3
330
1E0
100
AcDbEntity
  8
1
  6
Continuous
 62
     7
100
AcDbLine
 10
1922.683698068152
 20
242.8751292980973
 30
0.0
 11
1922.683698068152
 21
114.8751292980973
 31
0.0
  0
INSERT
  5
1E4
330
1E0
100
AcDbEntity
  8
1
  6
Continuous
 62
     7
100
AcDbBlockReference
  2
_OPEN30
 10
1922.683698068152
 20
242.8751292980973
 30
0.0
 41
3.939231012048822
 42
3.939231012048822
 43
3.939231012048822
 50
90.0
  0
INSERT
  5
1E5
330
1E0
100
AcDbEntity
  8
1
  6
Continuous
 62
     7
100
AcDbBlockReference
  2
_OPEN30
 10
1922.683698068152
 20
114.8751292980973
 30
0.0
 41
3.939231012048836
 42
3.939231012048836
 43
3.939231012048836
 50
270.0
  0
LINE
  5
1E6
330
1E0
100
AcDbEntity
  8
1
  6
Continuous
 62
     7
100
AcDbLine
 10
1806.683698068151
 20
242.8751292980973
 30
0.0
 11
1924.683698068152
 21
242.8751292980973
 31
0.0
  0
LINE
  5
1E7
330
1E0
100
AcDbEntity
  8
1
  6
Continuous
 62
     7
100
AcDbLine
 10
1806.683698068151
 20
114.8751292980973
 30
0.0
 11
1924.683698068152
 21
114.8751292980973
 31
0.0
  0
MTEXT
  5
1E8
330
1E0
100
AcDbEntity
  8
1
  6
Continuous
 62
     2
100
AcDbMText
 10
1922.683698068152
 20
168.8751292980973
 30
0.0
 40
8.0
 41
0.0
 71
     7
 72
     5
  1
１３０
  7
MTSTANDARD1
 11
0.0
 21
1.0
 31
0.0
 73
     1
 44
0.9375
  0
POINT
  5
1E9
330
1E0
100
AcDbEntity
  8
DEFPOINTS
  6
Continuous
 62
     7
100
AcDbPoint
 10
1804.68369806815
 20
242.8751292980973
 30
0.0
  0
POINT
  5
1EA
330
1E0
100
AcDbEntity
  8
DEFPOINTS
  6
Continuous
 62
     7
100
AcDbPoint
 10
1804.68369806815
 20
114.8751292980973
 30
0.0
  0
POINT
  5
1EB
330
1E0
100
AcDbEntity
  8
DEFPOINTS
  6
Continuous
 62
     7
100
AcDbPoint
 10
1922.683698068152
 20
114.8751292980973
 30
0.0
  0
ENDBLK
  5
1E2
330
1E0
100
AcDbEntity
  8
0
100
AcDbBlockEnd
  0
BLOCK
  5
1FC
330
1FB
100
AcDbEntity
  8
0
100
AcDbBlockBegin
  2
_D5
 70
     0
 10
0.0
 20
0.0
 30
0.0
  3
_D5
  1

  0
LINE
  5
1FE
330
1FB
100
AcDbEntity
  8
1
  6
ByBlock
 62
     3
100
AcDbLine
 10
1929.552241454526
 20
-32.66375041484076
 30
0.0
 11
1929.552241454526
 21
-92.66375041484076
 31
0.0
  0
INSERT
  5
1FF
330
1FB
100
AcDbEntity
  8
1
  6
ByBlock
 62
     3
100
AcDbBlockReference
  2
_OPEN30
 10
1929.552241454526
 20
-32.66375041484076
 30
0.0
 41
3.939231012048829
 42
3.939231012048829
 43
3.939231012048829
 50
90.0
  0
INSERT
  5
200
330
1FB
100
AcDbEntity
  8
1
  6
ByBlock
 62
     3
100
AcDbBlockReference
  2
_OPEN30
 10
1929.552241454526
 20
-92.66375041484076
 30
0.0
 41
3.939231012048836
 42
3.939231012048836
 43
3.939231012048836
 50
270.0
  0
LINE
  5
201
330
1FB
100
AcDbEntity
  8
1
  6
ByBlock
 62
     3
100
AcDbLine
 10
1783.68369806815
 20
-32.66375041484076
 30
0.0
 11
1931.552241454526
 21
-32.66375041484077
 31
0.0
  0
LINE
  5
202
330
1FB
100
AcDbEntity
  8
1
  6
ByBlock
 62
     3
100
AcDbLine
 10
1916.552241454526
 20
-92.66375041484076
 30
0.0
 11
1931.552241454526
 21
-92.66375041484076
 31
0.0
  0
MTEXT
  5
203
330
1FB
100
AcDbEntity
  8
1
  6
Continuous
 62
     2
100
AcDbMText
 10
1929.552241454526
 20
-69.16375041484076
 30
0.0
 40
8.0
 41
0.0
 71
     7
 72
     5
  1
６０
  7
MTSTANDARD1
 11
0.0
 21
1.0
 31
0.0
 73
     1
 44
0.9375
  0
POINT
  5
204
330
1FB
100
AcDbEntity
  8
DEFPOINTS
  6
ByBlock
 62
     3
100
AcDbPoint
 10
1781.68369806815
 20
-32.66375041484076
 30
0.0
  0
POINT
  5
205
330
1FB
100
AcDbEntity
  8
DEFPOINTS
  6
ByBlock
 62
     3
100
AcDbPoint
 10
1914.552241454526
 20
-92.66375041484076
 30
0.0
  0
POINT
  5
206
330
1FB
100
AcDbEntity
  8
DEFPOINTS
  6
ByBlock
 62
     3
100
AcDbPoint
 10
1929.552241454526
 20
-92.66375041484076
 30
0.0
  0
ENDBLK
  5
1FD
330
1FB
100
AcDbEntity
  8
0
100
AcDbBlockEnd
  0
BLOCK
  5
222
330
221
100
AcDbEntity
  8
0
100
AcDbBlockBegin
  2
_X0
 70
     0
 10
609.9107142857142
 20
37.00000000000017
 30
0.0
  3
_X0
  1

  0
ENDBLK
  5
223
330
221
100
AcDbEntity
  8
0
100
AcDbBlockEnd
  0
BLOCK
  5
24A
330
249
100
AcDbEntity
  8
0
100
AcDbBlockBegin
  2
_D6
 70
     0
 10
0.0
 20
0.0
 30
0.0
  3
_D6
  1

  0
LINE
  5
24C
330
249
100
AcDbEntity
  8
1
  6
ByBlock
 62
     3
100
AcDbLine
 10
1731.68369806815
 20
6.336249585199141
 30
0.0
 11
1699.18369806815
 21
6.336249585199141
 31
0.0
  0
INSERT
  5
24D
330
249
100
AcDbEntity
  8
1
  6
ByBlock
 62
     3
100
AcDbBlockReference
  2
_OPEN30
 10
1727.68369806815
 20
6.336249585199141
 30
0.0
 41
3.939231012048822
 42
3.939231012048822
 43
3.939231012048822
 50
180.0
  0
LINE
  5
24E
330
249
100
AcDbEntity
  8
1
  6
ByBlock
 62
     3
100
AcDbLine
 10
1727.68369806815
 20
-24.66375041480097
 30
0.0
 11
1727.68369806815
 21
8.336249585199141
 31
0.0
  0
MTEXT
  5
24F
330
249
100
AcDbEntity
  8
1
  6
Continuous
 62
     2
100
AcDbMText
 10
1698.285032292286
 20
8.336249585199141
 30
0.0
 40
8.0
 41
0.0
 71
     7
 72
     5
  1
３０
  7
MTSTANDARD1
 73
     1
 44
0.9375
  0
POINT
  5
250
330
249
100
AcDbEntity
  8
DEFPOINTS
  6
ByBlock
 62
     3
100
AcDbPoint
 10
1727.68369806815
 20
6.336249585199141
 30
0.0
  0
POINT
  5
251
330
249
100
AcDbEntity
  8
DEFPOINTS
  6
ByBlock
 62
     3
100
AcDbPoint
 10
1727.68369806815
 20
-26.66375041480097
 30
0.0
  0
POINT
  5
252
330
249
100
AcDbEntity
  8
DEFPOINTS
  6
ByBlock
 62
     3
100
AcDbPoint
 10
1697.683698068151
 20
-26.66375041480097
 30
0.0
  0
ENDBLK
  5
24B
330
249
100
AcDbEntity
  8
0
100
AcDbBlockEnd
  0
BLOCK
  5
256
330
255
100
AcDbEntity
  8
0
100
AcDbBlockBegin
  2
_D7
 70
     0
 10
0.0
 20
0.0
 30
0.0
  3
_D7
  1

  0
LINE
  5
258
330
255
100
AcDbEntity
  8
1
  6
ByBlock
 62
     3
100
AcDbLine
 10
1764.18369806815
 20
20.33624958519914
 30
0.0
 11
1695.683698068151
 21
20.33624958519914
 31
0.0
  0
INSERT
  5
259
330
255
100
AcDbEntity
  8
1
  6
ByBlock
 62
     3
100
AcDbBlockReference
  2
_OPEN30
 10
1764.18369806815
 20
20.33624958519914
 30
0.0
 41
3.939231012048822
 42
3.939231012048822
 43
3.939231012048822
  0
LINE
  5
25A
330
255
100
AcDbEntity
  8
1
  6
ByBlock
 62
     3
100
AcDbLine
 10
1764.18369806815
 20
-17.66375041480086
 30
0.0
 11
1764.18369806815
 21
22.33624958519914
 31
0.0
  0
MTEXT
  5
25B
330
255
100
AcDbEntity
  8
1
  6
Continuous
 62
     2
100
AcDbMText
 10
1691.727484250016
 20
20.33624958519914
 30
0.0
 40
8.0
 41
0.0
 71
     7
 72
     5
  1
１０３
  7
MTSTANDARD1
 73
     1
 44
0.9375
  0
POINT
  5
25C
330
255
100
AcDbEntity
  8
DEFPOINTS
  6
ByBlock
 62
     3
100
AcDbPoint
 10
1764.18369806815
 20
20.33624958519914
 30
0.0
  0
POINT
  5
25D
330
255
100
AcDbEntity
  8
DEFPOINTS
  6
ByBlock
 62
     3
100
AcDbPoint
 10
1764.18369806815
 20
-19.66375041480086
 30
0.0
  0
POINT
  5
25E
330
255
100
AcDbEntity
  8
DEFPOINTS
  6
ByBlock
 62
     3
100
AcDbPoint
 10
1661.183698068151
 20
-19.66375041480086
 30
0.0
  0
ENDBLK
  5
257
330
255
100
AcDbEntity
  8
0
100
AcDbBlockEnd
  0
BLOCK
  5
261
330
260
100
AcDbEntity
  8
0
100
AcDbBlockBegin
  2
_D8
 70
     0
 10
0.0
 20
0.0
 30
0.0
  3
_D8
  1

  0
LINE
  5
263
330
260
100
AcDbEntity
  8
1
  6
ByBlock
 62
     3
100
AcDbLine
 10
1787.68369806815
 20
34.33624958519914
 30
0.0
 11
1637.68369806815
 21
34.33624958519914
 31
0.0
  0
INSERT
  5
264
330
260
100
AcDbEntity
  8
1
  6
ByBlock
 62
     3
100
AcDbBlockReference
  2
_OPEN30
 10
1787.68369806815
 20
34.33624958519914
 30
0.0
 41
3.939231012048822
 42
3.939231012048822
 43
3.939231012048822
  0
INSERT
  5
265
330
260
100
AcDbEntity
  8
1
  6
ByBlock
 62
     3
100
AcDbBlockReference
  2
_OPEN30
 10
1637.68369806815
 20
34.33624958519914
 30
0.0
 41
3.939231012048822
 42
3.939231012048822
 43
3.939231012048822
 50
180.0
  0
LINE
  5
266
330
260
100
AcDbEntity
  8
1
  6
ByBlock
 62
     3
100
AcDbLine
 10
1787.68369806815
 20
-17.66375041480597
 30
0.0
 11
1787.683698068151
 21
36.33624958519915
 31
0.0
  0
LINE
  5
267
330
260
100
AcDbEntity
  8
1
  6
ByBlock
 62
     3
100
AcDbLine
 10
1637.68369806815
 20
-17.66375041480597
 30
0.0
 11
1637.68369806815
 21
36.33624958519915
 31
0.0
  0
MTEXT
  5
268
330
260
100
AcDbEntity
  8
1
  6
Continuous
 62
     2
100
AcDbMText
 10
1691.727484250016
 20
34.33624958519914
 30
0.0
 40
8.0
 41
0.0
 71
     7
 72
     5
  1
１５０
  7
MTSTANDARD1
 73
     1
 44
0.9375
  0
POINT
  5
269
330
260
100
AcDbEntity
  8
DEFPOINTS
  6
ByBlock
 62
     3
100
AcDbPoint
 10
1787.68369806815
 20
-19.66375041480597
 30
0.0
  0
POINT
  5
26A
330
260
100
AcDbEntity
  8
DEFPOINTS
  6
ByBlock
 62
     3
100
AcDbPoint
 10
1637.68369806815
 20
-19.66375041480597
 30
0.0
  0
POINT
  5
26B
330
260
100
AcDbEntity
  8
DEFPOINTS
  6
ByBlock
 62
     3
100
AcDbPoint
 10
1637.68369806815
 20
34.33624958519914
 30
0.0
  0
ENDBLK
  5
262
330
260
100
AcDbEntity
  8
0
100
AcDbBlockEnd
  0
BLOCK
  5
26F
330
26E
100
AcDbEntity
  8
0
100
AcDbBlockBegin
  2
_D9
 70
     0
 10
0.0
 20
0.0
 30
0.0
  3
_D9
  1

  0
LINE
  5
271
330
26E
100
AcDbEntity
  8
1
  6
ByBlock
 62
     3
100
AcDbLine
 10
1712.68369806815
 20
64.72523186726426
 30
0.0
 11
1867.68369806815
 21
64.72523186726426
 31
0.0
  0
INSERT
  5
272
330
26E
100
AcDbEntity
  8
1
  6
ByBlock
 62
     3
100
AcDbBlockReference
  2
_OPEN30
 10
1712.68369806815
 20
64.72523186726426
 30
0.0
 41
3.939231012048822
 42
3.939231012048822
 43
3.939231012048822
 50
180.0
  0
INSERT
  5
273
330
26E
100
AcDbEntity
  8
1
  6
ByBlock
 62
     3
100
AcDbBlockReference
  2
_OPEN30
 10
1867.68369806815
 20
64.72523186726426
 30
0.0
 41
3.939231012048822
 42
3.939231012048822
 43
3.939231012048822
  0
LINE
  5
274
330
26E
100
AcDbEntity
  8
1
  6
ByBlock
 62
     3
100
AcDbLine
 10
1712.68369806815
 20
-13.59356879599835
 30
0.0
 11
1712.68369806815
 21
66.72523186726426
 31
0.0
  0
LINE
  5
275
330
26E
100
AcDbEntity
  8
1
  6
ByBlock
 62
     3
100
AcDbLine
 10
1867.68369806815
 20
-44.16375041479642
 30
0.0
 11
1867.68369806815
 21
66.72523186726426
 31
0.0
  0
MTEXT
  5
276
330
26E
100
AcDbEntity
  8
1
  6
Continuous
 62
     2
100
AcDbMText
 10
1780.18369806815
 20
64.72523186726426
 30
0.0
 40
8.0
 41
0.0
 71
     7
 72
     5
  1
１５５
  7
MTSTANDARD1
 73
     1
 44
0.9375
  0
POINT
  5
277
330
26E
100
AcDbEntity
  8
DEFPOINTS
  6
ByBlock
 62
     3
100
AcDbPoint
 10
1712.68369806815
 20
-15.59356879599835
 30
0.0
  0
POINT
  5
278
330
26E
100
AcDbEntity
  8
DEFPOINTS
  6
ByBlock
 62
     3
100
AcDbPoint
 10
1867.68369806815
 20
-46.16375041479643
 30
0.0
  0
POINT
  5
279
330
26E
100
AcDbEntity
  8
DEFPOINTS
  6
ByBlock
 62
     3
100
AcDbPoint
 10
1867.68369806815
 20
64.72523186726426
 30
0.0
  0
ENDBLK
  5
270
330
26E
100
AcDbEntity
  8
0
100
AcDbBlockEnd
  0
BLOCK
  5
27C
330
27B
100
AcDbEntity
  8
0
100
AcDbBlockBegin
  2
BALN0
 70
     0
 10
0.0
 20
0.0
 30
0.0
  3
BALN0
  1

  0
CIRCLE
  5
27E
330
27B
100
AcDbEntity
  8
1
  6
ByBlock
 62
     3
100
AcDbCircle
 10
57.31201200279565
 20
-15.8602389040297
 30
0.0
 40
10.0
  0
MTEXT
  5
280
330
27B
100
AcDbEntity
  8
1
  6
Continuous
 62
     2
100
AcDbMText
 10
54.31201200279565
 20
-21.8602389040297
 30
0.0
 40
12.0
 41
0.0
 71
     7
 72
     5
  1
{\fＭＳ 明朝|b0|i0|c128|p17;\W1.0;9}
  7
MTSTANDARD4
 73
     1
 44
0.7291666666666667
  0
LEADER
  5
282
330
27B
100
AcDbEntity
  8
1
  6
ByBlock
 62
     3
100
AcDbLeader
  3
DIMSTYEX_7
 76
     2
 10
0.0
 20
0.0
 30
0.0
 10
47.67424568893232
 20
-13.19313176719378
 30
0.0
1001
ACAD
1000
DSTYLE
1002
{
1070
   176
1070
     0
1002
}
  0
ENDBLK
  5
27D
330
27B
100
AcDbEntity
  8
0
100
AcDbBlockEnd
  0
BLOCK
  5
285
330
284
100
AcDbEntity
  8
0
100
AcDbBlockBegin
  2
BALN1
 70
     0
 10
0.0
 20
0.0
 30
0.0
  3
BALN1
  1

  0
CIRCLE
  5
287
330
284
100
AcDbEntity
  8
1
  6
ByBlock
 62
     3
100
AcDbCircle
 10
6.510592418761462
 20
-32.53870173918034
 30
0.0
 40
10.0
  0
MTEXT
  5
288
330
284
100
AcDbEntity
  8
1
  6
Continuous
 62
     2
100
AcDbMText
 10
3.510592418761461
 20
-38.53870173918034
 30
0.0
 40
12.0
 41
0.0
 71
     7
 72
     5
  1
{\fＭＳ 明朝|b0|i0|c128|p17;\W1.0;8}
  7
MTSTANDARD4
 73
     1
 44
0.7291666666666667
  0
LEADER
  5
289
330
284
100
AcDbEntity
  8
1
  6
ByBlock
 62
     3
100
AcDbLeader
  3
DIMSTYEX_7
 76
     2
 10
0.0
 20
0.0
 30
0.0
 10
4.548604650633044
 20
-22.73306030183855
 30
0.0
1001
ACAD
1000
DSTYLE
1002
{
1070
   176
1070
     0
1002
}
  0
ENDBLK
  5
286
330
284
100
AcDbEntity
  8
0
100
AcDbBlockEnd
  0
BLOCK
  5
28C
330
28B
100
AcDbEntity
  8
0
100
AcDbBlockBegin
  2
BALN2
 70
     0
 10
0.0
 20
0.0
 30
0.0
  3
BALN2
  1

  0
CIRCLE
  5
28E
330
28B
100
AcDbEntity
  8
1
  6
ByBlock
 62
     3
100
AcDbCircle
 10
38.39560137198373
 20
-29.22851481110058
 30
0.0
 40
10.0
  0
MTEXT
  5
28F
330
28B
100
AcDbEntity
  8
1
  6
Continuous
 62
     2
100
AcDbMText
 10
35.39560137198373
 20
-35.22851481110058
 30
0.0
 40
12.0
 41
0.0
 71
     7
 72
     5
  1
{\fＭＳ 明朝|b0|i0|c128|p17;\W1.0;1}
  7
MTSTANDARD4
 73
     1
 44
0.7291666666666667
  0
LEADER
  5
290
330
28B
100
AcDbEntity
  8
1
  6
ByBlock
 62
     3
100
AcDbLeader
  3
DIMSTYEX_7
 76
     2
 10
0.0
 20
0.0
 30
0.0
 10
30.43875971728084
 20
-23.17139743713588
 30
0.0
1001
ACAD
1000
DSTYLE
1002
{
1070
   176
1070
     0
1002
}
  0
ENDBLK
  5
28D
330
28B
100
AcDbEntity
  8
0
100
AcDbBlockEnd
  0
BLOCK
  5
293
330
292
100
AcDbEntity
  8
0
100
AcDbBlockBegin
  2
BALN3
 70
     0
 10
0.0
 20
0.0
 30
0.0
  3
BALN3
  1

  0
CIRCLE
  5
295
330
292
100
AcDbEntity
  8
1
  6
ByBlock
 62
     3
100
AcDbCircle
 10
22.5138179609221
 20
76.21488981003861
 30
0.0
 40
10.0
  0
MTEXT
  5
296
330
292
100
AcDbEntity
  8
1
  6
Continuous
 62
     2
100
AcDbMText
 10
19.5138179609221
 20
70.21488981003861
 30
0.0
 40
12.0
 41
0.0
 71
     7
 72
     5
  1
{\fＭＳ 明朝|b0|i0|c128|p17;\W1.0;4}
  7
MTSTANDARD4
 73
     1
 44
0.7291666666666667
  0
LEADER
  5
297
330
292
100
AcDbEntity
  8
1
  6
ByBlock
 62
     3
100
AcDbLeader
  3
DIMSTYEX_7
 76
     2
 10
0.0
 20
0.0
 30
0.0
 10
19.68084466547038
 20
66.62456852724222
 30
0.0
1001
ACAD
1000
DSTYLE
1002
{
1070
   176
1070
     0
1002
}
  0
ENDBLK
  5
294
330
292
100
AcDbEntity
  8
0
100
AcDbBlockEnd
  0
BLOCK
  5
29A
330
299
100
AcDbEntity
  8
0
100
AcDbBlockBegin
  2
BALN4
 70
     0
 10
0.0
 20
0.0
 30
0.0
  3
BALN4
  1

  0
CIRCLE
  5
29C
330
299
100
AcDbEntity
  8
1
  6
ByBlock
 62
     3
100
AcDbCircle
 10
19.43234616341374
 20
69.69256838146694
 30
0.0
 40
10.0
  0
MTEXT
  5
29D
330
299
100
AcDbEntity
  8
1
  6
Continuous
 62
     2
100
AcDbMText
 10
16.43234616341374
 20
63.69256838146694
 30
0.0
 40
12.0
 41
0.0
 71
     7
 72
     5
  1
{\fＭＳ 明朝|b0|i0|c128|p17;\W1.0;2}
  7
MTSTANDARD4
 73
     1
 44
0.7291666666666667
  0
LEADER
  5
29E
330
299
100
AcDbEntity
  8
1
  6
ByBlock
 62
     3
100
AcDbLeader
  3
DIMSTYEX_7
 76
     2
 10
0.0
 20
0.0
 30
0.0
 10
16.74650344363966
 20
60.06000647485889
 30
0.0
1001
ACAD
1000
DSTYLE
1002
{
1070
   176
1070
     0
1002
}
  0
ENDBLK
  5
29B
330
299
100
AcDbEntity
  8
0
100
AcDbBlockEnd
  0
BLOCK
  5
2A1
330
2A0
100
AcDbEntity
  8
0
100
AcDbBlockBegin
  2
BALN5
 70
     0
 10
0.0
 20
0.0
 30
0.0
  3
BALN5
  1

  0
CIRCLE
  5
2A3
330
2A0
100
AcDbEntity
  8
1
  6
ByBlock
 62
     3
100
AcDbCircle
 10
43.56993751728714
 20
30.0570447675039
 30
0.0
 40
10.0
  0
MTEXT
  5
2A4
330
2A0
100
AcDbEntity
  8
1
  6
Continuous
 62
     2
100
AcDbMText
 10
40.56993751728714
 20
24.0570447675039
 30
0.0
 40
12.0
 41
0.0
 71
     7
 72
     5
  1
{\fＭＳ 明朝|b0|i0|c128|p17;\W1.0;3}
  7
MTSTANDARD4
 73
     1
 44
0.7291666666666667
  0
LEADER
  5
2A5
330
2A0
100
AcDbEntity
  8
1
  6
ByBlock
 62
     3
100
AcDbLeader
  3
DIMSTYEX_7
 76
     2
 10
0.0
 20
0.0
 30
0.0
 10
35.33858779826969
 20
24.37858707168268
 30
0.0
1001
ACAD
1000
DSTYLE
1002
{
1070
   176
1070
     0
1002
}
  0
ENDBLK
  5
2A2
330
2A0
100
AcDbEntity
  8
0
100
AcDbBlockEnd
  0
BLOCK
  5
2A8
330
2A7
100
AcDbEntity
  8
0
100
AcDbBlockBegin
  2
BALN6
 70
     0
 10
0.0
 20
0.0
 30
0.0
  3
BALN6
  1

  0
CIRCLE
  5
2AA
330
2A7
100
AcDbEntity
  8
1
  6
ByBlock
 62
     3
100
AcDbCircle
 10
39.50016357331674
 20
68.41604661357115
 30
0.0
 40
10.0
  0
MTEXT
  5
2AB
330
2A7
100
AcDbEntity
  8
1
  6
Continuous
 62
     2
100
AcDbMText
 10
36.50016357331674
 20
62.41604661357115
 30
0.0
 40
12.0
 41
0.0
 71
     7
 72
     5
  1
{\fＭＳ 明朝|b0|i0|c128|p17;\W1.0;6}
  7
MTSTANDARD4
 73
     1
 44
0.7291666666666667
  0
LEADER
  5
2AC
330
2A7
100
AcDbEntity
  8
1
  6
ByBlock
 62
     3
100
AcDbLeader
  3
DIMSTYEX_7
 76
     2
 10
0.0
 20
0.0
 30
0.0
 10
34.5001502210561
 20
59.75580028467176
 30
0.0
1001
ACAD
1000
DSTYLE
1002
{
1070
   176
1070
     0
1002
}
  0
ENDBLK
  5
2A9
330
2A7
100
AcDbEntity
  8
0
100
AcDbBlockEnd
  0
BLOCK
  5
2AF
330
2AE
100
AcDbEntity
  8
0
100
AcDbBlockBegin
  2
BALN7
 70
     0
 10
0.0
 20
0.0
 30
0.0
  3
BALN7
  1

  0
CIRCLE
  5
2B1
330
2AE
100
AcDbEntity
  8
1
  6
ByBlock
 62
     3
100
AcDbCircle
 10
8.326690077149578
 20
23.77848846432498
 30
0.0
 40
10.0
  0
MTEXT
  5
2B2
330
2AE
100
AcDbEntity
  8
1
  6
Continuous
 62
     2
100
AcDbMText
 10
5.326690077149578
 20
17.77848846432498
 30
0.0
 40
12.0
 41
0.0
 71
     7
 72
     5
  1
{\fＭＳ 明朝|b0|i0|c128|p17;\W1.0;5}
  7
MTSTANDARD4
 73
     1
 44
0.7291666666666667
  0
LEADER
  5
2B3
330
2AE
100
AcDbEntity
  8
1
  6
ByBlock
 62
     3
100
AcDbLeader
  3
DIMSTYEX_7
 76
     2
 10
0.0
 20
0.0
 30
0.0
 10
5.021693992395714
 20
14.34042717612805
 30
0.0
1001
ACAD
1000
DSTYLE
1002
{
1070
   176
1070
     0
1002
}
  0
ENDBLK
  5
2B0
330
2AE
100
AcDbEntity
  8
0
100
AcDbBlockEnd
  0
BLOCK
  5
2B6
330
2B5
100
AcDbEntity
  8
0
100
AcDbBlockBegin
  2
BALN8
 70
     0
 10
0.0
 20
0.0
 30
0.0
  3
BALN8
  1

  0
CIRCLE
  5
2B8
330
2B5
100
AcDbEntity
  8
1
  6
ByBlock
 62
     3
100
AcDbCircle
 10
-46.72074260815475
 20
-8.991216209940617
 30
0.0
 40
10.0
  0
MTEXT
  5
2B9
330
2B5
100
AcDbEntity
  8
1
  6
Continuous
 62
     2
100
AcDbMText
 10
-52.72074260815475
 20
-14.99121620994062
 30
0.0
 40
12.0
 41
0.0
 71
     7
 72
     5
  1
{\fＭＳ 明朝|b0|i0|c128|p17;\W1.0;12}
  7
MTSTANDARD4
 73
     1
 44
0.7291666666666667
  0
LEADER
  5
2BA
330
2B5
100
AcDbEntity
  8
1
  6
ByBlock
 62
     3
100
AcDbLeader
  3
DIMSTYEX_7
 76
     2
 10
0.0
 20
0.0
 30
0.0
 10
-36.90092994569941
 20
-7.101433345619495
 30
0.0
1001
ACAD
1000
DSTYLE
1002
{
1070
   176
1070
     0
1002
}
  0
ENDBLK
  5
2B7
330
2B5
100
AcDbEntity
  8
0
100
AcDbBlockEnd
  0
BLOCK
  5
2BD
330
2BC
100
AcDbEntity
  8
0
100
AcDbBlockBegin
  2
_D10
 70
     0
 10
0.0
 20
0.0
 30
0.0
  3
_D10
  1

  0
LINE
  5
2BF
330
2BC
100
AcDbEntity
  8
1
  6
ByBlock
 62
     3
100
AcDbLine
 10
1607.459487949757
 20
-32.66375041488476
 30
0.0
 11
1607.459487949757
 21
-157.6637504148408
 31
0.0
  0
INSERT
  5
2C0
330
2BC
100
AcDbEntity
  8
1
  6
ByBlock
 62
     3
100
AcDbBlockReference
  2
_OPEN30
 10
1607.459487949757
 20
-32.66375041488476
 30
0.0
 41
3.939231012048829
 42
3.939231012048829
 43
3.939231012048829
 50
90.0
  0
INSERT
  5
2C1
330
2BC
100
AcDbEntity
  8
1
  6
ByBlock
 62
     3
100
AcDbBlockReference
  2
_OPEN30
 10
1607.459487949757
 20
-157.6637504148408
 30
0.0
 41
3.939231012048822
 42
3.939231012048822
 43
3.939231012048822
 50
270.0
  0
LINE
  5
2C2
330
2BC
100
AcDbEntity
  8
1
  6
ByBlock
 62
     3
100
AcDbLine
 10
1641.68369806815
 20
-32.66375041488476
 30
0.0
 11
1605.459487949757
 21
-32.66375041488476
 31
0.0
  0
LINE
  5
2C3
330
2BC
100
AcDbEntity
  8
1
  6
ByBlock
 62
     3
100
AcDbLine
 10
1655.68369806815
 20
-157.6637504148408
 30
0.0
 11
1605.459487949757
 21
-157.6637504148408
 31
0.0
  0
MTEXT
  5
2C4
330
2BC
100
AcDbEntity
  8
1
  6
Continuous
 62
     2
100
AcDbMText
 10
1607.459487949757
 20
-105.1637504148628
 30
0.0
 40
8.0
 41
0.0
 71
     7
 72
     5
  1
１２５
  7
MTSTANDARD1
 11
0.0
 21
1.0
 31
0.0
 73
     1
 44
0.9375
  0
POINT
  5
2C5
330
2BC
100
AcDbEntity
  8
DEFPOINTS
  6
ByBlock
 62
     3
100
AcDbPoint
 10
1643.68369806815
 20
-32.66375041488476
 30
0.0
  0
POINT
  5
2C6
330
2BC
100
AcDbEntity
  8
DEFPOINTS
  6
ByBlock
 62
     3
100
AcDbPoint
 10
1657.68369806815
 20
-157.6637504148408
 30
0.0
  0
POINT
  5
2C7
330
2BC
100
AcDbEntity
  8
DEFPOINTS
  6
ByBlock
 62
     3
100
AcDbPoint
 10
1607.459487949757
 20
-157.6637504148408
 30
0.0
  0
ENDBLK
  5
2BE
330
2BC
100
AcDbEntity
  8
0
100
AcDbBlockEnd
  0
BLOCK
  5
2CA
330
2C9
100
AcDbEntity
  8
0
100
AcDbBlockBegin
  2
BLK0
 70
     0
 10
2021.076727951234
 20
-452.8104677476595
 30
0.0
  3
BLK0
  1

  0
LINE
  5
2CC
330
2C9
100
AcDbEntity
  8
1
  6
Continuous
 62
     7
100
AcDbLine
 10
1901.076847951234
 20
-376.8105097476596
 30
0.0
 11
1901.076847951234
 21
-452.8104677476595
 31
0.0
  0
LINE
  5
2CD
330
2C9
100
AcDbEntity
  8
1
  6
Continuous
 62
     7
100
AcDbLine
 10
1891.076857951234
 20
-452.8104677476595
 30
0.0
 11
1891.076857951234
 21
-376.8105097476596
 31
0.0
  0
LINE
  5
2CE
330
2C9
100
AcDbEntity
  8
1
  6
Continuous
 62
     7
100
AcDbLine
 10
1857.076857951234
 20
-398.8104877476595
 30
0.0
 11
1857.076857951234
 21
-432.8104877476595
 31
0.0
  0
LINE
  5
2CF
330
2C9
100
AcDbEntity
  8
1
  6
Continuous
 62
     7
100
AcDbLine
 10
1847.076867951234
 20
-432.8104877476595
 30
0.0
 11
1847.076867951234
 21
-398.8104877476595
 31
0.0
  0
LINE
  5
2D0
330
2C9
100
AcDbEntity
  8
1
  6
Continuous
 62
     7
100
AcDbLine
 10
1813.076867951234
 20
-398.8104877476595
 30
0.0
 11
1813.076867951234
 21
-432.8104877476595
 31
0.0
  0
LINE
  5
2D1
330
2C9
100
AcDbEntity
  8
1
  6
Continuous
 62
     7
100
AcDbLine
 10
1803.076877951234
 20
-432.8104877476595
 30
0.0
 11
1803.076877951234
 21
-398.8104877476595
 31
0.0
  0
LINE
  5
2D2
330
2C9
100
AcDbEntity
  8
1
  6
Continuous
 62
     7
100
AcDbLine
 10
1769.076877951235
 20
-376.8105097476596
 30
0.0
 11
1769.076877951234
 21
-432.8104877476595
 31
0.0
  0
LINE
  5
2D3
330
2C9
100
AcDbEntity
  8
1
  6
Continuous
 62
     7
100
AcDbLine
 10
2001.076747951235
 20
-376.8105097476596
 30
0.0
 11
2001.076747951235
 21
-398.8104877476595
 31
0.0
  0
LINE
  5
2D4
330
2C9
100
AcDbEntity
  8
1
  6
Continuous
 62
     7
100
AcDbLine
 10
1991.076757951234
 20
-376.8105097476596
 30
0.0
 11
1991.076757951234
 21
-398.8104877476595
 31
0.0
  0
LINE
  5
2D5
330
2C9
100
AcDbEntity
  8
1
  6
Continuous
 62
     7
100
AcDbLine
 10
2001.076747951235
 20
-432.8104877476595
 30
0.0
 11
2001.076747951235
 21
-452.8104677476595
 31
0.0
  0
LINE
  5
2D6
330
2C9
100
AcDbEntity
  8
1
  6
Continuous
 62
     7
100
AcDbLine
 10
1991.076757951234
 20
-432.8104877476595
 30
0.0
 11
1991.076757951234
 21
-452.8104677476595
 31
0.0
  0
LINE
  5
2D7
330
2C9
100
AcDbEntity
  8
1
  6
Continuous
 62
     7
100
AcDbLine
 10
1973.076775951234
 20
-432.8104877476595
 30
0.0
 11
1973.076775951234
 21
-452.8104677476595
 31
0.0
  0
LINE
  5
2D8
330
2C9
100
AcDbEntity
  8
1
  6
Continuous
 62
     7
100
AcDbLine
 10
1759.076887951234
 20
-432.8104877476595
 30
0.0
 11
2021.076727951234
 21
-432.8104877476595
 31
0.0
  0
LINE
  5
2D9
330
2C9
100
AcDbEntity
  8
1
  6
Continuous
 62
     7
100
AcDbLine
 10
2021.076727951234
 20
-398.8104877476595
 30
0.0
 11
1759.076887951234
 21
-398.8104877476595
 31
0.0
  0
LINE
  5
2DA
330
2C9
100
AcDbEntity
  8
1
  6
Continuous
 62
     7
100
AcDbLine
 10
1759.076887951234
 20
-376.8105097476596
 30
0.0
 11
2021.076727951234
 21
-376.8105097476596
 31
0.0
  0
LINE
  5
2DB
330
2C9
100
AcDbEntity
  8
1
  6
Continuous
 62
     7
100
AcDbLine
 10
1759.076887951234
 20
-376.8105097476596
 30
0.0
 11
1759.076887951234
 21
-452.8104677476595
 31
0.0
  0
LINE
  5
2DC
330
2C9
100
AcDbEntity
  8
1
  6
Continuous
 62
     7
100
AcDbLine
 10
1769.076877951235
 20
-376.8105097476596
 30
0.0
 11
1769.076877951234
 21
-432.8104877476595
 31
0.0
  0
MTEXT
  5
2DD
330
2C9
100
AcDbEntity
  8
1
  6
Continuous
 62
     7
100
AcDbMText
 10
1760.576882951234
 20
-387.3105027476598
 30
0.0
 40
7.0
 41
0.0
 71
     7
 72
     5
  1
{\fＭＳ 明朝|b0|i0|c128|p17;\W1.0;図}
  7
MTSTANDARD2
 73
     1
 44
0.8392857142857144
  0
MTEXT
  5
2DE
330
2C9
100
AcDbEntity
  8
1
  6
Continuous
 62
     7
100
AcDbMText
 10
1804.576872951234
 20
-423.5913864825521
 30
0.0
 40
7.0
 41
0.0
 71
     7
 72
     5
  1
{\fＭＳ 明朝|b0|i0|c128|p17;\W1.0;査}
  7
MTSTANDARD2
 73
     1
 44
0.8392857142857144
  0
MTEXT
  5
2DF
330
2C9
100
AcDbEntity
  8
1
  6
Continuous
 62
     7
100
AcDbMText
 10
1848.576862951234
 20
-423.5913864825521
 30
0.0
 40
7.0
 41
0.0
 71
     7
 72
     5
  1
{\fＭＳ 明朝|b0|i0|c128|p17;\W1.0;認}
  7
MTSTANDARD2
 73
     1
 44
0.8392857142857144
  0
MTEXT
  5
2E0
330
2C9
100
AcDbEntity
  8
1
  6
Continuous
 62
     7
100
AcDbMText
 10
1892.576852951234
 20
-443.3104807476594
 30
0.0
 40
7.0
 41
0.0
 71
     7
 72
     5
  1
{\fＭＳ 明朝|b0|i0|c128|p17;\W1.0;図}
  7
MTSTANDARD2
 73
     1
 44
0.8392857142857144
  0
MTEXT
  5
2E1
330
2C9
100
AcDbEntity
  8
1
  6
Continuous
 62
     7
100
AcDbMText
 10
1760.576882951234
 20
-395.3104947476598
 30
0.0
 40
7.0
 41
0.0
 71
     7
 72
     5
  1
{\fＭＳ 明朝|b0|i0|c128|p17;\W1.0;名}
  7
MTSTANDARD2
 73
     1
 44
0.8392857142857144
  0
MTEXT
  5
2E2
330
2C9
100
AcDbEntity
  8
1
  6
Continuous
 62
     7
100
AcDbMText
 10
1848.576862951234
 20
-415.5913944825521
 30
0.0
 40
7.0
 41
0.0
 71
     7
 72
     5
  1
{\fＭＳ 明朝|b0|i0|c128|p17;\W1.0;承}
  7
MTSTANDARD2
 73
     1
 44
0.8392857142857144
  0
MTEXT
  5
2E3
330
2C9
100
AcDbEntity
  8
1
  6
Continuous
 62
     7
100
AcDbMText
 10
1892.576852951234
 20
-451.3104727476596
 30
0.0
 40
7.0
 41
0.0
 71
     7
 72
     5
  1
{\fＭＳ 明朝|b0|i0|c128|p17;\W1.0;番}
  7
MTSTANDARD2
 73
     1
 44
0.8392857142857144
  0
MTEXT
  5
2E4
330
2C9
100
AcDbEntity
  8
1
  6
Continuous
 62
     7
100
AcDbMText
 10
1760.576882951234
 20
-415.5913944825521
 30
0.0
 40
7.0
 41
0.0
 71
     7
 72
     5
  1
{\fＭＳ 明朝|b0|i0|c128|p17;\W1.0;設}
  7
MTSTANDARD2
 73
     1
 44
0.8392857142857144
  0
MTEXT
  5
2E5
330
2C9
100
AcDbEntity
  8
1
  6
Continuous
 62
     7
100
AcDbMText
 10
1760.576882951234
 20
-423.5913864825521
 30
0.0
 40
7.0
 41
0.0
 71
     7
 72
     5
  1
{\fＭＳ 明朝|b0|i0|c128|p17;\W1.0;計}
  7
MTSTANDARD2
 73
     1
 44
0.8392857142857144
  0
MTEXT
  5
2E6
330
2C9
100
AcDbEntity
  8
1
  6
Continuous
 62
     7
100
AcDbMText
 10
1892.576852951234
 20
-387.3105027476598
 30
0.0
 40
7.0
 41
0.0
 71
     7
 72
     5
  1
{\fＭＳ 明朝|b0|i0|c128|p17;\W1.0;符}
  7
MTSTANDARD2
 73
     1
 44
0.8392857142857144
  0
MTEXT
  5
2E7
330
2C9
100
AcDbEntity
  8
1
  6
Continuous
 62
     7
100
AcDbMText
 10
1892.576852951234
 20
-395.3104947476598
 30
0.0
 40
7.0
 41
0.0
 71
     7
 72
     5
  1
{\fＭＳ 明朝|b0|i0|c128|p17;\W1.0;号}
  7
MTSTANDARD2
 73
     1
 44
0.8392857142857144
  0
MTEXT
  5
2E8
330
2C9
100
AcDbEntity
  8
1
  6
Continuous
 62
     7
100
AcDbMText
 10
1892.576852951234
 20
-415.5913944825521
 30
0.0
 40
7.0
 41
0.0
 71
     7
 72
     5
  1
{\fＭＳ 明朝|b0|i0|c128|p17;\W1.0;記}
  7
MTSTANDARD2
 73
     1
 44
0.8392857142857144
  0
MTEXT
  5
2E9
330
2C9
100
AcDbEntity
  8
1
  6
Continuous
 62
     7
100
AcDbMText
 10
1892.576852951234
 20
-423.5913864825521
 30
0.0
 40
7.0
 41
0.0
 71
     7
 72
     5
  1
{\fＭＳ 明朝|b0|i0|c128|p17;\W1.0;事}
  7
MTSTANDARD2
 73
     1
 44
0.8392857142857144
  0
MTEXT
  5
2EA
330
2C9
100
AcDbEntity
  8
1
  6
Continuous
 62
     7
100
AcDbMText
 10
1992.576752951231
 20
-387.3105027476598
 30
0.0
 40
7.0
 41
0.0
 71
     7
 72
     5
  1
{\fＭＳ 明朝|b0|i0|c128|p17;\W1.0;縮}
  7
MTSTANDARD2
 73
     1
 44
0.8392857142857144
  0
MTEXT
  5
2EB
330
2C9
100
AcDbEntity
  8
1
  6
Continuous
 62
     7
100
AcDbMText
 10
1992.576752951231
 20
-395.31049474766
 30
0.0
 40
7.0
 41
0.0
 71
     7
 72
     5
  1
{\fＭＳ 明朝|b0|i0|c128|p17;\W1.0;尺}
  7
MTSTANDARD2
 73
     1
 44
0.8392857142857144
  0
MTEXT
  5
2ED
330
2C9
100
AcDbEntity
  8
1
  6
Continuous
 62
     7
100
AcDbMText
 10
1791.076887951234
 20
-447.3104777476595
 30
0.0
 40
9.0
 41
0.0
 71
     7
 72
     5
  1
{\fＭＳ ゴシック|b0|i0|c128|p49;\W1.0;伊藤鉄工株式会社}
  7
MTSTANDARD5
 73
     1
 44
0.7916666666666667
  0
MTEXT
  5
2EE
330
2C9
100
AcDbEntity
  8
1
  6
Continuous
 62
     7
100
AcDbMText
 10
1993.076752951235
 20
-440.8104827476596
 30
0.0
 40
6.0
 41
0.0
 71
     7
 72
     5
  1
{\fＭＳ 明朝|b0|i0|c128|p17;\W1.0;葉}
  7
MTSTANDARD3
 73
     1
 44
0.8333333333333334
  0
MTEXT
  5
2EF
330
2C9
100
AcDbEntity
  8
1
  6
Continuous
 62
     7
100
AcDbMText
 10
1993.076752951235
 20
-445.8104777476593
 30
0.0
 40
6.0
 41
0.0
 71
     7
 72
     5
  1
{\fＭＳ 明朝|b0|i0|c128|p17;\W1.0;ノ}
  7
MTSTANDARD3
 73
     1
 44
0.8333333333333334
  0
MTEXT
  5
2F0
330
2C9
100
AcDbEntity
  8
1
  6
Continuous
 62
     7
100
AcDbMText
 10
1993.076752951235
 20
-450.8104727476596
 30
0.0
 40
6.0
 41
0.0
 71
     7
 72
     5
  1
{\fＭＳ 明朝|b0|i0|c128|p17;\W1.0;内}
  7
MTSTANDARD3
 73
     1
 44
0.8333333333333334
  0
LINE
  5
2F1
330
2C9
100
AcDbEntity
  8
1
  6
Continuous
 62
     7
100
AcDbLine
 10
1759.076887951234
 20
-376.8105097476596
 30
0.0
 11
1759.076887951234
 21
-452.8104677476595
 31
0.0
  0
LINE
  5
2F2
330
2C9
100
AcDbEntity
  8
1
  6
Continuous
 62
     7
100
AcDbLine
 10
1759.076887951234
 20
-376.8105097476596
 30
0.0
 11
1759.076887951234
 21
-452.8104677476595
 31
0.0
  0
MTEXT
  5
2F3
330
2C9
100
AcDbEntity
  8
1
  6
Continuous
 62
     7
100
AcDbMText
 10
1804.576872951234
 20
-415.5913944825521
 30
0.0
 40
7.0
 41
0.0
 71
     7
 72
     5
  1
{\fＭＳ 明朝|b0|i0|c128|p17;\W1.0;照}
  7
MTSTANDARD2
 73
     1
 44
0.8392857142857144
  0
LINE
  5
2F4
330
2C9
100
AcDbEntity
  8
1
  6
Continuous
 62
     7
100
AcDbLine
 10
2001.076747951235
 20
-452.8104677476595
 30
0.0
 11
2021.076727951234
 21
-432.8104877476595
 31
0.0
  0
MTEXT
  5
2F5
330
2C9
100
AcDbEntity
  8
1
  6
Continuous
 62
     7
100
AcDbMText
 10
1914.076802951234
 20
-391.8104987476596
 30
0.0
 40
8.0
 41
0.0
 71
     7
 72
     5
  1
{\fＭＳ 明朝|b0|i0|c128|p17;\W1.0;ＬＴ４ＨＴ　５０}
  7
MTSTANDARD
 73
     1
 44
1.171874999999988
  0
MTEXT
  5
2F6
330
2C9
100
AcDbEntity
  8
1
  6
Continuous
 62
     7
100
AcDbMText
 10
1783.076883951237
 20
-391.8104987476596
 30
0.0
 40
8.0
 41
0.0
 71
     7
 72
     5
  1
{\fＭＳ 明朝|b0|i0|c128|p17;\W1.0;ホース差込用排水トラップ}
  7
MTSTANDARD
 73
     1
 44
0.65625
  0
MTEXT
  5
2F7
330
2C9
100
AcDbEntity
  8
1
  6
Continuous
 62
     7
100
AcDbMText
 10
2006.576737951234
 20
-390.8104987476596
 30
0.0
 40
6.0
 41
0.0
 71
     7
 72
     5
  1
{\fＭＳ 明朝|b0|i0|c128|p17;\W1.0;1/2}
  7
MTSTANDARD3
 73
     1
 44
1.354165520833317
  0
LINE
  5
2F8
330
2C9
100
AcDbEntity
  8
1
  6
Continuous
 62
     7
100
AcDbLine
 10
2021.076727951234
 20
-452.8104677476595
 30
0.0
 11
2021.076727951234
 21
-376.8105097476596
 31
0.0
  0
MTEXT
  5
2F9
330
2C9
100
AcDbEntity
  8
1
  6
Continuous
 62
     7
100
AcDbMText
 10
1901.076811951234
 20
-446.8104777476595
 30
0.0
 40
8.0
 41
0.0
 71
     7
 72
     5
  1
{\fＭＳ 明朝|b0|i0|c128|p17;\W1.0;Ｇ０１Ａ００３９２}
  7
MTSTANDARD
 73
     1
 44
1.093749218750002
  0
CIRCLE
  5
2FA
330
2C9
100
AcDbEntity
  8
1
  6
Continuous
 62
     7
100
AcDbCircle
 10
1786.011450941888
 20
-415.912357233641
 30
0.0
 40
16.0
  0
LINE
  5
2FB
330
2C9
100
AcDbEntity
  8
1
  6
Continuous
 62
     7
100
AcDbLine
 10
1770.519517557059
 20
-411.912357233641
 30
0.0
 11
1801.503384326718
 21
-411.912357233641
 31
0.0
  0
LINE
  5
2FC
330
2C9
100
AcDbEntity
  8
1
  6
Continuous
 62
     7
100
AcDbLine
 10
1770.519517557059
 20
-419.912357233641
 30
0.0
 11
1801.503384326718
 21
-419.912357233641
 31
0.0
  0
MTEXT
  5
2FD
330
2C9
100
AcDbEntity
  8
1
  6
Continuous
 62
     7
100
AcDbMText
 10
1782.011450941888
 20
-409.912357233641
 30
0.0
 40
8.0
 41
0.0
 71
     7
 72
     5
  1
{\fＭＳ 明朝|b0|i0|c128|p17;\W1.0;野}
  7
MTSTANDARD
 73
     1
 44
0.78125
  0
MTEXT
  5
2FE
330
2C9
100
AcDbEntity
  8
1
  6
Continuous
 62
     7
100
AcDbMText
 10
1782.011450941888
 20
-429.912357233641
 30
0.0
 40
8.0
 41
0.0
 71
     7
 72
     5
  1
{\fＭＳ 明朝|b0|i0|c128|p17;\W1.0;島}
  7
MTSTANDARD
 73
     1
 44
0.78125
  0
MTEXT
  5
300
330
2C9
100
AcDbEntity
  8
1
  6
Continuous
 62
     7
100
AcDbMText
 10
1773.511450941888
 20
-418.412357233641
 30
0.0
 40
5.0
 41
0.0
 71
     7
 72
     5
  1
{\fＭＳ 明朝|b0|i0|c128|p17;\W1.0;2005.11.25}
  7
MTSTANDARD6
 73
     1
 44
0.875
  0
CIRCLE
  5
301
330
2C9
100
AcDbEntity
  8
1
  6
Continuous
 62
     7
100
AcDbCircle
 10
1830.086190381141
 20
-415.912357233641
 30
0.0
 40
16.0
  0
LINE
  5
302
330
2C9
100
AcDbEntity
  8
1
  6
Continuous
 62
     7
100
AcDbLine
 10
1814.594256996311
 20
-411.912357233641
 30
0.0
 11
1845.578123765971
 21
-411.912357233641
 31
0.0
  0
LINE
  5
303
330
2C9
100
AcDbEntity
  8
1
  6
Continuous
 62
     7
100
AcDbLine
 10
1814.594256996311
 20
-419.912357233641
 30
0.0
 11
1845.578123765971
 21
-419.912357233641
 31
0.0
  0
MTEXT
  5
304
330
2C9
100
AcDbEntity
  8
1
  6
Continuous
 62
     7
100
AcDbMText
 10
1826.086190381141
 20
-409.912357233641
 30
0.0
 40
8.0
 41
0.0
 71
     7
 72
     5
  1
{\fＭＳ 明朝|b0|i0|c128|p17;\W1.0;野}
  7
MTSTANDARD
 73
     1
 44
0.78125
  0
MTEXT
  5
305
330
2C9
100
AcDbEntity
  8
1
  6
Continuous
 62
     7
100
AcDbMText
 10
1826.086190381141
 20
-429.912357233641
 30
0.0
 40
8.0
 41
0.0
 71
     7
 72
     5
  1
{\fＭＳ 明朝|b0|i0|c128|p17;\W1.0;島}
  7
MTSTANDARD
 73
     1
 44
0.78125
  0
MTEXT
  5
306
330
2C9
100
AcDbEntity
  8
1
  6
Continuous
 62
     7
100
AcDbMText
 10
1817.586190381141
 20
-418.412357233641
 30
0.0
 40
5.0
 41
0.0
 71
     7
 72
     5
  1
{\fＭＳ 明朝|b0|i0|c128|p17;\W1.0;2005.11.25}
  7
MTSTANDARD6
 73
     1
 44
0.875
  0
CIRCLE
  5
307
330
2C9
100
AcDbEntity
  8
1
  6
Continuous
 62
     7
100
AcDbCircle
 10
1874.160929820393
 20
-415.912357233641
 30
0.0
 40
16.0
  0
LINE
  5
308
330
2C9
100
AcDbEntity
  8
1
  6
Continuous
 62
     7
100
AcDbLine
 10
1858.668996435563
 20
-411.912357233641
 30
0.0
 11
1889.652863205223
 21
-411.912357233641
 31
0.0
  0
LINE
  5
309
330
2C9
100
AcDbEntity
  8
1
  6
Continuous
 62
     7
100
AcDbLine
 10
1858.668996435563
 20
-419.912357233641
 30
0.0
 11
1889.652863205223
 21
-419.912357233641
 31
0.0
  0
MTEXT
  5
30A
330
2C9
100
AcDbEntity
  8
1
  6
Continuous
 62
     7
100
AcDbMText
 10
1870.160929820393
 20
-409.912357233641
 30
0.0
 40
8.0
 41
0.0
 71
     7
 72
     5
  1
{\fＭＳ 明朝|b0|i0|c128|p17;\W1.0;梅}
  7
MTSTANDARD
 73
     1
 44
0.78125
  0
MTEXT
  5
30B
330
2C9
100
AcDbEntity
  8
1
  6
Continuous
 62
     7
100
AcDbMText
 10
1870.160929820393
 20
-429.912357233641
 30
0.0
 40
8.0
 41
0.0
 71
     7
 72
     5
  1
{\fＭＳ 明朝|b0|i0|c128|p17;\W1.0;村}
  7
MTSTANDARD
 73
     1
 44
0.78125
  0
MTEXT
  5
30C
330
2C9
100
AcDbEntity
  8
1
  6
Continuous
 62
     7
100
AcDbMText
 10
1861.660929820393
 20
-418.412357233641
 30
0.0
 40
5.0
 41
0.0
 71
     7
 72
     5
  1
{\fＭＳ 明朝|b0|i0|c128|p17;\W1.0;2005.11.25}
  7
MTSTANDARD6
 73
     1
 44
0.875
  0
ENDBLK
  5
2CB
330
2C9
100
AcDbEntity
  8
0
100
AcDbBlockEnd
  0
BLOCK
  5
312
330
311
100
AcDbEntity
  8
0
100
AcDbBlockBegin
  2
MAKR9
 70
     0
 10
1517.611924230232
 20
-368.4160039978152
 30
0.0
  3
MAKR9
  1

  0
CIRCLE
  5
314
330
311
100
AcDbEntity
  8
1
  6
Continuous
 62
     3
100
AcDbCircle
 10
1517.611924230232
 20
-368.4160039978152
 30
0.0
 40
7.0
  0
MTEXT
  5
315
330
311
100
AcDbEntity
  8
1
  6
Continuous
 62
     2
100
AcDbMText
 10
1514.011924230232
 20
-372.4160039978152
 30
0.0
 40
8.0
 41
0.0
 71
     7
 72
     5
  1
{\W0.5x;10}
  7
MTSTANDARD1
 73
     1
 44
0.8125
  0
ENDBLK
  5
313
330
311
100
AcDbEntity
  8
0
100
AcDbBlockEnd
  0
BLOCK
  5
319
330
318
100
AcDbEntity
  8
0
100
AcDbBlockBegin
  2
BALN9
 70
     0
 10
0.0
 20
0.0
 30
0.0
  3
BALN9
  1

  0
CIRCLE
  5
31B
330
318
100
AcDbEntity
  8
1
  6
ByBlock
 62
     3
100
AcDbCircle
 10
64.07167464694407
 20
56.42994293929308
 30
0.0
 40
10.0
  0
MTEXT
  5
31C
330
318
100
AcDbEntity
  8
1
  6
Continuous
 62
     2
100
AcDbMText
 10
61.07167464694407
 20
50.42994293929308
 30
0.0
 40
12.0
 41
0.0
 71
     7
 72
     5
  1
{\fＭＳ 明朝|b0|i0|c128|p17;\W1.0;7}
  7
MTSTANDARD4
 73
     1
 44
0.7291666666666667
  0
LEADER
  5
31D
330
318
100
AcDbEntity
  8
1
  6
ByBlock
 62
     3
100
AcDbLeader
  3
DIMSTYEX_7
 76
     2
 10
0.0
 20
0.0
 30
0.0
 10
56.56726262682281
 20
49.8205707881535
 30
0.0
1001
ACAD
1000
DSTYLE
1002
{
1070
   176
1070
     0
1002
}
  0
ENDBLK
  5
31A
330
318
100
AcDbEntity
  8
0
100
AcDbBlockEnd
  0
BLOCK
  5
325
330
324
100
AcDbEntity
  8
0
100
AcDbBlockBegin
  2
MAKR10
 70
     0
 10
1517.611924230232
 20
-384.4160039984525
 30
0.0
  3
MAKR10
  1

  0
CIRCLE
  5
327
330
324
100
AcDbEntity
  8
1
  6
Continuous
 62
     3
100
AcDbCircle
 10
1517.611924230232
 20
-384.4160039984525
 30
0.0
 40
7.0
  0
MTEXT
  5
328
330
324
100
AcDbEntity
  8
1
  6
Continuous
 62
     2
100
AcDbMText
 10
1514.011924230232
 20
-388.4160039984525
 30
0.0
 40
8.0
 41
0.0
 71
     7
 72
     5
  1
{\W0.5x;11}
  7
MTSTANDARD1
 73
     1
 44
0.8125
  0
ENDBLK
  5
326
330
324
100
AcDbEntity
  8
0
100
AcDbBlockEnd
  0
BLOCK
  5
32D
330
32C
100
AcDbEntity
  8
0
100
AcDbBlockBegin
  2
BALN10
 70
     0
 10
0.0
 20
0.0
 30
0.0
  3
BALN10
  1

  0
CIRCLE
  5
32F
330
32C
100
AcDbEntity
  8
1
  6
ByBlock
 62
     3
100
AcDbCircle
 10
30.63444965425651
 20
-39.23123625333358
 30
0.0
 40
10.0
  0
MTEXT
  5
330
330
32C
100
AcDbEntity
  8
1
  6
Continuous
 62
     2
100
AcDbMText
 10
24.63444965425651
 20
-45.23123625333358
 30
0.0
 40
12.0
 41
0.0
 71
     7
 72
     5
  1
{\fＭＳ 明朝|b0|i0|c128|p17;\W1.0;10}
  7
MTSTANDARD4
 73
     1
 44
0.7291666666666667
  0
LEADER
  5
331
330
32C
100
AcDbEntity
  8
1
  6
ByBlock
 62
     3
100
AcDbLeader
  3
DIMSTYEX_7
 76
     2
 10
0.0
 20
0.0
 30
0.0
 10
24.47987499195083
 20
-31.34953524872138
 30
0.0
1001
ACAD
1000
DSTYLE
1002
{
1070
   176
1070
     0
1002
}
  0
ENDBLK
  5
32E
330
32C
100
AcDbEntity
  8
0
100
AcDbBlockEnd
  0
BLOCK
  5
342
330
341
100
AcDbEntity
  8
0
100
AcDbBlockBegin
  2
BALN11
 70
     0
 10
0.0
 20
0.0
 30
0.0
  3
BALN11
  1

  0
CIRCLE
  5
344
330
341
100
AcDbEntity
  8
1
  6
ByBlock
 62
     3
100
AcDbCircle
 10
-24.04397138090349
 20
24.52906597973611
 30
0.0
 40
10.0
  0
MTEXT
  5
345
330
341
100
AcDbEntity
  8
1
  6
Continuous
 62
     2
100
AcDbMText
 10
-30.04397138090349
 20
18.52906597973611
 30
0.0
 40
12.0
 41
0.0
 71
     7
 72
     5
  1
{\fＭＳ 明朝|b0|i0|c128|p17;\W1.0;13}
  7
MTSTANDARD4
 73
     1
 44
0.7291666666666667
  0
LEADER
  5
346
330
341
100
AcDbEntity
  8
1
  6
ByBlock
 62
     3
100
AcDbLeader
  3
DIMSTYEX_7
 76
     2
 10
0.0
 20
0.0
 30
0.0
 10
-17.04387077429657
 20
17.3877361667824
 30
0.0
1001
ACAD
1000
DSTYLE
1002
{
1070
   176
1070
     0
1002
}
  0
ENDBLK
  5
343
330
341
100
AcDbEntity
  8
0
100
AcDbBlockEnd
  0
BLOCK
  5
349
330
348
100
AcDbEntity
  8
0
100
AcDbBlockBegin
  2
BALN12
 70
     0
 10
0.0
 20
0.0
 30
0.0
  3
BALN12
  1

  0
CIRCLE
  5
34B
330
348
100
AcDbEntity
  8
1
  6
ByBlock
 62
     3
100
AcDbCircle
 10
-18.96046454343423
 20
-18.57075114038715
 30
0.0
 40
10.0
  0
MTEXT
  5
34C
330
348
100
AcDbEntity
  8
1
  6
Continuous
 62
     2
100
AcDbMText
 10
-24.96046454343423
 20
-24.57075114038715
 30
0.0
 40
12.0
 41
0.0
 71
     7
 72
     5
  1
{\fＭＳ 明朝|b0|i0|c128|p17;\W1.0;14}
  7
MTSTANDARD4
 73
     1
 44
0.7291666666666667
  0
LEADER
  5
34D
330
348
100
AcDbEntity
  8
1
  6
ByBlock
 62
     3
100
AcDbLeader
  3
DIMSTYEX_7
 76
     2
 10
0.0
 20
0.0
 30
0.0
 10
-11.81635792080586
 20
-11.57348449086481
 30
0.0
1001
ACAD
1000
DSTYLE
1002
{
1070
   176
1070
     0
1002
}
  0
ENDBLK
  5
34A
330
348
100
AcDbEntity
  8
0
100
AcDbBlockEnd
  0
BLOCK
  5
351
330
350
100
AcDbEntity
  8
0
100
AcDbBlockBegin
  2
MAKR11
 70
     0
 10
1517.611924250392
 20
-400.41600399654
 30
0.0
  3
MAKR11
  1

  0
CIRCLE
  5
353
330
350
100
AcDbEntity
  8
1
  6
Continuous
 62
     3
100
AcDbCircle
 10
1517.611924250392
 20
-400.41600399654
 30
0.0
 40
7.0
  0
MTEXT
  5
354
330
350
100
AcDbEntity
  8
1
  6
Continuous
 62
     2
100
AcDbMText
 10
1514.011924250392
 20
-404.41600399654
 30
0.0
 40
8.0
 41
0.0
 71
     7
 72
     5
  1
{\W0.5x;12}
  7
MTSTANDARD1
 73
     1
 44
0.8125
  0
ENDBLK
  5
352
330
350
100
AcDbEntity
  8
0
100
AcDbBlockEnd
  0
BLOCK
  5
35A
330
359
100
AcDbEntity
  8
0
100
AcDbBlockBegin
  2
MAKR12
 70
     0
 10
1517.611924241862
 20
-416.4160039959025
 30
0.0
  3
MAKR12
  1

  0
CIRCLE
  5
35C
330
359
100
AcDbEntity
  8
1
  6
Continuous
 62
     3
100
AcDbCircle
 10
1517.611924241862
 20
-416.4160039959025
 30
0.0
 40
7.0
  0
MTEXT
  5
35D
330
359
100
AcDbEntity
  8
1
  6
Continuous
 62
     2
100
AcDbMText
 10
1514.011924241862
 20
-420.4160039959025
 30
0.0
 40
8.0
 41
0.0
 71
     7
 72
     5
  1
{\W0.5x;13}
  7
MTSTANDARD1
 73
     1
 44
0.8125
  0
ENDBLK
  5
35B
330
359
100
AcDbEntity
  8
0
100
AcDbBlockEnd
  0
BLOCK
  5
369
330
368
100
AcDbEntity
  8
0
100
AcDbBlockBegin
  2
BALN13
 70
     0
 10
0.0
 20
0.0
 30
0.0
  3
BALN13
  1

  0
CIRCLE
  5
36B
330
368
100
AcDbEntity
  8
1
  6
ByBlock
 62
     3
100
AcDbCircle
 10
-8.608220514942559
 20
-1.511272348035078
 30
0.0
 40
10.0
  0
MTEXT
  5
36C
330
368
100
AcDbEntity
  8
1
  6
Continuous
 62
     2
100
AcDbMText
 10
-14.60822051494256
 20
-7.511272348035078
 30
0.0
 40
12.0
 41
0.0
 71
     7
 72
     5
  1
{\fＭＳ 明朝|b0|i0|c128|p17;\W1.0;11}
  7
MTSTANDARD4
 73
     1
 44
0.7291666666666667
  0
ENDBLK
  5
36A
330
368
100
AcDbEntity
  8
0
100
AcDbBlockEnd
  0
BLOCK
  5
373
330
372
100
AcDbEntity
  8
0
100
AcDbBlockBegin
  2
MAKR13
 70
     0
 10
1517.611924241497
 20
-432.4160039952631
 30
0.0
  3
MAKR13
  1

  0
CIRCLE
  5
375
330
372
100
AcDbEntity
  8
1
  6
Continuous
 62
     3
100
AcDbCircle
 10
1517.611924241497
 20
-432.4160039952631
 30
0.0
 40
7.0
  0
MTEXT
  5
376
330
372
100
AcDbEntity
  8
1
  6
Continuous
 62
     2
100
AcDbMText
 10
1514.011924241497
 20
-436.4160039952631
 30
0.0
 40
8.0
 41
0.0
 71
     7
 72
     5
  1
{\W0.5x;14}
  7
MTSTANDARD1
 73
     1
 44
0.8125
  0
ENDBLK
  5
374
330
372
100
AcDbEntity
  8
0
100
AcDbBlockEnd
  0
ENDSEC
  0
SECTION
  2
ENTITIES
  0
LINE
  5
AF
330
1F
100
AcDbEntity
  8
1
  6
Continuous
 62
     7
100
AcDbLine
 10
1487.076727951234
 20
287.1895322523405
 30
0.0
 11
2021.076727951234
 21
287.1895322523405
 31
0.0
  0
LINE
  5
B0
330
1F
100
AcDbEntity
  8
1
  6
Continuous
 62
     7
100
AcDbLine
 10
2021.076727951234
 20
287.1895322523405
 30
0.0
 11
2021.076727951234
 21
-452.8104677476595
 31
0.0
  0
LINE
  5
B1
330
1F
100
AcDbEntity
  8
1
  6
Continuous
 62
     7
100
AcDbLine
 10
1487.076727951234
 20
-452.8104677476595
 30
0.0
 11
1487.076727951234
 21
287.1895322523405
 31
0.0
  0
LINE
  5
B2
330
1F
100
AcDbEntity
  8
1
  6
Continuous
 62
     7
100
AcDbLine
 10
1487.076727951234
 20
-452.8104677476595
 30
0.0
 11
2021.076727951234
 21
-452.8104677476595
 31
0.0
  0
LINE
  5
B3
330
1F
100
AcDbEntity
  8
1
  6
Continuous
 62
     7
100
AcDbLine
 10
1509.61192423334
 20
-200.4160039959036
 30
0.0
 11
1509.61192423334
 21
-216.4160039959036
 31
0.0
  0
MTEXT
  5
B5
330
1F
100
AcDbEntity
  8
1
  6
Continuous
 62
     7
100
AcDbMText
 10
1509.834215301401
 20
-212.4160039959034
 30
0.0
 40
8.0
 41
0.0
 71
     7
 72
     5
  1
{\fＭＳ 明朝|b0|i0|c128|p17;\W1.0;部番}
  7
MTSTANDARD
 73
     1
 44
0.9375000000000111
  0
MTEXT
  5
B6
330
1F
100
AcDbEntity
  8
1
  6
Continuous
 62
     7
100
AcDbMText
 10
1551.74668985834
 20
-212.4160039959034
 30
0.0
 40
8.0
 41
0.0
 71
     7
 72
     5
  1
{\fＭＳ 明朝|b0|i0|c128|p17;\W1.0;部品名}
  7
MTSTANDARD
 73
     1
 44
1.875000000000027
  0
MTEXT
  5
B7
330
1F
100
AcDbEntity
  8
1
  6
Continuous
 62
     7
100
AcDbMText
 10
1621.701767983359
 20
-212.4160039959036
 30
0.0
 40
8.0
 41
0.0
 71
     7
 72
     5
  1
{\fＭＳ 明朝|b0|i0|c128|p17;\W1.0;材質}
  7
MTSTANDARD
 73
     1
 44
1.875
  0
MTEXT
  5
B8
330
1F
100
AcDbEntity
  8
1
  6
Continuous
 62
     7
100
AcDbMText
 10
1673.996788137964
 20
-212.4160039959034
 30
0.0
 40
8.0
 41
0.0
 71
     7
 72
     5
  1
{\fＭＳ 明朝|b0|i0|c128|p17;\W1.0;表面処理}
  7
MTSTANDARD
 73
     1
 44
0.9375000000000111
  0
INSERT
  5
BF
330
1F
100
AcDbEntity
  8
1
  6
Continuous
 62
     3
100
AcDbBlockReference
  2
MAKR0
 10
1517.61192423334
 20
-224.4160039959036
 30
0.0
  0
INSERT
  5
C5
330
1F
100
AcDbEntity
  8
1
  6
Continuous
 62
     3
100
AcDbBlockReference
  2
MAKR1
 10
1517.61192423334
 20
-240.4160039959034
 30
0.0
  0
LINE
  5
C6
330
1F
100
AcDbEntity
  8
1
  6
Continuous
 62
     7
100
AcDbLine
 10
1509.61192423334
 20
-248.4160039959036
 30
0.0
 11
1509.61192423334
 21
-216.4160039959036
 31
0.0
  0
LINE
  5
C7
330
1F
100
AcDbEntity
  8
1
  6
Continuous
 62
     7
100
AcDbLine
 10
1525.61192423334
 20
-200.4160039959033
 30
0.0
 11
1525.61192423334
 21
-248.4160039959034
 31
0.0
  0
LINE
  5
C8
330
1F
100
AcDbEntity
  8
1
  6
Continuous
 62
     7
100
AcDbLine
 10
1597.611924233355
 20
-200.4160039959033
 30
0.0
 11
1597.611924233355
 21
-248.4160039959034
 31
0.0
  0
LINE
  5
C9
330
1F
100
AcDbEntity
  8
1
  6
Continuous
 62
     7
100
AcDbLine
 10
1661.611924233361
 20
-200.4160039959033
 30
0.0
 11
1661.611924233361
 21
-248.4160039959034
 31
0.0
  0
LINE
  5
CA
330
1F
100
AcDbEntity
  8
1
  6
Continuous
 62
     7
100
AcDbLine
 10
1721.611924233362
 20
-200.4160039959033
 30
0.0
 11
1721.611924233362
 21
-248.4160039959034
 31
0.0
  0
LINE
  5
CB
330
1F
100
AcDbEntity
  8
1
  6
Continuous
 62
     7
100
AcDbLine
 10
1721.611924233362
 20
-200.4160039959036
 30
0.0
 11
1509.61192423334
 21
-200.4160039959036
 31
0.0
  0
LINE
  5
CC
330
1F
100
AcDbEntity
  8
1
  6
Continuous
 62
     7
100
AcDbLine
 10
1509.61192423334
 20
-216.4160039959036
 30
0.0
 11
1721.611924233362
 21
-216.4160039959036
 31
0.0
  0
LINE
  5
CD
330
1F
100
AcDbEntity
  8
1
  6
Continuous
 62
     7
100
AcDbLine
 10
1597.611924233364
 20
-248.4160039959598
 30
0.0
 11
1509.61192423334
 21
-248.4160039959036
 31
0.0
  0
LINE
  5
CE
330
1F
100
AcDbEntity
  8
1
  6
Continuous
 62
     7
100
AcDbLine
 10
1721.611924233362
 20
-232.4160039959036
 30
0.0
 11
1509.61192423334
 21
-232.4160039959036
 31
0.0
  0
MTEXT
  5
CF
330
1F
100
AcDbEntity
  8
1
  6
Continuous
 62
     7
100
AcDbMText
 10
1509.750347734164
 20
-194.5740674093895
 30
0.0
 40
8.0
 41
0.0
 71
     7
 72
     5
  1
{\fＭＳ 明朝|b0|i0|c128|p17;\W1.0;部品表}
  7
MTSTANDARD
 73
     1
 44
0.8125
  0
LINE
  5
D0
330
1F
100
AcDbEntity
  8
1
  6
Continuous
 62
     7
100
AcDbLine
 10
1509.61192423334
 20
-248.4160039959036
 30
0.0
 11
1509.611924267457
 21
-440.4160039952627
 31
0.0
  0
LINE
  5
D1
330
1F
100
AcDbEntity
  8
1
  6
Continuous
 62
     7
100
AcDbLine
 10
1509.611924233339
 20
-264.4160039959034
 30
0.0
 11
1721.611924233145
 21
-264.4160039959034
 31
0.0
  0
LINE
  5
D2
330
1F
100
AcDbEntity
  8
1
  6
Continuous
 62
     7
100
AcDbLine
 10
1721.611924269607
 20
-440.4160039952627
 30
0.0
 11
1721.611924233362
 21
-248.4160039959036
 31
0.0
  0
LINE
  5
D3
330
1F
100
AcDbEntity
  8
1
  6
Continuous
 62
     7
100
AcDbLine
 10
1661.611924233363
 20
-440.4160039952627
 30
0.0
 11
1661.611924233361
 21
-248.4160039959034
 31
0.0
  0
LINE
  5
D4
330
1F
100
AcDbEntity
  8
1
  6
Continuous
 62
     7
100
AcDbLine
 10
1597.611924229222
 20
-440.4160039952627
 30
0.0
 11
1597.611924233355
 21
-248.4160039959034
 31
0.0
  0
LINE
  5
D5
330
1F
100
AcDbEntity
  8
1
  6
Continuous
 62
     7
100
AcDbLine
 10
1525.611924228957
 20
-440.4160039952627
 30
0.0
 11
1525.61192423334
 21
-248.4160039959034
 31
0.0
  0
INSERT
  5
DB
330
1F
100
AcDbEntity
  8
1
  6
Continuous
 62
     3
100
AcDbBlockReference
  2
MAKR2
 10
1517.611924233334
 20
-256.4160039959034
 30
0.0
  0
MTEXT
  5
DC
330
1F
100
AcDbEntity
  8
1
  6
Continuous
 62
     7
100
AcDbMText
 10
1607.858994545859
 20
-228.4160039959036
 30
0.0
 40
8.0
 41
0.0
 71
     7
 72
     5
  1
{\fＭＳ 明朝|b0|i0|c128|p17;\W1.0;ＦＣ150鋳鉄}
  7
MTSTANDARD
 73
     1
 44
1.874999999999998
  0
MTEXT
  5
DD
330
1F
100
AcDbEntity
  8
1
  6
Continuous
 62
     7
100
AcDbMText
 10
1671.611924233362
 20
-228.4160039959036
 30
0.0
 40
8.0
 41
0.0
 71
     7
 72
     5
  1
{\fＭＳ 明朝|b0|i0|c128|p17;\W1.0;錆止め塗装}
  7
MTSTANDARD
 73
     1
 44
1.874999999999998
  0
LINE
  5
DE
330
1F
100
AcDbEntity
  8
1
  6
Continuous
 62
     7
100
AcDbLine
 10
1509.611924233339
 20
-280.4160039959034
 30
0.0
 11
1661.611924233361
 21
-280.4160039959034
 31
0.0
  0
INSERT
  5
E4
330
1F
100
AcDbEntity
  8
1
  6
Continuous
 62
     3
100
AcDbBlockReference
  2
MAKR3
 10
1517.611924233333
 20
-272.4160039959034
 30
0.0
  0
MTEXT
  5
E5
330
1F
100
AcDbEntity
  8
1
  6
Continuous
 62
     7
100
AcDbMText
 10
1788.385743741537
 20
-357.6629758424207
 30
0.0
 40
8.0
 41
0.0
 71
     7
 72
     5
  1
{\fＭＳ 明朝|b0|i0|c128|p17;\W1.0;・ホース支持枠は枠にねじ込になっています。\P・木板用にご使用の場合は総厚１３mmまで\P　取付け可能です。\P・①本体と③枠の接続ねじ部はシールして下さい。\P\~}
  7
MTSTANDARD
 73
     1
 44
0.9375
  0
MTEXT
  5
E6
330
1F
100
AcDbEntity
  8
1
  6
Continuous
 62
     7
100
AcDbMText
 10
1533.926377358705
 20
-276.4160039959034
 30
0.0
 40
8.0
 41
0.0
 71
     7
 72
     5
  1
{\fＭＳ 明朝|b0|i0|c128|p17;\W1.0;ホースホルダー}
  7
MTSTANDARD
 73
     1
 44
1.875
  0
MTEXT
  5
E7
330
1F
100
AcDbEntity
  8
1
  6
Continuous
 62
     7
100
AcDbMText
 10
1537.881455483348
 20
-244.4160039955848
 30
0.0
 40
8.0
 41
0.0
 71
     7
 72
     5
  1
{\fＭＳ 明朝|b0|i0|c128|p17;\W1.0;ホース支持枠}
  7
MTSTANDARD
 73
     1
 44
1.874999999950195
  0
MTEXT
  5
E8
330
1F
100
AcDbEntity
  8
1
  6
Continuous
 62
     7
100
AcDbMText
 10
1549.746689858347
 20
-228.4160039959036
 30
0.0
 40
8.0
 41
0.0
 71
     7
 72
     5
  1
{\fＭＳ 明朝|b0|i0|c128|p17;\W1.0;本　体}
  7
MTSTANDARD
 73
     1
 44
1.874999999999996
  0
MTEXT
  5
E9
330
1F
100
AcDbEntity
  8
1
  6
Continuous
 62
     7
100
AcDbMText
 10
1603.508408608359
 20
-252.4160039959034
 30
0.0
 40
8.0
 41
0.0
 71
     7
 72
     5
  1
{\fＭＳ 明朝|b0|i0|c128|p17;\W1.0;ＣＡＣ202黄銅}
  7
MTSTANDARD
 73
     1
 44
3.124999999999973
  0
MTEXT
  5
EB
330
1F
100
AcDbEntity
  8
1
  6
Continuous
 62
     7
100
AcDbMText
 10
1667.111924234299
 20
-255.6160037959034
 30
0.0
 40
7.0
 41
0.0
 71
     7
 72
     5
  1
{\fＭＳ 明朝|b0|i0|c128|p17;\W1.0;ニッケル　\Pクロームメッキ}
  7
MTSTANDARD2
 73
     1
 44
0.6607142500000001
  0
LINE
  5
EC
330
1F
100
AcDbEntity
  8
1
  6
Continuous
 62
     7
100
AcDbLine
 10
1509.611924233339
 20
-312.4160039952656
 30
0.0
 11
1661.611924233361
 21
-312.4160039952656
 31
0.0
  0
INSERT
  5
F2
330
1F
100
AcDbEntity
  8
1
  6
Continuous
 62
     3
100
AcDbBlockReference
  2
MAKR4
 10
1517.611924233333
 20
-288.4160039959034
 30
0.0
  0
LINE
  5
F3
330
1F
100
AcDbEntity
  8
1
  6
Continuous
 62
     7
100
AcDbLine
 10
1509.611924233339
 20
-328.4160039946281
 30
0.0
 11
1721.611924257525
 21
-328.4160039946281
 31
0.0
  0
INSERT
  5
F9
330
1F
100
AcDbEntity
  8
1
  6
Continuous
 62
     3
100
AcDbBlockReference
  2
MAKR5
 10
1517.611924233333
 20
-304.416003995266
 30
0.0
  0
MTEXT
  5
FA
330
1F
100
AcDbEntity
  8
1
  6
Continuous
 62
     7
100
AcDbMText
 10
1605.88145548335
 20
-324.4160039946569
 30
0.0
 40
8.0
 41
0.0
 71
     7
 72
     5
  1
{\fＭＳ 明朝|b0|i0|c128|p17;\W1.0;ポリエチレン}
  7
MTSTANDARD
 73
     1
 44
1.87499999999547
  0
MTEXT
  5
FC
330
1F
100
AcDbEntity
  8
1
  6
Continuous
 62
     7
100
AcDbMText
 10
1531.61192423054
 20
-323.4160039949468
 30
0.0
 40
6.0
 41
0.0
 71
     7
 72
     5
  1
{\fＭＳ 明朝|b0|i0|c128|p17;\W1.0;スリップワッシャー②}
  7
MTSTANDARD3
 73
     1
 44
1.145833333300127
  0
LINE
  5
FD
330
1F
100
AcDbEntity
  8
1
  6
Continuous
 62
     7
100
AcDbLine
 10
1671.611924233361
 20
-297.2819579883313
 30
0.0
 11
1711.611924233362
 21
-297.2819579883313
 31
0.0
  0
LINE
  5
FE
330
1F
100
AcDbEntity
  8
1
  6
Continuous
 62
     7
100
AcDbLine
 10
1509.611924233339
 20
-344.4160039952654
 30
0.0
 11
1721.611924233412
 21
-344.4160039952654
 31
0.0
  0
INSERT
  5
104
330
1F
100
AcDbEntity
  8
1
  6
Continuous
 62
     3
100
AcDbBlockReference
  2
MAKR6
 10
1517.611924233333
 20
-320.4160039959032
 30
0.0
  0
MTEXT
  5
105
330
1F
100
AcDbEntity
  8
1
  6
Continuous
 62
     7
100
AcDbMText
 10
1545.791611732461
 20
-340.4160039949467
 30
0.0
 40
8.0
 41
0.0
 71
     7
 72
     5
  1
{\fＭＳ 明朝|b0|i0|c128|p17;\W1.0;袋ナット}
  7
MTSTANDARD
 73
     1
 44
1.875000000049787
  0
MTEXT
  5
106
330
1F
100
AcDbEntity
  8
1
  6
Continuous
 62
     7
100
AcDbMText
 10
1557.656846108346
 20
-260.4160039965688
 30
0.0
 40
8.0
 41
0.0
 71
     7
 72
     5
  1
{\fＭＳ 明朝|b0|i0|c128|p17;\W1.0;枠}
  7
MTSTANDARD
 73
     1
 44
1.875000000004396
  0
INSERT
  5
10C
330
1F
100
AcDbEntity
  8
1
  6
Continuous
 62
     3
100
AcDbBlockReference
  2
MAKR7
 10
1517.611924235496
 20
-336.4160039965405
 30
0.0
  0
MTEXT
  5
10D
330
1F
100
AcDbEntity
  8
1
  6
Continuous
 62
     7
100
AcDbMText
 10
1545.791611732461
 20
-356.416003995584
 30
0.0
 40
8.0
 41
0.0
 71
     7
 72
     5
  1
{\fＭＳ 明朝|b0|i0|c128|p17;\W1.0;Ｏリング}
  7
MTSTANDARD
 73
     1
 44
1.875000000049787
  0
LINE
  5
10E
330
1F
100
AcDbEntity
  8
1
  6
Continuous
 62
     7
100
AcDbLine
 10
1509.611924233338
 20
-360.4160039959027
 30
0.0
 11
1661.611924233361
 21
-360.4160039959027
 31
0.0
  0
INSERT
  5
114
330
1F
100
AcDbEntity
  8
1
  6
Continuous
 62
     3
100
AcDbBlockReference
  2
MAKR8
 10
1517.611924233332
 20
-352.4160039971778
 30
0.0
  0
LINE
  5
115
330
1F
100
AcDbEntity
  8
1
  6
Continuous
 62
     7
100
AcDbLine
 10
1509.611924231174
 20
-376.4160039965399
 30
0.0
 11
1661.611924233363
 21
-376.41600399654
 31
0.0
  0
MTEXT
  5
116
330
1F
100
AcDbEntity
  8
1
  6
Continuous
 62
     7
100
AcDbMText
 10
1599.289658608532
 20
-355.4160039959027
 30
0.0
 40
6.0
 41
0.0
 71
     7
 72
     5
  1
{\fＭＳ 明朝|b0|i0|c128|p17;\W1.0;ＣＲクロロプレンゴム}
  7
MTSTANDARD3
 73
     1
 44
2.291666666666667
  0
MTEXT
  5
117
330
1F
100
AcDbEntity
  8
1
  6
Continuous
 62
     7
100
AcDbMText
 10
1607.858994544998
 20
-340.4160039952654
 30
0.0
 40
8.0
 41
0.0
 71
     7
 72
     5
  1
{\fＭＳ 明朝|b0|i0|c128|p17;\W1.0;ＦＣ150鋳鉄}
  7
MTSTANDARD
 73
     1
 44
1.874999999999998
  0
MTEXT
  5
118
330
1F
100
AcDbEntity
  8
1
  6
Continuous
 62
     7
100
AcDbMText
 10
1605.881455482928
 20
-276.4160039959034
 30
0.0
 40
8.0
 41
0.0
 71
     7
 72
     5
  1
{\fＭＳ 明朝|b0|i0|c128|p17;\W1.0;ＥＰＤＭゴム}
  7
MTSTANDARD
 73
     1
 44
1.875
  0
LINE
  5
119
330
1F
100
AcDbEntity
  8
1
  6
Continuous
 62
     7
100
AcDbLine
 10
1671.611924249792
 20
-392.4160039952642
 30
0.0
 11
1711.611924249792
 21
-392.4160039952642
 31
0.0
  0
MTEXT
  5
11A
330
1F
100
AcDbEntity
  8
1
  6
Continuous
 62
     7
100
AcDbMText
 10
1671.611924233362
 20
-340.4160039952654
 30
0.0
 40
8.0
 41
0.0
 71
     7
 72
     5
  1
{\fＭＳ 明朝|b0|i0|c128|p17;\W1.0;錆止め塗装}
  7
MTSTANDARD
 73
     1
 44
1.874999999999998
  0
LINE
  5
11B
330
1F
100
AcDbEntity
  8
1
  6
Continuous
 62
     7
100
AcDbLine
 10
1777.68369806815
 20
-87.66375041484088
 30
0.0
 11
1772.68369806815
 21
-87.66375041484088
 31
0.0
  0
LINE
  5
11C
330
1F
100
AcDbEntity
  8
1
  6
Continuous
 62
     7
100
AcDbLine
 10
1807.68369806815
 20
-122.1637504148408
 30
0.0
 11
1777.68369806815
 21
-122.1637504148409
 31
0.0
  0
LINE
  5
11D
330
1F
100
AcDbEntity
  8
1
  6
Continuous
 62
     7
100
AcDbLine
 10
1777.68369806815
 20
-122.1637504148409
 30
0.0
 11
1777.68369806815
 21
-87.66375041484076
 31
0.0
  0
LINE
  5
11E
330
1F
100
AcDbEntity
  8
1
  6
Continuous
 62
     7
100
AcDbLine
 10
1765.12114138578
 20
-59.16375041484076
 30
0.0
 11
1807.68369806815
 21
-59.16375041484076
 31
0.0
  0
LINE
  5
11F
330
1F
100
AcDbEntity
  8
1
  6
Continuous
 62
     7
100
AcDbLine
 10
1782.68369806815
 20
-127.1637504148408
 30
0.0
 11
1808.68369806815
 21
-127.1637504148408
 31
0.0
  0
ARC
  5
120
330
1F
100
AcDbEntity
  8
1
  6
Continuous
 62
     7
100
AcDbCircle
 10
1782.68369806815
 20
-132.1637504148408
 30
0.0
 40
5.0
100
AcDbArc
 50
90.0
 51
180.0
  0
LINE
  5
121
330
1F
100
AcDbEntity
  8
1
  6
Continuous
 62
     7
100
AcDbLine
 10
1772.68369806815
 20
-147.6637504148409
 30
0.0
 11
1772.68369806815
 21
-87.66375041484088
 31
0.0
  0
LINE
  5
122
330
1F
100
AcDbEntity
  8
1
  6
Continuous
 62
     7
100
AcDbLine
 10
1767.68369806815
 20
-152.6637504148409
 30
0.0
 11
1712.68369806815
 21
-152.6637504148409
 31
0.0
  0
ARC
  5
123
330
1F
100
AcDbEntity
  8
1
  6
Continuous
 62
     7
100
AcDbCircle
 10
1767.68369806815
 20
-147.6637504148409
 30
0.0
 40
5.0
100
AcDbArc
 50
270.0
 51
0.0
  0
LINE
  5
124
330
1F
100
AcDbEntity
  8
1
  6
Continuous
 62
     7
100
AcDbLine
 10
1767.68369806815
 20
-157.6637504148408
 30
0.0
 11
1657.68369806815
 21
-157.6637504148408
 31
0.0
  0
LINE
  5
125
330
1F
100
AcDbEntity
  8
1
  6
Continuous
 62
     7
100
AcDbLine
 10
1777.68369806815
 20
-147.6637504148408
 30
0.0
 11
1777.68369806815
 21
-132.1637504148408
 31
0.0
  0
ARC
  5
126
330
1F
100
AcDbEntity
  8
1
  6
Continuous
 62
     7
100
AcDbCircle
 10
1767.68369806815
 20
-147.6637504148408
 30
0.0
 40
10.0
100
AcDbArc
 50
270.0
 51
0.0
  0
ARC
  5
127
330
1F
100
AcDbEntity
  8
1
  6
Continuous
 62
     7
100
AcDbCircle
 10
1732.68369806815
 20
-131.6637504148408
 30
0.0
 40
1.0
100
AcDbArc
 50
180.0
 51
270.0
  0
LINE
  5
128
330
1F
100
AcDbEntity
  8
1
  6
Continuous
 62
     7
100
AcDbLine
 10
1735.68369806815
 20
-132.6637504148408
 30
0.0
 11
1732.68369806815
 21
-132.6637504148408
 31
0.0
  0
ARC
  5
129
330
1F
100
AcDbEntity
  8
1
  6
Continuous
 62
     7
100
AcDbCircle
 10
1735.68369806815
 20
-131.6637504148408
 30
0.0
 40
1.0
100
AcDbArc
 50
270.0
 51
0.0
  0
LINE
  5
12A
330
1F
100
AcDbEntity
  8
1
  6
Continuous
 62
     7
100
AcDbLine
 10
1762.096171546851
 20
-59.69713421327339
 30
0.0
 11
1765.12114138578
 21
-59.16375041484076
 31
0.0
  0
LINE
  5
12B
330
1F
100
AcDbEntity
  8
1
  6
Continuous
 62
     7
100
AcDbLine
 10
1764.327461438725
 20
-52.1957113203535
 30
0.0
 11
1743.646498625469
 21
-55.84232305135907
 31
0.0
  0
LINE
  5
12C
330
1F
100
AcDbEntity
  8
1
  6
Continuous
 62
     7
100
AcDbLine
 10
1743.646498625469
 20
-55.84232305135907
 30
0.0
 11
1744.341091336137
 21
-59.7815540634079
 31
0.0
  0
LINE
  5
12D
330
1F
100
AcDbEntity
  8
1
  6
Continuous
 62
     7
100
AcDbLine
 10
1765.022054149393
 20
-56.13494233240255
 30
0.0
 11
1764.327461438725
 21
-52.1957113203535
 31
0.0
  0
LINE
  5
12E
330
1F
100
AcDbEntity
  8
1
  6
Continuous
 62
     7
100
AcDbLine
 10
1761.227699021944
 20
-54.77178177193122
 30
0.0
 11
1763.138060612853
 21
-65.60598073134662
 31
0.0
  0
LINE
  5
12F
330
1F
100
AcDbEntity
  8
1
  6
Continuous
 62
     7
100
AcDbLine
 10
1763.138060612853
 20
-65.60598073134662
 30
0.0
 11
1749.350752070682
 21
-68.03705521868352
 31
0.0
  0
LINE
  5
130
330
1F
100
AcDbEntity
  8
1
  6
Continuous
 62
     7
100
AcDbLine
 10
1749.350752070682
 20
-68.03705521868352
 30
0.0
 11
1747.440575789031
 21
-57.20390720029301
 31
0.0
  0
LINE
  5
131
330
1F
100
AcDbEntity
  8
1
  6
CENTER2
 62
     7
100
AcDbLine
 10
1752.937039725724
 20
-48.0645098146386
 30
0.0
 11
1756.917809671494
 21
-70.64057803616248
 31
0.0
  0
LINE
  5
132
330
1F
100
AcDbEntity
  8
1
  6
Continuous
 62
     7
100
AcDbLine
 10
1761.57522701385
 20
-56.74271095423666
 30
0.0
 11
1765.030994423484
 21
-56.1333659208654
 31
0.0
  0
LINE
  5
133
330
1F
100
AcDbEntity
  8
1
  6
Continuous
 62
     7
100
AcDbLine
 10
1759.749516909649
 20
-63.66490588181688
 30
0.0
 11
1751.871054885551
 21
-65.05409130315223
 31
0.0
  0
LINE
  5
134
330
1F
100
AcDbEntity
  8
1
  6
Continuous
 62
     7
100
AcDbLine
 10
1750.835595222458
 20
-54.5746913543905
 30
0.0
 11
1752.658901087961
 21
-64.91517276101871
 31
0.0
  0
LINE
  5
135
330
1F
100
AcDbEntity
  8
1
  6
Continuous
 62
     7
100
AcDbLine
 10
1758.961670707239
 20
-63.8038244239504
 30
0.0
 11
1757.138364841736
 21
-53.46334301732219
 31
0.0
  0
LINE
  5
136
330
1F
100
AcDbEntity
  8
1
  6
Continuous
 62
     7
100
AcDbLine
 10
1757.926211044146
 20
-53.32442447518866
 30
0.0
 11
1759.749516909649
 21
-63.66490588181688
 31
0.0
  0
LINE
  5
137
330
1F
100
AcDbEntity
  8
1
  6
Continuous
 62
     7
100
AcDbLine
 10
1751.871054885551
 20
-65.05409130315223
 30
0.0
 11
1750.047749020048
 21
-54.71360989652413
 31
0.0
  0
LINE
  5
138
330
1F
100
AcDbEntity
  8
1
  6
Continuous
 62
     7
100
AcDbLine
 10
1771.68369806815
 20
-54.16375041484076
 30
0.0
 11
1764.674479830172
 21
-54.16375041484076
 31
0.0
  0
LINE
  5
139
330
1F
100
AcDbEntity
  8
1
  6
Continuous
 62
     7
100
AcDbLine
 10
1738.294512646815
 20
-60.84772902731225
 30
0.0
 11
1747.787918471679
 21
-59.17378544157367
 31
0.0
  0
LINE
  5
13A
330
1F
100
AcDbEntity
  8
1
  6
Continuous
 62
     7
100
AcDbLine
 10
1731.68369806815
 20
-68.7261910514099
 30
0.0
 11
1731.68369806815
 21
-131.6637504148408
 31
0.0
  0
LINE
  5
13B
330
1F
100
AcDbEntity
  8
1
  6
Continuous
 62
     7
100
AcDbLine
 10
1739.162753535149
 20
-65.77176779237317
 30
0.0
 11
1748.656159360014
 21
-64.0978242066347
 31
0.0
  0
LINE
  5
13C
330
1F
100
AcDbEntity
  8
1
  6
Continuous
 62
     7
100
AcDbLine
 10
1736.68369806815
 20
-68.7261910514099
 30
0.0
 11
1736.68369806815
 21
-131.6637504148408
 31
0.0
  0
ARC
  5
13D
330
1F
100
AcDbEntity
  8
1
  6
Continuous
 62
     7
100
AcDbCircle
 10
1739.68369806815
 20
-68.7261910514099
 30
0.0
 40
3.0
100
AcDbArc
 50
100.0000000000004
 51
180.0
  0
ARC
  5
13E
330
1F
100
AcDbEntity
  8
1
  6
Continuous
 62
     7
100
AcDbCircle
 10
1739.68369806815
 20
-68.7261910514099
 30
0.0
 40
8.0
100
AcDbArc
 50
99.99999999999861
 51
180.0
  0
LINE
  5
13F
330
1F
100
AcDbEntity
  8
1
  6
CENTER2
 62
     7
100
AcDbLine
 10
1802.831962537087
 20
-92.66375041484076
 30
0.0
 11
1915.552241454526
 21
-92.66375041484076
 31
0.0
  0
LINE
  5
140
330
1F
100
AcDbEntity
  8
1
  6
Continuous
 62
     7
100
AcDbLine
 10
1832.68369806815
 20
-133.1637504148408
 30
0.0
 11
1812.68369806815
 21
-133.1637504148408
 31
0.0
  0
LINE
  5
141
330
1F
100
AcDbEntity
  8
1
  6
Continuous
 62
     7
100
AcDbLine
 10
1812.68369806815
 20
-133.1637504148408
 30
0.0
 11
1808.68369806815
 21
-127.1637504148409
 31
0.0
  0
LINE
  5
142
330
1F
100
AcDbEntity
  8
1
  6
Continuous
 62
     7
100
AcDbLine
 10
1838.18369806815
 20
-137.6637504148408
 30
0.0
 11
1841.68369806815
 21
-139.6637504148408
 31
0.0
  0
LINE
  5
143
330
1F
100
AcDbEntity
  8
1
  6
Continuous
 62
     7
100
AcDbLine
 10
1838.18369806815
 20
-137.6637504148408
 30
0.0
 11
1838.18369806815
 21
-129.6637504148409
 31
0.0
  0
LINE
  5
144
330
1F
100
AcDbEntity
  8
1
  6
Continuous
 62
     7
100
AcDbLine
 10
1807.68369806815
 20
-59.16375041484076
 30
0.0
 11
1807.68369806815
 21
-122.1637504148419
 31
0.0
  0
LINE
  5
145
330
1F
100
AcDbEntity
  8
1
  6
Continuous
 62
     7
100
AcDbLine
 10
1867.68369806815
 20
-134.1637504148408
 30
0.0
 11
1864.18369806815
 21
-134.1637504148408
 31
0.0
  0
LINE
  5
146
330
1F
100
AcDbEntity
  8
1
  6
Continuous
 62
     7
100
AcDbLine
 10
1812.68369806815
 20
-122.1637504148408
 30
0.0
 11
1815.18369806815
 21
-124.6637504148408
 31
0.0
  0
LINE
  5
147
330
1F
100
AcDbEntity
  8
1
  6
Continuous
 62
     7
100
AcDbLine
 10
1815.18369806815
 20
-124.6637504148408
 30
0.0
 11
1836.68369806815
 21
-124.6637504148408
 31
0.0
  0
LINE
  5
148
330
1F
100
AcDbEntity
  8
1
  6
Continuous
 62
     7
100
AcDbLine
 10
1812.68369806815
 20
-122.1637504148408
 30
0.0
 11
1812.68369806815
 21
-63.16375041484088
 31
0.0
  0
LINE
  5
149
330
1F
100
AcDbEntity
  8
1
  6
Continuous
 62
     7
100
AcDbLine
 10
1812.68369806815
 20
-118.6637504148408
 30
0.0
 11
1807.68369806815
 21
-118.6637504148408
 31
0.0
  0
LINE
  5
14A
330
1F
100
AcDbEntity
  8
1
  6
Continuous
 62
     7
100
AcDbLine
 10
1836.68369806815
 20
-122.6637504148403
 30
0.0
 11
1849.183698068151
 21
-122.6637504148403
 31
0.0
  0
LINE
  5
14B
330
1F
100
AcDbEntity
  8
1
  6
Continuous
 62
     7
100
AcDbLine
 10
1851.68369806815
 20
-125.1637504148403
 30
0.0
 11
1849.183698068151
 21
-122.6637504148403
 31
0.0
  0
LINE
  5
14C
330
1F
100
AcDbEntity
  8
1
  6
Continuous
 62
     7
100
AcDbLine
 10
1836.68369806815
 20
-124.6637504148408
 30
0.0
 11
1836.68369806815
 21
-122.6637504148403
 31
0.0
  0
LINE
  5
14D
330
1F
100
AcDbEntity
  8
1
  6
Continuous
 62
     7
100
AcDbLine
 10
1867.68369806815
 20
-134.1637504148408
 30
0.0
 11
1867.68369806815
 21
-122.1637504148404
 31
0.0
  0
LINE
  5
14E
330
1F
100
AcDbEntity
  8
1
  6
Continuous
 62
     7
100
AcDbLine
 10
1867.683698068153
 20
-124.1637504148408
 30
0.0
 11
1861.183698068153
 21
-124.1637504148408
 31
0.0
  0
CIRCLE
  5
14F
330
1F
100
AcDbEntity
  8
1
  6
Continuous
 62
     7
100
AcDbCircle
 10
1856.14355147587
 20
-126.6236038225608
 30
0.0
 40
4.459853407720061
  0
LINE
  5
150
330
1F
100
AcDbEntity
  8
1
  6
Continuous
 62
     7
100
AcDbLine
 10
1851.68369806815
 20
-125.1637504148403
 30
0.0
 11
1851.68369806815
 21
-131.1637504148368
 31
0.0
  0
LINE
  5
151
330
1F
100
AcDbEntity
  8
1
  6
Continuous
 62
     7
100
AcDbLine
 10
1851.68369806815
 20
-130.6637504148345
 30
0.0
 11
1838.18369806815
 21
-130.6637504148345
 31
0.0
  0
LINE
  5
152
330
1F
100
AcDbEntity
  8
1
  6
Continuous
 62
     7
100
AcDbLine
 10
1838.18369806815
 20
-131.1637504148368
 30
0.0
 11
1859.683698068168
 21
-131.1637504148369
 31
0.0
  0
LINE
  5
153
330
1F
100
AcDbEntity
  8
1
  6
Continuous
 62
     7
100
AcDbLine
 10
1861.183698068153
 20
-124.1637504148408
 30
0.0
 11
1859.683698068168
 21
-131.1637504148368
 31
0.0
  0
SPLINE
  5
154
330
1F
100
AcDbEntity
  8
1
  6
PHANTOM2
 62
     7
100
AcDbSpline
210
0.0
220
0.0
230
1.0
 70
     8
 71
     3
 72
    14
 73
    10
 74
     0
 42
0.000000001
 43
0.0
 40
0.0
 40
0.0
 40
0.0
 40
0.0
 40
1.0
 40
1.0
 40
1.0
 40
2.0
 40
2.0
 40
2.0
 40
3.0
 40
3.0
 40
3.0
 40
3.0
 10
1876.902853324681
 20
-92.66375041484076
 30
0.0
 10
1876.902853324681
 20
-92.66375041484076
 30
0.0
 10
1880.720935496093
 20
-99.36033454870557
 30
0.0
 10
1880.69167226041
 20
-102.5386147125764
 30
0.0
 10
1880.662409024728
 20
-105.7168948764473
 30
0.0
 10
1877.207807043898
 20
-108.4625754476884
 30
0.0
 10
1876.727273910586
 20
-111.7334313980658
 30
0.0
 10
1876.246740777274
 20
-115.0042873484433
 30
0.0
 10
1877.808473460538
 20
-122.1637504148408
 30
0.0
 10
1877.808473460538
 20
-122.1637504148408
 30
0.0
  0
LINE
  5
155
330
1F
100
AcDbEntity
  8
1
  6
PHANTOM2
 62
     7
100
AcDbLine
 10
1812.68369806815
 20
-119.6637504148408
 30
0.0
 11
1877.318970551451
 21
-119.6637504148408
 31
0.0
  0
LINE
  5
156
330
1F
100
AcDbEntity
  8
1
  6
Continuous
 62
     7
100
AcDbLine
 10
1838.18369806815
 20
-47.66375041484088
 30
0.0
 11
1841.68369806815
 21
-45.66375041484088
 31
0.0
  0
LINE
  5
157
330
1F
100
AcDbEntity
  8
1
  6
Continuous
 62
     7
100
AcDbLine
 10
1838.18369806815
 20
-47.66375041484088
 30
0.0
 11
1838.18369806815
 21
-55.66375041484076
 31
0.0
  0
LINE
  5
158
330
1F
100
AcDbEntity
  8
1
  6
Continuous
 62
     7
100
AcDbLine
 10
1867.68369806815
 20
-51.16375041484076
 30
0.0
 11
1864.18369806815
 21
-51.16375041484076
 31
0.0
  0
LINE
  5
159
330
1F
100
AcDbEntity
  8
1
  6
Continuous
 62
     7
100
AcDbLine
 10
1812.68369806815
 20
-63.16375041484088
 30
0.0
 11
1815.18369806815
 21
-60.66375041484088
 31
0.0
  0
LINE
  5
15A
330
1F
100
AcDbEntity
  8
1
  6
Continuous
 62
     7
100
AcDbLine
 10
1815.18369806815
 20
-60.66375041484088
 30
0.0
 11
1836.68369806815
 21
-60.66375041484088
 31
0.0
  0
LINE
  5
15B
330
1F
100
AcDbEntity
  8
1
  6
Continuous
 62
     7
100
AcDbLine
 10
1812.68369806815
 20
-66.66375041484076
 30
0.0
 11
1807.68369806815
 21
-66.66375041484076
 31
0.0
  0
LINE
  5
15C
330
1F
100
AcDbEntity
  8
1
  6
Continuous
 62
     7
100
AcDbLine
 10
1836.68369806815
 20
-62.66375041484122
 30
0.0
 11
1849.183698068151
 21
-62.66375041484122
 31
0.0
  0
LINE
  5
15D
330
1F
100
AcDbEntity
  8
1
  6
Continuous
 62
     7
100
AcDbLine
 10
1851.68369806815
 20
-60.16375041484122
 30
0.0
 11
1849.183698068151
 21
-62.66375041484122
 31
0.0
  0
LINE
  5
15E
330
1F
100
AcDbEntity
  8
1
  6
Continuous
 62
     7
100
AcDbLine
 10
1836.68369806815
 20
-60.66375041484088
 30
0.0
 11
1836.68369806815
 21
-62.66375041484122
 31
0.0
  0
LINE
  5
15F
330
1F
100
AcDbEntity
  8
1
  6
Continuous
 62
     7
100
AcDbLine
 10
1867.68369806815
 20
-51.16375041484076
 30
0.0
 11
1867.68369806815
 21
-63.16375041484122
 31
0.0
  0
LINE
  5
160
330
1F
100
AcDbEntity
  8
1
  6
Continuous
 62
     7
100
AcDbLine
 10
1867.683698068153
 20
-61.16375041484076
 30
0.0
 11
1861.183698068153
 21
-61.16375041484076
 31
0.0
  0
CIRCLE
  5
161
330
1F
100
AcDbEntity
  8
1
  6
Continuous
 62
     7
100
AcDbCircle
 10
1856.14355147587
 20
-58.70389700712082
 30
0.0
 40
4.459853407720061
  0
LINE
  5
162
330
1F
100
AcDbEntity
  8
1
  6
Continuous
 62
     7
100
AcDbLine
 10
1851.68369806815
 20
-60.16375041484122
 30
0.0
 11
1851.68369806815
 21
-54.16375041484486
 31
0.0
  0
LINE
  5
163
330
1F
100
AcDbEntity
  8
1
  6
Continuous
 62
     7
100
AcDbLine
 10
1851.68369806815
 20
-54.66375041484713
 30
0.0
 11
1838.18369806815
 21
-54.66375041484713
 31
0.0
  0
LINE
  5
164
330
1F
100
AcDbEntity
  8
1
  6
Continuous
 62
     7
100
AcDbLine
 10
1838.18369806815
 20
-54.16375041484486
 30
0.0
 11
1859.683698068168
 21
-54.16375041484486
 31
0.0
  0
LINE
  5
165
330
1F
100
AcDbEntity
  8
1
  6
Continuous
 62
     7
100
AcDbLine
 10
1861.183698068153
 20
-61.16375041484076
 30
0.0
 11
1859.683698068168
 21
-54.16375041484486
 31
0.0
  0
SPLINE
  5
166
330
1F
100
AcDbEntity
  8
1
  6
PHANTOM2
 62
     7
100
AcDbSpline
210
0.0
220
0.0
230
1.0
 70
     8
 71
     3
 72
    14
 73
    10
 74
     0
 42
0.000000001
 43
0.0
 40
0.0
 40
0.0
 40
0.0
 40
0.0
 40
1.0
 40
1.0
 40
1.0
 40
2.0
 40
2.0
 40
2.0
 40
3.0
 40
3.0
 40
3.0
 40
3.0
 10
1876.902853324681
 20
-92.66375041484076
 30
0.0
 10
1876.902853324681
 20
-92.66375041484076
 30
0.0
 10
1880.720935496093
 20
-85.96716628097607
 30
0.0
 10
1880.69167226041
 20
-82.78888611710516
 30
0.0
 10
1880.662409024728
 20
-79.61060595323437
 30
0.0
 10
1877.207807043898
 20
-76.86492538199326
 30
0.0
 10
1876.727273910586
 20
-73.59406943161576
 30
0.0
 10
1876.246740777274
 20
-70.32321348123838
 30
0.0
 10
1877.808473460538
 20
-63.16375041484076
 30
0.0
 10
1877.808473460538
 20
-63.16375041484076
 30
0.0
  0
LINE
  5
167
330
1F
100
AcDbEntity
  8
1
  6
PHANTOM2
 62
     7
100
AcDbLine
 10
1812.68369806815
 20
-65.66375041484088
 30
0.0
 11
1877.318970551451
 21
-65.66375041484088
 31
0.0
  0
LINE
  5
168
330
1F
100
AcDbEntity
  8
1
  6
Continuous
 62
     7
100
AcDbLine
 10
1838.18369806815
 20
-55.66375041484076
 30
0.0
 11
1833.040840925293
 21
-55.66375041484076
 31
0.0
  0
LINE
  5
169
330
1F
100
AcDbEntity
  8
1
  6
Continuous
 62
     7
100
AcDbLine
 10
1832.18369806815
 20
-54.16375041484076
 30
0.0
 11
1776.68369806815
 21
-54.16375041484076
 31
0.0
  0
LINE
  5
16A
330
1F
100
AcDbEntity
  8
1
  6
Continuous
 62
     7
100
AcDbLine
 10
1833.040840925293
 20
-55.66375041484076
 30
0.0
 11
1832.18369806815
 21
-54.16375041484145
 31
0.0
  0
LINE
  5
16B
330
1F
100
AcDbEntity
  8
1
  6
Continuous
 62
     7
100
AcDbLine
 10
1835.844343139092
 20
-129.6637504148409
 30
0.0
 11
1838.18369806815
 21
-129.6637504148409
 31
0.0
  0
LINE
  5
16C
330
1F
100
AcDbEntity
  8
1
  6
Continuous
 62
     7
100
AcDbLine
 10
1834.107856854844
 20
-130.6714725381273
 30
0.0
 11
1832.68369806815
 21
-133.1637504148408
 31
0.0
  0
ARC
  5
16D
330
1F
100
AcDbEntity
  8
1
  6
Continuous
 62
     7
100
AcDbCircle
 10
1835.844343139092
 20
-131.6637504148409
 30
0.0
 40
2.0
100
AcDbArc
 50
90.0
 51
150.2551187030562
  0
LINE
  5
16E
330
1F
100
AcDbEntity
  8
1
  6
Continuous
 62
     7
100
AcDbLine
 10
1862.662430385905
 20
-138.3472365410142
 30
0.0
 11
1864.18369806815
 21
-134.1637504148408
 31
0.0
  0
LINE
  5
16F
330
1F
100
AcDbEntity
  8
1
  6
Continuous
 62
     7
100
AcDbLine
 10
1860.782843538928
 20
-139.6637504148408
 30
0.0
 11
1841.68369806815
 21
-139.6637504148408
 31
0.0
  0
ARC
  5
170
330
1F
100
AcDbEntity
  8
1
  6
Continuous
 62
     7
100
AcDbCircle
 10
1860.782843538928
 20
-137.6637504148408
 30
0.0
 40
2.0
100
AcDbArc
 50
270.0
 51
340.0168934781006
  0
LINE
  5
171
330
1F
100
AcDbEntity
  8
1
  6
Continuous
 62
     7
100
AcDbLine
 10
1862.662430385905
 20
-46.98026428866746
 30
0.0
 11
1864.18369806815
 21
-51.16375041484076
 31
0.0
  0
LINE
  5
172
330
1F
100
AcDbEntity
  8
1
  6
Continuous
 62
     7
100
AcDbLine
 10
1860.782843538928
 20
-45.66375041484088
 30
0.0
 11
1841.68369806815
 21
-45.66375041484088
 31
0.0
  0
ARC
  5
173
330
1F
100
AcDbEntity
  8
1
  6
Continuous
 62
     7
100
AcDbCircle
 10
1860.782843538928
 20
-47.66375041484088
 30
0.0
 40
2.0
100
AcDbArc
 50
19.98310652189942
 51
90.0
  0
ARC
  5
174
330
1F
100
AcDbEntity
  8
1
  6
Continuous
 62
     7
100
AcDbCircle
 10
1657.68369806815
 20
-147.6637504148408
 30
0.0
 40
10.0
100
AcDbArc
 50
180.0
 51
270.0
  0
LINE
  5
175
330
1F
100
AcDbEntity
  8
1
  6
CENTER2
 62
     7
100
AcDbLine
 10
1712.68369806815
 20
28.57292605730163
 30
0.0
 11
1712.68369806815
 21
-171.4911585215471
 31
0.0
  0
HATCH
  5
176
330
1F
100
AcDbEntity
  8
寸法
  6
Continuous
 62
     7
100
AcDbHatch
 10
0.0
 20
0.0
 30
0.0
210
0.0
220
0.0
230
1.0
  2
_U
 70
     0
 71
     0
 91
        1
 92
        0
 93
       12
 72
     1
 10
1750.835595222458
 20
-54.5746913543905
 11
1743.646498625469
 21
-55.84232305135907
 72
     1
 10
1743.646498625469
 20
-55.84232305135907
 11
1744.341091336137
 21
-59.7815540634079
 72
     1
 10
1744.341091336137
 20
-59.7815540634079
 11
1747.787918471679
 21
-59.17378544157367
 72
     1
 10
1747.787918471679
 20
-59.17378544157367
 11
1749.350752070682
 21
-68.03705521868352
 72
     1
 10
1749.350752070682
 20
-68.03705521868352
 11
1763.138060612853
 21
-65.60598073134662
 72
     1
 10
1763.138060612853
 20
-65.60598073134662
 11
1761.57522701385
 21
-56.74271095423666
 72
     1
 10
1761.57522701385
 20
-56.74271095423666
 11
1765.022054149393
 21
-56.13494233240243
 72
     1
 10
1765.022054149393
 20
-56.13494233240243
 11
1764.327461438725
 21
-52.19571132035361
 72
     1
 10
1764.327461438725
 20
-52.19571132035361
 11
1757.138364841736
 21
-53.46334301732219
 72
     1
 10
1757.138364841736
 20
-53.46334301732219
 11
1758.961670707239
 21
-63.8038244239504
 72
     1
 10
1758.961670707239
 20
-63.8038244239504
 11
1752.658901087961
 21
-64.91517276101882
 72
     1
 10
1752.658901087961
 20
-64.91517276101882
 11
1750.835595222458
 21
-54.5746913543905
 97
        0
 75
     0
 76
     0
 52
315.0
 41
3.0
 77
     0
 78
     1
 53
315.0
 43
0.0
 44
0.0
 45
2.121320343559643
 46
2.121320343559642
 79
     0
 98
        1
 10
0.0
 20
0.0
  0
HATCH
  5
177
330
1F
100
AcDbEntity
  8
寸法
  6
Continuous
 62
     7
100
AcDbHatch
 10
0.0
 20
0.0
 30
0.0
210
0.0
220
0.0
230
1.0
  2
_U
 70
     0
 71
     0
 91
        1
 92
        0
 93
        1
 72
     2
 10
1856.14355147587
 20
-58.70389700712082
 40
4.459853407720061
 50
0.0
 51
360.0
 73
     1
 97
        0
 75
     0
 76
     0
 52
45.0
 41
3.0
 77
     1
 78
     2
 53
45.0
 43
0.0
 44
0.0
 45
-2.121320343559643
 46
2.121320343559643
 79
     0
 53
135.0
 43
0.0
 44
0.0
 45
-2.121320343559643
 46
-2.121320343559642
 79
     0
 98
        1
 10
0.0
 20
0.0
  0
HATCH
  5
178
330
1F
100
AcDbEntity
  8
寸法
  6
Continuous
 62
     7
100
AcDbHatch
 10
0.0
 20
0.0
 30
0.0
210
0.0
220
0.0
230
1.0
  2
_U
 70
     0
 71
     0
 91
        1
 92
        0
 93
        1
 72
     2
 10
1856.14355147587
 20
-126.6236038225608
 40
4.459853407720061
 50
0.0
 51
360.0
 73
     1
 97
        0
 75
     0
 76
     0
 52
45.0
 41
3.0
 77
     1
 78
     2
 53
45.0
 43
0.0
 44
0.0
 45
-2.121320343559643
 46
2.121320343559643
 79
     0
 53
135.0
 43
0.0
 44
0.0
 45
-2.121320343559643
 46
-2.121320343559642
 79
     0
 98
        1
 10
0.0
 20
0.0
  0
HATCH
  5
179
330
1F
100
AcDbEntity
  8
寸法
  6
Continuous
 62
     7
100
AcDbHatch
 10
0.0
 20
0.0
 30
0.0
210
0.0
220
0.0
230
1.0
  2
_U
 70
     0
 71
     0
 91
        1
 92
        0
 93
       11
 72
     1
 10
1860.782843538928
 20
-45.66375041484088
 11
1841.68369806815
 21
-45.66375041484088
 72
     1
 10
1841.68369806815
 20
-45.66375041484088
 11
1838.18369806815
 21
-47.66375041484088
 72
     1
 10
1838.18369806815
 20
-47.66375041484088
 11
1838.18369806815
 21
-54.16375041484486
 72
     1
 10
1838.18369806815
 20
-54.16375041484486
 11
1851.68369806815
 21
-54.16375041484486
 72
     1
 10
1851.68369806815
 20
-54.16375041484486
 11
1859.683698068168
 21
-54.16375041484486
 72
     1
 10
1859.683698068168
 20
-54.16375041484486
 11
1861.183698068153
 21
-61.16375041484076
 72
     1
 10
1861.183698068153
 20
-61.16375041484076
 11
1867.68369806815
 21
-61.16375041484076
 72
     1
 10
1867.68369806815
 20
-61.16375041484076
 11
1867.68369806815
 21
-51.16375041484076
 72
     1
 10
1867.68369806815
 20
-51.16375041484076
 11
1864.18369806815
 21
-51.16375041484076
 72
     1
 10
1864.18369806815
 20
-51.16375041484076
 11
1862.662430385905
 21
-46.98026428866746
 72
     2
 10
1860.782843538928
 20
-47.66375041484088
 40
2.0
 50
19.98310652189942
 51
90.0
 73
     1
 97
        0
 75
     0
 76
     0
 52
315.0
 41
3.0
 77
     0
 78
     1
 53
315.0
 43
0.0
 44
0.0
 45
2.121320343559643
 46
2.121320343559642
 79
     0
 98
        1
 10
0.0
 20
0.0
  0
HATCH
  5
17A
330
1F
100
AcDbEntity
  8
寸法
  6
Continuous
 62
     7
100
AcDbHatch
 10
0.0
 20
0.0
 30
0.0
210
0.0
220
0.0
230
1.0
  2
_U
 70
     0
 71
     0
 91
        1
 92
        0
 93
       10
 72
     1
 10
1747.787918471679
 20
-59.17378544157367
 11
1738.294512646815
 21
-60.84772902731225
 72
     2
 10
1739.68369806815
 20
-68.7261910514099
 40
8.0
 50
99.99999999999861
 51
180.0
 73
     1
 72
     1
 10
1731.68369806815
 20
-68.7261910514099
 11
1731.68369806815
 21
-131.6637504148408
 72
     2
 10
1732.68369806815
 20
-131.6637504148408
 40
1.0
 50
180.0
 51
270.0
 73
     1
 72
     1
 10
1732.68369806815
 20
-132.6637504148408
 11
1735.68369806815
 21
-132.6637504148408
 72
     2
 10
1735.68369806815
 20
-131.6637504148408
 40
1.0
 50
270.0
 51
360.0
 73
     1
 72
     1
 10
1736.68369806815
 20
-131.6637504148408
 11
1736.68369806815
 21
-68.7261910514099
 72
     2
 10
1739.68369806815
 20
-68.7261910514099
 40
3.0
 50
180.0
 51
259.9999999999996
 73
     0
 72
     1
 10
1739.162753535149
 20
-65.77176779237317
 11
1748.656159360014
 21
-64.0978242066347
 72
     1
 10
1748.656159360014
 20
-64.0978242066347
 11
1747.787918471679
 21
-59.17378544157367
 97
        0
 75
     0
 76
     0
 52
45.0
 41
3.0
 77
     0
 78
     1
 53
45.0
 43
0.0
 44
0.0
 45
-2.121320343559643
 46
2.121320343559643
 79
     0
 98
        1
 10
0.0
 20
0.0
  0
HATCH
  5
17B
330
1F
100
AcDbEntity
  8
寸法
  6
Continuous
 62
     7
100
AcDbHatch
 10
0.0
 20
0.0
 30
0.0
210
0.0
220
0.0
230
1.0
  2
_U
 70
     0
 71
     0
 91
        1
 92
        0
 93
       11
 72
     1
 10
1860.782843538928
 20
-139.6637504148408
 11
1841.68369806815
 21
-139.6637504148408
 72
     1
 10
1841.68369806815
 20
-139.6637504148408
 11
1838.18369806815
 21
-137.6637504148408
 72
     1
 10
1838.18369806815
 20
-137.6637504148408
 11
1838.18369806815
 21
-131.1637504148368
 72
     1
 10
1838.18369806815
 20
-131.1637504148368
 11
1851.68369806815
 21
-131.1637504148368
 72
     1
 10
1851.68369806815
 20
-131.1637504148368
 11
1859.683698068168
 21
-131.1637504148368
 72
     1
 10
1859.683698068168
 20
-131.1637504148368
 11
1861.183698068153
 21
-124.1637504148408
 72
     1
 10
1861.183698068153
 20
-124.1637504148408
 11
1867.68369806815
 21
-124.1637504148408
 72
     1
 10
1867.68369806815
 20
-124.1637504148408
 11
1867.68369806815
 21
-134.1637504148408
 72
     1
 10
1867.68369806815
 20
-134.1637504148408
 11
1864.18369806815
 21
-134.1637504148408
 72
     1
 10
1864.18369806815
 20
-134.1637504148408
 11
1862.662430385905
 21
-138.3472365410142
 72
     2
 10
1860.782843538928
 20
-137.6637504148408
 40
2.0
 50
19.98310652189942
 51
90.0
 73
     0
 97
        0
 75
     0
 76
     0
 52
315.0
 41
3.0
 77
     0
 78
     1
 53
315.0
 43
0.0
 44
0.0
 45
2.121320343559643
 46
2.121320343559642
 79
     0
 98
        1
 10
0.0
 20
0.0
  0
HATCH
  5
17C
330
1F
100
AcDbEntity
  8
寸法
  6
Continuous
 62
     7
100
AcDbHatch
 10
0.0
 20
0.0
 30
0.0
210
0.0
220
0.0
230
1.0
  2
_U
 70
     0
 71
     0
 91
        1
 92
        0
 93
       30
 72
     1
 10
1712.68369806815
 20
-152.6637504148408
 11
1767.68369806815
 21
-152.6637504148409
 72
     2
 10
1767.68369806815
 20
-147.6637504148409
 40
5.0
 50
270.0
 51
360.0
 73
     1
 72
     1
 10
1772.68369806815
 20
-147.6637504148409
 11
1772.68369806815
 21
-87.66375041484088
 72
     1
 10
1772.68369806815
 20
-87.66375041484088
 11
1777.68369806815
 21
-87.66375041484088
 72
     1
 10
1777.68369806815
 20
-87.66375041484088
 11
1777.68369806815
 21
-122.1637504148419
 72
     1
 10
1777.68369806815
 20
-122.1637504148419
 11
1803.372933022486
 21
-122.1637504148408
 72
     1
 10
1803.372933022486
 20
-122.1637504148408
 11
1807.68369806815
 21
-122.1637504148419
 72
     1
 10
1807.68369806815
 20
-122.1637504148419
 11
1807.68369806815
 21
-118.6637504148408
 72
     1
 10
1807.68369806815
 20
-118.6637504148408
 11
1812.68369806815
 21
-118.6637504148408
 72
     1
 10
1812.68369806815
 20
-118.6637504148408
 11
1812.68369806815
 21
-122.1637504148406
 72
     1
 10
1812.68369806815
 20
-122.1637504148406
 11
1815.18369806815
 21
-124.6637504148408
 72
     1
 10
1815.18369806815
 20
-124.6637504148408
 11
1836.68369806815
 21
-124.6637504148408
 72
     1
 10
1836.68369806815
 20
-124.6637504148408
 11
1836.68369806815
 21
-122.6637504148403
 72
     1
 10
1836.68369806815
 20
-122.6637504148403
 11
1849.183698068151
 21
-122.6637504148403
 72
     1
 10
1849.183698068151
 20
-122.6637504148403
 11
1851.68369806815
 21
-125.1637504148403
 72
     1
 10
1851.68369806815
 20
-125.1637504148403
 11
1851.68369806815
 21
-130.6637504148345
 72
     1
 10
1851.68369806815
 20
-130.6637504148345
 11
1838.18369806815
 21
-130.6637504148345
 72
     1
 10
1838.18369806815
 20
-130.6637504148345
 11
1838.18369806815
 21
-129.6637504148409
 72
     1
 10
1838.18369806815
 20
-129.6637504148409
 11
1835.844343139092
 21
-129.6637504148409
 72
     2
 10
1835.844343139092
 20
-131.6637504148409
 40
2.0
 50
90.0
 51
150.2551187030562
 73
     1
 72
     1
 10
1834.107856854844
 20
-130.6714725381273
 11
1832.68369806815
 21
-133.1637504148408
 72
     1
 10
1832.68369806815
 20
-133.1637504148408
 11
1812.68369806815
 21
-133.1637504148408
 72
     1
 10
1812.68369806815
 20
-133.1637504148408
 11
1808.68369806815
 21
-127.1637504148409
 72
     1
 10
1808.68369806815
 20
-127.1637504148409
 11
1803.372933022486
 21
-127.1637504148409
 72
     1
 10
1803.372933022486
 20
-127.1637504148409
 11
1782.68369806815
 21
-127.1637504148408
 72
     2
 10
1782.68369806815
 20
-132.1637504148408
 40
5.0
 50
90.0
 51
180.0
 73
     1
 72
     1
 10
1777.68369806815
 20
-132.1637504148408
 11
1777.68369806815
 21
-147.6637504148408
 72
     2
 10
1767.68369806815
 20
-147.6637504148408
 40
10.0
 50
0.0
 51
90.0
 73
     0
 72
     1
 10
1767.68369806815
 20
-157.6637504148408
 11
1712.68369806815
 21
-157.6637504148408
 72
     1
 10
1712.68369806815
 20
-157.6637504148408
 11
1712.68369806815
 21
-152.6637504148408
 97
        0
 75
     0
 76
     0
 52
45.0
 41
3.0
 77
     0
 78
     1
 53
45.0
 43
0.0
 44
0.0
 45
-2.121320343559643
 46
2.121320343559643
 79
     0
 98
        1
 10
0.0
 20
0.0
  0
DIMENSION
  5
18A
330
1F
100
AcDbEntity
  8
1
  6
Continuous
 62
     7
100
AcDbDimension
  2
_D1
 10
1777.68369806815
 20
-187.6637504148408
 30
0.0
 11
1712.68369806815
 21
-183.6637504148408
 31
0.0
 70
   160
 71
     5
 42
-1.0
 52
90.0
  3
DIMSTYEX_1
100
AcDbAlignedDimension
 13
1647.68369806815
 23
-147.6637504148408
 33
0.0
 14
1777.68369806815
 24
-147.6637504148408
 34
0.0
100
AcDbRotatedDimension
1001
ACAD
1000
DSTYLE
1002
{
1070
    41
1040
2.0
1070
   343
1005
86
1070
   344
1005
86
1070
   176
1070
     7
1070
   177
1070
     7
1070
   271
1070
     1
1070
    43
1040
15.0
1070
   173
1070
     1
1070
   272
1070
     1
1070
   340
1005
81
1070
   140
1040
3.584
1002
}
  0
DIMENSION
  5
198
330
1F
100
AcDbEntity
  8
1
  6
Continuous
 62
     7
100
AcDbDimension
  2
_D2
 10
1756.68369806815
 20
-132.6637504148408
 30
0.0
 11
1752.68369806815
 21
-110.1637504148408
 31
0.0
 70
   160
  1
５０
 71
     5
 42
-1.0
 52
90.0
  3
DIMSTYEX_2
100
AcDbAlignedDimension
 13
1772.68369806815
 23
-87.66375041484088
 33
0.0
 14
1735.68369806815
 24
-132.6637504148408
 34
0.0
 50
-90.0
100
AcDbRotatedDimension
1001
ACAD
1000
DSTYLE
1002
{
1070
    41
1040
2.0
1070
   343
1005
86
1070
   344
1005
86
1070
   176
1070
     7
1070
   177
1070
     7
1070
   271
1070
     1
1070
    43
1040
10.0
1070
   173
1070
     1
1070
   272
1070
     1
1070
   340
1005
81
1070
   140
1040
3.584
1002
}
  0
DIMENSION
  5
1A4
330
1F
100
AcDbEntity
  8
1
  6
Continuous
 62
     7
100
AcDbDimension
  2
_D3
 10
1848.68369806815
 20
-122.1637504148408
 30
0.0
 11
1844.68369806815
 21
-92.66375041484076
 31
0.0
 70
   160
  1
６２．３
 71
     5
 42
-1.0
 52
90.0
  3
DIMSTYEX_3
100
AcDbAlignedDimension
 13
1843.535336768793
 23
-63.16375041484076
 33
0.0
 14
1843.13473503839
 24
-122.1637504148408
 34
0.0
 50
-90.0
100
AcDbRotatedDimension
1001
ACAD
1000
DSTYLE
1002
{
1070
    41
1040
2.0
1070
   343
1005
86
1070
   344
1005
86
1070
   176
1070
     7
1070
   177
1070
     7
1070
   271
1070
     1
1070
    43
1040
18.0
1070
   173
1070
     1
1070
    75
1070
     1
1070
    76
1070
     1
1070
   272
1070
     1
1070
   340
1005
81
1070
   140
1040
3.584
1002
}
  0
LINE
  5
1A5
330
1F
100
AcDbEntity
  8
1
  6
Continuous
 62
     7
100
AcDbLine
 10
1781.68369806815
 20
-42.66375041483531
 30
0.0
 11
1781.68369806815
 21
-32.66375041484076
 31
0.0
  0
LINE
  5
1A6
330
1F
100
AcDbEntity
  8
1
  6
Continuous
 62
     7
100
AcDbLine
 10
1771.683698068148
 20
-42.66375041484076
 30
0.0
 11
1771.68369806815
 21
-54.16375041484076
 31
0.0
  0
LINE
  5
1A7
330
1F
100
AcDbEntity
  8
1
  6
Continuous
 62
     7
100
AcDbLine
 10
1643.68369806815
 20
-42.66375041482007
 30
0.0
 11
1643.68369806815
 21
-32.66375041484076
 31
0.0
  0
LINE
  5
1A8
330
1F
100
AcDbEntity
  8
1
  6
Continuous
 62
     7
100
AcDbLine
 10
1712.68369806815
 20
-42.66375041481609
 30
0.0
 11
1643.68369806815
 21
-42.66375041482007
 31
0.0
  0
LINE
  5
1A9
330
1F
100
AcDbEntity
  8
1
  6
Continuous
 62
     7
100
AcDbLine
 10
1781.68369806815
 20
-32.66375041484076
 30
0.0
 11
1767.68369806815
 21
-32.66375041484076
 31
0.0
  0
LINE
  5
1AA
330
1F
100
AcDbEntity
  8
1
  6
Continuous
 62
     7
100
AcDbLine
 10
1767.683698068152
 20
-42.66375041483531
 30
0.0
 11
1771.683698068148
 21
-42.66375041483531
 31
0.0
  0
HATCH
  5
1AB
330
1F
100
AcDbEntity
  8
寸法
  6
Continuous
 62
     7
100
AcDbHatch
 10
0.0
 20
0.0
 30
0.0
210
0.0
220
0.0
230
1.0
  2
_U
 70
     0
 71
     0
 91
        1
 92
        0
 93
       28
 72
     1
 10
1781.68369806815
 20
-32.66375041484076
 11
1767.68369806815
 21
-32.66375041484076
 72
     1
 10
1767.68369806815
 20
-32.66375041484076
 11
1767.68369806815
 21
-42.66375041483519
 72
     1
 10
1767.68369806815
 20
-42.66375041483519
 11
1771.683698068148
 21
-42.66375041483519
 72
     1
 10
1771.683698068148
 20
-42.66375041483519
 11
1771.683698068148
 21
-54.16375041484076
 72
     1
 10
1771.683698068148
 20
-54.16375041484076
 11
1764.674479830172
 21
-54.16375041484076
 72
     1
 10
1764.674479830172
 20
-54.16375041484076
 11
1765.022054149393
 21
-56.13494233240243
 72
     1
 10
1765.022054149393
 20
-56.13494233240243
 11
1761.57522701385
 21
-56.74271095423666
 72
     1
 10
1761.57522701385
 20
-56.74271095423666
 11
1762.096171546851
 21
-59.69713421327339
 72
     1
 10
1762.096171546851
 20
-59.69713421327339
 11
1765.12114138578
 21
-59.16375041484088
 72
     1
 10
1765.12114138578
 20
-59.16375041484088
 11
1771.68369806815
 21
-59.16375041484076
 72
     1
 10
1771.68369806815
 20
-59.16375041484076
 11
1807.68369806815
 21
-59.16375041484088
 72
     1
 10
1807.68369806815
 20
-59.16375041484088
 11
1807.68369806815
 21
-66.66375041484076
 72
     1
 10
1807.68369806815
 20
-66.66375041484076
 11
1812.68369806815
 21
-66.66375041484076
 72
     1
 10
1812.68369806815
 20
-66.66375041484076
 11
1812.68369806815
 21
-63.16375041484088
 72
     1
 10
1812.68369806815
 20
-63.16375041484088
 11
1815.18369806815
 21
-60.66375041484088
 72
     1
 10
1815.18369806815
 20
-60.66375041484088
 11
1836.68369806815
 21
-60.66375041484088
 72
     1
 10
1836.68369806815
 20
-60.66375041484088
 11
1836.68369806815
 21
-62.66375041484122
 72
     1
 10
1836.68369806815
 20
-62.66375041484122
 11
1849.183698068151
 21
-62.66375041484122
 72
     1
 10
1849.183698068151
 20
-62.66375041484122
 11
1851.68369806815
 21
-60.16375041484122
 72
     1
 10
1851.68369806815
 20
-60.16375041484122
 11
1851.68369806815
 21
-54.66375041484713
 72
     1
 10
1851.68369806815
 20
-54.66375041484713
 11
1838.18369806815
 21
-54.66375041484713
 72
     1
 10
1838.18369806815
 20
-54.66375041484713
 11
1838.18369806815
 21
-55.66375041484076
 72
     1
 10
1838.18369806815
 20
-55.66375041484076
 11
1833.040840925293
 21
-55.66375041484076
 72
     1
 10
1833.040840925293
 20
-55.66375041484076
 11
1832.18369806815
 21
-54.16375041484076
 72
     1
 10
1832.18369806815
 20
-54.16375041484076
 11
1776.683698068245
 21
-54.16375041484076
 72
     1
 10
1776.683698068245
 20
-54.16375041484076
 11
1776.683698068245
 21
-42.66375041483531
 72
     1
 10
1776.683698068245
 20
-42.66375041483531
 11
1781.68369806815
 21
-42.66375041483531
 72
     1
 10
1781.68369806815
 20
-42.66375041483531
 11
1781.68369806815
 21
-32.66375041484076
 97
        0
 75
     0
 76
     0
 52
45.0
 41
3.0
 77
     0
 78
     1
 53
45.0
 43
0.0
 44
0.0
 45
-2.121320343559643
 46
2.121320343559643
 79
     0
 98
        1
 10
0.0
 20
0.0
  0
LINE
  5
1AC
330
1F
100
AcDbEntity
  8
1
  6
Continuous
 62
     7
100
AcDbLine
 10
1767.68369806815
 20
-32.66375041484304
 30
0.0
 11
1767.68369806815
 21
-42.66375041483531
 31
0.0
  0
LINE
  5
1AD
330
1F
100
AcDbEntity
  8
1
  6
Continuous
 62
     7
100
AcDbLine
 10
1778.683698068181
 20
-42.66375041483531
 30
0.0
 11
1781.68369806815
 21
-42.66375041483531
 31
0.0
  0
LINE
  5
1AE
330
1F
100
AcDbEntity
  8
1
  6
Continuous
 62
     7
100
AcDbLine
 10
1776.68369806815
 20
-44.66375041483735
 30
0.0
 11
1776.68369806815
 21
-54.16375041484076
 31
0.0
  0
ARC
  5
1AF
330
1F
100
AcDbEntity
  8
1
  6
Continuous
 62
     7
100
AcDbCircle
 10
1778.683698068181
 20
-44.6637504148369
 30
0.0
 40
2.0
100
AcDbArc
 50
90.0
 51
180.000000000013
  0
LINE
  5
1B0
330
1F
100
AcDbEntity
  8
1
  6
Continuous
 62
     7
100
AcDbLine
 10
1647.68369806815
 20
-44.66375041481939
 30
0.0
 11
1647.68369806815
 21
-147.6637504148408
 31
0.0
  0
ARC
  5
1B1
330
1F
100
AcDbEntity
  8
1
  6
Continuous
 62
     7
100
AcDbCircle
 10
1645.68369806815
 20
-44.66375041481939
 30
0.0
 40
2.0
100
AcDbArc
 50
0.0
 51
90.0
  0
LINE
  5
1B2
330
1F
100
AcDbEntity
  8
1
  6
Continuous
 62
     7
100
AcDbLine
 10
1712.68369806815
 20
-32.66375041484076
 30
0.0
 11
1643.683698068151
 21
-32.66375041484349
 31
0.0
  0
LINE
  5
1B3
330
1F
100
AcDbEntity
  8
1
  6
PHANTOM2
 62
     7
100
AcDbLine
 10
1902.683698068147
 20
-63.16375041483849
 30
0.0
 11
1812.68369806815
 21
-63.16375041484088
 31
0.0
  0
LINE
  5
1B4
330
1F
100
AcDbEntity
  8
1
  6
PHANTOM2
 62
     7
100
AcDbLine
 10
1902.683698068147
 20
-122.1637504148428
 30
0.0
 11
1812.68369806815
 21
-122.1637504148408
 31
0.0
  0
LINE
  5
1B5
330
1F
100
AcDbEntity
  8
1
  6
PHANTOM2
 62
     7
100
AcDbLine
 10
1902.683698068147
 20
-58.36669348359459
 30
0.0
 11
1902.683698068147
 21
-87.57551228897051
 31
0.0
  0
LINE
  5
1B6
330
1F
100
AcDbEntity
  8
1
  6
PHANTOM2
 62
     7
100
AcDbLine
 10
1902.683698068147
 20
-87.57551228897051
 30
0.0
 11
1910.683698068146
 21
-95.57551228897029
 31
0.0
  0
LINE
  5
1B7
330
1F
100
AcDbEntity
  8
1
  6
PHANTOM2
 62
     7
100
AcDbLine
 10
1910.683698068146
 20
-95.57551228897029
 30
0.0
 11
1894.683698068147
 21
-89.75198854071112
 31
0.0
  0
LINE
  5
1B8
330
1F
100
AcDbEntity
  8
1
  6
PHANTOM2
 62
     7
100
AcDbLine
 10
1894.683698068147
 20
-89.75198854071112
 30
0.0
 11
1902.683698068147
 21
-97.75198854071101
 31
0.0
  0
LINE
  5
1B9
330
1F
100
AcDbEntity
  8
1
  6
PHANTOM2
 62
     7
100
AcDbLine
 10
1902.683698068147
 20
-97.75198854071101
 30
0.0
 11
1902.683698068147
 21
-125.277706438772
 31
0.0
  0
CIRCLE
  5
1BA
330
1F
100
AcDbEntity
  8
1
  6
Continuous
 62
     7
100
AcDbCircle
 10
1712.68369806815
 20
178.8751292980973
 30
0.0
 40
69.0
  0
LINE
  5
1BB
330
1F
100
AcDbEntity
  8
1
  6
Continuous
 62
     7
100
AcDbLine
 10
1804.68369806815
 20
114.8751292980973
 30
0.0
 11
1738.471291984605
 21
114.8751292980973
 31
0.0
  0
ARC
  5
1BC
330
1F
100
AcDbEntity
  8
1
  6
Continuous
 62
     7
100
AcDbCircle
 10
1804.68369806815
 20
122.8751292980973
 30
0.0
 40
8.0
100
AcDbArc
 50
270.0
 51
0.0
  0
LINE
  5
1BD
330
1F
100
AcDbEntity
  8
1
  6
Continuous
 62
     7
100
AcDbLine
 10
1804.68369806815
 20
242.8751292980973
 30
0.0
 11
1738.471291984605
 21
242.8751292980973
 31
0.0
  0
LINE
  5
1BE
330
1F
100
AcDbEntity
  8
1
  6
Continuous
 62
     7
100
AcDbLine
 10
1812.68369806815
 20
234.8751292980973
 30
0.0
 11
1812.68369806815
 21
122.8751292980973
 31
0.0
  0
ARC
  5
1BF
330
1F
100
AcDbEntity
  8
1
  6
Continuous
 62
     7
100
AcDbCircle
 10
1804.68369806815
 20
234.8751292980973
 30
0.0
 40
8.0
100
AcDbArc
 50
0.0
 51
90.0
  0
LINE
  5
1C0
330
1F
100
AcDbEntity
  8
1
  6
Continuous
 62
     7
100
AcDbLine
 10
1832.18369806815
 20
216.8751292980973
 30
0.0
 11
1832.18369806815
 21
140.8751292980973
 31
0.0
  0
ARC
  5
1C1
330
1F
100
AcDbEntity
  8
1
  6
Continuous
 62
     7
100
AcDbCircle
 10
1824.68369806815
 20
115.8751292980973
 30
0.0
 40
25.0
100
AcDbArc
 50
90.0
 51
118.6854020141189
  0
ARC
  5
1C2
330
1F
100
AcDbEntity
  8
1
  6
Continuous
 62
     7
100
AcDbCircle
 10
1824.68369806815
 20
241.8751292980973
 30
0.0
 40
25.0
100
AcDbArc
 50
241.3145979858814
 51
270.0
  0
LINE
  5
1C3
330
1F
100
AcDbEntity
  8
1
  6
Continuous
 62
     7
100
AcDbLine
 10
1824.68369806815
 20
216.8751292980973
 30
0.0
 11
1832.18369806815
 21
216.8751292980973
 31
0.0
  0
LINE
  5
1C4
330
1F
100
AcDbEntity
  8
1
  6
Continuous
 62
     7
100
AcDbLine
 10
1832.18369806815
 20
140.8751292980973
 30
0.0
 11
1824.68369806815
 21
140.8751292980973
 31
0.0
  0
LINE
  5
1C5
330
1F
100
AcDbEntity
  8
1
  6
Continuous
 62
     7
100
AcDbLine
 10
1840.18369806815
 20
132.3751292980973
 30
0.0
 11
1840.18369806815
 21
225.3751292980973
 31
0.0
  0
LINE
  5
1C6
330
1F
100
AcDbEntity
  8
1
  6
Continuous
 62
     7
100
AcDbLine
 10
1840.18369806815
 20
216.8751292980973
 30
0.0
 11
1837.18369806815
 21
216.8751292980973
 31
0.0
  0
LINE
  5
1C7
330
1F
100
AcDbEntity
  8
1
  6
Continuous
 62
     7
100
AcDbLine
 10
1837.18369806815
 20
216.8751292980973
 30
0.0
 11
1837.18369806815
 21
140.8751292980973
 31
0.0
  0
LINE
  5
1C8
330
1F
100
AcDbEntity
  8
1
  6
Continuous
 62
     7
100
AcDbLine
 10
1837.18369806815
 20
215.3751292980971
 30
0.0
 11
1832.18369806815
 21
215.3751292980971
 31
0.0
  0
LINE
  5
1C9
330
1F
100
AcDbEntity
  8
1
  6
Continuous
 62
     7
100
AcDbLine
 10
1867.68369806815
 20
138.8751292980973
 30
0.0
 11
1867.683698068151
 21
218.8751292980973
 31
0.0
  0
LINE
  5
1CA
330
1F
100
AcDbEntity
  8
1
  6
Continuous
 62
     7
100
AcDbLine
 10
1867.683698068151
 20
218.8751292980973
 30
0.0
 11
1864.18369806815
 21
218.8751292980973
 31
0.0
  0
LINE
  5
1CB
330
1F
100
AcDbEntity
  8
1
  6
Continuous
 62
     7
100
AcDbLine
 10
1864.18369806815
 20
221.3761292980973
 30
0.0
 11
1864.18369806815
 21
136.3741292980973
 31
0.0
  0
LINE
  5
1CC
330
1F
100
AcDbEntity
  8
1
  6
Continuous
 62
     7
100
AcDbLine
 10
1860.18469806815
 20
225.3751292980973
 30
0.0
 11
1840.18369806815
 21
225.3751292980973
 31
0.0
  0
ARC
  5
1CD
330
1F
100
AcDbEntity
  8
1
  6
Continuous
 62
     7
100
AcDbCircle
 10
1860.18469806815
 20
221.3761292980973
 30
0.0
 40
3.999
100
AcDbArc
 50
0.0
 51
90.0
  0
ARC
  5
1CE
330
1F
100
AcDbEntity
  8
1
  6
Continuous
 62
     7
100
AcDbCircle
 10
1823.183698068149
 20
190.8751292980975
 30
0.0
 40
37.00000000000134
100
AcDbArc
 50
341.0753555839491
 51
18.92464441605055
  0
ARC
  5
1CF
330
1F
100
AcDbEntity
  8
1
  6
Continuous
 62
     7
100
AcDbCircle
 10
1838.933698068149
 20
211.8751292980973
 30
0.0
 40
21.25000000000109
100
AcDbArc
 50
334.9423845816988
 51
25.05761541830172
  0
ARC
  5
1D0
330
1F
100
AcDbEntity
  8
1
  6
Continuous
 62
     7
100
AcDbCircle
 10
1855.741708263628
 20
224.6549025445515
 30
0.0
 40
4.5
100
AcDbArc
 50
302.8652010214776
 51
9.209821029363129
  0
LINE
  5
1D1
330
1F
100
AcDbEntity
  8
1
  6
Continuous
 62
     7
100
AcDbLine
 10
1840.18369806815
 20
202.8751292980973
 30
0.0
 11
1858.18369806815
 21
202.8751292980973
 31
0.0
  0
LINE
  5
1D2
330
1F
100
AcDbEntity
  8
1
  6
Continuous
 62
     7
100
AcDbLine
 10
1858.18369806815
 20
220.8751292980973
 30
0.0
 11
1840.18369806815
 21
220.8751292980973
 31
0.0
  0
LINE
  5
1D3
330
1F
100
AcDbEntity
  8
1
  6
Continuous
 62
     7
100
AcDbLine
 10
1858.18369806815
 20
178.8751292980973
 30
0.0
 11
1840.18369806815
 21
178.8751292980973
 31
0.0
  0
LINE
  5
1D4
330
1F
100
AcDbEntity
  8
1
  6
Continuous
 62
     7
100
AcDbLine
 10
1840.18369806815
 20
140.8751292980973
 30
0.0
 11
1837.18369806815
 21
140.8751292980973
 31
0.0
  0
LINE
  5
1D5
330
1F
100
AcDbEntity
  8
1
  6
Continuous
 62
     7
100
AcDbLine
 10
1837.18369806815
 20
142.3751292980973
 30
0.0
 11
1832.18369806815
 21
142.3751292980973
 31
0.0
  0
LINE
  5
1D6
330
1F
100
AcDbEntity
  8
1
  6
Continuous
 62
     7
100
AcDbLine
 10
1867.683698068151
 20
138.8751292980973
 30
0.0
 11
1864.18369806815
 21
138.8751292980971
 31
0.0
  0
LINE
  5
1D7
330
1F
100
AcDbEntity
  8
1
  6
Continuous
 62
     7
100
AcDbLine
 10
1860.18469806815
 20
132.3751292980973
 30
0.0
 11
1840.18369806815
 21
132.3751292980973
 31
0.0
  0
ARC
  5
1D8
330
1F
100
AcDbEntity
  8
1
  6
Continuous
 62
     7
100
AcDbCircle
 10
1860.18469806815
 20
136.3741292980973
 30
0.0
 40
3.999
100
AcDbArc
 50
270.0
 51
0.0
  0
ARC
  5
1D9
330
1F
100
AcDbEntity
  8
1
  6
Continuous
 62
     7
100
AcDbCircle
 10
1823.183698068149
 20
166.8751292980971
 30
0.0
 40
37.00000000000134
100
AcDbArc
 50
341.0753555839491
 51
18.92464441605089
  0
ARC
  5
1DA
330
1F
100
AcDbEntity
  8
1
  6
Continuous
 62
     7
100
AcDbCircle
 10
1838.933698068149
 20
145.8751292980971
 30
0.0
 40
21.25000000000109
100
AcDbArc
 50
334.9423845816983
 51
25.05761541830172
  0
ARC
  5
1DB
330
1F
100
AcDbEntity
  8
1
  6
Continuous
 62
     7
100
AcDbCircle
 10
1855.741708263628
 20
133.0953560516429
 30
0.0
 40
4.5
100
AcDbArc
 50
350.7901789706369
 51
57.13479897852236
  0
LINE
  5
1DC
330
1F
100
AcDbEntity
  8
1
  6
Continuous
 62
     7
100
AcDbLine
 10
1840.18369806815
 20
154.8751292980973
 30
0.0
 11
1858.18369806815
 21
154.8751292980973
 31
0.0
  0
LINE
  5
1DD
330
1F
100
AcDbEntity
  8
1
  6
Continuous
 62
     7
100
AcDbLine
 10
1858.18369806815
 20
136.8751292980973
 30
0.0
 11
1840.18369806815
 21
136.8751292980973
 31
0.0
  0
LINE
  5
1DE
330
1F
100
AcDbEntity
  8
1
  6
CENTER2
 62
     7
100
AcDbLine
 10
1635.639537727929
 20
178.8751292980973
 30
0.0
 11
1897.683698068146
 21
178.8751292980973
 31
0.0
  0
LINE
  5
1DF
330
1F
100
AcDbEntity
  8
1
  6
CENTER2
 62
     7
100
AcDbLine
 10
1712.68369806815
 20
260.6997376578221
 30
0.0
 11
1712.68369806815
 21
100.093222586789
 31
0.0
  0
DIMENSION
  5
1EC
330
1F
100
AcDbEntity
  8
1
  6
Continuous
 62
     7
100
AcDbDimension
  2
_D4
 10
1922.683698068152
 20
114.8751292980973
 30
0.0
 11
1918.683698068152
 21
178.8751292980973
 31
0.0
 70
   160
  1
１３０
 71
     5
 42
-1.0
 52
90.0
  3
DIMSTYEX_1
100
AcDbAlignedDimension
 13
1804.68369806815
 23
242.8751292980973
 33
0.0
 14
1804.68369806815
 24
114.8751292980973
 34
0.0
 50
-90.0
100
AcDbRotatedDimension
1001
ACAD
1000
DSTYLE
1002
{
1070
    41
1040
2.0
1070
   343
1005
86
1070
   344
1005
86
1070
   176
1070
     7
1070
   177
1070
     7
1070
   271
1070
     1
1070
    43
1040
15.0
1070
   173
1070
     1
1070
   272
1070
     1
1070
   340
1005
81
1070
   140
1040
3.584
1002
}
  0
CIRCLE
  5
1ED
330
1F
100
AcDbEntity
  8
1
  6
Continuous
 62
     7
100
AcDbCircle
 10
1712.68369806815
 20
178.8751292980973
 30
0.0
 40
67.49999999999989
  0
CIRCLE
  5
1EE
330
1F
100
AcDbEntity
  8
1
  6
Continuous
 62
     7
100
AcDbCircle
 10
1712.68369806815
 20
178.8751292980973
 30
0.0
 40
51.49999999999955
  0
CIRCLE
  5
1EF
330
1F
100
AcDbEntity
  8
1
  6
Continuous
 62
     7
100
AcDbCircle
 10
1712.68369806815
 20
178.8751292980973
 30
0.0
 40
14.9999999999996
  0
LINE
  5
1F0
330
1F
100
AcDbEntity
  8
1
  6
Continuous
 62
     7
100
AcDbLine
 10
1693.183698068151
 20
174.3751292980973
 30
0.0
 11
1693.183698068151
 21
183.3751292980973
 31
0.0
  0
LINE
  5
1F1
330
1F
100
AcDbEntity
  8
1
  6
Continuous
 62
     7
100
AcDbLine
 10
1695.772163542863
 20
174.3751292980973
 30
0.0
 11
1693.183698068151
 21
174.3751292980973
 31
0.0
  0
LINE
  5
1F2
330
1F
100
AcDbEntity
  8
1
  6
Continuous
 62
     7
100
AcDbLine
 10
1693.183698068151
 20
183.3751292980973
 30
0.0
 11
1695.772163542866
 21
183.3751292980966
 31
0.0
  0
ARC
  5
1F3
330
1F
100
AcDbEntity
  8
1
  6
Continuous
 62
     7
100
AcDbCircle
 10
1712.68369806815
 20
178.8751292980973
 30
0.0
 40
17.49999999999898
100
AcDbArc
 50
194.9005966878308
 51
165.0994033121687
  0
LINE
  5
1F4
330
1F
100
AcDbEntity
  8
1
  6
PHANTOM2
 62
     7
100
AcDbLine
 10
1897.683698068146
 20
149.3751292980973
 30
0.0
 11
1867.683698068146
 21
149.3751292980973
 31
0.0
  0
LINE
  5
1F5
330
1F
100
AcDbEntity
  8
1
  6
PHANTOM2
 62
     7
100
AcDbLine
 10
1897.683698068146
 20
208.3751292980971
 30
0.0
 11
1867.683698068146
 21
208.3751292980971
 31
0.0
  0
LINE
  5
1F6
330
1F
100
AcDbEntity
  8
1
  6
PHANTOM2
 62
     7
100
AcDbLine
 10
1897.683698068146
 20
213.1721862293436
 30
0.0
 11
1897.683698068146
 21
183.9633674239676
 31
0.0
  0
LINE
  5
1F7
330
1F
100
AcDbEntity
  8
1
  6
PHANTOM2
 62
     7
100
AcDbLine
 10
1897.683698068146
 20
183.9633674239676
 30
0.0
 11
1905.683698068146
 21
175.9633674239678
 31
0.0
  0
LINE
  5
1F8
330
1F
100
AcDbEntity
  8
1
  6
PHANTOM2
 62
     7
100
AcDbLine
 10
1905.683698068146
 20
175.9633674239678
 30
0.0
 11
1889.683698068146
 21
181.7868911722271
 31
0.0
  0
LINE
  5
1F9
330
1F
100
AcDbEntity
  8
1
  6
PHANTOM2
 62
     7
100
AcDbLine
 10
1889.683698068146
 20
181.7868911722271
 30
0.0
 11
1897.683698068146
 21
173.7868911722271
 31
0.0
  0
LINE
  5
1FA
330
1F
100
AcDbEntity
  8
1
  6
PHANTOM2
 62
     7
100
AcDbLine
 10
1897.683698068146
 20
173.7868911722271
 30
0.0
 11
1897.683698068146
 21
146.2611732741661
 31
0.0
  0
DIMENSION
  5
208
330
1F
100
AcDbEntity
  8
1
  6
ByBlock
 62
     3
100
AcDbDimension
  2
_D5
 10
1929.552241454526
 20
-92.66375041484076
 30
0.0
 11
1925.552241454526
 21
-62.66375041484076
 31
0.0
 70
   160
 71
     5
 42
-1.0
 52
90.0
  3
DIMSTYEX_4
100
AcDbAlignedDimension
 13
1781.68369806815
 23
-32.66375041484076
 33
0.0
 14
1914.552241454526
 24
-92.66375041484076
 34
0.0
 50
-90.0
100
AcDbRotatedDimension
1001
ACAD
1000
DSTYLE
1002
{
1070
    41
1040
2.0
1070
   343
1005
86
1070
   344
1005
86
1070
   173
1070
     1
1070
   272
1070
     3
1070
   340
1005
81
1070
   140
1040
3.584
1002
}
  0
LINE
  5
209
330
1F
100
AcDbEntity
  8
1
  6
Continuous
 62
     7
100
AcDbLine
 10
1712.68369806815
 20
-19.66375041484076
 30
0.0
 11
1785.68369806815
 21
-19.66375041484076
 31
0.0
  0
LINE
  5
20A
330
1F
100
AcDbEntity
  8
1
  6
Continuous
 62
     7
100
AcDbLine
 10
1787.68369806815
 20
-21.66375041484076
 30
0.0
 11
1787.68369806815
 21
-22.86375041484081
 31
0.0
  0
LINE
  5
20B
330
1F
100
AcDbEntity
  8
1
  6
Continuous
 62
     7
100
AcDbLine
 10
1787.68369806815
 20
-22.86375041484081
 30
0.0
 11
1768.58369806815
 21
-22.86375041484081
 31
0.0
  0
LINE
  5
20C
330
1F
100
AcDbEntity
  8
1
  6
Continuous
 62
     7
100
AcDbLine
 10
1768.58369806815
 20
-22.86375041484081
 30
0.0
 11
1768.58369806815
 21
-50.66375041484076
 31
0.0
  0
LINE
  5
20D
330
1F
100
AcDbEntity
  8
1
  6
Continuous
 62
     7
100
AcDbLine
 10
1766.58369806815
 20
-52.66375041484076
 30
0.0
 11
1764.40998935911
 21
-52.66375041484076
 31
0.0
  0
LINE
  5
20E
330
1F
100
AcDbEntity
  8
1
  6
Continuous
 62
     7
100
AcDbLine
 10
1761.673079831289
 20
-52.66375041484076
 30
0.0
 11
1712.68369806815
 21
-52.66375041484076
 31
0.0
  0
LINE
  5
20F
330
1F
100
AcDbEntity
  8
1
  6
Continuous
 62
     7
100
AcDbLine
 10
1768.58369806815
 20
-27.16375041484076
 30
0.0
 11
1767.08369806815
 21
-27.16375041484076
 31
0.0
  0
LINE
  5
210
330
1F
100
AcDbEntity
  8
1
  6
Continuous
 62
     7
100
AcDbLine
 10
1767.08369806815
 20
-27.16375041484076
 30
0.0
 11
1767.08369806815
 21
-52.16375041484076
 31
0.0
  0
LINE
  5
211
330
1F
100
AcDbEntity
  8
1
  6
Continuous
 62
     7
100
AcDbLine
 10
1764.88369806815
 20
-20.16375041484076
 30
0.0
 11
1764.883698068151
 21
-24.66375041484076
 31
0.0
  0
LINE
  5
212
330
1F
100
AcDbEntity
  8
1
  6
Continuous
 62
     7
100
AcDbLine
 10
1765.68369806815
 20
-24.66374780927589
 30
0.0
 11
1738.683698068151
 21
-24.6637503706491
 31
0.0
  0
LINE
  5
213
330
1F
100
AcDbEntity
  8
1
  6
Continuous
 62
     7
100
AcDbLine
 10
1765.68369806815
 20
-24.66375041484076
 30
0.0
 11
1765.68369806815
 21
-27.66375041484076
 31
0.0
  0
LINE
  5
214
330
1F
100
AcDbEntity
  8
1
  6
Continuous
 62
     7
100
AcDbLine
 10
1765.68369806815
 20
-27.66375041484076
 30
0.0
 11
1738.683698068151
 21
-27.66375041484076
 31
0.0
  0
LINE
  5
215
330
1F
100
AcDbEntity
  8
1
  6
Continuous
 62
     7
100
AcDbLine
 10
1761.183698068151
 20
-24.66374823617127
 30
0.0
 11
1761.18369806815
 21
-31.66375041484076
 31
0.0
  0
LINE
  5
216
330
1F
100
AcDbEntity
  8
1
  6
Continuous
 62
     7
100
AcDbLine
 10
1764.444297571101
 20
-31.66375041484076
 30
0.0
 11
1738.683698068151
 21
-31.66375041484076
 31
0.0
  0
LINE
  5
217
330
1F
100
AcDbEntity
  8
1
  6
Continuous
 62
     7
100
AcDbLine
 10
1764.944182814722
 20
-32.15303858819181
 30
0.0
 11
1765.38369806815
 21
-52.66375041484076
 31
0.0
  0
LINE
  5
218
330
1F
100
AcDbEntity
  8
1
  6
Continuous
 62
     7
100
AcDbLine
 10
1764.88369806815
 20
-20.16375041484076
 30
0.0
 11
1765.38369806815
 21
-19.66375041484076
 31
0.0
  0
LINE
  5
219
330
1F
100
AcDbEntity
  8
1
  6
Continuous
 62
     7
100
AcDbLine
 10
1768.58369806815
 20
-50.66375041484076
 30
0.0
 11
1766.58369806815
 21
-52.66375041484076
 31
0.0
  0
ARC
  5
21A
330
1F
100
AcDbEntity
  8
1
  6
Continuous
 62
     7
100
AcDbCircle
 10
1764.444297571101
 20
-32.16375041484076
 30
0.0
 40
0.5
100
AcDbArc
 50
1.227578832127102
 51
90.0
  0
ARC
  5
21B
330
1F
100
AcDbEntity
  8
1
  6
Continuous
 62
     7
100
AcDbCircle
 10
1785.68369806815
 20
-21.66375041484076
 30
0.0
 40
2.0
100
AcDbArc
 50
0.0
 51
90.0
  0
LINE
  5
21C
330
1F
100
AcDbEntity
  8
1
  6
Continuous
 62
     7
100
AcDbLine
 10
1769.68369806815
 20
-22.86375041484081
 30
0.0
 11
1780.18369806815
 21
-22.86375041484081
 31
0.0
  0
LINE
  5
21D
330
1F
100
AcDbEntity
  8
1
  6
Continuous
 62
     7
100
AcDbLine
 10
1780.18369806815
 20
-22.86375041484081
 30
0.0
 11
1780.18369806815
 21
-23.36375041484081
 31
0.0
  0
LINE
  5
21E
330
1F
100
AcDbEntity
  8
1
  6
Continuous
 62
     7
100
AcDbLine
 10
1769.68369806815
 20
-23.36375041484081
 30
0.0
 11
1769.68369806815
 21
-22.86375041484081
 31
0.0
  0
LINE
  5
21F
330
1F
100
AcDbEntity
  8
1
  6
Continuous
 62
     7
100
AcDbLine
 10
1769.68369806815
 20
-23.36375041484081
 30
0.0
 11
1780.18369806815
 21
-23.36375041484081
 31
0.0
  0
LINE
  5
220
330
1F
100
AcDbEntity
  8
1
  6
Continuous
 62
     7
100
AcDbLine
 10
1769.58369806815
 20
-32.66375041484076
 30
0.0
 11
1781.68369806815
 21
-32.66375041484076
 31
0.0
  0
INSERT
  5
224
330
1F
100
AcDbEntity
  8
1
  6
Continuous
 62
     7
100
AcDbBlockReference
  2
_X0
 10
609.9107142857142
 20
37.00000000000017
 30
0.0
  0
LINE
  5
225
330
1F
100
AcDbEntity
  8
1
  6
Continuous
 62
     7
100
AcDbLine
 10
1764.183698068151
 20
-19.66375041484076
 30
0.0
 11
1763.183698068153
 21
-22.66375041484372
 31
0.0
  0
LINE
  5
226
330
1F
100
AcDbEntity
  8
1
  6
Continuous
 62
     7
100
AcDbLine
 10
1712.68369806815
 20
-19.66375041484076
 30
0.0
 11
1764.183698068151
 21
-19.66375041484076
 31
0.0
  0
LINE
  5
227
330
1F
100
AcDbEntity
  8
1
  6
Continuous
 62
     7
100
AcDbLine
 10
1727.683698068151
 20
-43.66375041484054
 30
0.0
 11
1727.683698068151
 21
-40.66375041484076
 31
0.0
  0
LINE
  5
228
330
1F
100
AcDbEntity
  8
1
  6
Continuous
 62
     7
100
AcDbLine
 10
1727.683698068151
 20
-37.66375041484076
 30
0.0
 11
1727.683698068151
 21
-34.66375041484076
 31
0.0
  0
LINE
  5
229
330
1F
100
AcDbEntity
  8
1
  6
Continuous
 62
     7
100
AcDbLine
 10
1727.683698068151
 20
-29.66375041484076
 30
0.0
 11
1727.683698068151
 21
-26.66375041484076
 31
0.0
  0
LINE
  5
22A
330
1F
100
AcDbEntity
  8
1
  6
Continuous
 62
     7
100
AcDbLine
 10
1730.183698068151
 20
-19.66375041484076
 30
0.0
 11
1730.183698068151
 21
-22.66375041484076
 31
0.0
  0
LINE
  5
22B
330
1F
100
AcDbEntity
  8
1
  6
Continuous
 62
     7
100
AcDbLine
 10
1730.683698068153
 20
-43.66375041484054
 30
0.0
 11
1730.683698068153
 21
-47.66375041484463
 31
0.0
  0
LINE
  5
22C
330
1F
100
AcDbEntity
  8
1
  6
Continuous
 62
     7
100
AcDbLine
 10
1727.683698068151
 20
-26.66375041484099
 30
0.0
 11
1712.683698068151
 21
-26.66375041484099
 31
0.0
  0
LINE
  5
22D
330
1F
100
AcDbEntity
  8
1
  6
Continuous
 62
     7
100
AcDbLine
 10
1712.683698068151
 20
-29.66375041484849
 30
0.0
 11
1727.683698068151
 21
-29.66375041484076
 31
0.0
  0
LINE
  5
22E
330
1F
100
AcDbEntity
  8
1
  6
Continuous
 62
     7
100
AcDbLine
 10
1727.683698068151
 20
-34.66375041484076
 30
0.0
 11
1712.683698068151
 21
-34.66375041484099
 31
0.0
  0
LINE
  5
22F
330
1F
100
AcDbEntity
  8
1
  6
Continuous
 62
     7
100
AcDbLine
 10
1712.683698068151
 20
-37.66375041484076
 30
0.0
 11
1727.683698068151
 21
-37.66375041484076
 31
0.0
  0
LINE
  5
230
330
1F
100
AcDbEntity
  8
1
  6
Continuous
 62
     7
100
AcDbLine
 10
1727.683698068151
 20
-26.66375041484076
 30
0.0
 11
1730.183698068151
 21
-23.6637504148419
 31
0.0
  0
LINE
  5
231
330
1F
100
AcDbEntity
  8
1
  6
Continuous
 62
     7
100
AcDbLine
 10
1730.183698068151
 20
-23.6637504148419
 30
0.0
 11
1730.183698068151
 21
-22.6637504148419
 31
0.0
  0
LINE
  5
232
330
1F
100
AcDbEntity
  8
1
  6
Continuous
 62
     7
100
AcDbLine
 10
1735.683698068151
 20
-47.66375041484372
 30
0.0
 11
1712.683698068151
 21
-47.66375041484372
 31
0.0
  0
ARC
  5
233
330
1F
100
AcDbEntity
  8
1
  6
Continuous
 62
     7
100
AcDbCircle
 10
1735.683698068151
 20
-44.6637504148419
 30
0.0
 40
3.0
100
AcDbArc
 50
270.0
 51
0.0
  0
LINE
  5
234
330
1F
100
AcDbEntity
  8
1
  6
Continuous
 62
     7
100
AcDbLine
 10
1739.683698068151
 20
-22.66375041484372
 30
0.0
 11
1763.183698068153
 21
-22.66375041484372
 31
0.0
  0
LINE
  5
235
330
1F
100
AcDbEntity
  8
1
  6
Continuous
 62
     7
100
AcDbLine
 10
1738.683698068151
 20
-23.66375041484372
 30
0.0
 11
1738.683698068151
 21
-44.6637504148419
 31
0.0
  0
ARC
  5
236
330
1F
100
AcDbEntity
  8
1
  6
Continuous
 62
     7
100
AcDbCircle
 10
1739.683698068151
 20
-23.66375041484372
 30
0.0
 40
1.0
100
AcDbArc
 50
90.0
 51
180.0
  0
LINE
  5
237
330
1F
100
AcDbEntity
  8
1
  6
Continuous
 62
     7
100
AcDbLine
 10
1733.183698068151
 20
-43.66375041484076
 30
0.0
 11
1712.683698068151
 21
-43.66375041484076
 31
0.0
  0
ARC
  5
238
330
1F
100
AcDbEntity
  8
1
  6
Continuous
 62
     7
100
AcDbCircle
 10
1733.183698068151
 20
-41.66375041485963
 30
0.0
 40
2.0
100
AcDbArc
 50
269.9999999999935
 51
0.0
  0
LINE
  5
239
330
1F
100
AcDbEntity
  8
1
  6
Continuous
 62
     7
100
AcDbLine
 10
1732.183698068151
 20
-40.66375041484076
 30
0.0
 11
1712.683698068151
 21
-40.66375041484076
 31
0.0
  0
LINE
  5
23A
330
1F
100
AcDbEntity
  8
1
  6
Continuous
 62
     7
100
AcDbLine
 10
1727.683698068151
 20
-29.6637504148419
 30
0.0
 11
1732.183698068151
 21
-24.86375041484399
 31
0.0
  0
LINE
  5
23B
330
1F
100
AcDbEntity
  8
1
  6
Continuous
 62
     7
100
AcDbLine
 10
1727.683698068151
 20
-37.66375041484054
 30
0.0
 11
1732.183698068151
 21
-32.86375041484217
 31
0.0
  0
LINE
  5
23C
330
1F
100
AcDbEntity
  8
1
  6
Continuous
 62
     7
100
AcDbLine
 10
1732.183698068151
 20
-29.86375041484263
 30
0.0
 11
1727.683698068151
 21
-34.66375041484076
 31
0.0
  0
LINE
  5
23D
330
1F
100
AcDbEntity
  8
1
  6
Continuous
 62
     7
100
AcDbLine
 10
1732.183698068151
 20
-24.86375041484399
 30
0.0
 11
1732.183698068151
 21
-29.86375041484263
 31
0.0
  0
LINE
  5
23E
330
1F
100
AcDbEntity
  8
1
  6
Continuous
 62
     7
100
AcDbLine
 10
1732.183698068151
 20
-32.86375041484217
 30
0.0
 11
1732.183698068151
 21
-40.66375041484076
 31
0.0
  0
LINE
  5
23F
330
1F
100
AcDbEntity
  8
1
  6
Continuous
 62
     7
100
AcDbLine
 10
1735.183698068151
 20
-22.6637504148419
 30
0.0
 11
1735.183698068151
 21
-41.66375041485963
 31
0.0
  0
LINE
  5
240
330
1F
100
AcDbEntity
  8
1
  6
Continuous
 62
     7
100
AcDbLine
 10
1735.183698068152
 20
-22.6637504148419
 30
0.0
 11
1712.683698068151
 21
-22.6637504148419
 31
0.0
  0
HATCH
  5
241
330
1F
100
AcDbEntity
  8
1
  6
Continuous
 62
     7
100
AcDbHatch
 10
0.0
 20
0.0
 30
0.0
210
0.0
220
0.0
230
1.0
  2
_U
 70
     0
 71
     0
 91
        1
 92
        0
 93
       15
 72
     1
 10
1735.183698068151
 20
-22.6637504148419
 11
1730.183698068151
 21
-22.6637504148419
 72
     1
 10
1730.183698068151
 20
-22.6637504148419
 11
1730.183698068151
 21
-23.6637504148419
 72
     1
 10
1730.183698068151
 20
-23.6637504148419
 11
1727.683698068151
 21
-26.66375041484099
 72
     1
 10
1727.683698068151
 20
-26.66375041484099
 11
1727.683698068151
 21
-29.66375041484235
 72
     1
 10
1727.683698068151
 20
-29.66375041484235
 11
1732.183698068151
 21
-24.86375041484399
 72
     1
 10
1732.183698068151
 20
-24.86375041484399
 11
1732.183698068151
 21
-29.86375041484263
 72
     1
 10
1732.183698068151
 20
-29.86375041484263
 11
1727.683698068151
 21
-34.66375041484099
 72
     1
 10
1727.683698068151
 20
-34.66375041484099
 11
1727.683698068151
 21
-37.66375041484054
 72
     1
 10
1727.683698068151
 20
-37.66375041484054
 11
1732.183698068151
 21
-32.8637504148424
 72
     1
 10
1732.183698068151
 20
-32.8637504148424
 11
1732.183698068151
 21
-40.66375041484076
 72
     1
 10
1732.183698068151
 20
-40.66375041484076
 11
1727.683698068151
 21
-40.66375041484076
 72
     1
 10
1727.683698068151
 20
-40.66375041484076
 11
1727.683698068151
 21
-43.66375041484076
 72
     1
 10
1727.683698068151
 20
-43.66375041484076
 11
1733.183698068151
 21
-43.66375041484076
 72
     2
 10
1733.183698068151
 20
-41.66375041485963
 40
2.0
 50
269.9999999999935
 51
360.0
 73
     1
 72
     1
 10
1735.183698068151
 20
-41.66375041485963
 11
1735.183698068151
 21
-22.6637504148419
 97
        0
 75
     0
 76
     0
 52
44.99999999999994
 41
3.0
 77
     1
 78
     2
 53
44.99999999999994
 43
0.0
 44
0.0
 45
-2.12132034355964
 46
2.121320343559645
 79
     0
 53
134.9999999999999
 43
0.0
 44
0.0
 45
-2.121320343559645
 46
-2.12132034355964
 79
     0
 98
        1
 10
0.0
 20
0.0
  0
HATCH
  5
242
330
1F
100
AcDbEntity
  8
1
  6
Continuous
 62
     7
100
AcDbHatch
 10
0.0
 20
0.0
 30
0.0
210
0.0
220
0.0
230
1.0
  2
_U
 70
     0
 71
     0
 91
        1
 92
        0
 93
       13
 72
     1
 10
1730.183698068159
 20
-19.66375041484076
 11
1764.183698068151
 21
-19.66375041484076
 72
     1
 10
1764.183698068151
 20
-19.66375041484076
 11
1763.183698068153
 21
-22.66375041484395
 72
     1
 10
1763.183698068153
 20
-22.66375041484395
 11
1739.683698068151
 21
-22.66375041484395
 72
     2
 10
1739.683698068151
 20
-23.66375041484395
 40
1.0
 50
90.0
 51
180.0
 73
     1
 72
     1
 10
1738.683698068151
 20
-23.66375041484395
 11
1738.683698068151
 21
-44.6637504148419
 72
     2
 10
1735.683698068151
 20
-44.6637504148419
 40
3.0
 50
0.0
 51
90.0
 73
     0
 72
     1
 10
1735.683698068151
 20
-47.66375041484395
 11
1730.683698068153
 21
-47.66375041484395
 72
     1
 10
1730.683698068153
 20
-47.66375041484395
 11
1730.683698068153
 21
-43.66375041484076
 72
     1
 10
1730.683698068153
 20
-43.66375041484076
 11
1733.183698068151
 21
-43.66375041484076
 72
     2
 10
1733.183698068151
 20
-41.66375041485986
 40
2.0
 50
270.0
 51
360.0
 73
     1
 72
     1
 10
1735.183698068151
 20
-41.66375041485986
 11
1735.183698068151
 21
-22.6637504148419
 72
     1
 10
1735.183698068151
 20
-22.6637504148419
 11
1730.183698068159
 21
-22.6637504148419
 72
     1
 10
1730.183698068159
 20
-22.6637504148419
 11
1730.183698068159
 21
-19.66375041484076
 97
        0
 75
     0
 76
     0
 52
44.99999999999998
 41
3.0
 77
     0
 78
     1
 53
44.99999999999998
 43
0.0
 44
0.0
 45
-2.121320343559642
 46
2.121320343559643
 79
     0
 98
        1
 10
0.0
 20
0.0
  0
HATCH
  5
243
330
1F
100
AcDbEntity
  8
1
  6
Continuous
 62
     7
100
AcDbHatch
 10
0.0
 20
0.0
 30
0.0
210
0.0
220
0.0
230
1.0
  2
_U
 70
     0
 71
     0
 91
        3
 92
        0
 93
       18
 72
     2
 10
1785.68369806815
 20
-21.66375041484076
 40
2.0
 50
0.0
 51
90.0
 73
     1
 72
     1
 10
1785.68369806815
 20
-19.66375041484076
 11
1765.38369806815
 21
-19.66375041484076
 72
     1
 10
1765.38369806815
 20
-19.66375041484076
 11
1764.88369806815
 21
-20.16375041484076
 72
     1
 10
1764.88369806815
 20
-20.16375041484076
 11
1764.883698068151
 21
-24.66375041484076
 72
     1
 10
1764.883698068151
 20
-24.66375041484076
 11
1765.68369806815
 21
-24.66375041489806
 72
     1
 10
1765.68369806815
 20
-24.66375041484076
 11
1765.68369806815
 21
-27.66375041484076
 72
     1
 10
1765.68369806815
 20
-27.66375041484076
 11
1761.18369806815
 21
-27.66375041484076
 72
     1
 10
1761.18369806815
 20
-27.66375041484076
 11
1761.18369806815
 21
-31.66375041484076
 72
     1
 10
1761.18369806815
 20
-31.66375041484076
 11
1764.444297571101
 21
-31.66375041484076
 72
     2
 10
1764.444297571101
 20
-32.16375041484076
 40
0.5
 50
270.0
 51
358.7724211678729
 73
     0
 72
     1
 10
1764.944182814722
 20
-32.15303858819181
 11
1765.38369806815
 21
-52.66375041484076
 72
     1
 10
1765.38369806815
 20
-52.66375041484076
 11
1766.58369806815
 21
-52.66375041484076
 72
     1
 10
1766.58369806815
 20
-52.66375041484076
 11
1767.08369806815
 21
-52.16375041484076
 72
     1
 10
1767.08369806815
 20
-52.16375041484076
 11
1767.08369806815
 21
-27.16375041484076
 72
     1
 10
1767.08369806815
 20
-27.16375041484076
 11
1768.58369806815
 21
-27.16375041484076
 72
     1
 10
1768.58369806815
 20
-27.16375041484076
 11
1768.58369806815
 21
-22.86375041484081
 72
     1
 10
1768.58369806815
 20
-22.86375041484081
 11
1787.68369806815
 21
-22.86375041484081
 72
     1
 10
1787.68369806815
 20
-22.86375041484081
 11
1787.68369806815
 21
-21.66375041484076
 97
        0
 92
        0
 93
        8
 72
     1
 10
1768.58369806815
 20
-27.16375041484076
 11
1767.08369806815
 21
-27.16375041484076
 72
     1
 10
1767.08369806815
 20
-27.16375041484076
 11
1767.08369806815
 21
-52.16375041484076
 72
     1
 10
1767.08369806815
 20
-52.16375041484076
 11
1768.58369806815
 21
-50.66375041484076
 72
     1
 10
1768.58369806815
 20
-50.66375041484076
 11
1768.58369806815
 21
-42.66375041483531
 72
     1
 10
1768.58369806815
 20
-42.66375041483531
 11
1767.683698068152
 21
-42.66375041483531
 72
     1
 10
1767.68369806815
 20
-42.66375041483531
 11
1767.68369806815
 21
-32.66375041484304
 72
     1
 10
1767.68369806815
 20
-32.66375041484076
 11
1768.58369806815
 21
-32.66375041484076
 72
     1
 10
1768.58369806815
 20
-32.66375041484076
 11
1768.58369806815
 21
-27.16375041484076
 97
        0
 92
        0
 93
        4
 72
     1
 10
1768.58369806815
 20
-32.66375041484076
 11
1767.68369806815
 21
-32.66375041484076
 72
     1
 10
1767.68369806815
 20
-32.66375041484304
 11
1767.68369806815
 21
-42.66375041483531
 72
     1
 10
1767.683698068152
 20
-42.66375041483531
 11
1768.58369806815
 21
-42.66375041483531
 72
     1
 10
1768.58369806815
 20
-42.66375041483531
 11
1768.58369806815
 21
-32.66375041484076
 97
        0
 75
     0
 76
     0
 52
45.00000000014619
 41
3.0
 77
     0
 78
     1
 53
45.00000000014619
 43
0.0
 44
0.0
 45
-2.121320343565055
 46
2.12132034355423
 79
     0
 98
        1
 10
0.0
 20
0.0
  0
LINE
  5
244
330
1F
100
AcDbEntity
  8
1
  6
Continuous
 62
     7
100
AcDbLine
 10
1712.68369806815
 20
-19.66375041484076
 30
0.0
 11
1639.68369806815
 21
-19.66375041483815
 31
0.0
  0
LINE
  5
245
330
1F
100
AcDbEntity
  8
1
  6
Continuous
 62
     7
100
AcDbLine
 10
1637.68369806815
 20
-21.66375041483803
 30
0.0
 11
1637.68369806815
 21
-22.86375041483808
 31
0.0
  0
LINE
  5
246
330
1F
100
AcDbEntity
  8
1
  6
Continuous
 62
     7
100
AcDbLine
 10
1637.68369806815
 20
-22.86375041483808
 30
0.0
 11
1712.68369806815
 21
-22.86375041479545
 31
0.0
  0
LINE
  5
247
330
1F
100
AcDbEntity
  8
1
  6
Continuous
 62
     7
100
AcDbLine
 10
1656.78369806815
 20
-22.86375041483888
 30
0.0
 11
1656.783698068144
 21
-32.66375041488476
 31
0.0
  0
ARC
  5
248
330
1F
100
AcDbEntity
  8
1
  6
Continuous
 62
     7
100
AcDbCircle
 10
1639.68369806815
 20
-21.66375041483815
 30
0.0
 40
2.0
100
AcDbArc
 50
90.0
 51
179.9999999999967
  0
DIMENSION
  5
254
330
1F
100
AcDbEntity
  8
1
  6
ByBlock
 62
     3
100
AcDbDimension
  2
_D6
 10
1727.68369806815
 20
6.336249585199141
 30
0.0
 11
1704.785032292286
 21
12.33624958519914
 31
0.0
 70
   160
 71
     5
 42
-1.0
 52
90.0
  3
DIMSTYEX_5
100
AcDbAlignedDimension
 13
1697.683698068151
 23
-26.66375041480097
 33
0.0
 14
1727.68369806815
 24
-26.66375041480097
 34
0.0
 50
180.0
100
AcDbRotatedDimension
1001
ACAD
1000
DSTYLE
1002
{
1070
    41
1040
2.0
1070
   343
1005
AC
1070
   344
1005
86
1070
   173
1070
     1
1070
   281
1070
     1
1070
    75
1070
     1
1070
    77
1070
     1
1070
   272
1070
     3
1070
   279
1070
     2
1070
   340
1005
81
1070
   140
1040
3.584
1002
}
  0
DIMENSION
  5
25F
330
1F
100
AcDbEntity
  8
1
  6
ByBlock
 62
     3
100
AcDbDimension
  2
_D7
 10
1764.18369806815
 20
20.33624958519914
 30
0.0
 11
1701.727484250016
 21
24.33624958519914
 31
0.0
 70
   160
 71
     5
 42
-1.0
 52
90.0
  3
DIMSTYEX_5
100
AcDbAlignedDimension
 13
1661.183698068151
 23
-19.66375041480086
 33
0.0
 14
1764.18369806815
 24
-19.66375041480086
 34
0.0
 50
180.0
100
AcDbRotatedDimension
1001
ACAD
1000
DSTYLE
1002
{
1070
    41
1040
2.0
1070
   343
1005
AC
1070
   344
1005
86
1070
   173
1070
     1
1070
   281
1070
     1
1070
    75
1070
     1
1070
    77
1070
     1
1070
   272
1070
     3
1070
   279
1070
     2
1070
   340
1005
81
1070
   140
1040
3.584
1002
}
  0
DIMENSION
  5
26D
330
1F
100
AcDbEntity
  8
1
  6
ByBlock
 62
     3
100
AcDbDimension
  2
_D8
 10
1637.68369806815
 20
34.33624958519914
 30
0.0
 11
1701.727484250016
 21
38.33624958519914
 31
0.0
 70
   160
 71
     5
 42
-1.0
 52
90.0
  3
DIMSTYEX_6
100
AcDbAlignedDimension
 13
1787.68369806815
 23
-19.66375041480597
 33
0.0
 14
1637.68369806815
 24
-19.66375041480597
 34
0.0
 50
180.0
100
AcDbRotatedDimension
1001
ACAD
1000
DSTYLE
1002
{
1070
    41
1040
2.0
1070
   343
1005
86
1070
   344
1005
86
1070
   173
1070
     1
1070
   272
1070
     3
1070
   279
1070
     2
1070
   340
1005
81
1070
   140
1040
3.584
1002
}
  0
DIMENSION
  5
27A
330
1F
100
AcDbEntity
  8
1
  6
ByBlock
 62
     3
100
AcDbDimension
  2
_D9
 10
1867.68369806815
 20
64.72523186726426
 30
0.0
 11
1790.18369806815
 21
68.72523186726426
 31
0.0
 70
   160
 71
     5
 42
-1.0
 52
90.0
  3
DIMSTYEX_4
100
AcDbAlignedDimension
 13
1712.68369806815
 23
-15.59356879599835
 33
0.0
 14
1867.68369806815
 24
-46.16375041479643
 34
0.0
100
AcDbRotatedDimension
1001
ACAD
1000
DSTYLE
1002
{
1070
    41
1040
2.0
1070
   343
1005
86
1070
   344
1005
86
1070
   173
1070
     1
1070
   272
1070
     3
1070
   340
1005
81
1070
   140
1040
3.584
1002
}
  0
INSERT
  5
283
330
1F
100
AcDbEntity
  8
1
  6
ByBlock
 62
     3
100
AcDbBlockReference
  2
BALN0
 10
1856.14355147587
 20
-126.6236038225608
 30
0.0
  0
INSERT
  5
28A
330
1F
100
AcDbEntity
  8
1
  6
ByBlock
 62
     3
100
AcDbBlockReference
  2
BALN1
 10
1855.527059510857
 20
-139.6637504148407
 30
0.0
  0
INSERT
  5
291
330
1F
100
AcDbEntity
  8
1
  6
ByBlock
 62
     3
100
AcDbBlockReference
  2
BALN2
 10
1777.68369806815
 20
-139.9137504148408
 30
0.0
  0
INSERT
  5
298
330
1F
100
AcDbEntity
  8
1
  6
ByBlock
 62
     3
100
AcDbBlockReference
  2
BALN3
 10
1723.567374276026
 20
-26.66375041484099
 30
0.0
  0
INSERT
  5
29F
330
1F
100
AcDbEntity
  8
1
  6
ByBlock
 62
     3
100
AcDbBlockReference
  2
BALN4
 10
1757.697953216392
 20
-19.66375041484076
 30
0.0
  0
INSERT
  5
2A6
330
1F
100
AcDbEntity
  8
1
  6
ByBlock
 62
     3
100
AcDbBlockReference
  2
BALN5
 10
1787.68369806815
 20
-21.66375041484076
 30
0.0
  0
INSERT
  5
2AD
330
1F
100
AcDbEntity
  8
1
  6
ByBlock
 62
     3
100
AcDbBlockReference
  2
BALN6
 10
1765.683698068149
 20
-24.66374852080827
 30
0.0
  0
INSERT
  5
2B4
330
1F
100
AcDbEntity
  8
1
  6
ByBlock
 62
     3
100
AcDbBlockReference
  2
BALN7
 10
1651.930889571796
 20
-22.86375041482998
 30
0.0
  0
INSERT
  5
2BB
330
1F
100
AcDbEntity
  8
1
  6
ByBlock
 62
     3
100
AcDbBlockReference
  2
BALN8
 10
1743.993794980803
 20
-57.81193855738348
 30
0.0
  0
DIMENSION
  5
2C8
330
1F
100
AcDbEntity
  8
1
  6
ByBlock
 62
     3
100
AcDbDimension
  2
_D10
 10
1607.459487949757
 20
-157.6637504148408
 30
0.0
 11
1603.459487949757
 21
-95.16375041486279
 31
0.0
 70
   160
 71
     5
 42
-1.0
 52
90.0
  3
DIMSTYEX_4
100
AcDbAlignedDimension
 13
1643.68369806815
 23
-32.66375041488476
 33
0.0
 14
1657.68369806815
 24
-157.6637504148408
 34
0.0
 50
-90.0
100
AcDbRotatedDimension
1001
ACAD
1000
DSTYLE
1002
{
1070
    41
1040
2.0
1070
   343
1005
86
1070
   344
1005
86
1070
   173
1070
     1
1070
   272
1070
     3
1070
   340
1005
81
1070
   140
1040
3.584
1002
}
  0
INSERT
  5
30D
330
1F
100
AcDbEntity
  8
1
  6
Continuous
 62
     0
100
AcDbBlockReference
  2
BLK0
 10
2021.076727951234
 20
-452.8104677476595
 30
0.0
  0
MTEXT
  5
30E
330
1F
100
AcDbEntity
  8
1
  6
Continuous
 62
     7
100
AcDbMText
 10
1531.611924230994
 20
-291.4160039959033
 30
0.0
 40
6.0
 41
0.0
 71
     7
 72
     5
  1
{\fＭＳ 明朝|b0|i0|c128|p17;\W1.0;スリップワッシャー①}
  7
MTSTANDARD3
 73
     1
 44
1.145833333333325
  0
MTEXT
  5
30F
330
1F
100
AcDbEntity
  8
1
  6
Continuous
 62
     7
100
AcDbMText
 10
1605.88145548335
 20
-292.4160039959323
 30
0.0
 40
8.0
 41
0.0
 71
     7
 72
     5
  1
{\fＭＳ 明朝|b0|i0|c128|p17;\W1.0;ポリエチレン}
  7
MTSTANDARD
 73
     1
 44
1.87499999999547
  0
LINE
  5
310
330
1F
100
AcDbEntity
  8
1
  6
Continuous
 62
     7
100
AcDbLine
 10
1509.611924233339
 20
-296.4160039959033
 30
0.0
 11
1661.611924233361
 21
-296.4160039959033
 31
0.0
  0
INSERT
  5
316
330
1F
100
AcDbEntity
  8
1
  6
Continuous
 62
     3
100
AcDbBlockReference
  2
MAKR9
 10
1517.611924230232
 20
-368.4160039978152
 30
0.0
  0
HATCH
  5
317
330
1F
100
AcDbEntity
  8
1
  6
Continuous
 62
     7
100
AcDbHatch
 10
0.0
 20
0.0
 30
0.0
210
0.0
220
0.0
230
1.0
  2
_U
 70
     0
 71
     0
 91
        1
 92
        0
 93
        4
 72
     1
 10
1765.68369806815
 20
-24.66374780927589
 11
1761.18369806816
 21
-24.66374823617127
 72
     1
 10
1761.183698068151
 20
-24.66374823617127
 11
1761.18369806816
 21
-27.66375041484042
 72
     1
 10
1761.18369806816
 20
-27.66375041484042
 11
1765.68369806815
 21
-27.66375041484076
 72
     1
 10
1765.68369806815
 20
-27.66375041484076
 11
1765.68369806815
 21
-24.66375041484076
 97
        0
 75
     0
 76
     0
 52
45.0
 41
1.0
 77
     1
 78
     2
 53
45.0
 43
0.0
 44
0.0
 45
-0.7071067811865476
 46
0.7071067811865476
 79
     0
 53
135.0
 43
0.0
 44
0.0
 45
-0.7071067811865476
 46
-0.7071067811865475
 79
     0
 98
        1
 10
0.0
 20
0.0
  0
INSERT
  5
31E
330
1F
100
AcDbEntity
  8
1
  6
ByBlock
 62
     3
100
AcDbBlockReference
  2
BALN9
 10
1765.68369806815
 20
-24.66374780927589
 30
0.0
  0
MTEXT
  5
31F
330
1F
100
AcDbEntity
  8
1
  6
Continuous
 62
     7
100
AcDbMText
 10
1541.611924232111
 20
-308.4160039955844
 30
0.0
 40
8.0
 41
0.0
 71
     7
 72
     5
  1
{\fＭＳ 明朝|b0|i0|c128|p17;\W1.0;パッキン①}
  7
MTSTANDARD
 73
     1
 44
0.9374999999750866
  0
MTEXT
  5
320
330
1F
100
AcDbEntity
  8
1
  6
Continuous
 62
     7
100
AcDbMText
 10
1599.289658608532
 20
-307.4160039965405
 30
0.0
 40
6.0
 41
0.0
 71
     7
 72
     5
  1
{\fＭＳ 明朝|b0|i0|c128|p17;\W1.0;ＣＲクロロプレンゴム}
  7
MTSTANDARD3
 73
     1
 44
2.291666666666667
  0
MTEXT
  5
321
330
1F
100
AcDbEntity
  8
1
  6
Continuous
 62
     7
100
AcDbMText
 10
1549.746689858703
 20
-388.4160039968586
 30
0.0
 40
8.0
 41
0.0
 71
     7
 72
     5
  1
{\fＭＳ 明朝|b0|i0|c128|p17;\W1.0;掃除口}
  7
MTSTANDARD
 73
     1
 44
1.875000000049787
  0
MTEXT
  5
322
330
1F
100
AcDbEntity
  8
1
  6
Continuous
 62
     7
100
AcDbMText
 10
1603.903916421031
 20
-388.4160039968586
 30
0.0
 40
8.0
 41
0.0
 71
     7
 72
     5
  1
{\fＭＳ 明朝|b0|i0|c128|p17;\W1.0;ＣＡＣ202黄銅}
  7
MTSTANDARD
 73
     1
 44
1.875000000049787
  0
LINE
  5
323
330
1F
100
AcDbEntity
  8
1
  6
Continuous
 62
     7
100
AcDbLine
 10
1509.611924231174
 20
-392.4160039971774
 30
0.0
 11
1661.611924233359
 21
-392.4160039971774
 31
0.0
  0
INSERT
  5
329
330
1F
100
AcDbEntity
  8
1
  6
Continuous
 62
     3
100
AcDbBlockReference
  2
MAKR10
 10
1517.611924230232
 20
-384.4160039984525
 30
0.0
  0
MTEXT
  5
32A
330
1F
100
AcDbEntity
  8
1
  6
Continuous
 62
     7
100
AcDbMText
 10
1605.88145548335
 20
-372.416003995294
 30
0.0
 40
8.0
 41
0.0
 71
     7
 72
     5
  1
{\fＭＳ 明朝|b0|i0|c128|p17;\W1.0;ポリエチレン}
  7
MTSTANDARD
 73
     1
 44
1.87499999999547
  0
MTEXT
  5
32B
330
1F
100
AcDbEntity
  8
1
  6
Continuous
 62
     7
100
AcDbMText
 10
1531.611924230681
 20
-371.4160039962213
 30
0.0
 40
6.0
 41
0.0
 71
     7
 72
     5
  1
{\fＭＳ 明朝|b0|i0|c128|p17;\W1.0;スリップワッシャー③}
  7
MTSTANDARD3
 73
     1
 44
1.145833333366522
  0
INSERT
  5
332
330
1F
100
AcDbEntity
  8
1
  6
ByBlock
 62
     3
100
AcDbBlockReference
  2
BALN10
 10
1859.683698068171
 20
-131.1637504148305
 30
0.0
  0
LINE
  5
333
330
1F
100
AcDbEntity
  8
1
  6
Continuous
 62
     7
100
AcDbLine
 10
1768.683698068151
 20
-25.36375041484069
 30
0.0
 11
1768.683698068151
 21
-24.36375041484081
 31
0.0
  0
LINE
  5
334
330
1F
100
AcDbEntity
  8
1
  6
Continuous
 62
     7
100
AcDbLine
 10
1768.683698068151
 20
-24.36375041484081
 30
0.0
 11
1785.683698068151
 21
-24.36375041484081
 31
0.0
  0
LINE
  5
335
330
1F
100
AcDbEntity
  8
1
  6
Continuous
 62
     7
100
AcDbLine
 10
1785.683698068151
 20
-24.36375041484081
 30
0.0
 11
1785.683698068151
 21
-25.36375041484069
 31
0.0
  0
LINE
  5
336
330
1F
100
AcDbEntity
  8
1
  6
Continuous
 62
     7
100
AcDbLine
 10
1785.683698068151
 20
-25.36375041484069
 30
0.0
 11
1768.683698068151
 21
-25.36375041484069
 31
0.0
  0
LINE
  5
337
330
1F
100
AcDbEntity
  8
1
  6
Continuous
 62
     7
100
AcDbLine
 10
1768.683698068151
 20
-31.66375041484071
 30
0.0
 11
1768.683698068151
 21
-28.66375041484071
 31
0.0
  0
LINE
  5
338
330
1F
100
AcDbEntity
  8
1
  6
Continuous
 62
     7
100
AcDbLine
 10
1768.683698068151
 20
-28.66375041484071
 30
0.0
 11
1782.68369806815
 21
-28.66375041484071
 31
0.0
  0
LINE
  5
339
330
1F
100
AcDbEntity
  8
1
  6
Continuous
 62
     7
100
AcDbLine
 10
1782.68369806815
 20
-28.66375041484071
 30
0.0
 11
1782.68369806815
 21
-31.66375041484071
 31
0.0
  0
LINE
  5
33A
330
1F
100
AcDbEntity
  8
1
  6
Continuous
 62
     7
100
AcDbLine
 10
1782.68369806815
 20
-31.66375041484071
 30
0.0
 11
1768.683698068151
 21
-31.66375041484071
 31
0.0
  0
LINE
  5
33B
330
1F
100
AcDbEntity
  8
1
  6
Continuous
 62
     7
100
AcDbLine
 10
1656.68369806815
 20
-24.36375041484069
 30
0.0
 11
1639.68369806815
 21
-24.36375041484069
 31
0.0
  0
LINE
  5
33C
330
1F
100
AcDbEntity
  8
1
  6
Continuous
 62
     7
100
AcDbLine
 10
1639.68369806815
 20
-24.36375041484069
 30
0.0
 11
1639.68369806815
 21
-25.36375041484047
 31
0.0
  0
LINE
  5
33D
330
1F
100
AcDbEntity
  8
1
  6
Continuous
 62
     7
100
AcDbLine
 10
1639.68369806815
 20
-25.36375041484047
 30
0.0
 11
1656.68369806815
 21
-25.36375041484047
 31
0.0
  0
LINE
  5
33E
330
1F
100
AcDbEntity
  8
1
  6
Continuous
 62
     7
100
AcDbLine
 10
1656.68369806815
 20
-28.66375041484065
 30
0.0
 11
1642.68369806815
 21
-28.66375041484065
 31
0.0
  0
LINE
  5
33F
330
1F
100
AcDbEntity
  8
1
  6
Continuous
 62
     7
100
AcDbLine
 10
1642.68369806815
 20
-28.66375041484065
 30
0.0
 11
1642.68369806815
 21
-31.66375041484065
 31
0.0
  0
LINE
  5
340
330
1F
100
AcDbEntity
  8
1
  6
Continuous
 62
     7
100
AcDbLine
 10
1642.68369806815
 20
-31.66375041484065
 30
0.0
 11
1656.68369806815
 21
-31.66375041484065
 31
0.0
  0
INSERT
  5
347
330
1F
100
AcDbEntity
  8
1
  6
ByBlock
 62
     3
100
AcDbBlockReference
  2
BALN11
 10
1643.083314376872
 20
-24.36375041484069
 30
0.0
  0
INSERT
  5
34E
330
1F
100
AcDbEntity
  8
1
  6
ByBlock
 62
     3
100
AcDbBlockReference
  2
BALN12
 10
1642.68369806815
 20
-30.16375041484065
 30
0.0
  0
LINE
  5
34F
330
1F
100
AcDbEntity
  8
1
  6
Continuous
 62
     7
100
AcDbLine
 10
1509.611924250398
 20
-408.4160039965398
 30
0.0
 11
1661.611924233359
 21
-408.4160039965384
 31
0.0
  0
INSERT
  5
355
330
1F
100
AcDbEntity
  8
1
  6
Continuous
 62
     3
100
AcDbBlockReference
  2
MAKR11
 10
1517.611924250392
 20
-400.41600399654
 30
0.0
  0
MTEXT
  5
356
330
1F
100
AcDbEntity
  8
1
  6
Continuous
 62
     7
100
AcDbMText
 10
1531.611924238867
 20
-420.4160039962251
 30
0.0
 40
8.0
 41
0.0
 71
     7
 72
     5
  1
{\fＭＳ 明朝|b0|i0|c128|p17;\W1.0;パッキン③(ｔ1)}
  7
MTSTANDARD
 73
     1
 44
0.9374999999753553
  0
MTEXT
  5
357
330
1F
100
AcDbEntity
  8
1
  6
Continuous
 62
     7
100
AcDbMText
 10
1599.289658625247
 20
-419.4160039971771
 30
0.0
 40
6.0
 41
0.0
 71
     7
 72
     5
  1
{\fＭＳ 明朝|b0|i0|c128|p17;\W1.0;ＣＲクロロプレンゴム}
  7
MTSTANDARD3
 73
     1
 44
2.291666666666667
  0
LINE
  5
358
330
1F
100
AcDbEntity
  8
1
  6
Continuous
 62
     7
100
AcDbLine
 10
1509.611924241868
 20
-424.416003995902
 30
0.0
 11
1661.611924233363
 21
-424.416003995902
 31
0.0
  0
INSERT
  5
35E
330
1F
100
AcDbEntity
  8
1
  6
Continuous
 62
     3
100
AcDbBlockReference
  2
MAKR12
 10
1517.611924241862
 20
-416.4160039959025
 30
0.0
  0
MTEXT
  5
35F
330
1F
100
AcDbEntity
  8
1
  6
Continuous
 62
     7
100
AcDbMText
 10
1599.289658616717
 20
-435.4160039965394
 30
0.0
 40
6.0
 41
0.0
 71
     7
 72
     5
  1
{\fＭＳ 明朝|b0|i0|c128|p17;\W1.0;ＣＲクロロプレンゴム}
  7
MTSTANDARD3
 73
     1
 44
2.291666666666667
  0
LINE
  5
360
330
1F
100
AcDbEntity
  8
1
  6
Continuous
 62
     7
100
AcDbLine
 10
1655.68369806815
 20
-22.86375041484069
 30
0.0
 11
1645.18369806815
 21
-22.86375041484067
 31
0.0
  0
LINE
  5
361
330
1F
100
AcDbEntity
  8
1
  6
Continuous
 62
     7
100
AcDbLine
 10
1645.18369806815
 20
-22.86375041484067
 30
0.0
 11
1645.18369806815
 21
-23.36375041484067
 31
0.0
  0
LINE
  5
362
330
1F
100
AcDbEntity
  8
1
  6
Continuous
 62
     7
100
AcDbLine
 10
1655.68369806815
 20
-23.36375041484069
 30
0.0
 11
1655.68369806815
 21
-22.86375041484069
 31
0.0
  0
LINE
  5
363
330
1F
100
AcDbEntity
  8
1
  6
Continuous
 62
     7
100
AcDbLine
 10
1655.68369806815
 20
-23.36375041484069
 30
0.0
 11
1645.18369806815
 21
-23.36375041484067
 31
0.0
  0
LINE
  5
364
330
1F
100
AcDbEntity
  8
1
  6
Continuous
 62
     7
100
AcDbLine
 10
1761.183698068151
 20
-25.16374823617143
 30
0.0
 11
1765.68369806815
 21
-25.16374780927589
 31
0.0
  0
LINE
  5
365
330
1F
100
AcDbEntity
  8
1
  6
Continuous
 62
     7
100
AcDbLine
 10
1743.993794980803
 20
-57.81193855738348
 30
0.0
 11
1747.440575789031
 21
-57.20390720029302
 31
0.0
  0
LINE
  5
366
330
1F
100
AcDbEntity
  8
1
  6
Continuous
 62
     7
100
AcDbLine
 10
1761.227699021944
 20
-54.77178177193123
 30
0.0
 11
1764.674479830172
 21
-54.16375041484076
 31
0.0
  0
HATCH
  5
367
330
1F
100
AcDbEntity
  8
1
  6
Continuous
 62
     7
100
AcDbHatch
 10
0.0
 20
0.0
 30
0.0
210
0.0
220
0.0
230
1.0
  2
_U
 70
     0
 71
     0
 91
        2
 92
        0
 93
        4
 72
     1
 10
1747.440575789031
 20
-57.20390720029302
 11
1743.993794980803
 21
-57.81193855738348
 72
     1
 10
1743.993794980803
 20
-57.81193855738348
 11
1744.341091336137
 21
-59.7815540634079
 72
     1
 10
1744.341091336137
 20
-59.78155406340797
 11
1747.787918471679
 21
-59.17378544157367
 72
     1
 10
1747.787918471679
 20
-59.17378544157368
 11
1747.440575789031
 21
-57.20390720029301
 97
        0
 92
        0
 93
        4
 72
     1
 10
1764.674479830172
 20
-54.16375041484076
 11
1761.227699021944
 21
-54.77178177193123
 72
     1
 10
1761.227699021944
 20
-54.77178177193122
 11
1761.57522701385
 21
-56.74271095423667
 72
     1
 10
1761.57522701385
 20
-56.74271095423666
 11
1765.022054149393
 21
-56.13494233240257
 72
     1
 10
1765.022054149393
 20
-56.13494233240255
 11
1764.674479830172
 21
-54.16375041484077
 97
        0
 75
     0
 76
     0
 52
45.00000000014619
 41
2.0
 77
     0
 78
     1
 53
45.00000000014619
 43
0.0
 44
0.0
 45
-1.414213562376704
 46
1.414213562369486
 79
     0
 98
        1
 10
0.0
 20
0.0
  0
INSERT
  5
36D
330
1F
100
AcDbEntity
  8
1
  6
ByBlock
 62
     3
100
AcDbBlockReference
  2
BALN13
 10
1685.515039517242
 20
-65.29188241928902
 30
0.0
  0
MTEXT
  5
36E
330
1F
100
AcDbEntity
  8
1
  6
Continuous
 62
     7
100
AcDbMText
 10
1540.028650969154
 20
-404.5821471102758
 30
0.0
 40
8.0
 41
0.0
 71
     7
 72
     5
  1
{\fＭＳ 明朝|b0|i0|c128|p17;\W1.0;パッキン②}
  7
MTSTANDARD
 73
     1
 44
0.9374999999750866
  0
MTEXT
  5
36F
330
1F
100
AcDbEntity
  8
1
  6
Continuous
 62
     7
100
AcDbMText
 10
1599.289658606465
 20
-403.4160039978146
 30
0.0
 40
6.0
 41
0.0
 71
     7
 72
     5
  1
{\fＭＳ 明朝|b0|i0|c128|p17;\W1.0;ＣＲクロロプレンゴム}
  7
MTSTANDARD3
 73
     1
 44
2.291666666666667
  0
MTEXT
  5
370
330
1F
100
AcDbEntity
  8
1
  6
Continuous
 62
     7
100
AcDbMText
 10
1531.611924238502
 20
-436.4160039955873
 30
0.0
 40
8.0
 41
0.0
 71
     7
 72
     5
  1
{\fＭＳ 明朝|b0|i0|c128|p17;\W1.0;パッキン④(ｔ3)}
  7
MTSTANDARD
 73
     1
 44
0.9374999999753553
  0
LINE
  5
371
330
1F
100
AcDbEntity
  8
1
  6
Continuous
 62
     7
100
AcDbLine
 10
1509.611924241502
 20
-440.4160039952627
 30
0.0
 11
1721.611924266221
 21
-440.4160039952631
 31
0.0
  0
INSERT
  5
377
330
1F
100
AcDbEntity
  8
1
  6
Continuous
 62
     3
100
AcDbBlockReference
  2
MAKR13
 10
1517.611924241497
 20
-432.4160039952631
 30
0.0
  0
ENDSEC
  0
SECTION
  2
OBJECTS
  0
DICTIONARY
  5
C
330
0
100
AcDbDictionary
281
     1
  3
ACAD_GROUP
350
D
  3
ACAD_LAYOUT
350
1A
  3
ACAD_MATERIAL
350
43
  3
ACAD_MLEADERSTYLE
350
6B
  3
ACAD_MLINESTYLE
350
17
  3
ACAD_PLOTSETTINGS
350
19
  3
ACAD_PLOTSTYLENAME
350
E
  3
ACAD_SCALELIST
350
47
  3
ACAD_TABLESTYLE
350
69
  3
ACAD_VISUALSTYLE
350
2A
  3
AcDbVariableDictionary
350
387
  0
DICTIONARY
  5
38E
330
8
100
AcDbDictionary
280
     1
281
     1
  3
ACAD_XREC_ROUNDTRIP
360
38F
  0
DICTIONARY
  5
D
102
{ACAD_REACTORS
330
C
102
}
330
C
100
AcDbDictionary
281
     1
  0
DICTIONARY
  5
1A
102
{ACAD_REACTORS
330
C
102
}
330
C
100
AcDbDictionary
281
     1
  3
Layout1
350
1E
  3
Model
350
22
  0
DICTIONARY
  5
43
102
{ACAD_REACTORS
330
C
102
}
330
C
100
AcDbDictionary
281
     1
  3
ByBlock
350
45
  3
ByLayer
350
44
  3
Global
350
46
  0
DICTIONARY
  5
6B
102
{ACAD_REACTORS
330
C
102
}
330
C
100
AcDbDictionary
281
     1
  3
Standard
350
6C
  0
DICTIONARY
  5
17
102
{ACAD_REACTORS
330
C
102
}
330
C
100
AcDbDictionary
281
     1
  3
Standard
350
18
  0
DICTIONARY
  5
19
102
{ACAD_REACTORS
330
C
102
}
330
C
100
AcDbDictionary
281
     1
  0
ACDBDICTIONARYWDFLT
  5
E
102
{ACAD_REACTORS
330
C
102
}
330
C
100
AcDbDictionary
281
     1
  3
Normal
350
F
100
AcDbDictionaryWithDefault
340
F
  0
DICTIONARY
  5
47
102
{ACAD_REACTORS
330
C
102
}
330
C
100
AcDbDictionary
281
     1
  3
A0
350
48
  3
A1
350
49
  3
A2
350
4A
  3
A3
350
4B
  3
A4
350
4C
  3
A5
350
4D
  3
A6
350
4E
  3
A7
350
4F
  3
A8
350
50
  3
A9
350
51
  3
B0
350
52
  3
B1
350
53
  3
B2
350
54
  3
B3
350
55
  3
B4
350
56
  3
B5
350
57
  3
B6
350
58
  3
B7
350
59
  3
B8
350
5A
  3
B9
350
5B
  3
C0
350
5C
  3
C1
350
5D
  3
C2
350
5E
  3
C3
350
5F
  3
C4
350
60
  3
C5
350
61
  3
C6
350
62
  3
C7
350
63
  3
C8
350
64
  3
C9
350
65
  3
D0
350
66
  3
D1
350
67
  3
D2
350
68
  0
DICTIONARY
  5
69
102
{ACAD_REACTORS
330
C
102
}
330
C
100
AcDbDictionary
281
     1
  3
Standard
350
6A
  0
DICTIONARY
  5
2A
102
{ACAD_REACTORS
330
C
102
}
330
C
100
AcDbDictionary
281
     1
  3
2dWireframe
350
2F
  3
Basic
350
32
  3
Brighten
350
36
  3
ColorChange
350
3A
  3
Conceptual
350
34
  3
Dim
350
35
  3
EdgeColorOff
350
3D
  3
Facepattern
350
39
  3
Flat
350
2B
  3
FlatWithEdges
350
2C
  3
Gouraud
350
2D
  3
GouraudWithEdges
350
2E
  3
Hidden
350
31
  3
JitterOff
350
3B
  3
Linepattern
350
38
  3
OverhangOff
350
3C
  3
Realistic
350
33
  3
Shaded
350
42
  3
Shaded with edges
350
41
  3
Shades of Gray
350
3E
  3
Sketchy
350
3F
  3
Thicken
350
37
  3
Wireframe
350
30
  3
X-Ray
350
40
  0
DICTIONARY
  5
387
102
{ACAD_REACTORS
330
C
102
}
330
C
100
AcDbDictionary
281
     1
  3
CANNOSCALE
350
390
  3
CMLEADERSTYLE
350
389
  3
CTABLESTYLE
350
388
  3
DIMASSOC
350
38C
  3
HIDETEXT
350
38D
  3
MSLTSCALE
350
391
  0
XRECORD
  5
38F
102
{ACAD_REACTORS
330
38E
102
}
330
38E
100
AcDbXrecord
280
     1
102
VTR_0.000_0.000_1.000_1.000_VISUALSTYLE
340
2F
102
VTR_0.000_0.000_1.000_1.000_GRIDDISPLAY
 70
     3
102
VTR_0.000_0.000_1.000_1.000_GRIDMAJOR
 70
     5
102
VTR_0.000_0.000_1.000_1.000_DEFAULTLIGHTING
280
     1
102
VTR_0.000_0.000_1.000_1.000_DEFAULTLIGHTINGTYPE
 70
     1
102
VTR_0.000_0.000_1.000_1.000_BRIGHTNESS
141
0.0
102
VTR_0.000_0.000_1.000_1.000_CONTRAST
142
0.0
  0
LAYOUT
  5
1E
102
{ACAD_REACTORS
330
1A
102
}
330
1A
100
AcDbPlotSettings
  1

  2
none_device
  4

  6

 40
0.0
 41
0.0
 42
0.0
 43
0.0
 44
0.0
 45
0.0
 46
0.0
 47
0.0
 48
0.0
 49
0.0
140
0.0
141
0.0
142
1.0
143
1.0
 70
   688
 72
     0
 73
     0
 74
     5
  7

 75
    16
147
1.0
148
0.0
149
0.0
100
AcDbLayout
  1
Layout1
 70
     1
 71
     1
 10
0.0
 20
0.0
 11
12.0
 21
9.0
 12
0.0
 22
0.0
 32
0.0
 14
1.000000000000000E+20
 24
1.000000000000000E+20
 34
1.000000000000000E+20
 15
-1.000000000000000E+20
 25
-1.000000000000000E+20
 35
-1.000000000000000E+20
146
0.0
 13
0.0
 23
0.0
 33
0.0
 16
1.0
 26
0.0
 36
0.0
 17
0.0
 27
1.0
 37
0.0
 76
     0
330
1B
  0
LAYOUT
  5
22
102
{ACAD_REACTORS
330
1A
102
}
330
1A
100
AcDbPlotSettings
  1

  2
none_device
  4
Letter_(8.50_x_11.00_Inches)
  6

 40
6.35
 41
6.35
 42
6.35000508
 43
6.35000508
 44
215.9
 45
279.4
 46
0.0
 47
0.0
 48
0.0
 49
0.0
140
0.0
141
0.0
142
1.0
143
1.0
 70
  1712
 72
     0
 73
     0
 74
     0
  7

 75
     0
147
1.0
148
0.0
149
0.0
100
AcDbLayout
  1
Model
 70
     1
 71
     0
 10
1487.076727951234
 20
-452.8104677476595
 11
2021.076727951234
 21
287.1895322523405
 12
1487.076727951234
 22
287.1895322523405
 32
0.0
 14
1487.076727951234
 24
-452.8104677476595
 34
0.0
 15
2021.076727951234
 25
287.1895322523405
 35
0.0
146
0.0
 13
0.0
 23
0.0
 33
0.0
 16
1.0
 26
0.0
 36
0.0
 17
0.0
 27
1.0
 37
0.0
 76
     0
330
1F
331
29
  0
MATERIAL
  5
45
102
{ACAD_REACTORS
330
43
102
}
102
{ACAD_XDICTIONARY
360
3C4
102
}
330
43
100
AcDbMaterial
  1
ByBlock
  0
MATERIAL
  5
44
102
{ACAD_REACTORS
330
43
102
}
102
{ACAD_XDICTIONARY
360
3C2
102
}
330
43
100
AcDbMaterial
  1
ByLayer
  0
MATERIAL
  5
46
102
{ACAD_REACTORS
330
43
102
}
102
{ACAD_XDICTIONARY
360
3C6
102
}
330
43
100
AcDbMaterial
  1
Global
  0
MLEADERSTYLE
  5
6C
102
{ACAD_REACTORS
330
6B
102
}
102
{ACAD_XDICTIONARY
360
3C9
102
}
330
6B
100
AcDbMLeaderStyle
170
     2
171
     1
172
     0
 90
        2
 40
0.0
 41
0.0
173
     1
 91
-1056964608
340
14
 92
       -2
290
     1
 42
0.09
291
     1
 43
0.36
  3
Standard
341
0
 44
0.18
300

342
11
174
     1
178
     6
175
     1
176
     0
 93
-1056964608
 45
0.18
292
     0
297
     0
 46
0.18
343
0
 94
-1056964608
 47
1.0
 49
1.0
140
1.0
293
     1
141
0.0
294
     1
177
     0
142
1.0
295
     0
296
     0
143
0.125
1001
ACAD_MLEADERVER
1070
     2
  0
MLINESTYLE
  5
18
102
{ACAD_REACTORS
330
17
102
}
330
17
100
AcDbMlineStyle
  2
Standard
 70
     0
  3

 62
   256
 51
90.0
 52
90.0
 71
     2
 49
0.5
 62
   256
  6
BYLAYER
 49
-0.5
 62
   256
  6
BYLAYER
  0
ACDBPLACEHOLDER
  5
F
102
{ACAD_REACTORS
330
E
102
}
330
E
  0
SCALE
  5
48
102
{ACAD_REACTORS
330
47
102
}
330
47
100
AcDbScale
 70
     0
300
1:1
140
1.0
141
1.0
290
     1
  0
SCALE
  5
49
102
{ACAD_REACTORS
330
47
102
}
330
47
100
AcDbScale
 70
     0
300
1:2
140
1.0
141
2.0
290
     0
  0
SCALE
  5
4A
102
{ACAD_REACTORS
330
47
102
}
330
47
100
AcDbScale
 70
     0
300
1:4
140
1.0
141
4.0
290
     0
  0
SCALE
  5
4B
102
{ACAD_REACTORS
330
47
102
}
330
47
100
AcDbScale
 70
     0
300
1:5
140
1.0
141
5.0
290
     0
  0
SCALE
  5
4C
102
{ACAD_REACTORS
330
47
102
}
330
47
100
AcDbScale
 70
     0
300
1:8
140
1.0
141
8.0
290
     0
  0
SCALE
  5
4D
102
{ACAD_REACTORS
330
47
102
}
330
47
100
AcDbScale
 70
     0
300
1:10
140
1.0
141
10.0
290
     0
  0
SCALE
  5
4E
102
{ACAD_REACTORS
330
47
102
}
330
47
100
AcDbScale
 70
     0
300
1:16
140
1.0
141
16.0
290
     0
  0
SCALE
  5
4F
102
{ACAD_REACTORS
330
47
102
}
330
47
100
AcDbScale
 70
     0
300
1:20
140
1.0
141
20.0
290
     0
  0
SCALE
  5
50
102
{ACAD_REACTORS
330
47
102
}
330
47
100
AcDbScale
 70
     0
300
1:30
140
1.0
141
30.0
290
     0
  0
SCALE
  5
51
102
{ACAD_REACTORS
330
47
102
}
330
47
100
AcDbScale
 70
     0
300
1:40
140
1.0
141
40.0
290
     0
  0
SCALE
  5
52
102
{ACAD_REACTORS
330
47
102
}
330
47
100
AcDbScale
 70
     0
300
1:50
140
1.0
141
50.0
290
     0
  0
SCALE
  5
53
102
{ACAD_REACTORS
330
47
102
}
330
47
100
AcDbScale
 70
     0
300
1:100
140
1.0
141
100.0
290
     0
  0
SCALE
  5
54
102
{ACAD_REACTORS
330
47
102
}
330
47
100
AcDbScale
 70
     0
300
2:1
140
2.0
141
1.0
290
     0
  0
SCALE
  5
55
102
{ACAD_REACTORS
330
47
102
}
330
47
100
AcDbScale
 70
     0
300
4:1
140
4.0
141
1.0
290
     0
  0
SCALE
  5
56
102
{ACAD_REACTORS
330
47
102
}
330
47
100
AcDbScale
 70
     0
300
8:1
140
8.0
141
1.0
290
     0
  0
SCALE
  5
57
102
{ACAD_REACTORS
330
47
102
}
330
47
100
AcDbScale
 70
     0
300
10:1
140
10.0
141
1.0
290
     0
  0
SCALE
  5
58
102
{ACAD_REACTORS
330
47
102
}
330
47
100
AcDbScale
 70
     0
300
100:1
140
100.0
141
1.0
290
     0
  0
SCALE
  5
59
102
{ACAD_REACTORS
330
47
102
}
330
47
100
AcDbScale
 70
     0
300
1/128" = 1'-0"
140
0.0078125
141
12.0
290
     0
  0
SCALE
  5
5A
102
{ACAD_REACTORS
330
47
102
}
330
47
100
AcDbScale
 70
     0
300
1/64" = 1'-0"
140
0.015625
141
12.0
290
     0
  0
SCALE
  5
5B
102
{ACAD_REACTORS
330
47
102
}
330
47
100
AcDbScale
 70
     0
300
1/32" = 1'-0"
140
0.03125
141
12.0
290
     0
  0
SCALE
  5
5C
102
{ACAD_REACTORS
330
47
102
}
330
47
100
AcDbScale
 70
     0
300
1/16" = 1'-0"
140
0.0625
141
12.0
290
     0
  0
SCALE
  5
5D
102
{ACAD_REACTORS
330
47
102
}
330
47
100
AcDbScale
 70
     0
300
3/32" = 1'-0"
140
0.09375
141
12.0
290
     0
  0
SCALE
  5
5E
102
{ACAD_REACTORS
330
47
102
}
330
47
100
AcDbScale
 70
     0
300
1/8" = 1'-0"
140
0.125
141
12.0
290
     0
  0
SCALE
  5
5F
102
{ACAD_REACTORS
330
47
102
}
330
47
100
AcDbScale
 70
     0
300
3/16" = 1'-0"
140
0.1875
141
12.0
290
     0
  0
SCALE
  5
60
102
{ACAD_REACTORS
330
47
102
}
330
47
100
AcDbScale
 70
     0
300
1/4" = 1'-0"
140
0.25
141
12.0
290
     0
  0
SCALE
  5
61
102
{ACAD_REACTORS
330
47
102
}
330
47
100
AcDbScale
 70
     0
300
3/8" = 1'-0"
140
0.375
141
12.0
290
     0
  0
SCALE
  5
62
102
{ACAD_REACTORS
330
47
102
}
330
47
100
AcDbScale
 70
     0
300
1/2" = 1'-0"
140
0.5
141
12.0
290
     0
  0
SCALE
  5
63
102
{ACAD_REACTORS
330
47
102
}
330
47
100
AcDbScale
 70
     0
300
3/4" = 1'-0"
140
0.75
141
12.0
290
     0
  0
SCALE
  5
64
102
{ACAD_REACTORS
330
47
102
}
330
47
100
AcDbScale
 70
     0
300
1" = 1'-0"
140
1.0
141
12.0
290
     0
  0
SCALE
  5
65
102
{ACAD_REACTORS
330
47
102
}
330
47
100
AcDbScale
 70
     0
300
1-1/2" = 1'-0"
140
1.5
141
12.0
290
     0
  0
SCALE
  5
66
102
{ACAD_REACTORS
330
47
102
}
330
47
100
AcDbScale
 70
     0
300
3" = 1'-0"
140
3.0
141
12.0
290
     0
  0
SCALE
  5
67
102
{ACAD_REACTORS
330
47
102
}
330
47
100
AcDbScale
 70
     0
300
6" = 1'-0"
140
6.0
141
12.0
290
     0
  0
SCALE
  5
68
102
{ACAD_REACTORS
330
47
102
}
330
47
100
AcDbScale
 70
     0
300
1'-0" = 1'-0"
140
12.0
141
12.0
290
     0
  0
TABLESTYLE
  5
6A
102
{ACAD_REACTORS
330
69
102
}
330
69
100
AcDbTableStyle
  3
Standard
 70
     0
 71
     0
 40
0.06
 41
0.06
280
     0
281
     0
  7
Standard
140
0.18
170
     2
 62
     0
 63
   257
283
     0
274
    -2
284
     1
 64
     0
275
    -2
285
     1
 65
     0
276
    -2
286
     1
 66
     0
277
    -2
287
     1
 67
     0
278
    -2
288
     1
 68
     0
279
    -2
289
     1
 69
     0
  7
Standard
140
0.25
170
     5
 62
     0
 63
   257
283
     0
274
    -2
284
     1
 64
     0
275
    -2
285
     1
 65
     0
276
    -2
286
     1
 66
     0
277
    -2
287
     1
 67
     0
278
    -2
288
     1
 68
     0
279
    -2
289
     1
 69
     0
  7
Standard
140
0.18
170
     5
 62
     0
 63
   257
283
     0
274
    -2
284
     1
 64
     0
275
    -2
285
     1
 65
     0
276
    -2
286
     1
 66
     0
277
    -2
287
     1
 67
     0
278
    -2
288
     1
 68
     0
279
    -2
289
     1
 69
     0
  0
VISUALSTYLE
  5
2F
102
{ACAD_REACTORS
330
2A
102
}
102
{ACAD_XDICTIONARY
360
39A
102
}
330
2A
100
AcDbVisualStyle
  2
2dWireframe
 70
     4
 71
     0
 72
     2
 73
     0
 90
        0
 40
0.6
 41
30.0
 62
     5
 63
     7
 74
     1
 91
        4
 64
     7
 65
   257
 75
     1
175
     1
 42
1.0
 92
        0
 66
   257
 43
1.0
 76
     1
 77
     6
 78
     2
 67
     7
 79
     5
170
     0
171
     0
290
     0
174
     0
 93
        1
 44
0.0
173
     0
291
     0
 45
0.0
1001
ACAD
1000
AcDbSavedByObjectVersion
1070
     0
  0
VISUALSTYLE
  5
32
102
{ACAD_REACTORS
330
2A
102
}
102
{ACAD_XDICTIONARY
360
3A0
102
}
330
2A
100
AcDbVisualStyle
  2
Basic
 70
     7
 71
     1
 72
     0
 73
     1
 90
        0
 40
0.6
 41
30.0
 62
     5
 63
     7
 74
     0
 91
        4
 64
     7
 65
   257
 75
     1
175
     1
 42
1.0
 92
        8
 66
     7
 43
1.0
 76
     1
 77
     6
 78
     2
 67
     7
 79
     5
170
     0
171
     0
290
     0
174
     0
 93
        1
 44
0.0
173
     0
291
     1
 45
0.0
1001
ACAD
1000
AcDbSavedByObjectVersion
1070
     0
  0
VISUALSTYLE
  5
36
102
{ACAD_REACTORS
330
2A
102
}
102
{ACAD_XDICTIONARY
360
3A8
102
}
330
2A
100
AcDbVisualStyle
  2
Brighten
 70
    12
 71
     2
 72
     2
 73
     0
 90
        0
 40
0.6
 41
30.0
 62
     5
 63
     7
 74
     1
 91
        4
 64
     7
 65
   257
 75
     1
175
     1
 42
1.0
 92
        8
 66
     7
 43
1.0
 76
     1
 77
     6
 78
     2
 67
     7
 79
     5
170
     0
171
     0
290
     0
174
     0
 93
        1
 44
50.0
173
     0
291
     1
 45
0.0
1001
ACAD
1000
AcDbSavedByObjectVersion
1070
     0
  0
VISUALSTYLE
  5
3A
102
{ACAD_REACTORS
330
2A
102
}
102
{ACAD_XDICTIONARY
360
3B0
102
}
330
2A
100
AcDbVisualStyle
  2
ColorChange
 70
    16
 71
     2
 72
     2
 73
     3
 90
        0
 40
0.6
 41
30.0
 62
     5
 63
     8
 74
     1
 91
        4
 64
     7
 65
   257
 75
     1
175
     1
 42
1.0
 92
        8
 66
     8
 43
1.0
 76
     1
 77
     6
 78
     2
 67
     7
 79
     5
170
     0
171
     0
290
     0
174
     0
 93
        1
 44
0.0
173
     0
291
     1
 45
0.0
1001
ACAD
1000
AcDbSavedByObjectVersion
1070
     0
  0
VISUALSTYLE
  5
34
102
{ACAD_REACTORS
330
2A
102
}
102
{ACAD_XDICTIONARY
360
3A4
102
}
330
2A
100
AcDbVisualStyle
  2
Conceptual
 70
     9
 71
     3
 72
     2
 73
     0
 90
        0
 40
0.6
 41
30.0
 62
     5
 63
     7
 74
     2
 91
        2
 64
     7
 65
   257
 75
     1
175
     1
 42
179.0
 92
        8
 66
     7
 43
1.0
 76
     1
 77
     6
 78
     2
 67
     7
 79
     3
170
     0
171
     0
290
     0
174
     0
 93
        1
 44
0.0
173
     0
291
     0
 45
0.0
1001
ACAD
1000
AcDbSavedByObjectVersion
1070
     0
  0
VISUALSTYLE
  5
35
102
{ACAD_REACTORS
330
2A
102
}
102
{ACAD_XDICTIONARY
360
3A6
102
}
330
2A
100
AcDbVisualStyle
  2
Dim
 70
    11
 71
     2
 72
     2
 73
     0
 90
        0
 40
0.6
 41
30.0
 62
     5
 63
     7
 74
     1
 91
        4
 64
     7
 65
   257
 75
     1
175
     1
 42
1.0
 92
        8
 66
     7
 43
1.0
 76
     1
 77
     6
 78
     2
 67
     7
 79
     5
170
     0
171
     0
290
     0
174
     0
 93
        1
 44
-50.0
173
     0
291
     1
 45
0.0
1001
ACAD
1000
AcDbSavedByObjectVersion
1070
     0
  0
VISUALSTYLE
  5
3D
102
{ACAD_REACTORS
330
2A
102
}
102
{ACAD_XDICTIONARY
360
3B6
102
}
330
2A
100
AcDbVisualStyle
  2
EdgeColorOff
 70
    22
 71
     2
 72
     2
 73
     0
 90
        0
 40
0.6
 41
30.0
 62
     5
 63
     7
 74
     1
 91
        4
 64
     7
 65
   257
 75
     1
175
     1
 42
1.0
 92
        8
 66
     7
 43
1.0
 76
     1
 77
     6
 78
     2
 67
     7
 79
     5
170
     0
171
     0
290
     0
174
     0
 93
        1
 44
0.0
173
     0
291
     1
 45
0.0
1001
ACAD
1000
AcDbSavedByObjectVersion
1070
     0
  0
VISUALSTYLE
  5
39
102
{ACAD_REACTORS
330
2A
102
}
102
{ACAD_XDICTIONARY
360
3AE
102
}
330
2A
100
AcDbVisualStyle
  2
Facepattern
 70
    15
 71
     2
 72
     2
 73
     0
 90
        0
 40
0.6
 41
30.0
 62
     5
 63
     7
 74
     1
 91
        4
 64
     7
 65
   257
 75
     1
175
     1
 42
1.0
 92
        8
 66
     7
 43
1.0
 76
     1
 77
     6
 78
     2
 67
     7
 79
     5
170
     0
171
     0
290
     0
174
     0
 93
        1
 44
0.0
173
     0
291
     1
 45
0.0
1001
ACAD
1000
AcDbSavedByObjectVersion
1070
     0
  0
VISUALSTYLE
  5
2B
102
{ACAD_REACTORS
330
2A
102
}
102
{ACAD_XDICTIONARY
360
392
102
}
330
2A
100
AcDbVisualStyle
  2
Flat
 70
     0
 71
     2
 72
     1
 73
     1
 90
        2
 40
0.6
 41
30.0
 62
     5
 63
     7
 74
     0
 91
        0
 64
     7
 65
   257
 75
     1
175
     1
 42
1.0
 92
        8
 66
     7
 43
1.0
 76
     1
 77
     6
 78
     2
 67
     7
 79
     5
170
     0
171
     0
290
     0
174
     0
 93
       13
 44
0.0
173
     0
291
     1
 45
0.0
1001
ACAD
1000
AcDbSavedByObjectVersion
1070
     0
  0
VISUALSTYLE
  5
2C
102
{ACAD_REACTORS
330
2A
102
}
102
{ACAD_XDICTIONARY
360
394
102
}
330
2A
100
AcDbVisualStyle
  2
FlatWithEdges
 70
     1
 71
     2
 72
     1
 73
     1
 90
        2
 40
0.6
 41
30.0
 62
     5
 63
     7
 74
     1
 91
        0
 64
     7
 65
   257
 75
     1
175
     1
 42
1.0
 92
        0
 66
   257
 43
1.0
 76
     1
 77
     6
 78
     2
 67
     7
 79
     5
170
     0
171
     0
290
     0
174
     0
 93
       13
 44
0.0
173
     0
291
     1
 45
0.0
1001
ACAD
1000
AcDbSavedByObjectVersion
1070
     0
  0
VISUALSTYLE
  5
2D
102
{ACAD_REACTORS
330
2A
102
}
102
{ACAD_XDICTIONARY
360
396
102
}
330
2A
100
AcDbVisualStyle
  2
Gouraud
 70
     2
 71
     2
 72
     2
 73
     1
 90
        2
 40
0.6
 41
30.0
 62
     5
 63
     7
 74
     0
 91
        0
 64
     7
 65
   257
 75
     1
175
     1
 42
1.0
 92
        0
 66
     7
 43
1.0
 76
     1
 77
     6
 78
     2
 67
     7
 79
     5
170
     0
171
     0
290
     0
174
     0
 93
       13
 44
0.0
173
     0
291
     1
 45
0.0
1001
ACAD
1000
AcDbSavedByObjectVersion
1070
     0
  0
VISUALSTYLE
  5
2E
102
{ACAD_REACTORS
330
2A
102
}
102
{ACAD_XDICTIONARY
360
398
102
}
330
2A
100
AcDbVisualStyle
  2
GouraudWithEdges
 70
     3
 71
     2
 72
     2
 73
     1
 90
        2
 40
0.6
 41
30.0
 62
     5
 63
     7
 74
     1
 91
        0
 64
     7
 65
   257
 75
     1
175
     1
 42
1.0
 92
        0
 66
   257
 43
1.0
 76
     1
 77
     6
 78
     2
 67
     7
 79
     5
170
     0
171
     0
290
     0
174
     0
 93
       13
 44
0.0
173
     0
291
     1
 45
0.0
1001
ACAD
1000
AcDbSavedByObjectVersion
1070
     0
  0
VISUALSTYLE
  5
31
102
{ACAD_REACTORS
330
2A
102
}
102
{ACAD_XDICTIONARY
360
39E
102
}
330
2A
100
AcDbVisualStyle
  2
Hidden
 70
     6
 71
     1
 72
     2
 73
     2
 90
        0
 40
0.6
 41
30.0
 62
     5
 63
     7
 74
     2
 91
        2
 64
     7
 65
   257
 75
     2
175
     1
 42
40.0
 92
        0
 66
   257
 43
1.0
 76
     1
 77
     6
 78
     2
 67
     7
 79
     3
170
     0
171
     0
290
     0
174
     0
 93
        1
 44
0.0
173
     0
291
     0
 45
0.0
1001
ACAD
1000
AcDbSavedByObjectVersion
1070
     0
  0
VISUALSTYLE
  5
3B
102
{ACAD_REACTORS
330
2A
102
}
102
{ACAD_XDICTIONARY
360
3B2
102
}
330
2A
100
AcDbVisualStyle
  2
JitterOff
 70
    20
 71
     2
 72
     2
 73
     0
 90
        0
 40
0.6
 41
30.0
 62
     5
 63
     7
 74
     1
 91
        4
 64
     7
 65
   257
 75
     1
175
     1
 42
1.0
 92
       10
 66
     7
 43
1.0
 76
     1
 77
     6
 78
     2
 67
     7
 79
     5
170
     0
171
     0
290
     0
174
     0
 93
        1
 44
0.0
173
     0
291
     1
 45
0.0
1001
ACAD
1000
AcDbSavedByObjectVersion
1070
     0
  0
VISUALSTYLE
  5
38
102
{ACAD_REACTORS
330
2A
102
}
102
{ACAD_XDICTIONARY
360
3AC
102
}
330
2A
100
AcDbVisualStyle
  2
Linepattern
 70
    14
 71
     2
 72
     2
 73
     0
 90
        0
 40
0.6
 41
30.0
 62
     5
 63
     7
 74
     1
 91
        4
 64
     7
 65
   257
 75
     7
175
     7
 42
1.0
 92
        8
 66
     7
 43
1.0
 76
     1
 77
     6
 78
     2
 67
     7
 79
     5
170
     0
171
     0
290
     0
174
     0
 93
        1
 44
0.0
173
     0
291
     1
 45
0.0
1001
ACAD
1000
AcDbSavedByObjectVersion
1070
     0
  0
VISUALSTYLE
  5
3C
102
{ACAD_REACTORS
330
2A
102
}
102
{ACAD_XDICTIONARY
360
3B4
102
}
330
2A
100
AcDbVisualStyle
  2
OverhangOff
 70
    21
 71
     2
 72
     2
 73
     0
 90
        0
 40
0.6
 41
30.0
 62
     5
 63
     7
 74
     1
 91
        4
 64
     7
 65
   257
 75
     1
175
     1
 42
1.0
 92
        9
 66
     7
 43
1.0
 76
     1
 77
     6
 78
     2
 67
     7
 79
     5
170
     0
171
     0
290
     0
174
     0
 93
        1
 44
0.0
173
     0
291
     1
 45
0.0
1001
ACAD
1000
AcDbSavedByObjectVersion
1070
     0
  0
VISUALSTYLE
  5
33
102
{ACAD_REACTORS
330
2A
102
}
102
{ACAD_XDICTIONARY
360
3A2
102
}
330
2A
100
AcDbVisualStyle
  2
Realistic
 70
     8
 71
     2
 72
     3
 73
     0
 90
        2
 40
0.6
 41
30.0
 62
     5
 63
     7
 74
     0
 91
        0
 64
     7
 65
   257
 75
     1
175
     1
 42
1.0
 92
        8
 66
   257
 43
1.0
 76
     1
 77
     6
 78
     2
 67
     7
 79
     3
170
     0
171
     0
290
     0
174
     0
 93
       13
 44
0.0
173
     0
291
     0
 45
0.0
1001
ACAD
1000
AcDbSavedByObjectVersion
1070
     0
  0
VISUALSTYLE
  5
42
102
{ACAD_REACTORS
330
2A
102
}
102
{ACAD_XDICTIONARY
360
3C0
102
}
330
2A
100
AcDbVisualStyle
  2
Shaded
 70
    27
 71
     2
 72
     2
 73
     1
 90
        2
 40
0.6
 41
30.0
 62
     5
 63
     7
 74
     0
 91
        4
 64
     7
 65
   257
 75
     1
175
     1
 42
1.0
 92
        8
 66
   257
 43
1.0
 76
     1
 77
     6
 78
     2
 67
     8
 79
     3
170
     0
171
     0
290
     0
174
     0
 93
        5
 44
0.0
173
     0
291
     0
 45
0.0
1001
ACAD
1000
AcDbSavedByObjectVersion
1070
     0
  0
VISUALSTYLE
  5
41
102
{ACAD_REACTORS
330
2A
102
}
102
{ACAD_XDICTIONARY
360
3BE
102
}
330
2A
100
AcDbVisualStyle
  2
Shaded with edges
 70
    26
 71
     2
 72
     2
 73
     1
 90
        2
 40
0.6
 41
30.0
 62
     5
 63
     7
 74
     1
 91
       10
 64
     7
 65
   257
 75
     2
175
     1
 42
1.0
 92
        8
 66
   257
 43
1.0
 76
     1
 77
     6
 78
     2
 67
     7
 79
     3
170
     0
171
     0
290
     0
174
     0
 93
        5
 44
0.0
173
     0
291
     0
 45
0.0
1001
ACAD
1000
AcDbSavedByObjectVersion
1070
     0
  0
VISUALSTYLE
  5
3E
102
{ACAD_REACTORS
330
2A
102
}
102
{ACAD_XDICTIONARY
360
3B8
102
}
330
2A
100
AcDbVisualStyle
  2
Shades of Gray
 70
    23
 71
     2
 72
     2
 73
     3
 90
        0
 40
0.6
 41
30.0
 62
     5
 63
     7
 74
     2
 91
        2
 64
     7
 65
     7
 75
     1
175
     1
 42
40.0
 92
        8
 66
     7
 43
1.0
 76
     1
 77
     6
 78
     2
 67
     7
 79
     3
170
     0
171
     0
290
     0
174
     0
 93
        1
 44
0.0
173
     0
291
     0
 45
0.0
1001
ACAD
1000
AcDbSavedByObjectVersion
1070
     0
  0
VISUALSTYLE
  5
3F
102
{ACAD_REACTORS
330
2A
102
}
102
{ACAD_XDICTIONARY
360
3BA
102
}
330
2A
100
AcDbVisualStyle
  2
Sketchy
 70
    24
 71
     1
 72
     2
 73
     2
 90
        0
 40
0.6
 41
30.0
 62
     5
 63
     7
 74
     2
 91
        2
 64
     7
 65
     7
 75
     1
175
     1
 42
40.0
 92
       11
 66
     7
 43
1.0
 76
     1
 77
     6
 78
     2
 67
     7
 79
     6
170
     0
171
     0
290
     0
174
     0
 93
        1
 44
0.0
173
     0
291
     0
 45
0.0
1001
ACAD
1000
AcDbSavedByObjectVersion
1070
     0
  0
VISUALSTYLE
  5
37
102
{ACAD_REACTORS
330
2A
102
}
102
{ACAD_XDICTIONARY
360
3AA
102
}
330
2A
100
AcDbVisualStyle
  2
Thicken
 70
    13
 71
     2
 72
     2
 73
     0
 90
        0
 40
0.6
 41
30.0
 62
     5
 63
     7
 74
     1
 91
        4
 64
     7
 65
   257
 75
     1
175
     1
 42
1.0
 92
       12
 66
     7
 43
1.0
 76
     1
 77
     6
 78
     2
 67
     7
 79
     5
170
     0
171
     0
290
     0
174
     0
 93
        1
 44
0.0
173
     0
291
     1
 45
0.0
1001
ACAD
1000
AcDbSavedByObjectVersion
1070
     0
  0
VISUALSTYLE
  5
30
102
{ACAD_REACTORS
330
2A
102
}
102
{ACAD_XDICTIONARY
360
39C
102
}
330
2A
100
AcDbVisualStyle
  2
Wireframe
 70
     5
 71
     0
 72
     2
 73
     0
 90
        0
 40
0.6
 41
30.0
 62
     5
 63
     7
 74
     1
 91
        4
 64
     7
 65
   257
 75
     1
175
     1
 42
1.0
 92
        0
 66
   257
 43
1.0
 76
     1
 77
     6
 78
     2
 67
     7
 79
     3
170
     0
171
     0
290
     0
174
     0
 93
        1
 44
0.0
173
     0
291
     0
 45
0.0
1001
ACAD
1000
AcDbSavedByObjectVersion
1070
     0
  0
VISUALSTYLE
  5
40
102
{ACAD_REACTORS
330
2A
102
}
102
{ACAD_XDICTIONARY
360
3BC
102
}
330
2A
100
AcDbVisualStyle
  2
X-Ray
 70
    25
 71
     2
 72
     2
 73
     1
 90
        1
 40
0.5
 41
30.0
 62
     5
 63
     7
 74
     1
 91
        0
 64
     7
 65
   257
 75
     1
175
     1
 42
1.0
 92
        8
 66
     7
 43
1.0
 76
     1
 77
     6
 78
     2
 67
     7
 79
     3
170
     0
171
     0
290
     0
174
     0
 93
       13
 44
0.0
173
     0
291
     0
 45
0.0
1001
ACAD
1000
AcDbSavedByObjectVersion
1070
     0
  0
DICTIONARYVAR
  5
390
102
{ACAD_REACTORS
330
387
102
}
330
387
100
DictionaryVariables
280
     0
  1
1:1
  0
DICTIONARYVAR
  5
389
102
{ACAD_REACTORS
330
387
102
}
330
387
100
DictionaryVariables
280
     0
  1
Standard
  0
DICTIONARYVAR
  5
388
102
{ACAD_REACTORS
330
387
102
}
330
387
100
DictionaryVariables
280
     0
  1
Standard
  0
DICTIONARYVAR
  5
38C
102
{ACAD_REACTORS
330
387
102
}
330
387
100
DictionaryVariables
280
     0
  1
2
  0
DICTIONARYVAR
  5
38D
102
{ACAD_REACTORS
330
387
102
}
330
387
100
DictionaryVariables
280
     0
  1
1
  0
DICTIONARYVAR
  5
391
102
{ACAD_REACTORS
330
387
102
}
330
387
100
DictionaryVariables
280
     0
  1
1
  0
DICTIONARY
  5
3C4
330
45
100
AcDbDictionary
280
     1
281
     1
  3
ACAD_XREC_ROUNDTRIP
360
3C5
  0
DICTIONARY
  5
3C2
330
44
100
AcDbDictionary
280
     1
281
     1
  3
ACAD_XREC_ROUNDTRIP
360
3C3
  0
DICTIONARY
  5
3C6
330
46
100
AcDbDictionary
280
     1
281
     1
  3
ACAD_XREC_ROUNDTRIP
360
3C7
  0
DICTIONARY
  5
3C9
330
6C
100
AcDbDictionary
280
     1
281
     1
  3
ACAD_XREC_ROUNDTRIP
360
3CA
  0
DICTIONARY
  5
39A
330
2F
100
AcDbDictionary
280
     1
281
     1
  3
ACAD_XREC_ROUNDTRIP
360
39B
  0
DICTIONARY
  5
3A0
330
32
100
AcDbDictionary
280
     1
281
     1
  3
ACAD_XREC_ROUNDTRIP
360
3A1
  0
DICTIONARY
  5
3A8
330
36
100
AcDbDictionary
280
     1
281
     1
  3
ACAD_XREC_ROUNDTRIP
360
3A9
  0
DICTIONARY
  5
3B0
330
3A
100
AcDbDictionary
280
     1
281
     1
  3
ACAD_XREC_ROUNDTRIP
360
3B1
  0
DICTIONARY
  5
3A4
330
34
100
AcDbDictionary
280
     1
281
     1
  3
ACAD_XREC_ROUNDTRIP
360
3A5
  0
DICTIONARY
  5
3A6
330
35
100
AcDbDictionary
280
     1
281
     1
  3
ACAD_XREC_ROUNDTRIP
360
3A7
  0
DICTIONARY
  5
3B6
330
3D
100
AcDbDictionary
280
     1
281
     1
  3
ACAD_XREC_ROUNDTRIP
360
3B7
  0
DICTIONARY
  5
3AE
330
39
100
AcDbDictionary
280
     1
281
     1
  3
ACAD_XREC_ROUNDTRIP
360
3AF
  0
DICTIONARY
  5
392
330
2B
100
AcDbDictionary
280
     1
281
     1
  3
ACAD_XREC_ROUNDTRIP
360
393
  0
DICTIONARY
  5
394
330
2C
100
AcDbDictionary
280
     1
281
     1
  3
ACAD_XREC_ROUNDTRIP
360
395
  0
DICTIONARY
  5
396
330
2D
100
AcDbDictionary
280
     1
281
     1
  3
ACAD_XREC_ROUNDTRIP
360
397
  0
DICTIONARY
  5
398
330
2E
100
AcDbDictionary
280
     1
281
     1
  3
ACAD_XREC_ROUNDTRIP
360
399
  0
DICTIONARY
  5
39E
330
31
100
AcDbDictionary
280
     1
281
     1
  3
ACAD_XREC_ROUNDTRIP
360
39F
  0
DICTIONARY
  5
3B2
330
3B
100
AcDbDictionary
280
     1
281
     1
  3
ACAD_XREC_ROUNDTRIP
360
3B3
  0
DICTIONARY
  5
3AC
330
38
100
AcDbDictionary
280
     1
281
     1
  3
ACAD_XREC_ROUNDTRIP
360
3AD
  0
DICTIONARY
  5
3B4
330
3C
100
AcDbDictionary
280
     1
281
     1
  3
ACAD_XREC_ROUNDTRIP
360
3B5
  0
DICTIONARY
  5
3A2
330
33
100
AcDbDictionary
280
     1
281
     1
  3
ACAD_XREC_ROUNDTRIP
360
3A3
  0
DICTIONARY
  5
3C0
330
42
100
AcDbDictionary
280
     1
281
     1
  3
ACAD_XREC_ROUNDTRIP
360
3C1
  0
DICTIONARY
  5
3BE
330
41
100
AcDbDictionary
280
     1
281
     1
  3
ACAD_XREC_ROUNDTRIP
360
3BF
  0
DICTIONARY
  5
3B8
330
3E
100
AcDbDictionary
280
     1
281
     1
  3
ACAD_XREC_ROUNDTRIP
360
3B9
  0
DICTIONARY
  5
3BA
330
3F
100
AcDbDictionary
280
     1
281
     1
  3
ACAD_XREC_ROUNDTRIP
360
3BB
  0
DICTIONARY
  5
3AA
330
37
100
AcDbDictionary
280
     1
281
     1
  3
ACAD_XREC_ROUNDTRIP
360
3AB
  0
DICTIONARY
  5
39C
330
30
100
AcDbDictionary
280
     1
281
     1
  3
ACAD_XREC_ROUNDTRIP
360
39D
  0
DICTIONARY
  5
3BC
330
40
100
AcDbDictionary
280
     1
281
     1
  3
ACAD_XREC_ROUNDTRIP
360
3BD
  0
XRECORD
  5
3C5
102
{ACAD_REACTORS
330
3C4
102
}
330
3C4
100
AcDbXrecord
280
     1
102
MATERIAL
148
0.0
149
0.0
149
0.0
 93
        0
 94
      127
282
     0
 72
     1
 77
     1
171
     1
175
     1
179
     1
273
     0
  0
XRECORD
  5
3C3
102
{ACAD_REACTORS
330
3C2
102
}
330
3C2
100
AcDbXrecord
280
     1
102
MATERIAL
148
0.0
149
0.0
149
0.0
 93
        0
 94
      127
282
     0
 72
     1
 77
     1
171
     1
175
     1
179
     1
273
     0
  0
XRECORD
  5
3C7
102
{ACAD_REACTORS
330
3C6
102
}
330
3C6
100
AcDbXrecord
280
     1
102
MATERIAL
148
0.0
149
0.0
149
0.0
 93
        0
 94
      127
282
     0
 72
     1
 77
     1
171
     1
175
     1
179
     1
273
     0
  0
XRECORD
  5
3CA
102
{ACAD_REACTORS
330
3C9
102
}
330
3C9
100
AcDbXrecord
280
     1
102
ACAD_ROUNDTRIP_2010_MLEADER_STYLE
  0
XRECORD
  5
39B
102
{ACAD_REACTORS
330
39A
102
}
330
39A
100
AcDbXrecord
280
     1
102
RTVSPropertyOp0
 70
     1
102
RTVSPropertyOp1
 70
     1
102
RTVSPropertyOp2
 70
     1
102
RTVSPropertyOp3
 70
     1
102
RTVSPropertyOp4
 70
     1
102
RTVSPropertyOp5
 70
     1
102
RTVSPropertyOp6
 70
     1
102
RTVSPropertyOp7
 70
     1
102
RTVSPropertyOp8
 70
     1
102
RTVSPropertyOp9
 70
     1
102
RTVSPropertyOp10
 70
     1
102
RTVSPropertyOp11
 70
     1
102
RTVSPropertyOp12
 70
     1
102
RTVSPropertyOp13
 70
     1
102
RTVSPropertyOp14
 70
     1
102
RTVSPropertyOp15
 70
     1
102
RTVSPropertyOp16
 70
     1
102
RTVSPropertyOp17
 70
     1
102
RTVSPropertyOp18
 70
     1
102
RTVSPropertyOp19
 70
     1
102
RTVSPropertyOp20
 70
     1
102
RTVSPropertyOp21
 70
     1
102
RTVSPropertyOp22
 70
     1
102
RTVSPropertyOp23
 70
     1
102
RTVSPropertyOp24
 70
     1
102
RTVSPropertyOp25
 70
     1
102
RTVSPropertyOp26
 70
     1
102
RTVSPropertyOp27
 70
     1
102
RTVSPropertyOp28
 70
     1
102
RTVSPropertyOp29
 70
     1
102
RTVSPropertyOp30
 70
     1
102
RTVSPropertyOp31
 70
     1
102
RTVSPropertyOp32
 70
     1
102
RTVSPropertyOp33
 70
     1
102
RTVSPropertyOp34
 70
     1
102
RTVSPropertyOp35
 70
     1
102
RTVSPropertyOp36
 70
     1
102
RTVSPropertyOp37
 70
     1
102
RTVSPropertyOp38
 70
     1
102
RTVSPropertyOp39
 70
     1
102
RTVSPropertyOp40
 70
     1
102
RTVSPropertyOp41
 70
     1
102
RTVSPropertyOp42
 70
     1
102
RTVSPropertyOp43
 70
     1
102
RTVSPropertyOp44
 70
     1
102
RTVSPropertyOp45
 70
     1
102
RTVSPropertyOp46
 70
     1
102
RTVSPropertyOp47
 70
     1
102
RTVSPropertyOp48
 70
     1
102
RTVSPropertyOp49
 70
     1
102
RTVSPropertyOp50
 70
     1
102
RTVSPropertyOp51
 70
     0
102
RTVSPropertyOp52
 70
     0
102
RTVSPropertyOp53
 70
     1
102
RTVSPropertyOp54
 70
     1
102
RTVSPropertyOp55
 70
     1
102
RTVSPropertyOp56
 70
     1
102
RTVSPropertyOp57
 70
     1
102
RTVSPost2010Prop28
280
     1
102
RTVSPost2010PropOp28
 70
     1
102
RTVSPost2010Prop29
280
     1
102
RTVSPost2010PropOp29
 70
     1
102
RTVSPost2010Prop30
280
     0
102
RTVSPost2010PropOp30
 70
     1
102
RTVSPost2010Prop31
280
     0
102
RTVSPost2010PropOp31
 70
     1
102
RTVSPost2010Prop32
280
     0
102
RTVSPost2010PropOp32
 70
     1
102
RTVSPost2010Prop33
280
     0
102
RTVSPost2010PropOp33
 70
     1
102
RTVSPost2010Prop34
280
     0
102
RTVSPost2010PropOp34
 70
     1
102
RTVSPost2010Prop35
280
     0
102
RTVSPost2010PropOp35
 70
     1
102
RTVSPost2010Prop36
280
     0
102
RTVSPost2010PropOp36
 70
     1
102
RTVSPost2010Prop37
 90
       50
102
RTVSPost2010PropOp37
 70
     1
102
RTVSPost2010Prop38
140
0.0
102
RTVSPost2010PropOp38
 70
     1
102
RTVSPost2010Prop39
140
1.0
102
RTVSPost2010PropOp39
 70
     1
102
RTVSPost2010Prop40
 90
        0
102
RTVSPost2010PropOp40
 70
     1
102
RTVSPost2010Prop41ColorIndex
 90
       18
102
RTVSPost2010Prop41ColorRGB
 90
        0
102
RTVSPost2010PropOp41
 70
     1
102
RTVSPost2010Prop42
 90
       50
102
RTVSPost2010PropOp42
 70
     1
102
RTVSPost2010Prop43
 90
        3
102
RTVSPost2010PropOp43
 70
     1
102
RTVSPost2010Prop44ColorIndex
 90
        5
102
RTVSPost2010Prop44ColorRGB
 90
      255
102
RTVSPost2010PropOp44
 70
     1
102
RTVSPost2010Prop45
280
     0
102
RTVSPost2010PropOp45
 70
     1
102
RTVSPost2010Prop46
 90
       50
102
RTVSPost2010PropOp46
 70
     1
102
RTVSPost2010Prop47
 90
       50
102
RTVSPost2010PropOp47
 70
     1
102
RTVSPost2010Prop48
 90
       50
102
RTVSPost2010PropOp48
 70
     1
102
RTVSPost2010Prop49
280
     0
102
RTVSPost2010PropOp49
 70
     1
102
RTVSPost2010Prop50
 90
       50
102
RTVSPost2010PropOp50
 70
     1
102
RTVSPost2010Prop51ColorIndex
 90
      256
102
RTVSPost2010Prop51ColorRGB
 90
-16777216
102
RTVSPost2010PropOp51
 70
     0
102
RTVSPost2010Prop52
140
1.0
102
RTVSPost2010PropOp52
 70
     0
102
RTVSPost2010Prop53
 90
        2
102
RTVSPost2010PropOp53
 70
     1
102
RTVSPost2010Prop54
  1
strokes_ogs.tif
102
RTVSPost2010PropOp54
 70
     1
102
RTVSPost2010Prop55
280
     0
102
RTVSPost2010PropOp55
 70
     1
102
RTVSPost2010Prop56
140
1.0
102
RTVSPost2010PropOp56
 70
     1
102
RTVSPost2010Prop57
140
1.0
102
RTVSPost2010PropOp57
 70
     1
  0
XRECORD
  5
3A1
102
{ACAD_REACTORS
330
3A0
102
}
330
3A0
100
AcDbXrecord
280
     1
102
RTVSPropertyOp0
 70
     1
102
RTVSPropertyOp1
 70
     1
102
RTVSPropertyOp2
 70
     1
102
RTVSPropertyOp3
 70
     1
102
RTVSPropertyOp4
 70
     1
102
RTVSPropertyOp5
 70
     1
102
RTVSPropertyOp6
 70
     1
102
RTVSPropertyOp7
 70
     1
102
RTVSPropertyOp8
 70
     1
102
RTVSPropertyOp9
 70
     1
102
RTVSPropertyOp10
 70
     1
102
RTVSPropertyOp11
 70
     1
102
RTVSPropertyOp12
 70
     1
102
RTVSPropertyOp13
 70
     1
102
RTVSPropertyOp14
 70
     1
102
RTVSPropertyOp15
 70
     1
102
RTVSPropertyOp16
 70
     1
102
RTVSPropertyOp17
 70
     1
102
RTVSPropertyOp18
 70
     1
102
RTVSPropertyOp19
 70
     1
102
RTVSPropertyOp20
 70
     1
102
RTVSPropertyOp21
 70
     1
102
RTVSPropertyOp22
 70
     1
102
RTVSPropertyOp23
 70
     1
102
RTVSPropertyOp24
 70
     1
102
RTVSPropertyOp25
 70
     1
102
RTVSPropertyOp26
 70
     1
102
RTVSPropertyOp27
 70
     1
102
RTVSPropertyOp28
 70
     1
102
RTVSPropertyOp29
 70
     1
102
RTVSPropertyOp30
 70
     1
102
RTVSPropertyOp31
 70
     1
102
RTVSPropertyOp32
 70
     1
102
RTVSPropertyOp33
 70
     1
102
RTVSPropertyOp34
 70
     1
102
RTVSPropertyOp35
 70
     1
102
RTVSPropertyOp36
 70
     1
102
RTVSPropertyOp37
 70
     1
102
RTVSPropertyOp38
 70
     1
102
RTVSPropertyOp39
 70
     1
102
RTVSPropertyOp40
 70
     1
102
RTVSPropertyOp41
 70
     1
102
RTVSPropertyOp42
 70
     1
102
RTVSPropertyOp43
 70
     1
102
RTVSPropertyOp44
 70
     1
102
RTVSPropertyOp45
 70
     1
102
RTVSPropertyOp46
 70
     1
102
RTVSPropertyOp47
 70
     1
102
RTVSPropertyOp48
 70
     1
102
RTVSPropertyOp49
 70
     1
102
RTVSPropertyOp50
 70
     1
102
RTVSPropertyOp51
 70
     0
102
RTVSPropertyOp52
 70
     0
102
RTVSPropertyOp53
 70
     1
102
RTVSPropertyOp54
 70
     1
102
RTVSPropertyOp55
 70
     1
102
RTVSPropertyOp56
 70
     1
102
RTVSPropertyOp57
 70
     1
102
RTVSPost2010Prop28
280
     0
102
RTVSPost2010PropOp28
 70
     1
102
RTVSPost2010Prop29
280
     1
102
RTVSPost2010PropOp29
 70
     1
102
RTVSPost2010Prop30
280
     1
102
RTVSPost2010PropOp30
 70
     1
102
RTVSPost2010Prop31
280
     0
102
RTVSPost2010PropOp31
 70
     1
102
RTVSPost2010Prop32
280
     0
102
RTVSPost2010PropOp32
 70
     1
102
RTVSPost2010Prop33
280
     0
102
RTVSPost2010PropOp33
 70
     1
102
RTVSPost2010Prop34
280
     0
102
RTVSPost2010PropOp34
 70
     1
102
RTVSPost2010Prop35
280
     0
102
RTVSPost2010PropOp35
 70
     1
102
RTVSPost2010Prop36
280
     0
102
RTVSPost2010PropOp36
 70
     1
102
RTVSPost2010Prop37
 90
       50
102
RTVSPost2010PropOp37
 70
     1
102
RTVSPost2010Prop38
140
0.0
102
RTVSPost2010PropOp38
 70
     1
102
RTVSPost2010Prop39
140
1.0
102
RTVSPost2010PropOp39
 70
     1
102
RTVSPost2010Prop40
 90
        0
102
RTVSPost2010PropOp40
 70
     1
102
RTVSPost2010Prop41ColorIndex
 90
       18
102
RTVSPost2010Prop41ColorRGB
 90
        0
102
RTVSPost2010PropOp41
 70
     1
102
RTVSPost2010Prop42
 90
       50
102
RTVSPost2010PropOp42
 70
     1
102
RTVSPost2010Prop43
 90
        3
102
RTVSPost2010PropOp43
 70
     1
102
RTVSPost2010Prop44ColorIndex
 90
        5
102
RTVSPost2010Prop44ColorRGB
 90
      255
102
RTVSPost2010PropOp44
 70
     1
102
RTVSPost2010Prop45
280
     0
102
RTVSPost2010PropOp45
 70
     1
102
RTVSPost2010Prop46
 90
       50
102
RTVSPost2010PropOp46
 70
     1
102
RTVSPost2010Prop47
 90
       50
102
RTVSPost2010PropOp47
 70
     1
102
RTVSPost2010Prop48
 90
       50
102
RTVSPost2010PropOp48
 70
     1
102
RTVSPost2010Prop49
280
     0
102
RTVSPost2010PropOp49
 70
     1
102
RTVSPost2010Prop50
 90
       50
102
RTVSPost2010PropOp50
 70
     1
102
RTVSPost2010Prop51ColorIndex
 90
      256
102
RTVSPost2010Prop51ColorRGB
 90
-16777216
102
RTVSPost2010PropOp51
 70
     0
102
RTVSPost2010Prop52
140
1.0
102
RTVSPost2010PropOp52
 70
     0
102
RTVSPost2010Prop53
 90
        2
102
RTVSPost2010PropOp53
 70
     1
102
RTVSPost2010Prop54
  1
strokes_ogs.tif
102
RTVSPost2010PropOp54
 70
     1
102
RTVSPost2010Prop55
280
     0
102
RTVSPost2010PropOp55
 70
     1
102
RTVSPost2010Prop56
140
1.0
102
RTVSPost2010PropOp56
 70
     1
102
RTVSPost2010Prop57
140
1.0
102
RTVSPost2010PropOp57
 70
     1
  0
XRECORD
  5
3A9
102
{ACAD_REACTORS
330
3A8
102
}
330
3A8
100
AcDbXrecord
280
     1
102
RTVSPropertyOp0
 70
     1
102
RTVSPropertyOp1
 70
     1
102
RTVSPropertyOp2
 70
     1
102
RTVSPropertyOp3
 70
     1
102
RTVSPropertyOp4
 70
     1
102
RTVSPropertyOp5
 70
     1
102
RTVSPropertyOp6
 70
     1
102
RTVSPropertyOp7
 70
     1
102
RTVSPropertyOp8
 70
     1
102
RTVSPropertyOp9
 70
     1
102
RTVSPropertyOp10
 70
     1
102
RTVSPropertyOp11
 70
     1
102
RTVSPropertyOp12
 70
     1
102
RTVSPropertyOp13
 70
     1
102
RTVSPropertyOp14
 70
     1
102
RTVSPropertyOp15
 70
     1
102
RTVSPropertyOp16
 70
     1
102
RTVSPropertyOp17
 70
     1
102
RTVSPropertyOp18
 70
     1
102
RTVSPropertyOp19
 70
     1
102
RTVSPropertyOp20
 70
     1
102
RTVSPropertyOp21
 70
     1
102
RTVSPropertyOp22
 70
     1
102
RTVSPropertyOp23
 70
     1
102
RTVSPropertyOp24
 70
     1
102
RTVSPropertyOp25
 70
     1
102
RTVSPropertyOp26
 70
     1
102
RTVSPropertyOp27
 70
     1
102
RTVSPropertyOp28
 70
     1
102
RTVSPropertyOp29
 70
     1
102
RTVSPropertyOp30
 70
     1
102
RTVSPropertyOp31
 70
     1
102
RTVSPropertyOp32
 70
     1
102
RTVSPropertyOp33
 70
     1
102
RTVSPropertyOp34
 70
     1
102
RTVSPropertyOp35
 70
     1
102
RTVSPropertyOp36
 70
     1
102
RTVSPropertyOp37
 70
     1
102
RTVSPropertyOp38
 70
     1
102
RTVSPropertyOp39
 70
     1
102
RTVSPropertyOp40
 70
     1
102
RTVSPropertyOp41
 70
     1
102
RTVSPropertyOp42
 70
     1
102
RTVSPropertyOp43
 70
     1
102
RTVSPropertyOp44
 70
     1
102
RTVSPropertyOp45
 70
     1
102
RTVSPropertyOp46
 70
     1
102
RTVSPropertyOp47
 70
     1
102
RTVSPropertyOp48
 70
     1
102
RTVSPropertyOp49
 70
     1
102
RTVSPropertyOp50
 70
     1
102
RTVSPropertyOp51
 70
     0
102
RTVSPropertyOp52
 70
     0
102
RTVSPropertyOp53
 70
     1
102
RTVSPropertyOp54
 70
     1
102
RTVSPropertyOp55
 70
     1
102
RTVSPropertyOp56
 70
     1
102
RTVSPropertyOp57
 70
     1
102
RTVSPost2010Prop28
280
     0
102
RTVSPost2010PropOp28
 70
     1
102
RTVSPost2010Prop29
280
     1
102
RTVSPost2010PropOp29
 70
     1
102
RTVSPost2010Prop30
280
     1
102
RTVSPost2010PropOp30
 70
     1
102
RTVSPost2010Prop31
280
     0
102
RTVSPost2010PropOp31
 70
     1
102
RTVSPost2010Prop32
280
     0
102
RTVSPost2010PropOp32
 70
     1
102
RTVSPost2010Prop33
280
     0
102
RTVSPost2010PropOp33
 70
     1
102
RTVSPost2010Prop34
280
     0
102
RTVSPost2010PropOp34
 70
     1
102
RTVSPost2010Prop35
280
     0
102
RTVSPost2010PropOp35
 70
     1
102
RTVSPost2010Prop36
280
     0
102
RTVSPost2010PropOp36
 70
     1
102
RTVSPost2010Prop37
 90
       50
102
RTVSPost2010PropOp37
 70
     1
102
RTVSPost2010Prop38
140
0.0
102
RTVSPost2010PropOp38
 70
     1
102
RTVSPost2010Prop39
140
1.0
102
RTVSPost2010PropOp39
 70
     1
102
RTVSPost2010Prop40
 90
        0
102
RTVSPost2010PropOp40
 70
     1
102
RTVSPost2010Prop41ColorIndex
 90
       18
102
RTVSPost2010Prop41ColorRGB
 90
        0
102
RTVSPost2010PropOp41
 70
     1
102
RTVSPost2010Prop42
 90
       50
102
RTVSPost2010PropOp42
 70
     1
102
RTVSPost2010Prop43
 90
        3
102
RTVSPost2010PropOp43
 70
     1
102
RTVSPost2010Prop44ColorIndex
 90
        5
102
RTVSPost2010Prop44ColorRGB
 90
      255
102
RTVSPost2010PropOp44
 70
     1
102
RTVSPost2010Prop45
280
     0
102
RTVSPost2010PropOp45
 70
     1
102
RTVSPost2010Prop46
 90
       50
102
RTVSPost2010PropOp46
 70
     1
102
RTVSPost2010Prop47
 90
       50
102
RTVSPost2010PropOp47
 70
     1
102
RTVSPost2010Prop48
 90
       50
102
RTVSPost2010PropOp48
 70
     1
102
RTVSPost2010Prop49
280
     0
102
RTVSPost2010PropOp49
 70
     1
102
RTVSPost2010Prop50
 90
       50
102
RTVSPost2010PropOp50
 70
     1
102
RTVSPost2010Prop51ColorIndex
 90
      256
102
RTVSPost2010Prop51ColorRGB
 90
-16777216
102
RTVSPost2010PropOp51
 70
     0
102
RTVSPost2010Prop52
140
1.0
102
RTVSPost2010PropOp52
 70
     0
102
RTVSPost2010Prop53
 90
        2
102
RTVSPost2010PropOp53
 70
     1
102
RTVSPost2010Prop54
  1
strokes_ogs.tif
102
RTVSPost2010PropOp54
 70
     1
102
RTVSPost2010Prop55
280
     0
102
RTVSPost2010PropOp55
 70
     1
102
RTVSPost2010Prop56
140
1.0
102
RTVSPost2010PropOp56
 70
     1
102
RTVSPost2010Prop57
140
1.0
102
RTVSPost2010PropOp57
 70
     1
  0
XRECORD
  5
3B1
102
{ACAD_REACTORS
330
3B0
102
}
330
3B0
100
AcDbXrecord
280
     1
102
RTVSPropertyOp0
 70
     1
102
RTVSPropertyOp1
 70
     1
102
RTVSPropertyOp2
 70
     1
102
RTVSPropertyOp3
 70
     1
102
RTVSPropertyOp4
 70
     1
102
RTVSPropertyOp5
 70
     1
102
RTVSPropertyOp6
 70
     1
102
RTVSPropertyOp7
 70
     1
102
RTVSPropertyOp8
 70
     1
102
RTVSPropertyOp9
 70
     1
102
RTVSPropertyOp10
 70
     1
102
RTVSPropertyOp11
 70
     1
102
RTVSPropertyOp12
 70
     1
102
RTVSPropertyOp13
 70
     1
102
RTVSPropertyOp14
 70
     1
102
RTVSPropertyOp15
 70
     1
102
RTVSPropertyOp16
 70
     1
102
RTVSPropertyOp17
 70
     1
102
RTVSPropertyOp18
 70
     1
102
RTVSPropertyOp19
 70
     1
102
RTVSPropertyOp20
 70
     1
102
RTVSPropertyOp21
 70
     1
102
RTVSPropertyOp22
 70
     1
102
RTVSPropertyOp23
 70
     1
102
RTVSPropertyOp24
 70
     1
102
RTVSPropertyOp25
 70
     1
102
RTVSPropertyOp26
 70
     1
102
RTVSPropertyOp27
 70
     1
102
RTVSPropertyOp28
 70
     1
102
RTVSPropertyOp29
 70
     1
102
RTVSPropertyOp30
 70
     1
102
RTVSPropertyOp31
 70
     1
102
RTVSPropertyOp32
 70
     1
102
RTVSPropertyOp33
 70
     1
102
RTVSPropertyOp34
 70
     1
102
RTVSPropertyOp35
 70
     1
102
RTVSPropertyOp36
 70
     1
102
RTVSPropertyOp37
 70
     1
102
RTVSPropertyOp38
 70
     1
102
RTVSPropertyOp39
 70
     1
102
RTVSPropertyOp40
 70
     1
102
RTVSPropertyOp41
 70
     1
102
RTVSPropertyOp42
 70
     1
102
RTVSPropertyOp43
 70
     1
102
RTVSPropertyOp44
 70
     1
102
RTVSPropertyOp45
 70
     1
102
RTVSPropertyOp46
 70
     1
102
RTVSPropertyOp47
 70
     1
102
RTVSPropertyOp48
 70
     1
102
RTVSPropertyOp49
 70
     1
102
RTVSPropertyOp50
 70
     1
102
RTVSPropertyOp51
 70
     0
102
RTVSPropertyOp52
 70
     0
102
RTVSPropertyOp53
 70
     1
102
RTVSPropertyOp54
 70
     1
102
RTVSPropertyOp55
 70
     1
102
RTVSPropertyOp56
 70
     1
102
RTVSPropertyOp57
 70
     1
102
RTVSPost2010Prop28
280
     0
102
RTVSPost2010PropOp28
 70
     1
102
RTVSPost2010Prop29
280
     1
102
RTVSPost2010PropOp29
 70
     1
102
RTVSPost2010Prop30
280
     1
102
RTVSPost2010PropOp30
 70
     1
102
RTVSPost2010Prop31
280
     0
102
RTVSPost2010PropOp31
 70
     1
102
RTVSPost2010Prop32
280
     0
102
RTVSPost2010PropOp32
 70
     1
102
RTVSPost2010Prop33
280
     0
102
RTVSPost2010PropOp33
 70
     1
102
RTVSPost2010Prop34
280
     0
102
RTVSPost2010PropOp34
 70
     1
102
RTVSPost2010Prop35
280
     0
102
RTVSPost2010PropOp35
 70
     1
102
RTVSPost2010Prop36
280
     0
102
RTVSPost2010PropOp36
 70
     1
102
RTVSPost2010Prop37
 90
       50
102
RTVSPost2010PropOp37
 70
     1
102
RTVSPost2010Prop38
140
0.0
102
RTVSPost2010PropOp38
 70
     1
102
RTVSPost2010Prop39
140
1.0
102
RTVSPost2010PropOp39
 70
     1
102
RTVSPost2010Prop40
 90
        0
102
RTVSPost2010PropOp40
 70
     1
102
RTVSPost2010Prop41ColorIndex
 90
       18
102
RTVSPost2010Prop41ColorRGB
 90
        0
102
RTVSPost2010PropOp41
 70
     1
102
RTVSPost2010Prop42
 90
       50
102
RTVSPost2010PropOp42
 70
     1
102
RTVSPost2010Prop43
 90
        3
102
RTVSPost2010PropOp43
 70
     1
102
RTVSPost2010Prop44ColorIndex
 90
        5
102
RTVSPost2010Prop44ColorRGB
 90
      255
102
RTVSPost2010PropOp44
 70
     1
102
RTVSPost2010Prop45
280
     0
102
RTVSPost2010PropOp45
 70
     1
102
RTVSPost2010Prop46
 90
       50
102
RTVSPost2010PropOp46
 70
     1
102
RTVSPost2010Prop47
 90
       50
102
RTVSPost2010PropOp47
 70
     1
102
RTVSPost2010Prop48
 90
       50
102
RTVSPost2010PropOp48
 70
     1
102
RTVSPost2010Prop49
280
     0
102
RTVSPost2010PropOp49
 70
     1
102
RTVSPost2010Prop50
 90
       50
102
RTVSPost2010PropOp50
 70
     1
102
RTVSPost2010Prop51ColorIndex
 90
      256
102
RTVSPost2010Prop51ColorRGB
 90
-16777216
102
RTVSPost2010PropOp51
 70
     0
102
RTVSPost2010Prop52
140
1.0
102
RTVSPost2010PropOp52
 70
     0
102
RTVSPost2010Prop53
 90
        2
102
RTVSPost2010PropOp53
 70
     1
102
RTVSPost2010Prop54
  1
strokes_ogs.tif
102
RTVSPost2010PropOp54
 70
     1
102
RTVSPost2010Prop55
280
     0
102
RTVSPost2010PropOp55
 70
     1
102
RTVSPost2010Prop56
140
1.0
102
RTVSPost2010PropOp56
 70
     1
102
RTVSPost2010Prop57
140
1.0
102
RTVSPost2010PropOp57
 70
     1
  0
XRECORD
  5
3A5
102
{ACAD_REACTORS
330
3A4
102
}
330
3A4
100
AcDbXrecord
280
     1
102
RTVSPropertyOp0
 70
     1
102
RTVSPropertyOp1
 70
     1
102
RTVSPropertyOp2
 70
     1
102
RTVSPropertyOp3
 70
     1
102
RTVSPropertyOp4
 70
     1
102
RTVSPropertyOp5
 70
     1
102
RTVSPropertyOp6
 70
     1
102
RTVSPropertyOp7
 70
     1
102
RTVSPropertyOp8
 70
     1
102
RTVSPropertyOp9
 70
     1
102
RTVSPropertyOp10
 70
     1
102
RTVSPropertyOp11
 70
     1
102
RTVSPropertyOp12
 70
     1
102
RTVSPropertyOp13
 70
     1
102
RTVSPropertyOp14
 70
     1
102
RTVSPropertyOp15
 70
     1
102
RTVSPropertyOp16
 70
     1
102
RTVSPropertyOp17
 70
     1
102
RTVSPropertyOp18
 70
     1
102
RTVSPropertyOp19
 70
     1
102
RTVSPropertyOp20
 70
     1
102
RTVSPropertyOp21
 70
     1
102
RTVSPropertyOp22
 70
     1
102
RTVSPropertyOp23
 70
     1
102
RTVSPropertyOp24
 70
     1
102
RTVSPropertyOp25
 70
     1
102
RTVSPropertyOp26
 70
     1
102
RTVSPropertyOp27
 70
     1
102
RTVSPropertyOp28
 70
     1
102
RTVSPropertyOp29
 70
     1
102
RTVSPropertyOp30
 70
     1
102
RTVSPropertyOp31
 70
     1
102
RTVSPropertyOp32
 70
     1
102
RTVSPropertyOp33
 70
     1
102
RTVSPropertyOp34
 70
     1
102
RTVSPropertyOp35
 70
     1
102
RTVSPropertyOp36
 70
     1
102
RTVSPropertyOp37
 70
     1
102
RTVSPropertyOp38
 70
     1
102
RTVSPropertyOp39
 70
     1
102
RTVSPropertyOp40
 70
     1
102
RTVSPropertyOp41
 70
     1
102
RTVSPropertyOp42
 70
     1
102
RTVSPropertyOp43
 70
     1
102
RTVSPropertyOp44
 70
     1
102
RTVSPropertyOp45
 70
     1
102
RTVSPropertyOp46
 70
     1
102
RTVSPropertyOp47
 70
     1
102
RTVSPropertyOp48
 70
     1
102
RTVSPropertyOp49
 70
     1
102
RTVSPropertyOp50
 70
     1
102
RTVSPropertyOp51
 70
     0
102
RTVSPropertyOp52
 70
     0
102
RTVSPropertyOp53
 70
     1
102
RTVSPropertyOp54
 70
     1
102
RTVSPropertyOp55
 70
     1
102
RTVSPropertyOp56
 70
     1
102
RTVSPropertyOp57
 70
     1
102
RTVSPost2010Prop28
280
     0
102
RTVSPost2010PropOp28
 70
     1
102
RTVSPost2010Prop29
280
     1
102
RTVSPost2010PropOp29
 70
     1
102
RTVSPost2010Prop30
280
     1
102
RTVSPost2010PropOp30
 70
     1
102
RTVSPost2010Prop31
280
     0
102
RTVSPost2010PropOp31
 70
     1
102
RTVSPost2010Prop32
280
     0
102
RTVSPost2010PropOp32
 70
     1
102
RTVSPost2010Prop33
280
     0
102
RTVSPost2010PropOp33
 70
     1
102
RTVSPost2010Prop34
280
     0
102
RTVSPost2010PropOp34
 70
     1
102
RTVSPost2010Prop35
280
     0
102
RTVSPost2010PropOp35
 70
     1
102
RTVSPost2010Prop36
280
     0
102
RTVSPost2010PropOp36
 70
     1
102
RTVSPost2010Prop37
 90
       50
102
RTVSPost2010PropOp37
 70
     1
102
RTVSPost2010Prop38
140
0.0
102
RTVSPost2010PropOp38
 70
     1
102
RTVSPost2010Prop39
140
1.0
102
RTVSPost2010PropOp39
 70
     1
102
RTVSPost2010Prop40
 90
        0
102
RTVSPost2010PropOp40
 70
     1
102
RTVSPost2010Prop41ColorIndex
 90
       18
102
RTVSPost2010Prop41ColorRGB
 90
        0
102
RTVSPost2010PropOp41
 70
     1
102
RTVSPost2010Prop42
 90
       50
102
RTVSPost2010PropOp42
 70
     1
102
RTVSPost2010Prop43
 90
        3
102
RTVSPost2010PropOp43
 70
     1
102
RTVSPost2010Prop44ColorIndex
 90
        5
102
RTVSPost2010Prop44ColorRGB
 90
      255
102
RTVSPost2010PropOp44
 70
     1
102
RTVSPost2010Prop45
280
     0
102
RTVSPost2010PropOp45
 70
     1
102
RTVSPost2010Prop46
 90
       50
102
RTVSPost2010PropOp46
 70
     1
102
RTVSPost2010Prop47
 90
       50
102
RTVSPost2010PropOp47
 70
     1
102
RTVSPost2010Prop48
 90
       50
102
RTVSPost2010PropOp48
 70
     1
102
RTVSPost2010Prop49
280
     0
102
RTVSPost2010PropOp49
 70
     1
102
RTVSPost2010Prop50
 90
       50
102
RTVSPost2010PropOp50
 70
     1
102
RTVSPost2010Prop51ColorIndex
 90
      256
102
RTVSPost2010Prop51ColorRGB
 90
-16777216
102
RTVSPost2010PropOp51
 70
     0
102
RTVSPost2010Prop52
140
1.0
102
RTVSPost2010PropOp52
 70
     0
102
RTVSPost2010Prop53
 90
        2
102
RTVSPost2010PropOp53
 70
     1
102
RTVSPost2010Prop54
  1
strokes_ogs.tif
102
RTVSPost2010PropOp54
 70
     1
102
RTVSPost2010Prop55
280
     0
102
RTVSPost2010PropOp55
 70
     1
102
RTVSPost2010Prop56
140
1.0
102
RTVSPost2010PropOp56
 70
     1
102
RTVSPost2010Prop57
140
1.0
102
RTVSPost2010PropOp57
 70
     1
  0
XRECORD
  5
3A7
102
{ACAD_REACTORS
330
3A6
102
}
330
3A6
100
AcDbXrecord
280
     1
102
RTVSPropertyOp0
 70
     1
102
RTVSPropertyOp1
 70
     1
102
RTVSPropertyOp2
 70
     1
102
RTVSPropertyOp3
 70
     1
102
RTVSPropertyOp4
 70
     1
102
RTVSPropertyOp5
 70
     1
102
RTVSPropertyOp6
 70
     1
102
RTVSPropertyOp7
 70
     1
102
RTVSPropertyOp8
 70
     1
102
RTVSPropertyOp9
 70
     1
102
RTVSPropertyOp10
 70
     1
102
RTVSPropertyOp11
 70
     1
102
RTVSPropertyOp12
 70
     1
102
RTVSPropertyOp13
 70
     1
102
RTVSPropertyOp14
 70
     1
102
RTVSPropertyOp15
 70
     1
102
RTVSPropertyOp16
 70
     1
102
RTVSPropertyOp17
 70
     1
102
RTVSPropertyOp18
 70
     1
102
RTVSPropertyOp19
 70
     1
102
RTVSPropertyOp20
 70
     1
102
RTVSPropertyOp21
 70
     1
102
RTVSPropertyOp22
 70
     1
102
RTVSPropertyOp23
 70
     1
102
RTVSPropertyOp24
 70
     1
102
RTVSPropertyOp25
 70
     1
102
RTVSPropertyOp26
 70
     1
102
RTVSPropertyOp27
 70
     1
102
RTVSPropertyOp28
 70
     1
102
RTVSPropertyOp29
 70
     1
102
RTVSPropertyOp30
 70
     1
102
RTVSPropertyOp31
 70
     1
102
RTVSPropertyOp32
 70
     1
102
RTVSPropertyOp33
 70
     1
102
RTVSPropertyOp34
 70
     1
102
RTVSPropertyOp35
 70
     1
102
RTVSPropertyOp36
 70
     1
102
RTVSPropertyOp37
 70
     1
102
RTVSPropertyOp38
 70
     1
102
RTVSPropertyOp39
 70
     1
102
RTVSPropertyOp40
 70
     1
102
RTVSPropertyOp41
 70
     1
102
RTVSPropertyOp42
 70
     1
102
RTVSPropertyOp43
 70
     1
102
RTVSPropertyOp44
 70
     1
102
RTVSPropertyOp45
 70
     1
102
RTVSPropertyOp46
 70
     1
102
RTVSPropertyOp47
 70
     1
102
RTVSPropertyOp48
 70
     1
102
RTVSPropertyOp49
 70
     1
102
RTVSPropertyOp50
 70
     1
102
RTVSPropertyOp51
 70
     0
102
RTVSPropertyOp52
 70
     0
102
RTVSPropertyOp53
 70
     1
102
RTVSPropertyOp54
 70
     1
102
RTVSPropertyOp55
 70
     1
102
RTVSPropertyOp56
 70
     1
102
RTVSPropertyOp57
 70
     1
102
RTVSPost2010Prop28
280
     0
102
RTVSPost2010PropOp28
 70
     1
102
RTVSPost2010Prop29
280
     1
102
RTVSPost2010PropOp29
 70
     1
102
RTVSPost2010Prop30
280
     1
102
RTVSPost2010PropOp30
 70
     1
102
RTVSPost2010Prop31
280
     0
102
RTVSPost2010PropOp31
 70
     1
102
RTVSPost2010Prop32
280
     0
102
RTVSPost2010PropOp32
 70
     1
102
RTVSPost2010Prop33
280
     0
102
RTVSPost2010PropOp33
 70
     1
102
RTVSPost2010Prop34
280
     0
102
RTVSPost2010PropOp34
 70
     1
102
RTVSPost2010Prop35
280
     0
102
RTVSPost2010PropOp35
 70
     1
102
RTVSPost2010Prop36
280
     0
102
RTVSPost2010PropOp36
 70
     1
102
RTVSPost2010Prop37
 90
       50
102
RTVSPost2010PropOp37
 70
     1
102
RTVSPost2010Prop38
140
0.0
102
RTVSPost2010PropOp38
 70
     1
102
RTVSPost2010Prop39
140
1.0
102
RTVSPost2010PropOp39
 70
     1
102
RTVSPost2010Prop40
 90
        0
102
RTVSPost2010PropOp40
 70
     1
102
RTVSPost2010Prop41ColorIndex
 90
       18
102
RTVSPost2010Prop41ColorRGB
 90
        0
102
RTVSPost2010PropOp41
 70
     1
102
RTVSPost2010Prop42
 90
       50
102
RTVSPost2010PropOp42
 70
     1
102
RTVSPost2010Prop43
 90
        3
102
RTVSPost2010PropOp43
 70
     1
102
RTVSPost2010Prop44ColorIndex
 90
        5
102
RTVSPost2010Prop44ColorRGB
 90
      255
102
RTVSPost2010PropOp44
 70
     1
102
RTVSPost2010Prop45
280
     0
102
RTVSPost2010PropOp45
 70
     1
102
RTVSPost2010Prop46
 90
       50
102
RTVSPost2010PropOp46
 70
     1
102
RTVSPost2010Prop47
 90
       50
102
RTVSPost2010PropOp47
 70
     1
102
RTVSPost2010Prop48
 90
       50
102
RTVSPost2010PropOp48
 70
     1
102
RTVSPost2010Prop49
280
     0
102
RTVSPost2010PropOp49
 70
     1
102
RTVSPost2010Prop50
 90
       50
102
RTVSPost2010PropOp50
 70
     1
102
RTVSPost2010Prop51ColorIndex
 90
      256
102
RTVSPost2010Prop51ColorRGB
 90
-16777216
102
RTVSPost2010PropOp51
 70
     0
102
RTVSPost2010Prop52
140
1.0
102
RTVSPost2010PropOp52
 70
     0
102
RTVSPost2010Prop53
 90
        2
102
RTVSPost2010PropOp53
 70
     1
102
RTVSPost2010Prop54
  1
strokes_ogs.tif
102
RTVSPost2010PropOp54
 70
     1
102
RTVSPost2010Prop55
280
     0
102
RTVSPost2010PropOp55
 70
     1
102
RTVSPost2010Prop56
140
1.0
102
RTVSPost2010PropOp56
 70
     1
102
RTVSPost2010Prop57
140
1.0
102
RTVSPost2010PropOp57
 70
     1
  0
XRECORD
  5
3B7
102
{ACAD_REACTORS
330
3B6
102
}
330
3B6
100
AcDbXrecord
280
     1
102
RTVSPropertyOp0
 70
     0
102
RTVSPropertyOp1
 70
     0
102
RTVSPropertyOp2
 70
     0
102
RTVSPropertyOp3
 70
     0
102
RTVSPropertyOp4
 70
     0
102
RTVSPropertyOp5
 70
     0
102
RTVSPropertyOp6
 70
     0
102
RTVSPropertyOp7
 70
     0
102
RTVSPropertyOp8
 70
     0
102
RTVSPropertyOp9
 70
     0
102
RTVSPropertyOp10
 70
     0
102
RTVSPropertyOp11
 70
     0
102
RTVSPropertyOp12
 70
     0
102
RTVSPropertyOp13
 70
     0
102
RTVSPropertyOp14
 70
     2
102
RTVSPropertyOp15
 70
     0
102
RTVSPropertyOp16
 70
     0
102
RTVSPropertyOp17
 70
     0
102
RTVSPropertyOp18
 70
     0
102
RTVSPropertyOp19
 70
     0
102
RTVSPropertyOp20
 70
     0
102
RTVSPropertyOp21
 70
     0
102
RTVSPropertyOp22
 70
     0
102
RTVSPropertyOp23
 70
     0
102
RTVSPropertyOp24
 70
     0
102
RTVSPropertyOp25
 70
     0
102
RTVSPropertyOp26
 70
     0
102
RTVSPropertyOp27
 70
     0
102
RTVSPropertyOp28
 70
     0
102
RTVSPropertyOp29
 70
     0
102
RTVSPropertyOp30
 70
     0
102
RTVSPropertyOp31
 70
     0
102
RTVSPropertyOp32
 70
     0
102
RTVSPropertyOp33
 70
     0
102
RTVSPropertyOp34
 70
     0
102
RTVSPropertyOp35
 70
     0
102
RTVSPropertyOp36
 70
     0
102
RTVSPropertyOp37
 70
     0
102
RTVSPropertyOp38
 70
     0
102
RTVSPropertyOp39
 70
     0
102
RTVSPropertyOp40
 70
     0
102
RTVSPropertyOp41
 70
     0
102
RTVSPropertyOp42
 70
     0
102
RTVSPropertyOp43
 70
     0
102
RTVSPropertyOp44
 70
     0
102
RTVSPropertyOp45
 70
     0
102
RTVSPropertyOp46
 70
     0
102
RTVSPropertyOp47
 70
     0
102
RTVSPropertyOp48
 70
     0
102
RTVSPropertyOp49
 70
     0
102
RTVSPropertyOp50
 70
     0
102
RTVSPropertyOp51
 70
     0
102
RTVSPropertyOp52
 70
     0
102
RTVSPropertyOp53
 70
     0
102
RTVSPropertyOp54
 70
     0
102
RTVSPropertyOp55
 70
     0
102
RTVSPropertyOp56
 70
     0
102
RTVSPropertyOp57
 70
     0
102
RTVSPost2010Prop28
280
     0
102
RTVSPost2010PropOp28
 70
     0
102
RTVSPost2010Prop29
280
     1
102
RTVSPost2010PropOp29
 70
     0
102
RTVSPost2010Prop30
280
     1
102
RTVSPost2010PropOp30
 70
     0
102
RTVSPost2010Prop31
280
     0
102
RTVSPost2010PropOp31
 70
     0
102
RTVSPost2010Prop32
280
     0
102
RTVSPost2010PropOp32
 70
     0
102
RTVSPost2010Prop33
280
     0
102
RTVSPost2010PropOp33
 70
     0
102
RTVSPost2010Prop34
280
     0
102
RTVSPost2010PropOp34
 70
     0
102
RTVSPost2010Prop35
280
     0
102
RTVSPost2010PropOp35
 70
     0
102
RTVSPost2010Prop36
280
     0
102
RTVSPost2010PropOp36
 70
     0
102
RTVSPost2010Prop37
 90
       50
102
RTVSPost2010PropOp37
 70
     0
102
RTVSPost2010Prop38
140
0.0
102
RTVSPost2010PropOp38
 70
     0
102
RTVSPost2010Prop39
140
1.0
102
RTVSPost2010PropOp39
 70
     0
102
RTVSPost2010Prop40
 90
        0
102
RTVSPost2010PropOp40
 70
     0
102
RTVSPost2010Prop41ColorIndex
 90
       18
102
RTVSPost2010Prop41ColorRGB
 90
        0
102
RTVSPost2010PropOp41
 70
     0
102
RTVSPost2010Prop42
 90
       50
102
RTVSPost2010PropOp42
 70
     0
102
RTVSPost2010Prop43
 90
        3
102
RTVSPost2010PropOp43
 70
     0
102
RTVSPost2010Prop44ColorIndex
 90
        5
102
RTVSPost2010Prop44ColorRGB
 90
      255
102
RTVSPost2010PropOp44
 70
     0
102
RTVSPost2010Prop45
280
     0
102
RTVSPost2010PropOp45
 70
     0
102
RTVSPost2010Prop46
 90
       50
102
RTVSPost2010PropOp46
 70
     0
102
RTVSPost2010Prop47
 90
       50
102
RTVSPost2010PropOp47
 70
     0
102
RTVSPost2010Prop48
 90
       50
102
RTVSPost2010PropOp48
 70
     0
102
RTVSPost2010Prop49
280
     0
102
RTVSPost2010PropOp49
 70
     0
102
RTVSPost2010Prop50
 90
       50
102
RTVSPost2010PropOp50
 70
     0
102
RTVSPost2010Prop51ColorIndex
 90
      256
102
RTVSPost2010Prop51ColorRGB
 90
-16777216
102
RTVSPost2010PropOp51
 70
     0
102
RTVSPost2010Prop52
140
1.0
102
RTVSPost2010PropOp52
 70
     0
102
RTVSPost2010Prop53
 90
        2
102
RTVSPost2010PropOp53
 70
     0
102
RTVSPost2010Prop54
  1
strokes_ogs.tif
102
RTVSPost2010PropOp54
 70
     0
102
RTVSPost2010Prop55
280
     0
102
RTVSPost2010PropOp55
 70
     0
102
RTVSPost2010Prop56
140
1.0
102
RTVSPost2010PropOp56
 70
     0
102
RTVSPost2010Prop57
140
1.0
102
RTVSPost2010PropOp57
 70
     0
  0
XRECORD
  5
3AF
102
{ACAD_REACTORS
330
3AE
102
}
330
3AE
100
AcDbXrecord
280
     1
102
RTVSPropertyOp0
 70
     1
102
RTVSPropertyOp1
 70
     1
102
RTVSPropertyOp2
 70
     1
102
RTVSPropertyOp3
 70
     1
102
RTVSPropertyOp4
 70
     1
102
RTVSPropertyOp5
 70
     1
102
RTVSPropertyOp6
 70
     1
102
RTVSPropertyOp7
 70
     1
102
RTVSPropertyOp8
 70
     1
102
RTVSPropertyOp9
 70
     1
102
RTVSPropertyOp10
 70
     1
102
RTVSPropertyOp11
 70
     1
102
RTVSPropertyOp12
 70
     1
102
RTVSPropertyOp13
 70
     1
102
RTVSPropertyOp14
 70
     1
102
RTVSPropertyOp15
 70
     1
102
RTVSPropertyOp16
 70
     1
102
RTVSPropertyOp17
 70
     1
102
RTVSPropertyOp18
 70
     1
102
RTVSPropertyOp19
 70
     1
102
RTVSPropertyOp20
 70
     1
102
RTVSPropertyOp21
 70
     1
102
RTVSPropertyOp22
 70
     1
102
RTVSPropertyOp23
 70
     1
102
RTVSPropertyOp24
 70
     1
102
RTVSPropertyOp25
 70
     1
102
RTVSPropertyOp26
 70
     1
102
RTVSPropertyOp27
 70
     1
102
RTVSPropertyOp28
 70
     1
102
RTVSPropertyOp29
 70
     1
102
RTVSPropertyOp30
 70
     1
102
RTVSPropertyOp31
 70
     1
102
RTVSPropertyOp32
 70
     1
102
RTVSPropertyOp33
 70
     1
102
RTVSPropertyOp34
 70
     1
102
RTVSPropertyOp35
 70
     1
102
RTVSPropertyOp36
 70
     1
102
RTVSPropertyOp37
 70
     1
102
RTVSPropertyOp38
 70
     1
102
RTVSPropertyOp39
 70
     1
102
RTVSPropertyOp40
 70
     1
102
RTVSPropertyOp41
 70
     1
102
RTVSPropertyOp42
 70
     1
102
RTVSPropertyOp43
 70
     1
102
RTVSPropertyOp44
 70
     1
102
RTVSPropertyOp45
 70
     1
102
RTVSPropertyOp46
 70
     1
102
RTVSPropertyOp47
 70
     1
102
RTVSPropertyOp48
 70
     1
102
RTVSPropertyOp49
 70
     1
102
RTVSPropertyOp50
 70
     1
102
RTVSPropertyOp51
 70
     0
102
RTVSPropertyOp52
 70
     0
102
RTVSPropertyOp53
 70
     1
102
RTVSPropertyOp54
 70
     1
102
RTVSPropertyOp55
 70
     1
102
RTVSPropertyOp56
 70
     1
102
RTVSPropertyOp57
 70
     1
102
RTVSPost2010Prop28
280
     0
102
RTVSPost2010PropOp28
 70
     1
102
RTVSPost2010Prop29
280
     1
102
RTVSPost2010PropOp29
 70
     1
102
RTVSPost2010Prop30
280
     1
102
RTVSPost2010PropOp30
 70
     1
102
RTVSPost2010Prop31
280
     0
102
RTVSPost2010PropOp31
 70
     1
102
RTVSPost2010Prop32
280
     0
102
RTVSPost2010PropOp32
 70
     1
102
RTVSPost2010Prop33
280
     0
102
RTVSPost2010PropOp33
 70
     1
102
RTVSPost2010Prop34
280
     0
102
RTVSPost2010PropOp34
 70
     1
102
RTVSPost2010Prop35
280
     0
102
RTVSPost2010PropOp35
 70
     1
102
RTVSPost2010Prop36
280
     0
102
RTVSPost2010PropOp36
 70
     1
102
RTVSPost2010Prop37
 90
       50
102
RTVSPost2010PropOp37
 70
     1
102
RTVSPost2010Prop38
140
0.0
102
RTVSPost2010PropOp38
 70
     1
102
RTVSPost2010Prop39
140
1.0
102
RTVSPost2010PropOp39
 70
     1
102
RTVSPost2010Prop40
 90
        0
102
RTVSPost2010PropOp40
 70
     1
102
RTVSPost2010Prop41ColorIndex
 90
       18
102
RTVSPost2010Prop41ColorRGB
 90
        0
102
RTVSPost2010PropOp41
 70
     1
102
RTVSPost2010Prop42
 90
       50
102
RTVSPost2010PropOp42
 70
     1
102
RTVSPost2010Prop43
 90
        3
102
RTVSPost2010PropOp43
 70
     1
102
RTVSPost2010Prop44ColorIndex
 90
        5
102
RTVSPost2010Prop44ColorRGB
 90
      255
102
RTVSPost2010PropOp44
 70
     1
102
RTVSPost2010Prop45
280
     0
102
RTVSPost2010PropOp45
 70
     1
102
RTVSPost2010Prop46
 90
       50
102
RTVSPost2010PropOp46
 70
     1
102
RTVSPost2010Prop47
 90
       50
102
RTVSPost2010PropOp47
 70
     1
102
RTVSPost2010Prop48
 90
       50
102
RTVSPost2010PropOp48
 70
     1
102
RTVSPost2010Prop49
280
     0
102
RTVSPost2010PropOp49
 70
     1
102
RTVSPost2010Prop50
 90
       50
102
RTVSPost2010PropOp50
 70
     1
102
RTVSPost2010Prop51ColorIndex
 90
      256
102
RTVSPost2010Prop51ColorRGB
 90
-16777216
102
RTVSPost2010PropOp51
 70
     0
102
RTVSPost2010Prop52
140
1.0
102
RTVSPost2010PropOp52
 70
     0
102
RTVSPost2010Prop53
 90
        2
102
RTVSPost2010PropOp53
 70
     1
102
RTVSPost2010Prop54
  1
strokes_ogs.tif
102
RTVSPost2010PropOp54
 70
     1
102
RTVSPost2010Prop55
280
     0
102
RTVSPost2010PropOp55
 70
     1
102
RTVSPost2010Prop56
140
1.0
102
RTVSPost2010PropOp56
 70
     1
102
RTVSPost2010Prop57
140
1.0
102
RTVSPost2010PropOp57
 70
     1
  0
XRECORD
  5
393
102
{ACAD_REACTORS
330
392
102
}
330
392
100
AcDbXrecord
280
     1
102
RTVSPropertyOp0
 70
     1
102
RTVSPropertyOp1
 70
     1
102
RTVSPropertyOp2
 70
     1
102
RTVSPropertyOp3
 70
     1
102
RTVSPropertyOp4
 70
     1
102
RTVSPropertyOp5
 70
     1
102
RTVSPropertyOp6
 70
     1
102
RTVSPropertyOp7
 70
     1
102
RTVSPropertyOp8
 70
     1
102
RTVSPropertyOp9
 70
     1
102
RTVSPropertyOp10
 70
     1
102
RTVSPropertyOp11
 70
     1
102
RTVSPropertyOp12
 70
     1
102
RTVSPropertyOp13
 70
     1
102
RTVSPropertyOp14
 70
     1
102
RTVSPropertyOp15
 70
     1
102
RTVSPropertyOp16
 70
     1
102
RTVSPropertyOp17
 70
     1
102
RTVSPropertyOp18
 70
     1
102
RTVSPropertyOp19
 70
     1
102
RTVSPropertyOp20
 70
     1
102
RTVSPropertyOp21
 70
     1
102
RTVSPropertyOp22
 70
     1
102
RTVSPropertyOp23
 70
     1
102
RTVSPropertyOp24
 70
     1
102
RTVSPropertyOp25
 70
     1
102
RTVSPropertyOp26
 70
     1
102
RTVSPropertyOp27
 70
     1
102
RTVSPropertyOp28
 70
     1
102
RTVSPropertyOp29
 70
     1
102
RTVSPropertyOp30
 70
     1
102
RTVSPropertyOp31
 70
     1
102
RTVSPropertyOp32
 70
     1
102
RTVSPropertyOp33
 70
     1
102
RTVSPropertyOp34
 70
     1
102
RTVSPropertyOp35
 70
     1
102
RTVSPropertyOp36
 70
     1
102
RTVSPropertyOp37
 70
     1
102
RTVSPropertyOp38
 70
     1
102
RTVSPropertyOp39
 70
     1
102
RTVSPropertyOp40
 70
     1
102
RTVSPropertyOp41
 70
     1
102
RTVSPropertyOp42
 70
     1
102
RTVSPropertyOp43
 70
     1
102
RTVSPropertyOp44
 70
     1
102
RTVSPropertyOp45
 70
     1
102
RTVSPropertyOp46
 70
     1
102
RTVSPropertyOp47
 70
     1
102
RTVSPropertyOp48
 70
     1
102
RTVSPropertyOp49
 70
     1
102
RTVSPropertyOp50
 70
     1
102
RTVSPropertyOp51
 70
     0
102
RTVSPropertyOp52
 70
     0
102
RTVSPropertyOp53
 70
     1
102
RTVSPropertyOp54
 70
     1
102
RTVSPropertyOp55
 70
     1
102
RTVSPropertyOp56
 70
     1
102
RTVSPropertyOp57
 70
     1
102
RTVSPost2010Prop28
280
     0
102
RTVSPost2010PropOp28
 70
     1
102
RTVSPost2010Prop29
280
     1
102
RTVSPost2010PropOp29
 70
     1
102
RTVSPost2010Prop30
280
     1
102
RTVSPost2010PropOp30
 70
     1
102
RTVSPost2010Prop31
280
     0
102
RTVSPost2010PropOp31
 70
     1
102
RTVSPost2010Prop32
280
     0
102
RTVSPost2010PropOp32
 70
     1
102
RTVSPost2010Prop33
280
     0
102
RTVSPost2010PropOp33
 70
     1
102
RTVSPost2010Prop34
280
     0
102
RTVSPost2010PropOp34
 70
     1
102
RTVSPost2010Prop35
280
     0
102
RTVSPost2010PropOp35
 70
     1
102
RTVSPost2010Prop36
280
     0
102
RTVSPost2010PropOp36
 70
     1
102
RTVSPost2010Prop37
 90
       50
102
RTVSPost2010PropOp37
 70
     1
102
RTVSPost2010Prop38
140
0.0
102
RTVSPost2010PropOp38
 70
     1
102
RTVSPost2010Prop39
140
1.0
102
RTVSPost2010PropOp39
 70
     1
102
RTVSPost2010Prop40
 90
        0
102
RTVSPost2010PropOp40
 70
     1
102
RTVSPost2010Prop41ColorIndex
 90
       18
102
RTVSPost2010Prop41ColorRGB
 90
        0
102
RTVSPost2010PropOp41
 70
     1
102
RTVSPost2010Prop42
 90
       50
102
RTVSPost2010PropOp42
 70
     1
102
RTVSPost2010Prop43
 90
        3
102
RTVSPost2010PropOp43
 70
     1
102
RTVSPost2010Prop44ColorIndex
 90
        5
102
RTVSPost2010Prop44ColorRGB
 90
      255
102
RTVSPost2010PropOp44
 70
     1
102
RTVSPost2010Prop45
280
     0
102
RTVSPost2010PropOp45
 70
     1
102
RTVSPost2010Prop46
 90
       50
102
RTVSPost2010PropOp46
 70
     1
102
RTVSPost2010Prop47
 90
       50
102
RTVSPost2010PropOp47
 70
     1
102
RTVSPost2010Prop48
 90
       50
102
RTVSPost2010PropOp48
 70
     1
102
RTVSPost2010Prop49
280
     0
102
RTVSPost2010PropOp49
 70
     1
102
RTVSPost2010Prop50
 90
       50
102
RTVSPost2010PropOp50
 70
     1
102
RTVSPost2010Prop51ColorIndex
 90
      256
102
RTVSPost2010Prop51ColorRGB
 90
-16777216
102
RTVSPost2010PropOp51
 70
     0
102
RTVSPost2010Prop52
140
1.0
102
RTVSPost2010PropOp52
 70
     0
102
RTVSPost2010Prop53
 90
        2
102
RTVSPost2010PropOp53
 70
     1
102
RTVSPost2010Prop54
  1
strokes_ogs.tif
102
RTVSPost2010PropOp54
 70
     1
102
RTVSPost2010Prop55
280
     0
102
RTVSPost2010PropOp55
 70
     1
102
RTVSPost2010Prop56
140
1.0
102
RTVSPost2010PropOp56
 70
     1
102
RTVSPost2010Prop57
140
1.0
102
RTVSPost2010PropOp57
 70
     1
  0
XRECORD
  5
395
102
{ACAD_REACTORS
330
394
102
}
330
394
100
AcDbXrecord
280
     1
102
RTVSPropertyOp0
 70
     1
102
RTVSPropertyOp1
 70
     1
102
RTVSPropertyOp2
 70
     1
102
RTVSPropertyOp3
 70
     1
102
RTVSPropertyOp4
 70
     1
102
RTVSPropertyOp5
 70
     1
102
RTVSPropertyOp6
 70
     1
102
RTVSPropertyOp7
 70
     1
102
RTVSPropertyOp8
 70
     1
102
RTVSPropertyOp9
 70
     1
102
RTVSPropertyOp10
 70
     1
102
RTVSPropertyOp11
 70
     1
102
RTVSPropertyOp12
 70
     1
102
RTVSPropertyOp13
 70
     1
102
RTVSPropertyOp14
 70
     1
102
RTVSPropertyOp15
 70
     1
102
RTVSPropertyOp16
 70
     1
102
RTVSPropertyOp17
 70
     1
102
RTVSPropertyOp18
 70
     1
102
RTVSPropertyOp19
 70
     1
102
RTVSPropertyOp20
 70
     1
102
RTVSPropertyOp21
 70
     1
102
RTVSPropertyOp22
 70
     1
102
RTVSPropertyOp23
 70
     1
102
RTVSPropertyOp24
 70
     1
102
RTVSPropertyOp25
 70
     1
102
RTVSPropertyOp26
 70
     1
102
RTVSPropertyOp27
 70
     1
102
RTVSPropertyOp28
 70
     1
102
RTVSPropertyOp29
 70
     1
102
RTVSPropertyOp30
 70
     1
102
RTVSPropertyOp31
 70
     1
102
RTVSPropertyOp32
 70
     1
102
RTVSPropertyOp33
 70
     1
102
RTVSPropertyOp34
 70
     1
102
RTVSPropertyOp35
 70
     1
102
RTVSPropertyOp36
 70
     1
102
RTVSPropertyOp37
 70
     1
102
RTVSPropertyOp38
 70
     1
102
RTVSPropertyOp39
 70
     1
102
RTVSPropertyOp40
 70
     1
102
RTVSPropertyOp41
 70
     1
102
RTVSPropertyOp42
 70
     1
102
RTVSPropertyOp43
 70
     1
102
RTVSPropertyOp44
 70
     1
102
RTVSPropertyOp45
 70
     1
102
RTVSPropertyOp46
 70
     1
102
RTVSPropertyOp47
 70
     1
102
RTVSPropertyOp48
 70
     1
102
RTVSPropertyOp49
 70
     1
102
RTVSPropertyOp50
 70
     1
102
RTVSPropertyOp51
 70
     0
102
RTVSPropertyOp52
 70
     0
102
RTVSPropertyOp53
 70
     1
102
RTVSPropertyOp54
 70
     1
102
RTVSPropertyOp55
 70
     1
102
RTVSPropertyOp56
 70
     1
102
RTVSPropertyOp57
 70
     1
102
RTVSPost2010Prop28
280
     0
102
RTVSPost2010PropOp28
 70
     1
102
RTVSPost2010Prop29
280
     1
102
RTVSPost2010PropOp29
 70
     1
102
RTVSPost2010Prop30
280
     1
102
RTVSPost2010PropOp30
 70
     1
102
RTVSPost2010Prop31
280
     0
102
RTVSPost2010PropOp31
 70
     1
102
RTVSPost2010Prop32
280
     0
102
RTVSPost2010PropOp32
 70
     1
102
RTVSPost2010Prop33
280
     0
102
RTVSPost2010PropOp33
 70
     1
102
RTVSPost2010Prop34
280
     0
102
RTVSPost2010PropOp34
 70
     1
102
RTVSPost2010Prop35
280
     0
102
RTVSPost2010PropOp35
 70
     1
102
RTVSPost2010Prop36
280
     0
102
RTVSPost2010PropOp36
 70
     1
102
RTVSPost2010Prop37
 90
       50
102
RTVSPost2010PropOp37
 70
     1
102
RTVSPost2010Prop38
140
0.0
102
RTVSPost2010PropOp38
 70
     1
102
RTVSPost2010Prop39
140
1.0
102
RTVSPost2010PropOp39
 70
     1
102
RTVSPost2010Prop40
 90
        0
102
RTVSPost2010PropOp40
 70
     1
102
RTVSPost2010Prop41ColorIndex
 90
       18
102
RTVSPost2010Prop41ColorRGB
 90
        0
102
RTVSPost2010PropOp41
 70
     1
102
RTVSPost2010Prop42
 90
       50
102
RTVSPost2010PropOp42
 70
     1
102
RTVSPost2010Prop43
 90
        3
102
RTVSPost2010PropOp43
 70
     1
102
RTVSPost2010Prop44ColorIndex
 90
        5
102
RTVSPost2010Prop44ColorRGB
 90
      255
102
RTVSPost2010PropOp44
 70
     1
102
RTVSPost2010Prop45
280
     0
102
RTVSPost2010PropOp45
 70
     1
102
RTVSPost2010Prop46
 90
       50
102
RTVSPost2010PropOp46
 70
     1
102
RTVSPost2010Prop47
 90
       50
102
RTVSPost2010PropOp47
 70
     1
102
RTVSPost2010Prop48
 90
       50
102
RTVSPost2010PropOp48
 70
     1
102
RTVSPost2010Prop49
280
     0
102
RTVSPost2010PropOp49
 70
     1
102
RTVSPost2010Prop50
 90
       50
102
RTVSPost2010PropOp50
 70
     1
102
RTVSPost2010Prop51ColorIndex
 90
      256
102
RTVSPost2010Prop51ColorRGB
 90
-16777216
102
RTVSPost2010PropOp51
 70
     0
102
RTVSPost2010Prop52
140
1.0
102
RTVSPost2010PropOp52
 70
     0
102
RTVSPost2010Prop53
 90
        2
102
RTVSPost2010PropOp53
 70
     1
102
RTVSPost2010Prop54
  1
strokes_ogs.tif
102
RTVSPost2010PropOp54
 70
     1
102
RTVSPost2010Prop55
280
     0
102
RTVSPost2010PropOp55
 70
     1
102
RTVSPost2010Prop56
140
1.0
102
RTVSPost2010PropOp56
 70
     1
102
RTVSPost2010Prop57
140
1.0
102
RTVSPost2010PropOp57
 70
     1
  0
XRECORD
  5
397
102
{ACAD_REACTORS
330
396
102
}
330
396
100
AcDbXrecord
280
     1
102
RTVSPropertyOp0
 70
     1
102
RTVSPropertyOp1
 70
     1
102
RTVSPropertyOp2
 70
     1
102
RTVSPropertyOp3
 70
     1
102
RTVSPropertyOp4
 70
     1
102
RTVSPropertyOp5
 70
     1
102
RTVSPropertyOp6
 70
     1
102
RTVSPropertyOp7
 70
     1
102
RTVSPropertyOp8
 70
     1
102
RTVSPropertyOp9
 70
     1
102
RTVSPropertyOp10
 70
     1
102
RTVSPropertyOp11
 70
     1
102
RTVSPropertyOp12
 70
     1
102
RTVSPropertyOp13
 70
     1
102
RTVSPropertyOp14
 70
     1
102
RTVSPropertyOp15
 70
     1
102
RTVSPropertyOp16
 70
     1
102
RTVSPropertyOp17
 70
     1
102
RTVSPropertyOp18
 70
     1
102
RTVSPropertyOp19
 70
     1
102
RTVSPropertyOp20
 70
     1
102
RTVSPropertyOp21
 70
     1
102
RTVSPropertyOp22
 70
     1
102
RTVSPropertyOp23
 70
     1
102
RTVSPropertyOp24
 70
     1
102
RTVSPropertyOp25
 70
     1
102
RTVSPropertyOp26
 70
     1
102
RTVSPropertyOp27
 70
     1
102
RTVSPropertyOp28
 70
     1
102
RTVSPropertyOp29
 70
     1
102
RTVSPropertyOp30
 70
     1
102
RTVSPropertyOp31
 70
     1
102
RTVSPropertyOp32
 70
     1
102
RTVSPropertyOp33
 70
     1
102
RTVSPropertyOp34
 70
     1
102
RTVSPropertyOp35
 70
     1
102
RTVSPropertyOp36
 70
     1
102
RTVSPropertyOp37
 70
     1
102
RTVSPropertyOp38
 70
     1
102
RTVSPropertyOp39
 70
     1
102
RTVSPropertyOp40
 70
     1
102
RTVSPropertyOp41
 70
     1
102
RTVSPropertyOp42
 70
     1
102
RTVSPropertyOp43
 70
     1
102
RTVSPropertyOp44
 70
     1
102
RTVSPropertyOp45
 70
     1
102
RTVSPropertyOp46
 70
     1
102
RTVSPropertyOp47
 70
     1
102
RTVSPropertyOp48
 70
     1
102
RTVSPropertyOp49
 70
     1
102
RTVSPropertyOp50
 70
     1
102
RTVSPropertyOp51
 70
     0
102
RTVSPropertyOp52
 70
     0
102
RTVSPropertyOp53
 70
     1
102
RTVSPropertyOp54
 70
     1
102
RTVSPropertyOp55
 70
     1
102
RTVSPropertyOp56
 70
     1
102
RTVSPropertyOp57
 70
     1
102
RTVSPost2010Prop28
280
     0
102
RTVSPost2010PropOp28
 70
     1
102
RTVSPost2010Prop29
280
     1
102
RTVSPost2010PropOp29
 70
     1
102
RTVSPost2010Prop30
280
     1
102
RTVSPost2010PropOp30
 70
     1
102
RTVSPost2010Prop31
280
     0
102
RTVSPost2010PropOp31
 70
     1
102
RTVSPost2010Prop32
280
     0
102
RTVSPost2010PropOp32
 70
     1
102
RTVSPost2010Prop33
280
     0
102
RTVSPost2010PropOp33
 70
     1
102
RTVSPost2010Prop34
280
     0
102
RTVSPost2010PropOp34
 70
     1
102
RTVSPost2010Prop35
280
     0
102
RTVSPost2010PropOp35
 70
     1
102
RTVSPost2010Prop36
280
     0
102
RTVSPost2010PropOp36
 70
     1
102
RTVSPost2010Prop37
 90
       50
102
RTVSPost2010PropOp37
 70
     1
102
RTVSPost2010Prop38
140
0.0
102
RTVSPost2010PropOp38
 70
     1
102
RTVSPost2010Prop39
140
1.0
102
RTVSPost2010PropOp39
 70
     1
102
RTVSPost2010Prop40
 90
        0
102
RTVSPost2010PropOp40
 70
     1
102
RTVSPost2010Prop41ColorIndex
 90
       18
102
RTVSPost2010Prop41ColorRGB
 90
        0
102
RTVSPost2010PropOp41
 70
     1
102
RTVSPost2010Prop42
 90
       50
102
RTVSPost2010PropOp42
 70
     1
102
RTVSPost2010Prop43
 90
        3
102
RTVSPost2010PropOp43
 70
     1
102
RTVSPost2010Prop44ColorIndex
 90
        5
102
RTVSPost2010Prop44ColorRGB
 90
      255
102
RTVSPost2010PropOp44
 70
     1
102
RTVSPost2010Prop45
280
     0
102
RTVSPost2010PropOp45
 70
     1
102
RTVSPost2010Prop46
 90
       50
102
RTVSPost2010PropOp46
 70
     1
102
RTVSPost2010Prop47
 90
       50
102
RTVSPost2010PropOp47
 70
     1
102
RTVSPost2010Prop48
 90
       50
102
RTVSPost2010PropOp48
 70
     1
102
RTVSPost2010Prop49
280
     0
102
RTVSPost2010PropOp49
 70
     1
102
RTVSPost2010Prop50
 90
       50
102
RTVSPost2010PropOp50
 70
     1
102
RTVSPost2010Prop51ColorIndex
 90
      256
102
RTVSPost2010Prop51ColorRGB
 90
-16777216
102
RTVSPost2010PropOp51
 70
     0
102
RTVSPost2010Prop52
140
1.0
102
RTVSPost2010PropOp52
 70
     0
102
RTVSPost2010Prop53
 90
        2
102
RTVSPost2010PropOp53
 70
     1
102
RTVSPost2010Prop54
  1
strokes_ogs.tif
102
RTVSPost2010PropOp54
 70
     1
102
RTVSPost2010Prop55
280
     0
102
RTVSPost2010PropOp55
 70
     1
102
RTVSPost2010Prop56
140
1.0
102
RTVSPost2010PropOp56
 70
     1
102
RTVSPost2010Prop57
140
1.0
102
RTVSPost2010PropOp57
 70
     1
  0
XRECORD
  5
399
102
{ACAD_REACTORS
330
398
102
}
330
398
100
AcDbXrecord
280
     1
102
RTVSPropertyOp0
 70
     1
102
RTVSPropertyOp1
 70
     1
102
RTVSPropertyOp2
 70
     1
102
RTVSPropertyOp3
 70
     1
102
RTVSPropertyOp4
 70
     1
102
RTVSPropertyOp5
 70
     1
102
RTVSPropertyOp6
 70
     1
102
RTVSPropertyOp7
 70
     1
102
RTVSPropertyOp8
 70
     1
102
RTVSPropertyOp9
 70
     1
102
RTVSPropertyOp10
 70
     1
102
RTVSPropertyOp11
 70
     1
102
RTVSPropertyOp12
 70
     1
102
RTVSPropertyOp13
 70
     1
102
RTVSPropertyOp14
 70
     1
102
RTVSPropertyOp15
 70
     1
102
RTVSPropertyOp16
 70
     1
102
RTVSPropertyOp17
 70
     1
102
RTVSPropertyOp18
 70
     1
102
RTVSPropertyOp19
 70
     1
102
RTVSPropertyOp20
 70
     1
102
RTVSPropertyOp21
 70
     1
102
RTVSPropertyOp22
 70
     1
102
RTVSPropertyOp23
 70
     1
102
RTVSPropertyOp24
 70
     1
102
RTVSPropertyOp25
 70
     1
102
RTVSPropertyOp26
 70
     1
102
RTVSPropertyOp27
 70
     1
102
RTVSPropertyOp28
 70
     1
102
RTVSPropertyOp29
 70
     1
102
RTVSPropertyOp30
 70
     1
102
RTVSPropertyOp31
 70
     1
102
RTVSPropertyOp32
 70
     1
102
RTVSPropertyOp33
 70
     1
102
RTVSPropertyOp34
 70
     1
102
RTVSPropertyOp35
 70
     1
102
RTVSPropertyOp36
 70
     1
102
RTVSPropertyOp37
 70
     1
102
RTVSPropertyOp38
 70
     1
102
RTVSPropertyOp39
 70
     1
102
RTVSPropertyOp40
 70
     1
102
RTVSPropertyOp41
 70
     1
102
RTVSPropertyOp42
 70
     1
102
RTVSPropertyOp43
 70
     1
102
RTVSPropertyOp44
 70
     1
102
RTVSPropertyOp45
 70
     1
102
RTVSPropertyOp46
 70
     1
102
RTVSPropertyOp47
 70
     1
102
RTVSPropertyOp48
 70
     1
102
RTVSPropertyOp49
 70
     1
102
RTVSPropertyOp50
 70
     1
102
RTVSPropertyOp51
 70
     0
102
RTVSPropertyOp52
 70
     0
102
RTVSPropertyOp53
 70
     1
102
RTVSPropertyOp54
 70
     1
102
RTVSPropertyOp55
 70
     1
102
RTVSPropertyOp56
 70
     1
102
RTVSPropertyOp57
 70
     1
102
RTVSPost2010Prop28
280
     0
102
RTVSPost2010PropOp28
 70
     1
102
RTVSPost2010Prop29
280
     1
102
RTVSPost2010PropOp29
 70
     1
102
RTVSPost2010Prop30
280
     1
102
RTVSPost2010PropOp30
 70
     1
102
RTVSPost2010Prop31
280
     0
102
RTVSPost2010PropOp31
 70
     1
102
RTVSPost2010Prop32
280
     0
102
RTVSPost2010PropOp32
 70
     1
102
RTVSPost2010Prop33
280
     0
102
RTVSPost2010PropOp33
 70
     1
102
RTVSPost2010Prop34
280
     0
102
RTVSPost2010PropOp34
 70
     1
102
RTVSPost2010Prop35
280
     0
102
RTVSPost2010PropOp35
 70
     1
102
RTVSPost2010Prop36
280
     0
102
RTVSPost2010PropOp36
 70
     1
102
RTVSPost2010Prop37
 90
       50
102
RTVSPost2010PropOp37
 70
     1
102
RTVSPost2010Prop38
140
0.0
102
RTVSPost2010PropOp38
 70
     1
102
RTVSPost2010Prop39
140
1.0
102
RTVSPost2010PropOp39
 70
     1
102
RTVSPost2010Prop40
 90
        0
102
RTVSPost2010PropOp40
 70
     1
102
RTVSPost2010Prop41ColorIndex
 90
       18
102
RTVSPost2010Prop41ColorRGB
 90
        0
102
RTVSPost2010PropOp41
 70
     1
102
RTVSPost2010Prop42
 90
       50
102
RTVSPost2010PropOp42
 70
     1
102
RTVSPost2010Prop43
 90
        3
102
RTVSPost2010PropOp43
 70
     1
102
RTVSPost2010Prop44ColorIndex
 90
        5
102
RTVSPost2010Prop44ColorRGB
 90
      255
102
RTVSPost2010PropOp44
 70
     1
102
RTVSPost2010Prop45
280
     0
102
RTVSPost2010PropOp45
 70
     1
102
RTVSPost2010Prop46
 90
       50
102
RTVSPost2010PropOp46
 70
     1
102
RTVSPost2010Prop47
 90
       50
102
RTVSPost2010PropOp47
 70
     1
102
RTVSPost2010Prop48
 90
       50
102
RTVSPost2010PropOp48
 70
     1
102
RTVSPost2010Prop49
280
     0
102
RTVSPost2010PropOp49
 70
     1
102
RTVSPost2010Prop50
 90
       50
102
RTVSPost2010PropOp50
 70
     1
102
RTVSPost2010Prop51ColorIndex
 90
      256
102
RTVSPost2010Prop51ColorRGB
 90
-16777216
102
RTVSPost2010PropOp51
 70
     0
102
RTVSPost2010Prop52
140
1.0
102
RTVSPost2010PropOp52
 70
     0
102
RTVSPost2010Prop53
 90
        2
102
RTVSPost2010PropOp53
 70
     1
102
RTVSPost2010Prop54
  1
strokes_ogs.tif
102
RTVSPost2010PropOp54
 70
     1
102
RTVSPost2010Prop55
280
     0
102
RTVSPost2010PropOp55
 70
     1
102
RTVSPost2010Prop56
140
1.0
102
RTVSPost2010PropOp56
 70
     1
102
RTVSPost2010Prop57
140
1.0
102
RTVSPost2010PropOp57
 70
     1
  0
XRECORD
  5
39F
102
{ACAD_REACTORS
330
39E
102
}
330
39E
100
AcDbXrecord
280
     1
102
RTVSPropertyOp0
 70
     1
102
RTVSPropertyOp1
 70
     1
102
RTVSPropertyOp2
 70
     1
102
RTVSPropertyOp3
 70
     1
102
RTVSPropertyOp4
 70
     1
102
RTVSPropertyOp5
 70
     1
102
RTVSPropertyOp6
 70
     1
102
RTVSPropertyOp7
 70
     1
102
RTVSPropertyOp8
 70
     1
102
RTVSPropertyOp9
 70
     1
102
RTVSPropertyOp10
 70
     1
102
RTVSPropertyOp11
 70
     1
102
RTVSPropertyOp12
 70
     1
102
RTVSPropertyOp13
 70
     1
102
RTVSPropertyOp14
 70
     1
102
RTVSPropertyOp15
 70
     1
102
RTVSPropertyOp16
 70
     1
102
RTVSPropertyOp17
 70
     1
102
RTVSPropertyOp18
 70
     1
102
RTVSPropertyOp19
 70
     1
102
RTVSPropertyOp20
 70
     1
102
RTVSPropertyOp21
 70
     1
102
RTVSPropertyOp22
 70
     1
102
RTVSPropertyOp23
 70
     1
102
RTVSPropertyOp24
 70
     1
102
RTVSPropertyOp25
 70
     1
102
RTVSPropertyOp26
 70
     1
102
RTVSPropertyOp27
 70
     1
102
RTVSPropertyOp28
 70
     1
102
RTVSPropertyOp29
 70
     1
102
RTVSPropertyOp30
 70
     1
102
RTVSPropertyOp31
 70
     1
102
RTVSPropertyOp32
 70
     1
102
RTVSPropertyOp33
 70
     1
102
RTVSPropertyOp34
 70
     1
102
RTVSPropertyOp35
 70
     1
102
RTVSPropertyOp36
 70
     1
102
RTVSPropertyOp37
 70
     1
102
RTVSPropertyOp38
 70
     1
102
RTVSPropertyOp39
 70
     1
102
RTVSPropertyOp40
 70
     1
102
RTVSPropertyOp41
 70
     1
102
RTVSPropertyOp42
 70
     1
102
RTVSPropertyOp43
 70
     1
102
RTVSPropertyOp44
 70
     1
102
RTVSPropertyOp45
 70
     1
102
RTVSPropertyOp46
 70
     1
102
RTVSPropertyOp47
 70
     1
102
RTVSPropertyOp48
 70
     1
102
RTVSPropertyOp49
 70
     1
102
RTVSPropertyOp50
 70
     1
102
RTVSPropertyOp51
 70
     0
102
RTVSPropertyOp52
 70
     0
102
RTVSPropertyOp53
 70
     1
102
RTVSPropertyOp54
 70
     1
102
RTVSPropertyOp55
 70
     1
102
RTVSPropertyOp56
 70
     1
102
RTVSPropertyOp57
 70
     1
102
RTVSPost2010Prop28
280
     0
102
RTVSPost2010PropOp28
 70
     1
102
RTVSPost2010Prop29
280
     1
102
RTVSPost2010PropOp29
 70
     1
102
RTVSPost2010Prop30
280
     1
102
RTVSPost2010PropOp30
 70
     1
102
RTVSPost2010Prop31
280
     0
102
RTVSPost2010PropOp31
 70
     1
102
RTVSPost2010Prop32
280
     0
102
RTVSPost2010PropOp32
 70
     1
102
RTVSPost2010Prop33
280
     0
102
RTVSPost2010PropOp33
 70
     1
102
RTVSPost2010Prop34
280
     0
102
RTVSPost2010PropOp34
 70
     1
102
RTVSPost2010Prop35
280
     0
102
RTVSPost2010PropOp35
 70
     1
102
RTVSPost2010Prop36
280
     0
102
RTVSPost2010PropOp36
 70
     1
102
RTVSPost2010Prop37
 90
       50
102
RTVSPost2010PropOp37
 70
     1
102
RTVSPost2010Prop38
140
0.0
102
RTVSPost2010PropOp38
 70
     1
102
RTVSPost2010Prop39
140
1.0
102
RTVSPost2010PropOp39
 70
     1
102
RTVSPost2010Prop40
 90
        0
102
RTVSPost2010PropOp40
 70
     1
102
RTVSPost2010Prop41ColorIndex
 90
       18
102
RTVSPost2010Prop41ColorRGB
 90
        0
102
RTVSPost2010PropOp41
 70
     1
102
RTVSPost2010Prop42
 90
       50
102
RTVSPost2010PropOp42
 70
     1
102
RTVSPost2010Prop43
 90
        3
102
RTVSPost2010PropOp43
 70
     1
102
RTVSPost2010Prop44ColorIndex
 90
        5
102
RTVSPost2010Prop44ColorRGB
 90
      255
102
RTVSPost2010PropOp44
 70
     1
102
RTVSPost2010Prop45
280
     0
102
RTVSPost2010PropOp45
 70
     1
102
RTVSPost2010Prop46
 90
       50
102
RTVSPost2010PropOp46
 70
     1
102
RTVSPost2010Prop47
 90
       50
102
RTVSPost2010PropOp47
 70
     1
102
RTVSPost2010Prop48
 90
       50
102
RTVSPost2010PropOp48
 70
     1
102
RTVSPost2010Prop49
280
     0
102
RTVSPost2010PropOp49
 70
     1
102
RTVSPost2010Prop50
 90
       50
102
RTVSPost2010PropOp50
 70
     1
102
RTVSPost2010Prop51ColorIndex
 90
      256
102
RTVSPost2010Prop51ColorRGB
 90
-16777216
102
RTVSPost2010PropOp51
 70
     0
102
RTVSPost2010Prop52
140
1.0
102
RTVSPost2010PropOp52
 70
     0
102
RTVSPost2010Prop53
 90
        2
102
RTVSPost2010PropOp53
 70
     1
102
RTVSPost2010Prop54
  1
strokes_ogs.tif
102
RTVSPost2010PropOp54
 70
     1
102
RTVSPost2010Prop55
280
     0
102
RTVSPost2010PropOp55
 70
     1
102
RTVSPost2010Prop56
140
1.0
102
RTVSPost2010PropOp56
 70
     1
102
RTVSPost2010Prop57
140
1.0
102
RTVSPost2010PropOp57
 70
     1
  0
XRECORD
  5
3B3
102
{ACAD_REACTORS
330
3B2
102
}
330
3B2
100
AcDbXrecord
280
     1
102
RTVSPropertyOp0
 70
     0
102
RTVSPropertyOp1
 70
     0
102
RTVSPropertyOp2
 70
     0
102
RTVSPropertyOp3
 70
     0
102
RTVSPropertyOp4
 70
     0
102
RTVSPropertyOp5
 70
     0
102
RTVSPropertyOp6
 70
     0
102
RTVSPropertyOp7
 70
     0
102
RTVSPropertyOp8
 70
     0
102
RTVSPropertyOp9
 70
     0
102
RTVSPropertyOp10
 70
     0
102
RTVSPropertyOp11
 70
     0
102
RTVSPropertyOp12
 70
     0
102
RTVSPropertyOp13
 70
     0
102
RTVSPropertyOp14
 70
     2
102
RTVSPropertyOp15
 70
     0
102
RTVSPropertyOp16
 70
     0
102
RTVSPropertyOp17
 70
     0
102
RTVSPropertyOp18
 70
     0
102
RTVSPropertyOp19
 70
     0
102
RTVSPropertyOp20
 70
     0
102
RTVSPropertyOp21
 70
     0
102
RTVSPropertyOp22
 70
     0
102
RTVSPropertyOp23
 70
     0
102
RTVSPropertyOp24
 70
     0
102
RTVSPropertyOp25
 70
     0
102
RTVSPropertyOp26
 70
     0
102
RTVSPropertyOp27
 70
     0
102
RTVSPropertyOp28
 70
     0
102
RTVSPropertyOp29
 70
     0
102
RTVSPropertyOp30
 70
     0
102
RTVSPropertyOp31
 70
     0
102
RTVSPropertyOp32
 70
     0
102
RTVSPropertyOp33
 70
     0
102
RTVSPropertyOp34
 70
     0
102
RTVSPropertyOp35
 70
     0
102
RTVSPropertyOp36
 70
     0
102
RTVSPropertyOp37
 70
     0
102
RTVSPropertyOp38
 70
     0
102
RTVSPropertyOp39
 70
     0
102
RTVSPropertyOp40
 70
     0
102
RTVSPropertyOp41
 70
     0
102
RTVSPropertyOp42
 70
     0
102
RTVSPropertyOp43
 70
     0
102
RTVSPropertyOp44
 70
     0
102
RTVSPropertyOp45
 70
     0
102
RTVSPropertyOp46
 70
     0
102
RTVSPropertyOp47
 70
     0
102
RTVSPropertyOp48
 70
     0
102
RTVSPropertyOp49
 70
     0
102
RTVSPropertyOp50
 70
     0
102
RTVSPropertyOp51
 70
     0
102
RTVSPropertyOp52
 70
     0
102
RTVSPropertyOp53
 70
     0
102
RTVSPropertyOp54
 70
     0
102
RTVSPropertyOp55
 70
     0
102
RTVSPropertyOp56
 70
     0
102
RTVSPropertyOp57
 70
     0
102
RTVSPost2010Prop28
280
     0
102
RTVSPost2010PropOp28
 70
     0
102
RTVSPost2010Prop29
280
     1
102
RTVSPost2010PropOp29
 70
     0
102
RTVSPost2010Prop30
280
     1
102
RTVSPost2010PropOp30
 70
     0
102
RTVSPost2010Prop31
280
     0
102
RTVSPost2010PropOp31
 70
     0
102
RTVSPost2010Prop32
280
     0
102
RTVSPost2010PropOp32
 70
     0
102
RTVSPost2010Prop33
280
     0
102
RTVSPost2010PropOp33
 70
     0
102
RTVSPost2010Prop34
280
     0
102
RTVSPost2010PropOp34
 70
     0
102
RTVSPost2010Prop35
280
     0
102
RTVSPost2010PropOp35
 70
     0
102
RTVSPost2010Prop36
280
     0
102
RTVSPost2010PropOp36
 70
     0
102
RTVSPost2010Prop37
 90
       50
102
RTVSPost2010PropOp37
 70
     0
102
RTVSPost2010Prop38
140
0.0
102
RTVSPost2010PropOp38
 70
     0
102
RTVSPost2010Prop39
140
1.0
102
RTVSPost2010PropOp39
 70
     0
102
RTVSPost2010Prop40
 90
        0
102
RTVSPost2010PropOp40
 70
     0
102
RTVSPost2010Prop41ColorIndex
 90
       18
102
RTVSPost2010Prop41ColorRGB
 90
        0
102
RTVSPost2010PropOp41
 70
     0
102
RTVSPost2010Prop42
 90
       50
102
RTVSPost2010PropOp42
 70
     0
102
RTVSPost2010Prop43
 90
        3
102
RTVSPost2010PropOp43
 70
     0
102
RTVSPost2010Prop44ColorIndex
 90
        5
102
RTVSPost2010Prop44ColorRGB
 90
      255
102
RTVSPost2010PropOp44
 70
     0
102
RTVSPost2010Prop45
280
     0
102
RTVSPost2010PropOp45
 70
     0
102
RTVSPost2010Prop46
 90
       50
102
RTVSPost2010PropOp46
 70
     0
102
RTVSPost2010Prop47
 90
       50
102
RTVSPost2010PropOp47
 70
     0
102
RTVSPost2010Prop48
 90
       50
102
RTVSPost2010PropOp48
 70
     0
102
RTVSPost2010Prop49
280
     0
102
RTVSPost2010PropOp49
 70
     0
102
RTVSPost2010Prop50
 90
       50
102
RTVSPost2010PropOp50
 70
     0
102
RTVSPost2010Prop51ColorIndex
 90
      256
102
RTVSPost2010Prop51ColorRGB
 90
-16777216
102
RTVSPost2010PropOp51
 70
     0
102
RTVSPost2010Prop52
140
1.0
102
RTVSPost2010PropOp52
 70
     0
102
RTVSPost2010Prop53
 90
        2
102
RTVSPost2010PropOp53
 70
     0
102
RTVSPost2010Prop54
  1
strokes_ogs.tif
102
RTVSPost2010PropOp54
 70
     0
102
RTVSPost2010Prop55
280
     0
102
RTVSPost2010PropOp55
 70
     0
102
RTVSPost2010Prop56
140
1.0
102
RTVSPost2010PropOp56
 70
     0
102
RTVSPost2010Prop57
140
1.0
102
RTVSPost2010PropOp57
 70
     0
  0
XRECORD
  5
3AD
102
{ACAD_REACTORS
330
3AC
102
}
330
3AC
100
AcDbXrecord
280
     1
102
RTVSPropertyOp0
 70
     1
102
RTVSPropertyOp1
 70
     1
102
RTVSPropertyOp2
 70
     1
102
RTVSPropertyOp3
 70
     1
102
RTVSPropertyOp4
 70
     1
102
RTVSPropertyOp5
 70
     1
102
RTVSPropertyOp6
 70
     1
102
RTVSPropertyOp7
 70
     1
102
RTVSPropertyOp8
 70
     1
102
RTVSPropertyOp9
 70
     1
102
RTVSPropertyOp10
 70
     1
102
RTVSPropertyOp11
 70
     1
102
RTVSPropertyOp12
 70
     1
102
RTVSPropertyOp13
 70
     1
102
RTVSPropertyOp14
 70
     1
102
RTVSPropertyOp15
 70
     1
102
RTVSPropertyOp16
 70
     1
102
RTVSPropertyOp17
 70
     1
102
RTVSPropertyOp18
 70
     1
102
RTVSPropertyOp19
 70
     1
102
RTVSPropertyOp20
 70
     1
102
RTVSPropertyOp21
 70
     1
102
RTVSPropertyOp22
 70
     1
102
RTVSPropertyOp23
 70
     1
102
RTVSPropertyOp24
 70
     1
102
RTVSPropertyOp25
 70
     1
102
RTVSPropertyOp26
 70
     1
102
RTVSPropertyOp27
 70
     1
102
RTVSPropertyOp28
 70
     1
102
RTVSPropertyOp29
 70
     1
102
RTVSPropertyOp30
 70
     1
102
RTVSPropertyOp31
 70
     1
102
RTVSPropertyOp32
 70
     1
102
RTVSPropertyOp33
 70
     1
102
RTVSPropertyOp34
 70
     1
102
RTVSPropertyOp35
 70
     1
102
RTVSPropertyOp36
 70
     1
102
RTVSPropertyOp37
 70
     1
102
RTVSPropertyOp38
 70
     1
102
RTVSPropertyOp39
 70
     1
102
RTVSPropertyOp40
 70
     1
102
RTVSPropertyOp41
 70
     1
102
RTVSPropertyOp42
 70
     1
102
RTVSPropertyOp43
 70
     1
102
RTVSPropertyOp44
 70
     1
102
RTVSPropertyOp45
 70
     1
102
RTVSPropertyOp46
 70
     1
102
RTVSPropertyOp47
 70
     1
102
RTVSPropertyOp48
 70
     1
102
RTVSPropertyOp49
 70
     1
102
RTVSPropertyOp50
 70
     1
102
RTVSPropertyOp51
 70
     0
102
RTVSPropertyOp52
 70
     0
102
RTVSPropertyOp53
 70
     1
102
RTVSPropertyOp54
 70
     1
102
RTVSPropertyOp55
 70
     1
102
RTVSPropertyOp56
 70
     1
102
RTVSPropertyOp57
 70
     1
102
RTVSPost2010Prop28
280
     0
102
RTVSPost2010PropOp28
 70
     1
102
RTVSPost2010Prop29
280
     1
102
RTVSPost2010PropOp29
 70
     1
102
RTVSPost2010Prop30
280
     1
102
RTVSPost2010PropOp30
 70
     1
102
RTVSPost2010Prop31
280
     0
102
RTVSPost2010PropOp31
 70
     1
102
RTVSPost2010Prop32
280
     0
102
RTVSPost2010PropOp32
 70
     1
102
RTVSPost2010Prop33
280
     0
102
RTVSPost2010PropOp33
 70
     1
102
RTVSPost2010Prop34
280
     0
102
RTVSPost2010PropOp34
 70
     1
102
RTVSPost2010Prop35
280
     0
102
RTVSPost2010PropOp35
 70
     1
102
RTVSPost2010Prop36
280
     0
102
RTVSPost2010PropOp36
 70
     1
102
RTVSPost2010Prop37
 90
       50
102
RTVSPost2010PropOp37
 70
     1
102
RTVSPost2010Prop38
140
0.0
102
RTVSPost2010PropOp38
 70
     1
102
RTVSPost2010Prop39
140
1.0
102
RTVSPost2010PropOp39
 70
     1
102
RTVSPost2010Prop40
 90
        0
102
RTVSPost2010PropOp40
 70
     1
102
RTVSPost2010Prop41ColorIndex
 90
       18
102
RTVSPost2010Prop41ColorRGB
 90
        0
102
RTVSPost2010PropOp41
 70
     1
102
RTVSPost2010Prop42
 90
       50
102
RTVSPost2010PropOp42
 70
     1
102
RTVSPost2010Prop43
 90
        3
102
RTVSPost2010PropOp43
 70
     1
102
RTVSPost2010Prop44ColorIndex
 90
        5
102
RTVSPost2010Prop44ColorRGB
 90
      255
102
RTVSPost2010PropOp44
 70
     1
102
RTVSPost2010Prop45
280
     0
102
RTVSPost2010PropOp45
 70
     1
102
RTVSPost2010Prop46
 90
       50
102
RTVSPost2010PropOp46
 70
     1
102
RTVSPost2010Prop47
 90
       50
102
RTVSPost2010PropOp47
 70
     1
102
RTVSPost2010Prop48
 90
       50
102
RTVSPost2010PropOp48
 70
     1
102
RTVSPost2010Prop49
280
     0
102
RTVSPost2010PropOp49
 70
     1
102
RTVSPost2010Prop50
 90
       50
102
RTVSPost2010PropOp50
 70
     1
102
RTVSPost2010Prop51ColorIndex
 90
      256
102
RTVSPost2010Prop51ColorRGB
 90
-16777216
102
RTVSPost2010PropOp51
 70
     0
102
RTVSPost2010Prop52
140
1.0
102
RTVSPost2010PropOp52
 70
     0
102
RTVSPost2010Prop53
 90
        2
102
RTVSPost2010PropOp53
 70
     1
102
RTVSPost2010Prop54
  1
strokes_ogs.tif
102
RTVSPost2010PropOp54
 70
     1
102
RTVSPost2010Prop55
280
     0
102
RTVSPost2010PropOp55
 70
     1
102
RTVSPost2010Prop56
140
1.0
102
RTVSPost2010PropOp56
 70
     1
102
RTVSPost2010Prop57
140
1.0
102
RTVSPost2010PropOp57
 70
     1
  0
XRECORD
  5
3B5
102
{ACAD_REACTORS
330
3B4
102
}
330
3B4
100
AcDbXrecord
280
     1
102
RTVSPropertyOp0
 70
     0
102
RTVSPropertyOp1
 70
     0
102
RTVSPropertyOp2
 70
     0
102
RTVSPropertyOp3
 70
     0
102
RTVSPropertyOp4
 70
     0
102
RTVSPropertyOp5
 70
     0
102
RTVSPropertyOp6
 70
     0
102
RTVSPropertyOp7
 70
     0
102
RTVSPropertyOp8
 70
     0
102
RTVSPropertyOp9
 70
     0
102
RTVSPropertyOp10
 70
     0
102
RTVSPropertyOp11
 70
     0
102
RTVSPropertyOp12
 70
     0
102
RTVSPropertyOp13
 70
     0
102
RTVSPropertyOp14
 70
     2
102
RTVSPropertyOp15
 70
     0
102
RTVSPropertyOp16
 70
     0
102
RTVSPropertyOp17
 70
     0
102
RTVSPropertyOp18
 70
     0
102
RTVSPropertyOp19
 70
     0
102
RTVSPropertyOp20
 70
     0
102
RTVSPropertyOp21
 70
     0
102
RTVSPropertyOp22
 70
     0
102
RTVSPropertyOp23
 70
     0
102
RTVSPropertyOp24
 70
     0
102
RTVSPropertyOp25
 70
     0
102
RTVSPropertyOp26
 70
     0
102
RTVSPropertyOp27
 70
     0
102
RTVSPropertyOp28
 70
     0
102
RTVSPropertyOp29
 70
     0
102
RTVSPropertyOp30
 70
     0
102
RTVSPropertyOp31
 70
     0
102
RTVSPropertyOp32
 70
     0
102
RTVSPropertyOp33
 70
     0
102
RTVSPropertyOp34
 70
     0
102
RTVSPropertyOp35
 70
     0
102
RTVSPropertyOp36
 70
     0
102
RTVSPropertyOp37
 70
     0
102
RTVSPropertyOp38
 70
     0
102
RTVSPropertyOp39
 70
     0
102
RTVSPropertyOp40
 70
     0
102
RTVSPropertyOp41
 70
     0
102
RTVSPropertyOp42
 70
     0
102
RTVSPropertyOp43
 70
     0
102
RTVSPropertyOp44
 70
     0
102
RTVSPropertyOp45
 70
     0
102
RTVSPropertyOp46
 70
     0
102
RTVSPropertyOp47
 70
     0
102
RTVSPropertyOp48
 70
     0
102
RTVSPropertyOp49
 70
     0
102
RTVSPropertyOp50
 70
     0
102
RTVSPropertyOp51
 70
     0
102
RTVSPropertyOp52
 70
     0
102
RTVSPropertyOp53
 70
     0
102
RTVSPropertyOp54
 70
     0
102
RTVSPropertyOp55
 70
     0
102
RTVSPropertyOp56
 70
     0
102
RTVSPropertyOp57
 70
     0
102
RTVSPost2010Prop28
280
     0
102
RTVSPost2010PropOp28
 70
     0
102
RTVSPost2010Prop29
280
     1
102
RTVSPost2010PropOp29
 70
     0
102
RTVSPost2010Prop30
280
     1
102
RTVSPost2010PropOp30
 70
     0
102
RTVSPost2010Prop31
280
     0
102
RTVSPost2010PropOp31
 70
     0
102
RTVSPost2010Prop32
280
     0
102
RTVSPost2010PropOp32
 70
     0
102
RTVSPost2010Prop33
280
     0
102
RTVSPost2010PropOp33
 70
     0
102
RTVSPost2010Prop34
280
     0
102
RTVSPost2010PropOp34
 70
     0
102
RTVSPost2010Prop35
280
     0
102
RTVSPost2010PropOp35
 70
     0
102
RTVSPost2010Prop36
280
     0
102
RTVSPost2010PropOp36
 70
     0
102
RTVSPost2010Prop37
 90
       50
102
RTVSPost2010PropOp37
 70
     0
102
RTVSPost2010Prop38
140
0.0
102
RTVSPost2010PropOp38
 70
     0
102
RTVSPost2010Prop39
140
1.0
102
RTVSPost2010PropOp39
 70
     0
102
RTVSPost2010Prop40
 90
        0
102
RTVSPost2010PropOp40
 70
     0
102
RTVSPost2010Prop41ColorIndex
 90
       18
102
RTVSPost2010Prop41ColorRGB
 90
        0
102
RTVSPost2010PropOp41
 70
     0
102
RTVSPost2010Prop42
 90
       50
102
RTVSPost2010PropOp42
 70
     0
102
RTVSPost2010Prop43
 90
        3
102
RTVSPost2010PropOp43
 70
     0
102
RTVSPost2010Prop44ColorIndex
 90
        5
102
RTVSPost2010Prop44ColorRGB
 90
      255
102
RTVSPost2010PropOp44
 70
     0
102
RTVSPost2010Prop45
280
     0
102
RTVSPost2010PropOp45
 70
     0
102
RTVSPost2010Prop46
 90
       50
102
RTVSPost2010PropOp46
 70
     0
102
RTVSPost2010Prop47
 90
       50
102
RTVSPost2010PropOp47
 70
     0
102
RTVSPost2010Prop48
 90
       50
102
RTVSPost2010PropOp48
 70
     0
102
RTVSPost2010Prop49
280
     0
102
RTVSPost2010PropOp49
 70
     0
102
RTVSPost2010Prop50
 90
       50
102
RTVSPost2010PropOp50
 70
     0
102
RTVSPost2010Prop51ColorIndex
 90
      256
102
RTVSPost2010Prop51ColorRGB
 90
-16777216
102
RTVSPost2010PropOp51
 70
     0
102
RTVSPost2010Prop52
140
1.0
102
RTVSPost2010PropOp52
 70
     0
102
RTVSPost2010Prop53
 90
        2
102
RTVSPost2010PropOp53
 70
     0
102
RTVSPost2010Prop54
  1
strokes_ogs.tif
102
RTVSPost2010PropOp54
 70
     0
102
RTVSPost2010Prop55
280
     0
102
RTVSPost2010PropOp55
 70
     0
102
RTVSPost2010Prop56
140
1.0
102
RTVSPost2010PropOp56
 70
     0
102
RTVSPost2010Prop57
140
1.0
102
RTVSPost2010PropOp57
 70
     0
  0
XRECORD
  5
3A3
102
{ACAD_REACTORS
330
3A2
102
}
330
3A2
100
AcDbXrecord
280
     1
102
RTVSPropertyOp0
 70
     1
102
RTVSPropertyOp1
 70
     1
102
RTVSPropertyOp2
 70
     1
102
RTVSPropertyOp3
 70
     1
102
RTVSPropertyOp4
 70
     1
102
RTVSPropertyOp5
 70
     1
102
RTVSPropertyOp6
 70
     1
102
RTVSPropertyOp7
 70
     1
102
RTVSPropertyOp8
 70
     1
102
RTVSPropertyOp9
 70
     1
102
RTVSPropertyOp10
 70
     1
102
RTVSPropertyOp11
 70
     1
102
RTVSPropertyOp12
 70
     1
102
RTVSPropertyOp13
 70
     1
102
RTVSPropertyOp14
 70
     1
102
RTVSPropertyOp15
 70
     1
102
RTVSPropertyOp16
 70
     1
102
RTVSPropertyOp17
 70
     1
102
RTVSPropertyOp18
 70
     1
102
RTVSPropertyOp19
 70
     1
102
RTVSPropertyOp20
 70
     1
102
RTVSPropertyOp21
 70
     1
102
RTVSPropertyOp22
 70
     1
102
RTVSPropertyOp23
 70
     1
102
RTVSPropertyOp24
 70
     1
102
RTVSPropertyOp25
 70
     1
102
RTVSPropertyOp26
 70
     1
102
RTVSPropertyOp27
 70
     1
102
RTVSPropertyOp28
 70
     1
102
RTVSPropertyOp29
 70
     1
102
RTVSPropertyOp30
 70
     1
102
RTVSPropertyOp31
 70
     1
102
RTVSPropertyOp32
 70
     1
102
RTVSPropertyOp33
 70
     1
102
RTVSPropertyOp34
 70
     1
102
RTVSPropertyOp35
 70
     1
102
RTVSPropertyOp36
 70
     1
102
RTVSPropertyOp37
 70
     1
102
RTVSPropertyOp38
 70
     1
102
RTVSPropertyOp39
 70
     1
102
RTVSPropertyOp40
 70
     1
102
RTVSPropertyOp41
 70
     1
102
RTVSPropertyOp42
 70
     1
102
RTVSPropertyOp43
 70
     1
102
RTVSPropertyOp44
 70
     1
102
RTVSPropertyOp45
 70
     1
102
RTVSPropertyOp46
 70
     1
102
RTVSPropertyOp47
 70
     1
102
RTVSPropertyOp48
 70
     1
102
RTVSPropertyOp49
 70
     1
102
RTVSPropertyOp50
 70
     1
102
RTVSPropertyOp51
 70
     0
102
RTVSPropertyOp52
 70
     0
102
RTVSPropertyOp53
 70
     1
102
RTVSPropertyOp54
 70
     1
102
RTVSPropertyOp55
 70
     1
102
RTVSPropertyOp56
 70
     1
102
RTVSPropertyOp57
 70
     1
102
RTVSPost2010Prop28
280
     0
102
RTVSPost2010PropOp28
 70
     1
102
RTVSPost2010Prop29
280
     1
102
RTVSPost2010PropOp29
 70
     1
102
RTVSPost2010Prop30
280
     1
102
RTVSPost2010PropOp30
 70
     1
102
RTVSPost2010Prop31
280
     0
102
RTVSPost2010PropOp31
 70
     1
102
RTVSPost2010Prop32
280
     0
102
RTVSPost2010PropOp32
 70
     1
102
RTVSPost2010Prop33
280
     0
102
RTVSPost2010PropOp33
 70
     1
102
RTVSPost2010Prop34
280
     0
102
RTVSPost2010PropOp34
 70
     1
102
RTVSPost2010Prop35
280
     0
102
RTVSPost2010PropOp35
 70
     1
102
RTVSPost2010Prop36
280
     0
102
RTVSPost2010PropOp36
 70
     1
102
RTVSPost2010Prop37
 90
       50
102
RTVSPost2010PropOp37
 70
     1
102
RTVSPost2010Prop38
140
0.0
102
RTVSPost2010PropOp38
 70
     1
102
RTVSPost2010Prop39
140
1.0
102
RTVSPost2010PropOp39
 70
     1
102
RTVSPost2010Prop40
 90
        0
102
RTVSPost2010PropOp40
 70
     1
102
RTVSPost2010Prop41ColorIndex
 90
       18
102
RTVSPost2010Prop41ColorRGB
 90
        0
102
RTVSPost2010PropOp41
 70
     1
102
RTVSPost2010Prop42
 90
       50
102
RTVSPost2010PropOp42
 70
     1
102
RTVSPost2010Prop43
 90
        3
102
RTVSPost2010PropOp43
 70
     1
102
RTVSPost2010Prop44ColorIndex
 90
        5
102
RTVSPost2010Prop44ColorRGB
 90
      255
102
RTVSPost2010PropOp44
 70
     1
102
RTVSPost2010Prop45
280
     0
102
RTVSPost2010PropOp45
 70
     1
102
RTVSPost2010Prop46
 90
       50
102
RTVSPost2010PropOp46
 70
     1
102
RTVSPost2010Prop47
 90
       50
102
RTVSPost2010PropOp47
 70
     1
102
RTVSPost2010Prop48
 90
       50
102
RTVSPost2010PropOp48
 70
     1
102
RTVSPost2010Prop49
280
     0
102
RTVSPost2010PropOp49
 70
     1
102
RTVSPost2010Prop50
 90
       50
102
RTVSPost2010PropOp50
 70
     1
102
RTVSPost2010Prop51ColorIndex
 90
      256
102
RTVSPost2010Prop51ColorRGB
 90
-16777216
102
RTVSPost2010PropOp51
 70
     0
102
RTVSPost2010Prop52
140
1.0
102
RTVSPost2010PropOp52
 70
     0
102
RTVSPost2010Prop53
 90
        2
102
RTVSPost2010PropOp53
 70
     1
102
RTVSPost2010Prop54
  1
strokes_ogs.tif
102
RTVSPost2010PropOp54
 70
     1
102
RTVSPost2010Prop55
280
     0
102
RTVSPost2010PropOp55
 70
     1
102
RTVSPost2010Prop56
140
1.0
102
RTVSPost2010PropOp56
 70
     1
102
RTVSPost2010Prop57
140
1.0
102
RTVSPost2010PropOp57
 70
     1
  0
XRECORD
  5
3C1
102
{ACAD_REACTORS
330
3C0
102
}
330
3C0
100
AcDbXrecord
280
     1
102
RTVSPropertyOp0
 70
     1
102
RTVSPropertyOp1
 70
     1
102
RTVSPropertyOp2
 70
     1
102
RTVSPropertyOp3
 70
     1
102
RTVSPropertyOp4
 70
     1
102
RTVSPropertyOp5
 70
     1
102
RTVSPropertyOp6
 70
     1
102
RTVSPropertyOp7
 70
     1
102
RTVSPropertyOp8
 70
     1
102
RTVSPropertyOp9
 70
     1
102
RTVSPropertyOp10
 70
     1
102
RTVSPropertyOp11
 70
     1
102
RTVSPropertyOp12
 70
     1
102
RTVSPropertyOp13
 70
     1
102
RTVSPropertyOp14
 70
     1
102
RTVSPropertyOp15
 70
     1
102
RTVSPropertyOp16
 70
     1
102
RTVSPropertyOp17
 70
     1
102
RTVSPropertyOp18
 70
     1
102
RTVSPropertyOp19
 70
     1
102
RTVSPropertyOp20
 70
     1
102
RTVSPropertyOp21
 70
     1
102
RTVSPropertyOp22
 70
     1
102
RTVSPropertyOp23
 70
     1
102
RTVSPropertyOp24
 70
     1
102
RTVSPropertyOp25
 70
     1
102
RTVSPropertyOp26
 70
     1
102
RTVSPropertyOp27
 70
     1
102
RTVSPropertyOp28
 70
     1
102
RTVSPropertyOp29
 70
     1
102
RTVSPropertyOp30
 70
     1
102
RTVSPropertyOp31
 70
     1
102
RTVSPropertyOp32
 70
     1
102
RTVSPropertyOp33
 70
     1
102
RTVSPropertyOp34
 70
     1
102
RTVSPropertyOp35
 70
     1
102
RTVSPropertyOp36
 70
     1
102
RTVSPropertyOp37
 70
     1
102
RTVSPropertyOp38
 70
     1
102
RTVSPropertyOp39
 70
     1
102
RTVSPropertyOp40
 70
     1
102
RTVSPropertyOp41
 70
     1
102
RTVSPropertyOp42
 70
     1
102
RTVSPropertyOp43
 70
     1
102
RTVSPropertyOp44
 70
     1
102
RTVSPropertyOp45
 70
     1
102
RTVSPropertyOp46
 70
     1
102
RTVSPropertyOp47
 70
     1
102
RTVSPropertyOp48
 70
     1
102
RTVSPropertyOp49
 70
     1
102
RTVSPropertyOp50
 70
     1
102
RTVSPropertyOp51
 70
     0
102
RTVSPropertyOp52
 70
     0
102
RTVSPropertyOp53
 70
     1
102
RTVSPropertyOp54
 70
     1
102
RTVSPropertyOp55
 70
     1
102
RTVSPropertyOp56
 70
     1
102
RTVSPropertyOp57
 70
     1
102
RTVSPost2010Prop28
280
     0
102
RTVSPost2010PropOp28
 70
     1
102
RTVSPost2010Prop29
280
     1
102
RTVSPost2010PropOp29
 70
     1
102
RTVSPost2010Prop30
280
     1
102
RTVSPost2010PropOp30
 70
     1
102
RTVSPost2010Prop31
280
     0
102
RTVSPost2010PropOp31
 70
     1
102
RTVSPost2010Prop32
280
     0
102
RTVSPost2010PropOp32
 70
     1
102
RTVSPost2010Prop33
280
     0
102
RTVSPost2010PropOp33
 70
     1
102
RTVSPost2010Prop34
280
     0
102
RTVSPost2010PropOp34
 70
     1
102
RTVSPost2010Prop35
280
     0
102
RTVSPost2010PropOp35
 70
     1
102
RTVSPost2010Prop36
280
     0
102
RTVSPost2010PropOp36
 70
     1
102
RTVSPost2010Prop37
 90
       50
102
RTVSPost2010PropOp37
 70
     1
102
RTVSPost2010Prop38
140
0.0
102
RTVSPost2010PropOp38
 70
     1
102
RTVSPost2010Prop39
140
1.0
102
RTVSPost2010PropOp39
 70
     1
102
RTVSPost2010Prop40
 90
        0
102
RTVSPost2010PropOp40
 70
     1
102
RTVSPost2010Prop41ColorIndex
 90
       18
102
RTVSPost2010Prop41ColorRGB
 90
        0
102
RTVSPost2010PropOp41
 70
     1
102
RTVSPost2010Prop42
 90
       50
102
RTVSPost2010PropOp42
 70
     1
102
RTVSPost2010Prop43
 90
        3
102
RTVSPost2010PropOp43
 70
     1
102
RTVSPost2010Prop44ColorIndex
 90
        5
102
RTVSPost2010Prop44ColorRGB
 90
      255
102
RTVSPost2010PropOp44
 70
     1
102
RTVSPost2010Prop45
280
     0
102
RTVSPost2010PropOp45
 70
     1
102
RTVSPost2010Prop46
 90
       50
102
RTVSPost2010PropOp46
 70
     1
102
RTVSPost2010Prop47
 90
       50
102
RTVSPost2010PropOp47
 70
     1
102
RTVSPost2010Prop48
 90
       50
102
RTVSPost2010PropOp48
 70
     1
102
RTVSPost2010Prop49
280
     0
102
RTVSPost2010PropOp49
 70
     1
102
RTVSPost2010Prop50
 90
       50
102
RTVSPost2010PropOp50
 70
     1
102
RTVSPost2010Prop51ColorIndex
 90
      256
102
RTVSPost2010Prop51ColorRGB
 90
-16777216
102
RTVSPost2010PropOp51
 70
     0
102
RTVSPost2010Prop52
140
1.0
102
RTVSPost2010PropOp52
 70
     0
102
RTVSPost2010Prop53
 90
        2
102
RTVSPost2010PropOp53
 70
     1
102
RTVSPost2010Prop54
  1
strokes_ogs.tif
102
RTVSPost2010PropOp54
 70
     1
102
RTVSPost2010Prop55
280
     0
102
RTVSPost2010PropOp55
 70
     1
102
RTVSPost2010Prop56
140
1.0
102
RTVSPost2010PropOp56
 70
     1
102
RTVSPost2010Prop57
140
1.0
102
RTVSPost2010PropOp57
 70
     1
  0
XRECORD
  5
3BF
102
{ACAD_REACTORS
330
3BE
102
}
330
3BE
100
AcDbXrecord
280
     1
102
RTVSPropertyOp0
 70
     1
102
RTVSPropertyOp1
 70
     1
102
RTVSPropertyOp2
 70
     1
102
RTVSPropertyOp3
 70
     1
102
RTVSPropertyOp4
 70
     1
102
RTVSPropertyOp5
 70
     1
102
RTVSPropertyOp6
 70
     1
102
RTVSPropertyOp7
 70
     1
102
RTVSPropertyOp8
 70
     1
102
RTVSPropertyOp9
 70
     1
102
RTVSPropertyOp10
 70
     1
102
RTVSPropertyOp11
 70
     1
102
RTVSPropertyOp12
 70
     1
102
RTVSPropertyOp13
 70
     1
102
RTVSPropertyOp14
 70
     1
102
RTVSPropertyOp15
 70
     1
102
RTVSPropertyOp16
 70
     1
102
RTVSPropertyOp17
 70
     1
102
RTVSPropertyOp18
 70
     1
102
RTVSPropertyOp19
 70
     1
102
RTVSPropertyOp20
 70
     1
102
RTVSPropertyOp21
 70
     1
102
RTVSPropertyOp22
 70
     1
102
RTVSPropertyOp23
 70
     1
102
RTVSPropertyOp24
 70
     1
102
RTVSPropertyOp25
 70
     1
102
RTVSPropertyOp26
 70
     1
102
RTVSPropertyOp27
 70
     1
102
RTVSPropertyOp28
 70
     1
102
RTVSPropertyOp29
 70
     1
102
RTVSPropertyOp30
 70
     1
102
RTVSPropertyOp31
 70
     1
102
RTVSPropertyOp32
 70
     1
102
RTVSPropertyOp33
 70
     1
102
RTVSPropertyOp34
 70
     1
102
RTVSPropertyOp35
 70
     1
102
RTVSPropertyOp36
 70
     1
102
RTVSPropertyOp37
 70
     1
102
RTVSPropertyOp38
 70
     1
102
RTVSPropertyOp39
 70
     1
102
RTVSPropertyOp40
 70
     1
102
RTVSPropertyOp41
 70
     1
102
RTVSPropertyOp42
 70
     1
102
RTVSPropertyOp43
 70
     1
102
RTVSPropertyOp44
 70
     1
102
RTVSPropertyOp45
 70
     1
102
RTVSPropertyOp46
 70
     1
102
RTVSPropertyOp47
 70
     1
102
RTVSPropertyOp48
 70
     1
102
RTVSPropertyOp49
 70
     1
102
RTVSPropertyOp50
 70
     1
102
RTVSPropertyOp51
 70
     0
102
RTVSPropertyOp52
 70
     0
102
RTVSPropertyOp53
 70
     1
102
RTVSPropertyOp54
 70
     1
102
RTVSPropertyOp55
 70
     1
102
RTVSPropertyOp56
 70
     1
102
RTVSPropertyOp57
 70
     1
102
RTVSPost2010Prop28
280
     0
102
RTVSPost2010PropOp28
 70
     1
102
RTVSPost2010Prop29
280
     1
102
RTVSPost2010PropOp29
 70
     1
102
RTVSPost2010Prop30
280
     1
102
RTVSPost2010PropOp30
 70
     1
102
RTVSPost2010Prop31
280
     0
102
RTVSPost2010PropOp31
 70
     1
102
RTVSPost2010Prop32
280
     0
102
RTVSPost2010PropOp32
 70
     1
102
RTVSPost2010Prop33
280
     0
102
RTVSPost2010PropOp33
 70
     1
102
RTVSPost2010Prop34
280
     0
102
RTVSPost2010PropOp34
 70
     1
102
RTVSPost2010Prop35
280
     0
102
RTVSPost2010PropOp35
 70
     1
102
RTVSPost2010Prop36
280
     0
102
RTVSPost2010PropOp36
 70
     1
102
RTVSPost2010Prop37
 90
       50
102
RTVSPost2010PropOp37
 70
     1
102
RTVSPost2010Prop38
140
0.0
102
RTVSPost2010PropOp38
 70
     1
102
RTVSPost2010Prop39
140
1.0
102
RTVSPost2010PropOp39
 70
     1
102
RTVSPost2010Prop40
 90
        0
102
RTVSPost2010PropOp40
 70
     1
102
RTVSPost2010Prop41ColorIndex
 90
       18
102
RTVSPost2010Prop41ColorRGB
 90
        0
102
RTVSPost2010PropOp41
 70
     1
102
RTVSPost2010Prop42
 90
       50
102
RTVSPost2010PropOp42
 70
     1
102
RTVSPost2010Prop43
 90
        3
102
RTVSPost2010PropOp43
 70
     1
102
RTVSPost2010Prop44ColorIndex
 90
        5
102
RTVSPost2010Prop44ColorRGB
 90
      255
102
RTVSPost2010PropOp44
 70
     1
102
RTVSPost2010Prop45
280
     0
102
RTVSPost2010PropOp45
 70
     1
102
RTVSPost2010Prop46
 90
       50
102
RTVSPost2010PropOp46
 70
     1
102
RTVSPost2010Prop47
 90
       50
102
RTVSPost2010PropOp47
 70
     1
102
RTVSPost2010Prop48
 90
       50
102
RTVSPost2010PropOp48
 70
     1
102
RTVSPost2010Prop49
280
     0
102
RTVSPost2010PropOp49
 70
     1
102
RTVSPost2010Prop50
 90
       50
102
RTVSPost2010PropOp50
 70
     1
102
RTVSPost2010Prop51ColorIndex
 90
      256
102
RTVSPost2010Prop51ColorRGB
 90
-16777216
102
RTVSPost2010PropOp51
 70
     0
102
RTVSPost2010Prop52
140
1.0
102
RTVSPost2010PropOp52
 70
     0
102
RTVSPost2010Prop53
 90
        2
102
RTVSPost2010PropOp53
 70
     1
102
RTVSPost2010Prop54
  1
strokes_ogs.tif
102
RTVSPost2010PropOp54
 70
     1
102
RTVSPost2010Prop55
280
     0
102
RTVSPost2010PropOp55
 70
     1
102
RTVSPost2010Prop56
140
1.0
102
RTVSPost2010PropOp56
 70
     1
102
RTVSPost2010Prop57
140
1.0
102
RTVSPost2010PropOp57
 70
     1
  0
XRECORD
  5
3B9
102
{ACAD_REACTORS
330
3B8
102
}
330
3B8
100
AcDbXrecord
280
     1
102
RTVSPropertyOp0
 70
     1
102
RTVSPropertyOp1
 70
     1
102
RTVSPropertyOp2
 70
     1
102
RTVSPropertyOp3
 70
     1
102
RTVSPropertyOp4
 70
     1
102
RTVSPropertyOp5
 70
     1
102
RTVSPropertyOp6
 70
     1
102
RTVSPropertyOp7
 70
     1
102
RTVSPropertyOp8
 70
     1
102
RTVSPropertyOp9
 70
     1
102
RTVSPropertyOp10
 70
     1
102
RTVSPropertyOp11
 70
     1
102
RTVSPropertyOp12
 70
     1
102
RTVSPropertyOp13
 70
     1
102
RTVSPropertyOp14
 70
     1
102
RTVSPropertyOp15
 70
     1
102
RTVSPropertyOp16
 70
     1
102
RTVSPropertyOp17
 70
     1
102
RTVSPropertyOp18
 70
     1
102
RTVSPropertyOp19
 70
     1
102
RTVSPropertyOp20
 70
     1
102
RTVSPropertyOp21
 70
     1
102
RTVSPropertyOp22
 70
     1
102
RTVSPropertyOp23
 70
     1
102
RTVSPropertyOp24
 70
     1
102
RTVSPropertyOp25
 70
     1
102
RTVSPropertyOp26
 70
     1
102
RTVSPropertyOp27
 70
     1
102
RTVSPropertyOp28
 70
     1
102
RTVSPropertyOp29
 70
     1
102
RTVSPropertyOp30
 70
     1
102
RTVSPropertyOp31
 70
     1
102
RTVSPropertyOp32
 70
     1
102
RTVSPropertyOp33
 70
     1
102
RTVSPropertyOp34
 70
     1
102
RTVSPropertyOp35
 70
     1
102
RTVSPropertyOp36
 70
     1
102
RTVSPropertyOp37
 70
     1
102
RTVSPropertyOp38
 70
     1
102
RTVSPropertyOp39
 70
     1
102
RTVSPropertyOp40
 70
     1
102
RTVSPropertyOp41
 70
     1
102
RTVSPropertyOp42
 70
     1
102
RTVSPropertyOp43
 70
     1
102
RTVSPropertyOp44
 70
     1
102
RTVSPropertyOp45
 70
     1
102
RTVSPropertyOp46
 70
     1
102
RTVSPropertyOp47
 70
     1
102
RTVSPropertyOp48
 70
     1
102
RTVSPropertyOp49
 70
     1
102
RTVSPropertyOp50
 70
     1
102
RTVSPropertyOp51
 70
     0
102
RTVSPropertyOp52
 70
     0
102
RTVSPropertyOp53
 70
     1
102
RTVSPropertyOp54
 70
     1
102
RTVSPropertyOp55
 70
     1
102
RTVSPropertyOp56
 70
     1
102
RTVSPropertyOp57
 70
     1
102
RTVSPost2010Prop28
280
     0
102
RTVSPost2010PropOp28
 70
     1
102
RTVSPost2010Prop29
280
     1
102
RTVSPost2010PropOp29
 70
     1
102
RTVSPost2010Prop30
280
     1
102
RTVSPost2010PropOp30
 70
     1
102
RTVSPost2010Prop31
280
     0
102
RTVSPost2010PropOp31
 70
     1
102
RTVSPost2010Prop32
280
     0
102
RTVSPost2010PropOp32
 70
     1
102
RTVSPost2010Prop33
280
     0
102
RTVSPost2010PropOp33
 70
     1
102
RTVSPost2010Prop34
280
     0
102
RTVSPost2010PropOp34
 70
     1
102
RTVSPost2010Prop35
280
     0
102
RTVSPost2010PropOp35
 70
     1
102
RTVSPost2010Prop36
280
     0
102
RTVSPost2010PropOp36
 70
     1
102
RTVSPost2010Prop37
 90
       50
102
RTVSPost2010PropOp37
 70
     1
102
RTVSPost2010Prop38
140
0.0
102
RTVSPost2010PropOp38
 70
     1
102
RTVSPost2010Prop39
140
1.0
102
RTVSPost2010PropOp39
 70
     1
102
RTVSPost2010Prop40
 90
        0
102
RTVSPost2010PropOp40
 70
     1
102
RTVSPost2010Prop41ColorIndex
 90
       18
102
RTVSPost2010Prop41ColorRGB
 90
        0
102
RTVSPost2010PropOp41
 70
     1
102
RTVSPost2010Prop42
 90
       50
102
RTVSPost2010PropOp42
 70
     1
102
RTVSPost2010Prop43
 90
        3
102
RTVSPost2010PropOp43
 70
     1
102
RTVSPost2010Prop44ColorIndex
 90
        5
102
RTVSPost2010Prop44ColorRGB
 90
      255
102
RTVSPost2010PropOp44
 70
     1
102
RTVSPost2010Prop45
280
     0
102
RTVSPost2010PropOp45
 70
     1
102
RTVSPost2010Prop46
 90
       50
102
RTVSPost2010PropOp46
 70
     1
102
RTVSPost2010Prop47
 90
       50
102
RTVSPost2010PropOp47
 70
     1
102
RTVSPost2010Prop48
 90
       50
102
RTVSPost2010PropOp48
 70
     1
102
RTVSPost2010Prop49
280
     0
102
RTVSPost2010PropOp49
 70
     1
102
RTVSPost2010Prop50
 90
       50
102
RTVSPost2010PropOp50
 70
     1
102
RTVSPost2010Prop51ColorIndex
 90
      256
102
RTVSPost2010Prop51ColorRGB
 90
-16777216
102
RTVSPost2010PropOp51
 70
     0
102
RTVSPost2010Prop52
140
1.0
102
RTVSPost2010PropOp52
 70
     0
102
RTVSPost2010Prop53
 90
        2
102
RTVSPost2010PropOp53
 70
     1
102
RTVSPost2010Prop54
  1
strokes_ogs.tif
102
RTVSPost2010PropOp54
 70
     1
102
RTVSPost2010Prop55
280
     0
102
RTVSPost2010PropOp55
 70
     1
102
RTVSPost2010Prop56
140
1.0
102
RTVSPost2010PropOp56
 70
     1
102
RTVSPost2010Prop57
140
1.0
102
RTVSPost2010PropOp57
 70
     1
  0
XRECORD
  5
3BB
102
{ACAD_REACTORS
330
3BA
102
}
330
3BA
100
AcDbXrecord
280
     1
102
RTVSPropertyOp0
 70
     1
102
RTVSPropertyOp1
 70
     1
102
RTVSPropertyOp2
 70
     1
102
RTVSPropertyOp3
 70
     1
102
RTVSPropertyOp4
 70
     1
102
RTVSPropertyOp5
 70
     1
102
RTVSPropertyOp6
 70
     1
102
RTVSPropertyOp7
 70
     1
102
RTVSPropertyOp8
 70
     1
102
RTVSPropertyOp9
 70
     1
102
RTVSPropertyOp10
 70
     1
102
RTVSPropertyOp11
 70
     1
102
RTVSPropertyOp12
 70
     1
102
RTVSPropertyOp13
 70
     1
102
RTVSPropertyOp14
 70
     1
102
RTVSPropertyOp15
 70
     1
102
RTVSPropertyOp16
 70
     1
102
RTVSPropertyOp17
 70
     1
102
RTVSPropertyOp18
 70
     1
102
RTVSPropertyOp19
 70
     1
102
RTVSPropertyOp20
 70
     1
102
RTVSPropertyOp21
 70
     1
102
RTVSPropertyOp22
 70
     1
102
RTVSPropertyOp23
 70
     1
102
RTVSPropertyOp24
 70
     1
102
RTVSPropertyOp25
 70
     1
102
RTVSPropertyOp26
 70
     1
102
RTVSPropertyOp27
 70
     1
102
RTVSPropertyOp28
 70
     1
102
RTVSPropertyOp29
 70
     1
102
RTVSPropertyOp30
 70
     1
102
RTVSPropertyOp31
 70
     1
102
RTVSPropertyOp32
 70
     1
102
RTVSPropertyOp33
 70
     1
102
RTVSPropertyOp34
 70
     1
102
RTVSPropertyOp35
 70
     1
102
RTVSPropertyOp36
 70
     1
102
RTVSPropertyOp37
 70
     1
102
RTVSPropertyOp38
 70
     1
102
RTVSPropertyOp39
 70
     1
102
RTVSPropertyOp40
 70
     1
102
RTVSPropertyOp41
 70
     1
102
RTVSPropertyOp42
 70
     1
102
RTVSPropertyOp43
 70
     1
102
RTVSPropertyOp44
 70
     1
102
RTVSPropertyOp45
 70
     1
102
RTVSPropertyOp46
 70
     1
102
RTVSPropertyOp47
 70
     1
102
RTVSPropertyOp48
 70
     1
102
RTVSPropertyOp49
 70
     1
102
RTVSPropertyOp50
 70
     1
102
RTVSPropertyOp51
 70
     0
102
RTVSPropertyOp52
 70
     0
102
RTVSPropertyOp53
 70
     1
102
RTVSPropertyOp54
 70
     1
102
RTVSPropertyOp55
 70
     1
102
RTVSPropertyOp56
 70
     1
102
RTVSPropertyOp57
 70
     1
102
RTVSPost2010Prop28
280
     0
102
RTVSPost2010PropOp28
 70
     1
102
RTVSPost2010Prop29
280
     1
102
RTVSPost2010PropOp29
 70
     1
102
RTVSPost2010Prop30
280
     1
102
RTVSPost2010PropOp30
 70
     1
102
RTVSPost2010Prop31
280
     0
102
RTVSPost2010PropOp31
 70
     1
102
RTVSPost2010Prop32
280
     0
102
RTVSPost2010PropOp32
 70
     1
102
RTVSPost2010Prop33
280
     0
102
RTVSPost2010PropOp33
 70
     1
102
RTVSPost2010Prop34
280
     0
102
RTVSPost2010PropOp34
 70
     1
102
RTVSPost2010Prop35
280
     0
102
RTVSPost2010PropOp35
 70
     1
102
RTVSPost2010Prop36
280
     0
102
RTVSPost2010PropOp36
 70
     1
102
RTVSPost2010Prop37
 90
       50
102
RTVSPost2010PropOp37
 70
     1
102
RTVSPost2010Prop38
140
0.0
102
RTVSPost2010PropOp38
 70
     1
102
RTVSPost2010Prop39
140
1.0
102
RTVSPost2010PropOp39
 70
     1
102
RTVSPost2010Prop40
 90
        0
102
RTVSPost2010PropOp40
 70
     1
102
RTVSPost2010Prop41ColorIndex
 90
       18
102
RTVSPost2010Prop41ColorRGB
 90
        0
102
RTVSPost2010PropOp41
 70
     1
102
RTVSPost2010Prop42
 90
       50
102
RTVSPost2010PropOp42
 70
     1
102
RTVSPost2010Prop43
 90
        3
102
RTVSPost2010PropOp43
 70
     1
102
RTVSPost2010Prop44ColorIndex
 90
        5
102
RTVSPost2010Prop44ColorRGB
 90
      255
102
RTVSPost2010PropOp44
 70
     1
102
RTVSPost2010Prop45
280
     0
102
RTVSPost2010PropOp45
 70
     1
102
RTVSPost2010Prop46
 90
       50
102
RTVSPost2010PropOp46
 70
     1
102
RTVSPost2010Prop47
 90
       50
102
RTVSPost2010PropOp47
 70
     1
102
RTVSPost2010Prop48
 90
       50
102
RTVSPost2010PropOp48
 70
     1
102
RTVSPost2010Prop49
280
     0
102
RTVSPost2010PropOp49
 70
     1
102
RTVSPost2010Prop50
 90
       50
102
RTVSPost2010PropOp50
 70
     1
102
RTVSPost2010Prop51ColorIndex
 90
      256
102
RTVSPost2010Prop51ColorRGB
 90
-16777216
102
RTVSPost2010PropOp51
 70
     0
102
RTVSPost2010Prop52
140
1.0
102
RTVSPost2010PropOp52
 70
     0
102
RTVSPost2010Prop53
 90
        2
102
RTVSPost2010PropOp53
 70
     1
102
RTVSPost2010Prop54
  1
strokes_ogs.tif
102
RTVSPost2010PropOp54
 70
     1
102
RTVSPost2010Prop55
280
     0
102
RTVSPost2010PropOp55
 70
     1
102
RTVSPost2010Prop56
140
1.0
102
RTVSPost2010PropOp56
 70
     1
102
RTVSPost2010Prop57
140
1.0
102
RTVSPost2010PropOp57
 70
     1
  0
XRECORD
  5
3AB
102
{ACAD_REACTORS
330
3AA
102
}
330
3AA
100
AcDbXrecord
280
     1
102
RTVSPropertyOp0
 70
     1
102
RTVSPropertyOp1
 70
     1
102
RTVSPropertyOp2
 70
     1
102
RTVSPropertyOp3
 70
     1
102
RTVSPropertyOp4
 70
     1
102
RTVSPropertyOp5
 70
     1
102
RTVSPropertyOp6
 70
     1
102
RTVSPropertyOp7
 70
     1
102
RTVSPropertyOp8
 70
     1
102
RTVSPropertyOp9
 70
     1
102
RTVSPropertyOp10
 70
     1
102
RTVSPropertyOp11
 70
     1
102
RTVSPropertyOp12
 70
     1
102
RTVSPropertyOp13
 70
     1
102
RTVSPropertyOp14
 70
     1
102
RTVSPropertyOp15
 70
     1
102
RTVSPropertyOp16
 70
     1
102
RTVSPropertyOp17
 70
     1
102
RTVSPropertyOp18
 70
     1
102
RTVSPropertyOp19
 70
     1
102
RTVSPropertyOp20
 70
     1
102
RTVSPropertyOp21
 70
     1
102
RTVSPropertyOp22
 70
     1
102
RTVSPropertyOp23
 70
     1
102
RTVSPropertyOp24
 70
     1
102
RTVSPropertyOp25
 70
     1
102
RTVSPropertyOp26
 70
     1
102
RTVSPropertyOp27
 70
     1
102
RTVSPropertyOp28
 70
     1
102
RTVSPropertyOp29
 70
     1
102
RTVSPropertyOp30
 70
     1
102
RTVSPropertyOp31
 70
     1
102
RTVSPropertyOp32
 70
     1
102
RTVSPropertyOp33
 70
     1
102
RTVSPropertyOp34
 70
     1
102
RTVSPropertyOp35
 70
     1
102
RTVSPropertyOp36
 70
     1
102
RTVSPropertyOp37
 70
     1
102
RTVSPropertyOp38
 70
     1
102
RTVSPropertyOp39
 70
     1
102
RTVSPropertyOp40
 70
     1
102
RTVSPropertyOp41
 70
     1
102
RTVSPropertyOp42
 70
     1
102
RTVSPropertyOp43
 70
     1
102
RTVSPropertyOp44
 70
     1
102
RTVSPropertyOp45
 70
     1
102
RTVSPropertyOp46
 70
     1
102
RTVSPropertyOp47
 70
     1
102
RTVSPropertyOp48
 70
     1
102
RTVSPropertyOp49
 70
     1
102
RTVSPropertyOp50
 70
     1
102
RTVSPropertyOp51
 70
     0
102
RTVSPropertyOp52
 70
     0
102
RTVSPropertyOp53
 70
     1
102
RTVSPropertyOp54
 70
     1
102
RTVSPropertyOp55
 70
     1
102
RTVSPropertyOp56
 70
     1
102
RTVSPropertyOp57
 70
     1
102
RTVSPost2010Prop28
280
     0
102
RTVSPost2010PropOp28
 70
     1
102
RTVSPost2010Prop29
280
     1
102
RTVSPost2010PropOp29
 70
     1
102
RTVSPost2010Prop30
280
     1
102
RTVSPost2010PropOp30
 70
     1
102
RTVSPost2010Prop31
280
     0
102
RTVSPost2010PropOp31
 70
     1
102
RTVSPost2010Prop32
280
     0
102
RTVSPost2010PropOp32
 70
     1
102
RTVSPost2010Prop33
280
     0
102
RTVSPost2010PropOp33
 70
     1
102
RTVSPost2010Prop34
280
     0
102
RTVSPost2010PropOp34
 70
     1
102
RTVSPost2010Prop35
280
     0
102
RTVSPost2010PropOp35
 70
     1
102
RTVSPost2010Prop36
280
     0
102
RTVSPost2010PropOp36
 70
     1
102
RTVSPost2010Prop37
 90
       50
102
RTVSPost2010PropOp37
 70
     1
102
RTVSPost2010Prop38
140
0.0
102
RTVSPost2010PropOp38
 70
     1
102
RTVSPost2010Prop39
140
1.0
102
RTVSPost2010PropOp39
 70
     1
102
RTVSPost2010Prop40
 90
        0
102
RTVSPost2010PropOp40
 70
     1
102
RTVSPost2010Prop41ColorIndex
 90
       18
102
RTVSPost2010Prop41ColorRGB
 90
        0
102
RTVSPost2010PropOp41
 70
     1
102
RTVSPost2010Prop42
 90
       50
102
RTVSPost2010PropOp42
 70
     1
102
RTVSPost2010Prop43
 90
        3
102
RTVSPost2010PropOp43
 70
     1
102
RTVSPost2010Prop44ColorIndex
 90
        5
102
RTVSPost2010Prop44ColorRGB
 90
      255
102
RTVSPost2010PropOp44
 70
     1
102
RTVSPost2010Prop45
280
     0
102
RTVSPost2010PropOp45
 70
     1
102
RTVSPost2010Prop46
 90
       50
102
RTVSPost2010PropOp46
 70
     1
102
RTVSPost2010Prop47
 90
       50
102
RTVSPost2010PropOp47
 70
     1
102
RTVSPost2010Prop48
 90
       50
102
RTVSPost2010PropOp48
 70
     1
102
RTVSPost2010Prop49
280
     0
102
RTVSPost2010PropOp49
 70
     1
102
RTVSPost2010Prop50
 90
       50
102
RTVSPost2010PropOp50
 70
     1
102
RTVSPost2010Prop51ColorIndex
 90
      256
102
RTVSPost2010Prop51ColorRGB
 90
-16777216
102
RTVSPost2010PropOp51
 70
     0
102
RTVSPost2010Prop52
140
1.0
102
RTVSPost2010PropOp52
 70
     0
102
RTVSPost2010Prop53
 90
        2
102
RTVSPost2010PropOp53
 70
     1
102
RTVSPost2010Prop54
  1
strokes_ogs.tif
102
RTVSPost2010PropOp54
 70
     1
102
RTVSPost2010Prop55
280
     0
102
RTVSPost2010PropOp55
 70
     1
102
RTVSPost2010Prop56
140
1.0
102
RTVSPost2010PropOp56
 70
     1
102
RTVSPost2010Prop57
140
1.0
102
RTVSPost2010PropOp57
 70
     1
  0
XRECORD
  5
39D
102
{ACAD_REACTORS
330
39C
102
}
330
39C
100
AcDbXrecord
280
     1
102
RTVSPropertyOp0
 70
     1
102
RTVSPropertyOp1
 70
     1
102
RTVSPropertyOp2
 70
     1
102
RTVSPropertyOp3
 70
     1
102
RTVSPropertyOp4
 70
     1
102
RTVSPropertyOp5
 70
     1
102
RTVSPropertyOp6
 70
     1
102
RTVSPropertyOp7
 70
     1
102
RTVSPropertyOp8
 70
     1
102
RTVSPropertyOp9
 70
     1
102
RTVSPropertyOp10
 70
     1
102
RTVSPropertyOp11
 70
     1
102
RTVSPropertyOp12
 70
     1
102
RTVSPropertyOp13
 70
     1
102
RTVSPropertyOp14
 70
     1
102
RTVSPropertyOp15
 70
     1
102
RTVSPropertyOp16
 70
     1
102
RTVSPropertyOp17
 70
     1
102
RTVSPropertyOp18
 70
     1
102
RTVSPropertyOp19
 70
     1
102
RTVSPropertyOp20
 70
     1
102
RTVSPropertyOp21
 70
     1
102
RTVSPropertyOp22
 70
     1
102
RTVSPropertyOp23
 70
     1
102
RTVSPropertyOp24
 70
     1
102
RTVSPropertyOp25
 70
     1
102
RTVSPropertyOp26
 70
     1
102
RTVSPropertyOp27
 70
     1
102
RTVSPropertyOp28
 70
     1
102
RTVSPropertyOp29
 70
     1
102
RTVSPropertyOp30
 70
     1
102
RTVSPropertyOp31
 70
     1
102
RTVSPropertyOp32
 70
     1
102
RTVSPropertyOp33
 70
     1
102
RTVSPropertyOp34
 70
     1
102
RTVSPropertyOp35
 70
     1
102
RTVSPropertyOp36
 70
     1
102
RTVSPropertyOp37
 70
     1
102
RTVSPropertyOp38
 70
     1
102
RTVSPropertyOp39
 70
     1
102
RTVSPropertyOp40
 70
     1
102
RTVSPropertyOp41
 70
     1
102
RTVSPropertyOp42
 70
     1
102
RTVSPropertyOp43
 70
     1
102
RTVSPropertyOp44
 70
     1
102
RTVSPropertyOp45
 70
     1
102
RTVSPropertyOp46
 70
     1
102
RTVSPropertyOp47
 70
     1
102
RTVSPropertyOp48
 70
     1
102
RTVSPropertyOp49
 70
     1
102
RTVSPropertyOp50
 70
     1
102
RTVSPropertyOp51
 70
     0
102
RTVSPropertyOp52
 70
     0
102
RTVSPropertyOp53
 70
     1
102
RTVSPropertyOp54
 70
     1
102
RTVSPropertyOp55
 70
     1
102
RTVSPropertyOp56
 70
     1
102
RTVSPropertyOp57
 70
     1
102
RTVSPost2010Prop28
280
     0
102
RTVSPost2010PropOp28
 70
     1
102
RTVSPost2010Prop29
280
     1
102
RTVSPost2010PropOp29
 70
     1
102
RTVSPost2010Prop30
280
     1
102
RTVSPost2010PropOp30
 70
     1
102
RTVSPost2010Prop31
280
     0
102
RTVSPost2010PropOp31
 70
     1
102
RTVSPost2010Prop32
280
     0
102
RTVSPost2010PropOp32
 70
     1
102
RTVSPost2010Prop33
280
     0
102
RTVSPost2010PropOp33
 70
     1
102
RTVSPost2010Prop34
280
     0
102
RTVSPost2010PropOp34
 70
     1
102
RTVSPost2010Prop35
280
     0
102
RTVSPost2010PropOp35
 70
     1
102
RTVSPost2010Prop36
280
     0
102
RTVSPost2010PropOp36
 70
     1
102
RTVSPost2010Prop37
 90
       50
102
RTVSPost2010PropOp37
 70
     1
102
RTVSPost2010Prop38
140
0.0
102
RTVSPost2010PropOp38
 70
     1
102
RTVSPost2010Prop39
140
1.0
102
RTVSPost2010PropOp39
 70
     1
102
RTVSPost2010Prop40
 90
        0
102
RTVSPost2010PropOp40
 70
     1
102
RTVSPost2010Prop41ColorIndex
 90
       18
102
RTVSPost2010Prop41ColorRGB
 90
        0
102
RTVSPost2010PropOp41
 70
     1
102
RTVSPost2010Prop42
 90
       50
102
RTVSPost2010PropOp42
 70
     1
102
RTVSPost2010Prop43
 90
        3
102
RTVSPost2010PropOp43
 70
     1
102
RTVSPost2010Prop44ColorIndex
 90
        5
102
RTVSPost2010Prop44ColorRGB
 90
      255
102
RTVSPost2010PropOp44
 70
     1
102
RTVSPost2010Prop45
280
     0
102
RTVSPost2010PropOp45
 70
     1
102
RTVSPost2010Prop46
 90
       50
102
RTVSPost2010PropOp46
 70
     1
102
RTVSPost2010Prop47
 90
       50
102
RTVSPost2010PropOp47
 70
     1
102
RTVSPost2010Prop48
 90
       50
102
RTVSPost2010PropOp48
 70
     1
102
RTVSPost2010Prop49
280
     0
102
RTVSPost2010PropOp49
 70
     1
102
RTVSPost2010Prop50
 90
       50
102
RTVSPost2010PropOp50
 70
     1
102
RTVSPost2010Prop51ColorIndex
 90
      256
102
RTVSPost2010Prop51ColorRGB
 90
-16777216
102
RTVSPost2010PropOp51
 70
     0
102
RTVSPost2010Prop52
140
1.0
102
RTVSPost2010PropOp52
 70
     0
102
RTVSPost2010Prop53
 90
        2
102
RTVSPost2010PropOp53
 70
     1
102
RTVSPost2010Prop54
  1
strokes_ogs.tif
102
RTVSPost2010PropOp54
 70
     1
102
RTVSPost2010Prop55
280
     0
102
RTVSPost2010PropOp55
 70
     1
102
RTVSPost2010Prop56
140
1.0
102
RTVSPost2010PropOp56
 70
     1
102
RTVSPost2010Prop57
140
1.0
102
RTVSPost2010PropOp57
 70
     1
  0
XRECORD
  5
3BD
102
{ACAD_REACTORS
330
3BC
102
}
330
3BC
100
AcDbXrecord
280
     1
102
RTVSPropertyOp0
 70
     1
102
RTVSPropertyOp1
 70
     1
102
RTVSPropertyOp2
 70
     1
102
RTVSPropertyOp3
 70
     1
102
RTVSPropertyOp4
 70
     1
102
RTVSPropertyOp5
 70
     1
102
RTVSPropertyOp6
 70
     1
102
RTVSPropertyOp7
 70
     1
102
RTVSPropertyOp8
 70
     1
102
RTVSPropertyOp9
 70
     1
102
RTVSPropertyOp10
 70
     1
102
RTVSPropertyOp11
 70
     1
102
RTVSPropertyOp12
 70
     1
102
RTVSPropertyOp13
 70
     1
102
RTVSPropertyOp14
 70
     1
102
RTVSPropertyOp15
 70
     1
102
RTVSPropertyOp16
 70
     1
102
RTVSPropertyOp17
 70
     1
102
RTVSPropertyOp18
 70
     1
102
RTVSPropertyOp19
 70
     1
102
RTVSPropertyOp20
 70
     1
102
RTVSPropertyOp21
 70
     1
102
RTVSPropertyOp22
 70
     1
102
RTVSPropertyOp23
 70
     1
102
RTVSPropertyOp24
 70
     1
102
RTVSPropertyOp25
 70
     1
102
RTVSPropertyOp26
 70
     1
102
RTVSPropertyOp27
 70
     1
102
RTVSPropertyOp28
 70
     1
102
RTVSPropertyOp29
 70
     1
102
RTVSPropertyOp30
 70
     1
102
RTVSPropertyOp31
 70
     1
102
RTVSPropertyOp32
 70
     1
102
RTVSPropertyOp33
 70
     1
102
RTVSPropertyOp34
 70
     1
102
RTVSPropertyOp35
 70
     1
102
RTVSPropertyOp36
 70
     1
102
RTVSPropertyOp37
 70
     1
102
RTVSPropertyOp38
 70
     1
102
RTVSPropertyOp39
 70
     1
102
RTVSPropertyOp40
 70
     1
102
RTVSPropertyOp41
 70
     1
102
RTVSPropertyOp42
 70
     1
102
RTVSPropertyOp43
 70
     1
102
RTVSPropertyOp44
 70
     1
102
RTVSPropertyOp45
 70
     1
102
RTVSPropertyOp46
 70
     1
102
RTVSPropertyOp47
 70
     1
102
RTVSPropertyOp48
 70
     1
102
RTVSPropertyOp49
 70
     1
102
RTVSPropertyOp50
 70
     1
102
RTVSPropertyOp51
 70
     0
102
RTVSPropertyOp52
 70
     0
102
RTVSPropertyOp53
 70
     1
102
RTVSPropertyOp54
 70
     1
102
RTVSPropertyOp55
 70
     1
102
RTVSPropertyOp56
 70
     1
102
RTVSPropertyOp57
 70
     1
102
RTVSPost2010Prop28
280
     0
102
RTVSPost2010PropOp28
 70
     1
102
RTVSPost2010Prop29
280
     1
102
RTVSPost2010PropOp29
 70
     1
102
RTVSPost2010Prop30
280
     1
102
RTVSPost2010PropOp30
 70
     1
102
RTVSPost2010Prop31
280
     0
102
RTVSPost2010PropOp31
 70
     1
102
RTVSPost2010Prop32
280
     0
102
RTVSPost2010PropOp32
 70
     1
102
RTVSPost2010Prop33
280
     0
102
RTVSPost2010PropOp33
 70
     1
102
RTVSPost2010Prop34
280
     0
102
RTVSPost2010PropOp34
 70
     1
102
RTVSPost2010Prop35
280
     0
102
RTVSPost2010PropOp35
 70
     1
102
RTVSPost2010Prop36
280
     0
102
RTVSPost2010PropOp36
 70
     1
102
RTVSPost2010Prop37
 90
       50
102
RTVSPost2010PropOp37
 70
     1
102
RTVSPost2010Prop38
140
0.0
102
RTVSPost2010PropOp38
 70
     1
102
RTVSPost2010Prop39
140
1.0
102
RTVSPost2010PropOp39
 70
     1
102
RTVSPost2010Prop40
 90
        0
102
RTVSPost2010PropOp40
 70
     1
102
RTVSPost2010Prop41ColorIndex
 90
       18
102
RTVSPost2010Prop41ColorRGB
 90
        0
102
RTVSPost2010PropOp41
 70
     1
102
RTVSPost2010Prop42
 90
       50
102
RTVSPost2010PropOp42
 70
     1
102
RTVSPost2010Prop43
 90
        3
102
RTVSPost2010PropOp43
 70
     1
102
RTVSPost2010Prop44ColorIndex
 90
        5
102
RTVSPost2010Prop44ColorRGB
 90
      255
102
RTVSPost2010PropOp44
 70
     1
102
RTVSPost2010Prop45
280
     0
102
RTVSPost2010PropOp45
 70
     1
102
RTVSPost2010Prop46
 90
       50
102
RTVSPost2010PropOp46
 70
     1
102
RTVSPost2010Prop47
 90
       50
102
RTVSPost2010PropOp47
 70
     1
102
RTVSPost2010Prop48
 90
       50
102
RTVSPost2010PropOp48
 70
     1
102
RTVSPost2010Prop49
280
     0
102
RTVSPost2010PropOp49
 70
     1
102
RTVSPost2010Prop50
 90
       50
102
RTVSPost2010PropOp50
 70
     1
102
RTVSPost2010Prop51ColorIndex
 90
      256
102
RTVSPost2010Prop51ColorRGB
 90
-16777216
102
RTVSPost2010PropOp51
 70
     0
102
RTVSPost2010Prop52
140
1.0
102
RTVSPost2010PropOp52
 70
     0
102
RTVSPost2010Prop53
 90
        2
102
RTVSPost2010PropOp53
 70
     1
102
RTVSPost2010Prop54
  1
strokes_ogs.tif
102
RTVSPost2010PropOp54
 70
     1
102
RTVSPost2010Prop55
280
     0
102
RTVSPost2010PropOp55
 70
     1
102
RTVSPost2010Prop56
140
1.0
102
RTVSPost2010PropOp56
 70
     1
102
RTVSPost2010Prop57
140
1.0
102
RTVSPost2010PropOp57
 70
     1
  0
ENDSEC
  0
EOF
